  0
SECTION
  2
HEADER
  9
$ACADVER
  1
AC1015
  9
$ACADMAINTVER
 70
     6
  9
$DWGCODEPAGE
  3
ANSI_949
  9
$INSBASE
 10
0.0
 20
0.0
 30
0.0
  9
$EXTMIN
 10
1.000000000000000E+20
 20
1.000000000000000E+20
 30
1.000000000000000E+20
  9
$EXTMAX
 10
-1.000000000000000E+20
 20
-1.000000000000000E+20
 30
-1.000000000000000E+20
  9
$LIMMIN
 10
0.0
 20
0.0
  9
$LIMMAX
 10
420.0
 20
297.0
  9
$ORTHOMODE
 70
     1
  9
$REGENMODE
 70
     1
  9
$FILLMODE
 70
     1
  9
$QTEXTMODE
 70
     0
  9
$MIRRTEXT
 70
     1
  9
$LTSCALE
 40
1.0
  9
$ATTMODE
 70
     1
  9
$TEXTSIZE
 40
3.5
  9
$TRACEWID
 40
1.0
  9
$TEXTSTYLE
  7
Standard
  9
$CLAYER
  8
0
  9
$CELTYPE
  6
ByLayer
  9
$CECOLOR
 62
   256
  9
$CELTSCALE
 40
1.0
  9
$DISPSILH
 70
     0
  9
$DIMSCALE
 40
1.0
  9
$DIMASZ
 40
3.302
  9
$DIMEXO
 40
1.0
  9
$DIMDLI
 40
3.75
  9
$DIMRND
 40
0.0
  9
$DIMDLE
 40
0.0
  9
$DIMEXE
 40
1.0
  9
$DIMTP
 40
0.0
  9
$DIMTM
 40
0.0
  9
$DIMTXT
 40
3.5
  9
$DIMCEN
 40
2.5
  9
$DIMTSZ
 40
0.0
  9
$DIMTOL
 70
     0
  9
$DIMLIM
 70
     0
  9
$DIMTIH
 70
     1
  9
$DIMTOH
 70
     1
  9
$DIMSE1
 70
     0
  9
$DIMSE2
 70
     0
  9
$DIMTAD
 70
     1
  9
$DIMZIN
 70
     0
  9
$DIMBLK
  1

  9
$DIMASO
 70
     1
  9
$DIMSHO
 70
     1
  9
$DIMPOST
  1

  9
$DIMAPOST
  1

  9
$DIMALT
 70
     0
  9
$DIMALTD
 70
     3
  9
$DIMALTF
 40
0.0393700787401575
  9
$DIMLFAC
 40
1.0
  9
$DIMTOFL
 70
     1
  9
$DIMTVP
 40
0.0
  9
$DIMTIX
 70
     0
  9
$DIMSOXD
 70
     0
  9
$DIMSAH
 70
     0
  9
$DIMBLK1
  1

  9
$DIMBLK2
  1

  9
$DIMSTYLE
  2
ISO-25
  9
$DIMCLRD
 70
     0
  9
$DIMCLRE
 70
     0
  9
$DIMCLRT
 70
     0
  9
$DIMTFAC
 40
1.0
  9
$DIMGAP
 40
1.524
  9
$DIMJUST
 70
     0
  9
$DIMSD1
 70
     0
  9
$DIMSD2
 70
     0
  9
$DIMTOLJ
 70
     0
  9
$DIMTZIN
 70
     0
  9
$DIMALTZ
 70
     0
  9
$DIMALTTZ
 70
     0
  9
$DIMUPT
 70
     0
  9
$DIMDEC
 70
     2
  9
$DIMTDEC
 70
     2
  9
$DIMALTU
 70
     2
  9
$DIMALTTD
 70
     3
  9
$DIMTXSTY
  7
Standard
  9
$DIMAUNIT
 70
     0
  9
$DIMADEC
 70
     2
  9
$DIMALTRND
 40
0.0
  9
$DIMAZIN
 70
     0
  9
$DIMDSEP
 70
    44
  9
$DIMATFIT
 70
     3
  9
$DIMFRAC
 70
     0
  9
$DIMLDRBLK
  1

  9
$DIMLUNIT
 70
     2
  9
$DIMLWD
 70
    -2
  9
$DIMLWE
 70
    -2
  9
$DIMTMOVE
 70
     0
  9
$LUNITS
 70
     2
  9
$LUPREC
 70
     2
  9
$SKETCHINC
 40
1.0
  9
$FILLETRAD
 40
10.0
  9
$AUNITS
 70
     0
  9
$AUPREC
 70
     2
  9
$MENU
  1
.
  9
$ELEVATION
 40
0.0
  9
$PELEVATION
 40
0.0
  9
$THICKNESS
 40
0.0
  9
$LIMCHECK
 70
     0
  9
$CHAMFERA
 40
0.0
  9
$CHAMFERB
 40
0.0
  9
$CHAMFERC
 40
0.0
  9
$CHAMFERD
 40
0.0
  9
$SKPOLY
 70
     0
  9
$TDCREATE
 40
2458313.471448218
  9
$TDUCREATE
 40
2458313.096448218
  9
$TDUPDATE
 40
2458319.357421701
  9
$TDUUPDATE
 40
2458318.982421701
  9
$TDINDWG
 40
0.0025309028
  9
$TDUSRTIMER
 40
2458318.982210475
  9
$USRTIMER
 70
     1
  9
$ANGBASE
 50
0.0
  9
$ANGDIR
 70
     0
  9
$PDMODE
 70
     0
  9
$PDSIZE
 40
-1.0
  9
$PLINEWID
 40
0.0
  9
$SPLFRAME
 70
     0
  9
$SPLINETYPE
 70
     6
  9
$SPLINESEGS
 70
     8
  9
$HANDSEED
  5
4B9
  9
$SURFTAB1
 70
     6
  9
$SURFTAB2
 70
     6
  9
$SURFTYPE
 70
     6
  9
$SURFU
 70
     6
  9
$SURFV
 70
     6
  9
$UCSBASE
  2

  9
$UCSNAME
  2

  9
$UCSORG
 10
0.0
 20
0.0
 30
0.0
  9
$UCSXDIR
 10
1.0
 20
0.0
 30
0.0
  9
$UCSYDIR
 10
0.0
 20
1.0
 30
0.0
  9
$UCSORTHOREF
  2

  9
$UCSORTHOVIEW
 70
     0
  9
$UCSORGTOP
 10
0.0
 20
0.0
 30
0.0
  9
$UCSORGBOTTOM
 10
0.0
 20
0.0
 30
0.0
  9
$UCSORGLEFT
 10
0.0
 20
0.0
 30
0.0
  9
$UCSORGRIGHT
 10
0.0
 20
0.0
 30
0.0
  9
$UCSORGFRONT
 10
0.0
 20
0.0
 30
0.0
  9
$UCSORGBACK
 10
0.0
 20
0.0
 30
0.0
  9
$PUCSBASE
  2

  9
$PUCSNAME
  2

  9
$PUCSORG
 10
0.0
 20
0.0
 30
0.0
  9
$PUCSXDIR
 10
1.0
 20
0.0
 30
0.0
  9
$PUCSYDIR
 10
0.0
 20
1.0
 30
0.0
  9
$PUCSORTHOREF
  2

  9
$PUCSORTHOVIEW
 70
     0
  9
$PUCSORGTOP
 10
0.0
 20
0.0
 30
0.0
  9
$PUCSORGBOTTOM
 10
0.0
 20
0.0
 30
0.0
  9
$PUCSORGLEFT
 10
0.0
 20
0.0
 30
0.0
  9
$PUCSORGRIGHT
 10
0.0
 20
0.0
 30
0.0
  9
$PUCSORGFRONT
 10
0.0
 20
0.0
 30
0.0
  9
$PUCSORGBACK
 10
0.0
 20
0.0
 30
0.0
  9
$USERI1
 70
     0
  9
$USERI2
 70
     0
  9
$USERI3
 70
     0
  9
$USERI4
 70
     0
  9
$USERI5
 70
     0
  9
$USERR1
 40
0.0
  9
$USERR2
 40
0.0
  9
$USERR3
 40
0.0
  9
$USERR4
 40
0.0
  9
$USERR5
 40
0.0
  9
$WORLDVIEW
 70
     1
  9
$SHADEDGE
 70
     3
  9
$SHADEDIF
 70
    70
  9
$TILEMODE
 70
     1
  9
$MAXACTVP
 70
    64
  9
$PINSBASE
 10
0.0
 20
0.0
 30
0.0
  9
$PLIMCHECK
 70
     0
  9
$PEXTMIN
 10
1.000000000000000E+20
 20
1.000000000000000E+20
 30
1.000000000000000E+20
  9
$PEXTMAX
 10
-1.000000000000000E+20
 20
-1.000000000000000E+20
 30
-1.000000000000000E+20
  9
$PLIMMIN
 10
0.0
 20
0.0
  9
$PLIMMAX
 10
0.0
 20
0.0
  9
$UNITMODE
 70
     0
  9
$VISRETAIN
 70
     1
  9
$PLINEGEN
 70
     0
  9
$PSLTSCALE
 70
     1
  9
$TREEDEPTH
 70
  3020
  9
$CMLSTYLE
  2
Standard
  9
$CMLJUST
 70
     0
  9
$CMLSCALE
 40
20.0
  9
$PROXYGRAPHICS
 70
     1
  9
$MEASUREMENT
 70
     1
  9
$CELWEIGHT
370
    -1
  9
$ENDCAPS
280
     0
  9
$JOINSTYLE
280
     0
  9
$LWDISPLAY
290
     1
  9
$INSUNITS
 70
     4
  9
$HYPERLINKBASE
  1

  9
$STYLESHEET
  1

  9
$XEDIT
290
     1
  9
$CEPSNTYPE
380
     0
  9
$PSTYLEMODE
290
     1
  9
$FINGERPRINTGUID
  2
{C99CADF0-264E-416E-BE88-CE3D42C93ED4}
  9
$VERSIONGUID
  2
{FAEB1C32-E019-11D5-929B-00C0DF256EC4}
  9
$EXTNAMES
290
     1
  9
$PSVPSCALE
 40
0.0
  9
$OLESTARTUP
290
     0
  0
ENDSEC
  0
SECTION
  2
CLASSES
  0
CLASS
  1
ACDBDICTIONARYWDFLT
  2
AcDbDictionaryWithDefault
  3
ObjectDBX Classes
 90
        0
280
     0
281
     0
  0
CLASS
  1
VISUALSTYLE
  2
AcDbVisualStyle
  3
ObjectDBX Classes
 90
     4095
280
     0
281
     0
  0
CLASS
  1
MATERIAL
  2
AcDbMaterial
  3
ObjectDBX Classes
 90
     1153
280
     0
281
     0
  0
CLASS
  1
SCALE
  2
AcDbScale
  3
ObjectDBX Classes
 90
     1153
280
     0
281
     0
  0
CLASS
  1
SUN
  2
AcDbSun
  3
SCENEOE
 90
     1153
280
     0
281
     0
  0
CLASS
  1
ACDBPLACEHOLDER
  2
AcDbPlaceHolder
  3
ObjectDBX Classes
 90
        0
280
     0
281
     0
  0
CLASS
  1
LAYOUT
  2
AcDbLayout
  3
ObjectDBX Classes
 90
        0
280
     0
281
     0
  0
CLASS
  1
TABLESTYLE
  2
AcDbTableStyle
  3
ObjectDBX Classes
 90
     4095
280
     0
281
     0
  0
CLASS
  1
MLEADERSTYLE
  2
AcDbMLeaderStyle
  3
ACDB_MLEADERSTYLE_CLASS
 90
     4095
280
     0
281
     0
  0
CLASS
  1
RASTERVARIABLES
  2
AcDbRasterVariables
  3
ISM
 90
        0
280
     0
281
     0
  0
ENDSEC
  0
SECTION
  2
TABLES
  0
TABLE
  2
VPORT
  5
8
330
0
100
AcDbSymbolTable
 70
     1
  0
VPORT
  5
29
330
8
100
AcDbSymbolTableRecord
100
AcDbViewportTableRecord
  2
*Active
 70
     0
 10
0.0
 20
0.0
 11
1.0
 21
1.0
 12
-3.759662613065473
 22
-4.081768827581273
 13
0.0
 23
0.0
 14
10.0
 24
10.0
 15
10.0
 25
10.0
 16
0.0
 26
0.0
 36
1.0
 17
0.0
 27
0.0
 37
0.0
 40
133.4627490440965
 41
1.632093933463796
 42
50.0
 43
0.0
 44
0.0
 50
0.0
 51
0.0
 71
    16
 72
  2000
 73
     1
 74
     3
 75
     0
 76
     0
 77
     0
 78
     0
281
     0
 65
     1
110
0.0
120
0.0
130
0.0
111
1.0
121
0.0
131
0.0
112
0.0
122
1.0
132
0.0
 79
     0
146
0.0
  0
ENDTAB
  0
TABLE
  2
LTYPE
  5
5
330
0
100
AcDbSymbolTable
 70
     6
  0
LTYPE
  5
14
330
5
100
AcDbSymbolTableRecord
100
AcDbLinetypeTableRecord
  2
ByBlock
 70
     0
  3

 72
    65
 73
     0
 40
0.0
  0
LTYPE
  5
15
330
5
100
AcDbSymbolTableRecord
100
AcDbLinetypeTableRecord
  2
ByLayer
 70
     0
  3

 72
    65
 73
     0
 40
0.0
  0
LTYPE
  5
16
330
5
100
AcDbSymbolTableRecord
100
AcDbLinetypeTableRecord
  2
Continuous
 70
     0
  3
Solid line
 72
    65
 73
     0
 40
0.0
  0
LTYPE
  5
6A
330
5
100
AcDbSymbolTableRecord
100
AcDbLinetypeTableRecord
  2
HIDDEN
 70
     0
  3
Hidden __ __ __ __ __ __ __ __ __ __ __ __ __ __
 72
    65
 73
     2
 40
1.905
 49
1.27
 74
     0
 49
-0.635
 74
     0
  0
LTYPE
  5
6B
330
5
100
AcDbSymbolTableRecord
100
AcDbLinetypeTableRecord
  2
PHANTOM
 70
     0
  3
Phantom ______  __  __  ______  __  __  ______
 72
    65
 73
     6
 40
12.7
 49
6.35
 74
     0
 49
-1.27
 74
     0
 49
1.27
 74
     0
 49
-1.27
 74
     0
 49
1.27
 74
     0
 49
-1.27
 74
     0
  0
LTYPE
  5
6C
330
5
100
AcDbSymbolTableRecord
100
AcDbLinetypeTableRecord
  2
CENTER
 70
     0
  3
Center ____ _ ____ _ ____ _ ____ _ ____ _ ____
 72
    65
 73
     4
 40
10.16
 49
6.35
 74
     0
 49
-1.27
 74
     0
 49
1.27
 74
     0
 49
-1.27
 74
     0
  0
LTYPE
  5
6D
330
5
100
AcDbSymbolTableRecord
100
AcDbLinetypeTableRecord
  2
CENTERX2
 70
     0
  3
Center (2x) ________  __  ________  __  _____
 72
    65
 73
     4
 40
20.32
 49
12.7
 74
     0
 49
-2.54
 74
     0
 49
2.54
 74
     0
 49
-2.54
 74
     0
  0
LTYPE
  5
6E
330
5
100
AcDbSymbolTableRecord
100
AcDbLinetypeTableRecord
  2
DOT2
 70
     0
  3
Dot (.5x) ........................................
 72
    65
 73
     2
 40
0.635
 49
0.0
 74
     0
 49
-0.635
 74
     0
  0
ENDTAB
  0
TABLE
  2
LAYER
  5
2
102
{ACAD_XDICTIONARY
360
1D3
102
}
330
0
100
AcDbSymbolTable
 70
    18
  0
LAYER
  5
10
330
2
100
AcDbSymbolTableRecord
100
AcDbLayerTableRecord
  2
0
 70
     0
 62
     7
  6
Continuous
370
    -3
390
F
  0
LAYER
  5
6F
330
2
100
AcDbSymbolTableRecord
100
AcDbLayerTableRecord
  2
FORMAT
 70
     0
 62
     2
  6
Continuous
370
    -3
390
F
  0
LAYER
  5
70
330
2
100
AcDbSymbolTableRecord
100
AcDbLayerTableRecord
  2
외형선
 70
     0
 62
     4
  6
Continuous
370
    30
390
F
  0
LAYER
  5
71
330
2
100
AcDbSymbolTableRecord
100
AcDbLayerTableRecord
  2
숨은선
 70
     0
 62
     2
  6
HIDDEN
370
    15
390
F
  0
LAYER
  5
72
330
2
100
AcDbSymbolTableRecord
100
AcDbLayerTableRecord
  2
중심선
 70
     0
 62
     1
  6
CENTERX2
370
    -3
390
F
  0
LAYER
  5
73
330
2
100
AcDbSymbolTableRecord
100
AcDbLayerTableRecord
  2
파단선
 70
     0
 62
     4
  6
Continuous
370
    -3
390
F
  0
LAYER
  5
74
330
2
100
AcDbSymbolTableRecord
100
AcDbLayerTableRecord
  2
해칭선
 70
     0
 62
   100
  6
Continuous
370
    -3
390
F
  0
LAYER
  5
75
330
2
100
AcDbSymbolTableRecord
100
AcDbLayerTableRecord
  2
가는실선
 70
     0
 62
     4
  6
Continuous
370
    -3
390
F
  0
LAYER
  5
76
330
2
100
AcDbSymbolTableRecord
100
AcDbLayerTableRecord
  2
치수_보조선
 70
     0
 62
     4
  6
Continuous
370
    -3
390
F
  0
LAYER
  5
77
330
2
100
AcDbSymbolTableRecord
100
AcDbLayerTableRecord
  2
치수문자_일반주서
 70
     0
 62
     7
  6
Continuous
370
    15
390
F
  0
LAYER
  5
78
330
2
100
AcDbSymbolTableRecord
100
AcDbLayerTableRecord
  2
개별주서
 70
     0
 62
   100
  6
Continuous
370
    30
390
F
  0
LAYER
  5
79
330
2
100
AcDbSymbolTableRecord
100
AcDbLayerTableRecord
  2
중간선
 70
     0
 62
     2
  6
Continuous
370
    15
390
F
  0
LAYER
  5
7A
330
2
100
AcDbSymbolTableRecord
100
AcDbLayerTableRecord
  2
윤곽선
 70
     0
 62
     3
  6
Continuous
370
    40
390
F
  0
LAYER
  5
7B
330
2
100
AcDbSymbolTableRecord
100
AcDbLayerTableRecord
  2
중심마크
 70
     0
 62
   100
  6
Continuous
370
    30
390
F
  0
LAYER
  5
7C
330
2
100
AcDbSymbolTableRecord
100
AcDbLayerTableRecord
  2
가상선
 70
     0
 62
     4
  6
PHANTOM
370
    -3
390
F
  0
LAYER
  5
7D
330
2
100
AcDbSymbolTableRecord
100
AcDbLayerTableRecord
  2
특수지정선
 70
     0
 62
     5
  6
CENTERX2
370
    60
390
F
  0
LAYER
  5
7E
330
2
100
AcDbSymbolTableRecord
100
AcDbLayerTableRecord
  2
참조1
 70
     0
 62
    -4
  6
Continuous
370
    -3
390
F
  0
LAYER
  5
150
330
2
100
AcDbSymbolTableRecord
100
AcDbLayerTableRecord
  2
Defpoints
 70
     0
 62
     7
  6
Continuous
290
     0
370
    -3
390
F
  0
ENDTAB
  0
TABLE
  2
STYLE
  5
3
330
0
100
AcDbSymbolTable
 70
     2
  0
STYLE
  5
11
330
3
100
AcDbSymbolTableRecord
100
AcDbTextStyleTableRecord
  2
Standard
 70
     0
 40
0.0
 41
1.0
 50
0.0
 71
     0
 42
3.5
  3
txt
  4

  0
STYLE
  5
94
330
3
100
AcDbSymbolTableRecord
100
AcDbTextStyleTableRecord
  2
SLDTEXTSTYLE0
 70
     0
 40
0.0
 41
0.75
 50
0.0
 71
     0
 42
3.5
  3
TXT
  4

  0
ENDTAB
  0
TABLE
  2
VIEW
  5
6
330
0
100
AcDbSymbolTable
 70
     0
  0
ENDTAB
  0
TABLE
  2
UCS
  5
7
330
0
100
AcDbSymbolTable
 70
     0
  0
ENDTAB
  0
TABLE
  2
APPID
  5
9
330
0
100
AcDbSymbolTable
 70
     1
  0
APPID
  5
12
330
9
100
AcDbSymbolTableRecord
100
AcDbRegAppTableRecord
  2
ACAD
 70
     0
  0
ENDTAB
  0
TABLE
  2
DIMSTYLE
  5
A
330
0
100
AcDbSymbolTable
 70
     4
100
AcDbDimStyleTable
  0
DIMSTYLE
105
27
330
A
100
AcDbSymbolTableRecord
100
AcDbDimStyleTableRecord
  2
ISO-25
 70
     0
 41
2.5
 42
0.625
 43
3.75
 44
1.25
 73
     0
 74
     0
 77
     1
 78
     8
140
2.5
141
2.5
143
0.03937007874016
147
0.625
171
     3
172
     1
178
     0
271
     2
272
     2
274
     3
278
    44
283
     0
284
     8
340
11
  0
DIMSTYLE
105
CD
102
{ACAD_REACTORS
102
}
330
A
100
AcDbSymbolTableRecord
100
AcDbDimStyleTableRecord
  2
SLDDIMSTYLE0
 70
     0
 41
3.302
 44
0.0
 45
0.000000001
 73
     0
 74
     0
 77
     1
 78
    12
 79
     3
140
3.5
143
0.0393700787401575
147
0.875
148
0.000000001
170
     1
173
     1
178
     0
271
     2
272
     2
276
     2
284
    12
340
94
  0
DIMSTYLE
105
F5
330
A
100
AcDbSymbolTableRecord
100
AcDbDimStyleTableRecord
  2
SLDDIMSTYLE1
 70
     0
 41
3.302
 44
0.0
 45
0.000000001
 73
     0
 74
     0
 77
     1
 78
     4
 79
     1
140
3.5
143
0.0393700787401575
147
0.875
148
0.000000001
170
     1
173
     1
178
     0
271
     2
272
     2
276
     2
284
    12
340
94
  0
DIMSTYLE
105
109
102
{ACAD_REACTORS
330
108
330
E0
330
CC
330
F4
102
}
330
A
100
AcDbSymbolTableRecord
100
AcDbDimStyleTableRecord
  2
SLDDIMSTYLE2
 70
     0
 41
3.302
 44
0.0
 45
0.000000001
 73
     0
 74
     0
 77
     1
 78
    12
 79
     3
140
3.5
143
0.0393700787401575
147
0.875
148
0.000000001
170
     1
172
     1
173
     1
178
     0
271
     2
272
     2
276
     2
284
    12
289
     0
340
94
  0
ENDTAB
  0
TABLE
  2
BLOCK_RECORD
  5
1
330
0
100
AcDbSymbolTable
 70
    26
  0
BLOCK_RECORD
  5
1F
330
1
100
AcDbSymbolTableRecord
100
AcDbBlockTableRecord
  2
*Model_Space
340
22
  0
BLOCK_RECORD
  5
1B
330
1
100
AcDbSymbolTableRecord
100
AcDbBlockTableRecord
  2
*Paper_Space
340
1E
  0
BLOCK_RECORD
  5
23
330
1
100
AcDbSymbolTableRecord
100
AcDbBlockTableRecord
  2
*Paper_Space0
340
26
  0
BLOCK_RECORD
  5
7F
330
1
100
AcDbSymbolTableRecord
100
AcDbBlockTableRecord
  2
블럭10
340
0
102
{BLKREFS
331
C5
102
}
  0
BLOCK_RECORD
  5
CE
330
1
100
AcDbSymbolTableRecord
100
AcDbBlockTableRecord
  2
_D
340
0
  0
BLOCK_RECORD
  5
E1
330
1
100
AcDbSymbolTableRecord
100
AcDbBlockTableRecord
  2
_D_1
340
0
  0
BLOCK_RECORD
  5
F6
330
1
100
AcDbSymbolTableRecord
100
AcDbBlockTableRecord
  2
_D_2
340
0
  0
BLOCK_RECORD
  5
10A
330
1
100
AcDbSymbolTableRecord
100
AcDbBlockTableRecord
  2
_D_3
340
0
  0
BLOCK_RECORD
  5
124
330
1
100
AcDbSymbolTableRecord
100
AcDbBlockTableRecord
  2
SW_DOWELSYMBOL_0
340
0
102
{BLKREFS
331
12A
102
}
  0
BLOCK_RECORD
  5
1D7
330
1
100
AcDbSymbolTableRecord
100
AcDbBlockTableRecord
  2
*D7
340
0
  0
BLOCK_RECORD
  5
1E5
330
1
100
AcDbSymbolTableRecord
100
AcDbBlockTableRecord
  2
*D8
340
0
  0
BLOCK_RECORD
  5
1F2
330
1
100
AcDbSymbolTableRecord
100
AcDbBlockTableRecord
  2
*D9
340
0
  0
BLOCK_RECORD
  5
230
330
1
100
AcDbSymbolTableRecord
100
AcDbBlockTableRecord
  2
*D10
340
0
  0
BLOCK_RECORD
  5
23E
330
1
100
AcDbSymbolTableRecord
100
AcDbBlockTableRecord
  2
*D11
340
0
  0
BLOCK_RECORD
  5
24B
330
1
100
AcDbSymbolTableRecord
100
AcDbBlockTableRecord
  2
*D12
340
0
  0
BLOCK_RECORD
  5
2E1
330
1
100
AcDbSymbolTableRecord
100
AcDbBlockTableRecord
  2
*D13
340
0
  0
BLOCK_RECORD
  5
2EF
330
1
100
AcDbSymbolTableRecord
100
AcDbBlockTableRecord
  2
*D14
340
0
  0
BLOCK_RECORD
  5
2FC
330
1
100
AcDbSymbolTableRecord
100
AcDbBlockTableRecord
  2
*D15
340
0
  0
BLOCK_RECORD
  5
335
330
1
100
AcDbSymbolTableRecord
100
AcDbBlockTableRecord
  2
*D16
340
0
  0
BLOCK_RECORD
  5
343
330
1
100
AcDbSymbolTableRecord
100
AcDbBlockTableRecord
  2
*D17
340
0
  0
BLOCK_RECORD
  5
350
330
1
100
AcDbSymbolTableRecord
100
AcDbBlockTableRecord
  2
*D18
340
0
  0
BLOCK_RECORD
  5
3E5
330
1
100
AcDbSymbolTableRecord
100
AcDbBlockTableRecord
  2
*D19
340
0
  0
BLOCK_RECORD
  5
3F4
330
1
100
AcDbSymbolTableRecord
100
AcDbBlockTableRecord
  2
*D20
340
0
  0
BLOCK_RECORD
  5
403
330
1
100
AcDbSymbolTableRecord
100
AcDbBlockTableRecord
  2
*D21
340
0
  0
BLOCK_RECORD
  5
43B
330
1
100
AcDbSymbolTableRecord
100
AcDbBlockTableRecord
  2
*D22
340
0
  0
BLOCK_RECORD
  5
44A
330
1
100
AcDbSymbolTableRecord
100
AcDbBlockTableRecord
  2
*D23
340
0
  0
BLOCK_RECORD
  5
459
330
1
100
AcDbSymbolTableRecord
100
AcDbBlockTableRecord
  2
*D24
340
0
  0
ENDTAB
  0
ENDSEC
  0
SECTION
  2
BLOCKS
  0
BLOCK
  5
20
330
1F
100
AcDbEntity
  8
0
100
AcDbBlockBegin
  2
*Model_Space
 70
     0
 10
0.0
 20
0.0
 30
0.0
  3
*Model_Space
  1
*Model_Space
  0
ENDBLK
  5
21
330
1F
100
AcDbEntity
  8
0
100
AcDbBlockEnd
  0
BLOCK
  5
1C
330
1B
100
AcDbEntity
 67
     1
  8
0
100
AcDbBlockBegin
  2
*Paper_Space
 70
     0
 10
0.0
 20
0.0
 30
0.0
  3
*Paper_Space
  1
*Paper_Space
  0
ENDBLK
  5
1D
330
1B
100
AcDbEntity
 67
     1
  8
0
100
AcDbBlockEnd
  0
BLOCK
  5
24
330
23
100
AcDbEntity
  8
0
100
AcDbBlockBegin
  2
*Paper_Space0
 70
     0
 10
0.0
 20
0.0
 30
0.0
  3
*Paper_Space0
  1
*Paper_Space0
  0
ENDBLK
  5
25
330
23
100
AcDbEntity
  8
0
100
AcDbBlockEnd
  0
BLOCK
  5
80
330
7F
100
AcDbEntity
  8
0
100
AcDbBlockBegin
  2
블럭10
 70
     2
 10
0.0
 20
0.0
 30
0.0
  3
블럭10
  1
블럭10
  0
ELLIPSE
  5
82
330
7F
100
AcDbEntity
  8
중심선
100
AcDbEllipse
 10
20.54032771741204
 20
12.0471743016438
 30
0.0
 11
6.600054785286829
 21
-1.261213355974178E-13
 31
0.0
210
0.0
220
0.0
230
1.0
 40
0.636358354079598
 41
0.9219305317359503
 42
6.513795318482858
  0
ELLIPSE
  5
83
330
7F
100
AcDbEntity
  8
중심선
100
AcDbEllipse
 10
20.54032771746488
 20
12.04717430159265
 30
0.0
 11
3.960054785062283
 21
1.540847449632565E-10
 31
0.0
210
0.0
220
0.0
230
1.0
 40
0.3939339440162632
 41
1.131841032648279
 42
5.62031148352944
  0
LINE
  5
84
330
7F
100
AcDbEntity
  8
중심선
100
AcDbLine
 10
2.268634060543552
 20
16.24717430164393
 30
0.0
 11
5.714909304380834
 21
16.24717430164393
 31
0.0
  0
LINE
  5
85
330
7F
100
AcDbEntity
  8
중심선
100
AcDbLine
 10
5.245725140726316
 20
7.84717430164391
 30
0.0
 11
8.692000384563599
 21
7.84717430164391
 31
0.0
  0
LINE
  5
86
330
7F
100
AcDbEntity
  8
중심선
100
AcDbLine
 10
15.74043728645272
 20
16.24717430164393
 30
0.0
 11
8.692000384563599
 21
7.84717430164391
 31
0.0
  0
LINE
  5
87
330
7F
100
AcDbEntity
  8
중심선
100
AcDbLine
 10
0.1404042013395286
 20
13.71084872107135
 30
0.0
 11
3.58671253028996
 21
13.71088815037384
 31
0.0
  0
LINE
  5
88
330
7F
100
AcDbEntity
  8
중심선
100
AcDbLine
 10
2.750260043222114
 20
10.84717430164391
 30
0.0
 11
6.196535287059397
 21
10.84717430164391
 31
0.0
  0
LINE
  5
89
330
7F
100
AcDbEntity
  8
중심선
100
AcDbLine
 10
12.29416204261559
 20
16.24717430164393
 30
0.0
 11
5.245725140726316
 21
7.84717430164391
 31
0.0
  0
LINE
  5
8A
330
7F
100
AcDbEntity
  8
중심선
100
AcDbLine
 10
10.72767329541681
 20
16.24717430164393
 30
0.0
 11
6.196535287059397
 21
10.84717430164391
 31
0.0
  0
LINE
  5
8B
330
7F
100
AcDbEntity
  8
중심선
100
AcDbLine
 10
7.28139805157953
 20
16.24717430164393
 30
0.0
 11
2.750260043222114
 21
10.84717430164391
 31
0.0
  0
LINE
  5
8C
330
7F
100
AcDbEntity
  8
중심선
100
AcDbLine
 10
5.714909304380834
 20
16.24717430164393
 30
0.0
 11
3.58671253028996
 21
13.71088815037384
 31
0.0
  0
LINE
  5
8D
330
7F
100
AcDbEntity
  8
중심선
100
AcDbLine
 10
2.268634060543552
 20
16.24717430164393
 30
0.0
 11
0.1404042013395286
 21
13.71084872107135
 31
0.0
  0
LINE
  5
8E
330
7F
100
AcDbEntity
  8
중심선
100
AcDbLine
 10
7.28139805157953
 20
16.24717430164393
 30
0.0
 11
10.72767329541681
 21
16.24717430164393
 31
0.0
  0
LINE
  5
8F
330
7F
100
AcDbEntity
  8
중심선
100
AcDbLine
 10
12.29416204261559
 20
16.24717430164393
 30
0.0
 11
15.74043728645272
 21
16.24717430164393
 31
0.0
  0
LINE
  5
90
330
7F
100
AcDbEntity
  8
중심선
100
AcDbLine
 10
19.22036997980202
 20
11.08717430171403
 30
0.0
 11
23.66174974927406
 21
11.08717430171406
 31
0.0
  0
LINE
  5
91
330
7F
100
AcDbEntity
  8
중심선
100
AcDbLine
 10
19.22039502424796
 20
13.00717430171391
 30
0.0
 11
19.22036997980202
 21
11.08717430171403
 31
0.0
  0
LINE
  5
92
330
7F
100
AcDbEntity
  8
중심선
100
AcDbLine
 10
19.22039502424796
 20
13.00717430171391
 30
0.0
 11
26.96566020931264
 21
13.00717430171391
 31
0.0
  0
LINE
  5
93
330
7F
100
AcDbEntity
  8
중심선
100
AcDbLine
 10
22.22332737316547
 20
13.45928029700563
 30
0.0
 11
24.52862924686651
 21
15.39360700705356
 31
0.0
  0
ATTDEF
  5
95
330
7F
100
AcDbEntity
  8
FORMAT
 62
     2
100
AcDbText
 10
4.408487351596664
 20
2.075366912832191
 30
0.0
 40
4.233333333333333
  1
E1053019
 41
0.75
  7
SLDTEXTSTYLE0
 11
4.408487351596664
 21
-0.0412997538344756
 31
0.0
100
AcDbAttributeDefinition
  3

  2
AUTOATTR0
 70
     0
 74
     1
  0
ENDBLK
  5
81
330
7F
100
AcDbEntity
  8
0
100
AcDbBlockEnd
  0
BLOCK
  5
CF
330
CE
100
AcDbEntity
  8
0
100
AcDbBlockBegin
  2
_D
 70
     0
 10
0.0
 20
0.0
 30
0.0
  3
_D
  1
_D
  0
LINE
  5
D1
330
CE
100
AcDbEntity
  8
치수문자_일반주서
 62
     0
370
    -2
100
AcDbLine
 10
44.51250000000003
 20
3.770312500000006
 30
0.0
 11
56.90309566363704
 21
3.770312500000053
 31
0.0
  0
LINE
  5
D2
330
CE
100
AcDbEntity
  8
치수문자_일반주서
 62
     0
370
    -2
100
AcDbLine
 10
44.51250000000003
 20
-3.770312499999994
 30
0.0
 11
56.90309566363707
 21
-3.770312499999946
 31
0.0
  0
LINE
  5
D3
330
CE
100
AcDbEntity
  8
치수문자_일반주서
 62
     0
370
    -2
100
AcDbLine
 10
56.90309566363704
 20
3.770312500000053
 30
0.0
 11
56.90309566363685
 21
54.47673047258827
 31
0.0
  0
LINE
  5
D4
330
CE
100
AcDbEntity
  8
치수문자_일반주서
 62
     0
370
    -2
100
AcDbLine
 10
56.90309566363704
 20
3.770312500000053
 30
0.0
 11
56.90309566363707
 21
-3.770312499999946
 31
0.0
  0
LINE
  5
D5
330
CE
100
AcDbEntity
  8
치수문자_일반주서
 62
     0
370
    -2
100
AcDbLine
 10
56.90309566363702
 20
7.072312500000052
 30
0.0
 11
56.90309566363701
 21
10.37431250000005
 31
0.0
  0
LINE
  5
D6
330
CE
100
AcDbEntity
  8
치수문자_일반주서
 62
     0
370
    -2
100
AcDbLine
 10
56.90309566363708
 20
-7.072312499999946
 30
0.0
 11
56.9030956636371
 21
-10.37431249999995
 31
0.0
  0
SOLID
  5
D7
330
CE
100
AcDbEntity
  8
치수문자_일반주서
 62
     0
100
AcDbTrace
 10
56.35276233030369
 20
7.07231250000005
 30
0.0
 11
57.45342899697036
 21
7.072312500000054
 31
0.0
 12
56.90309566363704
 22
3.770312500000053
 32
0.0
 13
56.90309566363704
 23
3.770312500000053
 33
0.0
  0
SOLID
  5
D8
330
CE
100
AcDbEntity
  8
치수문자_일반주서
 62
     0
100
AcDbTrace
 10
57.45342899697042
 20
-7.072312499999944
 30
0.0
 11
56.35276233030375
 21
-7.072312499999947
 31
0.0
 12
56.90309566363707
 22
-3.770312499999946
 32
0.0
 13
56.90309566363707
 23
-3.770312499999946
 33
0.0
  0
MTEXT
  5
D9
330
CE
100
AcDbEntity
  8
치수문자_일반주서
 62
     0
100
AcDbMText
 10
52.5280956636369
 20
39.16423047258825
 30
0.0
 40
3.5
 41
0.0
 71
     2
 72
     1
  1
\A1;%%c7.54 [19/64]
  7
SLDTEXTSTYLE0
 11
-3.769145055005919E-15
 21
1.0
 31
0.0
 73
     1
 44
1.0
  0
POINT
  5
DA
330
CE
100
AcDbEntity
  8
Defpoints
 62
     0
100
AcDbPoint
 10
44.45000000000003
 20
3.770312500000006
 30
0.0
  0
POINT
  5
DB
330
CE
100
AcDbEntity
  8
Defpoints
 62
     0
100
AcDbPoint
 10
44.45000000000003
 20
-3.770312499999995
 30
0.0
  0
POINT
  5
259
330
CE
100
AcDbEntity
  8
Defpoints
 62
     0
100
AcDbPoint
 10
56.90309566363707
 20
-3.770312499999948
 30
0.0
  0
ENDBLK
  5
D0
330
CE
100
AcDbEntity
  8
0
100
AcDbBlockEnd
  0
BLOCK
  5
E2
330
E1
100
AcDbEntity
  8
0
100
AcDbBlockBegin
  2
_D_1
 70
     0
 10
0.0
 20
0.0
 30
0.0
  3
_D_1
  1
_D_1
  0
LINE
  5
E4
330
E1
100
AcDbEntity
  8
치수문자_일반주서
 62
     0
370
    -2
100
AcDbLine
 10
44.45000000000002
 20
3.832812500000006
 30
0.0
 11
44.45000000000002
 21
19.0893176607443
 31
0.0
  0
LINE
  5
E5
330
E1
100
AcDbEntity
  8
치수문자_일반주서
 62
     0
370
    -2
100
AcDbLine
 10
25.40000000000001
 20
3.796656167275651
 30
0.0
 11
25.40000000000001
 21
19.0893176607443
 31
0.0
  0
LINE
  5
E6
330
E1
100
AcDbEntity
  8
치수문자_일반주서
 62
     0
370
    -2
100
AcDbLine
 10
25.40000000000001
 20
19.0893176607443
 30
0.0
 11
-6.141499999999986
 21
19.0893176607443
 31
0.0
  0
LINE
  5
E7
330
E1
100
AcDbEntity
  8
치수문자_일반주서
 62
     0
370
    -2
100
AcDbLine
 10
44.45000000000002
 20
19.0893176607443
 30
0.0
 11
25.40000000000001
 21
19.0893176607443
 31
0.0
  0
LINE
  5
E8
330
E1
100
AcDbEntity
  8
치수문자_일반주서
 62
     0
370
    -2
100
AcDbLine
 10
47.75200000000002
 20
19.0893176607443
 30
0.0
 11
51.05400000000002
 21
19.0893176607443
 31
0.0
  0
LINE
  5
E9
330
E1
100
AcDbEntity
  8
치수문자_일반주서
 62
     0
370
    -2
100
AcDbLine
 10
22.09800000000001
 20
19.0893176607443
 30
0.0
 11
18.79600000000001
 21
19.0893176607443
 31
0.0
  0
SOLID
  5
EA
330
E1
100
AcDbEntity
  8
치수문자_일반주서
 62
     0
100
AcDbTrace
 10
47.75200000000002
 20
19.63965099407764
 30
0.0
 11
47.75200000000002
 21
18.53898432741097
 31
0.0
 12
44.45000000000002
 22
19.0893176607443
 32
0.0
 13
44.45000000000002
 23
19.0893176607443
 33
0.0
  0
SOLID
  5
EB
330
E1
100
AcDbEntity
  8
치수문자_일반주서
 62
     0
100
AcDbTrace
 10
22.09800000000001
 20
18.53898432741097
 30
0.0
 11
22.09800000000001
 21
19.63965099407764
 31
0.0
 12
25.40000000000001
 22
19.0893176607443
 32
0.0
 13
25.40000000000001
 23
19.0893176607443
 33
0.0
  0
MTEXT
  5
EC
330
E1
100
AcDbEntity
  8
치수문자_일반주서
 62
     0
100
AcDbMText
 10
6.327250000000014
 20
23.4643176607443
 30
0.0
 40
3.5
 41
0.0
 71
     2
 72
     1
  1
\A1;19.05 [3/4]
  7
SLDTEXTSTYLE0
 73
     1
 44
1.0
  0
POINT
  5
ED
330
E1
100
AcDbEntity
  8
Defpoints
 62
     0
100
AcDbPoint
 10
44.45000000000002
 20
3.770312500000006
 30
0.0
  0
POINT
  5
257
330
E1
100
AcDbEntity
  8
Defpoints
 62
     0
100
AcDbPoint
 10
25.40000000000001
 20
3.734156167275651
 30
0.0
  0
POINT
  5
258
330
E1
100
AcDbEntity
  8
Defpoints
 62
     0
100
AcDbPoint
 10
25.40000000000001
 20
19.0893176607443
 30
0.0
  0
ENDBLK
  5
E3
330
E1
100
AcDbEntity
  8
0
100
AcDbBlockEnd
  0
BLOCK
  5
F7
330
F6
100
AcDbEntity
  8
0
100
AcDbBlockBegin
  2
_D_2
 70
     0
 10
0.0
 20
0.0
 30
0.0
  3
_D_2
  1
_D_2
  0
LINE
  5
F9
330
F6
100
AcDbEntity
  8
치수문자_일반주서
 62
     0
370
    -2
100
AcDbLine
 10
44.45000000000002
 20
3.832812500000006
 30
0.0
 11
44.45000000000002
 21
33.39152672868303
 31
0.0
  0
LINE
  5
FA
330
F6
100
AcDbEntity
  8
치수문자_일반주서
 62
     0
370
    -2
100
AcDbLine
 10
-44.45000000000006
 20
3.832812499999996
 30
0.0
 11
-44.45000000000006
 21
33.39152672868303
 31
0.0
  0
LINE
  5
FB
330
F6
100
AcDbEntity
  8
치수문자_일반주서
 62
     0
370
    -2
100
AcDbLine
 10
41.14800000000002
 20
33.39152672868303
 30
0.0
 11
-41.14800000000006
 21
33.39152672868303
 31
0.0
  0
SOLID
  5
FC
330
F6
100
AcDbEntity
  8
치수문자_일반주서
 62
     0
100
AcDbTrace
 10
41.14800000000002
 20
32.84119339534969
 30
0.0
 11
41.14800000000002
 21
33.94186006201636
 31
0.0
 12
44.45000000000002
 22
33.39152672868303
 32
0.0
 13
44.45000000000002
 23
33.39152672868303
 33
0.0
  0
SOLID
  5
FD
330
F6
100
AcDbEntity
  8
치수문자_일반주서
 62
     0
100
AcDbTrace
 10
-41.14800000000006
 20
33.94186006201636
 30
0.0
 11
-41.14800000000006
 21
32.84119339534969
 31
0.0
 12
-44.45000000000006
 22
33.39152672868303
 32
0.0
 13
-44.45000000000006
 23
33.39152672868303
 33
0.0
  0
MTEXT
  5
FE
330
F6
100
AcDbEntity
  8
치수문자_일반주서
 62
     0
100
AcDbMText
 10
-2.268279200632822
 20
37.76652672868303
 30
0.0
 40
3.5
 41
0.0
 71
     2
 72
     1
  1
\A1;88.9 [3 1/2]
  7
SLDTEXTSTYLE0
 73
     1
 44
1.0
  0
POINT
  5
FF
330
F6
100
AcDbEntity
  8
Defpoints
 62
     0
100
AcDbPoint
 10
44.45000000000002
 20
3.770312500000006
 30
0.0
  0
POINT
  5
100
330
F6
100
AcDbEntity
  8
Defpoints
 62
     0
100
AcDbPoint
 10
-44.45000000000006
 20
3.770312499999996
 30
0.0
  0
POINT
  5
101
330
F6
100
AcDbEntity
  8
Defpoints
 62
     0
100
AcDbPoint
 10
-44.45000000000006
 20
33.39152672868303
 30
0.0
  0
ENDBLK
  5
F8
330
F6
100
AcDbEntity
  8
0
100
AcDbBlockEnd
  0
BLOCK
  5
10B
330
10A
100
AcDbEntity
  8
0
100
AcDbBlockBegin
  2
_D_3
 70
     0
 10
0.0
 20
0.0
 30
0.0
  3
_D_3
  1
_D_3
  0
LINE
  5
10D
330
10A
100
AcDbEntity
  8
치수문자_일반주서
 62
     0
370
    -2
100
AcDbLine
 10
-20.75960583936528
 20
4.76250000000001
 30
0.0
 11
-56.97375000000002
 21
4.762499999999874
 31
0.0
  0
LINE
  5
10E
330
10A
100
AcDbEntity
  8
치수문자_일반주서
 62
     0
370
    -2
100
AcDbLine
 10
-20.75960583936528
 20
-4.762500000000003
 30
0.0
 11
-56.97374999999999
 21
-4.762500000000139
 31
0.0
  0
LINE
  5
10F
330
10A
100
AcDbEntity
  8
치수문자_일반주서
 62
     0
370
    -2
100
AcDbLine
 10
-56.97375000000001
 20
1.460499999999874
 30
0.0
 11
-56.97375
 21
-1.460500000000139
 31
0.0
  0
SOLID
  5
110
330
10A
100
AcDbEntity
  8
치수문자_일반주서
 62
     0
100
AcDbTrace
 10
-56.42341666666668
 20
1.460499999999876
 30
0.0
 11
-57.52408333333334
 21
1.460499999999872
 31
0.0
 12
-56.97375000000002
 22
4.762499999999874
 32
0.0
 13
-56.97375000000002
 23
4.762499999999874
 33
0.0
  0
SOLID
  5
111
330
10A
100
AcDbEntity
  8
치수문자_일반주서
 62
     0
100
AcDbTrace
 10
-57.52408333333334
 20
-1.460500000000141
 30
0.0
 11
-56.42341666666667
 21
-1.460500000000137
 31
0.0
 12
-56.97374999999999
 22
-4.762500000000139
 32
0.0
 13
-56.97374999999999
 23
-4.762500000000139
 33
0.0
  0
MTEXT
  5
112
330
10A
100
AcDbEntity
  8
치수문자_일반주서
 62
     0
100
AcDbMText
 10
-61.34875000000001
 20
-0.0000000000000156
 30
0.0
 40
3.5
 41
0.0
 71
     2
 72
     1
  1
\A1;%%c9.53 [3/8]
  7
SLDTEXTSTYLE0
 11
-3.729883127349602E-15
 21
1.0
 31
0.0
 73
     1
 44
1.0
  0
POINT
  5
113
330
10A
100
AcDbEntity
  8
Defpoints
 62
     0
100
AcDbPoint
 10
-20.69710583936528
 20
4.76250000000001
 30
0.0
  0
POINT
  5
114
330
10A
100
AcDbEntity
  8
Defpoints
 62
     0
100
AcDbPoint
 10
-20.69710583936528
 20
-4.762500000000003
 30
0.0
  0
POINT
  5
115
330
10A
100
AcDbEntity
  8
Defpoints
 62
     0
100
AcDbPoint
 10
-56.97374999999999
 20
-4.762500000000139
 30
0.0
  0
ENDBLK
  5
10C
330
10A
100
AcDbEntity
  8
0
100
AcDbBlockEnd
  0
BLOCK
  5
125
330
124
100
AcDbEntity
  8
0
100
AcDbBlockBegin
  2
SW_DOWELSYMBOL_0
 70
     0
 10
0.0
 20
0.0
 30
0.0
  3
SW_DOWELSYMBOL_0
  1
SW_DOWELSYMBOL_0
  0
CIRCLE
  5
127
330
124
100
AcDbEntity
  8
해칭선
 62
     0
100
AcDbCircle
 10
0.0
 20
0.0
 30
0.0
 40
3.000000000000008
  0
HATCH
  5
128
330
124
100
AcDbEntity
  8
0
  6
Continuous
 62
     0
370
     0
100
AcDbHatch
 10
0.0
 20
0.0
 30
0.0
210
0.0
220
0.0
230
1.0
  2
SOLID
 70
     1
 71
     0
 91
        1
 92
        0
 93
        3
 72
     2
 10
0.0
 20
0.0
 40
3.000000000000008
 50
0.0
 51
90.0
 73
     1
 72
     1
 10
0.0
 20
3.000000000000008
 11
0.0
 21
0.0
 72
     1
 10
0.0
 20
0.0
 11
3.00000000000001
 21
0.0
 97
        0
 75
     0
 76
     1
 98
        1
 10
0.0
 20
0.0
  0
HATCH
  5
129
330
124
100
AcDbEntity
  8
0
  6
Continuous
 62
     0
370
     0
100
AcDbHatch
 10
0.0
 20
0.0
 30
0.0
210
0.0
220
0.0
230
1.0
  2
SOLID
 70
     1
 71
     0
 91
        1
 92
        0
 93
        3
 72
     2
 10
0.0
 20
0.0
 40
3.000000000000008
 50
180.0
 51
270.0000000000007
 73
     1
 72
     1
 10
0.0
 20
-3.000000000000008
 11
0.0
 21
0.0
 72
     1
 10
0.0
 20
0.0
 11
-3.00000000000001
 21
0.0
 97
        0
 75
     0
 76
     1
 98
        1
 10
0.0
 20
0.0
  0
ENDBLK
  5
126
330
124
100
AcDbEntity
  8
0
100
AcDbBlockEnd
  0
BLOCK
  5
1D8
330
1D7
100
AcDbEntity
  8
0
100
AcDbBlockBegin
  2
*D7
 70
     1
 10
0.0
 20
0.0
 30
0.0
  3
*D7
  1
*D8
  0
LINE
  5
1DA
330
1D7
100
AcDbEntity
  8
치수문자_일반주서
 62
     0
370
    -2
100
AcDbLine
 10
82.4375
 20
10.61262913279318
 30
0.0
 11
98.72241984972071
 21
10.61262913279324
 31
0.0
  0
LINE
  5
1DB
330
1D7
100
AcDbEntity
  8
치수문자_일반주서
 62
     0
370
    -2
100
AcDbLine
 10
82.43750000000003
 20
7.040754132793179
 30
0.0
 11
98.72241984972072
 21
7.040754132793239
 31
0.0
  0
LINE
  5
1DC
330
1D7
100
AcDbEntity
  8
치수문자_일반주서
 62
     0
370
    -2
100
AcDbLine
 10
98.72241984972071
 20
10.61262913279324
 30
0.0
 11
98.72241984972058
 21
43.08506151110084
 31
0.0
  0
LINE
  5
1DD
330
1D7
100
AcDbEntity
  8
치수문자_일반주서
 62
     0
370
    -2
100
AcDbLine
 10
98.7224198497207
 20
13.91462913279324
 30
0.0
 11
98.72241984972068
 21
17.21662913279324
 31
0.0
  0
LINE
  5
1DE
330
1D7
100
AcDbEntity
  8
치수문자_일반주서
 62
     0
370
    -2
100
AcDbLine
 10
98.72241984972074
 20
3.73875413279324
 30
0.0
 11
98.72241984972075
 21
0.43675413279324
 31
0.0
  0
SOLID
  5
1DF
330
1D7
100
AcDbEntity
  8
치수문자_일반주서
 62
     0
100
AcDbTrace
 10
98.17208651638737
 20
13.91462913279324
 30
0.0
 11
99.27275318305402
 21
13.91462913279324
 31
0.0
 12
98.72241984972071
 22
10.61262913279324
 32
0.0
 13
98.72241984972071
 23
10.61262913279324
 33
0.0
  0
SOLID
  5
1E0
330
1D7
100
AcDbEntity
  8
치수문자_일반주서
 62
     0
100
AcDbTrace
 10
99.27275318305406
 20
3.738754132793242
 30
0.0
 11
98.17208651638741
 21
3.738754132793237
 31
0.0
 12
98.72241984972072
 22
7.040754132793239
 32
0.0
 13
98.72241984972072
 23
7.040754132793239
 33
0.0
  0
MTEXT
  5
1E1
330
1D7
100
AcDbEntity
  8
치수문자_일반주서
 62
     0
100
AcDbMText
 10
94.34741984972064
 20
30.17881151110082
 30
0.0
 40
3.5
 41
0.0
 71
     2
 72
     1
  1
\A1;%%c3.57 [0.14]
  7
SLDTEXTSTYLE0
 11
-3.978542002506246E-15
 21
1.0
 31
0.0
 73
     1
 44
1.0
  0
POINT
  5
1E2
330
1D7
100
AcDbEntity
  8
Defpoints
 62
     0
100
AcDbPoint
 10
82.375
 20
10.61262913279318
 30
0.0
  0
POINT
  5
1E3
330
1D7
100
AcDbEntity
  8
Defpoints
 62
     0
100
AcDbPoint
 10
82.37500000000003
 20
7.040754132793179
 30
0.0
  0
POINT
  5
1E4
330
1D7
100
AcDbEntity
  8
Defpoints
 62
     0
100
AcDbPoint
 10
98.72241984972074
 20
7.04075413279324
 30
0.0
  0
ENDBLK
  5
1D9
330
1D7
100
AcDbEntity
  8
0
100
AcDbBlockEnd
  0
BLOCK
  5
1E6
330
1E5
100
AcDbEntity
  8
0
100
AcDbBlockBegin
  2
*D8
 70
     1
 10
0.0
 20
0.0
 30
0.0
  3
*D8
  1
*D9
  0
LINE
  5
1E8
330
1E5
100
AcDbEntity
  8
치수문자_일반주서
 62
     0
370
    -2
100
AcDbLine
 10
82.375
 20
10.67512913279318
 30
0.0
 11
82.375
 21
26.90681184279693
 31
0.0
  0
LINE
  5
1E9
330
1E5
100
AcDbEntity
  8
치수문자_일반주서
 62
     0
370
    -2
100
AcDbLine
 10
71.26249999999999
 20
10.42404752695166
 30
0.0
 11
71.26249999999999
 21
26.90681184279693
 31
0.0
  0
LINE
  5
1EA
330
1E5
100
AcDbEntity
  8
치수문자_일반주서
 62
     0
370
    -2
100
AcDbLine
 10
71.26249999999999
 20
26.90681184279693
 30
0.0
 11
41.47099999999999
 21
26.90681184279693
 31
0.0
  0
LINE
  5
1EB
330
1E5
100
AcDbEntity
  8
치수문자_일반주서
 62
     0
370
    -2
100
AcDbLine
 10
79.07300000000001
 20
26.90681184279693
 30
0.0
 11
74.56449999999998
 21
26.90681184279693
 31
0.0
  0
SOLID
  5
1EC
330
1E5
100
AcDbEntity
  8
치수문자_일반주서
 62
     0
100
AcDbTrace
 10
79.07300000000001
 20
26.3564785094636
 30
0.0
 11
79.07300000000001
 21
27.45714517613027
 31
0.0
 12
82.375
 22
26.90681184279693
 32
0.0
 13
82.375
 23
26.90681184279693
 33
0.0
  0
SOLID
  5
1ED
330
1E5
100
AcDbEntity
  8
치수문자_일반주서
 62
     0
100
AcDbTrace
 10
74.56449999999998
 20
27.45714517613027
 30
0.0
 11
74.56449999999998
 21
26.3564785094636
 31
0.0
 12
71.26249999999999
 22
26.90681184279693
 32
0.0
 13
71.26249999999999
 23
26.90681184279693
 33
0.0
  0
MTEXT
  5
1EE
330
1E5
100
AcDbEntity
  8
치수문자_일반주서
 62
     0
100
AcDbMText
 10
53.06474999999998
 20
31.28181184279693
 30
0.0
 40
3.5
 41
0.0
 71
     2
 72
     1
  1
\A1;11.11 [0.44]
  7
SLDTEXTSTYLE0
 73
     1
 44
1.0
  0
POINT
  5
1EF
330
1E5
100
AcDbEntity
  8
Defpoints
 62
     0
100
AcDbPoint
 10
82.375
 20
10.61262913279318
 30
0.0
  0
POINT
  5
1F0
330
1E5
100
AcDbEntity
  8
Defpoints
 62
     0
100
AcDbPoint
 10
71.26249999999999
 20
10.36154752695166
 30
0.0
  0
POINT
  5
1F1
330
1E5
100
AcDbEntity
  8
Defpoints
 62
     0
100
AcDbPoint
 10
71.26249999999999
 20
26.90681184279693
 30
0.0
  0
ENDBLK
  5
1E7
330
1E5
100
AcDbEntity
  8
0
100
AcDbBlockEnd
  0
BLOCK
  5
1F3
330
1F2
100
AcDbEntity
  8
0
100
AcDbBlockBegin
  2
*D9
 70
     1
 10
0.0
 20
0.0
 30
0.0
  3
*D9
  1
*D10
  0
LINE
  5
1F5
330
1F2
100
AcDbEntity
  8
치수문자_일반주서
 62
     0
370
    -2
100
AcDbLine
 10
82.375
 20
10.67512913279318
 30
0.0
 11
82.375
 21
58.1964804540752
 31
0.0
  0
LINE
  5
1F6
330
1F2
100
AcDbEntity
  8
치수문자_일반주서
 62
     0
370
    -2
100
AcDbLine
 10
3.000000000000007
 20
12.69919163279317
 30
0.0
 11
3.000000000000007
 21
58.1964804540752
 31
0.0
  0
LINE
  5
1F7
330
1F2
100
AcDbEntity
  8
치수문자_일반주서
 62
     0
370
    -2
100
AcDbLine
 10
79.07300000000001
 20
58.1964804540752
 30
0.0
 11
6.302000000000007
 21
58.1964804540752
 31
0.0
  0
SOLID
  5
1F8
330
1F2
100
AcDbEntity
  8
치수문자_일반주서
 62
     0
100
AcDbTrace
 10
79.07300000000001
 20
57.64614712074187
 30
0.0
 11
79.07300000000001
 21
58.74681378740853
 31
0.0
 12
82.375
 22
58.1964804540752
 32
0.0
 13
82.375
 23
58.1964804540752
 33
0.0
  0
SOLID
  5
1F9
330
1F2
100
AcDbEntity
  8
치수문자_일반주서
 62
     0
100
AcDbTrace
 10
6.302000000000007
 20
58.74681378740853
 30
0.0
 11
6.302000000000007
 21
57.64614712074187
 31
0.0
 12
3.000000000000007
 22
58.1964804540752
 32
0.0
 13
3.000000000000007
 23
58.1964804540752
 33
0.0
  0
MTEXT
  5
1FA
330
1F2
100
AcDbEntity
  8
치수문자_일반주서
 62
     0
100
AcDbMText
 10
40.6622507137207
 20
62.5714804540752
 30
0.0
 40
3.5
 41
0.0
 71
     2
 72
     1
  1
\A1;79.38 [3.13]
  7
SLDTEXTSTYLE0
 73
     1
 44
1.0
  0
POINT
  5
1FB
330
1F2
100
AcDbEntity
  8
Defpoints
 62
     0
100
AcDbPoint
 10
82.375
 20
10.61262913279318
 30
0.0
  0
POINT
  5
1FC
330
1F2
100
AcDbEntity
  8
Defpoints
 62
     0
100
AcDbPoint
 10
3.000000000000007
 20
12.63669163279317
 30
0.0
  0
POINT
  5
1FD
330
1F2
100
AcDbEntity
  8
Defpoints
 62
     0
100
AcDbPoint
 10
3.000000000000007
 20
58.1964804540752
 30
0.0
  0
ENDBLK
  5
1F4
330
1F2
100
AcDbEntity
  8
0
100
AcDbBlockEnd
  0
BLOCK
  5
231
330
230
100
AcDbEntity
  8
0
100
AcDbBlockBegin
  2
*D10
 70
     1
 10
0.0
 20
0.0
 30
0.0
  3
*D10
  1
*D11
  0
LINE
  5
233
330
230
100
AcDbEntity
  8
치수문자_일반주서
 62
     0
370
    -2
100
AcDbLine
 10
159.3639525389556
 20
-36.77939416619986
 30
0.0
 11
175.6488723886763
 21
-36.77939416619979
 31
0.0
  0
LINE
  5
234
330
230
100
AcDbEntity
  8
치수문자_일반주서
 62
     0
370
    -2
100
AcDbLine
 10
159.3639525389557
 20
-40.35126916619986
 30
0.0
 11
175.6488723886763
 21
-40.35126916619979
 31
0.0
  0
LINE
  5
235
330
230
100
AcDbEntity
  8
치수문자_일반주서
 62
     0
370
    -2
100
AcDbLine
 10
175.6488723886763
 20
-36.77939416619979
 30
0.0
 11
175.6488723886763
 21
-4.306961787892199
 31
0.0
  0
LINE
  5
236
330
230
100
AcDbEntity
  8
치수문자_일반주서
 62
     0
370
    -2
100
AcDbLine
 10
175.6488723886763
 20
-33.47739416619979
 30
0.0
 11
175.6488723886763
 21
-30.17539416619979
 31
0.0
  0
LINE
  5
237
330
230
100
AcDbEntity
  8
치수문자_일반주서
 62
     0
370
    -2
100
AcDbLine
 10
175.6488723886763
 20
-43.65326916619979
 30
0.0
 11
175.6488723886763
 21
-46.95526916619979
 31
0.0
  0
SOLID
  5
238
330
230
100
AcDbEntity
  8
치수문자_일반주서
 62
     0
100
AcDbTrace
 10
175.0985390553429
 20
-33.47739416619979
 30
0.0
 11
176.1992057220096
 21
-33.47739416619979
 31
0.0
 12
175.6488723886763
 22
-36.77939416619979
 32
0.0
 13
175.6488723886763
 23
-36.77939416619979
 33
0.0
  0
SOLID
  5
239
330
230
100
AcDbEntity
  8
치수문자_일반주서
 62
     0
100
AcDbTrace
 10
176.1992057220096
 20
-43.65326916619979
 30
0.0
 11
175.0985390553429
 21
-43.65326916619979
 31
0.0
 12
175.6488723886763
 22
-40.35126916619979
 32
0.0
 13
175.6488723886763
 23
-40.35126916619979
 33
0.0
  0
MTEXT
  5
23A
330
230
100
AcDbEntity
  8
치수문자_일반주서
 62
     0
100
AcDbMText
 10
171.2738723886763
 20
-17.2132117878922
 30
0.0
 40
3.5
 41
0.0
 71
     2
 72
     1
  1
\A1;%%c3.57 [0.14]
  7
SLDTEXTSTYLE0
 11
0.0
 21
1.0
 31
0.0
 73
     1
 44
1.0
  0
POINT
  5
23B
330
230
100
AcDbEntity
  8
Defpoints
 62
     0
100
AcDbPoint
 10
159.3014525389556
 20
-36.77939416619986
 30
0.0
  0
POINT
  5
23C
330
230
100
AcDbEntity
  8
Defpoints
 62
     0
100
AcDbPoint
 10
159.3014525389557
 20
-40.35126916619986
 30
0.0
  0
POINT
  5
23D
330
230
100
AcDbEntity
  8
Defpoints
 62
     0
100
AcDbPoint
 10
175.6488723886764
 20
-40.35126916619979
 30
0.0
  0
ENDBLK
  5
232
330
230
100
AcDbEntity
  8
0
100
AcDbBlockEnd
  0
BLOCK
  5
23F
330
23E
100
AcDbEntity
  8
0
100
AcDbBlockBegin
  2
*D11
 70
     1
 10
0.0
 20
0.0
 30
0.0
  3
*D11
  1
*D12
  0
LINE
  5
241
330
23E
100
AcDbEntity
  8
치수문자_일반주서
 62
     0
370
    -2
100
AcDbLine
 10
159.3014525389556
 20
-36.71689416619986
 30
0.0
 11
159.3014525389556
 21
-20.4852114561961
 31
0.0
  0
LINE
  5
242
330
23E
100
AcDbEntity
  8
치수문자_일반주서
 62
     0
370
    -2
100
AcDbLine
 10
148.1889525389556
 20
-36.96797577204138
 30
0.0
 11
148.1889525389556
 21
-20.4852114561961
 31
0.0
  0
LINE
  5
243
330
23E
100
AcDbEntity
  8
치수문자_일반주서
 62
     0
370
    -2
100
AcDbLine
 10
148.1889525389556
 20
-20.4852114561961
 30
0.0
 11
118.3974525389556
 21
-20.4852114561961
 31
0.0
  0
LINE
  5
244
330
23E
100
AcDbEntity
  8
치수문자_일반주서
 62
     0
370
    -2
100
AcDbLine
 10
155.9994525389556
 20
-20.4852114561961
 30
0.0
 11
151.4909525389556
 21
-20.4852114561961
 31
0.0
  0
SOLID
  5
245
330
23E
100
AcDbEntity
  8
치수문자_일반주서
 62
     0
100
AcDbTrace
 10
155.9994525389556
 20
-21.03554478952944
 30
0.0
 11
155.9994525389556
 21
-19.93487812286277
 31
0.0
 12
159.3014525389556
 22
-20.4852114561961
 32
0.0
 13
159.3014525389556
 23
-20.4852114561961
 33
0.0
  0
SOLID
  5
246
330
23E
100
AcDbEntity
  8
치수문자_일반주서
 62
     0
100
AcDbTrace
 10
151.4909525389556
 20
-19.93487812286277
 30
0.0
 11
151.4909525389556
 21
-21.03554478952944
 31
0.0
 12
148.1889525389556
 22
-20.4852114561961
 32
0.0
 13
148.1889525389556
 23
-20.4852114561961
 33
0.0
  0
MTEXT
  5
247
330
23E
100
AcDbEntity
  8
치수문자_일반주서
 62
     0
100
AcDbMText
 10
129.9912025389556
 20
-16.1102114561961
 30
0.0
 40
3.5
 41
0.0
 71
     2
 72
     1
  1
\A1;11.11 [0.44]
  7
SLDTEXTSTYLE0
 73
     1
 44
1.0
  0
POINT
  5
248
330
23E
100
AcDbEntity
  8
Defpoints
 62
     0
100
AcDbPoint
 10
159.3014525389556
 20
-36.77939416619986
 30
0.0
  0
POINT
  5
249
330
23E
100
AcDbEntity
  8
Defpoints
 62
     0
100
AcDbPoint
 10
148.1889525389556
 20
-37.03047577204138
 30
0.0
  0
POINT
  5
24A
330
23E
100
AcDbEntity
  8
Defpoints
 62
     0
100
AcDbPoint
 10
148.1889525389556
 20
-20.4852114561961
 30
0.0
  0
ENDBLK
  5
240
330
23E
100
AcDbEntity
  8
0
100
AcDbBlockEnd
  0
BLOCK
  5
24C
330
24B
100
AcDbEntity
  8
0
100
AcDbBlockBegin
  2
*D12
 70
     1
 10
0.0
 20
0.0
 30
0.0
  3
*D12
  1
*D13
  0
LINE
  5
24E
330
24B
100
AcDbEntity
  8
치수문자_일반주서
 62
     0
370
    -2
100
AcDbLine
 10
159.3014525389556
 20
-36.71689416619986
 30
0.0
 11
159.3014525389556
 21
10.80445715508216
 31
0.0
  0
LINE
  5
24F
330
24B
100
AcDbEntity
  8
치수문자_일반주서
 62
     0
370
    -2
100
AcDbLine
 10
79.92645253895563
 20
-34.69283166619987
 30
0.0
 11
79.92645253895563
 21
10.80445715508216
 31
0.0
  0
LINE
  5
250
330
24B
100
AcDbEntity
  8
치수문자_일반주서
 62
     0
370
    -2
100
AcDbLine
 10
155.9994525389556
 20
10.80445715508216
 30
0.0
 11
83.22845253895562
 21
10.80445715508216
 31
0.0
  0
SOLID
  5
251
330
24B
100
AcDbEntity
  8
치수문자_일반주서
 62
     0
100
AcDbTrace
 10
155.9994525389556
 20
10.25412382174883
 30
0.0
 11
155.9994525389556
 21
11.35479048841549
 31
0.0
 12
159.3014525389556
 22
10.80445715508216
 32
0.0
 13
159.3014525389556
 23
10.80445715508216
 33
0.0
  0
SOLID
  5
252
330
24B
100
AcDbEntity
  8
치수문자_일반주서
 62
     0
100
AcDbTrace
 10
83.22845253895562
 20
11.35479048841549
 30
0.0
 11
83.22845253895562
 21
10.25412382174883
 31
0.0
 12
79.92645253895563
 22
10.80445715508216
 32
0.0
 13
79.92645253895563
 23
10.80445715508216
 33
0.0
  0
MTEXT
  5
253
330
24B
100
AcDbEntity
  8
치수문자_일반주서
 62
     0
100
AcDbMText
 10
117.5887032526763
 20
15.17945715508216
 30
0.0
 40
3.5
 41
0.0
 71
     2
 72
     1
  1
\A1;79.38 [3.13]
  7
SLDTEXTSTYLE0
 73
     1
 44
1.0
  0
POINT
  5
254
330
24B
100
AcDbEntity
  8
Defpoints
 62
     0
100
AcDbPoint
 10
159.3014525389556
 20
-36.77939416619986
 30
0.0
  0
POINT
  5
255
330
24B
100
AcDbEntity
  8
Defpoints
 62
     0
100
AcDbPoint
 10
79.92645253895563
 20
-34.75533166619987
 30
0.0
  0
POINT
  5
256
330
24B
100
AcDbEntity
  8
Defpoints
 62
     0
100
AcDbPoint
 10
79.92645253895563
 20
10.80445715508216
 30
0.0
  0
ENDBLK
  5
24D
330
24B
100
AcDbEntity
  8
0
100
AcDbBlockEnd
  0
BLOCK
  5
2E2
330
2E1
100
AcDbEntity
  8
0
100
AcDbBlockBegin
  2
*D13
 70
     1
 10
0.0
 20
0.0
 30
0.0
  3
*D13
  1
*D15
  0
LINE
  5
2E4
330
2E1
100
AcDbEntity
  8
치수문자_일반주서
 62
     0
370
    -2
100
AcDbLine
 10
88.78749999999998
 20
13.74774999999994
 30
0.0
 11
101.568831931737
 21
13.74775
 31
0.0
  0
LINE
  5
2E5
330
2E1
100
AcDbEntity
  8
치수문자_일반주서
 62
     0
370
    -2
100
AcDbLine
 10
88.7875
 20
6.603999999999946
 30
0.0
 11
101.568831931737
 21
6.603999999999999
 31
0.0
  0
LINE
  5
2E6
330
2E1
100
AcDbEntity
  8
치수문자_일반주서
 62
     0
370
    -2
100
AcDbLine
 10
101.568831931737
 20
13.74775
 30
0.0
 11
101.5688319317368
 21
61.27883018455726
 31
0.0
  0
LINE
  5
2E7
330
2E1
100
AcDbEntity
  8
치수문자_일반주서
 62
     0
370
    -2
100
AcDbLine
 10
101.568831931737
 20
17.04975
 30
0.0
 11
101.568831931737
 21
20.35175
 31
0.0
  0
LINE
  5
2E8
330
2E1
100
AcDbEntity
  8
치수문자_일반주서
 62
     0
370
    -2
100
AcDbLine
 10
101.568831931737
 20
3.302
 30
0.0
 11
101.568831931737
 21
0.0
 31
0.0
  0
SOLID
  5
2E9
330
2E1
100
AcDbEntity
  8
치수문자_일반주서
 62
     0
100
AcDbTrace
 10
101.0184985984036
 20
17.04974999999999
 30
0.0
 11
102.1191652650703
 21
17.04975
 31
0.0
 12
101.568831931737
 22
13.74775
 32
0.0
 13
101.568831931737
 23
13.74775
 33
0.0
  0
SOLID
  5
2EA
330
2E1
100
AcDbEntity
  8
치수문자_일반주서
 62
     0
100
AcDbTrace
 10
102.1191652650704
 20
3.302000000000002
 30
0.0
 11
101.0184985984037
 21
3.301999999999997
 31
0.0
 12
101.568831931737
 22
6.603999999999999
 32
0.0
 13
101.568831931737
 23
6.603999999999999
 33
0.0
  0
MTEXT
  5
2EB
330
2E1
100
AcDbEntity
  8
치수문자_일반주서
 62
     0
100
AcDbMText
 10
97.19383193173685
 20
47.27883018455724
 30
0.0
 40
3.5
 41
0.0
 71
     2
 72
     1
  1
\A1;%%c7.14 [9/32]
  7
SLDTEXTSTYLE0
 11
-3.978542002506248E-15
 21
1.0
 31
0.0
 73
     1
 44
1.0
  0
POINT
  5
2EC
330
2E1
100
AcDbEntity
  8
Defpoints
 62
     0
100
AcDbPoint
 10
88.72499999999998
 20
13.74774999999994
 30
0.0
  0
POINT
  5
2ED
330
2E1
100
AcDbEntity
  8
Defpoints
 62
     0
100
AcDbPoint
 10
88.725
 20
6.603999999999946
 30
0.0
  0
POINT
  5
2EE
330
2E1
100
AcDbEntity
  8
Defpoints
 62
     0
100
AcDbPoint
 10
101.568831931737
 20
6.603999999999994
 30
0.0
  0
ENDBLK
  5
2E3
330
2E1
100
AcDbEntity
  8
0
100
AcDbBlockEnd
  0
BLOCK
  5
2F0
330
2EF
100
AcDbEntity
  8
0
100
AcDbBlockBegin
  2
*D14
 70
     1
 10
0.0
 20
0.0
 30
0.0
  3
*D14
  1
*D16
  0
LINE
  5
2F2
330
2EF
100
AcDbEntity
  8
치수문자_일반주서
 62
     0
370
    -2
100
AcDbLine
 10
88.725
 20
13.81024999999994
 30
0.0
 11
88.725
 21
30.04262572769285
 31
0.0
  0
LINE
  5
2F3
330
2EF
100
AcDbEntity
  8
치수문자_일반주서
 62
     0
370
    -2
100
AcDbLine
 10
71.26249999999999
 20
13.78512598548685
 30
0.0
 11
71.26249999999999
 21
30.04262572769285
 31
0.0
  0
LINE
  5
2F4
330
2EF
100
AcDbEntity
  8
치수문자_일반주서
 62
     0
370
    -2
100
AcDbLine
 10
71.26249999999999
 20
30.04262572769285
 30
0.0
 11
36.65849999999999
 21
30.04262572769285
 31
0.0
  0
LINE
  5
2F5
330
2EF
100
AcDbEntity
  8
치수문자_일반주서
 62
     0
370
    -2
100
AcDbLine
 10
85.423
 20
30.04262572769285
 30
0.0
 11
74.56449999999998
 21
30.04262572769285
 31
0.0
  0
SOLID
  5
2F6
330
2EF
100
AcDbEntity
  8
치수문자_일반주서
 62
     0
100
AcDbTrace
 10
85.423
 20
29.49229239435952
 30
0.0
 11
85.423
 21
30.59295906102619
 31
0.0
 12
88.725
 22
30.04262572769285
 32
0.0
 13
88.725
 23
30.04262572769285
 33
0.0
  0
SOLID
  5
2F7
330
2EF
100
AcDbEntity
  8
치수문자_일반주서
 62
     0
100
AcDbTrace
 10
74.56449999999998
 20
30.59295906102619
 30
0.0
 11
74.56449999999998
 21
29.49229239435952
 31
0.0
 12
71.26249999999999
 22
30.04262572769285
 32
0.0
 13
71.26249999999999
 23
30.04262572769285
 33
0.0
  0
MTEXT
  5
2F8
330
2EF
100
AcDbEntity
  8
치수문자_일반주서
 62
     0
100
AcDbMText
 10
50.6585
 20
34.41762572769285
 30
0.0
 40
3.5
 41
0.0
 71
     2
 72
     1
  1
\A1;17.46 [11/16]
  7
SLDTEXTSTYLE0
 73
     1
 44
1.0
  0
POINT
  5
2F9
330
2EF
100
AcDbEntity
  8
Defpoints
 62
     0
100
AcDbPoint
 10
88.725
 20
13.74774999999994
 30
0.0
  0
POINT
  5
2FA
330
2EF
100
AcDbEntity
  8
Defpoints
 62
     0
100
AcDbPoint
 10
71.26249999999999
 20
13.72262598548685
 30
0.0
  0
POINT
  5
2FB
330
2EF
100
AcDbEntity
  8
Defpoints
 62
     0
100
AcDbPoint
 10
71.26249999999999
 20
30.04262572769285
 30
0.0
  0
ENDBLK
  5
2F1
330
2EF
100
AcDbEntity
  8
0
100
AcDbBlockEnd
  0
BLOCK
  5
2FD
330
2FC
100
AcDbEntity
  8
0
100
AcDbBlockBegin
  2
*D15
 70
     1
 10
0.0
 20
0.0
 30
0.0
  3
*D15
  1
*D17
  0
LINE
  5
2FF
330
2FC
100
AcDbEntity
  8
치수문자_일반주서
 62
     0
370
    -2
100
AcDbLine
 10
88.725
 20
13.81024999999994
 30
0.0
 11
88.725
 21
43.98018604429626
 31
0.0
  0
LINE
  5
300
330
2FC
100
AcDbEntity
  8
치수문자_일반주서
 62
     0
370
    -2
100
AcDbLine
 10
3.000000000000007
 20
14.04837499999994
 30
0.0
 11
3.000000000000007
 21
43.98018604429626
 31
0.0
  0
LINE
  5
301
330
2FC
100
AcDbEntity
  8
치수문자_일반주서
 62
     0
370
    -2
100
AcDbLine
 10
85.423
 20
43.98018604429626
 30
0.0
 11
6.302000000000007
 21
43.98018604429626
 31
0.0
  0
SOLID
  5
302
330
2FC
100
AcDbEntity
  8
치수문자_일반주서
 62
     0
100
AcDbTrace
 10
85.423
 20
43.42985271096293
 30
0.0
 11
85.423
 21
44.5305193776296
 31
0.0
 12
88.725
 22
43.98018604429626
 32
0.0
 13
88.725
 23
43.98018604429626
 33
0.0
  0
SOLID
  5
303
330
2FC
100
AcDbEntity
  8
치수문자_일반주서
 62
     0
100
AcDbTrace
 10
6.302000000000007
 20
44.5305193776296
 30
0.0
 11
6.302000000000007
 21
43.42985271096293
 31
0.0
 12
3.000000000000007
 22
43.98018604429626
 32
0.0
 13
3.000000000000007
 23
43.98018604429626
 33
0.0
  0
MTEXT
  5
304
330
2FC
100
AcDbEntity
  8
치수문자_일반주서
 62
     0
100
AcDbMText
 10
51.10982416833016
 20
48.35518604429626
 30
0.0
 40
3.5
 41
0.0
 71
     2
 72
     1
  1
\A1;85.73 [3 3/8]
  7
SLDTEXTSTYLE0
 73
     1
 44
1.0
  0
POINT
  5
305
330
2FC
100
AcDbEntity
  8
Defpoints
 62
     0
100
AcDbPoint
 10
88.725
 20
13.74774999999994
 30
0.0
  0
POINT
  5
306
330
2FC
100
AcDbEntity
  8
Defpoints
 62
     0
100
AcDbPoint
 10
3.000000000000007
 20
13.98587499999994
 30
0.0
  0
POINT
  5
307
330
2FC
100
AcDbEntity
  8
Defpoints
 62
     0
100
AcDbPoint
 10
3.000000000000007
 20
43.98018604429626
 30
0.0
  0
ENDBLK
  5
2FE
330
2FC
100
AcDbEntity
  8
0
100
AcDbBlockEnd
  0
BLOCK
  5
336
330
335
100
AcDbEntity
  8
0
100
AcDbBlockBegin
  2
*D16
 70
     1
 10
0.0
 20
0.0
 30
0.0
  3
*D16
  1
*D18
  0
LINE
  5
338
330
335
100
AcDbEntity
  8
치수문자_일반주서
 62
     0
370
    -2
100
AcDbLine
 10
162.8741624407286
 20
-45.71715340132881
 30
0.0
 11
175.6554943724656
 21
-45.71715340132876
 31
0.0
  0
LINE
  5
339
330
335
100
AcDbEntity
  8
치수문자_일반주서
 62
     0
370
    -2
100
AcDbLine
 10
162.8741624407286
 20
-52.86090340132881
 30
0.0
 11
175.6554943724656
 21
-52.86090340132876
 31
0.0
  0
LINE
  5
33A
330
335
100
AcDbEntity
  8
치수문자_일반주서
 62
     0
370
    -2
100
AcDbLine
 10
175.6554943724656
 20
-45.71715340132876
 30
0.0
 11
175.6554943724654
 21
1.813926783228503
 31
0.0
  0
LINE
  5
33B
330
335
100
AcDbEntity
  8
치수문자_일반주서
 62
     0
370
    -2
100
AcDbLine
 10
175.6554943724656
 20
-42.41515340132876
 30
0.0
 11
175.6554943724656
 21
-39.11315340132876
 31
0.0
  0
LINE
  5
33C
330
335
100
AcDbEntity
  8
치수문자_일반주서
 62
     0
370
    -2
100
AcDbLine
 10
175.6554943724656
 20
-56.16290340132876
 30
0.0
 11
175.6554943724656
 21
-59.46490340132876
 31
0.0
  0
SOLID
  5
33D
330
335
100
AcDbEntity
  8
치수문자_일반주서
 62
     0
100
AcDbTrace
 10
175.1051610391323
 20
-42.41515340132876
 30
0.0
 11
176.2058277057989
 21
-42.41515340132876
 31
0.0
 12
175.6554943724656
 22
-45.71715340132876
 32
0.0
 13
175.6554943724656
 23
-45.71715340132876
 33
0.0
  0
SOLID
  5
33E
330
335
100
AcDbEntity
  8
치수문자_일반주서
 62
     0
100
AcDbTrace
 10
176.205827705799
 20
-56.16290340132876
 30
0.0
 11
175.1051610391323
 21
-56.16290340132876
 31
0.0
 12
175.6554943724656
 22
-52.86090340132876
 32
0.0
 13
175.6554943724656
 23
-52.86090340132876
 33
0.0
  0
MTEXT
  5
33F
330
335
100
AcDbEntity
  8
치수문자_일반주서
 62
     0
100
AcDbMText
 10
171.2804943724655
 20
-12.18607321677151
 30
0.0
 40
3.5
 41
0.0
 71
     2
 72
     1
  1
\A1;%%c7.14 [9/32]
  7
SLDTEXTSTYLE0
 11
-3.978542002506246E-15
 21
1.0
 31
0.0
 73
     1
 44
1.0
  0
POINT
  5
340
330
335
100
AcDbEntity
  8
Defpoints
 62
     0
100
AcDbPoint
 10
162.8116624407286
 20
-45.71715340132881
 30
0.0
  0
POINT
  5
341
330
335
100
AcDbEntity
  8
Defpoints
 62
     0
100
AcDbPoint
 10
162.8116624407286
 20
-52.86090340132881
 30
0.0
  0
POINT
  5
342
330
335
100
AcDbEntity
  8
Defpoints
 62
     0
100
AcDbPoint
 10
175.6554943724656
 20
-52.86090340132876
 30
0.0
  0
ENDBLK
  5
337
330
335
100
AcDbEntity
  8
0
100
AcDbBlockEnd
  0
BLOCK
  5
344
330
343
100
AcDbEntity
  8
0
100
AcDbBlockBegin
  2
*D17
 70
     1
 10
0.0
 20
0.0
 30
0.0
  3
*D17
  1
*D19
  0
LINE
  5
346
330
343
100
AcDbEntity
  8
치수문자_일반주서
 62
     0
370
    -2
100
AcDbLine
 10
162.8116624407286
 20
-45.65465340132881
 30
0.0
 11
162.8116624407286
 21
-29.4222776736359
 31
0.0
  0
LINE
  5
347
330
343
100
AcDbEntity
  8
치수문자_일반주서
 62
     0
370
    -2
100
AcDbLine
 10
145.3491624407286
 20
-45.6797774158419
 30
0.0
 11
145.3491624407286
 21
-29.4222776736359
 31
0.0
  0
LINE
  5
348
330
343
100
AcDbEntity
  8
치수문자_일반주서
 62
     0
370
    -2
100
AcDbLine
 10
145.3491624407286
 20
-29.4222776736359
 30
0.0
 11
110.7451624407286
 21
-29.4222776736359
 31
0.0
  0
LINE
  5
349
330
343
100
AcDbEntity
  8
치수문자_일반주서
 62
     0
370
    -2
100
AcDbLine
 10
159.5096624407286
 20
-29.4222776736359
 30
0.0
 11
148.6511624407286
 21
-29.4222776736359
 31
0.0
  0
SOLID
  5
34A
330
343
100
AcDbEntity
  8
치수문자_일반주서
 62
     0
100
AcDbTrace
 10
159.5096624407286
 20
-29.97261100696924
 30
0.0
 11
159.5096624407286
 21
-28.87194434030257
 31
0.0
 12
162.8116624407286
 22
-29.4222776736359
 32
0.0
 13
162.8116624407286
 23
-29.4222776736359
 33
0.0
  0
SOLID
  5
34B
330
343
100
AcDbEntity
  8
치수문자_일반주서
 62
     0
100
AcDbTrace
 10
148.6511624407286
 20
-28.87194434030257
 30
0.0
 11
148.6511624407286
 21
-29.97261100696924
 31
0.0
 12
145.3491624407286
 22
-29.4222776736359
 32
0.0
 13
145.3491624407286
 23
-29.4222776736359
 33
0.0
  0
MTEXT
  5
34C
330
343
100
AcDbEntity
  8
치수문자_일반주서
 62
     0
100
AcDbMText
 10
124.7451624407286
 20
-25.0472776736359
 30
0.0
 40
3.5
 41
0.0
 71
     2
 72
     1
  1
\A1;17.46 [11/16]
  7
SLDTEXTSTYLE0
 73
     1
 44
1.0
  0
POINT
  5
34D
330
343
100
AcDbEntity
  8
Defpoints
 62
     0
100
AcDbPoint
 10
162.8116624407286
 20
-45.71715340132881
 30
0.0
  0
POINT
  5
34E
330
343
100
AcDbEntity
  8
Defpoints
 62
     0
100
AcDbPoint
 10
145.3491624407286
 20
-45.7422774158419
 30
0.0
  0
POINT
  5
34F
330
343
100
AcDbEntity
  8
Defpoints
 62
     0
100
AcDbPoint
 10
145.3491624407286
 20
-29.4222776736359
 30
0.0
  0
ENDBLK
  5
345
330
343
100
AcDbEntity
  8
0
100
AcDbBlockEnd
  0
BLOCK
  5
351
330
350
100
AcDbEntity
  8
0
100
AcDbBlockBegin
  2
*D18
 70
     1
 10
0.0
 20
0.0
 30
0.0
  3
*D18
  1
*D20
  0
LINE
  5
353
330
350
100
AcDbEntity
  8
치수문자_일반주서
 62
     0
370
    -2
100
AcDbLine
 10
162.8116624407286
 20
-45.65465340132881
 30
0.0
 11
162.8116624407286
 21
-15.48471735703249
 31
0.0
  0
LINE
  5
354
330
350
100
AcDbEntity
  8
치수문자_일반주서
 62
     0
370
    -2
100
AcDbLine
 10
77.08666244072859
 20
-45.41652840132882
 30
0.0
 11
77.08666244072859
 21
-15.48471735703249
 31
0.0
  0
LINE
  5
355
330
350
100
AcDbEntity
  8
치수문자_일반주서
 62
     0
370
    -2
100
AcDbLine
 10
159.5096624407286
 20
-15.48471735703249
 30
0.0
 11
80.38866244072858
 21
-15.48471735703249
 31
0.0
  0
SOLID
  5
356
330
350
100
AcDbEntity
  8
치수문자_일반주서
 62
     0
100
AcDbTrace
 10
159.5096624407286
 20
-16.03505069036583
 30
0.0
 11
159.5096624407286
 21
-14.93438402369916
 31
0.0
 12
162.8116624407286
 22
-15.48471735703249
 32
0.0
 13
162.8116624407286
 23
-15.48471735703249
 33
0.0
  0
SOLID
  5
357
330
350
100
AcDbEntity
  8
치수문자_일반주서
 62
     0
100
AcDbTrace
 10
80.38866244072858
 20
-14.93438402369916
 30
0.0
 11
80.38866244072858
 21
-16.03505069036583
 31
0.0
 12
77.08666244072859
 22
-15.48471735703249
 32
0.0
 13
77.08666244072859
 23
-15.48471735703249
 33
0.0
  0
MTEXT
  5
358
330
350
100
AcDbEntity
  8
치수문자_일반주서
 62
     0
100
AcDbMText
 10
125.1964866090588
 20
-11.10971735703249
 30
0.0
 40
3.5
 41
0.0
 71
     2
 72
     1
  1
\A1;85.73 [3 3/8]
  7
SLDTEXTSTYLE0
 73
     1
 44
1.0
  0
POINT
  5
359
330
350
100
AcDbEntity
  8
Defpoints
 62
     0
100
AcDbPoint
 10
162.8116624407286
 20
-45.71715340132881
 30
0.0
  0
POINT
  5
35A
330
350
100
AcDbEntity
  8
Defpoints
 62
     0
100
AcDbPoint
 10
77.08666244072859
 20
-45.47902840132882
 30
0.0
  0
POINT
  5
35B
330
350
100
AcDbEntity
  8
Defpoints
 62
     0
100
AcDbPoint
 10
77.08666244072859
 20
-15.48471735703249
 30
0.0
  0
ENDBLK
  5
352
330
350
100
AcDbEntity
  8
0
100
AcDbBlockEnd
  0
BLOCK
  5
3E6
330
3E5
100
AcDbEntity
  8
0
100
AcDbBlockBegin
  2
*D19
 70
     1
 10
0.0
 20
0.0
 30
0.0
  3
*D19
  1
*D22
  0
LINE
  5
3E8
330
3E5
100
AcDbEntity
  8
치수문자_일반주서
 62
     0
370
    -2
100
AcDbLine
 10
91.96250000000003
 20
14.14462499999995
 30
0.0
 11
104.353095663637
 21
14.144625
 31
0.0
  0
LINE
  5
3E9
330
3E5
100
AcDbEntity
  8
치수문자_일반주서
 62
     0
370
    -2
100
AcDbLine
 10
91.96250000000003
 20
6.60399999999995
 30
0.0
 11
104.3530956636371
 21
6.603999999999992
 31
0.0
  0
LINE
  5
3EA
330
3E5
100
AcDbEntity
  8
치수문자_일반주서
 62
     0
370
    -2
100
AcDbLine
 10
104.353095663637
 20
14.144625
 30
0.0
 11
104.3530956636369
 21
64.8510429725882
 31
0.0
  0
LINE
  5
3EB
330
3E5
100
AcDbEntity
  8
치수문자_일반주서
 62
     0
370
    -2
100
AcDbLine
 10
104.353095663637
 20
14.144625
 30
0.0
 11
104.3530956636371
 21
6.603999999999992
 31
0.0
  0
LINE
  5
3EC
330
3E5
100
AcDbEntity
  8
치수문자_일반주서
 62
     0
370
    -2
100
AcDbLine
 10
104.353095663637
 20
17.446625
 30
0.0
 11
104.353095663637
 21
20.748625
 31
0.0
  0
LINE
  5
3ED
330
3E5
100
AcDbEntity
  8
치수문자_일반주서
 62
     0
370
    -2
100
AcDbLine
 10
104.3530956636371
 20
3.301999999999992
 30
0.0
 11
104.3530956636371
 21
-0.0000000000000071
 31
0.0
  0
SOLID
  5
3EE
330
3E5
100
AcDbEntity
  8
치수문자_일반주서
 62
     0
100
AcDbTrace
 10
103.8027623303037
 20
17.44662499999999
 30
0.0
 11
104.9034289969703
 21
17.446625
 31
0.0
 12
104.353095663637
 22
14.144625
 32
0.0
 13
104.353095663637
 23
14.144625
 33
0.0
  0
SOLID
  5
3EF
330
3E5
100
AcDbEntity
  8
치수문자_일반주서
 62
     0
100
AcDbTrace
 10
104.9034289969704
 20
3.301999999999995
 30
0.0
 11
103.8027623303038
 21
3.30199999999999
 31
0.0
 12
104.3530956636371
 22
6.603999999999992
 32
0.0
 13
104.3530956636371
 23
6.603999999999992
 33
0.0
  0
MTEXT
  5
3F0
330
3E5
100
AcDbEntity
  8
치수문자_일반주서
 62
     0
100
AcDbMText
 10
99.9780956636369
 20
49.5385429725882
 30
0.0
 40
3.5
 41
0.0
 71
     2
 72
     1
  1
\A1;%%c7.54 [19/64]
  7
SLDTEXTSTYLE0
 11
-3.769145055005918E-15
 21
1.0
 31
0.0
 73
     1
 44
1.0
  0
POINT
  5
3F1
330
3E5
100
AcDbEntity
  8
Defpoints
 62
     0
100
AcDbPoint
 10
91.90000000000003
 20
14.14462499999995
 30
0.0
  0
POINT
  5
3F2
330
3E5
100
AcDbEntity
  8
Defpoints
 62
     0
100
AcDbPoint
 10
91.90000000000003
 20
6.60399999999995
 30
0.0
  0
POINT
  5
3F3
330
3E5
100
AcDbEntity
  8
Defpoints
 62
     0
100
AcDbPoint
 10
104.3530956636371
 20
6.603999999999997
 30
0.0
  0
ENDBLK
  5
3E7
330
3E5
100
AcDbEntity
  8
0
100
AcDbBlockEnd
  0
BLOCK
  5
3F5
330
3F4
100
AcDbEntity
  8
0
100
AcDbBlockBegin
  2
*D20
 70
     1
 10
0.0
 20
0.0
 30
0.0
  3
*D20
  1
*D23
  0
LINE
  5
3F7
330
3F4
100
AcDbEntity
  8
치수문자_일반주서
 62
     0
370
    -2
100
AcDbLine
 10
91.90000000000002
 20
14.20712499999995
 30
0.0
 11
91.90000000000002
 21
29.46363016074425
 31
0.0
  0
LINE
  5
3F8
330
3F4
100
AcDbEntity
  8
치수문자_일반주서
 62
     0
370
    -2
100
AcDbLine
 10
72.85000000000002
 20
14.1709686672756
 30
0.0
 11
72.85000000000002
 21
29.46363016074425
 31
0.0
  0
LINE
  5
3F9
330
3F4
100
AcDbEntity
  8
치수문자_일반주서
 62
     0
370
    -2
100
AcDbLine
 10
72.85000000000002
 20
29.46363016074425
 30
0.0
 11
41.30850000000002
 21
29.46363016074425
 31
0.0
  0
LINE
  5
3FA
330
3F4
100
AcDbEntity
  8
치수문자_일반주서
 62
     0
370
    -2
100
AcDbLine
 10
91.90000000000002
 20
29.46363016074425
 30
0.0
 11
72.85000000000002
 21
29.46363016074425
 31
0.0
  0
LINE
  5
3FB
330
3F4
100
AcDbEntity
  8
치수문자_일반주서
 62
     0
370
    -2
100
AcDbLine
 10
95.20200000000003
 20
29.46363016074425
 30
0.0
 11
98.50400000000002
 21
29.46363016074425
 31
0.0
  0
LINE
  5
3FC
330
3F4
100
AcDbEntity
  8
치수문자_일반주서
 62
     0
370
    -2
100
AcDbLine
 10
69.54800000000003
 20
29.46363016074425
 30
0.0
 11
66.24600000000004
 21
29.46363016074425
 31
0.0
  0
SOLID
  5
3FD
330
3F4
100
AcDbEntity
  8
치수문자_일반주서
 62
     0
100
AcDbTrace
 10
95.20200000000003
 20
30.01396349407758
 30
0.0
 11
95.20200000000003
 21
28.91329682741091
 31
0.0
 12
91.90000000000002
 22
29.46363016074425
 32
0.0
 13
91.90000000000002
 23
29.46363016074425
 33
0.0
  0
SOLID
  5
3FE
330
3F4
100
AcDbEntity
  8
치수문자_일반주서
 62
     0
100
AcDbTrace
 10
69.54800000000003
 20
28.91329682741091
 30
0.0
 11
69.54800000000003
 21
30.01396349407758
 31
0.0
 12
72.85000000000002
 22
29.46363016074425
 32
0.0
 13
72.85000000000002
 23
29.46363016074425
 33
0.0
  0
MTEXT
  5
3FF
330
3F4
100
AcDbEntity
  8
치수문자_일반주서
 62
     0
100
AcDbMText
 10
53.77725000000002
 20
33.83863016074424
 30
0.0
 40
3.5
 41
0.0
 71
     2
 72
     1
  1
\A1;19.05 [3/4]
  7
SLDTEXTSTYLE0
 73
     1
 44
1.0
  0
POINT
  5
400
330
3F4
100
AcDbEntity
  8
Defpoints
 62
     0
100
AcDbPoint
 10
91.90000000000002
 20
14.14462499999995
 30
0.0
  0
POINT
  5
401
330
3F4
100
AcDbEntity
  8
Defpoints
 62
     0
100
AcDbPoint
 10
72.85000000000002
 20
14.1084686672756
 30
0.0
  0
POINT
  5
402
330
3F4
100
AcDbEntity
  8
Defpoints
 62
     0
100
AcDbPoint
 10
72.85000000000002
 20
29.46363016074425
 30
0.0
  0
ENDBLK
  5
3F6
330
3F4
100
AcDbEntity
  8
0
100
AcDbBlockEnd
  0
BLOCK
  5
404
330
403
100
AcDbEntity
  8
0
100
AcDbBlockBegin
  2
*D21
 70
     1
 10
0.0
 20
0.0
 30
0.0
  3
*D21
  1
*D24
  0
LINE
  5
406
330
403
100
AcDbEntity
  8
치수문자_일반주서
 62
     0
370
    -2
100
AcDbLine
 10
91.90000000000002
 20
14.20712499999995
 30
0.0
 11
91.9
 21
43.76583922868297
 31
0.0
  0
LINE
  5
407
330
403
100
AcDbEntity
  8
치수문자_일반주서
 62
     0
370
    -2
100
AcDbLine
 10
3.000000000000007
 20
14.24681249999994
 30
0.0
 11
2.999999999999993
 21
43.76583922868297
 31
0.0
  0
LINE
  5
408
330
403
100
AcDbEntity
  8
치수문자_일반주서
 62
     0
370
    -2
100
AcDbLine
 10
88.59800000000001
 20
43.76583922868297
 30
0.0
 11
6.301999999999992
 21
43.76583922868297
 31
0.0
  0
SOLID
  5
409
330
403
100
AcDbEntity
  8
치수문자_일반주서
 62
     0
100
AcDbTrace
 10
88.59800000000001
 20
43.21550589534964
 30
0.0
 11
88.59800000000001
 21
44.31617256201631
 31
0.0
 12
91.9
 22
43.76583922868297
 32
0.0
 13
91.9
 23
43.76583922868297
 33
0.0
  0
SOLID
  5
40A
330
403
100
AcDbEntity
  8
치수문자_일반주서
 62
     0
100
AcDbTrace
 10
6.301999999999992
 20
44.31617256201631
 30
0.0
 11
6.301999999999992
 21
43.21550589534964
 31
0.0
 12
2.999999999999993
 22
43.76583922868297
 32
0.0
 13
2.999999999999993
 23
43.76583922868297
 33
0.0
  0
MTEXT
  5
40B
330
403
100
AcDbEntity
  8
치수문자_일반주서
 62
     0
100
AcDbMText
 10
45.18172079936718
 20
48.14083922868297
 30
0.0
 40
3.5
 41
0.0
 71
     2
 72
     1
  1
\A1;88.9 [3 1/2]
  7
SLDTEXTSTYLE0
 73
     1
 44
1.0
  0
POINT
  5
40C
330
403
100
AcDbEntity
  8
Defpoints
 62
     0
100
AcDbPoint
 10
91.90000000000002
 20
14.14462499999995
 30
0.0
  0
POINT
  5
40D
330
403
100
AcDbEntity
  8
Defpoints
 62
     0
100
AcDbPoint
 10
3.000000000000007
 20
14.18431249999994
 30
0.0
  0
POINT
  5
40E
330
403
100
AcDbEntity
  8
Defpoints
 62
     0
100
AcDbPoint
 10
3.000000000000007
 20
43.76583922868297
 30
0.0
  0
ENDBLK
  5
405
330
403
100
AcDbEntity
  8
0
100
AcDbBlockEnd
  0
BLOCK
  5
43C
330
43B
100
AcDbEntity
  8
0
100
AcDbBlockBegin
  2
*D22
 70
     1
 10
0.0
 20
0.0
 30
0.0
  3
*D22
  1
*D25
  0
LINE
  5
43E
330
43B
100
AcDbEntity
  8
치수문자_일반주서
 62
     0
370
    -2
100
AcDbLine
 10
242.6819443081683
 20
-50.59603955998701
 30
0.0
 11
255.0725399718054
 21
-50.59603955998696
 31
0.0
  0
LINE
  5
43F
330
43B
100
AcDbEntity
  8
치수문자_일반주서
 62
     0
370
    -2
100
AcDbLine
 10
242.6819443081683
 20
-58.136664559987
 30
0.0
 11
255.0725399718054
 21
-58.13666455998696
 31
0.0
  0
LINE
  5
440
330
43B
100
AcDbEntity
  8
치수문자_일반주서
 62
     0
370
    -2
100
AcDbLine
 10
255.0725399718054
 20
-50.59603955998696
 30
0.0
 11
255.0725399718052
 21
0.110378412601257
 31
0.0
  0
LINE
  5
441
330
43B
100
AcDbEntity
  8
치수문자_일반주서
 62
     0
370
    -2
100
AcDbLine
 10
255.0725399718054
 20
-50.59603955998696
 30
0.0
 11
255.0725399718054
 21
-58.13666455998696
 31
0.0
  0
LINE
  5
442
330
43B
100
AcDbEntity
  8
치수문자_일반주서
 62
     0
370
    -2
100
AcDbLine
 10
255.0725399718054
 20
-47.29403955998696
 30
0.0
 11
255.0725399718054
 21
-43.99203955998696
 31
0.0
  0
LINE
  5
443
330
43B
100
AcDbEntity
  8
치수문자_일반주서
 62
     0
370
    -2
100
AcDbLine
 10
255.0725399718054
 20
-61.43866455998696
 30
0.0
 11
255.0725399718054
 21
-64.74066455998695
 31
0.0
  0
SOLID
  5
444
330
43B
100
AcDbEntity
  8
치수문자_일반주서
 62
     0
100
AcDbTrace
 10
254.522206638472
 20
-47.29403955998696
 30
0.0
 11
255.6228733051387
 21
-47.29403955998696
 31
0.0
 12
255.0725399718054
 22
-50.59603955998696
 32
0.0
 13
255.0725399718054
 23
-50.59603955998696
 33
0.0
  0
SOLID
  5
445
330
43B
100
AcDbEntity
  8
치수문자_일반주서
 62
     0
100
AcDbTrace
 10
255.6228733051387
 20
-61.43866455998696
 30
0.0
 11
254.5222066384721
 21
-61.43866455998696
 31
0.0
 12
255.0725399718054
 22
-58.13666455998696
 32
0.0
 13
255.0725399718054
 23
-58.13666455998696
 33
0.0
  0
MTEXT
  5
446
330
43B
100
AcDbEntity
  8
치수문자_일반주서
 62
     0
100
AcDbMText
 10
250.6975399718052
 20
-15.20212158739876
 30
0.0
 40
3.5
 41
0.0
 71
     2
 72
     1
  1
\A1;%%c7.54 [19/64]
  7
SLDTEXTSTYLE0
 11
-3.769145055005923E-15
 21
1.0
 31
0.0
 73
     1
 44
1.0
  0
POINT
  5
447
330
43B
100
AcDbEntity
  8
Defpoints
 62
     0
100
AcDbPoint
 10
242.6194443081683
 20
-50.59603955998701
 30
0.0
  0
POINT
  5
448
330
43B
100
AcDbEntity
  8
Defpoints
 62
     0
100
AcDbPoint
 10
242.6194443081683
 20
-58.136664559987
 30
0.0
  0
POINT
  5
449
330
43B
100
AcDbEntity
  8
Defpoints
 62
     0
100
AcDbPoint
 10
255.0725399718054
 20
-58.13666455998695
 30
0.0
  0
ENDBLK
  5
43D
330
43B
100
AcDbEntity
  8
0
100
AcDbBlockEnd
  0
BLOCK
  5
44B
330
44A
100
AcDbEntity
  8
0
100
AcDbBlockBegin
  2
*D23
 70
     1
 10
0.0
 20
0.0
 30
0.0
  3
*D23
  1
*D26
  0
LINE
  5
44D
330
44A
100
AcDbEntity
  8
치수문자_일반주서
 62
     0
370
    -2
100
AcDbLine
 10
242.6194443081683
 20
-50.53353955998701
 30
0.0
 11
242.6194443081683
 21
-35.27703439924271
 31
0.0
  0
LINE
  5
44E
330
44A
100
AcDbEntity
  8
치수문자_일반주서
 62
     0
370
    -2
100
AcDbLine
 10
223.5694443081683
 20
-50.56969589271136
 30
0.0
 11
223.5694443081683
 21
-35.27703439924271
 31
0.0
  0
LINE
  5
44F
330
44A
100
AcDbEntity
  8
치수문자_일반주서
 62
     0
370
    -2
100
AcDbLine
 10
223.5694443081683
 20
-35.27703439924271
 30
0.0
 11
192.0279443081683
 21
-35.27703439924271
 31
0.0
  0
LINE
  5
450
330
44A
100
AcDbEntity
  8
치수문자_일반주서
 62
     0
370
    -2
100
AcDbLine
 10
242.6194443081683
 20
-35.27703439924271
 30
0.0
 11
223.5694443081683
 21
-35.27703439924271
 31
0.0
  0
LINE
  5
451
330
44A
100
AcDbEntity
  8
치수문자_일반주서
 62
     0
370
    -2
100
AcDbLine
 10
245.9214443081683
 20
-35.27703439924271
 30
0.0
 11
249.2234443081683
 21
-35.27703439924271
 31
0.0
  0
LINE
  5
452
330
44A
100
AcDbEntity
  8
치수문자_일반주서
 62
     0
370
    -2
100
AcDbLine
 10
220.2674443081683
 20
-35.27703439924271
 30
0.0
 11
216.9654443081683
 21
-35.27703439924271
 31
0.0
  0
SOLID
  5
453
330
44A
100
AcDbEntity
  8
치수문자_일반주서
 62
     0
100
AcDbTrace
 10
245.9214443081683
 20
-34.72670106590937
 30
0.0
 11
245.9214443081683
 21
-35.82736773257604
 31
0.0
 12
242.6194443081683
 22
-35.27703439924271
 32
0.0
 13
242.6194443081683
 23
-35.27703439924271
 33
0.0
  0
SOLID
  5
454
330
44A
100
AcDbEntity
  8
치수문자_일반주서
 62
     0
100
AcDbTrace
 10
220.2674443081683
 20
-35.82736773257604
 30
0.0
 11
220.2674443081683
 21
-34.72670106590937
 31
0.0
 12
223.5694443081683
 22
-35.27703439924271
 32
0.0
 13
223.5694443081683
 23
-35.27703439924271
 33
0.0
  0
MTEXT
  5
455
330
44A
100
AcDbEntity
  8
치수문자_일반주서
 62
     0
100
AcDbMText
 10
204.4966943081683
 20
-30.90203439924271
 30
0.0
 40
3.5
 41
0.0
 71
     2
 72
     1
  1
\A1;19.05 [3/4]
  7
SLDTEXTSTYLE0
 73
     1
 44
1.0
  0
POINT
  5
456
330
44A
100
AcDbEntity
  8
Defpoints
 62
     0
100
AcDbPoint
 10
242.6194443081683
 20
-50.59603955998701
 30
0.0
  0
POINT
  5
457
330
44A
100
AcDbEntity
  8
Defpoints
 62
     0
100
AcDbPoint
 10
223.5694443081683
 20
-50.63219589271136
 30
0.0
  0
POINT
  5
458
330
44A
100
AcDbEntity
  8
Defpoints
 62
     0
100
AcDbPoint
 10
223.5694443081683
 20
-35.27703439924271
 30
0.0
  0
ENDBLK
  5
44C
330
44A
100
AcDbEntity
  8
0
100
AcDbBlockEnd
  0
BLOCK
  5
45A
330
459
100
AcDbEntity
  8
0
100
AcDbBlockBegin
  2
*D24
 70
     1
 10
0.0
 20
0.0
 30
0.0
  3
*D24
  1
*D27
  0
LINE
  5
45C
330
459
100
AcDbEntity
  8
치수문자_일반주서
 62
     0
370
    -2
100
AcDbLine
 10
242.6194443081683
 20
-50.53353955998701
 30
0.0
 11
242.6194443081683
 21
-20.97482533130398
 31
0.0
  0
LINE
  5
45D
330
459
100
AcDbEntity
  8
치수문자_일반주서
 62
     0
370
    -2
100
AcDbLine
 10
153.7194443081683
 20
-50.49385205998701
 30
0.0
 11
153.7194443081683
 21
-20.97482533130398
 31
0.0
  0
LINE
  5
45E
330
459
100
AcDbEntity
  8
치수문자_일반주서
 62
     0
370
    -2
100
AcDbLine
 10
239.3174443081683
 20
-20.97482533130398
 30
0.0
 11
157.0214443081683
 21
-20.97482533130398
 31
0.0
  0
SOLID
  5
45F
330
459
100
AcDbEntity
  8
치수문자_일반주서
 62
     0
100
AcDbTrace
 10
239.3174443081683
 20
-21.52515866463732
 30
0.0
 11
239.3174443081683
 21
-20.42449199797065
 31
0.0
 12
242.6194443081683
 22
-20.97482533130398
 32
0.0
 13
242.6194443081683
 23
-20.97482533130398
 33
0.0
  0
SOLID
  5
460
330
459
100
AcDbEntity
  8
치수문자_일반주서
 62
     0
100
AcDbTrace
 10
157.0214443081683
 20
-20.42449199797065
 30
0.0
 11
157.0214443081683
 21
-21.52515866463732
 31
0.0
 12
153.7194443081683
 22
-20.97482533130398
 32
0.0
 13
153.7194443081683
 23
-20.97482533130398
 33
0.0
  0
MTEXT
  5
461
330
459
100
AcDbEntity
  8
치수문자_일반주서
 62
     0
100
AcDbMText
 10
195.9011651075355
 20
-16.59982533130398
 30
0.0
 40
3.5
 41
0.0
 71
     2
 72
     1
  1
\A1;88.9 [3 1/2]
  7
SLDTEXTSTYLE0
 73
     1
 44
1.0
  0
POINT
  5
462
330
459
100
AcDbEntity
  8
Defpoints
 62
     0
100
AcDbPoint
 10
242.6194443081683
 20
-50.59603955998701
 30
0.0
  0
POINT
  5
463
330
459
100
AcDbEntity
  8
Defpoints
 62
     0
100
AcDbPoint
 10
153.7194443081683
 20
-50.55635205998701
 30
0.0
  0
POINT
  5
464
330
459
100
AcDbEntity
  8
Defpoints
 62
     0
100
AcDbPoint
 10
153.7194443081683
 20
-20.97482533130398
 30
0.0
  0
ENDBLK
  5
45B
330
459
100
AcDbEntity
  8
0
100
AcDbBlockEnd
  0
ENDSEC
  0
SECTION
  2
ENTITIES
  0
LINE
  5
96
330
1F
100
AcDbEntity
  8
0
  6
Continuous
 62
     1
370
    15
100
AcDbLine
 10
34.75203571812115
 20
-3.770312500000003
 30
0.0
 11
37.05202446403637
 21
-3.770312500000003
 31
0.0
  0
LINE
  5
97
330
1F
100
AcDbEntity
  8
0
  6
Continuous
 62
     1
370
    15
100
AcDbLine
 10
26.79431669552815
 20
3.770312499999999
 30
0.0
 11
25.40000000000001
 21
3.770312499999999
 31
0.0
  0
LINE
  5
98
330
1F
100
AcDbEntity
  8
0
  6
Continuous
 62
     1
370
    15
100
AcDbLine
 10
37.0520244640364
 20
3.770312499999999
 30
0.0
 11
34.75203571812118
 21
3.770312499999999
 31
0.0
  0
LINE
  5
99
330
1F
100
AcDbEntity
  8
0
  6
Continuous
 62
     1
370
    15
100
AcDbLine
 10
25.40000000000001
 20
-3.770312500000003
 30
0.0
 11
26.79431669552809
 21
-3.770312500000003
 31
0.0
  0
LINE
  5
9A
330
1F
100
AcDbEntity
  8
외형선
  6
Continuous
370
    15
100
AcDbLine
 10
20.69710583936524
 20
-4.76250000000001
 30
0.0
 11
24.40000000000001
 21
-3.770312500000002
 31
0.0
  0
LINE
  5
9B
330
1F
100
AcDbEntity
  8
외형선
  6
Continuous
370
    15
100
AcDbLine
 10
24.40000000000001
 20
3.770312499999998
 30
0.0
 11
20.69710583936524
 21
4.762500000000006
 31
0.0
  0
LINE
  5
9C
330
1F
100
AcDbEntity
  8
외형선
  6
Continuous
370
    15
100
AcDbLine
 10
-20.69710583936527
 20
-4.762500000000006
 30
0.0
 11
20.69710583936524
 21
-4.762500000000006
 31
0.0
  0
LINE
  5
9D
330
1F
100
AcDbEntity
  8
외형선
  6
Continuous
370
    15
100
AcDbLine
 10
20.69710583936524
 20
4.762500000000002
 30
0.0
 11
4.838700000000017
 21
4.762500000000002
 31
0.0
  0
LINE
  5
A0
330
1F
100
AcDbEntity
  8
외형선
  6
Continuous
370
    15
100
AcDbLine
 10
24.40000000000001
 20
-3.770312500000002
 30
0.0
 11
25.40000000000001
 21
-3.770312500000002
 31
0.0
  0
LINE
  5
A1
330
1F
100
AcDbEntity
  8
외형선
  6
Continuous
370
    15
100
AcDbLine
 10
25.40000000000001
 20
3.770312499999998
 30
0.0
 11
24.40000000000001
 21
3.770312499999998
 31
0.0
  0
LINE
  5
A2
330
1F
100
AcDbEntity
  8
0
  6
Continuous
 62
     1
370
    15
100
AcDbLine
 10
44.45000000000001
 20
-3.414701712115807
 30
0.0
 11
44.45000000000001
 21
0.3230454621158482
 31
0.0
  0
SPLINE
  5
A3
330
1F
100
AcDbEntity
  8
0
  6
Continuous
 62
     1
370
    15
100
AcDbSpline
210
0.0
220
0.0
230
1.0
 70
     8
 71
     3
 72
    20
 73
    16
 74
     0
 42
0.000000001
 43
0.00000001
 40
0.0
 40
0.0
 40
0.0
 40
0.0
 40
0.0073591065084216
 40
0.0936821052870033
 40
0.1800023465747558
 40
0.2663200902560832
 40
0.3526355970325737
 40
0.4389491283385334
 40
0.5252609462559955
 40
0.6043670712075994
 40
0.683466825908551
 40
0.7625701237653375
 40
0.8416868652440926
 40
0.9208269017691857
 40
1.0
 40
1.0
 40
1.0
 40
1.0
 10
26.79431669552814
 20
3.762332761161845
 30
0.0
 10
26.83762989186523
 20
3.764948360790905
 30
0.0
 10
27.38901088015839
 20
3.798245185555952
 30
0.0
 10
28.44843318313533
 20
3.669655200032388
 30
0.0
 10
29.9725698389802
 20
3.36648323209515
 30
0.0
 10
31.49665050623789
 20
2.859133233917602
 30
0.0
 10
33.02069121991259
 20
2.202572629698138
 30
0.0
 10
34.54466344719279
 20
1.425035313917136
 30
0.0
 10
36.0262960125498
 20
0.5944650124090269
 30
0.0
 10
37.46513067285542
 20
-0.240532249374524
 30
0.0
 10
38.861594326899
 20
-1.039753435448323
 30
0.0
 10
40.25811373318392
 20
-1.792400988321234
 30
0.0
 10
41.65492555897399
 20
-2.460391498816223
 30
0.0
 10
43.05221834483687
 20
-3.027453279246517
 30
0.0
 10
43.98400791743727
 20
-3.28560093086335
 30
0.0
 10
44.45000000000002
 20
-3.414701712115808
 30
0.0
  0
SPLINE
  5
A4
330
1F
100
AcDbEntity
  8
0
  6
Continuous
 62
     1
370
    15
100
AcDbSpline
210
0.0
220
0.0
230
1.0
 70
     8
 71
     3
 72
    17
 73
    13
 74
     0
 42
0.000000001
 43
0.00000001
 40
0.0
 40
0.0
 40
0.0
 40
0.0
 40
0.1113090704340534
 40
0.2226135581810388
 40
0.3339137943739897
 40
0.4452101115310594
 40
0.5565028434491357
 40
0.6677923250965367
 40
0.7790788925049278
 40
0.881081773170077
 40
0.9830684758251943
 40
1.0
 40
1.0
 40
1.0
 40
1.0
 10
44.45000000000004
 20
0.3230454621158491
 30
0.0
 10
43.94186330724887
 20
0.6135865379273103
 30
0.0
 10
42.92561084215706
 20
1.194656727732336
 30
0.0
 10
41.40127823524455
 20
1.996792245066894
 30
0.0
 10
39.87701406280047
 20
2.69191562046923
 30
0.0
 10
38.35281617970131
 20
3.240655698046719
 30
0.0
 10
36.82867096044339
 20
3.614038687795378
 30
0.0
 10
35.30460217154938
 20
3.790419161743523
 30
0.0
 10
33.82286463414843
 20
3.76580115008426
 30
0.0
 10
32.38389171115177
 20
3.544293710102416
 30
0.0
 10
31.37556421373189
 20
3.306165694074262
 30
0.0
 10
30.83280433157493
 20
3.105141389262689
 30
0.0
 10
30.75552642127615
 20
3.076519638271494
 30
0.0
  0
SPLINE
  5
A5
330
1F
100
AcDbEntity
  8
0
  6
Continuous
 62
     1
370
    15
100
AcDbSpline
210
0.0
220
0.0
230
1.0
 70
     8
 71
     3
 72
    18
 73
    14
 74
     0
 42
0.000000001
 43
0.00000001
 40
0.0
 40
0.0
 40
0.0
 40
0.0
 40
0.0975366036184806
 40
0.1950697990332806
 40
0.292599878860163
 40
0.3901271367330014
 40
0.4876518672089734
 40
0.5851743656731286
 40
0.6826949282423613
 40
0.7720740421816544
 40
0.8614459586079976
 40
0.9508218783163755
 40
1.0
 40
1.0
 40
1.0
 40
1.0
 10
25.40000000000004
 20
0.798583099660311
 30
0.0
 10
25.90808618676658
 20
0.5077223759925427
 30
0.0
 10
26.92424080633709
 20
-0.0739889078499856
 30
0.0
 10
28.44843377772445
 20
-0.9541560664044949
 30
0.0
 10
29.9725696804075
 20
-1.779463035541491
 30
0.0
 10
31.49665054596468
 20
-2.509121904419523
 30
0.0
 10
33.02069121957179
 20
-3.102466598453853
 30
0.0
 10
34.54466340883199
 20
-3.527809795817028
 30
0.0
 10
36.02629616098347
 20
-3.754796573806625
 30
0.0
 10
37.46513016779348
 20
-3.792685871529087
 30
0.0
 10
38.86159621784121
 20
-3.649846444591269
 30
0.0
 10
40.04867101172651
 20
-3.408472978560671
 30
0.0
 10
40.77032172968311
 20
-3.16254814040782
 30
0.0
 10
41.02646313461216
 20
-3.075260021676665
 30
0.0
  0
SPLINE
  5
A6
330
1F
100
AcDbEntity
  8
외형선
  6
Continuous
370
    15
100
AcDbSpline
210
0.0
220
0.0
230
1.0
 70
    24
 71
     3
 72
    16
 73
    12
 74
     0
 42
0.000000001
 43
0.00000001
 40
0.0
 40
0.0
 40
0.0
 40
0.0
 40
0.1123735443386035
 40
0.2278635713204882
 40
0.3426505821874705
 40
0.4607664241458199
 40
0.5755534350128029
 40
0.6936692769711531
 40
0.8084562878381355
 40
0.9265721297964855
 40
1.0
 40
1.0
 40
1.0
 40
1.0
 10
25.40000000000001
 20
3.734156167275651
 30
0.0
 10
25.40000000000006
 20
3.620804065453934
 30
0.0
 10
25.40000000000012
 20
3.39095624059622
 30
0.0
 10
25.39999999999993
 20
3.021114817926037
 30
0.0
 10
25.40000000000008
 20
2.639869952640976
 30
0.0
 10
25.39999999999997
 20
2.262174160456401
 30
0.0
 10
25.40000000000004
 20
1.895640336463198
 30
0.0
 10
25.39999999999996
 20
1.556326327870022
 30
0.0
 10
25.39999999999998
 20
1.250545444684819
 30
0.0
 10
25.40000000000007
 20
1.014056601035134
 30
0.0
 10
25.40000000000004
 20
0.9026625735806942
 30
0.0
 10
25.40000000000004
 20
0.8599599126734059
 30
0.0
  0
SPLINE
  5
A7
330
1F
100
AcDbEntity
  8
0
  6
Continuous
 62
     1
370
    15
100
AcDbSpline
210
0.0
220
0.0
230
1.0
 70
     8
 71
     3
 72
    48
 73
    44
 74
     0
 42
0.000000001
 43
0.00000001
 40
0.0
 40
0.0
 40
0.0
 40
0.0
 40
0.0624999999999985
 40
0.0624999999999985
 40
0.0937499999999985
 40
0.0937499999999985
 40
0.1249999999999986
 40
0.1249999999999986
 40
0.1562499999999986
 40
0.1562499999999986
 40
0.1874999999999987
 40
0.1874999999999987
 40
0.2500000000000004
 40
0.2500000000000004
 40
0.3125000000000022
 40
0.3125000000000022
 40
0.3437500000000031
 40
0.3437500000000031
 40
0.3750000000000039
 40
0.3750000000000039
 40
0.4375000000000041
 40
0.4375000000000041
 40
0.5000000000000042
 40
0.5000000000000042
 40
0.5625000000000043
 40
0.5625000000000043
 40
0.5937500000000044
 40
0.5937500000000044
 40
0.6250000000000046
 40
0.6250000000000046
 40
0.687500000000003
 40
0.687500000000003
 40
0.7500000000000014
 40
0.7500000000000014
 40
0.8125
 40
0.8125
 40
0.84375
 40
0.84375
 40
0.875
 40
0.875
 40
0.9375
 40
0.9375
 40
1.0
 40
1.0
 40
1.0
 40
1.0
 10
44.45000000000003
 20
-3.770312499999995
 30
0.0
 10
44.05600509665862
 20
-3.736861912296287
 30
0.0
 10
43.65545626306495
 20
-3.696284192921605
 30
0.0
 10
43.05964123120621
 20
-3.605186341585958
 30
0.0
 10
42.86296011053448
 20
-3.569894782356144
 30
0.0
 10
42.46698367006832
 20
-3.489400528630629
 30
0.0
 10
42.26778603522761
 20
-3.444179830810159
 30
0.0
 10
41.86944659164584
 20
-3.34429714596438
 30
0.0
 10
41.67030822442475
 20
-3.289636029614468
 30
0.0
 10
41.27456640838628
 20
-3.17161433790808
 30
0.0
 10
41.0777430025578
 20
-3.108252378776073
 30
0.0
 10
40.48169799679437
 20
-2.904919768904839
 30
0.0
 10
40.08182995320535
 20
-2.752106066940948
 30
0.0
 10
39.29323225933435
 20
-2.4192970475401
 30
0.0
 10
38.8926107261187
 20
-2.237627828999768
 30
0.0
 10
38.29704232884668
 20
-1.948831725228079
 30
0.0
 10
38.1004648212341
 20
-1.85005637464169
 30
0.0
 10
37.70426474833483
 20
-1.647164013494419
 30
0.0
 10
37.50501345478294
 20
-1.543097283364245
 30
0.0
 10
36.90752110877723
 20
-1.224943455597414
 30
0.0
 10
36.51386392235575
 20
-1.005706967197898
 30
0.0
 10
35.71885285905241
 20
-0.5571380297163285
 30
0.0
 10
35.3196329141616
 20
-0.3281817381387804
 30
0.0
 10
34.5304490053672
 20
0.1290622576353065
 30
0.0
 10
34.12976619793385
 20
0.3594040425497834
 30
0.0
 10
33.53446107287454
 20
0.6989411702316899
 30
0.0
 10
33.33794849658241
 20
0.810946240876247
 30
0.0
 10
32.94153580408295
 20
1.033044389358763
 30
0.0
 10
32.7422364657838
 20
1.143018560431123
 30
0.0
 10
32.14477775693403
 20
1.467640623655537
 30
0.0
 10
31.75128231197696
 20
1.676248772324873
 30
0.0
 10
30.95600912925239
 20
2.074085729235497
 30
0.0
 10
30.55740453145473
 20
2.262697665359137
 30
0.0
 10
29.7676561343491
 20
2.611768375582654
 30
0.0
 10
29.3669234839747
 20
2.77358855423988
 30
0.0
 10
28.77189824415635
 20
2.991142212506367
 30
0.0
 10
28.57541191140336
 20
3.059406706830886
 30
0.0
 10
28.17879763196244
 20
3.18770842183145
 30
0.0
 10
27.97945586740765
 20
3.247637094313816
 30
0.0
 10
27.38204761034676
 20
3.413581227383708
 30
0.0
 10
26.98868062088903
 20
3.505457548552421
 30
0.0
 10
26.19316761281102
 20
3.650134348914278
 30
0.0
 10
25.79514555321281
 20
3.702544539558614
 30
0.0
 10
25.40000000000039
 20
3.734156167273009
 30
0.0
  0
SPLINE
  5
A8
330
1F
100
AcDbEntity
  8
0
  6
Continuous
 62
     1
370
    15
100
AcDbSpline
210
0.0
220
0.0
230
1.0
 70
     8
 71
     3
 72
    14
 73
    10
 74
     0
 42
0.000000001
 43
0.00000001
 40
0.0
 40
0.0
 40
0.0
 40
0.0
 40
0.1038693557278974
 40
0.2532213886827757
 40
0.402549733888135
 40
0.5518730862866718
 40
0.7012101590565676
 40
0.850579615280268
 40
1.0
 40
1.0
 40
1.0
 40
1.0
 10
34.75203571812115
 20
-3.746616295014312
 30
0.0
 10
34.42819456903711
 20
-3.748036799806506
 30
0.0
 10
33.63870757444643
 20
-3.751499825003773
 30
0.0
 10
32.38389362406691
 20
-3.54751795728949
 30
0.0
 10
30.98737127267211
 20
-3.186332463651355
 30
0.0
 10
29.59092298679393
 20
-2.672638906915711
 30
0.0
 10
28.19431369327518
 20
-2.038622774910413
 30
0.0
 10
26.79735180688678
 20
-1.312767136146937
 30
0.0
 10
25.8658368609619
 20
-0.7848839485823913
 30
0.0
 10
25.4000000000004
 20
-0.5208973661607154
 30
0.0
  0
LINE
  5
A9
330
1F
100
AcDbEntity
  8
외형선
  6
Continuous
370
    15
100
AcDbLine
 10
25.40000000000001
 20
-0.5208973661617334
 30
0.0
 11
25.40000000000003
 21
0.7985830996603174
 31
0.0
  0
LINE
  5
AA
330
1F
100
AcDbEntity
  8
0
  6
Continuous
 62
     1
370
    15
100
AcDbLine
 10
44.45000000000002
 20
-3.770312499999995
 30
0.0
 11
44.45000000000001
 21
-3.414701712115807
 31
0.0
  0
SPLINE
  5
AB
330
1F
100
AcDbEntity
  8
0
  6
Continuous
 62
     1
370
    15
100
AcDbSpline
210
0.0
220
0.0
230
1.0
 70
     8
 71
     3
 72
    13
 73
     9
 74
     0
 42
0.000000001
 43
0.00000001
 40
0.0
 40
0.0
 40
0.0
 40
0.0
 40
0.0558492836099378
 40
0.2446153964184359
 40
0.4333899647241239
 40
0.6221966153070689
 40
0.8110588579125372
 40
0.9999999999999999
 40
0.9999999999999999
 40
0.9999999999999999
 40
0.9999999999999999
 10
37.0520244640364
 20
3.752369445134402
 30
0.0
 10
37.18974191543349
 20
3.757538095629039
 30
0.0
 10
37.79293334045724
 20
3.780176371502447
 30
0.0
 10
38.86158953696438
 20
3.646055333981605
 30
0.0
 10
40.25811501645537
 20
3.352421083225082
 30
0.0
 10
41.65492521663593
 20
2.891826410704249
 30
0.0
 10
43.05221843047359
 20
2.307919273754888
 30
0.0
 10
43.98400794598682
 20
1.834978136297213
 30
0.0
 10
44.45000000000002
 20
1.598458183666231
 30
0.0
  0
LINE
  5
AC
330
1F
100
AcDbEntity
  8
0
  6
Continuous
 62
     1
370
    15
100
AcDbLine
 10
44.45000000000001
 20
0.3230454621158489
 30
0.0
 11
44.45000000000001
 21
1.598458183666231
 31
0.0
  0
SPLINE
  5
AD
330
1F
100
AcDbEntity
  8
0
  6
Continuous
 62
     1
370
    15
100
AcDbSpline
210
0.0
220
0.0
230
1.0
 70
     8
 71
     3
 72
    11
 73
     7
 74
     0
 42
0.000000001
 43
0.00000001
 40
0.0
 40
0.0
 40
0.0
 40
0.0
 40
0.2846112686184673
 40
0.5692125921174878
 40
0.8538048243482411
 40
1.0
 40
1.0
 40
1.0
 40
1.0
 10
25.40000000000003
 20
-3.684768836791961
 30
0.0
 10
25.90808620198472
 20
-3.72794333184626
 30
0.0
 10
26.92424085199101
 20
-3.814290813316382
 30
0.0
 10
28.44843359511859
 20
-3.675436491237
 30
0.0
 10
29.72552300309695
 20
-3.431005995690573
 30
0.0
 10
30.49454535366701
 20
-3.166338979041868
 30
0.0
 10
30.75552642127609
 20
-3.076519638271496
 30
0.0
  0
SPLINE
  5
AE
330
1F
100
AcDbEntity
  8
외형선
  6
Continuous
370
    15
100
AcDbSpline
210
0.0
220
0.0
230
1.0
 70
    24
 71
     3
 72
    20
 73
    16
 74
     0
 42
0.000000001
 43
0.00000001
 40
0.0
 40
0.0
 40
0.0
 40
0.0
 40
0.0256780402672999
 40
0.1075610275645527
 40
0.1871363258215395
 40
0.2690193131187927
 40
0.3485946113757791
 40
0.4304775986730321
 40
0.5100528969300184
 40
0.5919358842272716
 40
0.6715111824842577
 40
0.7533941697815094
 40
0.8329694680383476
 40
0.9148524553357511
 40
1.0
 40
1.0
 40
1.0
 40
1.0
 10
25.4
 20
-0.3090722393638327
 30
0.0
 10
25.4
 20
-0.3071425610348195
 30
0.0
 10
25.40000000000004
 20
-0.2990594603862851
 30
0.0
 10
25.39999999999998
 20
-0.3503133816534652
 30
0.0
 10
25.40000000000003
 20
-0.463130458265796
 30
0.0
 10
25.4
 20
-0.6387511301282103
 30
0.0
 10
25.39999999999996
 20
-0.869666818805712
 30
0.0
 10
25.40000000000006
 20
-1.146710167727455
 30
0.0
 10
25.40000000000007
 20
-1.466612676332157
 30
0.0
 10
25.3999999999999
 20
-1.814686343432389
 30
0.0
 10
25.40000000000009
 20
-2.187257816110824
 30
0.0
 10
25.39999999999996
 20
-2.567294179485852
 30
0.0
 10
25.40000000000003
 20
-2.950089346774722
 30
0.0
 10
25.40000000000001
 20
-3.329422370973622
 30
0.0
 10
25.40000000000001
 20
-3.564786642168296
 30
0.0
 10
25.40000000000003
 20
-3.684768836791958
 30
0.0
  0
SPLINE
  5
AF
330
1F
100
AcDbEntity
  8
0
  6
Continuous
 62
     1
370
    15
100
AcDbSpline
210
0.0
220
0.0
230
1.0
 70
     8
 71
     3
 72
    10
 73
     6
 74
     0
 42
0.000000001
 43
0.00000001
 40
0.0
 40
0.0
 40
0.0
 40
0.0
 40
0.4452702624578095
 40
0.8905221927683327
 40
1.0
 40
1.0
 40
1.0
 40
1.0
 10
44.45000000000003
 20
3.770312500000006
 30
0.0
 10
43.94186348093202
 20
3.709104755945335
 30
0.0
 10
42.92561136319939
 20
3.614421175233776
 30
0.0
 10
41.78443442749094
 20
3.352967205324223
 30
0.0
 10
41.15139552320343
 20
3.121033024042312
 30
0.0
 10
41.0264631346122
 20
3.075260021676661
 30
0.0
  0
LINE
  5
B0
330
1F
100
AcDbEntity
  8
0
  6
Continuous
 62
     1
370
    15
100
AcDbLine
 10
44.45000000000001
 20
1.598458183666231
 30
0.0
 11
44.45000000000002
 21
3.770312500000006
 31
0.0
  0
LINE
  5
B1
330
1F
100
AcDbEntity
  8
외형선
  6
Continuous
370
    15
100
AcDbLine
 10
24.40000000000001
 20
-0.0000000000000019
 30
0.0
 11
24.40000000000001
 21
3.770312499999998
 31
0.0
  0
LINE
  5
B2
330
1F
100
AcDbEntity
  8
외형선
  6
Continuous
370
    15
100
AcDbLine
 10
24.40000000000001
 20
-3.770312500000002
 30
0.0
 11
24.40000000000001
 21
-0.0000000000000019
 31
0.0
  0
LINE
  5
B3
330
1F
100
AcDbEntity
  8
외형선
  6
Continuous
370
    15
100
AcDbLine
 10
20.69710583936524
 20
-0.0000000000000019
 30
0.0
 11
20.69710583936524
 21
4.762500000000006
 31
0.0
  0
LINE
  5
B4
330
1F
100
AcDbEntity
  8
외형선
  6
Continuous
370
    15
100
AcDbLine
 10
20.69710583936524
 20
-4.76250000000001
 30
0.0
 11
20.69710583936524
 21
-0.0000000000000019
 31
0.0
  0
SPLINE
  5
B9
330
1F
100
AcDbEntity
  8
외형선
  6
Continuous
370
    15
100
AcDbSpline
210
0.0
220
0.0
230
1.0
 70
     8
 71
     3
 72
     8
 73
     4
 74
     0
 42
0.000000001
 43
0.00000001
 40
0.0
 40
0.0
 40
0.0
 40
0.0
 40
1.0
 40
1.0
 40
1.0
 40
1.0
 10
25.40000000000001
 20
3.734156167273036
 30
0.0
 10
25.23410719142721
 20
3.747427585013825
 30
0.0
 10
25.06722521792922
 20
3.757084100321113
 30
0.0
 10
24.90008241704222
 20
3.763055966147217
 30
0.0
  0
LINE
  5
BA
330
1F
100
AcDbEntity
  8
외형선
  6
Continuous
370
    15
100
AcDbLine
 10
24.90008241704222
 20
1.078028604531182
 30
0.0
 11
24.90008241704223
 21
3.763056919489037
 31
0.0
  0
SPLINE
  5
BB
330
1F
100
AcDbEntity
  8
외형선
  6
Continuous
370
    15
100
AcDbSpline
210
0.0
220
0.0
230
1.0
 70
     8
 71
     3
 72
     8
 73
     4
 74
     0
 42
0.000000001
 43
0.00000001
 40
0.0
 40
0.0
 40
0.0
 40
0.0
 40
1.0
 40
1.0
 40
1.0
 40
1.0
 10
25.39999999999998
 20
0.7985830996603298
 30
0.0
 10
25.23410719142719
 20
0.8924636022087632
 30
0.0
 10
25.06722521792922
 20
0.9857517450165123
 30
0.0
 10
24.90008241704222
 20
1.078031773596115
 30
0.0
  0
SPLINE
  5
BC
330
1F
100
AcDbEntity
  8
외형선
  6
Continuous
370
    15
100
AcDbSpline
210
0.0
220
0.0
230
1.0
 70
     8
 71
     3
 72
     8
 73
     4
 74
     0
 42
0.000000001
 43
0.00000001
 40
0.0
 40
0.0
 40
0.0
 40
0.0
 40
1.0
 40
1.0
 40
1.0
 40
1.0
 10
25.40000000000001
 20
-0.5208973661605092
 30
0.0
 10
25.23410719142721
 20
-0.4257585737137193
 30
0.0
 10
25.06722521792922
 20
-0.3299229929214187
 30
0.0
 10
24.90008241704222
 20
-0.233807919669228
 30
0.0
  0
LINE
  5
BD
330
1F
100
AcDbEntity
  8
외형선
  6
Continuous
370
    15
100
AcDbLine
 10
24.90008241704222
 20
-3.612908893878835
 30
0.0
 11
24.90008241704223
 21
-0.2337925754636066
 31
0.0
  0
SPLINE
  5
BE
330
1F
100
AcDbEntity
  8
외형선
  6
Continuous
370
    15
100
AcDbSpline
210
0.0
220
0.0
230
1.0
 70
     8
 71
     3
 72
     8
 73
     4
 74
     0
 42
0.000000001
 43
0.00000001
 40
0.0
 40
0.0
 40
0.0
 40
0.0
 40
1.0
 40
1.0
 40
1.0
 40
1.0
 10
25.39999999999998
 20
-3.684768836791957
 30
0.0
 10
25.23410719142719
 20
-3.664422544787362
 30
0.0
 10
25.06722521792922
 20
-3.64044277737487
 30
0.0
 10
24.90008241704222
 20
-3.612907948283964
 30
0.0
  0
SPLINE
  5
BF
330
1F
100
AcDbEntity
  8
외형선
  6
Continuous
370
    15
100
AcDbSpline
210
0.0
220
0.0
230
1.0
 70
    24
 71
     3
 72
    19
 73
    15
 74
     0
 42
0.000000001
 43
0.00000001
 40
0.0
 40
0.0
 40
0.0
 40
0.0
 40
0.1442380428147384
 40
0.2249135939958585
 40
0.3055891451769787
 40
0.3862646963582385
 40
0.4669402475394984
 40
0.5476157987206886
 40
0.6282913499018786
 40
0.7089669010830693
 40
0.7896424522642599
 40
0.8703180034454455
 40
0.9509935546266314
 40
0.9999999999999999
 40
0.9999999999999999
 40
0.9999999999999999
 40
0.9999999999999999
 10
25.39999999999998
 20
-3.684768836791957
 30
0.0
 10
25.4
 20
-3.476967590724373
 30
0.0
 10
25.40000000000001
 20
-3.152938477615093
 30
0.0
 10
25.40000000000001
 20
-2.670921858408299
 30
0.0
 10
25.4
 20
-2.288771486020746
 30
0.0
 10
25.40000000000003
 20
-1.91392053085854
 30
0.0
 10
25.4
 20
-1.557335761263733
 30
0.0
 10
25.40000000000001
 20
-1.229893134553913
 30
0.0
 10
25.39999999999997
 20
-0.9395135097814588
 30
0.0
 10
25.39999999999997
 20
-0.6964061871085105
 30
0.0
 10
25.39999999999997
 20
-0.5044912795820932
 30
0.0
 10
25.39999999999997
 20
-0.375031574176554
 30
0.0
 10
25.40000000000003
 20
-0.3064122073396482
 30
0.0
 10
25.40000000000001
 20
-0.3090591805639585
 30
0.0
 10
25.40000000000001
 20
-0.3100594639661913
 30
0.0
  0
SPLINE
  5
C0
330
1F
100
AcDbEntity
  8
외형선
  6
Continuous
370
    15
100
AcDbSpline
210
0.0
220
0.0
230
1.0
 70
    24
 71
     3
 72
    16
 73
    12
 74
     0
 42
0.000000001
 43
0.00000001
 40
0.0
 40
0.0
 40
0.0
 40
0.0
 40
0.0431464735550016
 40
0.1595751452960818
 40
0.2760038170371628
 40
0.3924324887782437
 40
0.5088611605193176
 40
0.6252898322603916
 40
0.7417185040014894
 40
0.8581471757425869
 40
1.0
 40
1.0
 40
1.0
 40
1.0
 10
25.4
 20
0.8599499126734014
 30
0.0
 10
25.4
 20
0.8835425141936083
 30
0.0
 10
25.4
 20
0.9707986096587536
 30
0.0
 10
25.39999999999998
 20
1.176432683569373
 30
0.0
 10
25.4
 20
1.469346371393943
 30
0.0
 10
25.39999999999994
 20
1.801827156481147
 30
0.0
 10
25.39999999999998
 20
2.161185678825193
 30
0.0
 10
25.40000000000004
 20
2.537700808410779
 30
0.0
 10
25.39999999999997
 20
2.920159772408323
 30
0.0
 10
25.40000000000004
 20
3.327977790733297
 30
0.0
 10
25.40000000000001
 20
3.590160646390487
 30
0.0
 10
25.40000000000001
 20
3.734156167258388
 30
0.0
  0
LINE
  5
C1
330
1F
100
AcDbEntity
  8
중심선
 48
0.8
100
AcDbLine
 10
-47.45
 20
-0.0000000000000058
 30
0.0
 11
47.45000000000001
 21
0.0000000000000058
 31
0.0
  0
LINE
  5
C2
330
1F
100
AcDbEntity
  8
참조1
100
AcDbLine
 10
4.955880657015618
 20
0.0010749287238892
 30
0.0
 11
4.955880657015622
 21
-39.99892507127611
 31
0.0
  0
LINE
  5
C3
330
1F
100
AcDbEntity
  8
참조1
100
AcDbLine
 10
4.955880657015622
 20
-39.99892507127611
 30
0.0
 11
-29.25297615729306
 21
-39.9989250712761
 31
0.0
  0
CIRCLE
  5
C4
330
1F
100
AcDbEntity
  8
해칭선
100
AcDbCircle
 10
0.0
 20
0.0
 30
0.0
 40
3.000000000000008
  0
INSERT
  5
C5
330
1F
100
AcDbEntity
  8
0
  6
Continuous
 62
     7
100
AcDbBlockReference
 66
     1
  2
블럭10
 10
-13.9402729321252
 20
-52.04717430164393
 30
0.0
  0
ATTRIB
  5
C6
330
C5
100
AcDbEntity
  8
FORMAT
 62
     2
100
AcDbText
 10
-23.12156822086648
 20
-49.97180738881174
 30
0.0
 40
4.233333333333333
  1
E1053019 [ 4 FLUTE ]
 41
0.75
  7
SLDTEXTSTYLE0
 11
-23.12156822086648
 21
-52.08847405547841
 31
0.0
100
AcDbAttribute
  2
AUTOATTR0
 70
     0
 74
     1
  0
SEQEND
  5
C7
330
C5
100
AcDbEntity
  8
0
  6
Continuous
 62
     7
  0
HATCH
  5
C8
330
1F
100
AcDbEntity
  8
중심선
100
AcDbHatch
 10
0.0
 20
0.0
 30
0.0
210
0.0
220
0.0
230
1.0
  2
SOLID
 70
     1
 71
     0
 91
        1
 92
        0
 93
        4
 72
     1
 10
-8.22536362774435
 20
-35.8
 11
-11.67163887158163
 21
-35.8
 72
     1
 10
-11.67163887158163
 20
-35.8
 11
-13.79986873078565
 21
-38.3363255805726
 72
     1
 10
-13.79986873078565
 20
-38.3363255805726
 11
-10.35356040183522
 21
-38.33628615127011
 72
     1
 10
-10.35356040183522
 20
-38.33628615127011
 11
-8.22536362774435
 21
-35.8
 97
        0
 75
     0
 76
     1
 98
        1
 10
-4.955880657015612
 20
-0.0010749287238951
  0
HATCH
  5
C9
330
1F
100
AcDbEntity
  8
중심선
100
AcDbHatch
 10
0.0
 20
0.0
 30
0.0
210
0.0
220
0.0
230
1.0
  2
SOLID
 70
     1
 71
     0
 91
        1
 92
        0
 93
        4
 72
     1
 10
-3.212599636708343
 20
-35.79999999999998
 11
-6.658874880545653
 21
-35.8
 72
     1
 10
-6.658874880545653
 20
-35.8
 11
-11.19001288890307
 21
-41.20000000000002
 72
     1
 10
-11.19001288890307
 20
-41.20000000000002
 11
-7.743737645065787
 21
-41.20000000000002
 72
     1
 10
-7.743737645065787
 20
-41.20000000000002
 11
-3.212599636708343
 21
-35.79999999999998
 97
        0
 75
     0
 76
     1
 98
        1
 10
-4.955880657015612
 20
-0.0010749287238951
  0
HATCH
  5
CA
330
1F
100
AcDbEntity
  8
중심선
100
AcDbHatch
 10
0.0
 20
0.0
 30
0.0
210
0.0
220
0.0
230
1.0
  2
SOLID
 70
     1
 71
     0
 91
        1
 92
        0
 93
        4
 72
     1
 10
1.800164354327524
 20
-35.79999999999998
 11
-1.646110889509591
 21
-35.79999999999998
 72
     1
 10
-1.646110889509591
 20
-35.79999999999998
 11
-8.694547791398868
 21
-44.20000000000002
 72
     1
 10
-8.694547791398868
 20
-44.20000000000002
 11
-5.248272547561585
 21
-44.20000000000002
 72
     1
 10
-5.248272547561585
 20
-44.20000000000002
 11
1.800164354327524
 21
-35.79999999999998
 97
        0
 75
     0
 76
     1
 98
        1
 10
-4.955880657015612
 20
-0.0010749287238951
  0
HATCH
  5
CB
330
1F
100
AcDbEntity
  8
중심선
100
AcDbHatch
 10
0.0
 20
0.0
 30
0.0
210
0.0
220
0.0
230
1.0
  2
SOLID
 70
     1
 71
     0
 91
        1
 92
        0
 93
        6
 72
     3
 10
6.600054785339696
 20
-40.00000000005127
 11
3.960054785062283
 21
1.540882976769353E-10
 40
0.3939339440162628
 50
17.09539180608436
 51
320.0019657685087
 73
     0
 72
     1
 10
8.283054441040292
 20
-38.58789400463833
 11
10.58835631474133
 21
-36.65356729459038
 72
     3
 10
6.600054785286849
 20
-40.00000000000015
 11
6.600054785286831
 21
-1.278976924368180E-13
 40
0.6363583540795978
 50
39.99873849337411
 51
368.4976242363724
 73
     1
 72
     1
 10
13.02538727718746
 20
-39.03999999993002
 11
5.280122092122772
 21
-39.03999999993002
 72
     1
 10
5.280122092122772
 20
-39.03999999993002
 11
5.280097047676838
 21
-40.95999999992991
 72
     1
 10
5.280097047676838
 20
-40.95999999992991
 11
9.721476817148876
 21
-40.95999999992988
 97
        0
 75
     0
 76
     1
 98
        1
 10
-4.955880657015612
 20
-0.0010749287238951
  0
DIMENSION
  5
CC
330
1F
100
AcDbEntity
  8
치수문자_일반주서
100
AcDbDimension
  2
_D
 10
56.90309566363707
 20
-3.770312499999946
 30
0.0
 11
56.9030956636369
 21
39.16423047258827
 31
0.0
 70
   160
  1
%%c<>
 71
     2
 42
7.540625
 52
-270.0
  3
SLDDIMSTYLE2
100
AcDbAlignedDimension
 13
44.45000000000003
 23
3.770312500000006
 33
0.0
 14
44.45000000000003
 24
-3.770312499999995
 34
0.0
 50
90.0000000000002
100
AcDbRotatedDimension
1001
ACAD
1000
DSTYLE
1002
{
1070
   171
1070
     6
1070
   273
1070
     7
1002
}
  0
DIMENSION
  5
E0
330
1F
100
AcDbEntity
  8
치수문자_일반주서
100
AcDbDimension
  2
_D_1
 10
25.40000000000001
 20
19.0893176607443
 30
0.0
 11
6.327250000000014
 21
19.0893176607443
 31
0.0
 70
   160
  1
<>
 71
     2
 42
19.05
  3
SLDDIMSTYLE2
100
AcDbAlignedDimension
 13
44.45000000000002
 23
3.770312500000006
 33
0.0
 14
25.40000000000001
 24
3.734156167275651
 34
0.0
100
AcDbRotatedDimension
1001
ACAD
1000
DSTYLE
1002
{
1070
   171
1070
     6
1070
   273
1070
     7
1002
}
  0
DIMENSION
  5
F4
330
1F
100
AcDbEntity
  8
치수문자_일반주서
100
AcDbDimension
  2
_D_2
 10
-44.45000000000006
 20
33.39152672868303
 30
0.0
 11
-2.268279200632822
 21
33.39152672868303
 31
0.0
 70
   160
  1
<>
 71
     2
 42
88.90000000000008
  3
SLDDIMSTYLE2
100
AcDbAlignedDimension
 13
44.45000000000002
 23
3.770312500000006
 33
0.0
 14
-44.45000000000006
 24
3.770312499999996
 34
0.0
100
AcDbRotatedDimension
1001
ACAD
1000
DSTYLE
1002
{
1070
   171
1070
     6
1070
   273
1070
     7
1002
}
  0
DIMENSION
  5
108
330
1F
100
AcDbEntity
  8
치수문자_일반주서
100
AcDbDimension
  2
_D_3
 10
-56.97374999999999
 20
-4.762500000000139
 30
0.0
 11
-56.97375000000001
 21
0.0000000000000007
 31
0.0
 70
   160
  1
%%c<>
 71
     2
 42
9.525000000000013
 52
-270.0
  3
SLDDIMSTYLE2
100
AcDbAlignedDimension
 13
-20.69710583936528
 23
4.76250000000001
 33
0.0
 14
-20.69710583936528
 24
-4.762500000000003
 34
0.0
 50
90.0000000000002
100
AcDbRotatedDimension
1001
ACAD
1000
DSTYLE
1002
{
1070
   171
1070
     6
1070
   273
1070
     7
1002
}
  0
LINE
  5
11D
330
1F
100
AcDbEntity
  8
참조1
100
AcDbLine
 10
68.7193644723612
 20
7.441074928723896
 30
0.0
 11
68.7193644723612
 21
-7.438925071276109
 31
0.0
  0
LINE
  5
11E
330
1F
100
AcDbEntity
  8
참조1
100
AcDbLine
 10
81.41936447236121
 20
5.441074928723896
 30
0.0
 11
68.7193644723612
 21
5.441074928723896
 31
0.0
  0
SOLID
  5
11F
330
1F
100
AcDbEntity
  8
참조1
100
AcDbTrace
 10
68.7193644723612
 20
5.441074928723896
 30
0.0
 11
75.0693644723612
 21
4.425074928723896
 31
0.0
 12
75.0693644723612
 22
6.457074928723896
 32
0.0
 13
75.0693644723612
 23
6.457074928723896
 33
0.0
  0
LINE
  5
120
330
1F
100
AcDbEntity
  8
참조1
100
AcDbLine
 10
81.41936447236121
 20
-5.438925071276109
 30
0.0
 11
68.7193644723612
 21
-5.438925071276109
 31
0.0
  0
SOLID
  5
121
330
1F
100
AcDbEntity
  8
참조1
100
AcDbTrace
 10
68.7193644723612
 20
-5.438925071276109
 30
0.0
 11
75.0693644723612
 21
-6.454925071276109
 31
0.0
 12
75.0693644723612
 22
-4.422925071276109
 32
0.0
 13
75.0693644723612
 23
-4.422925071276109
 33
0.0
  0
MTEXT
  5
122
330
1F
100
AcDbEntity
  8
참조1
100
AcDbMText
 10
78.1037146049872
 20
11.01136670591223
 30
0.0
 40
3.5
 41
0.0
 71
     1
 72
     1
  1
A
  7
SLDTEXTSTYLE0
 73
     1
 44
1.0
  0
MTEXT
  5
123
330
1F
100
AcDbEntity
  8
참조1
100
AcDbMText
 10
78.1037146049872
 20
0.1313667059122219
 30
0.0
 40
3.5
 41
0.0
 71
     1
 72
     1
  1
A
  7
SLDTEXTSTYLE0
 73
     1
 44
1.0
  0
INSERT
  5
12A
330
1F
100
AcDbEntity
  8
해칭선
100
AcDbBlockReference
  2
SW_DOWELSYMBOL_0
 10
0.0
 20
0.0
 30
0.0
  0
LINE
  5
410
330
1F
100
AcDbEntity
  8
0
  6
Continuous
 62
     1
370
    15
100
AcDbLine
 10
-34.75203571812118
 20
3.770312500000003
 30
0.0
 11
-37.05202446403639
 21
3.770312500000003
 31
0.0
  0
LINE
  5
411
330
1F
100
AcDbEntity
  8
0
  6
Continuous
 62
     1
370
    15
100
AcDbLine
 10
-26.79431669552817
 20
-3.770312500000003
 30
0.0
 11
-25.40000000000005
 21
-3.770312500000003
 31
0.0
  0
LINE
  5
412
330
1F
100
AcDbEntity
  8
0
  6
Continuous
 62
     1
370
    15
100
AcDbLine
 10
-37.05202446403642
 20
-3.770312500000003
 30
0.0
 11
-34.75203571812121
 21
-3.770312500000003
 31
0.0
  0
LINE
  5
413
330
1F
100
AcDbEntity
  8
0
  6
Continuous
 62
     1
370
    15
100
AcDbLine
 10
-25.40000000000005
 20
3.770312500000003
 30
0.0
 11
-26.79431669552811
 21
3.770312500000003
 31
0.0
  0
LINE
  5
414
330
1F
100
AcDbEntity
  8
외형선
  6
Continuous
370
    15
100
AcDbLine
 10
-20.69710583936528
 20
4.76250000000001
 30
0.0
 11
-24.40000000000005
 21
3.770312500000003
 31
0.0
  0
LINE
  5
415
330
1F
100
AcDbEntity
  8
외형선
  6
Continuous
370
    15
100
AcDbLine
 10
-24.40000000000005
 20
-3.770312499999996
 30
0.0
 11
-20.69710583936528
 21
-4.762500000000003
 31
0.0
  0
LINE
  5
418
330
1F
100
AcDbEntity
  8
외형선
  6
Continuous
370
    15
100
AcDbLine
 10
-24.40000000000005
 20
3.770312500000003
 30
0.0
 11
-25.40000000000005
 21
3.770312500000003
 31
0.0
  0
LINE
  5
419
330
1F
100
AcDbEntity
  8
외형선
  6
Continuous
370
    15
100
AcDbLine
 10
-25.40000000000005
 20
-3.770312499999996
 30
0.0
 11
-24.40000000000005
 21
-3.770312499999996
 31
0.0
  0
LINE
  5
41A
330
1F
100
AcDbEntity
  8
0
  6
Continuous
 62
     1
370
    15
100
AcDbLine
 10
-44.45000000000003
 20
3.414701712115807
 30
0.0
 11
-44.45000000000003
 21
-0.3230454621158499
 31
0.0
  0
SPLINE
  5
41B
330
1F
100
AcDbEntity
  8
0
  6
Continuous
 62
     1
370
    15
100
AcDbSpline
210
0.0
220
0.0
230
1.0
 70
     8
 71
     3
 72
    20
 73
    16
 74
     0
 42
0.000000001
 43
0.00000001
 40
0.0
 40
0.0
 40
0.0
 40
0.0
 40
0.0073591065084216
 40
0.0936821052870033
 40
0.1800023465747558
 40
0.2663200902560832
 40
0.3526355970325737
 40
0.4389491283385334
 40
0.5252609462559955
 40
0.6043670712075994
 40
0.683466825908551
 40
0.7625701237653375
 40
0.8416868652440926
 40
0.9208269017691857
 40
1.0
 40
1.0
 40
1.0
 40
1.0
 10
-26.79431669552817
 20
-3.762332761161844
 30
0.0
 10
-26.83762989186526
 20
-3.764948360790903
 30
0.0
 10
-27.38901088015841
 20
-3.798245185555956
 30
0.0
 10
-28.44843318313535
 20
-3.669655200032388
 30
0.0
 10
-29.97256983898022
 20
-3.366483232095149
 30
0.0
 10
-31.49665050623791
 20
-2.859133233917603
 30
0.0
 10
-33.02069121991262
 20
-2.202572629698139
 30
0.0
 10
-34.54466344719283
 20
-1.425035313917135
 30
0.0
 10
-36.02629601254982
 20
-0.5944650124090244
 30
0.0
 10
-37.46513067285544
 20
0.2405322493745246
 30
0.0
 10
-38.86159432689904
 20
1.039753435448318
 30
0.0
 10
-40.25811373318395
 20
1.792400988321234
 30
0.0
 10
-41.65492555897403
 20
2.460391498816222
 30
0.0
 10
-43.0522183448369
 20
3.027453279246515
 30
0.0
 10
-43.9840079174373
 20
3.285600930863353
 30
0.0
 10
-44.45000000000006
 20
3.414701712115807
 30
0.0
  0
SPLINE
  5
41C
330
1F
100
AcDbEntity
  8
0
  6
Continuous
 62
     1
370
    15
100
AcDbSpline
210
0.0
220
0.0
230
1.0
 70
     8
 71
     3
 72
    17
 73
    13
 74
     0
 42
0.000000001
 43
0.00000001
 40
0.0
 40
0.0
 40
0.0
 40
0.0
 40
0.1113090704340534
 40
0.2226135581810388
 40
0.3339137943739897
 40
0.4452101115310594
 40
0.5565028434491357
 40
0.6677923250965367
 40
0.7790788925049278
 40
0.881081773170077
 40
0.9830684758251943
 40
1.0
 40
1.0
 40
1.0
 40
1.0
 10
-44.45000000000006
 20
-0.3230454621158499
 30
0.0
 10
-43.94186330724888
 20
-0.6135865379273112
 30
0.0
 10
-42.9256108421571
 20
-1.194656727732337
 30
0.0
 10
-41.40127823524459
 20
-1.996792245066892
 30
0.0
 10
-39.87701406280048
 20
-2.691915620469231
 30
0.0
 10
-38.35281617970135
 20
-3.240655698046723
 30
0.0
 10
-36.8286709604434
 20
-3.614038687795379
 30
0.0
 10
-35.3046021715494
 20
-3.790419161743522
 30
0.0
 10
-33.82286463414847
 20
-3.765801150084258
 30
0.0
 10
-32.3838917111518
 20
-3.544293710102416
 30
0.0
 10
-31.37556421373192
 20
-3.306165694074267
 30
0.0
 10
-30.83280433157496
 20
-3.105141389262691
 30
0.0
 10
-30.75552642127617
 20
-3.076519638271492
 30
0.0
  0
SPLINE
  5
41D
330
1F
100
AcDbEntity
  8
0
  6
Continuous
 62
     1
370
    15
100
AcDbSpline
210
0.0
220
0.0
230
1.0
 70
     8
 71
     3
 72
    18
 73
    14
 74
     0
 42
0.000000001
 43
0.00000001
 40
0.0
 40
0.0
 40
0.0
 40
0.0
 40
0.0975366036184806
 40
0.1950697990332806
 40
0.292599878860163
 40
0.3901271367330014
 40
0.4876518672089734
 40
0.5851743656731286
 40
0.6826949282423613
 40
0.7720740421816544
 40
0.8614459586079976
 40
0.9508218783163755
 40
1.0
 40
1.0
 40
1.0
 40
1.0
 10
-25.40000000000008
 20
-0.7985830996603126
 30
0.0
 10
-25.9080861867666
 20
-0.507722375992543
 30
0.0
 10
-26.92424080633712
 20
0.0739889078499872
 30
0.0
 10
-28.44843377772447
 20
0.9541560664044938
 30
0.0
 10
-29.97256968040752
 20
1.77946303554149
 30
0.0
 10
-31.49665054596473
 20
2.509121904419523
 30
0.0
 10
-33.02069121957182
 20
3.102466598453852
 30
0.0
 10
-34.54466340883202
 20
3.527809795817028
 30
0.0
 10
-36.02629616098351
 20
3.754796573806622
 30
0.0
 10
-37.4651301677935
 20
3.792685871529088
 30
0.0
 10
-38.86159621784124
 20
3.649846444591269
 30
0.0
 10
-40.04867101172654
 20
3.408472978560667
 30
0.0
 10
-40.77032172968315
 20
3.162548140407822
 30
0.0
 10
-41.0264631346122
 20
3.075260021676662
 30
0.0
  0
SPLINE
  5
41E
330
1F
100
AcDbEntity
  8
외형선
  6
Continuous
370
    15
100
AcDbSpline
210
0.0
220
0.0
230
1.0
 70
    24
 71
     3
 72
    16
 73
    12
 74
     0
 42
0.000000001
 43
0.00000001
 40
0.0
 40
0.0
 40
0.0
 40
0.0
 40
0.1123735443386035
 40
0.2278635713204882
 40
0.3426505821874705
 40
0.4607664241458199
 40
0.5755534350128029
 40
0.6936692769711531
 40
0.8084562878381355
 40
0.9265721297964855
 40
1.0
 40
1.0
 40
1.0
 40
1.0
 10
-25.40000000000005
 20
-3.73415616727565
 30
0.0
 10
-25.40000000000008
 20
-3.620804065453932
 30
0.0
 10
-25.40000000000016
 20
-3.390956240596225
 30
0.0
 10
-25.39999999999996
 20
-3.021114817926033
 30
0.0
 10
-25.40000000000011
 20
-2.639869952640979
 30
0.0
 10
-25.39999999999999
 20
-2.262174160456397
 30
0.0
 10
-25.40000000000008
 20
-1.895640336463195
 30
0.0
 10
-25.39999999999999
 20
-1.556326327870025
 30
0.0
 10
-25.40000000000002
 20
-1.250545444684818
 30
0.0
 10
-25.40000000000011
 20
-1.014056601035136
 30
0.0
 10
-25.40000000000008
 20
-0.9026625735806916
 30
0.0
 10
-25.40000000000008
 20
-0.8599599126734033
 30
0.0
  0
SPLINE
  5
41F
330
1F
100
AcDbEntity
  8
0
  6
Continuous
 62
     1
370
    15
100
AcDbSpline
210
0.0
220
0.0
230
1.0
 70
     8
 71
     3
 72
    48
 73
    44
 74
     0
 42
0.000000001
 43
0.00000001
 40
0.0
 40
0.0
 40
0.0
 40
0.0
 40
0.0624999999999985
 40
0.0624999999999985
 40
0.0937499999999985
 40
0.0937499999999985
 40
0.1249999999999986
 40
0.1249999999999986
 40
0.1562499999999986
 40
0.1562499999999986
 40
0.1874999999999987
 40
0.1874999999999987
 40
0.2500000000000004
 40
0.2500000000000004
 40
0.3125000000000022
 40
0.3125000000000022
 40
0.3437500000000031
 40
0.3437500000000031
 40
0.3750000000000039
 40
0.3750000000000039
 40
0.4375000000000041
 40
0.4375000000000041
 40
0.5000000000000042
 40
0.5000000000000042
 40
0.5625000000000043
 40
0.5625000000000043
 40
0.5937500000000044
 40
0.5937500000000044
 40
0.6250000000000046
 40
0.6250000000000046
 40
0.687500000000003
 40
0.687500000000003
 40
0.7500000000000014
 40
0.7500000000000014
 40
0.8125
 40
0.8125
 40
0.84375
 40
0.84375
 40
0.875
 40
0.875
 40
0.9375
 40
0.9375
 40
1.0
 40
1.0
 40
1.0
 40
1.0
 10
-44.45000000000006
 20
3.770312499999996
 30
0.0
 10
-44.05600509665864
 20
3.736861912296284
 30
0.0
 10
-43.65545626306498
 20
3.696284192921603
 30
0.0
 10
-43.05964123120624
 20
3.605186341585956
 30
0.0
 10
-42.8629601105345
 20
3.569894782356144
 30
0.0
 10
-42.46698367006836
 20
3.489400528630625
 30
0.0
 10
-42.26778603522764
 20
3.444179830810157
 30
0.0
 10
-41.86944659164585
 20
3.344297145964376
 30
0.0
 10
-41.67030822442477
 20
3.289636029614471
 30
0.0
 10
-41.27456640838632
 20
3.171614337908082
 30
0.0
 10
-41.07774300255782
 20
3.108252378776072
 30
0.0
 10
-40.48169799679441
 20
2.90491976890484
 30
0.0
 10
-40.08182995320537
 20
2.752106066940947
 30
0.0
 10
-39.29323225933437
 20
2.419297047540098
 30
0.0
 10
-38.89261072611875
 20
2.23762782899977
 30
0.0
 10
-38.2970423288467
 20
1.948831725228075
 30
0.0
 10
-38.10046482123413
 20
1.850056374641689
 30
0.0
 10
-37.70426474833486
 20
1.647164013494418
 30
0.0
 10
-37.50501345478297
 20
1.543097283364247
 30
0.0
 10
-36.90752110877726
 20
1.224943455597412
 30
0.0
 10
-36.51386392235578
 20
1.005706967197895
 30
0.0
 10
-35.71885285905243
 20
0.5571380297163274
 30
0.0
 10
-35.31963291416163
 20
0.3281817381387812
 30
0.0
 10
-34.53044900536723
 20
-0.1290622576353044
 30
0.0
 10
-34.12976619793388
 20
-0.3594040425497836
 30
0.0
 10
-33.53446107287455
 20
-0.6989411702316913
 30
0.0
 10
-33.33794849658246
 20
-0.8109462408762481
 30
0.0
 10
-32.94153580408299
 20
-1.033044389358764
 30
0.0
 10
-32.74223646578382
 20
-1.143018560431123
 30
0.0
 10
-32.14477775693406
 20
-1.467640623655541
 30
0.0
 10
-31.75128231197699
 20
-1.676248772324868
 30
0.0
 10
-30.95600912925242
 20
-2.074085729235499
 30
0.0
 10
-30.55740453145476
 20
-2.262697665359141
 30
0.0
 10
-29.76765613434914
 20
-2.611768375582656
 30
0.0
 10
-29.36692348397473
 20
-2.773588554239879
 30
0.0
 10
-28.77189824415639
 20
-2.991142212506368
 30
0.0
 10
-28.57541191140338
 20
-3.059406706830885
 30
0.0
 10
-28.17879763196247
 20
-3.187708421831445
 30
0.0
 10
-27.97945586740768
 20
-3.247637094313816
 30
0.0
 10
-27.38204761034679
 20
-3.413581227383709
 30
0.0
 10
-26.98868062088907
 20
-3.505457548552421
 30
0.0
 10
-26.19316761281105
 20
-3.650134348914278
 30
0.0
 10
-25.79514555321283
 20
-3.702544539558616
 30
0.0
 10
-25.40000000000042
 20
-3.734156167273014
 30
0.0
  0
SPLINE
  5
420
330
1F
100
AcDbEntity
  8
0
  6
Continuous
 62
     1
370
    15
100
AcDbSpline
210
0.0
220
0.0
230
1.0
 70
     8
 71
     3
 72
    14
 73
    10
 74
     0
 42
0.000000001
 43
0.00000001
 40
0.0
 40
0.0
 40
0.0
 40
0.0
 40
0.1038693557278974
 40
0.2532213886827757
 40
0.402549733888135
 40
0.5518730862866718
 40
0.7012101590565676
 40
0.850579615280268
 40
1.0
 40
1.0
 40
1.0
 40
1.0
 10
-34.75203571812118
 20
3.746616295014313
 30
0.0
 10
-34.42819456903713
 20
3.748036799806506
 30
0.0
 10
-33.63870757444646
 20
3.751499825003776
 30
0.0
 10
-32.38389362406694
 20
3.547517957289493
 30
0.0
 10
-30.98737127267215
 20
3.186332463651354
 30
0.0
 10
-29.59092298679396
 20
2.672638906915708
 30
0.0
 10
-28.19431369327522
 20
2.038622774910415
 30
0.0
 10
-26.79735180688682
 20
1.312767136146938
 30
0.0
 10
-25.86583686096192
 20
0.7848839485823903
 30
0.0
 10
-25.40000000000045
 20
0.5208973661607176
 30
0.0
  0
LINE
  5
421
330
1F
100
AcDbEntity
  8
외형선
  6
Continuous
370
    15
100
AcDbLine
 10
-25.40000000000005
 20
0.5208973661617337
 30
0.0
 11
-25.40000000000005
 21
-0.7985830996603197
 31
0.0
  0
LINE
  5
422
330
1F
100
AcDbEntity
  8
0
  6
Continuous
 62
     1
370
    15
100
AcDbLine
 10
-44.45000000000006
 20
3.770312499999996
 30
0.0
 11
-44.45000000000003
 21
3.414701712115807
 31
0.0
  0
SPLINE
  5
423
330
1F
100
AcDbEntity
  8
0
  6
Continuous
 62
     1
370
    15
100
AcDbSpline
210
0.0
220
0.0
230
1.0
 70
     8
 71
     3
 72
    13
 73
     9
 74
     0
 42
0.000000001
 43
0.00000001
 40
0.0
 40
0.0
 40
0.0
 40
0.0
 40
0.0558492836099378
 40
0.2446153964184359
 40
0.4333899647241239
 40
0.6221966153070689
 40
0.8110588579125372
 40
0.9999999999999999
 40
0.9999999999999999
 40
0.9999999999999999
 40
0.9999999999999999
 10
-37.05202446403642
 20
-3.752369445134406
 30
0.0
 10
-37.18974191543352
 20
-3.757538095629037
 30
0.0
 10
-37.79293334045725
 20
-3.780176371502449
 30
0.0
 10
-38.86158953696442
 20
-3.646055333981607
 30
0.0
 10
-40.25811501645539
 20
-3.352421083225082
 30
0.0
 10
-41.65492521663596
 20
-2.891826410704248
 30
0.0
 10
-43.05221843047362
 20
-2.307919273754891
 30
0.0
 10
-43.98400794598685
 20
-1.83497813629721
 30
0.0
 10
-44.45000000000006
 20
-1.598458183666231
 30
0.0
  0
LINE
  5
424
330
1F
100
AcDbEntity
  8
0
  6
Continuous
 62
     1
370
    15
100
AcDbLine
 10
-44.45000000000003
 20
-0.3230454621158499
 30
0.0
 11
-44.45000000000003
 21
-1.598458183666231
 31
0.0
  0
SPLINE
  5
425
330
1F
100
AcDbEntity
  8
0
  6
Continuous
 62
     1
370
    15
100
AcDbSpline
210
0.0
220
0.0
230
1.0
 70
     8
 71
     3
 72
    11
 73
     7
 74
     0
 42
0.000000001
 43
0.00000001
 40
0.0
 40
0.0
 40
0.0
 40
0.0
 40
0.2846112686184673
 40
0.5692125921174878
 40
0.8538048243482411
 40
1.0
 40
1.0
 40
1.0
 40
1.0
 10
-25.40000000000005
 20
3.68476883679196
 30
0.0
 10
-25.90808620198474
 20
3.727943331846262
 30
0.0
 10
-26.92424085199106
 20
3.814290813316383
 30
0.0
 10
-28.44843359511863
 20
3.675436491237001
 30
0.0
 10
-29.72552300309697
 20
3.431005995690576
 30
0.0
 10
-30.49454535366705
 20
3.166338979041868
 30
0.0
 10
-30.75552642127612
 20
3.076519638271499
 30
0.0
  0
SPLINE
  5
426
330
1F
100
AcDbEntity
  8
외형선
  6
Continuous
370
    15
100
AcDbSpline
210
0.0
220
0.0
230
1.0
 70
    24
 71
     3
 72
    20
 73
    16
 74
     0
 42
0.000000001
 43
0.00000001
 40
0.0
 40
0.0
 40
0.0
 40
0.0
 40
0.0256780402672999
 40
0.1075610275645527
 40
0.1871363258215395
 40
0.2690193131187927
 40
0.3485946113757791
 40
0.4304775986730321
 40
0.5100528969300184
 40
0.5919358842272716
 40
0.6715111824842577
 40
0.7533941697815094
 40
0.8329694680383476
 40
0.9148524553357511
 40
1.0
 40
1.0
 40
1.0
 40
1.0
 10
-25.40000000000002
 20
0.3090722393638289
 30
0.0
 10
-25.40000000000002
 20
0.307142561034823
 30
0.0
 10
-25.40000000000008
 20
0.2990594603862889
 30
0.0
 10
-25.40000000000002
 20
0.3503133816534644
 30
0.0
 10
-25.40000000000005
 20
0.4631304582657948
 30
0.0
 10
-25.40000000000002
 20
0.6387511301282133
 30
0.0
 10
-25.39999999999999
 20
0.8696668188057118
 30
0.0
 10
-25.40000000000008
 20
1.146710167727456
 30
0.0
 10
-25.40000000000011
 20
1.466612676332161
 30
0.0
 10
-25.39999999999993
 20
1.814686343432385
 30
0.0
 10
-25.40000000000011
 20
2.187257816110822
 30
0.0
 10
-25.39999999999999
 20
2.567294179485856
 30
0.0
 10
-25.40000000000005
 20
2.950089346774725
 30
0.0
 10
-25.40000000000005
 20
3.329422370973624
 30
0.0
 10
-25.40000000000005
 20
3.564786642168293
 30
0.0
 10
-25.40000000000005
 20
3.68476883679196
 30
0.0
  0
SPLINE
  5
427
330
1F
100
AcDbEntity
  8
0
  6
Continuous
 62
     1
370
    15
100
AcDbSpline
210
0.0
220
0.0
230
1.0
 70
     8
 71
     3
 72
    10
 73
     6
 74
     0
 42
0.000000001
 43
0.00000001
 40
0.0
 40
0.0
 40
0.0
 40
0.0
 40
0.4452702624578095
 40
0.8905221927683327
 40
1.0
 40
1.0
 40
1.0
 40
1.0
 10
-44.45000000000006
 20
-3.770312500000003
 30
0.0
 10
-43.94186348093204
 20
-3.709104755945333
 30
0.0
 10
-42.92561136319942
 20
-3.614421175233772
 30
0.0
 10
-41.78443442749098
 20
-3.352967205324219
 30
0.0
 10
-41.15139552320345
 20
-3.121033024042312
 30
0.0
 10
-41.02646313461223
 20
-3.075260021676662
 30
0.0
  0
LINE
  5
428
330
1F
100
AcDbEntity
  8
0
  6
Continuous
 62
     1
370
    15
100
AcDbLine
 10
-44.45000000000003
 20
-1.598458183666231
 30
0.0
 11
-44.45000000000006
 21
-3.770312500000003
 31
0.0
  0
LINE
  5
429
330
1F
100
AcDbEntity
  8
외형선
  6
Continuous
370
    15
100
AcDbLine
 10
-24.40000000000005
 20
0.0000000000000001
 30
0.0
 11
-24.40000000000005
 21
-3.770312499999996
 31
0.0
  0
LINE
  5
42A
330
1F
100
AcDbEntity
  8
외형선
  6
Continuous
370
    15
100
AcDbLine
 10
-24.40000000000005
 20
3.770312500000003
 30
0.0
 11
-24.40000000000005
 21
0.0000000000000001
 31
0.0
  0
LINE
  5
42B
330
1F
100
AcDbEntity
  8
외형선
  6
Continuous
370
    15
100
AcDbLine
 10
-20.69710583936528
 20
0.0000000000000001
 30
0.0
 11
-20.69710583936528
 21
-4.762500000000003
 31
0.0
  0
LINE
  5
42C
330
1F
100
AcDbEntity
  8
외형선
  6
Continuous
370
    15
100
AcDbLine
 10
-20.69710583936528
 20
4.76250000000001
 30
0.0
 11
-20.69710583936528
 21
0.0000000000000001
 31
0.0
  0
SPLINE
  5
42D
330
1F
100
AcDbEntity
  8
외형선
  6
Continuous
370
    15
100
AcDbSpline
210
0.0
220
0.0
230
1.0
 70
     8
 71
     3
 72
     8
 73
     4
 74
     0
 42
0.000000001
 43
0.00000001
 40
0.0
 40
0.0
 40
0.0
 40
0.0
 40
1.0
 40
1.0
 40
1.0
 40
1.0
 10
-25.40000000000005
 20
-3.734156167273035
 30
0.0
 10
-25.23410719142724
 20
-3.747427585013824
 30
0.0
 10
-25.06722521792925
 20
-3.757084100321109
 30
0.0
 10
-24.90008241704224
 20
-3.76305596614722
 30
0.0
  0
LINE
  5
42E
330
1F
100
AcDbEntity
  8
외형선
  6
Continuous
370
    15
100
AcDbLine
 10
-24.90008241704224
 20
-1.078028604531184
 30
0.0
 11
-24.90008241704227
 21
-3.763056919489038
 31
0.0
  0
SPLINE
  5
42F
330
1F
100
AcDbEntity
  8
외형선
  6
Continuous
370
    15
100
AcDbSpline
210
0.0
220
0.0
230
1.0
 70
     8
 71
     3
 72
     8
 73
     4
 74
     0
 42
0.000000001
 43
0.00000001
 40
0.0
 40
0.0
 40
0.0
 40
0.0
 40
1.0
 40
1.0
 40
1.0
 40
1.0
 10
-25.40000000000002
 20
-0.7985830996603339
 30
0.0
 10
-25.23410719142721
 20
-0.8924636022087639
 30
0.0
 10
-25.06722521792925
 20
-0.9857517450165146
 30
0.0
 10
-24.90008241704224
 20
-1.078031773596116
 30
0.0
  0
SPLINE
  5
430
330
1F
100
AcDbEntity
  8
외형선
  6
Continuous
370
    15
100
AcDbSpline
210
0.0
220
0.0
230
1.0
 70
     8
 71
     3
 72
     8
 73
     4
 74
     0
 42
0.000000001
 43
0.00000001
 40
0.0
 40
0.0
 40
0.0
 40
0.0
 40
1.0
 40
1.0
 40
1.0
 40
1.0
 10
-25.40000000000005
 20
0.5208973661605115
 30
0.0
 10
-25.23410719142724
 20
0.4257585737137221
 30
0.0
 10
-25.06722521792925
 20
0.3299229929214179
 30
0.0
 10
-24.90008241704224
 20
0.2338079196692321
 30
0.0
  0
LINE
  5
431
330
1F
100
AcDbEntity
  8
외형선
  6
Continuous
370
    15
100
AcDbLine
 10
-24.90008241704224
 20
3.612908893878839
 30
0.0
 11
-24.90008241704227
 21
0.2337925754636104
 31
0.0
  0
SPLINE
  5
432
330
1F
100
AcDbEntity
  8
외형선
  6
Continuous
370
    15
100
AcDbSpline
210
0.0
220
0.0
230
1.0
 70
     8
 71
     3
 72
     8
 73
     4
 74
     0
 42
0.000000001
 43
0.00000001
 40
0.0
 40
0.0
 40
0.0
 40
0.0
 40
1.0
 40
1.0
 40
1.0
 40
1.0
 10
-25.40000000000002
 20
3.68476883679196
 30
0.0
 10
-25.23410719142721
 20
3.664422544787364
 30
0.0
 10
-25.06722521792925
 20
3.640442777374872
 30
0.0
 10
-24.90008241704224
 20
3.612907948283961
 30
0.0
  0
SPLINE
  5
433
330
1F
100
AcDbEntity
  8
외형선
  6
Continuous
370
    15
100
AcDbSpline
210
0.0
220
0.0
230
1.0
 70
    24
 71
     3
 72
    19
 73
    15
 74
     0
 42
0.000000001
 43
0.00000001
 40
0.0
 40
0.0
 40
0.0
 40
0.0
 40
0.1442380428147384
 40
0.2249135939958585
 40
0.3055891451769787
 40
0.3862646963582385
 40
0.4669402475394984
 40
0.5476157987206886
 40
0.6282913499018786
 40
0.7089669010830693
 40
0.7896424522642599
 40
0.8703180034454455
 40
0.9509935546266314
 40
0.9999999999999999
 40
0.9999999999999999
 40
0.9999999999999999
 40
0.9999999999999999
 10
-25.40000000000002
 20
3.68476883679196
 30
0.0
 10
-25.40000000000002
 20
3.476967590724371
 30
0.0
 10
-25.40000000000005
 20
3.152938477615095
 30
0.0
 10
-25.40000000000005
 20
2.670921858408299
 30
0.0
 10
-25.40000000000002
 20
2.28877148602075
 30
0.0
 10
-25.40000000000005
 20
1.91392053085854
 30
0.0
 10
-25.40000000000002
 20
1.55733576126373
 30
0.0
 10
-25.40000000000005
 20
1.229893134553912
 30
0.0
 10
-25.39999999999999
 20
0.9395135097814632
 30
0.0
 10
-25.39999999999999
 20
0.696406187108508
 30
0.0
 10
-25.39999999999999
 20
0.5044912795820978
 30
0.0
 10
-25.39999999999999
 20
0.3750315741765534
 30
0.0
 10
-25.40000000000005
 20
0.3064122073396477
 30
0.0
 10
-25.40000000000005
 20
0.3090591805639563
 30
0.0
 10
-25.40000000000005
 20
0.3100594639661908
 30
0.0
  0
SPLINE
  5
434
330
1F
100
AcDbEntity
  8
외형선
  6
Continuous
370
    15
100
AcDbSpline
210
0.0
220
0.0
230
1.0
 70
    24
 71
     3
 72
    16
 73
    12
 74
     0
 42
0.000000001
 43
0.00000001
 40
0.0
 40
0.0
 40
0.0
 40
0.0
 40
0.0431464735550016
 40
0.1595751452960818
 40
0.2760038170371628
 40
0.3924324887782437
 40
0.5088611605193176
 40
0.6252898322603916
 40
0.7417185040014894
 40
0.8581471757425869
 40
1.0
 40
1.0
 40
1.0
 40
1.0
 10
-25.40000000000002
 20
-0.8599499126734002
 30
0.0
 10
-25.40000000000002
 20
-0.883542514193607
 30
0.0
 10
-25.40000000000002
 20
-0.9707986096587574
 30
0.0
 10
-25.40000000000002
 20
-1.176432683569374
 30
0.0
 10
-25.40000000000002
 20
-1.469346371393939
 30
0.0
 10
-25.39999999999996
 20
-1.801827156481146
 30
0.0
 10
-25.40000000000002
 20
-2.161185678825191
 30
0.0
 10
-25.40000000000008
 20
-2.537700808410776
 30
0.0
 10
-25.39999999999999
 20
-2.920159772408326
 30
0.0
 10
-25.40000000000008
 20
-3.3279777907333
 30
0.0
 10
-25.40000000000005
 20
-3.590160646390487
 30
0.0
 10
-25.40000000000005
 20
-3.734156167258391
 30
0.0
  0
LINE
  5
4B3
330
1F
100
AcDbEntity
  8
외형선
  6
Continuous
370
    15
100
AcDbLine
 10
-3.568700000000035
 20
3.49250000000002
 30
0.0
 11
3.568700000000035
 21
3.49250000000002
 31
0.0
  0
LINE
  5
4B4
330
1F
100
AcDbEntity
  8
외형선
  6
Continuous
370
    15
100
AcDbLine
 10
-3.568700000000035
 20
3.49250000000002
 30
0.0
 11
-4.838700000000017
 21
4.762500000000002
 31
0.0
  0
LINE
  5
4B5
330
1F
100
AcDbEntity
  8
외형선
  6
Continuous
370
    15
100
AcDbLine
 10
3.568700000000035
 20
3.49250000000002
 30
0.0
 11
4.838700000000017
 21
4.762500000000002
 31
0.0
  0
LINE
  5
4B7
330
1F
100
AcDbEntity
  8
외형선
  6
Continuous
370
    15
100
AcDbLine
 10
-4.838700000000021
 20
4.762500000000002
 30
0.0
 11
-20.69710583936529
 21
4.762500000000002
 31
0.0
  0
ENDSEC
  0
SECTION
  2
OBJECTS
  0
DICTIONARY
  5
C
330
0
100
AcDbDictionary
281
     1
  3
ACAD_GROUP
350
D
  3
ACAD_IMAGE_VARS
350
14E
  3
ACAD_LAYOUT
350
1A
  3
ACAD_MLINESTYLE
350
17
  3
ACAD_PLOTSETTINGS
350
19
  3
ACAD_PLOTSTYLENAME
350
E
  3
ACAD_SCALELIST
350
47
  3
APPDATA
350
14C
  3
DWGPROPS
350
4B8
  0
DICTIONARY
  5
1D3
330
2
100
AcDbDictionary
280
     1
281
     1
  3
ACAD_LAYERSTATES
360
1D4
  0
DICTIONARY
  5
D
102
{ACAD_REACTORS
330
C
102
}
330
C
100
AcDbDictionary
281
     1
  0
RASTERVARIABLES
  5
14E
102
{ACAD_REACTORS
330
C
102
}
330
C
100
AcDbRasterVariables
 90
        0
 70
     1
 71
     1
 72
     1
  0
DICTIONARY
  5
1A
102
{ACAD_REACTORS
330
C
102
}
330
C
100
AcDbDictionary
281
     1
  3
Layout1
350
1E
  3
Layout2
350
26
  3
Model
350
22
  0
DICTIONARY
  5
17
102
{ACAD_REACTORS
330
C
102
}
330
C
100
AcDbDictionary
281
     1
  3
Standard
350
18
  0
DICTIONARY
  5
19
102
{ACAD_REACTORS
330
C
102
}
330
C
100
AcDbDictionary
281
     1
  0
ACDBDICTIONARYWDFLT
  5
E
102
{ACAD_REACTORS
330
C
102
}
330
C
100
AcDbDictionary
281
     1
  3
Normal
350
F
100
AcDbDictionaryWithDefault
340
F
  0
DICTIONARY
  5
47
102
{ACAD_REACTORS
330
C
102
}
330
C
100
AcDbDictionary
281
     1
  3
A0
350
48
  3
A1
350
49
  3
A2
350
4A
  3
A3
350
4B
  3
A4
350
4C
  3
A5
350
4D
  3
A6
350
4E
  3
A7
350
4F
  3
A8
350
50
  3
A9
350
51
  3
B0
350
52
  3
B1
350
53
  3
B2
350
54
  3
B3
350
55
  3
B4
350
56
  3
B5
350
57
  3
B6
350
58
  3
B7
350
59
  3
B8
350
5A
  3
B9
350
5B
  3
C0
350
5C
  3
C1
350
5D
  3
C2
350
5E
  3
C3
350
5F
  3
C4
350
60
  3
C5
350
61
  3
C6
350
62
  3
C7
350
63
  3
C8
350
64
  3
C9
350
65
  3
D0
350
66
  3
D1
350
67
  3
D2
350
68
  0
DICTIONARY
  5
14C
102
{ACAD_REACTORS
330
C
102
}
330
C
100
AcDbDictionary
281
     1
  0
XRECORD
  5
4B8
102
{ACAD_REACTORS
330
C
102
}
330
C
100
AcDbXrecord
280
     1
  1
DWGPROPS COOKIE
  2

  3

  4

  6

  7

  8
12017012
  9

300
=
301
=
302
=
303
=
304
=
305
=
306
=
307
=
308
=
309
=
 40
0.0
 41
2458313.096448218
 42
2458318.982421701
  1

 90
        0
  0
DICTIONARY
  5
1D4
102
{ACAD_REACTORS
330
1D3
102
}
330
1D3
100
AcDbDictionary
281
     1
  0
LAYOUT
  5
1E
102
{ACAD_REACTORS
330
1A
102
}
330
1A
100
AcDbPlotSettings
  1

  2
none_device
  4

  6

 40
0.0
 41
0.0
 42
0.0
 43
0.0
 44
0.0
 45
0.0
 46
0.0
 47
0.0
 48
0.0
 49
0.0
140
0.0
141
0.0
142
1.0
143
1.0
 70
   688
 72
     1
 73
     0
 74
     5
  7

 75
    16
147
1.0
148
0.0
149
0.0
100
AcDbLayout
  1
Layout1
 70
     1
 71
     1
 10
0.0
 20
0.0
 11
420.0
 21
297.0
 12
0.0
 22
0.0
 32
0.0
 14
1.000000000000000E+20
 24
1.000000000000000E+20
 34
1.000000000000000E+20
 15
-1.000000000000000E+20
 25
-1.000000000000000E+20
 35
-1.000000000000000E+20
146
0.0
 13
0.0
 23
0.0
 33
0.0
 16
1.0
 26
0.0
 36
0.0
 17
0.0
 27
1.0
 37
0.0
 76
     0
330
1B
  0
LAYOUT
  5
26
102
{ACAD_REACTORS
330
1A
102
}
330
1A
100
AcDbPlotSettings
  1

  2
none_device
  4

  6

 40
0.0
 41
0.0
 42
0.0
 43
0.0
 44
0.0
 45
0.0
 46
0.0
 47
0.0
 48
0.0
 49
0.0
140
0.0
141
0.0
142
1.0
143
1.0
 70
   688
 72
     1
 73
     0
 74
     5
  7

 75
    16
147
1.0
148
0.0
149
0.0
100
AcDbLayout
  1
Layout2
 70
     1
 71
     2
 10
0.0
 20
0.0
 11
0.0
 21
0.0
 12
0.0
 22
0.0
 32
0.0
 14
0.0
 24
0.0
 34
0.0
 15
0.0
 25
0.0
 35
0.0
146
0.0
 13
0.0
 23
0.0
 33
0.0
 16
1.0
 26
0.0
 36
0.0
 17
0.0
 27
1.0
 37
0.0
 76
     0
330
23
  0
LAYOUT
  5
22
102
{ACAD_REACTORS
330
1A
102
}
330
1A
100
AcDbPlotSettings
  1

  2
none_device
  4
ANSI_A_(11.00_x_8.50_Inches)
  6

 40
6.35
 41
19.05
 42
6.35000508
 43
19.05000254
 44
279.4
 45
215.9
 46
76.40317549079077
 47
81.50010431097478
 48
0.0
 49
0.0
140
0.0
141
0.0
142
0.0509944409367187
143
1.0
 70
  1696
 72
     0
 73
     0
 74
     0
  7

 75
     0
147
0.0235690232323232
148
0.0
149
0.0
100
AcDbLayout
  1
Model
 70
     1
 71
     0
 10
0.0
 20
0.0
 11
420.0
 21
297.0
 12
0.0
 22
0.0
 32
0.0
 14
1.000000000000000E+20
 24
1.000000000000000E+20
 34
1.000000000000000E+20
 15
-1.000000000000000E+20
 25
-1.000000000000000E+20
 35
-1.000000000000000E+20
146
0.0
 13
0.0
 23
0.0
 33
0.0
 16
1.0
 26
0.0
 36
0.0
 17
0.0
 27
1.0
 37
0.0
 76
     0
330
1F
331
29
  0
MLINESTYLE
  5
18
102
{ACAD_REACTORS
330
17
102
}
330
17
100
AcDbMlineStyle
  2
Standard
 70
     0
  3

 62
   256
 51
90.0
 52
90.0
 71
     2
 49
0.5
 62
   256
  6
BYLAYER
 49
-0.5
 62
   256
  6
BYLAYER
  0
ACDBPLACEHOLDER
  5
F
102
{ACAD_REACTORS
330
E
102
}
330
E
  0
SCALE
  5
48
102
{ACAD_REACTORS
330
47
102
}
330
47
100
AcDbScale
 70
     0
300
1:1
140
1.0
141
1.0
290
     1
  0
SCALE
  5
49
102
{ACAD_REACTORS
330
47
102
}
330
47
100
AcDbScale
 70
     0
300
1:2
140
1.0
141
2.0
290
     0
  0
SCALE
  5
4A
102
{ACAD_REACTORS
330
47
102
}
330
47
100
AcDbScale
 70
     0
300
1:4
140
1.0
141
4.0
290
     0
  0
SCALE
  5
4B
102
{ACAD_REACTORS
330
47
102
}
330
47
100
AcDbScale
 70
     0
300
1:5
140
1.0
141
5.0
290
     0
  0
SCALE
  5
4C
102
{ACAD_REACTORS
330
47
102
}
330
47
100
AcDbScale
 70
     0
300
1:8
140
1.0
141
8.0
290
     0
  0
SCALE
  5
4D
102
{ACAD_REACTORS
330
47
102
}
330
47
100
AcDbScale
 70
     0
300
1:10
140
1.0
141
10.0
290
     0
  0
SCALE
  5
4E
102
{ACAD_REACTORS
330
47
102
}
330
47
100
AcDbScale
 70
     0
300
1:16
140
1.0
141
16.0
290
     0
  0
SCALE
  5
4F
102
{ACAD_REACTORS
330
47
102
}
330
47
100
AcDbScale
 70
     0
300
1:20
140
1.0
141
20.0
290
     0
  0
SCALE
  5
50
102
{ACAD_REACTORS
330
47
102
}
330
47
100
AcDbScale
 70
     0
300
1:30
140
1.0
141
30.0
290
     0
  0
SCALE
  5
51
102
{ACAD_REACTORS
330
47
102
}
330
47
100
AcDbScale
 70
     0
300
1:40
140
1.0
141
40.0
290
     0
  0
SCALE
  5
52
102
{ACAD_REACTORS
330
47
102
}
330
47
100
AcDbScale
 70
     0
300
1:50
140
1.0
141
50.0
290
     0
  0
SCALE
  5
53
102
{ACAD_REACTORS
330
47
102
}
330
47
100
AcDbScale
 70
     0
300
1:100
140
1.0
141
100.0
290
     0
  0
SCALE
  5
54
102
{ACAD_REACTORS
330
47
102
}
330
47
100
AcDbScale
 70
     0
300
2:1
140
2.0
141
1.0
290
     0
  0
SCALE
  5
55
102
{ACAD_REACTORS
330
47
102
}
330
47
100
AcDbScale
 70
     0
300
4:1
140
4.0
141
1.0
290
     0
  0
SCALE
  5
56
102
{ACAD_REACTORS
330
47
102
}
330
47
100
AcDbScale
 70
     0
300
8:1
140
8.0
141
1.0
290
     0
  0
SCALE
  5
57
102
{ACAD_REACTORS
330
47
102
}
330
47
100
AcDbScale
 70
     0
300
10:1
140
10.0
141
1.0
290
     0
  0
SCALE
  5
58
102
{ACAD_REACTORS
330
47
102
}
330
47
100
AcDbScale
 70
     0
300
100:1
140
100.0
141
1.0
290
     0
  0
SCALE
  5
59
102
{ACAD_REACTORS
330
47
102
}
330
47
100
AcDbScale
 70
     0
300
1/128" = 1'-0"
140
0.0078125
141
12.0
290
     0
  0
SCALE
  5
5A
102
{ACAD_REACTORS
330
47
102
}
330
47
100
AcDbScale
 70
     0
300
1/64" = 1'-0"
140
0.015625
141
12.0
290
     0
  0
SCALE
  5
5B
102
{ACAD_REACTORS
330
47
102
}
330
47
100
AcDbScale
 70
     0
300
1/32" = 1'-0"
140
0.03125
141
12.0
290
     0
  0
SCALE
  5
5C
102
{ACAD_REACTORS
330
47
102
}
330
47
100
AcDbScale
 70
     0
300
1/16" = 1'-0"
140
0.0625
141
12.0
290
     0
  0
SCALE
  5
5D
102
{ACAD_REACTORS
330
47
102
}
330
47
100
AcDbScale
 70
     0
300
3/32" = 1'-0"
140
0.09375
141
12.0
290
     0
  0
SCALE
  5
5E
102
{ACAD_REACTORS
330
47
102
}
330
47
100
AcDbScale
 70
     0
300
1/8" = 1'-0"
140
0.125
141
12.0
290
     0
  0
SCALE
  5
5F
102
{ACAD_REACTORS
330
47
102
}
330
47
100
AcDbScale
 70
     0
300
3/16" = 1'-0"
140
0.1875
141
12.0
290
     0
  0
SCALE
  5
60
102
{ACAD_REACTORS
330
47
102
}
330
47
100
AcDbScale
 70
     0
300
1/4" = 1'-0"
140
0.25
141
12.0
290
     0
  0
SCALE
  5
61
102
{ACAD_REACTORS
330
47
102
}
330
47
100
AcDbScale
 70
     0
300
3/8" = 1'-0"
140
0.375
141
12.0
290
     0
  0
SCALE
  5
62
102
{ACAD_REACTORS
330
47
102
}
330
47
100
AcDbScale
 70
     0
300
1/2" = 1'-0"
140
0.5
141
12.0
290
     0
  0
SCALE
  5
63
102
{ACAD_REACTORS
330
47
102
}
330
47
100
AcDbScale
 70
     0
300
3/4" = 1'-0"
140
0.75
141
12.0
290
     0
  0
SCALE
  5
64
102
{ACAD_REACTORS
330
47
102
}
330
47
100
AcDbScale
 70
     0
300
1" = 1'-0"
140
1.0
141
12.0
290
     0
  0
SCALE
  5
65
102
{ACAD_REACTORS
330
47
102
}
330
47
100
AcDbScale
 70
     0
300
1-1/2" = 1'-0"
140
1.5
141
12.0
290
     0
  0
SCALE
  5
66
102
{ACAD_REACTORS
330
47
102
}
330
47
100
AcDbScale
 70
     0
300
3" = 1'-0"
140
3.0
141
12.0
290
     0
  0
SCALE
  5
67
102
{ACAD_REACTORS
330
47
102
}
330
47
100
AcDbScale
 70
     0
300
6" = 1'-0"
140
6.0
141
12.0
290
     0
  0
SCALE
  5
68
102
{ACAD_REACTORS
330
47
102
}
330
47
100
AcDbScale
 70
     0
300
1'-0" = 1'-0"
140
12.0
141
12.0
290
     0
  0
ENDSEC
  0
EOF
