  0
SECTION
  2
HEADER
  9
$ACADVER
  1
AC1015
  9
$ACADMAINTVER
 70
     6
  9
$DWGCODEPAGE
  3
ANSI_949
  9
$INSBASE
 10
0.0
 20
0.0
 30
0.0
  9
$EXTMIN
 10
1.000000000000000E+20
 20
1.000000000000000E+20
 30
1.000000000000000E+20
  9
$EXTMAX
 10
-1.000000000000000E+20
 20
-1.000000000000000E+20
 30
-1.000000000000000E+20
  9
$LIMMIN
 10
0.0
 20
0.0
  9
$LIMMAX
 10
420.0
 20
297.0
  9
$ORTHOMODE
 70
     1
  9
$REGENMODE
 70
     1
  9
$FILLMODE
 70
     1
  9
$QTEXTMODE
 70
     0
  9
$MIRRTEXT
 70
     1
  9
$LTSCALE
 40
1.0
  9
$ATTMODE
 70
     1
  9
$TEXTSIZE
 40
3.5
  9
$TRACEWID
 40
1.0
  9
$TEXTSTYLE
  7
Standard
  9
$CLAYER
  8
0
  9
$CELTYPE
  6
ByLayer
  9
$CECOLOR
 62
   256
  9
$CELTSCALE
 40
1.0
  9
$DISPSILH
 70
     0
  9
$DIMSCALE
 40
1.0
  9
$DIMASZ
 40
3.302
  9
$DIMEXO
 40
1.0
  9
$DIMDLI
 40
3.75
  9
$DIMRND
 40
0.0
  9
$DIMDLE
 40
0.0
  9
$DIMEXE
 40
1.0
  9
$DIMTP
 40
0.0
  9
$DIMTM
 40
0.0
  9
$DIMTXT
 40
3.5
  9
$DIMCEN
 40
2.5
  9
$DIMTSZ
 40
0.0
  9
$DIMTOL
 70
     0
  9
$DIMLIM
 70
     0
  9
$DIMTIH
 70
     1
  9
$DIMTOH
 70
     1
  9
$DIMSE1
 70
     0
  9
$DIMSE2
 70
     0
  9
$DIMTAD
 70
     1
  9
$DIMZIN
 70
     0
  9
$DIMBLK
  1

  9
$DIMASO
 70
     1
  9
$DIMSHO
 70
     1
  9
$DIMPOST
  1

  9
$DIMAPOST
  1

  9
$DIMALT
 70
     0
  9
$DIMALTD
 70
     3
  9
$DIMALTF
 40
0.0393700787401575
  9
$DIMLFAC
 40
1.0
  9
$DIMTOFL
 70
     1
  9
$DIMTVP
 40
0.0
  9
$DIMTIX
 70
     0
  9
$DIMSOXD
 70
     0
  9
$DIMSAH
 70
     0
  9
$DIMBLK1
  1

  9
$DIMBLK2
  1

  9
$DIMSTYLE
  2
ISO-25
  9
$DIMCLRD
 70
     0
  9
$DIMCLRE
 70
     0
  9
$DIMCLRT
 70
     0
  9
$DIMTFAC
 40
1.0
  9
$DIMGAP
 40
1.524
  9
$DIMJUST
 70
     0
  9
$DIMSD1
 70
     0
  9
$DIMSD2
 70
     0
  9
$DIMTOLJ
 70
     0
  9
$DIMTZIN
 70
     0
  9
$DIMALTZ
 70
     0
  9
$DIMALTTZ
 70
     0
  9
$DIMUPT
 70
     0
  9
$DIMDEC
 70
     2
  9
$DIMTDEC
 70
     2
  9
$DIMALTU
 70
     2
  9
$DIMALTTD
 70
     3
  9
$DIMTXSTY
  7
Standard
  9
$DIMAUNIT
 70
     0
  9
$DIMADEC
 70
     2
  9
$DIMALTRND
 40
0.0
  9
$DIMAZIN
 70
     0
  9
$DIMDSEP
 70
    44
  9
$DIMATFIT
 70
     3
  9
$DIMFRAC
 70
     0
  9
$DIMLDRBLK
  1

  9
$DIMLUNIT
 70
     2
  9
$DIMLWD
 70
    -2
  9
$DIMLWE
 70
    -2
  9
$DIMTMOVE
 70
     0
  9
$LUNITS
 70
     2
  9
$LUPREC
 70
     2
  9
$SKETCHINC
 40
1.0
  9
$FILLETRAD
 40
10.0
  9
$AUNITS
 70
     0
  9
$AUPREC
 70
     2
  9
$MENU
  1
.
  9
$ELEVATION
 40
0.0
  9
$PELEVATION
 40
0.0
  9
$THICKNESS
 40
0.0
  9
$LIMCHECK
 70
     0
  9
$CHAMFERA
 40
0.0
  9
$CHAMFERB
 40
0.0
  9
$CHAMFERC
 40
0.0
  9
$CHAMFERD
 40
0.0
  9
$SKPOLY
 70
     0
  9
$TDCREATE
 40
2458313.471236621
  9
$TDUCREATE
 40
2458313.096236621
  9
$TDUPDATE
 40
2458319.357707859
  9
$TDUUPDATE
 40
2458318.982707859
  9
$TDINDWG
 40
0.0016019676
  9
$TDUSRTIMER
 40
2458318.982426875
  9
$USRTIMER
 70
     1
  9
$ANGBASE
 50
0.0
  9
$ANGDIR
 70
     0
  9
$PDMODE
 70
     0
  9
$PDSIZE
 40
-1.0
  9
$PLINEWID
 40
0.0
  9
$SPLFRAME
 70
     0
  9
$SPLINETYPE
 70
     6
  9
$SPLINESEGS
 70
     8
  9
$HANDSEED
  5
3C7
  9
$SURFTAB1
 70
     6
  9
$SURFTAB2
 70
     6
  9
$SURFTYPE
 70
     6
  9
$SURFU
 70
     6
  9
$SURFV
 70
     6
  9
$UCSBASE
  2

  9
$UCSNAME
  2

  9
$UCSORG
 10
0.0
 20
0.0
 30
0.0
  9
$UCSXDIR
 10
1.0
 20
0.0
 30
0.0
  9
$UCSYDIR
 10
0.0
 20
1.0
 30
0.0
  9
$UCSORTHOREF
  2

  9
$UCSORTHOVIEW
 70
     0
  9
$UCSORGTOP
 10
0.0
 20
0.0
 30
0.0
  9
$UCSORGBOTTOM
 10
0.0
 20
0.0
 30
0.0
  9
$UCSORGLEFT
 10
0.0
 20
0.0
 30
0.0
  9
$UCSORGRIGHT
 10
0.0
 20
0.0
 30
0.0
  9
$UCSORGFRONT
 10
0.0
 20
0.0
 30
0.0
  9
$UCSORGBACK
 10
0.0
 20
0.0
 30
0.0
  9
$PUCSBASE
  2

  9
$PUCSNAME
  2

  9
$PUCSORG
 10
0.0
 20
0.0
 30
0.0
  9
$PUCSXDIR
 10
1.0
 20
0.0
 30
0.0
  9
$PUCSYDIR
 10
0.0
 20
1.0
 30
0.0
  9
$PUCSORTHOREF
  2

  9
$PUCSORTHOVIEW
 70
     0
  9
$PUCSORGTOP
 10
0.0
 20
0.0
 30
0.0
  9
$PUCSORGBOTTOM
 10
0.0
 20
0.0
 30
0.0
  9
$PUCSORGLEFT
 10
0.0
 20
0.0
 30
0.0
  9
$PUCSORGRIGHT
 10
0.0
 20
0.0
 30
0.0
  9
$PUCSORGFRONT
 10
0.0
 20
0.0
 30
0.0
  9
$PUCSORGBACK
 10
0.0
 20
0.0
 30
0.0
  9
$USERI1
 70
     0
  9
$USERI2
 70
     0
  9
$USERI3
 70
     0
  9
$USERI4
 70
     0
  9
$USERI5
 70
     0
  9
$USERR1
 40
0.0
  9
$USERR2
 40
0.0
  9
$USERR3
 40
0.0
  9
$USERR4
 40
0.0
  9
$USERR5
 40
0.0
  9
$WORLDVIEW
 70
     1
  9
$SHADEDGE
 70
     3
  9
$SHADEDIF
 70
    70
  9
$TILEMODE
 70
     1
  9
$MAXACTVP
 70
    64
  9
$PINSBASE
 10
0.0
 20
0.0
 30
0.0
  9
$PLIMCHECK
 70
     0
  9
$PEXTMIN
 10
1.000000000000000E+20
 20
1.000000000000000E+20
 30
1.000000000000000E+20
  9
$PEXTMAX
 10
-1.000000000000000E+20
 20
-1.000000000000000E+20
 30
-1.000000000000000E+20
  9
$PLIMMIN
 10
0.0
 20
0.0
  9
$PLIMMAX
 10
0.0
 20
0.0
  9
$UNITMODE
 70
     0
  9
$VISRETAIN
 70
     1
  9
$PLINEGEN
 70
     0
  9
$PSLTSCALE
 70
     1
  9
$TREEDEPTH
 70
  3020
  9
$CMLSTYLE
  2
Standard
  9
$CMLJUST
 70
     0
  9
$CMLSCALE
 40
20.0
  9
$PROXYGRAPHICS
 70
     1
  9
$MEASUREMENT
 70
     1
  9
$CELWEIGHT
370
    -1
  9
$ENDCAPS
280
     0
  9
$JOINSTYLE
280
     0
  9
$LWDISPLAY
290
     1
  9
$INSUNITS
 70
     4
  9
$HYPERLINKBASE
  1

  9
$STYLESHEET
  1

  9
$XEDIT
290
     1
  9
$CEPSNTYPE
380
     0
  9
$PSTYLEMODE
290
     1
  9
$FINGERPRINTGUID
  2
{4B172071-3F7E-4B3D-9DE3-78426BCC3514}
  9
$VERSIONGUID
  2
{FAEB1C32-E019-11D5-929B-00C0DF256EC4}
  9
$EXTNAMES
290
     1
  9
$PSVPSCALE
 40
0.0
  9
$OLESTARTUP
290
     0
  0
ENDSEC
  0
SECTION
  2
CLASSES
  0
CLASS
  1
ACDBDICTIONARYWDFLT
  2
AcDbDictionaryWithDefault
  3
ObjectDBX Classes
 90
        0
280
     0
281
     0
  0
CLASS
  1
VISUALSTYLE
  2
AcDbVisualStyle
  3
ObjectDBX Classes
 90
     4095
280
     0
281
     0
  0
CLASS
  1
MATERIAL
  2
AcDbMaterial
  3
ObjectDBX Classes
 90
     1153
280
     0
281
     0
  0
CLASS
  1
SCALE
  2
AcDbScale
  3
ObjectDBX Classes
 90
     1153
280
     0
281
     0
  0
CLASS
  1
SUN
  2
AcDbSun
  3
SCENEOE
 90
     1153
280
     0
281
     0
  0
CLASS
  1
ACDBPLACEHOLDER
  2
AcDbPlaceHolder
  3
ObjectDBX Classes
 90
        0
280
     0
281
     0
  0
CLASS
  1
LAYOUT
  2
AcDbLayout
  3
ObjectDBX Classes
 90
        0
280
     0
281
     0
  0
CLASS
  1
TABLESTYLE
  2
AcDbTableStyle
  3
ObjectDBX Classes
 90
     4095
280
     0
281
     0
  0
CLASS
  1
MLEADERSTYLE
  2
AcDbMLeaderStyle
  3
ACDB_MLEADERSTYLE_CLASS
 90
     4095
280
     0
281
     0
  0
CLASS
  1
RASTERVARIABLES
  2
AcDbRasterVariables
  3
ISM
 90
        0
280
     0
281
     0
  0
ENDSEC
  0
SECTION
  2
TABLES
  0
TABLE
  2
VPORT
  5
8
330
0
100
AcDbSymbolTable
 70
     1
  0
VPORT
  5
29
330
8
100
AcDbSymbolTableRecord
100
AcDbViewportTableRecord
  2
*Active
 70
     0
 10
0.0
 20
0.0
 11
1.0
 21
1.0
 12
-8.510410251646555
 22
-9.220928545596664
 13
0.0
 23
0.0
 14
10.0
 24
10.0
 15
10.0
 25
10.0
 16
0.0
 26
0.0
 36
1.0
 17
0.0
 27
0.0
 37
0.0
 40
158.2687404840964
 41
1.632093933463796
 42
50.0
 43
0.0
 44
0.0
 50
0.0
 51
0.0
 71
    16
 72
  2000
 73
     1
 74
     3
 75
     0
 76
     0
 77
     0
 78
     0
281
     0
 65
     1
110
0.0
120
0.0
130
0.0
111
1.0
121
0.0
131
0.0
112
0.0
122
1.0
132
0.0
 79
     0
146
0.0
  0
ENDTAB
  0
TABLE
  2
LTYPE
  5
5
330
0
100
AcDbSymbolTable
 70
     6
  0
LTYPE
  5
14
330
5
100
AcDbSymbolTableRecord
100
AcDbLinetypeTableRecord
  2
ByBlock
 70
     0
  3

 72
    65
 73
     0
 40
0.0
  0
LTYPE
  5
15
330
5
100
AcDbSymbolTableRecord
100
AcDbLinetypeTableRecord
  2
ByLayer
 70
     0
  3

 72
    65
 73
     0
 40
0.0
  0
LTYPE
  5
16
330
5
100
AcDbSymbolTableRecord
100
AcDbLinetypeTableRecord
  2
Continuous
 70
     0
  3
Solid line
 72
    65
 73
     0
 40
0.0
  0
LTYPE
  5
6A
330
5
100
AcDbSymbolTableRecord
100
AcDbLinetypeTableRecord
  2
HIDDEN
 70
     0
  3
Hidden __ __ __ __ __ __ __ __ __ __ __ __ __ __
 72
    65
 73
     2
 40
1.905
 49
1.27
 74
     0
 49
-0.635
 74
     0
  0
LTYPE
  5
6B
330
5
100
AcDbSymbolTableRecord
100
AcDbLinetypeTableRecord
  2
PHANTOM
 70
     0
  3
Phantom ______  __  __  ______  __  __  ______
 72
    65
 73
     6
 40
12.7
 49
6.35
 74
     0
 49
-1.27
 74
     0
 49
1.27
 74
     0
 49
-1.27
 74
     0
 49
1.27
 74
     0
 49
-1.27
 74
     0
  0
LTYPE
  5
6C
330
5
100
AcDbSymbolTableRecord
100
AcDbLinetypeTableRecord
  2
CENTER
 70
     0
  3
Center ____ _ ____ _ ____ _ ____ _ ____ _ ____
 72
    65
 73
     4
 40
10.16
 49
6.35
 74
     0
 49
-1.27
 74
     0
 49
1.27
 74
     0
 49
-1.27
 74
     0
  0
LTYPE
  5
6D
330
5
100
AcDbSymbolTableRecord
100
AcDbLinetypeTableRecord
  2
CENTERX2
 70
     0
  3
Center (2x) ________  __  ________  __  _____
 72
    65
 73
     4
 40
20.32
 49
12.7
 74
     0
 49
-2.54
 74
     0
 49
2.54
 74
     0
 49
-2.54
 74
     0
  0
LTYPE
  5
6E
330
5
100
AcDbSymbolTableRecord
100
AcDbLinetypeTableRecord
  2
DOT2
 70
     0
  3
Dot (.5x) ........................................
 72
    65
 73
     2
 40
0.635
 49
0.0
 74
     0
 49
-0.635
 74
     0
  0
ENDTAB
  0
TABLE
  2
LAYER
  5
2
102
{ACAD_XDICTIONARY
360
1DC
102
}
330
0
100
AcDbSymbolTable
 70
    18
  0
LAYER
  5
10
330
2
100
AcDbSymbolTableRecord
100
AcDbLayerTableRecord
  2
0
 70
     0
 62
     7
  6
Continuous
370
    -3
390
F
  0
LAYER
  5
6F
330
2
100
AcDbSymbolTableRecord
100
AcDbLayerTableRecord
  2
FORMAT
 70
     0
 62
     2
  6
Continuous
370
    -3
390
F
  0
LAYER
  5
70
330
2
100
AcDbSymbolTableRecord
100
AcDbLayerTableRecord
  2
외형선
 70
     0
 62
     4
  6
Continuous
370
    30
390
F
  0
LAYER
  5
71
330
2
100
AcDbSymbolTableRecord
100
AcDbLayerTableRecord
  2
숨은선
 70
     0
 62
     2
  6
HIDDEN
370
    15
390
F
  0
LAYER
  5
72
330
2
100
AcDbSymbolTableRecord
100
AcDbLayerTableRecord
  2
중심선
 70
     0
 62
     1
  6
CENTERX2
370
    -3
390
F
  0
LAYER
  5
73
330
2
100
AcDbSymbolTableRecord
100
AcDbLayerTableRecord
  2
파단선
 70
     0
 62
     4
  6
Continuous
370
    -3
390
F
  0
LAYER
  5
74
330
2
100
AcDbSymbolTableRecord
100
AcDbLayerTableRecord
  2
해칭선
 70
     0
 62
   100
  6
Continuous
370
    -3
390
F
  0
LAYER
  5
75
330
2
100
AcDbSymbolTableRecord
100
AcDbLayerTableRecord
  2
가는실선
 70
     0
 62
     4
  6
Continuous
370
    -3
390
F
  0
LAYER
  5
76
330
2
100
AcDbSymbolTableRecord
100
AcDbLayerTableRecord
  2
치수_보조선
 70
     0
 62
     4
  6
Continuous
370
    -3
390
F
  0
LAYER
  5
77
330
2
100
AcDbSymbolTableRecord
100
AcDbLayerTableRecord
  2
치수문자_일반주서
 70
     0
 62
     7
  6
Continuous
370
    15
390
F
  0
LAYER
  5
78
330
2
100
AcDbSymbolTableRecord
100
AcDbLayerTableRecord
  2
개별주서
 70
     0
 62
   100
  6
Continuous
370
    30
390
F
  0
LAYER
  5
79
330
2
100
AcDbSymbolTableRecord
100
AcDbLayerTableRecord
  2
중간선
 70
     0
 62
     2
  6
Continuous
370
    15
390
F
  0
LAYER
  5
7A
330
2
100
AcDbSymbolTableRecord
100
AcDbLayerTableRecord
  2
윤곽선
 70
     0
 62
     3
  6
Continuous
370
    40
390
F
  0
LAYER
  5
7B
330
2
100
AcDbSymbolTableRecord
100
AcDbLayerTableRecord
  2
중심마크
 70
     0
 62
   100
  6
Continuous
370
    30
390
F
  0
LAYER
  5
7C
330
2
100
AcDbSymbolTableRecord
100
AcDbLayerTableRecord
  2
가상선
 70
     0
 62
     4
  6
PHANTOM
370
    -3
390
F
  0
LAYER
  5
7D
330
2
100
AcDbSymbolTableRecord
100
AcDbLayerTableRecord
  2
특수지정선
 70
     0
 62
     5
  6
CENTERX2
370
    60
390
F
  0
LAYER
  5
7E
330
2
100
AcDbSymbolTableRecord
100
AcDbLayerTableRecord
  2
참조1
 70
     0
 62
    -4
  6
Continuous
370
    -3
390
F
  0
LAYER
  5
151
330
2
100
AcDbSymbolTableRecord
100
AcDbLayerTableRecord
  2
Defpoints
 70
     0
 62
     7
  6
Continuous
290
     0
370
    -3
390
F
  0
ENDTAB
  0
TABLE
  2
STYLE
  5
3
330
0
100
AcDbSymbolTable
 70
     2
  0
STYLE
  5
11
330
3
100
AcDbSymbolTableRecord
100
AcDbTextStyleTableRecord
  2
Standard
 70
     0
 40
0.0
 41
1.0
 50
0.0
 71
     0
 42
3.5
  3
txt
  4

  0
STYLE
  5
94
330
3
100
AcDbSymbolTableRecord
100
AcDbTextStyleTableRecord
  2
SLDTEXTSTYLE0
 70
     0
 40
0.0
 41
0.75
 50
0.0
 71
     0
 42
3.5
  3
TXT
  4

  0
ENDTAB
  0
TABLE
  2
VIEW
  5
6
330
0
100
AcDbSymbolTable
 70
     0
  0
ENDTAB
  0
TABLE
  2
UCS
  5
7
330
0
100
AcDbSymbolTable
 70
     0
  0
ENDTAB
  0
TABLE
  2
APPID
  5
9
330
0
100
AcDbSymbolTable
 70
     1
  0
APPID
  5
12
330
9
100
AcDbSymbolTableRecord
100
AcDbRegAppTableRecord
  2
ACAD
 70
     0
  0
ENDTAB
  0
TABLE
  2
DIMSTYLE
  5
A
330
0
100
AcDbSymbolTable
 70
     3
100
AcDbDimStyleTable
  0
DIMSTYLE
105
27
330
A
100
AcDbSymbolTableRecord
100
AcDbDimStyleTableRecord
  2
ISO-25
 70
     0
 41
2.5
 42
0.625
 43
3.75
 44
1.25
 73
     0
 74
     0
 77
     1
 78
     8
140
2.5
141
2.5
143
0.03937007874016
147
0.625
171
     3
172
     1
178
     0
271
     2
272
     2
274
     3
278
    44
283
     0
284
     8
340
11
  0
DIMSTYLE
105
CE
102
{ACAD_REACTORS
330
CD
330
10A
330
E2
330
F7
102
}
330
A
100
AcDbSymbolTableRecord
100
AcDbDimStyleTableRecord
  2
SLDDIMSTYLE0
 70
     0
 41
3.302
 44
0.0
 45
0.000000001
 73
     0
 74
     0
 77
     1
 78
    12
 79
     3
140
3.5
143
0.0393700787401575
147
0.875
148
0.000000001
170
     1
172
     1
173
     1
178
     0
271
     2
272
     2
276
     2
284
    12
289
     0
340
94
  0
DIMSTYLE
105
E3
330
A
100
AcDbSymbolTableRecord
100
AcDbDimStyleTableRecord
  2
SLDDIMSTYLE1
 70
     0
 41
3.302
 44
0.0
 45
0.000000001
 73
     0
 74
     0
 77
     1
 78
    12
 79
     3
140
3.5
143
0.0393700787401575
147
0.875
148
0.000000001
170
     1
173
     1
178
     0
271
     2
272
     2
276
     2
284
    12
340
94
  0
ENDTAB
  0
TABLE
  2
BLOCK_RECORD
  5
1
330
0
100
AcDbSymbolTable
 70
    20
  0
BLOCK_RECORD
  5
1F
330
1
100
AcDbSymbolTableRecord
100
AcDbBlockTableRecord
  2
*Model_Space
340
22
  0
BLOCK_RECORD
  5
1B
330
1
100
AcDbSymbolTableRecord
100
AcDbBlockTableRecord
  2
*Paper_Space
340
1E
  0
BLOCK_RECORD
  5
23
330
1
100
AcDbSymbolTableRecord
100
AcDbBlockTableRecord
  2
*Paper_Space0
340
26
  0
BLOCK_RECORD
  5
7F
330
1
100
AcDbSymbolTableRecord
100
AcDbBlockTableRecord
  2
블럭10
340
0
102
{BLKREFS
331
C6
102
}
  0
BLOCK_RECORD
  5
CF
330
1
100
AcDbSymbolTableRecord
100
AcDbBlockTableRecord
  2
_D
340
0
  0
BLOCK_RECORD
  5
E4
330
1
100
AcDbSymbolTableRecord
100
AcDbBlockTableRecord
  2
_D_1
340
0
  0
BLOCK_RECORD
  5
F8
330
1
100
AcDbSymbolTableRecord
100
AcDbBlockTableRecord
  2
_D_2
340
0
  0
BLOCK_RECORD
  5
10B
330
1
100
AcDbSymbolTableRecord
100
AcDbBlockTableRecord
  2
_D_3
340
0
  0
BLOCK_RECORD
  5
125
330
1
100
AcDbSymbolTableRecord
100
AcDbBlockTableRecord
  2
SW_DOWELSYMBOL_0
340
0
102
{BLKREFS
331
12B
102
}
  0
BLOCK_RECORD
  5
1E0
330
1
100
AcDbSymbolTableRecord
100
AcDbBlockTableRecord
  2
*D7
340
0
  0
BLOCK_RECORD
  5
1EF
330
1
100
AcDbSymbolTableRecord
100
AcDbBlockTableRecord
  2
*D8
340
0
  0
BLOCK_RECORD
  5
1FE
330
1
100
AcDbSymbolTableRecord
100
AcDbBlockTableRecord
  2
*D9
340
0
  0
BLOCK_RECORD
  5
23D
330
1
100
AcDbSymbolTableRecord
100
AcDbBlockTableRecord
  2
*D10
340
0
  0
BLOCK_RECORD
  5
24C
330
1
100
AcDbSymbolTableRecord
100
AcDbBlockTableRecord
  2
*D11
340
0
  0
BLOCK_RECORD
  5
25B
330
1
100
AcDbSymbolTableRecord
100
AcDbBlockTableRecord
  2
*D12
340
0
  0
BLOCK_RECORD
  5
2F3
330
1
100
AcDbSymbolTableRecord
100
AcDbBlockTableRecord
  2
*D13
340
0
  0
BLOCK_RECORD
  5
302
330
1
100
AcDbSymbolTableRecord
100
AcDbBlockTableRecord
  2
*D14
340
0
  0
BLOCK_RECORD
  5
311
330
1
100
AcDbSymbolTableRecord
100
AcDbBlockTableRecord
  2
*D15
340
0
  0
BLOCK_RECORD
  5
34A
330
1
100
AcDbSymbolTableRecord
100
AcDbBlockTableRecord
  2
*D16
340
0
  0
BLOCK_RECORD
  5
359
330
1
100
AcDbSymbolTableRecord
100
AcDbBlockTableRecord
  2
*D17
340
0
  0
BLOCK_RECORD
  5
368
330
1
100
AcDbSymbolTableRecord
100
AcDbBlockTableRecord
  2
*D18
340
0
  0
ENDTAB
  0
ENDSEC
  0
SECTION
  2
BLOCKS
  0
BLOCK
  5
20
330
1F
100
AcDbEntity
  8
0
100
AcDbBlockBegin
  2
*Model_Space
 70
     0
 10
0.0
 20
0.0
 30
0.0
  3
*Model_Space
  1
*Model_Space
  0
ENDBLK
  5
21
330
1F
100
AcDbEntity
  8
0
100
AcDbBlockEnd
  0
BLOCK
  5
1C
330
1B
100
AcDbEntity
 67
     1
  8
0
100
AcDbBlockBegin
  2
*Paper_Space
 70
     0
 10
0.0
 20
0.0
 30
0.0
  3
*Paper_Space
  1
*Paper_Space
  0
ENDBLK
  5
1D
330
1B
100
AcDbEntity
 67
     1
  8
0
100
AcDbBlockEnd
  0
BLOCK
  5
24
330
23
100
AcDbEntity
  8
0
100
AcDbBlockBegin
  2
*Paper_Space0
 70
     0
 10
0.0
 20
0.0
 30
0.0
  3
*Paper_Space0
  1
*Paper_Space0
  0
ENDBLK
  5
25
330
23
100
AcDbEntity
  8
0
100
AcDbBlockEnd
  0
BLOCK
  5
80
330
7F
100
AcDbEntity
  8
0
100
AcDbBlockBegin
  2
블럭10
 70
     2
 10
0.0
 20
0.0
 30
0.0
  3
블럭10
  1
블럭10
  0
ELLIPSE
  5
82
330
7F
100
AcDbEntity
  8
중심선
100
AcDbEllipse
 10
20.54032771741204
 20
12.0471743016438
 30
0.0
 11
6.600054785286829
 21
-1.261213355974178E-13
 31
0.0
210
0.0
220
0.0
230
1.0
 40
0.636358354079598
 41
0.9219305317359503
 42
6.513795318482858
  0
ELLIPSE
  5
83
330
7F
100
AcDbEntity
  8
중심선
100
AcDbEllipse
 10
20.54032771746488
 20
12.04717430159265
 30
0.0
 11
3.960054785062283
 21
1.540847449632565E-10
 31
0.0
210
0.0
220
0.0
230
1.0
 40
0.3939339440162632
 41
1.131841032648279
 42
5.62031148352944
  0
LINE
  5
84
330
7F
100
AcDbEntity
  8
중심선
100
AcDbLine
 10
2.268634060543552
 20
16.24717430164393
 30
0.0
 11
5.714909304380834
 21
16.24717430164393
 31
0.0
  0
LINE
  5
85
330
7F
100
AcDbEntity
  8
중심선
100
AcDbLine
 10
5.245725140726316
 20
7.84717430164391
 30
0.0
 11
8.692000384563599
 21
7.84717430164391
 31
0.0
  0
LINE
  5
86
330
7F
100
AcDbEntity
  8
중심선
100
AcDbLine
 10
15.74043728645272
 20
16.24717430164393
 30
0.0
 11
8.692000384563599
 21
7.84717430164391
 31
0.0
  0
LINE
  5
87
330
7F
100
AcDbEntity
  8
중심선
100
AcDbLine
 10
0.1404042013395286
 20
13.71084872107135
 30
0.0
 11
3.58671253028996
 21
13.71088815037384
 31
0.0
  0
LINE
  5
88
330
7F
100
AcDbEntity
  8
중심선
100
AcDbLine
 10
2.750260043222114
 20
10.84717430164391
 30
0.0
 11
6.196535287059397
 21
10.84717430164391
 31
0.0
  0
LINE
  5
89
330
7F
100
AcDbEntity
  8
중심선
100
AcDbLine
 10
12.29416204261559
 20
16.24717430164393
 30
0.0
 11
5.245725140726316
 21
7.84717430164391
 31
0.0
  0
LINE
  5
8A
330
7F
100
AcDbEntity
  8
중심선
100
AcDbLine
 10
10.72767329541681
 20
16.24717430164393
 30
0.0
 11
6.196535287059397
 21
10.84717430164391
 31
0.0
  0
LINE
  5
8B
330
7F
100
AcDbEntity
  8
중심선
100
AcDbLine
 10
7.28139805157953
 20
16.24717430164393
 30
0.0
 11
2.750260043222114
 21
10.84717430164391
 31
0.0
  0
LINE
  5
8C
330
7F
100
AcDbEntity
  8
중심선
100
AcDbLine
 10
5.714909304380834
 20
16.24717430164393
 30
0.0
 11
3.58671253028996
 21
13.71088815037384
 31
0.0
  0
LINE
  5
8D
330
7F
100
AcDbEntity
  8
중심선
100
AcDbLine
 10
2.268634060543552
 20
16.24717430164393
 30
0.0
 11
0.1404042013395286
 21
13.71084872107135
 31
0.0
  0
LINE
  5
8E
330
7F
100
AcDbEntity
  8
중심선
100
AcDbLine
 10
7.28139805157953
 20
16.24717430164393
 30
0.0
 11
10.72767329541681
 21
16.24717430164393
 31
0.0
  0
LINE
  5
8F
330
7F
100
AcDbEntity
  8
중심선
100
AcDbLine
 10
12.29416204261559
 20
16.24717430164393
 30
0.0
 11
15.74043728645272
 21
16.24717430164393
 31
0.0
  0
LINE
  5
90
330
7F
100
AcDbEntity
  8
중심선
100
AcDbLine
 10
19.22036997980202
 20
11.08717430171403
 30
0.0
 11
23.66174974927406
 21
11.08717430171406
 31
0.0
  0
LINE
  5
91
330
7F
100
AcDbEntity
  8
중심선
100
AcDbLine
 10
19.22039502424796
 20
13.00717430171391
 30
0.0
 11
19.22036997980202
 21
11.08717430171403
 31
0.0
  0
LINE
  5
92
330
7F
100
AcDbEntity
  8
중심선
100
AcDbLine
 10
19.22039502424796
 20
13.00717430171391
 30
0.0
 11
26.96566020931264
 21
13.00717430171391
 31
0.0
  0
LINE
  5
93
330
7F
100
AcDbEntity
  8
중심선
100
AcDbLine
 10
22.22332737316547
 20
13.45928029700563
 30
0.0
 11
24.52862924686651
 21
15.39360700705356
 31
0.0
  0
ATTDEF
  5
95
330
7F
100
AcDbEntity
  8
FORMAT
 62
     2
100
AcDbText
 10
4.408487351596664
 20
2.075366912832191
 30
0.0
 40
4.233333333333333
  1
E1053018
 41
0.75
  7
SLDTEXTSTYLE0
 11
4.408487351596664
 21
-0.0412997538344756
 31
0.0
100
AcDbAttributeDefinition
  3

  2
AUTOATTR0
 70
     0
 74
     1
  0
ENDBLK
  5
81
330
7F
100
AcDbEntity
  8
0
100
AcDbBlockEnd
  0
BLOCK
  5
D0
330
CF
100
AcDbEntity
  8
0
100
AcDbBlockBegin
  2
_D
 70
     0
 10
0.0
 20
0.0
 30
0.0
  3
_D
  1
_D
  0
LINE
  5
D2
330
CF
100
AcDbEntity
  8
치수문자_일반주서
 62
     0
370
    -2
100
AcDbLine
 10
42.92499999999998
 20
3.571875000000005
 30
0.0
 11
55.70633193173699
 21
3.571875000000055
 31
0.0
  0
LINE
  5
D3
330
CF
100
AcDbEntity
  8
치수문자_일반주서
 62
     0
370
    -2
100
AcDbLine
 10
42.925
 20
-3.571874999999994
 30
0.0
 11
55.70633193173702
 21
-3.571874999999942
 31
0.0
  0
LINE
  5
D4
330
CF
100
AcDbEntity
  8
치수문자_일반주서
 62
     0
370
    -2
100
AcDbLine
 10
55.70633193173699
 20
3.571875000000055
 30
0.0
 11
55.7063319317368
 21
51.10295518455732
 31
0.0
  0
LINE
  5
D5
330
CF
100
AcDbEntity
  8
치수문자_일반주서
 62
     0
370
    -2
100
AcDbLine
 10
55.70633193173699
 20
3.571875000000055
 30
0.0
 11
55.70633193173702
 21
-3.571874999999942
 31
0.0
  0
LINE
  5
D6
330
CF
100
AcDbEntity
  8
치수문자_일반주서
 62
     0
370
    -2
100
AcDbLine
 10
55.70633193173698
 20
6.873875000000055
 30
0.0
 11
55.70633193173696
 21
10.17587500000005
 31
0.0
  0
LINE
  5
D7
330
CF
100
AcDbEntity
  8
치수문자_일반주서
 62
     0
370
    -2
100
AcDbLine
 10
55.70633193173703
 20
-6.873874999999941
 30
0.0
 11
55.70633193173705
 21
-10.17587499999994
 31
0.0
  0
SOLID
  5
D8
330
CF
100
AcDbEntity
  8
치수문자_일반주서
 62
     0
100
AcDbTrace
 10
55.15599859840364
 20
6.873875000000053
 30
0.0
 11
56.25666526507031
 21
6.873875000000057
 31
0.0
 12
55.70633193173699
 22
3.571875000000055
 32
0.0
 13
55.70633193173699
 23
3.571875000000055
 33
0.0
  0
SOLID
  5
D9
330
CF
100
AcDbEntity
  8
치수문자_일반주서
 62
     0
100
AcDbTrace
 10
56.25666526507037
 20
-6.87387499999994
 30
0.0
 11
55.1559985984037
 21
-6.873874999999943
 31
0.0
 12
55.70633193173702
 22
-3.571874999999942
 32
0.0
 13
55.70633193173702
 23
-3.571874999999942
 33
0.0
  0
MTEXT
  5
DA
330
CF
100
AcDbEntity
  8
치수문자_일반주서
 62
     0
100
AcDbMText
 10
51.33133193173686
 20
37.1029551845573
 30
0.0
 40
3.5
 41
0.0
 71
     2
 72
     1
  1
\A1;%%c7.14 [9/32]
  7
SLDTEXTSTYLE0
 11
-3.978542002506248E-15
 21
1.0
 31
0.0
 73
     1
 44
1.0
  0
POINT
  5
DB
330
CF
100
AcDbEntity
  8
Defpoints
 62
     0
100
AcDbPoint
 10
42.86249999999998
 20
3.571875000000005
 30
0.0
  0
POINT
  5
DC
330
CF
100
AcDbEntity
  8
Defpoints
 62
     0
100
AcDbPoint
 10
42.8625
 20
-3.571874999999994
 30
0.0
  0
POINT
  5
DD
330
CF
100
AcDbEntity
  8
Defpoints
 62
     0
100
AcDbPoint
 10
55.70633193173702
 20
-3.571874999999946
 30
0.0
  0
ENDBLK
  5
D1
330
CF
100
AcDbEntity
  8
0
100
AcDbBlockEnd
  0
BLOCK
  5
E5
330
E4
100
AcDbEntity
  8
0
100
AcDbBlockBegin
  2
_D_1
 70
     0
 10
0.0
 20
0.0
 30
0.0
  3
_D_1
  1
_D_1
  0
LINE
  5
E7
330
E4
100
AcDbEntity
  8
치수문자_일반주서
 62
     0
370
    -2
100
AcDbLine
 10
42.8625
 20
3.634375000000005
 30
0.0
 11
42.8625
 21
19.86675072769291
 31
0.0
  0
LINE
  5
E8
330
E4
100
AcDbEntity
  8
치수문자_일반주서
 62
     0
370
    -2
100
AcDbLine
 10
25.4
 20
3.609250985486914
 30
0.0
 11
25.4
 21
19.86675072769291
 31
0.0
  0
LINE
  5
E9
330
E4
100
AcDbEntity
  8
치수문자_일반주서
 62
     0
370
    -2
100
AcDbLine
 10
25.4
 20
19.86675072769291
 30
0.0
 11
-9.204
 21
19.86675072769291
 31
0.0
  0
LINE
  5
EA
330
E4
100
AcDbEntity
  8
치수문자_일반주서
 62
     0
370
    -2
100
AcDbLine
 10
42.8625
 20
19.86675072769291
 30
0.0
 11
25.4
 21
19.86675072769291
 31
0.0
  0
LINE
  5
EB
330
E4
100
AcDbEntity
  8
치수문자_일반주서
 62
     0
370
    -2
100
AcDbLine
 10
46.1645
 20
19.86675072769291
 30
0.0
 11
49.4665
 21
19.86675072769291
 31
0.0
  0
LINE
  5
EC
330
E4
100
AcDbEntity
  8
치수문자_일반주서
 62
     0
370
    -2
100
AcDbLine
 10
22.098
 20
19.86675072769291
 30
0.0
 11
18.796
 21
19.86675072769291
 31
0.0
  0
SOLID
  5
ED
330
E4
100
AcDbEntity
  8
치수문자_일반주서
 62
     0
100
AcDbTrace
 10
46.1645
 20
20.41708406102624
 30
0.0
 11
46.1645
 21
19.31641739435958
 31
0.0
 12
42.8625
 22
19.86675072769291
 32
0.0
 13
42.8625
 23
19.86675072769291
 33
0.0
  0
SOLID
  5
EE
330
E4
100
AcDbEntity
  8
치수문자_일반주서
 62
     0
100
AcDbTrace
 10
22.098
 20
19.31641739435958
 30
0.0
 11
22.098
 21
20.41708406102624
 31
0.0
 12
25.4
 22
19.86675072769291
 32
0.0
 13
25.4
 23
19.86675072769291
 33
0.0
  0
MTEXT
  5
EF
330
E4
100
AcDbEntity
  8
치수문자_일반주서
 62
     0
100
AcDbMText
 10
4.795999999999999
 20
24.24175072769291
 30
0.0
 40
3.5
 41
0.0
 71
     2
 72
     1
  1
\A1;17.46 [11/16]
  7
SLDTEXTSTYLE0
 73
     1
 44
1.0
  0
POINT
  5
F0
330
E4
100
AcDbEntity
  8
Defpoints
 62
     0
100
AcDbPoint
 10
42.8625
 20
3.571875000000005
 30
0.0
  0
POINT
  5
267
330
E4
100
AcDbEntity
  8
Defpoints
 62
     0
100
AcDbPoint
 10
25.4
 20
3.546750985486914
 30
0.0
  0
POINT
  5
268
330
E4
100
AcDbEntity
  8
Defpoints
 62
     0
100
AcDbPoint
 10
25.4
 20
19.86675072769291
 30
0.0
  0
ENDBLK
  5
E6
330
E4
100
AcDbEntity
  8
0
100
AcDbBlockEnd
  0
BLOCK
  5
F9
330
F8
100
AcDbEntity
  8
0
100
AcDbBlockBegin
  2
_D_2
 70
     0
 10
0.0
 20
0.0
 30
0.0
  3
_D_2
  1
_D_2
  0
LINE
  5
FB
330
F8
100
AcDbEntity
  8
치수문자_일반주서
 62
     0
370
    -2
100
AcDbLine
 10
42.8625
 20
3.634375000000005
 30
0.0
 11
42.8625
 21
33.80431104429632
 31
0.0
  0
LINE
  5
FC
330
F8
100
AcDbEntity
  8
치수문자_일반주서
 62
     0
370
    -2
100
AcDbLine
 10
-42.8625
 20
3.634375000000003
 30
0.0
 11
-42.8625
 21
33.80431104429632
 31
0.0
  0
LINE
  5
FD
330
F8
100
AcDbEntity
  8
치수문자_일반주서
 62
     0
370
    -2
100
AcDbLine
 10
39.5605
 20
33.80431104429632
 30
0.0
 11
-39.5605
 21
33.80431104429632
 31
0.0
  0
SOLID
  5
FE
330
F8
100
AcDbEntity
  8
치수문자_일반주서
 62
     0
100
AcDbTrace
 10
39.5605
 20
33.25397771096299
 30
0.0
 11
39.5605
 21
34.35464437762965
 31
0.0
 12
42.8625
 22
33.80431104429632
 32
0.0
 13
42.8625
 23
33.80431104429632
 33
0.0
  0
SOLID
  5
FF
330
F8
100
AcDbEntity
  8
치수문자_일반주서
 62
     0
100
AcDbTrace
 10
-39.5605
 20
34.35464437762965
 30
0.0
 11
-39.5605
 21
33.25397771096299
 31
0.0
 12
-42.8625
 22
33.80431104429632
 32
0.0
 13
-42.8625
 23
33.80431104429632
 33
0.0
  0
MTEXT
  5
100
330
F8
100
AcDbEntity
  8
치수문자_일반주서
 62
     0
100
AcDbMText
 10
5.247324168330167
 20
38.17931104429632
 30
0.0
 40
3.5
 41
0.0
 71
     2
 72
     1
  1
\A1;85.73 [3 3/8]
  7
SLDTEXTSTYLE0
 73
     1
 44
1.0
  0
POINT
  5
101
330
F8
100
AcDbEntity
  8
Defpoints
 62
     0
100
AcDbPoint
 10
42.8625
 20
3.571875000000005
 30
0.0
  0
POINT
  5
102
330
F8
100
AcDbEntity
  8
Defpoints
 62
     0
100
AcDbPoint
 10
-42.8625
 20
3.571875000000003
 30
0.0
  0
POINT
  5
103
330
F8
100
AcDbEntity
  8
Defpoints
 62
     0
100
AcDbPoint
 10
-42.8625
 20
33.80431104429632
 30
0.0
  0
ENDBLK
  5
FA
330
F8
100
AcDbEntity
  8
0
100
AcDbBlockEnd
  0
BLOCK
  5
10C
330
10B
100
AcDbEntity
  8
0
100
AcDbBlockBegin
  2
_D_3
 70
     0
 10
0.0
 20
0.0
 30
0.0
  3
_D_3
  1
_D_3
  0
LINE
  5
10E
330
10B
100
AcDbEntity
  8
치수문자_일반주서
 62
     0
370
    -2
100
AcDbLine
 10
-20.01902700723828
 20
4.762500000000028
 30
0.0
 11
-55.38625000000002
 21
4.762499999999895
 31
0.0
  0
LINE
  5
10F
330
10B
100
AcDbEntity
  8
치수문자_일반주서
 62
     0
370
    -2
100
AcDbLine
 10
-19.42420130998211
 20
-4.762500000000006
 30
0.0
 11
-55.38624999999998
 21
-4.762500000000141
 31
0.0
  0
LINE
  5
110
330
10B
100
AcDbEntity
  8
치수문자_일반주서
 62
     0
370
    -2
100
AcDbLine
 10
-55.38625
 20
1.460499999999896
 30
0.0
 11
-55.38625
 21
-1.460500000000141
 31
0.0
  0
SOLID
  5
111
330
10B
100
AcDbEntity
  8
치수문자_일반주서
 62
     0
100
AcDbTrace
 10
-54.83591666666667
 20
1.460499999999898
 30
0.0
 11
-55.93658333333334
 21
1.460499999999894
 31
0.0
 12
-55.38625000000002
 22
4.762499999999895
 32
0.0
 13
-55.38625000000002
 23
4.762499999999895
 33
0.0
  0
SOLID
  5
112
330
10B
100
AcDbEntity
  8
치수문자_일반주서
 62
     0
100
AcDbTrace
 10
-55.93658333333333
 20
-1.460500000000143
 30
0.0
 11
-54.83591666666666
 21
-1.460500000000139
 31
0.0
 12
-55.38624999999998
 22
-4.762500000000141
 32
0.0
 13
-55.38624999999998
 23
-4.762500000000141
 33
0.0
  0
MTEXT
  5
113
330
10B
100
AcDbEntity
  8
치수문자_일반주서
 62
     0
100
AcDbMText
 10
-59.76125
 20
-0.0000000000000154
 30
0.0
 40
3.5
 41
0.0
 71
     2
 72
     1
  1
\A1;%%c9.53 [3/8]
  7
SLDTEXTSTYLE0
 11
-3.729883127349593E-15
 21
1.0
 31
0.0
 73
     1
 44
1.0
  0
POINT
  5
114
330
10B
100
AcDbEntity
  8
Defpoints
 62
     0
100
AcDbPoint
 10
-19.95652700723828
 20
4.762500000000028
 30
0.0
  0
POINT
  5
115
330
10B
100
AcDbEntity
  8
Defpoints
 62
     0
100
AcDbPoint
 10
-19.36170130998211
 20
-4.762500000000006
 30
0.0
  0
POINT
  5
116
330
10B
100
AcDbEntity
  8
Defpoints
 62
     0
100
AcDbPoint
 10
-55.38624999999998
 20
-4.762500000000141
 30
0.0
  0
ENDBLK
  5
10D
330
10B
100
AcDbEntity
  8
0
100
AcDbBlockEnd
  0
BLOCK
  5
126
330
125
100
AcDbEntity
  8
0
100
AcDbBlockBegin
  2
SW_DOWELSYMBOL_0
 70
     0
 10
0.0
 20
0.0
 30
0.0
  3
SW_DOWELSYMBOL_0
  1
SW_DOWELSYMBOL_0
  0
CIRCLE
  5
128
330
125
100
AcDbEntity
  8
해칭선
 62
     0
100
AcDbCircle
 10
0.0
 20
0.0
 30
0.0
 40
3.000000000000008
  0
HATCH
  5
129
330
125
100
AcDbEntity
  8
0
  6
Continuous
 62
     0
370
     0
100
AcDbHatch
 10
0.0
 20
0.0
 30
0.0
210
0.0
220
0.0
230
1.0
  2
SOLID
 70
     1
 71
     0
 91
        1
 92
        0
 93
        3
 72
     2
 10
0.0
 20
0.0
 40
3.000000000000008
 50
0.0
 51
90.0
 73
     1
 72
     1
 10
0.0
 20
3.000000000000008
 11
0.0
 21
0.0
 72
     1
 10
0.0
 20
0.0
 11
3.00000000000001
 21
0.0
 97
        0
 75
     0
 76
     1
 98
        1
 10
0.0
 20
0.0
  0
HATCH
  5
12A
330
125
100
AcDbEntity
  8
0
  6
Continuous
 62
     0
370
     0
100
AcDbHatch
 10
0.0
 20
0.0
 30
0.0
210
0.0
220
0.0
230
1.0
  2
SOLID
 70
     1
 71
     0
 91
        1
 92
        0
 93
        3
 72
     2
 10
0.0
 20
0.0
 40
3.000000000000008
 50
180.0
 51
270.0000000000007
 73
     1
 72
     1
 10
0.0
 20
-3.000000000000008
 11
0.0
 21
0.0
 72
     1
 10
0.0
 20
0.0
 11
-3.00000000000001
 21
0.0
 97
        0
 75
     0
 76
     1
 98
        1
 10
0.0
 20
0.0
  0
ENDBLK
  5
127
330
125
100
AcDbEntity
  8
0
100
AcDbBlockEnd
  0
BLOCK
  5
1E1
330
1E0
100
AcDbEntity
  8
0
100
AcDbBlockBegin
  2
*D7
 70
     1
 10
0.0
 20
0.0
 30
0.0
  3
*D7
  1
*D8
  0
LINE
  5
1E3
330
1E0
100
AcDbEntity
  8
치수문자_일반주서
 62
     0
370
    -2
100
AcDbLine
 10
88.7875
 20
13.35087499999995
 30
0.0
 11
101.9582038077188
 21
13.350875
 31
0.0
  0
LINE
  5
1E4
330
1E0
100
AcDbEntity
  8
치수문자_일반주서
 62
     0
370
    -2
100
AcDbLine
 10
88.78750000000001
 20
6.603999999999949
 30
0.0
 11
101.9582038077188
 21
6.603999999999999
 31
0.0
  0
LINE
  5
1E5
330
1E0
100
AcDbEntity
  8
치수문자_일반주서
 62
     0
370
    -2
100
AcDbLine
 10
101.9582038077188
 20
13.350875
 30
0.0
 11
101.9582038077186
 21
60.3316173965263
 31
0.0
  0
LINE
  5
1E6
330
1E0
100
AcDbEntity
  8
치수문자_일반주서
 62
     0
370
    -2
100
AcDbLine
 10
101.9582038077188
 20
13.350875
 30
0.0
 11
101.9582038077188
 21
6.603999999999999
 31
0.0
  0
LINE
  5
1E7
330
1E0
100
AcDbEntity
  8
치수문자_일반주서
 62
     0
370
    -2
100
AcDbLine
 10
101.9582038077188
 20
16.652875
 30
0.0
 11
101.9582038077188
 21
19.954875
 31
0.0
  0
LINE
  5
1E8
330
1E0
100
AcDbEntity
  8
치수문자_일반주서
 62
     0
370
    -2
100
AcDbLine
 10
101.9582038077189
 20
3.302
 30
0.0
 11
101.9582038077189
 21
0.0
 31
0.0
  0
SOLID
  5
1E9
330
1E0
100
AcDbEntity
  8
치수문자_일반주서
 62
     0
100
AcDbTrace
 10
101.4078704743855
 20
16.65287499999999
 30
0.0
 11
102.5085371410521
 21
16.652875
 31
0.0
 12
101.9582038077188
 22
13.350875
 32
0.0
 13
101.9582038077188
 23
13.350875
 33
0.0
  0
SOLID
  5
1EA
330
1E0
100
AcDbEntity
  8
치수문자_일반주서
 62
     0
100
AcDbTrace
 10
102.5085371410522
 20
3.302000000000002
 30
0.0
 11
101.4078704743855
 21
3.301999999999997
 31
0.0
 12
101.9582038077188
 22
6.603999999999999
 32
0.0
 13
101.9582038077188
 23
6.603999999999999
 33
0.0
  0
MTEXT
  5
1EB
330
1E0
100
AcDbEntity
  8
치수문자_일반주서
 62
     0
100
AcDbMText
 10
97.58320380771869
 20
45.01911739652628
 30
0.0
 40
3.5
 41
0.0
 71
     2
 72
     1
  1
\A1;%%c6.75 [17/64]
  7
SLDTEXTSTYLE0
 11
-4.212573885006615E-15
 21
1.0
 31
0.0
 73
     1
 44
1.0
  0
POINT
  5
1EC
330
1E0
100
AcDbEntity
  8
Defpoints
 62
     0
100
AcDbPoint
 10
88.725
 20
13.35087499999995
 30
0.0
  0
POINT
  5
1ED
330
1E0
100
AcDbEntity
  8
Defpoints
 62
     0
100
AcDbPoint
 10
88.72500000000001
 20
6.603999999999949
 30
0.0
  0
POINT
  5
1EE
330
1E0
100
AcDbEntity
  8
Defpoints
 62
     0
100
AcDbPoint
 10
101.9582038077188
 20
6.603999999999998
 30
0.0
  0
ENDBLK
  5
1E2
330
1E0
100
AcDbEntity
  8
0
100
AcDbBlockEnd
  0
BLOCK
  5
1F0
330
1EF
100
AcDbEntity
  8
0
100
AcDbBlockBegin
  2
*D8
 70
     1
 10
0.0
 20
0.0
 30
0.0
  3
*D8
  1
*D9
  0
LINE
  5
1F2
330
1EF
100
AcDbEntity
  8
치수문자_일반주서
 62
     0
370
    -2
100
AcDbLine
 10
88.72500000000001
 20
13.41337499999995
 30
0.0
 11
88.72500000000001
 21
30.21008317052726
 31
0.0
  0
LINE
  5
1F3
330
1EF
100
AcDbEntity
  8
치수문자_일반주서
 62
     0
370
    -2
100
AcDbLine
 10
71.26249999999999
 20
13.40578167824251
 30
0.0
 11
71.26249999999999
 21
30.21008317052726
 31
0.0
  0
LINE
  5
1F4
330
1EF
100
AcDbEntity
  8
치수문자_일반주서
 62
     0
370
    -2
100
AcDbLine
 10
71.26249999999999
 20
30.21008317052726
 30
0.0
 11
36.65849999999999
 21
30.21008317052726
 31
0.0
  0
LINE
  5
1F5
330
1EF
100
AcDbEntity
  8
치수문자_일반주서
 62
     0
370
    -2
100
AcDbLine
 10
88.72500000000001
 20
30.21008317052726
 30
0.0
 11
71.26249999999999
 21
30.21008317052726
 31
0.0
  0
LINE
  5
1F6
330
1EF
100
AcDbEntity
  8
치수문자_일반주서
 62
     0
370
    -2
100
AcDbLine
 10
92.02700000000002
 20
30.21008317052726
 30
0.0
 11
95.32900000000001
 21
30.21008317052726
 31
0.0
  0
LINE
  5
1F7
330
1EF
100
AcDbEntity
  8
치수문자_일반주서
 62
     0
370
    -2
100
AcDbLine
 10
67.9605
 20
30.21008317052726
 30
0.0
 11
64.6585
 21
30.21008317052726
 31
0.0
  0
SOLID
  5
1F8
330
1EF
100
AcDbEntity
  8
치수문자_일반주서
 62
     0
100
AcDbTrace
 10
92.02700000000002
 20
30.7604165038606
 30
0.0
 11
92.02700000000002
 21
29.65974983719393
 31
0.0
 12
88.72500000000001
 22
30.21008317052726
 32
0.0
 13
88.72500000000001
 23
30.21008317052726
 33
0.0
  0
SOLID
  5
1F9
330
1EF
100
AcDbEntity
  8
치수문자_일반주서
 62
     0
100
AcDbTrace
 10
67.9605
 20
29.65974983719393
 30
0.0
 11
67.9605
 21
30.7604165038606
 31
0.0
 12
71.26249999999999
 22
30.21008317052726
 32
0.0
 13
71.26249999999999
 23
30.21008317052726
 33
0.0
  0
MTEXT
  5
1FA
330
1EF
100
AcDbEntity
  8
치수문자_일반주서
 62
     0
100
AcDbMText
 10
50.65849999999998
 20
34.58508317052726
 30
0.0
 40
3.5
 41
0.0
 71
     2
 72
     1
  1
\A1;17.46 [11/16]
  7
SLDTEXTSTYLE0
 73
     1
 44
1.0
  0
POINT
  5
1FB
330
1EF
100
AcDbEntity
  8
Defpoints
 62
     0
100
AcDbPoint
 10
88.72500000000001
 20
13.35087499999995
 30
0.0
  0
POINT
  5
1FC
330
1EF
100
AcDbEntity
  8
Defpoints
 62
     0
100
AcDbPoint
 10
71.26249999999999
 20
13.34328167824251
 30
0.0
  0
POINT
  5
1FD
330
1EF
100
AcDbEntity
  8
Defpoints
 62
     0
100
AcDbPoint
 10
71.26249999999999
 20
30.21008317052726
 30
0.0
  0
ENDBLK
  5
1F1
330
1EF
100
AcDbEntity
  8
0
100
AcDbBlockEnd
  0
BLOCK
  5
1FF
330
1FE
100
AcDbEntity
  8
0
100
AcDbBlockBegin
  2
*D9
 70
     1
 10
0.0
 20
0.0
 30
0.0
  3
*D9
  1
*D10
  0
LINE
  5
201
330
1FE
100
AcDbEntity
  8
치수문자_일반주서
 62
     0
370
    -2
100
AcDbLine
 10
88.72500000000001
 20
13.41337499999995
 30
0.0
 11
88.725
 21
44.58125647475833
 31
0.0
  0
LINE
  5
202
330
1FE
100
AcDbEntity
  8
치수문자_일반주서
 62
     0
370
    -2
100
AcDbLine
 10
3.000000000000007
 20
13.84993749999994
 30
0.0
 11
2.999999999999993
 21
44.58125647475833
 31
0.0
  0
LINE
  5
203
330
1FE
100
AcDbEntity
  8
치수문자_일반주서
 62
     0
370
    -2
100
AcDbLine
 10
85.423
 20
44.58125647475833
 30
0.0
 11
6.301999999999992
 21
44.58125647475833
 31
0.0
  0
SOLID
  5
204
330
1FE
100
AcDbEntity
  8
치수문자_일반주서
 62
     0
100
AcDbTrace
 10
85.423
 20
44.03092314142499
 30
0.0
 11
85.423
 21
45.13158980809166
 31
0.0
 12
88.725
 22
44.58125647475833
 32
0.0
 13
88.725
 23
44.58125647475833
 33
0.0
  0
SOLID
  5
205
330
1FE
100
AcDbEntity
  8
치수문자_일반주서
 62
     0
100
AcDbTrace
 10
6.301999999999992
 20
45.13158980809166
 30
0.0
 11
6.301999999999992
 21
44.03092314142499
 31
0.0
 12
2.999999999999993
 22
44.58125647475833
 32
0.0
 13
2.999999999999993
 23
44.58125647475833
 33
0.0
  0
MTEXT
  5
206
330
1FE
100
AcDbEntity
  8
치수문자_일반주서
 62
     0
100
AcDbMText
 10
43.56923418370306
 20
48.95625647475833
 30
0.0
 40
3.5
 41
0.0
 71
     2
 72
     1
  1
\A1;85.73 [3 3/8]
  7
SLDTEXTSTYLE0
 73
     1
 44
1.0
  0
POINT
  5
207
330
1FE
100
AcDbEntity
  8
Defpoints
 62
     0
100
AcDbPoint
 10
88.72500000000001
 20
13.35087499999995
 30
0.0
  0
POINT
  5
208
330
1FE
100
AcDbEntity
  8
Defpoints
 62
     0
100
AcDbPoint
 10
3.000000000000007
 20
13.78743749999994
 30
0.0
  0
POINT
  5
209
330
1FE
100
AcDbEntity
  8
Defpoints
 62
     0
100
AcDbPoint
 10
3.000000000000007
 20
44.58125647475833
 30
0.0
  0
ENDBLK
  5
200
330
1FE
100
AcDbEntity
  8
0
100
AcDbBlockEnd
  0
BLOCK
  5
23E
330
23D
100
AcDbEntity
  8
0
100
AcDbBlockBegin
  2
*D10
 70
     1
 10
0.0
 20
0.0
 30
0.0
  3
*D10
  1
*D11
  0
LINE
  5
240
330
23D
100
AcDbEntity
  8
치수문자_일반주서
 62
     0
370
    -2
100
AcDbLine
 10
158.7424869006491
 20
-32.63982058119031
 30
0.0
 11
171.9131907083679
 21
-32.63982058119026
 31
0.0
  0
LINE
  5
241
330
23D
100
AcDbEntity
  8
치수문자_일반주서
 62
     0
370
    -2
100
AcDbLine
 10
158.7424869006491
 20
-39.3866955811903
 30
0.0
 11
171.9131907083679
 21
-39.38669558119025
 31
0.0
  0
LINE
  5
242
330
23D
100
AcDbEntity
  8
치수문자_일반주서
 62
     0
370
    -2
100
AcDbLine
 10
171.9131907083679
 20
-32.63982058119026
 30
0.0
 11
171.9131907083677
 21
14.34092181533605
 31
0.0
  0
LINE
  5
243
330
23D
100
AcDbEntity
  8
치수문자_일반주서
 62
     0
370
    -2
100
AcDbLine
 10
171.9131907083679
 20
-32.63982058119026
 30
0.0
 11
171.9131907083679
 21
-39.38669558119025
 31
0.0
  0
LINE
  5
244
330
23D
100
AcDbEntity
  8
치수문자_일반주서
 62
     0
370
    -2
100
AcDbLine
 10
171.9131907083679
 20
-29.33782058119026
 30
0.0
 11
171.9131907083679
 21
-26.03582058119026
 31
0.0
  0
LINE
  5
245
330
23D
100
AcDbEntity
  8
치수문자_일반주서
 62
     0
370
    -2
100
AcDbLine
 10
171.9131907083679
 20
-42.68869558119025
 30
0.0
 11
171.9131907083679
 21
-45.99069558119025
 31
0.0
  0
SOLID
  5
246
330
23D
100
AcDbEntity
  8
치수문자_일반주서
 62
     0
100
AcDbTrace
 10
171.3628573750346
 20
-29.33782058119026
 30
0.0
 11
172.4635240417012
 21
-29.33782058119025
 31
0.0
 12
171.9131907083679
 22
-32.63982058119026
 32
0.0
 13
171.9131907083679
 23
-32.63982058119026
 33
0.0
  0
SOLID
  5
247
330
23D
100
AcDbEntity
  8
치수문자_일반주서
 62
     0
100
AcDbTrace
 10
172.4635240417013
 20
-42.68869558119025
 30
0.0
 11
171.3628573750346
 21
-42.68869558119025
 31
0.0
 12
171.9131907083679
 22
-39.38669558119025
 32
0.0
 13
171.9131907083679
 23
-39.38669558119025
 33
0.0
  0
MTEXT
  5
248
330
23D
100
AcDbEntity
  8
치수문자_일반주서
 62
     0
100
AcDbMText
 10
167.5381907083678
 20
-0.9715781846639728
 30
0.0
 40
3.5
 41
0.0
 71
     2
 72
     1
  1
\A1;%%c6.75 [17/64]
  7
SLDTEXTSTYLE0
 11
-4.212573885006618E-15
 21
1.0
 31
0.0
 73
     1
 44
1.0
  0
POINT
  5
249
330
23D
100
AcDbEntity
  8
Defpoints
 62
     0
100
AcDbPoint
 10
158.6799869006491
 20
-32.63982058119031
 30
0.0
  0
POINT
  5
24A
330
23D
100
AcDbEntity
  8
Defpoints
 62
     0
100
AcDbPoint
 10
158.6799869006491
 20
-39.3866955811903
 30
0.0
  0
POINT
  5
24B
330
23D
100
AcDbEntity
  8
Defpoints
 62
     0
100
AcDbPoint
 10
171.9131907083679
 20
-39.38669558119025
 30
0.0
  0
ENDBLK
  5
23F
330
23D
100
AcDbEntity
  8
0
100
AcDbBlockEnd
  0
BLOCK
  5
24D
330
24C
100
AcDbEntity
  8
0
100
AcDbBlockBegin
  2
*D11
 70
     1
 10
0.0
 20
0.0
 30
0.0
  3
*D11
  1
*D12
  0
LINE
  5
24F
330
24C
100
AcDbEntity
  8
치수문자_일반주서
 62
     0
370
    -2
100
AcDbLine
 10
158.6799869006491
 20
-32.57732058119031
 30
0.0
 11
158.6799869006491
 21
-15.78061241066299
 31
0.0
  0
LINE
  5
250
330
24C
100
AcDbEntity
  8
치수문자_일반주서
 62
     0
370
    -2
100
AcDbLine
 10
141.2174869006491
 20
-32.58491390294775
 30
0.0
 11
141.2174869006491
 21
-15.78061241066299
 31
0.0
  0
LINE
  5
251
330
24C
100
AcDbEntity
  8
치수문자_일반주서
 62
     0
370
    -2
100
AcDbLine
 10
141.2174869006491
 20
-15.78061241066299
 30
0.0
 11
106.6134869006491
 21
-15.78061241066299
 31
0.0
  0
LINE
  5
252
330
24C
100
AcDbEntity
  8
치수문자_일반주서
 62
     0
370
    -2
100
AcDbLine
 10
158.6799869006491
 20
-15.78061241066299
 30
0.0
 11
141.2174869006491
 21
-15.78061241066299
 31
0.0
  0
LINE
  5
253
330
24C
100
AcDbEntity
  8
치수문자_일반주서
 62
     0
370
    -2
100
AcDbLine
 10
161.9819869006491
 20
-15.78061241066299
 30
0.0
 11
165.2839869006491
 21
-15.78061241066299
 31
0.0
  0
LINE
  5
254
330
24C
100
AcDbEntity
  8
치수문자_일반주서
 62
     0
370
    -2
100
AcDbLine
 10
137.9154869006491
 20
-15.78061241066299
 30
0.0
 11
134.6134869006491
 21
-15.78061241066299
 31
0.0
  0
SOLID
  5
255
330
24C
100
AcDbEntity
  8
치수문자_일반주서
 62
     0
100
AcDbTrace
 10
161.9819869006491
 20
-15.23027907732966
 30
0.0
 11
161.9819869006491
 21
-16.33094574399632
 31
0.0
 12
158.6799869006491
 22
-15.78061241066299
 32
0.0
 13
158.6799869006491
 23
-15.78061241066299
 33
0.0
  0
SOLID
  5
256
330
24C
100
AcDbEntity
  8
치수문자_일반주서
 62
     0
100
AcDbTrace
 10
137.9154869006491
 20
-16.33094574399632
 30
0.0
 11
137.9154869006491
 21
-15.23027907732966
 31
0.0
 12
141.2174869006491
 22
-15.78061241066299
 32
0.0
 13
141.2174869006491
 23
-15.78061241066299
 33
0.0
  0
MTEXT
  5
257
330
24C
100
AcDbEntity
  8
치수문자_일반주서
 62
     0
100
AcDbMText
 10
120.6134869006491
 20
-11.40561241066299
 30
0.0
 40
3.5
 41
0.0
 71
     2
 72
     1
  1
\A1;17.46 [11/16]
  7
SLDTEXTSTYLE0
 73
     1
 44
1.0
  0
POINT
  5
258
330
24C
100
AcDbEntity
  8
Defpoints
 62
     0
100
AcDbPoint
 10
158.6799869006491
 20
-32.63982058119031
 30
0.0
  0
POINT
  5
259
330
24C
100
AcDbEntity
  8
Defpoints
 62
     0
100
AcDbPoint
 10
141.2174869006491
 20
-32.64741390294775
 30
0.0
  0
POINT
  5
25A
330
24C
100
AcDbEntity
  8
Defpoints
 62
     0
100
AcDbPoint
 10
141.2174869006491
 20
-15.78061241066299
 30
0.0
  0
ENDBLK
  5
24E
330
24C
100
AcDbEntity
  8
0
100
AcDbBlockEnd
  0
BLOCK
  5
25C
330
25B
100
AcDbEntity
  8
0
100
AcDbBlockBegin
  2
*D12
 70
     1
 10
0.0
 20
0.0
 30
0.0
  3
*D12
  1
*D13
  0
LINE
  5
25E
330
25B
100
AcDbEntity
  8
치수문자_일반주서
 62
     0
370
    -2
100
AcDbLine
 10
158.6799869006491
 20
-32.57732058119031
 30
0.0
 11
158.6799869006491
 21
-1.409439106431925
 31
0.0
  0
LINE
  5
25F
330
25B
100
AcDbEntity
  8
치수문자_일반주서
 62
     0
370
    -2
100
AcDbLine
 10
72.95498690064909
 20
-32.14075808119031
 30
0.0
 11
72.95498690064909
 21
-1.409439106431925
 31
0.0
  0
LINE
  5
260
330
25B
100
AcDbEntity
  8
치수문자_일반주서
 62
     0
370
    -2
100
AcDbLine
 10
155.3779869006491
 20
-1.409439106431925
 30
0.0
 11
76.25698690064908
 21
-1.409439106431925
 31
0.0
  0
SOLID
  5
261
330
25B
100
AcDbEntity
  8
치수문자_일반주서
 62
     0
100
AcDbTrace
 10
155.3779869006491
 20
-1.959772439765259
 30
0.0
 11
155.3779869006491
 21
-0.8591057730985922
 31
0.0
 12
158.6799869006491
 22
-1.409439106431925
 32
0.0
 13
158.6799869006491
 23
-1.409439106431925
 33
0.0
  0
SOLID
  5
262
330
25B
100
AcDbEntity
  8
치수문자_일반주서
 62
     0
100
AcDbTrace
 10
76.25698690064908
 20
-0.8591057730985922
 30
0.0
 11
76.25698690064908
 21
-1.959772439765259
 31
0.0
 12
72.95498690064909
 22
-1.409439106431925
 32
0.0
 13
72.95498690064909
 23
-1.409439106431925
 33
0.0
  0
MTEXT
  5
263
330
25B
100
AcDbEntity
  8
치수문자_일반주서
 62
     0
100
AcDbMText
 10
113.5242210843521
 20
2.965560893568075
 30
0.0
 40
3.5
 41
0.0
 71
     2
 72
     1
  1
\A1;85.73 [3 3/8]
  7
SLDTEXTSTYLE0
 73
     1
 44
1.0
  0
POINT
  5
264
330
25B
100
AcDbEntity
  8
Defpoints
 62
     0
100
AcDbPoint
 10
158.6799869006491
 20
-32.63982058119031
 30
0.0
  0
POINT
  5
265
330
25B
100
AcDbEntity
  8
Defpoints
 62
     0
100
AcDbPoint
 10
72.95498690064909
 20
-32.20325808119031
 30
0.0
  0
POINT
  5
266
330
25B
100
AcDbEntity
  8
Defpoints
 62
     0
100
AcDbPoint
 10
72.95498690064909
 20
-1.409439106431925
 30
0.0
  0
ENDBLK
  5
25D
330
25B
100
AcDbEntity
  8
0
100
AcDbBlockEnd
  0
BLOCK
  5
2F4
330
2F3
100
AcDbEntity
  8
0
100
AcDbBlockBegin
  2
*D13
 70
     1
 10
0.0
 20
0.0
 30
0.0
  3
*D13
  1
*D15
  0
LINE
  5
2F6
330
2F3
100
AcDbEntity
  8
치수문자_일반주서
 62
     0
370
    -2
100
AcDbLine
 10
88.78749999999998
 20
13.74774999999994
 30
0.0
 11
101.568831931737
 21
13.74775
 31
0.0
  0
LINE
  5
2F7
330
2F3
100
AcDbEntity
  8
치수문자_일반주서
 62
     0
370
    -2
100
AcDbLine
 10
88.7875
 20
6.603999999999946
 30
0.0
 11
101.568831931737
 21
6.603999999999999
 31
0.0
  0
LINE
  5
2F8
330
2F3
100
AcDbEntity
  8
치수문자_일반주서
 62
     0
370
    -2
100
AcDbLine
 10
101.568831931737
 20
13.74775
 30
0.0
 11
101.5688319317368
 21
61.27883018455726
 31
0.0
  0
LINE
  5
2F9
330
2F3
100
AcDbEntity
  8
치수문자_일반주서
 62
     0
370
    -2
100
AcDbLine
 10
101.568831931737
 20
13.74775
 30
0.0
 11
101.568831931737
 21
6.603999999999999
 31
0.0
  0
LINE
  5
2FA
330
2F3
100
AcDbEntity
  8
치수문자_일반주서
 62
     0
370
    -2
100
AcDbLine
 10
101.568831931737
 20
17.04975
 30
0.0
 11
101.568831931737
 21
20.35175
 31
0.0
  0
LINE
  5
2FB
330
2F3
100
AcDbEntity
  8
치수문자_일반주서
 62
     0
370
    -2
100
AcDbLine
 10
101.568831931737
 20
3.302
 30
0.0
 11
101.568831931737
 21
0.0
 31
0.0
  0
SOLID
  5
2FC
330
2F3
100
AcDbEntity
  8
치수문자_일반주서
 62
     0
100
AcDbTrace
 10
101.0184985984036
 20
17.04974999999999
 30
0.0
 11
102.1191652650703
 21
17.04975
 31
0.0
 12
101.568831931737
 22
13.74775
 32
0.0
 13
101.568831931737
 23
13.74775
 33
0.0
  0
SOLID
  5
2FD
330
2F3
100
AcDbEntity
  8
치수문자_일반주서
 62
     0
100
AcDbTrace
 10
102.1191652650704
 20
3.302000000000002
 30
0.0
 11
101.0184985984037
 21
3.301999999999997
 31
0.0
 12
101.568831931737
 22
6.603999999999999
 32
0.0
 13
101.568831931737
 23
6.603999999999999
 33
0.0
  0
MTEXT
  5
2FE
330
2F3
100
AcDbEntity
  8
치수문자_일반주서
 62
     0
100
AcDbMText
 10
97.19383193173685
 20
47.27883018455724
 30
0.0
 40
3.5
 41
0.0
 71
     2
 72
     1
  1
\A1;%%c7.14 [9/32]
  7
SLDTEXTSTYLE0
 11
-3.978542002506248E-15
 21
1.0
 31
0.0
 73
     1
 44
1.0
  0
POINT
  5
2FF
330
2F3
100
AcDbEntity
  8
Defpoints
 62
     0
100
AcDbPoint
 10
88.72499999999998
 20
13.74774999999994
 30
0.0
  0
POINT
  5
300
330
2F3
100
AcDbEntity
  8
Defpoints
 62
     0
100
AcDbPoint
 10
88.725
 20
6.603999999999946
 30
0.0
  0
POINT
  5
301
330
2F3
100
AcDbEntity
  8
Defpoints
 62
     0
100
AcDbPoint
 10
101.568831931737
 20
6.603999999999994
 30
0.0
  0
ENDBLK
  5
2F5
330
2F3
100
AcDbEntity
  8
0
100
AcDbBlockEnd
  0
BLOCK
  5
303
330
302
100
AcDbEntity
  8
0
100
AcDbBlockBegin
  2
*D14
 70
     1
 10
0.0
 20
0.0
 30
0.0
  3
*D14
  1
*D16
  0
LINE
  5
305
330
302
100
AcDbEntity
  8
치수문자_일반주서
 62
     0
370
    -2
100
AcDbLine
 10
88.725
 20
13.81024999999994
 30
0.0
 11
88.725
 21
30.04262572769285
 31
0.0
  0
LINE
  5
306
330
302
100
AcDbEntity
  8
치수문자_일반주서
 62
     0
370
    -2
100
AcDbLine
 10
71.26249999999999
 20
13.78512598548685
 30
0.0
 11
71.26249999999999
 21
30.04262572769285
 31
0.0
  0
LINE
  5
307
330
302
100
AcDbEntity
  8
치수문자_일반주서
 62
     0
370
    -2
100
AcDbLine
 10
71.26249999999999
 20
30.04262572769285
 30
0.0
 11
36.65849999999999
 21
30.04262572769285
 31
0.0
  0
LINE
  5
308
330
302
100
AcDbEntity
  8
치수문자_일반주서
 62
     0
370
    -2
100
AcDbLine
 10
88.725
 20
30.04262572769285
 30
0.0
 11
71.26249999999999
 21
30.04262572769285
 31
0.0
  0
LINE
  5
309
330
302
100
AcDbEntity
  8
치수문자_일반주서
 62
     0
370
    -2
100
AcDbLine
 10
92.02699999999999
 20
30.04262572769285
 30
0.0
 11
95.32899999999998
 21
30.04262572769285
 31
0.0
  0
LINE
  5
30A
330
302
100
AcDbEntity
  8
치수문자_일반주서
 62
     0
370
    -2
100
AcDbLine
 10
67.9605
 20
30.04262572769285
 30
0.0
 11
64.6585
 21
30.04262572769285
 31
0.0
  0
SOLID
  5
30B
330
302
100
AcDbEntity
  8
치수문자_일반주서
 62
     0
100
AcDbTrace
 10
92.02699999999999
 20
30.59295906102619
 30
0.0
 11
92.02699999999999
 21
29.49229239435952
 31
0.0
 12
88.725
 22
30.04262572769285
 32
0.0
 13
88.725
 23
30.04262572769285
 33
0.0
  0
SOLID
  5
30C
330
302
100
AcDbEntity
  8
치수문자_일반주서
 62
     0
100
AcDbTrace
 10
67.9605
 20
29.49229239435952
 30
0.0
 11
67.9605
 21
30.59295906102619
 31
0.0
 12
71.26249999999999
 22
30.04262572769285
 32
0.0
 13
71.26249999999999
 23
30.04262572769285
 33
0.0
  0
MTEXT
  5
30D
330
302
100
AcDbEntity
  8
치수문자_일반주서
 62
     0
100
AcDbMText
 10
50.65849999999999
 20
34.41762572769285
 30
0.0
 40
3.5
 41
0.0
 71
     2
 72
     1
  1
\A1;17.46 [11/16]
  7
SLDTEXTSTYLE0
 73
     1
 44
1.0
  0
POINT
  5
30E
330
302
100
AcDbEntity
  8
Defpoints
 62
     0
100
AcDbPoint
 10
88.725
 20
13.74774999999994
 30
0.0
  0
POINT
  5
30F
330
302
100
AcDbEntity
  8
Defpoints
 62
     0
100
AcDbPoint
 10
71.26249999999999
 20
13.72262598548685
 30
0.0
  0
POINT
  5
310
330
302
100
AcDbEntity
  8
Defpoints
 62
     0
100
AcDbPoint
 10
71.26249999999999
 20
30.04262572769285
 30
0.0
  0
ENDBLK
  5
304
330
302
100
AcDbEntity
  8
0
100
AcDbBlockEnd
  0
BLOCK
  5
312
330
311
100
AcDbEntity
  8
0
100
AcDbBlockBegin
  2
*D15
 70
     1
 10
0.0
 20
0.0
 30
0.0
  3
*D15
  1
*D17
  0
LINE
  5
314
330
311
100
AcDbEntity
  8
치수문자_일반주서
 62
     0
370
    -2
100
AcDbLine
 10
88.725
 20
13.81024999999994
 30
0.0
 11
88.725
 21
43.98018604429626
 31
0.0
  0
LINE
  5
315
330
311
100
AcDbEntity
  8
치수문자_일반주서
 62
     0
370
    -2
100
AcDbLine
 10
3.000000000000007
 20
14.04837499999994
 30
0.0
 11
3.000000000000007
 21
43.98018604429626
 31
0.0
  0
LINE
  5
316
330
311
100
AcDbEntity
  8
치수문자_일반주서
 62
     0
370
    -2
100
AcDbLine
 10
85.423
 20
43.98018604429626
 30
0.0
 11
6.302000000000007
 21
43.98018604429626
 31
0.0
  0
SOLID
  5
317
330
311
100
AcDbEntity
  8
치수문자_일반주서
 62
     0
100
AcDbTrace
 10
85.423
 20
43.42985271096293
 30
0.0
 11
85.423
 21
44.5305193776296
 31
0.0
 12
88.725
 22
43.98018604429626
 32
0.0
 13
88.725
 23
43.98018604429626
 33
0.0
  0
SOLID
  5
318
330
311
100
AcDbEntity
  8
치수문자_일반주서
 62
     0
100
AcDbTrace
 10
6.302000000000007
 20
44.5305193776296
 30
0.0
 11
6.302000000000007
 21
43.42985271096293
 31
0.0
 12
3.000000000000007
 22
43.98018604429626
 32
0.0
 13
3.000000000000007
 23
43.98018604429626
 33
0.0
  0
MTEXT
  5
319
330
311
100
AcDbEntity
  8
치수문자_일반주서
 62
     0
100
AcDbMText
 10
51.10982416833016
 20
48.35518604429626
 30
0.0
 40
3.5
 41
0.0
 71
     2
 72
     1
  1
\A1;85.73 [3 3/8]
  7
SLDTEXTSTYLE0
 73
     1
 44
1.0
  0
POINT
  5
31A
330
311
100
AcDbEntity
  8
Defpoints
 62
     0
100
AcDbPoint
 10
88.725
 20
13.74774999999994
 30
0.0
  0
POINT
  5
31B
330
311
100
AcDbEntity
  8
Defpoints
 62
     0
100
AcDbPoint
 10
3.000000000000007
 20
13.98587499999994
 30
0.0
  0
POINT
  5
31C
330
311
100
AcDbEntity
  8
Defpoints
 62
     0
100
AcDbPoint
 10
3.000000000000007
 20
43.98018604429626
 30
0.0
  0
ENDBLK
  5
313
330
311
100
AcDbEntity
  8
0
100
AcDbBlockEnd
  0
BLOCK
  5
34B
330
34A
100
AcDbEntity
  8
0
100
AcDbBlockBegin
  2
*D16
 70
     1
 10
0.0
 20
0.0
 30
0.0
  3
*D16
  1
*D18
  0
LINE
  5
34D
330
34A
100
AcDbEntity
  8
치수문자_일반주서
 62
     0
370
    -2
100
AcDbLine
 10
182.5748043495761
 20
-17.1884582521706
 30
0.0
 11
195.3561362813131
 21
-17.18845825217055
 31
0.0
  0
LINE
  5
34E
330
34A
100
AcDbEntity
  8
치수문자_일반주서
 62
     0
370
    -2
100
AcDbLine
 10
182.5748043495761
 20
-24.3322082521706
 30
0.0
 11
195.3561362813131
 21
-24.33220825217055
 31
0.0
  0
LINE
  5
34F
330
34A
100
AcDbEntity
  8
치수문자_일반주서
 62
     0
370
    -2
100
AcDbLine
 10
195.3561362813131
 20
-17.18845825217055
 30
0.0
 11
195.3561362813129
 21
30.34262193238671
 31
0.0
  0
LINE
  5
350
330
34A
100
AcDbEntity
  8
치수문자_일반주서
 62
     0
370
    -2
100
AcDbLine
 10
195.3561362813131
 20
-17.18845825217055
 30
0.0
 11
195.3561362813131
 21
-24.33220825217055
 31
0.0
  0
LINE
  5
351
330
34A
100
AcDbEntity
  8
치수문자_일반주서
 62
     0
370
    -2
100
AcDbLine
 10
195.3561362813131
 20
-13.88645825217055
 30
0.0
 11
195.3561362813131
 21
-10.58445825217055
 31
0.0
  0
LINE
  5
352
330
34A
100
AcDbEntity
  8
치수문자_일반주서
 62
     0
370
    -2
100
AcDbLine
 10
195.3561362813131
 20
-27.63420825217054
 30
0.0
 11
195.3561362813131
 21
-30.93620825217054
 31
0.0
  0
SOLID
  5
353
330
34A
100
AcDbEntity
  8
치수문자_일반주서
 62
     0
100
AcDbTrace
 10
194.8058029479798
 20
-13.88645825217055
 30
0.0
 11
195.9064696146464
 21
-13.88645825217055
 31
0.0
 12
195.3561362813131
 22
-17.18845825217055
 32
0.0
 13
195.3561362813131
 23
-17.18845825217055
 33
0.0
  0
SOLID
  5
354
330
34A
100
AcDbEntity
  8
치수문자_일반주서
 62
     0
100
AcDbTrace
 10
195.9064696146465
 20
-27.63420825217054
 30
0.0
 11
194.8058029479798
 21
-27.63420825217055
 31
0.0
 12
195.3561362813131
 22
-24.33220825217055
 32
0.0
 13
195.3561362813131
 23
-24.33220825217055
 33
0.0
  0
MTEXT
  5
355
330
34A
100
AcDbEntity
  8
치수문자_일반주서
 62
     0
100
AcDbMText
 10
190.981136281313
 20
16.3426219323867
 30
0.0
 40
3.5
 41
0.0
 71
     2
 72
     1
  1
\A1;%%c7.14 [9/32]
  7
SLDTEXTSTYLE0
 11
-3.978542002506247E-15
 21
1.0
 31
0.0
 73
     1
 44
1.0
  0
POINT
  5
356
330
34A
100
AcDbEntity
  8
Defpoints
 62
     0
100
AcDbPoint
 10
182.5123043495761
 20
-17.1884582521706
 30
0.0
  0
POINT
  5
357
330
34A
100
AcDbEntity
  8
Defpoints
 62
     0
100
AcDbPoint
 10
182.5123043495761
 20
-24.3322082521706
 30
0.0
  0
POINT
  5
358
330
34A
100
AcDbEntity
  8
Defpoints
 62
     0
100
AcDbPoint
 10
195.3561362813131
 20
-24.33220825217055
 30
0.0
  0
ENDBLK
  5
34C
330
34A
100
AcDbEntity
  8
0
100
AcDbBlockEnd
  0
BLOCK
  5
35A
330
359
100
AcDbEntity
  8
0
100
AcDbBlockBegin
  2
*D17
 70
     1
 10
0.0
 20
0.0
 30
0.0
  3
*D17
  1
*D19
  0
LINE
  5
35C
330
359
100
AcDbEntity
  8
치수문자_일반주서
 62
     0
370
    -2
100
AcDbLine
 10
182.5123043495761
 20
-17.1259582521706
 30
0.0
 11
182.5123043495761
 21
-0.8935825244776936
 31
0.0
  0
LINE
  5
35D
330
359
100
AcDbEntity
  8
치수문자_일반주서
 62
     0
370
    -2
100
AcDbLine
 10
165.0498043495761
 20
-17.15108226668369
 30
0.0
 11
165.0498043495761
 21
-0.8935825244776936
 31
0.0
  0
LINE
  5
35E
330
359
100
AcDbEntity
  8
치수문자_일반주서
 62
     0
370
    -2
100
AcDbLine
 10
165.0498043495761
 20
-0.8935825244776936
 30
0.0
 11
130.4458043495761
 21
-0.8935825244776936
 31
0.0
  0
LINE
  5
35F
330
359
100
AcDbEntity
  8
치수문자_일반주서
 62
     0
370
    -2
100
AcDbLine
 10
182.5123043495761
 20
-0.8935825244776936
 30
0.0
 11
165.0498043495761
 21
-0.8935825244776936
 31
0.0
  0
LINE
  5
360
330
359
100
AcDbEntity
  8
치수문자_일반주서
 62
     0
370
    -2
100
AcDbLine
 10
185.8143043495761
 20
-0.8935825244776936
 30
0.0
 11
189.1163043495761
 21
-0.8935825244776936
 31
0.0
  0
LINE
  5
361
330
359
100
AcDbEntity
  8
치수문자_일반주서
 62
     0
370
    -2
100
AcDbLine
 10
161.7478043495761
 20
-0.8935825244776936
 30
0.0
 11
158.4458043495761
 21
-0.8935825244776936
 31
0.0
  0
SOLID
  5
362
330
359
100
AcDbEntity
  8
치수문자_일반주서
 62
     0
100
AcDbTrace
 10
185.8143043495761
 20
-0.3432491911443604
 30
0.0
 11
185.8143043495761
 21
-1.443915857811027
 31
0.0
 12
182.5123043495761
 22
-0.8935825244776936
 32
0.0
 13
182.5123043495761
 23
-0.8935825244776936
 33
0.0
  0
SOLID
  5
363
330
359
100
AcDbEntity
  8
치수문자_일반주서
 62
     0
100
AcDbTrace
 10
161.7478043495761
 20
-1.443915857811027
 30
0.0
 11
161.7478043495761
 21
-0.3432491911443604
 31
0.0
 12
165.0498043495761
 22
-0.8935825244776936
 32
0.0
 13
165.0498043495761
 23
-0.8935825244776936
 33
0.0
  0
MTEXT
  5
364
330
359
100
AcDbEntity
  8
치수문자_일반주서
 62
     0
100
AcDbMText
 10
144.4458043495761
 20
3.481417475522306
 30
0.0
 40
3.5
 41
0.0
 71
     2
 72
     1
  1
\A1;17.46 [11/16]
  7
SLDTEXTSTYLE0
 73
     1
 44
1.0
  0
POINT
  5
365
330
359
100
AcDbEntity
  8
Defpoints
 62
     0
100
AcDbPoint
 10
182.5123043495761
 20
-17.1884582521706
 30
0.0
  0
POINT
  5
366
330
359
100
AcDbEntity
  8
Defpoints
 62
     0
100
AcDbPoint
 10
165.0498043495761
 20
-17.21358226668369
 30
0.0
  0
POINT
  5
367
330
359
100
AcDbEntity
  8
Defpoints
 62
     0
100
AcDbPoint
 10
165.0498043495761
 20
-0.8935825244776936
 30
0.0
  0
ENDBLK
  5
35B
330
359
100
AcDbEntity
  8
0
100
AcDbBlockEnd
  0
BLOCK
  5
369
330
368
100
AcDbEntity
  8
0
100
AcDbBlockBegin
  2
*D18
 70
     1
 10
0.0
 20
0.0
 30
0.0
  3
*D18
  1
*D20
  0
LINE
  5
36B
330
368
100
AcDbEntity
  8
치수문자_일반주서
 62
     0
370
    -2
100
AcDbLine
 10
182.5123043495761
 20
-17.1259582521706
 30
0.0
 11
182.5123043495761
 21
13.04397779212572
 31
0.0
  0
LINE
  5
36C
330
368
100
AcDbEntity
  8
치수문자_일반주서
 62
     0
370
    -2
100
AcDbLine
 10
96.78730434957609
 20
-16.8878332521706
 30
0.0
 11
96.78730434957609
 21
13.04397779212572
 31
0.0
  0
LINE
  5
36D
330
368
100
AcDbEntity
  8
치수문자_일반주서
 62
     0
370
    -2
100
AcDbLine
 10
179.2103043495761
 20
13.04397779212572
 30
0.0
 11
100.0893043495761
 21
13.04397779212572
 31
0.0
  0
SOLID
  5
36E
330
368
100
AcDbEntity
  8
치수문자_일반주서
 62
     0
100
AcDbTrace
 10
179.2103043495761
 20
12.49364445879238
 30
0.0
 11
179.2103043495761
 21
13.59431112545905
 31
0.0
 12
182.5123043495761
 22
13.04397779212572
 32
0.0
 13
182.5123043495761
 23
13.04397779212572
 33
0.0
  0
SOLID
  5
36F
330
368
100
AcDbEntity
  8
치수문자_일반주서
 62
     0
100
AcDbTrace
 10
100.0893043495761
 20
13.59431112545905
 30
0.0
 11
100.0893043495761
 21
12.49364445879238
 31
0.0
 12
96.78730434957609
 22
13.04397779212572
 32
0.0
 13
96.78730434957609
 23
13.04397779212572
 33
0.0
  0
MTEXT
  5
370
330
368
100
AcDbEntity
  8
치수문자_일반주서
 62
     0
100
AcDbMText
 10
144.8971285179063
 20
17.41897779212572
 30
0.0
 40
3.5
 41
0.0
 71
     2
 72
     1
  1
\A1;85.73 [3 3/8]
  7
SLDTEXTSTYLE0
 73
     1
 44
1.0
  0
POINT
  5
371
330
368
100
AcDbEntity
  8
Defpoints
 62
     0
100
AcDbPoint
 10
182.5123043495761
 20
-17.1884582521706
 30
0.0
  0
POINT
  5
372
330
368
100
AcDbEntity
  8
Defpoints
 62
     0
100
AcDbPoint
 10
96.78730434957609
 20
-16.9503332521706
 30
0.0
  0
POINT
  5
373
330
368
100
AcDbEntity
  8
Defpoints
 62
     0
100
AcDbPoint
 10
96.78730434957609
 20
13.04397779212572
 30
0.0
  0
ENDBLK
  5
36A
330
368
100
AcDbEntity
  8
0
100
AcDbBlockEnd
  0
ENDSEC
  0
SECTION
  2
ENTITIES
  0
LINE
  5
96
330
1F
100
AcDbEntity
  8
0
  6
Continuous
 62
     1
370
    15
100
AcDbLine
 10
33.67555628545731
 20
-3.571875000000003
 30
0.0
 11
35.85198905891556
 21
-3.571875000000003
 31
0.0
  0
LINE
  5
97
330
1F
100
AcDbEntity
  8
0
  6
Continuous
 62
     1
370
    15
100
AcDbLine
 10
26.13445354279501
 20
3.571875
 30
0.0
 11
25.4
 21
3.571875
 31
0.0
  0
LINE
  5
98
330
1F
100
AcDbEntity
  8
0
  6
Continuous
 62
     1
370
    15
100
AcDbLine
 10
35.85198905891555
 20
3.571875
 30
0.0
 11
33.67555628545738
 21
3.571875
 31
0.0
  0
LINE
  5
99
330
1F
100
AcDbEntity
  8
외형선
  6
Continuous
370
    15
100
AcDbLine
 10
25.4
 20
-3.571875000000003
 30
0.0
 11
26.13445354279497
 21
-3.571875000000003
 31
0.0
  0
LINE
  5
9A
330
1F
100
AcDbEntity
  8
외형선
  6
Continuous
370
    15
100
AcDbLine
 10
19.95652700723829
 20
-4.76250000000001
 30
0.0
 11
24.4
 21
-3.571875000000003
 31
0.0
  0
LINE
  5
9B
330
1F
100
AcDbEntity
  8
외형선
  6
Continuous
370
    15
100
AcDbLine
 10
24.4
 20
3.571874999999999
 30
0.0
 11
19.95652700723829
 21
4.762500000000006
 31
0.0
  0
LINE
  5
9C
330
1F
100
AcDbEntity
  8
외형선
  6
Continuous
370
    15
100
AcDbLine
 10
-19.95652700723826
 20
-4.762500000000006
 30
0.0
 11
19.95652700723829
 21
-4.762500000000006
 31
0.0
  0
LINE
  5
9D
330
1F
100
AcDbEntity
  8
외형선
  6
Continuous
370
    15
100
AcDbLine
 10
19.95652700723829
 20
4.762500000000002
 30
0.0
 11
4.838700000000019
 21
4.762500000000002
 31
0.0
  0
LINE
  5
A0
330
1F
100
AcDbEntity
  8
외형선
  6
Continuous
370
    15
100
AcDbLine
 10
24.4
 20
-3.571875000000002
 30
0.0
 11
25.4
 21
-3.571875000000002
 31
0.0
  0
LINE
  5
A1
330
1F
100
AcDbEntity
  8
외형선
  6
Continuous
370
    15
100
AcDbLine
 10
25.4
 20
3.571874999999999
 30
0.0
 11
24.4
 21
3.571874999999999
 31
0.0
  0
SPLINE
  5
A2
330
1F
100
AcDbEntity
  8
0
  6
Continuous
 62
     1
370
    15
100
AcDbSpline
210
0.0
220
0.0
230
1.0
 70
     8
 71
     3
 72
    17
 73
    13
 74
     0
 42
0.000000001
 43
0.00000001
 40
0.0
 40
0.0
 40
0.0
 40
0.0
 40
0.0981737418219812
 40
0.1964093195760686
 40
0.2945956628883532
 40
0.3927253670321442
 40
0.4908237253949748
 40
0.5889162234968469
 40
0.6870283828373696
 40
0.7949749291986559
 40
0.9029290552192191
 40
1.0
 40
1.0
 40
1.0
 40
1.0
 10
25.39999999999998
 20
0.422904791380499
 30
0.0
 10
25.86576779507433
 20
0.1538230990466678
 30
0.0
 10
26.79759675476584
 20
-0.3845097700162043
 30
0.0
 10
28.19557968869717
 20
-1.177639244518812
 30
0.0
 10
29.59310117715041
 20
-1.909743149450099
 30
0.0
 10
30.98981710812138
 20
-2.545174211251396
 30
0.0
 10
32.38599219514555
 20
-3.051302463147655
 30
0.0
 10
33.78208544469039
 20
-3.40230368096559
 30
0.0
 10
35.22488531528256
 20
-3.587639423823024
 30
0.0
 10
36.71488626861872
 20
-3.570979723216632
 30
0.0
 10
38.19985223539266
 20
-3.358547955857604
 30
0.0
 10
39.17268036628077
 20
-3.058765826327536
 30
0.0
 10
39.63327450438074
 20
-2.916831308621288
 30
0.0
  0
SPLINE
  5
A3
330
1F
100
AcDbEntity
  8
외형선
  6
Continuous
370
    15
100
AcDbSpline
210
0.0
220
0.0
230
1.0
 70
    24
 71
     3
 72
    19
 73
    15
 74
     0
 42
0.000000001
 43
0.00000001
 40
0.0
 40
0.0
 40
0.0
 40
0.0
 40
0.1371465771864338
 40
0.2153529735972098
 40
0.295827360801976
 40
0.3740337572127532
 40
0.4545081444175209
 40
0.5327145408282999
 40
0.6131889280330693
 40
0.691395324443845
 40
0.7718697116486111
 40
0.8500761080593898
 40
0.9305504952641592
 40
1.0
 40
1.0
 40
1.0
 40
1.0
 10
25.39999999999998
 20
3.475068217944628
 30
0.0
 10
25.40000000000001
 20
3.28686568647265
 30
0.0
 10
25.40000000000004
 20
2.991342636444813
 30
0.0
 10
25.39999999999998
 20
2.543949683230397
 30
0.0
 10
25.40000000000001
 20
2.183364577251581
 30
0.0
 10
25.39999999999998
 20
1.824312750587517
 30
0.0
 10
25.40000000000004
 20
1.484294863416054
 30
0.0
 10
25.40000000000008
 20
1.166589527056515
 30
0.0
 10
25.39999999999991
 20
0.8859337393299354
 30
0.0
 10
25.40000000000007
 20
0.6453407738855614
 30
0.0
 10
25.3999999999999
 20
0.4554429537804367
 30
0.0
 10
25.40000000000007
 20
0.320112574289049
 30
0.0
 10
25.39999999999993
 20
0.2414957582710744
 30
0.0
 10
25.39999999999997
 20
0.2384062966491612
 30
0.0
 10
25.4
 20
0.236975159978648
 30
0.0
  0
SPLINE
  5
A4
330
1F
100
AcDbEntity
  8
0
  6
Continuous
 62
     1
370
    15
100
AcDbSpline
210
0.0
220
0.0
230
1.0
 70
     8
 71
     3
 72
    40
 73
    36
 74
     0
 42
0.000000001
 43
0.00000001
 40
0.0
 40
0.0
 40
0.0
 40
0.0
 40
0.0625
 40
0.0625
 40
0.125
 40
0.125
 40
0.1875
 40
0.1875
 40
0.25
 40
0.25
 40
0.3125
 40
0.3125
 40
0.375
 40
0.375
 40
0.4375
 40
0.4375
 40
0.5
 40
0.5
 40
0.5625
 40
0.5625
 40
0.625
 40
0.625
 40
0.6875
 40
0.6875
 40
0.75
 40
0.75
 40
0.8125
 40
0.8125
 40
0.875
 40
0.875
 40
0.90625
 40
0.90625
 40
0.9375
 40
0.9375
 40
1.0
 40
1.0
 40
1.0
 40
1.0
 10
42.86249999999998
 20
-3.571874999999994
 30
0.0
 10
42.5018378839
 20
-3.540795863752137
 30
0.0
 10
42.13488326143514
 20
-3.504254091962143
 30
0.0
 10
41.4053459845467
 20
-3.395257972945964
 30
0.0
 10
41.0457158371842
 20
-3.323159403570916
 30
0.0
 10
40.31591620360738
 20
-3.144617275533201
 30
0.0
 10
39.94986027121123
 20
-3.038344891685245
 30
0.0
 10
39.22775848641657
 20
-2.796608891924466
 30
0.0
 10
38.86067889641554
 20
-2.659900264154894
 30
0.0
 10
38.13143824798075
 20
-2.360857646978527
 30
0.0
 10
37.77174882918844
 20
-2.199017745256659
 30
0.0
 10
37.04172115185094
 20
-1.85266998588058
 30
0.0
 10
36.67650564118394
 20
-1.668890200022179
 30
0.0
 10
35.95365941648981
 20
-1.287317019129672
 30
0.0
 10
35.58647235506365
 20
-1.087831404823433
 30
0.0
 10
34.85756256032991
 20
-0.6806011293462587
 30
0.0
 10
34.49775460795889
 20
-0.473274111651544
 30
0.0
 10
33.76753323558216
 20
-0.0538563533603736
 30
0.0
 10
33.40309974746675
 20
0.1570887734536571
 30
0.0
 10
32.67954231095943
 20
0.5741688153158969
 30
0.0
 10
32.31226529143732
 20
0.7818530126955514
 30
0.0
 10
31.58372052379415
 20
1.185839287249266
 30
0.0
 10
31.22373479425468
 20
1.381951618978161
 30
0.0
 10
30.4933541059733
 20
1.759691206377875
 30
0.0
 10
30.12964411938958
 20
1.940109049640244
 30
0.0
 10
29.4054088095319
 20
2.278578212843204
 30
0.0
 10
29.03805935966032
 20
2.437629712594307
 30
0.0
 10
28.30991373531661
 20
2.727865548292683
 30
0.0
 10
27.94969101284994
 20
2.859109764140091
 30
0.0
 10
27.40181181282809
 20
3.033635763530955
 30
0.0
 10
27.21897401547362
 20
3.087957572767818
 30
0.0
 10
26.85500737625587
 20
3.188288307669429
 30
0.0
 10
26.6749203590873
 20
3.234221627001334
 30
0.0
 10
26.13126055452328
 20
3.359609419765933
 30
0.0
 10
25.76385621366015
 20
3.426498966114323
 30
0.0
 10
25.4
 20
3.475068217944629
 30
0.0
  0
LINE
  5
A5
330
1F
100
AcDbEntity
  8
0
  6
Continuous
 62
     1
370
    15
100
AcDbLine
 10
42.8625
 20
-3.234980569372866
 30
0.0
 11
42.8625
 21
0.3060430693729086
 31
0.0
  0
SPLINE
  5
A6
330
1F
100
AcDbEntity
  8
0
  6
Continuous
 62
     1
370
    15
100
AcDbSpline
210
0.0
220
0.0
230
1.0
 70
     8
 71
     3
 72
    19
 73
    15
 74
     0
 42
0.000000001
 43
0.00000001
 40
0.0
 40
0.0
 40
0.0
 40
0.0
 40
0.0396285692848981
 40
0.1232155588790814
 40
0.2067606557204678
 40
0.2902575592525092
 40
0.3737277911903388
 40
0.4571930367313551
 40
0.5406750116873971
 40
0.6325249000243487
 40
0.7243812377650266
 40
0.816245133501877
 40
0.9081176893460693
 40
1.0
 40
1.0
 40
1.0
 40
1.0
 10
26.13445354279501
 20
3.549191511300303
 30
0.0
 10
26.35541593571822
 20
3.553935146797224
 30
0.0
 10
27.04244565257634
 20
3.568684346917719
 30
0.0
 10
28.19558540281477
 20
3.398308212326302
 30
0.0
 10
29.59309964776464
 20
3.056109951490132
 30
0.0
 10
30.98981751612097
 20
2.548874928917141
 30
0.0
 10
32.38599209163936
 20
1.914980717988005
 30
0.0
 10
33.78208545080548
 20
1.183204773575218
 30
0.0
 10
35.22488539680725
 20
0.3651528740684678
 30
0.0
 10
36.71488589638626
 20
-0.5014072816644695
 30
0.0
 10
38.25153353555174
 20
-1.36536969476819
 30
0.0
 10
39.78836481474258
 20
-2.141738209677106
 30
0.0
 10
41.32535890577079
 20
-2.800930471497495
 30
0.0
 10
42.35010150209716
 20
-3.090292083064818
 30
0.0
 10
42.8625
 20
-3.234980569372867
 30
0.0
  0
SPLINE
  5
A7
330
1F
100
AcDbEntity
  8
0
  6
Continuous
 62
     1
370
    15
100
AcDbSpline
210
0.0
220
0.0
230
1.0
 70
     8
 71
     3
 72
    17
 73
    13
 74
     0
 42
0.000000001
 43
0.00000001
 40
0.0
 40
0.0
 40
0.0
 40
0.0
 40
0.1078091159958849
 40
0.2155448956123865
 40
0.323234968709557
 40
0.4309072449347031
 40
0.538589743157233
 40
0.6463104194933835
 40
0.7540969961414556
 40
0.8726309934016471
 40
0.9911587452044964
 40
1.0
 40
1.0
 40
1.0
 40
1.0
 10
42.86249999999999
 20
0.3060430693729089
 30
0.0
 10
42.39645652506931
 20
0.5724275785178212
 30
0.0
 10
41.46468659794559
 20
1.105015390652266
 30
0.0
 10
40.06764739113873
 20
1.843855253328281
 30
0.0
 10
38.6712995506182
 20
2.490072613548487
 30
0.0
 10
37.27523384957695
 20
3.009492568537468
 30
0.0
 10
35.87900569848328
 20
3.376574214724684
 30
0.0
 10
34.48219318832633
 20
3.571104548811906
 30
0.0
 10
33.03827148125107
 20
3.589244577477215
 30
0.0
 10
31.54749799037456
 20
3.385868475819375
 30
0.0
 10
30.48449418427914
 20
3.144833014017733
 30
0.0
 10
29.93390900507953
 20
2.934659560818826
 30
0.0
 10
29.8956904149693
 20
2.920070477488358
 30
0.0
  0
SPLINE
  5
A8
330
1F
100
AcDbEntity
  8
0
  6
Continuous
 62
     1
370
    15
100
AcDbSpline
210
0.0
220
0.0
230
1.0
 70
     8
 71
     3
 72
    13
 73
     9
 74
     0
 42
0.000000001
 43
0.00000001
 40
0.0
 40
0.0
 40
0.0
 40
0.0
 40
0.0714001347238693
 40
0.2571490966824819
 40
0.4428882716833859
 40
0.6286083332940361
 40
0.8143114988121417
 40
0.9999999999999999
 40
0.9999999999999999
 40
0.9999999999999999
 40
0.9999999999999999
 10
33.67555628545731
 20
-3.549672699514449
 30
0.0
 10
33.47860924577204
 20
-3.554872435804473
 30
0.0
 10
32.76930031315988
 20
-3.573599396126582
 30
0.0
 10
31.5474893507118
 20
-3.389755528261791
 30
0.0
 10
30.01039638203128
 20
-2.996304174356772
 30
0.0
 10
28.47344529062867
 20
-2.405730320433525
 30
0.0
 10
26.93666479078431
 20
-1.674424398677367
 30
0.0
 10
25.9122081134349
 20
-1.10876674671332
 30
0.0
 10
25.4
 20
-0.8259490881744025
 30
0.0
  0
LINE
  5
A9
330
1F
100
AcDbEntity
  8
외형선
  6
Continuous
370
    15
100
AcDbLine
 10
25.39999999999998
 20
-0.8259490881744019
 30
0.0
 11
25.39999999999998
 21
0.422904791380499
 31
0.0
  0
LINE
  5
AA
330
1F
100
AcDbEntity
  8
0
  6
Continuous
 62
     1
370
    15
100
AcDbLine
 10
42.8625
 20
-3.571874999999994
 30
0.0
 11
42.8625
 21
-3.234980569372866
 31
0.0
  0
LINE
  5
AB
330
1F
100
AcDbEntity
  8
외형선
  6
Continuous
370
    15
100
AcDbLine
 10
25.39999999999998
 20
3.475068217944628
 30
0.0
 11
25.4
 21
3.571875
 31
0.0
  0
SPLINE
  5
AC
330
1F
100
AcDbEntity
  8
0
  6
Continuous
 62
     1
370
    15
100
AcDbSpline
210
0.0
220
0.0
230
1.0
 70
     8
 71
     3
 72
    12
 73
     8
 74
     0
 42
0.000000001
 43
0.00000001
 40
0.0
 40
0.0
 40
0.0
 40
0.0
 40
0.1230831865202566
 40
0.3422827105010942
 40
0.5615002703540818
 40
0.7807384960800362
 40
1.0
 40
1.0
 40
1.0
 40
1.0
 10
35.85198905891555
 20
3.544786775398465
 30
0.0
 10
36.13960344859033
 20
3.548623703573135
 30
0.0
 10
36.93943188706513
 20
3.559293838241837
 30
0.0
 10
38.2515393240743
 20
3.334646693234647
 30
0.0
 10
39.78836327092589
 20
2.903363260183711
 30
0.0
 10
41.32535929178791
 20
2.29031045538221
 30
0.0
 10
42.35010163077409
 20
1.772998509519373
 30
0.0
 10
42.8625
 20
1.514328805578532
 30
0.0
  0
LINE
  5
AD
330
1F
100
AcDbEntity
  8
0
  6
Continuous
 62
     1
370
    15
100
AcDbLine
 10
42.8625
 20
0.3060430693729089
 30
0.0
 11
42.8625
 21
1.514328805578532
 31
0.0
  0
SPLINE
  5
AE
330
1F
100
AcDbEntity
  8
0
  6
Continuous
 62
     1
370
    15
100
AcDbSpline
210
0.0
220
0.0
230
1.0
 70
     8
 71
     3
 72
    11
 73
     7
 74
     0
 42
0.000000001
 43
0.00000001
 40
0.0
 40
0.0
 40
0.0
 40
0.0
 40
0.3108343545082095
 40
0.6218644918366004
 40
0.9327387447538105
 40
1.0
 40
1.0
 40
1.0
 40
1.0
 10
25.39999999999998
 20
-3.546750985486918
 30
0.0
 10
25.86576837274133
 20
-3.56174259486613
 30
0.0
 10
26.79759848813066
 20
-3.591735256273095
 30
0.0
 10
28.19557275159172
 20
-3.394594889090813
 30
0.0
 10
29.22832763158512
 20
-3.165120752853356
 30
0.0
 10
29.79490912915256
 20
-2.957076559421463
 30
0.0
 10
29.89569041496926
 20
-2.92007047748836
 30
0.0
  0
SPLINE
  5
AF
330
1F
100
AcDbEntity
  8
외형선
  6
Continuous
370
    15
100
AcDbSpline
210
0.0
220
0.0
230
1.0
 70
    24
 71
     3
 72
    17
 73
    13
 74
     0
 42
0.000000001
 43
0.00000001
 40
0.0
 40
0.0
 40
0.0
 40
0.0
 40
0.0044521839140934
 40
0.1262001710343288
 40
0.2445169631673518
 40
0.3662649502875817
 40
0.4845817424206093
 40
0.6063297295408441
 40
0.7246465216737428
 40
0.846394508794102
 40
0.9227496691494775
 40
1.0
 40
1.0
 40
1.0
 40
1.0
 10
25.40000000000003
 20
-0.8851843086661229
 30
0.0
 10
25.40000000000003
 20
-0.8873617489046703
 30
0.0
 10
25.39999999999982
 20
-0.94908276848157
 30
0.0
 10
25.40000000000001
 20
-1.116216388717483
 30
0.0
 10
25.40000000000006
 20
-1.385225562253398
 30
0.0
 10
25.39999999999993
 20
-1.693878061652152
 30
0.0
 10
25.40000000000007
 20
-2.031467185982413
 30
0.0
 10
25.39999999999994
 20
-2.384353150891939
 30
0.0
 10
25.4
 20
-2.748441383798388
 30
0.0
 10
25.40000000000007
 20
-3.064760059535946
 30
0.0
 10
25.3999999999999
 20
-3.332599551981716
 30
0.0
 10
25.39999999999996
 20
-3.475090375227986
 30
0.0
 10
25.39999999999998
 20
-3.546750985486918
 30
0.0
  0
SPLINE
  5
B0
330
1F
100
AcDbEntity
  8
0
  6
Continuous
 62
     1
370
    15
100
AcDbSpline
210
0.0
220
0.0
230
1.0
 70
     8
 71
     3
 72
    10
 73
     6
 74
     0
 42
0.000000001
 43
0.00000001
 40
0.0
 40
0.0
 40
0.0
 40
0.0
 40
0.4329098457406759
 40
0.8655252076578513
 40
1.0
 40
1.0
 40
1.0
 40
1.0
 10
42.86249999999998
 20
3.571875000000005
 30
0.0
 10
42.3964576367058
 20
3.516208110963092
 30
0.0
 10
41.46468993209885
 20
3.431173751506303
 30
0.0
 10
40.38834007768943
 20
3.188273622201366
 30
0.0
 10
39.77800420712212
 20
2.968860916041636
 30
0.0
 10
39.63327450438076
 20
2.916831308621285
 30
0.0
  0
LINE
  5
B1
330
1F
100
AcDbEntity
  8
0
  6
Continuous
 62
     1
370
    15
100
AcDbLine
 10
42.8625
 20
1.514328805578532
 30
0.0
 11
42.8625
 21
3.571875000000005
 31
0.0
  0
LINE
  5
B2
330
1F
100
AcDbEntity
  8
외형선
  6
Continuous
370
    15
100
AcDbLine
 10
24.4
 20
-0.0000000000000017
 30
0.0
 11
24.4
 21
3.571874999999999
 31
0.0
  0
LINE
  5
B3
330
1F
100
AcDbEntity
  8
외형선
  6
Continuous
370
    15
100
AcDbLine
 10
24.4
 20
-3.571875000000004
 30
0.0
 11
24.4
 21
-0.0000000000000017
 31
0.0
  0
LINE
  5
B4
330
1F
100
AcDbEntity
  8
외형선
  6
Continuous
370
    15
100
AcDbLine
 10
19.95652700723829
 20
-0.0000000000000017
 30
0.0
 11
19.95652700723829
 21
4.76250000000001
 31
0.0
  0
LINE
  5
B5
330
1F
100
AcDbEntity
  8
외형선
  6
Continuous
370
    15
100
AcDbLine
 10
19.95652700723829
 20
-4.76250000000002
 30
0.0
 11
19.95652700723829
 21
-0.0000000000000017
 31
0.0
  0
SPLINE
  5
BA
330
1F
100
AcDbEntity
  8
외형선
  6
Continuous
370
    15
100
AcDbSpline
210
0.0
220
0.0
230
1.0
 70
     8
 71
     3
 72
     8
 73
     4
 74
     0
 42
0.000000001
 43
0.00000001
 40
0.0
 40
0.0
 40
0.0
 40
0.0
 40
1.0
 40
1.0
 40
1.0
 40
1.0
 10
25.4
 20
3.475068217944626
 30
0.0
 10
25.23258018006497
 20
3.497416208965615
 30
0.0
 10
25.0667832707968
 20
3.515886280296028
 30
0.0
 10
24.90012657473874
 20
3.530526777233914
 30
0.0
  0
LINE
  5
BB
330
1F
100
AcDbEntity
  8
외형선
  6
Continuous
370
    15
100
AcDbLine
 10
24.90012657473874
 20
0.7086222795325489
 30
0.0
 11
24.90012657473874
 21
3.530528528909987
 31
0.0
  0
SPLINE
  5
BC
330
1F
100
AcDbEntity
  8
외형선
  6
Continuous
370
    15
100
AcDbSpline
210
0.0
220
0.0
230
1.0
 70
     8
 71
     3
 72
     8
 73
     4
 74
     0
 42
0.000000001
 43
0.00000001
 40
0.0
 40
0.0
 40
0.0
 40
0.0
 40
1.0
 40
1.0
 40
1.0
 40
1.0
 10
25.39999999999998
 20
0.422904791380499
 30
0.0
 10
25.23258018006497
 20
0.5188704632508317
 30
0.0
 10
25.06678327079675
 20
0.6140626733031048
 30
0.0
 10
24.90012657473876
 20
0.7086430865973982
 30
0.0
  0
SPLINE
  5
BD
330
1F
100
AcDbEntity
  8
외형선
  6
Continuous
370
    15
100
AcDbSpline
210
0.0
220
0.0
230
1.0
 70
     8
 71
     3
 72
     8
 73
     4
 74
     0
 42
0.000000001
 43
0.00000001
 40
0.0
 40
0.0
 40
0.0
 40
0.0
 40
1.0
 40
1.0
 40
1.0
 40
1.0
 10
25.4
 20
-0.8259490881744063
 30
0.0
 10
25.23258018006497
 20
-0.7319229618139964
 30
0.0
 10
25.0667832707968
 20
-0.6372963675747311
 30
0.0
 10
24.90012657473874
 20
-0.5419148372754633
 30
0.0
  0
LINE
  5
BE
330
1F
100
AcDbEntity
  8
외형선
  6
Continuous
370
    15
100
AcDbLine
 10
24.90012657473874
 20
-3.50087781571638
 30
0.0
 11
24.90012657473874
 21
-0.5419034251392567
 31
0.0
  0
SPLINE
  5
BF
330
1F
100
AcDbEntity
  8
외형선
  6
Continuous
370
    15
100
AcDbSpline
210
0.0
220
0.0
230
1.0
 70
     8
 71
     3
 72
     8
 73
     4
 74
     0
 42
0.000000001
 43
0.00000001
 40
0.0
 40
0.0
 40
0.0
 40
0.0
 40
1.0
 40
1.0
 40
1.0
 40
1.0
 10
25.39999999999998
 20
-3.546750985486918
 30
0.0
 10
25.23258018006497
 20
-3.535308303830358
 30
0.0
 10
25.06678327079675
 20
-3.520018470030188
 30
0.0
 10
24.90012657473876
 20
-3.500873604036956
 30
0.0
  0
SPLINE
  5
C0
330
1F
100
AcDbEntity
  8
외형선
  6
Continuous
370
    15
100
AcDbSpline
210
0.0
220
0.0
230
1.0
 70
    24
 71
     3
 72
    20
 73
    16
 74
     0
 42
0.000000001
 43
0.00000001
 40
0.0
 40
0.0
 40
0.0
 40
0.0
 40
0.044451101184451
 40
0.1239101554651726
 40
0.2033692097459276
 40
0.2828282640266829
 40
0.3622873183074233
 40
0.4417463725881638
 40
0.5212054268689018
 40
0.6006644811496398
 40
0.6801235354303734
 40
0.759582589711107
 40
0.8390416439918524
 40
0.918500698272598
 40
1.0
 40
1.0
 40
1.0
 40
1.0
 10
25.4
 20
0.241505251369132
 30
0.0
 10
25.4
 20
0.2395356238713452
 30
0.0
 10
25.40000000000003
 20
0.2340451671007354
 30
0.0
 10
25.4
 20
0.2914890242464183
 30
0.0
 10
25.4
 20
0.4085064086132641
 30
0.0
 10
25.39999999999997
 20
0.5831229385121202
 30
0.0
 10
25.39999999999997
 20
0.808935064078718
 30
0.0
 10
25.40000000000001
 20
1.078545019898101
 30
0.0
 10
25.40000000000001
 20
1.385709660665543
 30
0.0
 10
25.40000000000001
 20
1.720455230793566
 30
0.0
 10
25.40000000000003
 20
2.07417086254824
 30
0.0
 10
25.39999999999998
 20
2.436457521718548
 30
0.0
 10
25.4
 20
2.796434437361279
 30
0.0
 10
25.39999999999994
 20
3.149915159207207
 30
0.0
 10
25.39999999999997
 20
3.365771825786445
 30
0.0
 10
25.39999999999997
 20
3.475068217944687
 30
0.0
  0
SPLINE
  5
C1
330
1F
100
AcDbEntity
  8
외형선
  6
Continuous
370
    15
100
AcDbSpline
210
0.0
220
0.0
230
1.0
 70
    24
 71
     3
 72
    16
 73
    12
 74
     0
 42
0.000000001
 43
0.00000001
 40
0.0
 40
0.0
 40
0.0
 40
0.0
 40
0.1188284213144795
 40
0.2376568426289593
 40
0.3573322298102108
 40
0.4770076169914622
 40
0.596683004172764
 40
0.716358391354066
 40
0.8360337785353458
 40
0.9557091657166255
 40
1.0
 40
1.0
 40
1.0
 40
1.0
 10
25.39999999999998
 20
-3.546750985486917
 30
0.0
 10
25.39999999999998
 20
-3.435256543155965
 30
0.0
 10
25.39999999999997
 20
-3.212267658494062
 30
0.0
 10
25.39999999999998
 20
-2.855229676539739
 30
0.0
 10
25.40000000000003
 20
-2.493702830393156
 30
0.0
 10
25.40000000000004
 20
-2.135567636085071
 30
0.0
 10
25.4
 20
-1.793178959312188
 30
0.0
 10
25.39999999999997
 20
-1.474132214382324
 30
0.0
 10
25.39999999999998
 20
-1.192981495074659
 30
0.0
 10
25.4
 20
-0.9933487099172402
 30
0.0
 10
25.4
 20
-0.9081801773619393
 30
0.0
 10
25.4
 20
-0.885174308666123
 30
0.0
  0
LINE
  5
C2
330
1F
100
AcDbEntity
  8
중심선
 48
0.8
100
AcDbLine
 10
-45.8625
 20
-0.0000000000000056
 30
0.0
 11
45.8625
 21
0.0000000000000056
 31
0.0
  0
LINE
  5
C3
330
1F
100
AcDbEntity
  8
참조1
100
AcDbLine
 10
3.368380657015613
 20
0.0010749287238892
 30
0.0
 11
3.368380657015616
 21
-39.99892507127611
 31
0.0
  0
LINE
  5
C4
330
1F
100
AcDbEntity
  8
참조1
100
AcDbLine
 10
3.368380657015616
 20
-39.99892507127611
 30
0.0
 11
-29.25297615729306
 21
-39.9989250712761
 31
0.0
  0
CIRCLE
  5
C5
330
1F
100
AcDbEntity
  8
해칭선
100
AcDbCircle
 10
0.0
 20
0.0
 30
0.0
 40
3.000000000000008
  0
INSERT
  5
C6
330
1F
100
AcDbEntity
  8
0
  6
Continuous
 62
     7
100
AcDbBlockReference
 66
     1
  2
블럭10
 10
-13.9402729321252
 20
-52.04717430164393
 30
0.0
  0
ATTRIB
  5
C7
330
C6
100
AcDbEntity
  8
FORMAT
 62
     2
100
AcDbText
 10
-23.12156822086648
 20
-49.97180738881174
 30
0.0
 40
4.233333333333333
  1
E1053018 [ 4 FLUTE ]
 41
0.75
  7
SLDTEXTSTYLE0
 11
-23.12156822086648
 21
-52.08847405547841
 31
0.0
100
AcDbAttribute
  2
AUTOATTR0
 70
     0
 74
     1
  0
SEQEND
  5
C8
330
C6
100
AcDbEntity
  8
0
  6
Continuous
 62
     7
  0
HATCH
  5
C9
330
1F
100
AcDbEntity
  8
중심선
100
AcDbHatch
 10
0.0
 20
0.0
 30
0.0
210
0.0
220
0.0
230
1.0
  2
SOLID
 70
     1
 71
     0
 91
        1
 92
        0
 93
        4
 72
     1
 10
-8.225363627744365
 20
-35.8
 11
-11.67163887158165
 21
-35.8
 72
     1
 10
-11.67163887158165
 20
-35.8
 11
-13.79986873078567
 21
-38.33632558057257
 72
     1
 10
-13.79986873078567
 20
-38.33632558057257
 11
-10.35356040183524
 21
-38.33628615127008
 72
     1
 10
-10.35356040183524
 20
-38.33628615127008
 11
-8.225363627744365
 21
-35.8
 97
        0
 75
     0
 76
     1
 98
        1
 10
-3.368380657015607
 20
-0.0010749287238949
  0
HATCH
  5
CA
330
1F
100
AcDbEntity
  8
중심선
100
AcDbHatch
 10
0.0
 20
0.0
 30
0.0
210
0.0
220
0.0
230
1.0
  2
SOLID
 70
     1
 71
     0
 91
        1
 92
        0
 93
        4
 72
     1
 10
-3.212599636708385
 20
-35.8
 11
-6.658874880545695
 21
-35.8
 72
     1
 10
-6.658874880545695
 20
-35.8
 11
-11.19001288890308
 21
-41.20000000000002
 72
     1
 10
-11.19001288890308
 20
-41.20000000000002
 11
-7.743737645065802
 21
-41.20000000000002
 72
     1
 10
-7.743737645065801
 20
-41.20000000000002
 11
-3.212599636708385
 21
-35.8
 97
        0
 75
     0
 76
     1
 98
        1
 10
-3.368380657015607
 20
-0.0010749287238949
  0
HATCH
  5
CB
330
1F
100
AcDbEntity
  8
중심선
100
AcDbHatch
 10
0.0
 20
0.0
 30
0.0
210
0.0
220
0.0
230
1.0
  2
SOLID
 70
     1
 71
     0
 91
        1
 92
        0
 93
        4
 72
     1
 10
1.800164354327511
 20
-35.79999999999998
 11
-1.646110889509577
 21
-35.79999999999998
 72
     1
 10
-1.646110889509577
 20
-35.79999999999998
 11
-8.69454779139888
 21
-44.20000000000002
 72
     1
 10
-8.694547791398882
 20
-44.20000000000002
 11
-5.2482725475616
 21
-44.20000000000002
 72
     1
 10
-5.2482725475616
 20
-44.20000000000002
 11
1.80016435432751
 21
-35.79999999999998
 97
        0
 75
     0
 76
     1
 98
        1
 10
-3.368380657015607
 20
-0.0010749287238949
  0
HATCH
  5
CC
330
1F
100
AcDbEntity
  8
중심선
100
AcDbHatch
 10
0.0
 20
0.0
 30
0.0
210
0.0
220
0.0
230
1.0
  2
SOLID
 70
     1
 71
     0
 91
        1
 92
        0
 93
        6
 72
     3
 10
6.600054785339683
 20
-40.00000000005127
 11
3.960054785062283
 21
1.540882976769353E-10
 40
0.3939339440162628
 50
17.09539180608436
 51
320.0019657685078
 73
     0
 72
     1
 10
8.283054441040278
 20
-38.5878940046383
 11
10.58835631474134
 21
-36.65356729459038
 72
     3
 10
6.600054785286837
 20
-40.00000000000015
 11
6.600054785286829
 21
-1.278976924368180E-13
 40
0.636358354079598
 50
39.99873849337385
 51
368.4976242363724
 73
     1
 72
     1
 10
13.02538727718744
 20
-39.03999999993002
 11
5.280122092122758
 21
-39.03999999993002
 72
     1
 10
5.280122092122758
 20
-39.03999999993002
 11
5.280097047676824
 21
-40.95999999992991
 72
     1
 10
5.280097047676824
 20
-40.95999999992991
 11
9.721476817148861
 21
-40.95999999992988
 97
        0
 75
     0
 76
     1
 98
        1
 10
-3.368380657015607
 20
-0.0010749287238949
  0
DIMENSION
  5
CD
330
1F
100
AcDbEntity
  8
치수문자_일반주서
100
AcDbDimension
  2
_D
 10
55.70633193173702
 20
-3.571874999999942
 30
0.0
 11
55.70633193173686
 21
37.10295518455732
 31
0.0
 70
   160
  1
%%c<>
 71
     2
 42
7.143749999999999
 52
-270.0
  3
SLDDIMSTYLE0
100
AcDbAlignedDimension
 13
42.86249999999998
 23
3.571875000000005
 33
0.0
 14
42.8625
 24
-3.571874999999994
 34
0.0
 50
90.0000000000002
100
AcDbRotatedDimension
1001
ACAD
1000
DSTYLE
1002
{
1070
   171
1070
     6
1070
   273
1070
     7
1002
}
  0
DIMENSION
  5
E2
330
1F
100
AcDbEntity
  8
치수문자_일반주서
100
AcDbDimension
  2
_D_1
 10
25.4
 20
19.86675072769291
 30
0.0
 11
4.795999999999999
 21
19.86675072769291
 31
0.0
 70
   160
  1
<>
 71
     2
 42
17.4625
  3
SLDDIMSTYLE0
100
AcDbAlignedDimension
 13
42.8625
 23
3.571875000000005
 33
0.0
 14
25.4
 24
3.546750985486914
 34
0.0
 50
0.0000000000000233
100
AcDbRotatedDimension
1001
ACAD
1000
DSTYLE
1002
{
1070
   171
1070
     6
1070
   273
1070
     7
1002
}
  0
DIMENSION
  5
F7
330
1F
100
AcDbEntity
  8
치수문자_일반주서
100
AcDbDimension
  2
_D_2
 10
-42.8625
 20
33.80431104429632
 30
0.0
 11
5.247324168330167
 21
33.80431104429632
 31
0.0
 70
   160
  1
<>
 71
     2
 42
85.725
  3
SLDDIMSTYLE0
100
AcDbAlignedDimension
 13
42.8625
 23
3.571875000000005
 33
0.0
 14
-42.8625
 24
3.571875000000003
 34
0.0
100
AcDbRotatedDimension
1001
ACAD
1000
DSTYLE
1002
{
1070
   171
1070
     6
1070
   273
1070
     7
1002
}
  0
DIMENSION
  5
10A
330
1F
100
AcDbEntity
  8
치수문자_일반주서
100
AcDbDimension
  2
_D_3
 10
-55.38624999999998
 20
-4.762500000000141
 30
0.0
 11
-55.38625
 21
0.0000000000000009
 31
0.0
 70
   160
  1
%%c<>
 71
     2
 42
9.525000000000036
 52
-270.0
  3
SLDDIMSTYLE0
100
AcDbAlignedDimension
 13
-19.95652700723828
 23
4.762500000000028
 33
0.0
 14
-19.36170130998211
 24
-4.762500000000006
 34
0.0
 50
90.0000000000002
100
AcDbRotatedDimension
1001
ACAD
1000
DSTYLE
1002
{
1070
   171
1070
     6
1070
   273
1070
     7
1002
}
  0
LINE
  5
11E
330
1F
100
AcDbEntity
  8
참조1
100
AcDbLine
 10
68.7193644723612
 20
7.441074928723896
 30
0.0
 11
68.7193644723612
 21
-7.438925071276109
 31
0.0
  0
LINE
  5
11F
330
1F
100
AcDbEntity
  8
참조1
100
AcDbLine
 10
81.41936447236121
 20
5.441074928723896
 30
0.0
 11
68.7193644723612
 21
5.441074928723896
 31
0.0
  0
SOLID
  5
120
330
1F
100
AcDbEntity
  8
참조1
100
AcDbTrace
 10
68.7193644723612
 20
5.441074928723896
 30
0.0
 11
75.0693644723612
 21
4.425074928723896
 31
0.0
 12
75.0693644723612
 22
6.457074928723896
 32
0.0
 13
75.0693644723612
 23
6.457074928723896
 33
0.0
  0
LINE
  5
121
330
1F
100
AcDbEntity
  8
참조1
100
AcDbLine
 10
81.41936447236121
 20
-5.438925071276109
 30
0.0
 11
68.7193644723612
 21
-5.438925071276109
 31
0.0
  0
SOLID
  5
122
330
1F
100
AcDbEntity
  8
참조1
100
AcDbTrace
 10
68.7193644723612
 20
-5.438925071276109
 30
0.0
 11
75.0693644723612
 21
-6.454925071276109
 31
0.0
 12
75.0693644723612
 22
-4.422925071276109
 32
0.0
 13
75.0693644723612
 23
-4.422925071276109
 33
0.0
  0
MTEXT
  5
123
330
1F
100
AcDbEntity
  8
참조1
100
AcDbMText
 10
78.1037146049872
 20
11.01136670591223
 30
0.0
 40
3.5
 41
0.0
 71
     1
 72
     1
  1
A
  7
SLDTEXTSTYLE0
 73
     1
 44
1.0
  0
MTEXT
  5
124
330
1F
100
AcDbEntity
  8
참조1
100
AcDbMText
 10
78.1037146049872
 20
0.1313667059122219
 30
0.0
 40
3.5
 41
0.0
 71
     1
 72
     1
  1
A
  7
SLDTEXTSTYLE0
 73
     1
 44
1.0
  0
INSERT
  5
12B
330
1F
100
AcDbEntity
  8
해칭선
100
AcDbBlockReference
  2
SW_DOWELSYMBOL_0
 10
0.0
 20
0.0
 30
0.0
  0
LINE
  5
31E
330
1F
100
AcDbEntity
  8
0
  6
Continuous
 62
     1
370
    15
100
AcDbLine
 10
-33.67555628545732
 20
3.571875000000013
 30
0.0
 11
-35.85198905891555
 21
3.571875000000013
 31
0.0
  0
LINE
  5
31F
330
1F
100
AcDbEntity
  8
0
  6
Continuous
 62
     1
370
    15
100
AcDbLine
 10
-26.13445354279501
 20
-3.571874999999991
 30
0.0
 11
-25.39999999999999
 21
-3.571874999999991
 31
0.0
  0
LINE
  5
320
330
1F
100
AcDbEntity
  8
0
  6
Continuous
 62
     1
370
    15
100
AcDbLine
 10
-35.85198905891555
 20
-3.571874999999991
 30
0.0
 11
-33.67555628545738
 21
-3.571874999999991
 31
0.0
  0
LINE
  5
321
330
1F
100
AcDbEntity
  8
외형선
  6
Continuous
370
    15
100
AcDbLine
 10
-25.39999999999999
 20
3.571875000000013
 30
0.0
 11
-26.13445354279496
 21
3.571875000000013
 31
0.0
  0
LINE
  5
322
330
1F
100
AcDbEntity
  8
외형선
  6
Continuous
370
    15
100
AcDbLine
 10
-19.95652700723828
 20
4.762500000000017
 30
0.0
 11
-24.39999999999999
 21
3.57187500000001
 31
0.0
  0
LINE
  5
323
330
1F
100
AcDbEntity
  8
외형선
  6
Continuous
370
    15
100
AcDbLine
 10
-24.39999999999999
 20
-3.571874999999991
 30
0.0
 11
-19.95652700723828
 21
-4.762500000000003
 31
0.0
  0
LINE
  5
326
330
1F
100
AcDbEntity
  8
외형선
  6
Continuous
370
    15
100
AcDbLine
 10
-24.39999999999999
 20
3.57187500000001
 30
0.0
 11
-25.39999999999999
 21
3.57187500000001
 31
0.0
  0
LINE
  5
327
330
1F
100
AcDbEntity
  8
외형선
  6
Continuous
370
    15
100
AcDbLine
 10
-25.39999999999999
 20
-3.571874999999991
 30
0.0
 11
-24.39999999999999
 21
-3.571874999999991
 31
0.0
  0
SPLINE
  5
328
330
1F
100
AcDbEntity
  8
0
  6
Continuous
 62
     1
370
    15
100
AcDbSpline
210
0.0
220
0.0
230
1.0
 70
     8
 71
     3
 72
    17
 73
    13
 74
     0
 42
0.000000001
 43
0.00000001
 40
0.0
 40
0.0
 40
0.0
 40
0.0
 40
0.0981737418219812
 40
0.1964093195760686
 40
0.2945956628883532
 40
0.3927253670321442
 40
0.4908237253949748
 40
0.5889162234968469
 40
0.6870283828373696
 40
0.7949749291986559
 40
0.9029290552192191
 40
1.0
 40
1.0
 40
1.0
 40
1.0
 10
-25.39999999999999
 20
-0.4229047913804888
 30
0.0
 10
-25.86576779507435
 20
-0.1538230990466613
 30
0.0
 10
-26.79759675476585
 20
0.3845097700162124
 30
0.0
 10
-28.19557968869718
 20
1.177639244518819
 30
0.0
 10
-29.59310117715042
 20
1.909743149450108
 30
0.0
 10
-30.98981710812139
 20
2.545174211251404
 30
0.0
 10
-32.38599219514553
 20
3.051302463147664
 30
0.0
 10
-33.7820854446904
 20
3.402303680965595
 30
0.0
 10
-35.22488531528255
 20
3.587639423823032
 30
0.0
 10
-36.71488626861871
 20
3.570979723216638
 30
0.0
 10
-38.19985223539267
 20
3.35854795585761
 30
0.0
 10
-39.17268036628077
 20
3.058765826327545
 30
0.0
 10
-39.63327450438074
 20
2.916831308621298
 30
0.0
  0
SPLINE
  5
329
330
1F
100
AcDbEntity
  8
외형선
  6
Continuous
370
    15
100
AcDbSpline
210
0.0
220
0.0
230
1.0
 70
    24
 71
     3
 72
    19
 73
    15
 74
     0
 42
0.000000001
 43
0.00000001
 40
0.0
 40
0.0
 40
0.0
 40
0.0
 40
0.1371465771864338
 40
0.2153529735972098
 40
0.295827360801976
 40
0.3740337572127532
 40
0.4545081444175209
 40
0.5327145408282999
 40
0.6131889280330693
 40
0.691395324443845
 40
0.7718697116486111
 40
0.8500761080593898
 40
0.9305504952641592
 40
1.0
 40
1.0
 40
1.0
 40
1.0
 10
-25.39999999999999
 20
-3.47506821794462
 30
0.0
 10
-25.40000000000002
 20
-3.286865686472641
 30
0.0
 10
-25.40000000000005
 20
-2.991342636444805
 30
0.0
 10
-25.39999999999999
 20
-2.543949683230387
 30
0.0
 10
-25.40000000000002
 20
-2.183364577251573
 30
0.0
 10
-25.39999999999999
 20
-1.824312750587509
 30
0.0
 10
-25.40000000000005
 20
-1.484294863416046
 30
0.0
 10
-25.40000000000008
 20
-1.166589527056509
 30
0.0
 10
-25.39999999999991
 20
-0.8859337393299281
 30
0.0
 10
-25.40000000000008
 20
-0.6453407738855536
 30
0.0
 10
-25.39999999999991
 20
-0.4554429537804265
 30
0.0
 10
-25.40000000000008
 20
-0.3201125742890409
 30
0.0
 10
-25.39999999999993
 20
-0.2414957582710675
 30
0.0
 10
-25.39999999999996
 20
-0.2384062966491524
 30
0.0
 10
-25.39999999999999
 20
-0.2369751599786409
 30
0.0
  0
SPLINE
  5
32A
330
1F
100
AcDbEntity
  8
0
  6
Continuous
 62
     1
370
    15
100
AcDbSpline
210
0.0
220
0.0
230
1.0
 70
     8
 71
     3
 72
    40
 73
    36
 74
     0
 42
0.000000001
 43
0.00000001
 40
0.0
 40
0.0
 40
0.0
 40
0.0
 40
0.0625
 40
0.0625
 40
0.125
 40
0.125
 40
0.1875
 40
0.1875
 40
0.25
 40
0.25
 40
0.3125
 40
0.3125
 40
0.375
 40
0.375
 40
0.4375
 40
0.4375
 40
0.5
 40
0.5
 40
0.5625
 40
0.5625
 40
0.625
 40
0.625
 40
0.6875
 40
0.6875
 40
0.75
 40
0.75
 40
0.8125
 40
0.8125
 40
0.875
 40
0.875
 40
0.90625
 40
0.90625
 40
0.9375
 40
0.9375
 40
1.0
 40
1.0
 40
1.0
 40
1.0
 10
-42.8625
 20
3.571875000000003
 30
0.0
 10
-42.5018378839
 20
3.540795863752145
 30
0.0
 10
-42.13488326143515
 20
3.504254091962153
 30
0.0
 10
-41.40534598454671
 20
3.39525797294597
 30
0.0
 10
-41.0457158371842
 20
3.323159403570923
 30
0.0
 10
-40.31591620360739
 20
3.144617275533208
 30
0.0
 10
-39.94986027121122
 20
3.038344891685253
 30
0.0
 10
-39.22775848641656
 20
2.796608891924472
 30
0.0
 10
-38.86067889641554
 20
2.659900264154903
 30
0.0
 10
-38.13143824798077
 20
2.360857646978535
 30
0.0
 10
-37.77174882918844
 20
2.199017745256669
 30
0.0
 10
-37.04172115185095
 20
1.852669985880589
 30
0.0
 10
-36.67650564118394
 20
1.668890200022187
 30
0.0
 10
-35.9536594164898
 20
1.287317019129681
 30
0.0
 10
-35.58647235506366
 20
1.08783140482344
 30
0.0
 10
-34.85756256032992
 20
0.6806011293462649
 30
0.0
 10
-34.4977546079589
 20
0.4732741116515523
 30
0.0
 10
-33.76753323558215
 20
0.0538563533603809
 30
0.0
 10
-33.40309974746675
 20
-0.157088773453651
 30
0.0
 10
-32.67954231095943
 20
-0.5741688153158894
 30
0.0
 10
-32.31226529143733
 20
-0.781853012695542
 30
0.0
 10
-31.58372052379416
 20
-1.185839287249258
 30
0.0
 10
-31.2237347942547
 20
-1.381951618978153
 30
0.0
 10
-30.4933541059733
 20
-1.759691206377866
 30
0.0
 10
-30.12964411938957
 20
-1.940109049640234
 30
0.0
 10
-29.40540880953189
 20
-2.278578212843196
 30
0.0
 10
-29.03805935966032
 20
-2.437629712594301
 30
0.0
 10
-28.30991373531661
 20
-2.727865548292676
 30
0.0
 10
-27.94969101284993
 20
-2.859109764140082
 30
0.0
 10
-27.40181181282809
 20
-3.033635763530945
 30
0.0
 10
-27.21897401547362
 20
-3.087957572767813
 30
0.0
 10
-26.85500737625587
 20
-3.188288307669424
 30
0.0
 10
-26.6749203590873
 20
-3.234221627001325
 30
0.0
 10
-26.13126055452328
 20
-3.359609419765924
 30
0.0
 10
-25.76385621366016
 20
-3.426498966114316
 30
0.0
 10
-25.39999999999999
 20
-3.47506821794462
 30
0.0
  0
LINE
  5
32B
330
1F
100
AcDbEntity
  8
0
  6
Continuous
 62
     1
370
    15
100
AcDbLine
 10
-42.8625
 20
3.234980569372873
 30
0.0
 11
-42.8625
 21
-0.3060430693729008
 31
0.0
  0
SPLINE
  5
32C
330
1F
100
AcDbEntity
  8
0
  6
Continuous
 62
     1
370
    15
100
AcDbSpline
210
0.0
220
0.0
230
1.0
 70
     8
 71
     3
 72
    19
 73
    15
 74
     0
 42
0.000000001
 43
0.00000001
 40
0.0
 40
0.0
 40
0.0
 40
0.0
 40
0.0396285692848981
 40
0.1232155588790814
 40
0.2067606557204678
 40
0.2902575592525092
 40
0.3737277911903388
 40
0.4571930367313551
 40
0.5406750116873971
 40
0.6325249000243487
 40
0.7243812377650266
 40
0.816245133501877
 40
0.9081176893460693
 40
1.0
 40
1.0
 40
1.0
 40
1.0
 10
-26.13445354279501
 20
-3.549191511300293
 30
0.0
 10
-26.35541593571823
 20
-3.553935146797215
 30
0.0
 10
-27.04244565257635
 20
-3.568684346917713
 30
0.0
 10
-28.19558540281479
 20
-3.398308212326291
 30
0.0
 10
-29.59309964776465
 20
-3.056109951490125
 30
0.0
 10
-30.98981751612097
 20
-2.548874928917133
 30
0.0
 10
-32.38599209163935
 20
-1.914980717987998
 30
0.0
 10
-33.78208545080547
 20
-1.183204773575212
 30
0.0
 10
-35.22488539680724
 20
-0.3651528740684601
 30
0.0
 10
-36.71488589638626
 20
0.5014072816644773
 30
0.0
 10
-38.25153353555173
 20
1.365369694768198
 30
0.0
 10
-39.78836481474256
 20
2.141738209677115
 30
0.0
 10
-41.32535890577078
 20
2.800930471497502
 30
0.0
 10
-42.35010150209716
 20
3.090292083064825
 30
0.0
 10
-42.8625
 20
3.234980569372873
 30
0.0
  0
SPLINE
  5
32D
330
1F
100
AcDbEntity
  8
0
  6
Continuous
 62
     1
370
    15
100
AcDbSpline
210
0.0
220
0.0
230
1.0
 70
     8
 71
     3
 72
    17
 73
    13
 74
     0
 42
0.000000001
 43
0.00000001
 40
0.0
 40
0.0
 40
0.0
 40
0.0
 40
0.1078091159958849
 40
0.2155448956123865
 40
0.323234968709557
 40
0.4309072449347031
 40
0.538589743157233
 40
0.6463104194933835
 40
0.7540969961414556
 40
0.8726309934016471
 40
0.9911587452044964
 40
1.0
 40
1.0
 40
1.0
 40
1.0
 10
-42.8625
 20
-0.3060430693729008
 30
0.0
 10
-42.3964565250693
 20
-0.572427578517814
 30
0.0
 10
-41.4646865979456
 20
-1.105015390652259
 30
0.0
 10
-40.06764739113872
 20
-1.843855253328271
 30
0.0
 10
-38.6712995506182
 20
-2.490072613548477
 30
0.0
 10
-37.27523384957696
 20
-3.00949256853746
 30
0.0
 10
-35.87900569848328
 20
-3.376574214724676
 30
0.0
 10
-34.48219318832632
 20
-3.571104548811899
 30
0.0
 10
-33.03827148125107
 20
-3.589244577477209
 30
0.0
 10
-31.54749799037457
 20
-3.385868475819368
 30
0.0
 10
-30.48449418427914
 20
-3.144833014017727
 30
0.0
 10
-29.93390900507954
 20
-2.934659560818818
 30
0.0
 10
-29.89569041496931
 20
-2.920070477488351
 30
0.0
  0
SPLINE
  5
32E
330
1F
100
AcDbEntity
  8
0
  6
Continuous
 62
     1
370
    15
100
AcDbSpline
210
0.0
220
0.0
230
1.0
 70
     8
 71
     3
 72
    13
 73
     9
 74
     0
 42
0.000000001
 43
0.00000001
 40
0.0
 40
0.0
 40
0.0
 40
0.0
 40
0.0714001347238693
 40
0.2571490966824819
 40
0.4428882716833859
 40
0.6286083332940361
 40
0.8143114988121417
 40
0.9999999999999999
 40
0.9999999999999999
 40
0.9999999999999999
 40
0.9999999999999999
 10
-33.67555628545732
 20
3.549672699514457
 30
0.0
 10
-33.47860924577203
 20
3.554872435804481
 30
0.0
 10
-32.76930031315989
 20
3.57359939612659
 30
0.0
 10
-31.54748935071181
 20
3.389755528261798
 30
0.0
 10
-30.01039638203129
 20
2.99630417435678
 30
0.0
 10
-28.47344529062867
 20
2.405730320433535
 30
0.0
 10
-26.93666479078432
 20
1.674424398677374
 30
0.0
 10
-25.91220811343491
 20
1.108766746713329
 30
0.0
 10
-25.39999999999999
 20
0.8259490881744117
 30
0.0
  0
LINE
  5
32F
330
1F
100
AcDbEntity
  8
외형선
  6
Continuous
370
    15
100
AcDbLine
 10
-25.39999999999999
 20
0.8259490881744117
 30
0.0
 11
-25.39999999999999
 21
-0.4229047913804888
 31
0.0
  0
LINE
  5
330
330
1F
100
AcDbEntity
  8
0
  6
Continuous
 62
     1
370
    15
100
AcDbLine
 10
-42.8625
 20
3.571875000000003
 30
0.0
 11
-42.8625
 21
3.234980569372873
 31
0.0
  0
LINE
  5
331
330
1F
100
AcDbEntity
  8
외형선
  6
Continuous
370
    15
100
AcDbLine
 10
-25.39999999999999
 20
-3.47506821794462
 30
0.0
 11
-25.39999999999999
 21
-3.571874999999991
 31
0.0
  0
SPLINE
  5
332
330
1F
100
AcDbEntity
  8
0
  6
Continuous
 62
     1
370
    15
100
AcDbSpline
210
0.0
220
0.0
230
1.0
 70
     8
 71
     3
 72
    12
 73
     8
 74
     0
 42
0.000000001
 43
0.00000001
 40
0.0
 40
0.0
 40
0.0
 40
0.0
 40
0.1230831865202566
 40
0.3422827105010942
 40
0.5615002703540818
 40
0.7807384960800362
 40
1.0
 40
1.0
 40
1.0
 40
1.0
 10
-35.85198905891555
 20
-3.544786775398456
 30
0.0
 10
-36.13960344859034
 20
-3.548623703573127
 30
0.0
 10
-36.93943188706514
 20
-3.559293838241828
 30
0.0
 10
-38.2515393240743
 20
-3.334646693234638
 30
0.0
 10
-39.7883632709259
 20
-2.903363260183702
 30
0.0
 10
-41.3253592917879
 20
-2.290310455382201
 30
0.0
 10
-42.35010163077409
 20
-1.772998509519365
 30
0.0
 10
-42.8625
 20
-1.514328805578525
 30
0.0
  0
LINE
  5
333
330
1F
100
AcDbEntity
  8
0
  6
Continuous
 62
     1
370
    15
100
AcDbLine
 10
-42.8625
 20
-0.3060430693729008
 30
0.0
 11
-42.8625
 21
-1.514328805578525
 31
0.0
  0
SPLINE
  5
334
330
1F
100
AcDbEntity
  8
0
  6
Continuous
 62
     1
370
    15
100
AcDbSpline
210
0.0
220
0.0
230
1.0
 70
     8
 71
     3
 72
    11
 73
     7
 74
     0
 42
0.000000001
 43
0.00000001
 40
0.0
 40
0.0
 40
0.0
 40
0.0
 40
0.3108343545082095
 40
0.6218644918366004
 40
0.9327387447538105
 40
1.0
 40
1.0
 40
1.0
 40
1.0
 10
-25.39999999999999
 20
3.546750985486924
 30
0.0
 10
-25.86576837274133
 20
3.56174259486614
 30
0.0
 10
-26.79759848813067
 20
3.591735256273104
 30
0.0
 10
-28.19557275159171
 20
3.394594889090819
 30
0.0
 10
-29.22832763158512
 20
3.165120752853362
 30
0.0
 10
-29.79490912915257
 20
2.95707655942147
 30
0.0
 10
-29.89569041496925
 20
2.920070477488367
 30
0.0
  0
SPLINE
  5
335
330
1F
100
AcDbEntity
  8
외형선
  6
Continuous
370
    15
100
AcDbSpline
210
0.0
220
0.0
230
1.0
 70
    24
 71
     3
 72
    17
 73
    13
 74
     0
 42
0.000000001
 43
0.00000001
 40
0.0
 40
0.0
 40
0.0
 40
0.0
 40
0.0044521839140934
 40
0.1262001710343288
 40
0.2445169631673518
 40
0.3662649502875817
 40
0.4845817424206093
 40
0.6063297295408441
 40
0.7246465216737428
 40
0.846394508794102
 40
0.9227496691494775
 40
1.0
 40
1.0
 40
1.0
 40
1.0
 10
-25.40000000000002
 20
0.8851843086661301
 30
0.0
 10
-25.40000000000002
 20
0.8873617489046776
 30
0.0
 10
-25.39999999999982
 20
0.949082768481578
 30
0.0
 10
-25.40000000000002
 20
1.11621638871749
 30
0.0
 10
-25.40000000000005
 20
1.385225562253407
 30
0.0
 10
-25.39999999999993
 20
1.693878061652157
 30
0.0
 10
-25.40000000000008
 20
2.031467185982422
 30
0.0
 10
-25.39999999999993
 20
2.384353150891947
 30
0.0
 10
-25.39999999999999
 20
2.748441383798394
 30
0.0
 10
-25.40000000000008
 20
3.064760059535953
 30
0.0
 10
-25.39999999999991
 20
3.332599551981723
 30
0.0
 10
-25.39999999999996
 20
3.475090375227993
 30
0.0
 10
-25.39999999999999
 20
3.546750985486924
 30
0.0
  0
SPLINE
  5
336
330
1F
100
AcDbEntity
  8
0
  6
Continuous
 62
     1
370
    15
100
AcDbSpline
210
0.0
220
0.0
230
1.0
 70
     8
 71
     3
 72
    10
 73
     6
 74
     0
 42
0.000000001
 43
0.00000001
 40
0.0
 40
0.0
 40
0.0
 40
0.0
 40
0.4329098457406759
 40
0.8655252076578513
 40
1.0
 40
1.0
 40
1.0
 40
1.0
 10
-42.8625
 20
-3.571874999999998
 30
0.0
 10
-42.39645763670579
 20
-3.516208110963084
 30
0.0
 10
-41.46468993209884
 20
-3.431173751506296
 30
0.0
 10
-40.38834007768942
 20
-3.188273622201357
 30
0.0
 10
-39.77800420712212
 20
-2.968860916041627
 30
0.0
 10
-39.63327450438076
 20
-2.916831308621276
 30
0.0
  0
LINE
  5
337
330
1F
100
AcDbEntity
  8
0
  6
Continuous
 62
     1
370
    15
100
AcDbLine
 10
-42.8625
 20
-1.514328805578525
 30
0.0
 11
-42.8625
 21
-3.571874999999998
 31
0.0
  0
LINE
  5
338
330
1F
100
AcDbEntity
  8
외형선
  6
Continuous
370
    15
100
AcDbLine
 10
-24.39999999999999
 20
0.0000000000000074
 30
0.0
 11
-24.39999999999999
 21
-3.571874999999991
 31
0.0
  0
LINE
  5
339
330
1F
100
AcDbEntity
  8
외형선
  6
Continuous
370
    15
100
AcDbLine
 10
-24.39999999999999
 20
3.571875000000013
 30
0.0
 11
-24.39999999999999
 21
0.0000000000000074
 31
0.0
  0
LINE
  5
33A
330
1F
100
AcDbEntity
  8
외형선
  6
Continuous
370
    15
100
AcDbLine
 10
-19.95652700723828
 20
0.0000000000000074
 30
0.0
 11
-19.95652700723828
 21
-4.762500000000003
 31
0.0
  0
LINE
  5
33B
330
1F
100
AcDbEntity
  8
외형선
  6
Continuous
370
    15
100
AcDbLine
 10
-19.95652700723828
 20
4.762500000000028
 30
0.0
 11
-19.95652700723828
 21
0.0000000000000074
 31
0.0
  0
SPLINE
  5
33C
330
1F
100
AcDbEntity
  8
외형선
  6
Continuous
370
    15
100
AcDbSpline
210
0.0
220
0.0
230
1.0
 70
     8
 71
     3
 72
     8
 73
     4
 74
     0
 42
0.000000001
 43
0.00000001
 40
0.0
 40
0.0
 40
0.0
 40
0.0
 40
1.0
 40
1.0
 40
1.0
 40
1.0
 10
-25.39999999999999
 20
-3.475068217944617
 30
0.0
 10
-25.23258018006497
 20
-3.497416208965606
 30
0.0
 10
-25.06678327079679
 20
-3.515886280296022
 30
0.0
 10
-24.90012657473874
 20
-3.530526777233905
 30
0.0
  0
LINE
  5
33D
330
1F
100
AcDbEntity
  8
외형선
  6
Continuous
370
    15
100
AcDbLine
 10
-24.90012657473874
 20
-0.7086222795325409
 30
0.0
 11
-24.90012657473874
 21
-3.530528528909979
 31
0.0
  0
SPLINE
  5
33E
330
1F
100
AcDbEntity
  8
외형선
  6
Continuous
370
    15
100
AcDbSpline
210
0.0
220
0.0
230
1.0
 70
     8
 71
     3
 72
     8
 73
     4
 74
     0
 42
0.000000001
 43
0.00000001
 40
0.0
 40
0.0
 40
0.0
 40
0.0
 40
1.0
 40
1.0
 40
1.0
 40
1.0
 10
-25.39999999999999
 20
-0.4229047913804888
 30
0.0
 10
-25.23258018006497
 20
-0.5188704632508238
 30
0.0
 10
-25.06678327079673
 20
-0.6140626733030953
 30
0.0
 10
-24.90012657473876
 20
-0.7086430865973906
 30
0.0
  0
SPLINE
  5
33F
330
1F
100
AcDbEntity
  8
외형선
  6
Continuous
370
    15
100
AcDbSpline
210
0.0
220
0.0
230
1.0
 70
     8
 71
     3
 72
     8
 73
     4
 74
     0
 42
0.000000001
 43
0.00000001
 40
0.0
 40
0.0
 40
0.0
 40
0.0
 40
1.0
 40
1.0
 40
1.0
 40
1.0
 10
-25.39999999999999
 20
0.8259490881744117
 30
0.0
 10
-25.23258018006497
 20
0.7319229618140038
 30
0.0
 10
-25.06678327079679
 20
0.6372963675747382
 30
0.0
 10
-24.90012657473874
 20
0.5419148372754709
 30
0.0
  0
LINE
  5
340
330
1F
100
AcDbEntity
  8
외형선
  6
Continuous
370
    15
100
AcDbLine
 10
-24.90012657473874
 20
3.500877815716386
 30
0.0
 11
-24.90012657473874
 21
0.5419034251392641
 31
0.0
  0
SPLINE
  5
341
330
1F
100
AcDbEntity
  8
외형선
  6
Continuous
370
    15
100
AcDbSpline
210
0.0
220
0.0
230
1.0
 70
     8
 71
     3
 72
     8
 73
     4
 74
     0
 42
0.000000001
 43
0.00000001
 40
0.0
 40
0.0
 40
0.0
 40
0.0
 40
1.0
 40
1.0
 40
1.0
 40
1.0
 10
-25.39999999999999
 20
3.546750985486924
 30
0.0
 10
-25.23258018006497
 20
3.535308303830366
 30
0.0
 10
-25.06678327079673
 20
3.520018470030195
 30
0.0
 10
-24.90012657473876
 20
3.500873604036965
 30
0.0
  0
SPLINE
  5
342
330
1F
100
AcDbEntity
  8
외형선
  6
Continuous
370
    15
100
AcDbSpline
210
0.0
220
0.0
230
1.0
 70
    24
 71
     3
 72
    20
 73
    16
 74
     0
 42
0.000000001
 43
0.00000001
 40
0.0
 40
0.0
 40
0.0
 40
0.0
 40
0.044451101184451
 40
0.1239101554651726
 40
0.2033692097459276
 40
0.2828282640266829
 40
0.3622873183074233
 40
0.4417463725881638
 40
0.5212054268689018
 40
0.6006644811496398
 40
0.6801235354303734
 40
0.759582589711107
 40
0.8390416439918524
 40
0.918500698272598
 40
1.0
 40
1.0
 40
1.0
 40
1.0
 10
-25.39999999999999
 20
-0.2415052513691262
 30
0.0
 10
-25.39999999999999
 20
-0.2395356238713401
 30
0.0
 10
-25.40000000000002
 20
-0.2340451671007277
 30
0.0
 10
-25.39999999999999
 20
-0.2914890242464094
 30
0.0
 10
-25.39999999999999
 20
-0.4085064086132559
 30
0.0
 10
-25.39999999999996
 20
-0.5831229385121116
 30
0.0
 10
-25.39999999999996
 20
-0.80893506407871
 30
0.0
 10
-25.40000000000002
 20
-1.078545019898094
 30
0.0
 10
-25.40000000000002
 20
-1.385709660665533
 30
0.0
 10
-25.40000000000002
 20
-1.720455230793558
 30
0.0
 10
-25.40000000000002
 20
-2.074170862548232
 30
0.0
 10
-25.39999999999999
 20
-2.436457521718541
 30
0.0
 10
-25.39999999999999
 20
-2.79643443736127
 30
0.0
 10
-25.39999999999993
 20
-3.149915159207196
 30
0.0
 10
-25.39999999999996
 20
-3.365771825786438
 30
0.0
 10
-25.39999999999996
 20
-3.475068217944681
 30
0.0
  0
SPLINE
  5
343
330
1F
100
AcDbEntity
  8
외형선
  6
Continuous
370
    15
100
AcDbSpline
210
0.0
220
0.0
230
1.0
 70
    24
 71
     3
 72
    16
 73
    12
 74
     0
 42
0.000000001
 43
0.00000001
 40
0.0
 40
0.0
 40
0.0
 40
0.0
 40
0.1188284213144795
 40
0.2376568426289593
 40
0.3573322298102108
 40
0.4770076169914622
 40
0.596683004172764
 40
0.716358391354066
 40
0.8360337785353458
 40
0.9557091657166255
 40
1.0
 40
1.0
 40
1.0
 40
1.0
 10
-25.39999999999999
 20
3.546750985486924
 30
0.0
 10
-25.39999999999999
 20
3.435256543155973
 30
0.0
 10
-25.39999999999996
 20
3.212267658494071
 30
0.0
 10
-25.39999999999999
 20
2.855229676539747
 30
0.0
 10
-25.40000000000002
 20
2.493702830393162
 30
0.0
 10
-25.40000000000005
 20
2.135567636085078
 30
0.0
 10
-25.39999999999999
 20
1.793178959312194
 30
0.0
 10
-25.39999999999996
 20
1.47413221438233
 30
0.0
 10
-25.39999999999999
 20
1.192981495074669
 30
0.0
 10
-25.39999999999999
 20
0.9933487099172499
 30
0.0
 10
-25.39999999999999
 20
0.9081801773619492
 30
0.0
 10
-25.39999999999999
 20
0.8851743086661304
 30
0.0
  0
LINE
  5
3C1
330
1F
100
AcDbEntity
  8
외형선
  6
Continuous
370
    15
100
AcDbLine
 10
-3.568700000000034
 20
3.49250000000002
 30
0.0
 11
3.568700000000037
 21
3.49250000000002
 31
0.0
  0
LINE
  5
3C2
330
1F
100
AcDbEntity
  8
외형선
  6
Continuous
370
    15
100
AcDbLine
 10
-3.568700000000034
 20
3.49250000000002
 30
0.0
 11
-4.838700000000015
 21
4.762500000000002
 31
0.0
  0
LINE
  5
3C3
330
1F
100
AcDbEntity
  8
외형선
  6
Continuous
370
    15
100
AcDbLine
 10
3.568700000000037
 20
3.49250000000002
 30
0.0
 11
4.838700000000019
 21
4.762500000000002
 31
0.0
  0
LINE
  5
3C5
330
1F
100
AcDbEntity
  8
외형선
  6
Continuous
370
    15
100
AcDbLine
 10
-4.838700000000006
 20
4.762500000000002
 30
0.0
 11
-19.95652700723828
 21
4.762500000000002
 31
0.0
  0
ENDSEC
  0
SECTION
  2
OBJECTS
  0
DICTIONARY
  5
C
330
0
100
AcDbDictionary
281
     1
  3
ACAD_GROUP
350
D
  3
ACAD_IMAGE_VARS
350
14F
  3
ACAD_LAYOUT
350
1A
  3
ACAD_MLINESTYLE
350
17
  3
ACAD_PLOTSETTINGS
350
19
  3
ACAD_PLOTSTYLENAME
350
E
  3
ACAD_SCALELIST
350
47
  3
APPDATA
350
14D
  3
DWGPROPS
350
3C6
  0
DICTIONARY
  5
1DC
330
2
100
AcDbDictionary
280
     1
281
     1
  3
ACAD_LAYERSTATES
360
1DD
  0
DICTIONARY
  5
D
102
{ACAD_REACTORS
330
C
102
}
330
C
100
AcDbDictionary
281
     1
  0
RASTERVARIABLES
  5
14F
102
{ACAD_REACTORS
330
C
102
}
330
C
100
AcDbRasterVariables
 90
        0
 70
     1
 71
     1
 72
     1
  0
DICTIONARY
  5
1A
102
{ACAD_REACTORS
330
C
102
}
330
C
100
AcDbDictionary
281
     1
  3
Layout1
350
1E
  3
Layout2
350
26
  3
Model
350
22
  0
DICTIONARY
  5
17
102
{ACAD_REACTORS
330
C
102
}
330
C
100
AcDbDictionary
281
     1
  3
Standard
350
18
  0
DICTIONARY
  5
19
102
{ACAD_REACTORS
330
C
102
}
330
C
100
AcDbDictionary
281
     1
  0
ACDBDICTIONARYWDFLT
  5
E
102
{ACAD_REACTORS
330
C
102
}
330
C
100
AcDbDictionary
281
     1
  3
Normal
350
F
100
AcDbDictionaryWithDefault
340
F
  0
DICTIONARY
  5
47
102
{ACAD_REACTORS
330
C
102
}
330
C
100
AcDbDictionary
281
     1
  3
A0
350
48
  3
A1
350
49
  3
A2
350
4A
  3
A3
350
4B
  3
A4
350
4C
  3
A5
350
4D
  3
A6
350
4E
  3
A7
350
4F
  3
A8
350
50
  3
A9
350
51
  3
B0
350
52
  3
B1
350
53
  3
B2
350
54
  3
B3
350
55
  3
B4
350
56
  3
B5
350
57
  3
B6
350
58
  3
B7
350
59
  3
B8
350
5A
  3
B9
350
5B
  3
C0
350
5C
  3
C1
350
5D
  3
C2
350
5E
  3
C3
350
5F
  3
C4
350
60
  3
C5
350
61
  3
C6
350
62
  3
C7
350
63
  3
C8
350
64
  3
C9
350
65
  3
D0
350
66
  3
D1
350
67
  3
D2
350
68
  0
DICTIONARY
  5
14D
102
{ACAD_REACTORS
330
C
102
}
330
C
100
AcDbDictionary
281
     1
  0
XRECORD
  5
3C6
102
{ACAD_REACTORS
330
C
102
}
330
C
100
AcDbXrecord
280
     1
  1
DWGPROPS COOKIE
  2

  3

  4

  6

  7

  8
12017012
  9

300
=
301
=
302
=
303
=
304
=
305
=
306
=
307
=
308
=
309
=
 40
0.0
 41
2458313.096236621
 42
2458318.982707859
  1

 90
        0
  0
DICTIONARY
  5
1DD
102
{ACAD_REACTORS
330
1DC
102
}
330
1DC
100
AcDbDictionary
281
     1
  0
LAYOUT
  5
1E
102
{ACAD_REACTORS
330
1A
102
}
330
1A
100
AcDbPlotSettings
  1

  2
none_device
  4

  6

 40
0.0
 41
0.0
 42
0.0
 43
0.0
 44
0.0
 45
0.0
 46
0.0
 47
0.0
 48
0.0
 49
0.0
140
0.0
141
0.0
142
1.0
143
1.0
 70
   688
 72
     1
 73
     0
 74
     5
  7

 75
    16
147
1.0
148
0.0
149
0.0
100
AcDbLayout
  1
Layout1
 70
     1
 71
     1
 10
0.0
 20
0.0
 11
420.0
 21
297.0
 12
0.0
 22
0.0
 32
0.0
 14
1.000000000000000E+20
 24
1.000000000000000E+20
 34
1.000000000000000E+20
 15
-1.000000000000000E+20
 25
-1.000000000000000E+20
 35
-1.000000000000000E+20
146
0.0
 13
0.0
 23
0.0
 33
0.0
 16
1.0
 26
0.0
 36
0.0
 17
0.0
 27
1.0
 37
0.0
 76
     0
330
1B
  0
LAYOUT
  5
26
102
{ACAD_REACTORS
330
1A
102
}
330
1A
100
AcDbPlotSettings
  1

  2
none_device
  4

  6

 40
0.0
 41
0.0
 42
0.0
 43
0.0
 44
0.0
 45
0.0
 46
0.0
 47
0.0
 48
0.0
 49
0.0
140
0.0
141
0.0
142
1.0
143
1.0
 70
   688
 72
     1
 73
     0
 74
     5
  7

 75
    16
147
1.0
148
0.0
149
0.0
100
AcDbLayout
  1
Layout2
 70
     1
 71
     2
 10
0.0
 20
0.0
 11
0.0
 21
0.0
 12
0.0
 22
0.0
 32
0.0
 14
0.0
 24
0.0
 34
0.0
 15
0.0
 25
0.0
 35
0.0
146
0.0
 13
0.0
 23
0.0
 33
0.0
 16
1.0
 26
0.0
 36
0.0
 17
0.0
 27
1.0
 37
0.0
 76
     0
330
23
  0
LAYOUT
  5
22
102
{ACAD_REACTORS
330
1A
102
}
330
1A
100
AcDbPlotSettings
  1

  2
none_device
  4
ANSI_A_(11.00_x_8.50_Inches)
  6

 40
6.35
 41
19.05
 42
6.35000508
 43
19.05000254
 44
279.4
 45
215.9
 46
80.80318609916893
 47
81.23485985894456
 48
0.0
 49
0.0
140
0.0
141
0.0
142
0.0537523885999552
143
1.0
 70
  1696
 72
     0
 73
     0
 74
     0
  7

 75
     0
147
0.0235690232323232
148
0.0
149
0.0
100
AcDbLayout
  1
Model
 70
     1
 71
     0
 10
0.0
 20
0.0
 11
420.0
 21
297.0
 12
0.0
 22
0.0
 32
0.0
 14
1.000000000000000E+20
 24
1.000000000000000E+20
 34
1.000000000000000E+20
 15
-1.000000000000000E+20
 25
-1.000000000000000E+20
 35
-1.000000000000000E+20
146
0.0
 13
0.0
 23
0.0
 33
0.0
 16
1.0
 26
0.0
 36
0.0
 17
0.0
 27
1.0
 37
0.0
 76
     0
330
1F
331
29
  0
MLINESTYLE
  5
18
102
{ACAD_REACTORS
330
17
102
}
330
17
100
AcDbMlineStyle
  2
Standard
 70
     0
  3

 62
   256
 51
90.0
 52
90.0
 71
     2
 49
0.5
 62
   256
  6
BYLAYER
 49
-0.5
 62
   256
  6
BYLAYER
  0
ACDBPLACEHOLDER
  5
F
102
{ACAD_REACTORS
330
E
102
}
330
E
  0
SCALE
  5
48
102
{ACAD_REACTORS
330
47
102
}
330
47
100
AcDbScale
 70
     0
300
1:1
140
1.0
141
1.0
290
     1
  0
SCALE
  5
49
102
{ACAD_REACTORS
330
47
102
}
330
47
100
AcDbScale
 70
     0
300
1:2
140
1.0
141
2.0
290
     0
  0
SCALE
  5
4A
102
{ACAD_REACTORS
330
47
102
}
330
47
100
AcDbScale
 70
     0
300
1:4
140
1.0
141
4.0
290
     0
  0
SCALE
  5
4B
102
{ACAD_REACTORS
330
47
102
}
330
47
100
AcDbScale
 70
     0
300
1:5
140
1.0
141
5.0
290
     0
  0
SCALE
  5
4C
102
{ACAD_REACTORS
330
47
102
}
330
47
100
AcDbScale
 70
     0
300
1:8
140
1.0
141
8.0
290
     0
  0
SCALE
  5
4D
102
{ACAD_REACTORS
330
47
102
}
330
47
100
AcDbScale
 70
     0
300
1:10
140
1.0
141
10.0
290
     0
  0
SCALE
  5
4E
102
{ACAD_REACTORS
330
47
102
}
330
47
100
AcDbScale
 70
     0
300
1:16
140
1.0
141
16.0
290
     0
  0
SCALE
  5
4F
102
{ACAD_REACTORS
330
47
102
}
330
47
100
AcDbScale
 70
     0
300
1:20
140
1.0
141
20.0
290
     0
  0
SCALE
  5
50
102
{ACAD_REACTORS
330
47
102
}
330
47
100
AcDbScale
 70
     0
300
1:30
140
1.0
141
30.0
290
     0
  0
SCALE
  5
51
102
{ACAD_REACTORS
330
47
102
}
330
47
100
AcDbScale
 70
     0
300
1:40
140
1.0
141
40.0
290
     0
  0
SCALE
  5
52
102
{ACAD_REACTORS
330
47
102
}
330
47
100
AcDbScale
 70
     0
300
1:50
140
1.0
141
50.0
290
     0
  0
SCALE
  5
53
102
{ACAD_REACTORS
330
47
102
}
330
47
100
AcDbScale
 70
     0
300
1:100
140
1.0
141
100.0
290
     0
  0
SCALE
  5
54
102
{ACAD_REACTORS
330
47
102
}
330
47
100
AcDbScale
 70
     0
300
2:1
140
2.0
141
1.0
290
     0
  0
SCALE
  5
55
102
{ACAD_REACTORS
330
47
102
}
330
47
100
AcDbScale
 70
     0
300
4:1
140
4.0
141
1.0
290
     0
  0
SCALE
  5
56
102
{ACAD_REACTORS
330
47
102
}
330
47
100
AcDbScale
 70
     0
300
8:1
140
8.0
141
1.0
290
     0
  0
SCALE
  5
57
102
{ACAD_REACTORS
330
47
102
}
330
47
100
AcDbScale
 70
     0
300
10:1
140
10.0
141
1.0
290
     0
  0
SCALE
  5
58
102
{ACAD_REACTORS
330
47
102
}
330
47
100
AcDbScale
 70
     0
300
100:1
140
100.0
141
1.0
290
     0
  0
SCALE
  5
59
102
{ACAD_REACTORS
330
47
102
}
330
47
100
AcDbScale
 70
     0
300
1/128" = 1'-0"
140
0.0078125
141
12.0
290
     0
  0
SCALE
  5
5A
102
{ACAD_REACTORS
330
47
102
}
330
47
100
AcDbScale
 70
     0
300
1/64" = 1'-0"
140
0.015625
141
12.0
290
     0
  0
SCALE
  5
5B
102
{ACAD_REACTORS
330
47
102
}
330
47
100
AcDbScale
 70
     0
300
1/32" = 1'-0"
140
0.03125
141
12.0
290
     0
  0
SCALE
  5
5C
102
{ACAD_REACTORS
330
47
102
}
330
47
100
AcDbScale
 70
     0
300
1/16" = 1'-0"
140
0.0625
141
12.0
290
     0
  0
SCALE
  5
5D
102
{ACAD_REACTORS
330
47
102
}
330
47
100
AcDbScale
 70
     0
300
3/32" = 1'-0"
140
0.09375
141
12.0
290
     0
  0
SCALE
  5
5E
102
{ACAD_REACTORS
330
47
102
}
330
47
100
AcDbScale
 70
     0
300
1/8" = 1'-0"
140
0.125
141
12.0
290
     0
  0
SCALE
  5
5F
102
{ACAD_REACTORS
330
47
102
}
330
47
100
AcDbScale
 70
     0
300
3/16" = 1'-0"
140
0.1875
141
12.0
290
     0
  0
SCALE
  5
60
102
{ACAD_REACTORS
330
47
102
}
330
47
100
AcDbScale
 70
     0
300
1/4" = 1'-0"
140
0.25
141
12.0
290
     0
  0
SCALE
  5
61
102
{ACAD_REACTORS
330
47
102
}
330
47
100
AcDbScale
 70
     0
300
3/8" = 1'-0"
140
0.375
141
12.0
290
     0
  0
SCALE
  5
62
102
{ACAD_REACTORS
330
47
102
}
330
47
100
AcDbScale
 70
     0
300
1/2" = 1'-0"
140
0.5
141
12.0
290
     0
  0
SCALE
  5
63
102
{ACAD_REACTORS
330
47
102
}
330
47
100
AcDbScale
 70
     0
300
3/4" = 1'-0"
140
0.75
141
12.0
290
     0
  0
SCALE
  5
64
102
{ACAD_REACTORS
330
47
102
}
330
47
100
AcDbScale
 70
     0
300
1" = 1'-0"
140
1.0
141
12.0
290
     0
  0
SCALE
  5
65
102
{ACAD_REACTORS
330
47
102
}
330
47
100
AcDbScale
 70
     0
300
1-1/2" = 1'-0"
140
1.5
141
12.0
290
     0
  0
SCALE
  5
66
102
{ACAD_REACTORS
330
47
102
}
330
47
100
AcDbScale
 70
     0
300
3" = 1'-0"
140
3.0
141
12.0
290
     0
  0
SCALE
  5
67
102
{ACAD_REACTORS
330
47
102
}
330
47
100
AcDbScale
 70
     0
300
6" = 1'-0"
140
6.0
141
12.0
290
     0
  0
SCALE
  5
68
102
{ACAD_REACTORS
330
47
102
}
330
47
100
AcDbScale
 70
     0
300
1'-0" = 1'-0"
140
12.0
141
12.0
290
     0
  0
ENDSEC
  0
EOF
