  0
SECTION
  2
HEADER
  9
$ACADVER
  1
AC1015
  9
$ACADMAINTVER
 70
     6
  9
$DWGCODEPAGE
  3
ANSI_949
  9
$INSBASE
 10
0.0
 20
0.0
 30
0.0
  9
$EXTMIN
 10
1.000000000000000E+20
 20
1.000000000000000E+20
 30
1.000000000000000E+20
  9
$EXTMAX
 10
-1.000000000000000E+20
 20
-1.000000000000000E+20
 30
-1.000000000000000E+20
  9
$LIMMIN
 10
0.0
 20
0.0
  9
$LIMMAX
 10
420.0
 20
297.0
  9
$ORTHOMODE
 70
     1
  9
$REGENMODE
 70
     1
  9
$FILLMODE
 70
     1
  9
$QTEXTMODE
 70
     0
  9
$MIRRTEXT
 70
     1
  9
$LTSCALE
 40
1.0
  9
$ATTMODE
 70
     1
  9
$TEXTSIZE
 40
3.5
  9
$TRACEWID
 40
1.0
  9
$TEXTSTYLE
  7
Standard
  9
$CLAYER
  8
0
  9
$CELTYPE
  6
ByLayer
  9
$CECOLOR
 62
   256
  9
$CELTSCALE
 40
1.0
  9
$DISPSILH
 70
     0
  9
$DIMSCALE
 40
1.0
  9
$DIMASZ
 40
3.302
  9
$DIMEXO
 40
1.0
  9
$DIMDLI
 40
3.75
  9
$DIMRND
 40
0.0
  9
$DIMDLE
 40
0.0
  9
$DIMEXE
 40
1.0
  9
$DIMTP
 40
0.0
  9
$DIMTM
 40
0.0
  9
$DIMTXT
 40
3.5
  9
$DIMCEN
 40
2.5
  9
$DIMTSZ
 40
0.0
  9
$DIMTOL
 70
     0
  9
$DIMLIM
 70
     0
  9
$DIMTIH
 70
     1
  9
$DIMTOH
 70
     1
  9
$DIMSE1
 70
     0
  9
$DIMSE2
 70
     0
  9
$DIMTAD
 70
     1
  9
$DIMZIN
 70
     0
  9
$DIMBLK
  1

  9
$DIMASO
 70
     1
  9
$DIMSHO
 70
     1
  9
$DIMPOST
  1

  9
$DIMAPOST
  1

  9
$DIMALT
 70
     0
  9
$DIMALTD
 70
     3
  9
$DIMALTF
 40
0.0393700787401575
  9
$DIMLFAC
 40
1.0
  9
$DIMTOFL
 70
     1
  9
$DIMTVP
 40
0.0
  9
$DIMTIX
 70
     0
  9
$DIMSOXD
 70
     0
  9
$DIMSAH
 70
     0
  9
$DIMBLK1
  1

  9
$DIMBLK2
  1

  9
$DIMSTYLE
  2
ISO-25
  9
$DIMCLRD
 70
     0
  9
$DIMCLRE
 70
     0
  9
$DIMCLRT
 70
     0
  9
$DIMTFAC
 40
1.0
  9
$DIMGAP
 40
1.524
  9
$DIMJUST
 70
     0
  9
$DIMSD1
 70
     0
  9
$DIMSD2
 70
     0
  9
$DIMTOLJ
 70
     0
  9
$DIMTZIN
 70
     0
  9
$DIMALTZ
 70
     0
  9
$DIMALTTZ
 70
     0
  9
$DIMUPT
 70
     0
  9
$DIMDEC
 70
     2
  9
$DIMTDEC
 70
     2
  9
$DIMALTU
 70
     2
  9
$DIMALTTD
 70
     3
  9
$DIMTXSTY
  7
Standard
  9
$DIMAUNIT
 70
     0
  9
$DIMADEC
 70
     2
  9
$DIMALTRND
 40
0.0
  9
$DIMAZIN
 70
     0
  9
$DIMDSEP
 70
    44
  9
$DIMATFIT
 70
     3
  9
$DIMFRAC
 70
     0
  9
$DIMLDRBLK
  1

  9
$DIMLUNIT
 70
     2
  9
$DIMLWD
 70
    -2
  9
$DIMLWE
 70
    -2
  9
$DIMTMOVE
 70
     0
  9
$LUNITS
 70
     2
  9
$LUPREC
 70
     2
  9
$SKETCHINC
 40
1.0
  9
$FILLETRAD
 40
10.0
  9
$AUNITS
 70
     0
  9
$AUPREC
 70
     2
  9
$MENU
  1
.
  9
$ELEVATION
 40
0.0
  9
$PELEVATION
 40
0.0
  9
$THICKNESS
 40
0.0
  9
$LIMCHECK
 70
     0
  9
$CHAMFERA
 40
0.0
  9
$CHAMFERB
 40
0.0
  9
$CHAMFERC
 40
0.0
  9
$CHAMFERD
 40
0.0
  9
$SKPOLY
 70
     0
  9
$TDCREATE
 40
2458313.471024653
  9
$TDUCREATE
 40
2458313.096024653
  9
$TDUPDATE
 40
2458319.358021725
  9
$TDUUPDATE
 40
2458318.983021725
  9
$TDINDWG
 40
0.0023534491
  9
$TDUSRTIMER
 40
2458318.982712581
  9
$USRTIMER
 70
     1
  9
$ANGBASE
 50
0.0
  9
$ANGDIR
 70
     0
  9
$PDMODE
 70
     0
  9
$PDSIZE
 40
-1.0
  9
$PLINEWID
 40
0.0
  9
$SPLFRAME
 70
     0
  9
$SPLINETYPE
 70
     6
  9
$SPLINESEGS
 70
     8
  9
$HANDSEED
  5
4F0
  9
$SURFTAB1
 70
     6
  9
$SURFTAB2
 70
     6
  9
$SURFTYPE
 70
     6
  9
$SURFU
 70
     6
  9
$SURFV
 70
     6
  9
$UCSBASE
  2

  9
$UCSNAME
  2

  9
$UCSORG
 10
0.0
 20
0.0
 30
0.0
  9
$UCSXDIR
 10
1.0
 20
0.0
 30
0.0
  9
$UCSYDIR
 10
0.0
 20
1.0
 30
0.0
  9
$UCSORTHOREF
  2

  9
$UCSORTHOVIEW
 70
     0
  9
$UCSORGTOP
 10
0.0
 20
0.0
 30
0.0
  9
$UCSORGBOTTOM
 10
0.0
 20
0.0
 30
0.0
  9
$UCSORGLEFT
 10
0.0
 20
0.0
 30
0.0
  9
$UCSORGRIGHT
 10
0.0
 20
0.0
 30
0.0
  9
$UCSORGFRONT
 10
0.0
 20
0.0
 30
0.0
  9
$UCSORGBACK
 10
0.0
 20
0.0
 30
0.0
  9
$PUCSBASE
  2

  9
$PUCSNAME
  2

  9
$PUCSORG
 10
0.0
 20
0.0
 30
0.0
  9
$PUCSXDIR
 10
1.0
 20
0.0
 30
0.0
  9
$PUCSYDIR
 10
0.0
 20
1.0
 30
0.0
  9
$PUCSORTHOREF
  2

  9
$PUCSORTHOVIEW
 70
     0
  9
$PUCSORGTOP
 10
0.0
 20
0.0
 30
0.0
  9
$PUCSORGBOTTOM
 10
0.0
 20
0.0
 30
0.0
  9
$PUCSORGLEFT
 10
0.0
 20
0.0
 30
0.0
  9
$PUCSORGRIGHT
 10
0.0
 20
0.0
 30
0.0
  9
$PUCSORGFRONT
 10
0.0
 20
0.0
 30
0.0
  9
$PUCSORGBACK
 10
0.0
 20
0.0
 30
0.0
  9
$USERI1
 70
     0
  9
$USERI2
 70
     0
  9
$USERI3
 70
     0
  9
$USERI4
 70
     0
  9
$USERI5
 70
     0
  9
$USERR1
 40
0.0
  9
$USERR2
 40
0.0
  9
$USERR3
 40
0.0
  9
$USERR4
 40
0.0
  9
$USERR5
 40
0.0
  9
$WORLDVIEW
 70
     1
  9
$SHADEDGE
 70
     3
  9
$SHADEDIF
 70
    70
  9
$TILEMODE
 70
     1
  9
$MAXACTVP
 70
    64
  9
$PINSBASE
 10
0.0
 20
0.0
 30
0.0
  9
$PLIMCHECK
 70
     0
  9
$PEXTMIN
 10
1.000000000000000E+20
 20
1.000000000000000E+20
 30
1.000000000000000E+20
  9
$PEXTMAX
 10
-1.000000000000000E+20
 20
-1.000000000000000E+20
 30
-1.000000000000000E+20
  9
$PLIMMIN
 10
0.0
 20
0.0
  9
$PLIMMAX
 10
0.0
 20
0.0
  9
$UNITMODE
 70
     0
  9
$VISRETAIN
 70
     1
  9
$PLINEGEN
 70
     0
  9
$PSLTSCALE
 70
     1
  9
$TREEDEPTH
 70
  3020
  9
$CMLSTYLE
  2
Standard
  9
$CMLJUST
 70
     0
  9
$CMLSCALE
 40
20.0
  9
$PROXYGRAPHICS
 70
     1
  9
$MEASUREMENT
 70
     1
  9
$CELWEIGHT
370
    -1
  9
$ENDCAPS
280
     0
  9
$JOINSTYLE
280
     0
  9
$LWDISPLAY
290
     1
  9
$INSUNITS
 70
     4
  9
$HYPERLINKBASE
  1

  9
$STYLESHEET
  1

  9
$XEDIT
290
     1
  9
$CEPSNTYPE
380
     0
  9
$PSTYLEMODE
290
     1
  9
$FINGERPRINTGUID
  2
{C68E70E3-F0E6-457F-803B-D8457C8AD374}
  9
$VERSIONGUID
  2
{FAEB1C32-E019-11D5-929B-00C0DF256EC4}
  9
$EXTNAMES
290
     1
  9
$PSVPSCALE
 40
0.0
  9
$OLESTARTUP
290
     0
  0
ENDSEC
  0
SECTION
  2
CLASSES
  0
CLASS
  1
ACDBDICTIONARYWDFLT
  2
AcDbDictionaryWithDefault
  3
ObjectDBX Classes
 90
        0
280
     0
281
     0
  0
CLASS
  1
VISUALSTYLE
  2
AcDbVisualStyle
  3
ObjectDBX Classes
 90
     4095
280
     0
281
     0
  0
CLASS
  1
MATERIAL
  2
AcDbMaterial
  3
ObjectDBX Classes
 90
     1153
280
     0
281
     0
  0
CLASS
  1
SCALE
  2
AcDbScale
  3
ObjectDBX Classes
 90
     1153
280
     0
281
     0
  0
CLASS
  1
SUN
  2
AcDbSun
  3
SCENEOE
 90
     1153
280
     0
281
     0
  0
CLASS
  1
ACDBPLACEHOLDER
  2
AcDbPlaceHolder
  3
ObjectDBX Classes
 90
        0
280
     0
281
     0
  0
CLASS
  1
LAYOUT
  2
AcDbLayout
  3
ObjectDBX Classes
 90
        0
280
     0
281
     0
  0
CLASS
  1
TABLESTYLE
  2
AcDbTableStyle
  3
ObjectDBX Classes
 90
     4095
280
     0
281
     0
  0
CLASS
  1
MLEADERSTYLE
  2
AcDbMLeaderStyle
  3
ACDB_MLEADERSTYLE_CLASS
 90
     4095
280
     0
281
     0
  0
CLASS
  1
RASTERVARIABLES
  2
AcDbRasterVariables
  3
ISM
 90
        0
280
     0
281
     0
  0
CLASS
  1
DIMASSOC
  2
AcDbDimAssoc
  3
"AcDbDimAssoc|Product Desc:     AcDim ARX App For Dimension|Company:          Autodesk, Inc.|WEB Address:      www.autodesk.com"
 90
        0
280
     0
281
     0
  0
ENDSEC
  0
SECTION
  2
TABLES
  0
TABLE
  2
VPORT
  5
8
330
0
100
AcDbSymbolTable
 70
     1
  0
VPORT
  5
29
330
8
100
AcDbSymbolTableRecord
100
AcDbViewportTableRecord
  2
*Active
 70
     0
 10
0.0
 20
0.0
 11
1.0
 21
1.0
 12
3.665247627639914
 22
-4.354888729535084
 13
0.0
 23
0.0
 14
10.0
 24
10.0
 15
10.0
 25
10.0
 16
0.0
 26
0.0
 36
1.0
 17
0.0
 27
0.0
 37
0.0
 40
126.6149923872771
 41
1.632093933463796
 42
50.0
 43
0.0
 44
0.0
 50
0.0
 51
0.0
 71
    16
 72
  2000
 73
     1
 74
     3
 75
     0
 76
     0
 77
     0
 78
     0
281
     0
 65
     1
110
0.0
120
0.0
130
0.0
111
1.0
121
0.0
131
0.0
112
0.0
122
1.0
132
0.0
 79
     0
146
0.0
  0
ENDTAB
  0
TABLE
  2
LTYPE
  5
5
330
0
100
AcDbSymbolTable
 70
     6
  0
LTYPE
  5
14
330
5
100
AcDbSymbolTableRecord
100
AcDbLinetypeTableRecord
  2
ByBlock
 70
     0
  3

 72
    65
 73
     0
 40
0.0
  0
LTYPE
  5
15
330
5
100
AcDbSymbolTableRecord
100
AcDbLinetypeTableRecord
  2
ByLayer
 70
     0
  3

 72
    65
 73
     0
 40
0.0
  0
LTYPE
  5
16
330
5
100
AcDbSymbolTableRecord
100
AcDbLinetypeTableRecord
  2
Continuous
 70
     0
  3
Solid line
 72
    65
 73
     0
 40
0.0
  0
LTYPE
  5
6A
330
5
100
AcDbSymbolTableRecord
100
AcDbLinetypeTableRecord
  2
HIDDEN
 70
     0
  3
Hidden __ __ __ __ __ __ __ __ __ __ __ __ __ __
 72
    65
 73
     2
 40
1.905
 49
1.27
 74
     0
 49
-0.635
 74
     0
  0
LTYPE
  5
6B
330
5
100
AcDbSymbolTableRecord
100
AcDbLinetypeTableRecord
  2
PHANTOM
 70
     0
  3
Phantom ______  __  __  ______  __  __  ______
 72
    65
 73
     6
 40
12.7
 49
6.35
 74
     0
 49
-1.27
 74
     0
 49
1.27
 74
     0
 49
-1.27
 74
     0
 49
1.27
 74
     0
 49
-1.27
 74
     0
  0
LTYPE
  5
6C
330
5
100
AcDbSymbolTableRecord
100
AcDbLinetypeTableRecord
  2
CENTER
 70
     0
  3
Center ____ _ ____ _ ____ _ ____ _ ____ _ ____
 72
    65
 73
     4
 40
10.16
 49
6.35
 74
     0
 49
-1.27
 74
     0
 49
1.27
 74
     0
 49
-1.27
 74
     0
  0
LTYPE
  5
6D
330
5
100
AcDbSymbolTableRecord
100
AcDbLinetypeTableRecord
  2
CENTERX2
 70
     0
  3
Center (2x) ________  __  ________  __  _____
 72
    65
 73
     4
 40
20.32
 49
12.7
 74
     0
 49
-2.54
 74
     0
 49
2.54
 74
     0
 49
-2.54
 74
     0
  0
LTYPE
  5
6E
330
5
100
AcDbSymbolTableRecord
100
AcDbLinetypeTableRecord
  2
DOT2
 70
     0
  3
Dot (.5x) ........................................
 72
    65
 73
     2
 40
0.635
 49
0.0
 74
     0
 49
-0.635
 74
     0
  0
ENDTAB
  0
TABLE
  2
LAYER
  5
2
102
{ACAD_XDICTIONARY
360
1DB
102
}
330
0
100
AcDbSymbolTable
 70
    18
  0
LAYER
  5
10
330
2
100
AcDbSymbolTableRecord
100
AcDbLayerTableRecord
  2
0
 70
     0
 62
     7
  6
Continuous
370
    -3
390
F
  0
LAYER
  5
6F
330
2
100
AcDbSymbolTableRecord
100
AcDbLayerTableRecord
  2
FORMAT
 70
     0
 62
     2
  6
Continuous
370
    -3
390
F
  0
LAYER
  5
70
330
2
100
AcDbSymbolTableRecord
100
AcDbLayerTableRecord
  2
외형선
 70
     0
 62
     4
  6
Continuous
370
    30
390
F
  0
LAYER
  5
71
330
2
100
AcDbSymbolTableRecord
100
AcDbLayerTableRecord
  2
숨은선
 70
     0
 62
     2
  6
HIDDEN
370
    15
390
F
  0
LAYER
  5
72
330
2
100
AcDbSymbolTableRecord
100
AcDbLayerTableRecord
  2
중심선
 70
     0
 62
     1
  6
CENTERX2
370
    -3
390
F
  0
LAYER
  5
73
330
2
100
AcDbSymbolTableRecord
100
AcDbLayerTableRecord
  2
파단선
 70
     0
 62
     4
  6
Continuous
370
    -3
390
F
  0
LAYER
  5
74
330
2
100
AcDbSymbolTableRecord
100
AcDbLayerTableRecord
  2
해칭선
 70
     0
 62
   100
  6
Continuous
370
    -3
390
F
  0
LAYER
  5
75
330
2
100
AcDbSymbolTableRecord
100
AcDbLayerTableRecord
  2
가는실선
 70
     0
 62
     4
  6
Continuous
370
    -3
390
F
  0
LAYER
  5
76
330
2
100
AcDbSymbolTableRecord
100
AcDbLayerTableRecord
  2
치수_보조선
 70
     0
 62
     4
  6
Continuous
370
    -3
390
F
  0
LAYER
  5
77
330
2
100
AcDbSymbolTableRecord
100
AcDbLayerTableRecord
  2
치수문자_일반주서
 70
     0
 62
     7
  6
Continuous
370
    15
390
F
  0
LAYER
  5
78
330
2
100
AcDbSymbolTableRecord
100
AcDbLayerTableRecord
  2
개별주서
 70
     0
 62
   100
  6
Continuous
370
    30
390
F
  0
LAYER
  5
79
330
2
100
AcDbSymbolTableRecord
100
AcDbLayerTableRecord
  2
중간선
 70
     0
 62
     2
  6
Continuous
370
    15
390
F
  0
LAYER
  5
7A
330
2
100
AcDbSymbolTableRecord
100
AcDbLayerTableRecord
  2
윤곽선
 70
     0
 62
     3
  6
Continuous
370
    40
390
F
  0
LAYER
  5
7B
330
2
100
AcDbSymbolTableRecord
100
AcDbLayerTableRecord
  2
중심마크
 70
     0
 62
   100
  6
Continuous
370
    30
390
F
  0
LAYER
  5
7C
330
2
100
AcDbSymbolTableRecord
100
AcDbLayerTableRecord
  2
가상선
 70
     0
 62
     4
  6
PHANTOM
370
    -3
390
F
  0
LAYER
  5
7D
330
2
100
AcDbSymbolTableRecord
100
AcDbLayerTableRecord
  2
특수지정선
 70
     0
 62
     5
  6
CENTERX2
370
    60
390
F
  0
LAYER
  5
7E
330
2
100
AcDbSymbolTableRecord
100
AcDbLayerTableRecord
  2
참조1
 70
     0
 62
    -4
  6
Continuous
370
    -3
390
F
  0
LAYER
  5
157
330
2
100
AcDbSymbolTableRecord
100
AcDbLayerTableRecord
  2
Defpoints
 70
     0
 62
     7
  6
Continuous
290
     0
370
    -3
390
F
  0
ENDTAB
  0
TABLE
  2
STYLE
  5
3
330
0
100
AcDbSymbolTable
 70
     2
  0
STYLE
  5
11
330
3
100
AcDbSymbolTableRecord
100
AcDbTextStyleTableRecord
  2
Standard
 70
     0
 40
0.0
 41
1.0
 50
0.0
 71
     0
 42
3.5
  3
txt
  4

  0
STYLE
  5
94
330
3
100
AcDbSymbolTableRecord
100
AcDbTextStyleTableRecord
  2
SLDTEXTSTYLE0
 70
     0
 40
0.0
 41
0.75
 50
0.0
 71
     0
 42
3.5
  3
TXT
  4

  0
ENDTAB
  0
TABLE
  2
VIEW
  5
6
330
0
100
AcDbSymbolTable
 70
     0
  0
ENDTAB
  0
TABLE
  2
UCS
  5
7
330
0
100
AcDbSymbolTable
 70
     0
  0
ENDTAB
  0
TABLE
  2
APPID
  5
9
330
0
100
AcDbSymbolTable
 70
     1
  0
APPID
  5
12
330
9
100
AcDbSymbolTableRecord
100
AcDbRegAppTableRecord
  2
ACAD
 70
     0
  0
ENDTAB
  0
TABLE
  2
DIMSTYLE
  5
A
330
0
100
AcDbSymbolTable
 70
     3
100
AcDbDimStyleTable
  0
DIMSTYLE
105
27
330
A
100
AcDbSymbolTableRecord
100
AcDbDimStyleTableRecord
  2
ISO-25
 70
     0
 41
2.5
 42
0.625
 43
3.75
 44
1.25
 73
     0
 74
     0
 77
     1
 78
     8
140
2.5
141
2.5
143
0.03937007874016
147
0.625
171
     3
172
     1
178
     0
271
     2
272
     2
274
     3
278
    44
283
     0
284
     8
340
11
  0
DIMSTYLE
105
D4
102
{ACAD_REACTORS
330
D3
330
110
330
E8
330
FD
102
}
330
A
100
AcDbSymbolTableRecord
100
AcDbDimStyleTableRecord
  2
SLDDIMSTYLE0
 70
     0
 41
3.302
 44
0.0
 45
0.000000001
 73
     0
 74
     0
 77
     1
 78
    12
 79
     3
140
3.5
143
0.0393700787401575
147
0.875
148
0.000000001
170
     1
172
     1
173
     1
178
     0
271
     2
272
     2
276
     2
284
    12
289
     0
340
94
  0
DIMSTYLE
105
E9
330
A
100
AcDbSymbolTableRecord
100
AcDbDimStyleTableRecord
  2
SLDDIMSTYLE1
 70
     0
 41
3.302
 44
0.0
 45
0.000000001
 73
     0
 74
     0
 77
     1
 78
    12
 79
     3
140
3.5
143
0.0393700787401575
147
0.875
148
0.000000001
170
     1
173
     1
178
     0
271
     2
272
     2
276
     2
284
    12
340
94
  0
ENDTAB
  0
TABLE
  2
BLOCK_RECORD
  5
1
330
0
100
AcDbSymbolTable
 70
    27
  0
BLOCK_RECORD
  5
1F
330
1
100
AcDbSymbolTableRecord
100
AcDbBlockTableRecord
  2
*Model_Space
340
22
  0
BLOCK_RECORD
  5
1B
330
1
100
AcDbSymbolTableRecord
100
AcDbBlockTableRecord
  2
*Paper_Space
340
1E
  0
BLOCK_RECORD
  5
23
330
1
100
AcDbSymbolTableRecord
100
AcDbBlockTableRecord
  2
*Paper_Space0
340
26
  0
BLOCK_RECORD
  5
7F
330
1
100
AcDbSymbolTableRecord
100
AcDbBlockTableRecord
  2
블럭10
340
0
102
{BLKREFS
331
CC
102
}
  0
BLOCK_RECORD
  5
D5
330
1
100
AcDbSymbolTableRecord
100
AcDbBlockTableRecord
  2
_D
340
0
  0
BLOCK_RECORD
  5
EA
330
1
100
AcDbSymbolTableRecord
100
AcDbBlockTableRecord
  2
_D_1
340
0
  0
BLOCK_RECORD
  5
FE
330
1
100
AcDbSymbolTableRecord
100
AcDbBlockTableRecord
  2
_D_2
340
0
  0
BLOCK_RECORD
  5
111
330
1
100
AcDbSymbolTableRecord
100
AcDbBlockTableRecord
  2
_D_3
340
0
  0
BLOCK_RECORD
  5
12B
330
1
100
AcDbSymbolTableRecord
100
AcDbBlockTableRecord
  2
SW_DOWELSYMBOL_0
340
0
102
{BLKREFS
331
131
102
}
  0
BLOCK_RECORD
  5
1DF
330
1
100
AcDbSymbolTableRecord
100
AcDbBlockTableRecord
  2
*D7
340
0
  0
BLOCK_RECORD
  5
1EE
330
1
100
AcDbSymbolTableRecord
100
AcDbBlockTableRecord
  2
*D8
340
0
  0
BLOCK_RECORD
  5
1FD
330
1
100
AcDbSymbolTableRecord
100
AcDbBlockTableRecord
  2
*D9
340
0
  0
BLOCK_RECORD
  5
235
330
1
100
AcDbSymbolTableRecord
100
AcDbBlockTableRecord
  2
*D10
340
0
  0
BLOCK_RECORD
  5
244
330
1
100
AcDbSymbolTableRecord
100
AcDbBlockTableRecord
  2
*D11
340
0
  0
BLOCK_RECORD
  5
253
330
1
100
AcDbSymbolTableRecord
100
AcDbBlockTableRecord
  2
*D12
340
0
  0
BLOCK_RECORD
  5
2F0
330
1
100
AcDbSymbolTableRecord
100
AcDbBlockTableRecord
  2
*D13
340
0
  0
BLOCK_RECORD
  5
2FF
330
1
100
AcDbSymbolTableRecord
100
AcDbBlockTableRecord
  2
*D14
340
0
  0
BLOCK_RECORD
  5
30E
330
1
100
AcDbSymbolTableRecord
100
AcDbBlockTableRecord
  2
*D15
340
0
  0
BLOCK_RECORD
  5
34D
330
1
100
AcDbSymbolTableRecord
100
AcDbBlockTableRecord
  2
*D16
340
0
  0
BLOCK_RECORD
  5
35C
330
1
100
AcDbSymbolTableRecord
100
AcDbBlockTableRecord
  2
*D17
340
0
  0
BLOCK_RECORD
  5
36B
330
1
100
AcDbSymbolTableRecord
100
AcDbBlockTableRecord
  2
*D18
340
0
  0
BLOCK_RECORD
  5
37B
330
1
100
AcDbSymbolTableRecord
100
AcDbBlockTableRecord
  2
*D19
340
0
  0
BLOCK_RECORD
  5
416
330
1
100
AcDbSymbolTableRecord
100
AcDbBlockTableRecord
  2
*D20
340
0
  0
BLOCK_RECORD
  5
425
330
1
100
AcDbSymbolTableRecord
100
AcDbBlockTableRecord
  2
*D21
340
0
  0
BLOCK_RECORD
  5
434
330
1
100
AcDbSymbolTableRecord
100
AcDbBlockTableRecord
  2
*D22
340
0
  0
BLOCK_RECORD
  5
473
330
1
100
AcDbSymbolTableRecord
100
AcDbBlockTableRecord
  2
*D23
340
0
  0
BLOCK_RECORD
  5
482
330
1
100
AcDbSymbolTableRecord
100
AcDbBlockTableRecord
  2
*D24
340
0
  0
BLOCK_RECORD
  5
491
330
1
100
AcDbSymbolTableRecord
100
AcDbBlockTableRecord
  2
*D25
340
0
  0
ENDTAB
  0
ENDSEC
  0
SECTION
  2
BLOCKS
  0
BLOCK
  5
20
330
1F
100
AcDbEntity
  8
0
100
AcDbBlockBegin
  2
*Model_Space
 70
     0
 10
0.0
 20
0.0
 30
0.0
  3
*Model_Space
  1
*Model_Space
  0
ENDBLK
  5
21
330
1F
100
AcDbEntity
  8
0
100
AcDbBlockEnd
  0
BLOCK
  5
1C
330
1B
100
AcDbEntity
 67
     1
  8
0
100
AcDbBlockBegin
  2
*Paper_Space
 70
     0
 10
0.0
 20
0.0
 30
0.0
  3
*Paper_Space
  1
*Paper_Space
  0
ENDBLK
  5
1D
330
1B
100
AcDbEntity
 67
     1
  8
0
100
AcDbBlockEnd
  0
BLOCK
  5
24
330
23
100
AcDbEntity
  8
0
100
AcDbBlockBegin
  2
*Paper_Space0
 70
     0
 10
0.0
 20
0.0
 30
0.0
  3
*Paper_Space0
  1
*Paper_Space0
  0
ENDBLK
  5
25
330
23
100
AcDbEntity
  8
0
100
AcDbBlockEnd
  0
BLOCK
  5
80
330
7F
100
AcDbEntity
  8
0
100
AcDbBlockBegin
  2
블럭10
 70
     2
 10
0.0
 20
0.0
 30
0.0
  3
블럭10
  1
블럭10
  0
ELLIPSE
  5
82
330
7F
100
AcDbEntity
  8
중심선
100
AcDbEllipse
 10
20.54032771741204
 20
12.0471743016438
 30
0.0
 11
6.600054785286829
 21
-1.261213355974178E-13
 31
0.0
210
0.0
220
0.0
230
1.0
 40
0.636358354079598
 41
0.9219305317359503
 42
6.513795318482858
  0
ELLIPSE
  5
83
330
7F
100
AcDbEntity
  8
중심선
100
AcDbEllipse
 10
20.54032771746488
 20
12.04717430159265
 30
0.0
 11
3.960054785062283
 21
1.540847449632565E-10
 31
0.0
210
0.0
220
0.0
230
1.0
 40
0.3939339440162632
 41
1.131841032648279
 42
5.62031148352944
  0
LINE
  5
84
330
7F
100
AcDbEntity
  8
중심선
100
AcDbLine
 10
2.268634060543552
 20
16.24717430164393
 30
0.0
 11
5.714909304380834
 21
16.24717430164393
 31
0.0
  0
LINE
  5
85
330
7F
100
AcDbEntity
  8
중심선
100
AcDbLine
 10
5.245725140726316
 20
7.84717430164391
 30
0.0
 11
8.692000384563599
 21
7.84717430164391
 31
0.0
  0
LINE
  5
86
330
7F
100
AcDbEntity
  8
중심선
100
AcDbLine
 10
15.74043728645272
 20
16.24717430164393
 30
0.0
 11
8.692000384563599
 21
7.84717430164391
 31
0.0
  0
LINE
  5
87
330
7F
100
AcDbEntity
  8
중심선
100
AcDbLine
 10
0.1404042013395286
 20
13.71084872107135
 30
0.0
 11
3.58671253028996
 21
13.71088815037384
 31
0.0
  0
LINE
  5
88
330
7F
100
AcDbEntity
  8
중심선
100
AcDbLine
 10
2.750260043222114
 20
10.84717430164391
 30
0.0
 11
6.196535287059397
 21
10.84717430164391
 31
0.0
  0
LINE
  5
89
330
7F
100
AcDbEntity
  8
중심선
100
AcDbLine
 10
12.29416204261559
 20
16.24717430164393
 30
0.0
 11
5.245725140726316
 21
7.84717430164391
 31
0.0
  0
LINE
  5
8A
330
7F
100
AcDbEntity
  8
중심선
100
AcDbLine
 10
10.72767329541681
 20
16.24717430164393
 30
0.0
 11
6.196535287059397
 21
10.84717430164391
 31
0.0
  0
LINE
  5
8B
330
7F
100
AcDbEntity
  8
중심선
100
AcDbLine
 10
7.28139805157953
 20
16.24717430164393
 30
0.0
 11
2.750260043222114
 21
10.84717430164391
 31
0.0
  0
LINE
  5
8C
330
7F
100
AcDbEntity
  8
중심선
100
AcDbLine
 10
5.714909304380834
 20
16.24717430164393
 30
0.0
 11
3.58671253028996
 21
13.71088815037384
 31
0.0
  0
LINE
  5
8D
330
7F
100
AcDbEntity
  8
중심선
100
AcDbLine
 10
2.268634060543552
 20
16.24717430164393
 30
0.0
 11
0.1404042013395286
 21
13.71084872107135
 31
0.0
  0
LINE
  5
8E
330
7F
100
AcDbEntity
  8
중심선
100
AcDbLine
 10
7.28139805157953
 20
16.24717430164393
 30
0.0
 11
10.72767329541681
 21
16.24717430164393
 31
0.0
  0
LINE
  5
8F
330
7F
100
AcDbEntity
  8
중심선
100
AcDbLine
 10
12.29416204261559
 20
16.24717430164393
 30
0.0
 11
15.74043728645272
 21
16.24717430164393
 31
0.0
  0
LINE
  5
90
330
7F
100
AcDbEntity
  8
중심선
100
AcDbLine
 10
19.22036997980202
 20
11.08717430171403
 30
0.0
 11
23.66174974927406
 21
11.08717430171406
 31
0.0
  0
LINE
  5
91
330
7F
100
AcDbEntity
  8
중심선
100
AcDbLine
 10
19.22039502424796
 20
13.00717430171391
 30
0.0
 11
19.22036997980202
 21
11.08717430171403
 31
0.0
  0
LINE
  5
92
330
7F
100
AcDbEntity
  8
중심선
100
AcDbLine
 10
19.22039502424796
 20
13.00717430171391
 30
0.0
 11
26.96566020931264
 21
13.00717430171391
 31
0.0
  0
LINE
  5
93
330
7F
100
AcDbEntity
  8
중심선
100
AcDbLine
 10
22.22332737316547
 20
13.45928029700563
 30
0.0
 11
24.52862924686651
 21
15.39360700705356
 31
0.0
  0
ATTDEF
  5
95
330
7F
100
AcDbEntity
  8
FORMAT
 62
     2
100
AcDbText
 10
4.408487351596664
 20
2.075366912832191
 30
0.0
 40
4.233333333333333
  1
E1053017
 41
0.75
  7
SLDTEXTSTYLE0
 11
4.408487351596664
 21
-0.0412997538344756
 31
0.0
100
AcDbAttributeDefinition
  3

  2
AUTOATTR0
 70
     0
 74
     1
  0
ENDBLK
  5
81
330
7F
100
AcDbEntity
  8
0
100
AcDbBlockEnd
  0
BLOCK
  5
D6
330
D5
100
AcDbEntity
  8
0
100
AcDbBlockBegin
  2
_D
 70
     0
 10
0.0
 20
0.0
 30
0.0
  3
_D
  1
_D
  0
LINE
  5
D8
330
D5
100
AcDbEntity
  8
치수문자_일반주서
 62
     0
370
    -2
100
AcDbLine
 10
42.925
 20
3.373437500000006
 30
0.0
 11
56.0957038077188
 21
3.373437500000055
 31
0.0
  0
LINE
  5
D9
330
D5
100
AcDbEntity
  8
치수문자_일반주서
 62
     0
370
    -2
100
AcDbLine
 10
42.92500000000001
 20
-3.373437499999994
 30
0.0
 11
56.09570380771882
 21
-3.373437499999945
 31
0.0
  0
LINE
  5
DA
330
D5
100
AcDbEntity
  8
치수문자_일반주서
 62
     0
370
    -2
100
AcDbLine
 10
56.0957038077188
 20
3.373437500000055
 30
0.0
 11
56.09570380771865
 21
50.35417989652636
 31
0.0
  0
LINE
  5
DB
330
D5
100
AcDbEntity
  8
치수문자_일반주서
 62
     0
370
    -2
100
AcDbLine
 10
56.0957038077188
 20
3.373437500000055
 30
0.0
 11
56.09570380771882
 21
-3.373437499999945
 31
0.0
  0
LINE
  5
DC
330
D5
100
AcDbEntity
  8
치수문자_일반주서
 62
     0
370
    -2
100
AcDbLine
 10
56.09570380771879
 20
6.675437500000054
 30
0.0
 11
56.09570380771878
 21
9.977437500000054
 31
0.0
  0
LINE
  5
DD
330
D5
100
AcDbEntity
  8
치수문자_일반주서
 62
     0
370
    -2
100
AcDbLine
 10
56.09570380771883
 20
-6.675437499999944
 30
0.0
 11
56.09570380771883
 21
-9.977437499999944
 31
0.0
  0
SOLID
  5
DE
330
D5
100
AcDbEntity
  8
치수문자_일반주서
 62
     0
100
AcDbTrace
 10
55.54537047438546
 20
6.675437500000053
 30
0.0
 11
56.64603714105213
 21
6.675437500000056
 31
0.0
 12
56.0957038077188
 22
3.373437500000055
 32
0.0
 13
56.0957038077188
 23
3.373437500000055
 33
0.0
  0
SOLID
  5
DF
330
D5
100
AcDbEntity
  8
치수문자_일반주서
 62
     0
100
AcDbTrace
 10
56.64603714105216
 20
-6.675437499999942
 30
0.0
 11
55.54537047438549
 21
-6.675437499999946
 31
0.0
 12
56.09570380771882
 22
-3.373437499999945
 32
0.0
 13
56.09570380771882
 23
-3.373437499999945
 33
0.0
  0
MTEXT
  5
E0
330
D5
100
AcDbEntity
  8
치수문자_일반주서
 62
     0
100
AcDbMText
 10
51.7207038077187
 20
35.04167989652634
 30
0.0
 40
3.5
 41
0.0
 71
     2
 72
     1
  1
\A1;%%c6.75 [17/64]
  7
SLDTEXTSTYLE0
 11
-3.159430413754961E-15
 21
1.0
 31
0.0
 73
     1
 44
1.0
  0
POINT
  5
E1
330
D5
100
AcDbEntity
  8
Defpoints
 62
     0
100
AcDbPoint
 10
42.8625
 20
3.373437500000005
 30
0.0
  0
POINT
  5
E2
330
D5
100
AcDbEntity
  8
Defpoints
 62
     0
100
AcDbPoint
 10
42.86250000000001
 20
-3.373437499999995
 30
0.0
  0
POINT
  5
E3
330
D5
100
AcDbEntity
  8
Defpoints
 62
     0
100
AcDbPoint
 10
56.09570380771882
 20
-3.373437499999945
 30
0.0
  0
ENDBLK
  5
D7
330
D5
100
AcDbEntity
  8
0
100
AcDbBlockEnd
  0
BLOCK
  5
EB
330
EA
100
AcDbEntity
  8
0
100
AcDbBlockBegin
  2
_D_1
 70
     0
 10
0.0
 20
0.0
 30
0.0
  3
_D_1
  1
_D_1
  0
LINE
  5
ED
330
EA
100
AcDbEntity
  8
치수문자_일반주서
 62
     0
370
    -2
100
AcDbLine
 10
42.86250000000001
 20
3.435937500000005
 30
0.0
 11
42.86250000000001
 21
20.23264567052732
 31
0.0
  0
LINE
  5
EE
330
EA
100
AcDbEntity
  8
치수문자_일반주서
 62
     0
370
    -2
100
AcDbLine
 10
25.39999999999998
 20
3.428344178242564
 30
0.0
 11
25.39999999999998
 21
20.23264567052732
 31
0.0
  0
LINE
  5
EF
330
EA
100
AcDbEntity
  8
치수문자_일반주서
 62
     0
370
    -2
100
AcDbLine
 10
25.39999999999998
 20
20.23264567052732
 30
0.0
 11
-9.204000000000015
 21
20.23264567052732
 31
0.0
  0
LINE
  5
F0
330
EA
100
AcDbEntity
  8
치수문자_일반주서
 62
     0
370
    -2
100
AcDbLine
 10
42.86250000000001
 20
20.23264567052732
 30
0.0
 11
25.39999999999998
 21
20.23264567052732
 31
0.0
  0
LINE
  5
F1
330
EA
100
AcDbEntity
  8
치수문자_일반주서
 62
     0
370
    -2
100
AcDbLine
 10
46.16450000000001
 20
20.23264567052732
 30
0.0
 11
49.46650000000001
 21
20.23264567052732
 31
0.0
  0
LINE
  5
F2
330
EA
100
AcDbEntity
  8
치수문자_일반주서
 62
     0
370
    -2
100
AcDbLine
 10
22.09799999999998
 20
20.23264567052732
 30
0.0
 11
18.79599999999999
 21
20.23264567052732
 31
0.0
  0
SOLID
  5
F3
330
EA
100
AcDbEntity
  8
치수문자_일반주서
 62
     0
100
AcDbTrace
 10
46.16450000000001
 20
20.78297900386065
 30
0.0
 11
46.16450000000001
 21
19.68231233719398
 31
0.0
 12
42.86250000000001
 22
20.23264567052732
 32
0.0
 13
42.86250000000001
 23
20.23264567052732
 33
0.0
  0
SOLID
  5
F4
330
EA
100
AcDbEntity
  8
치수문자_일반주서
 62
     0
100
AcDbTrace
 10
22.09799999999998
 20
19.68231233719398
 30
0.0
 11
22.09799999999998
 21
20.78297900386065
 31
0.0
 12
25.39999999999998
 22
20.23264567052732
 32
0.0
 13
25.39999999999998
 23
20.23264567052732
 33
0.0
  0
MTEXT
  5
F5
330
EA
100
AcDbEntity
  8
치수문자_일반주서
 62
     0
100
AcDbMText
 10
4.795999999999985
 20
24.60764567052732
 30
0.0
 40
3.5
 41
0.0
 71
     2
 72
     1
  1
\A1;17.46 [11/16]
  7
SLDTEXTSTYLE0
 73
     1
 44
1.0
  0
POINT
  5
F6
330
EA
100
AcDbEntity
  8
Defpoints
 62
     0
100
AcDbPoint
 10
42.86250000000001
 20
3.373437500000005
 30
0.0
  0
POINT
  5
25F
330
EA
100
AcDbEntity
  8
Defpoints
 62
     0
100
AcDbPoint
 10
25.39999999999998
 20
3.365844178242564
 30
0.0
  0
POINT
  5
260
330
EA
100
AcDbEntity
  8
Defpoints
 62
     0
100
AcDbPoint
 10
25.39999999999998
 20
20.23264567052732
 30
0.0
  0
ENDBLK
  5
EC
330
EA
100
AcDbEntity
  8
0
100
AcDbBlockEnd
  0
BLOCK
  5
FF
330
FE
100
AcDbEntity
  8
0
100
AcDbBlockBegin
  2
_D_2
 70
     0
 10
0.0
 20
0.0
 30
0.0
  3
_D_2
  1
_D_2
  0
LINE
  5
101
330
FE
100
AcDbEntity
  8
치수문자_일반주서
 62
     0
370
    -2
100
AcDbLine
 10
42.86250000000001
 20
3.435937500000005
 30
0.0
 11
42.86250000000001
 21
34.60381897475838
 31
0.0
  0
LINE
  5
102
330
FE
100
AcDbEntity
  8
치수문자_일반주서
 62
     0
370
    -2
100
AcDbLine
 10
-42.8625
 20
3.435937500000037
 30
0.0
 11
-42.8625
 21
34.60381897475838
 31
0.0
  0
LINE
  5
103
330
FE
100
AcDbEntity
  8
치수문자_일반주서
 62
     0
370
    -2
100
AcDbLine
 10
39.56050000000001
 20
34.60381897475838
 30
0.0
 11
-39.5605
 21
34.60381897475838
 31
0.0
  0
SOLID
  5
104
330
FE
100
AcDbEntity
  8
치수문자_일반주서
 62
     0
100
AcDbTrace
 10
39.56050000000001
 20
34.05348564142505
 30
0.0
 11
39.56050000000001
 21
35.15415230809172
 31
0.0
 12
42.86250000000001
 22
34.60381897475838
 32
0.0
 13
42.86250000000001
 23
34.60381897475838
 33
0.0
  0
SOLID
  5
105
330
FE
100
AcDbEntity
  8
치수문자_일반주서
 62
     0
100
AcDbTrace
 10
-39.5605
 20
35.15415230809172
 30
0.0
 11
-39.5605
 21
34.05348564142505
 31
0.0
 12
-42.8625
 22
34.60381897475838
 32
0.0
 13
-42.8625
 23
34.60381897475838
 33
0.0
  0
MTEXT
  5
106
330
FE
100
AcDbEntity
  8
치수문자_일반주서
 62
     0
100
AcDbMText
 10
-2.293265816296937
 20
38.97881897475838
 30
0.0
 40
3.5
 41
0.0
 71
     2
 72
     1
  1
\A1;85.73 [3 3/8]
  7
SLDTEXTSTYLE0
 73
     1
 44
1.0
  0
POINT
  5
107
330
FE
100
AcDbEntity
  8
Defpoints
 62
     0
100
AcDbPoint
 10
42.86250000000001
 20
3.373437500000005
 30
0.0
  0
POINT
  5
108
330
FE
100
AcDbEntity
  8
Defpoints
 62
     0
100
AcDbPoint
 10
-42.8625
 20
3.373437500000037
 30
0.0
  0
POINT
  5
109
330
FE
100
AcDbEntity
  8
Defpoints
 62
     0
100
AcDbPoint
 10
-42.8625
 20
34.60381897475838
 30
0.0
  0
ENDBLK
  5
100
330
FE
100
AcDbEntity
  8
0
100
AcDbBlockEnd
  0
BLOCK
  5
112
330
111
100
AcDbEntity
  8
0
100
AcDbBlockBegin
  2
_D_3
 70
     0
 10
0.0
 20
0.0
 30
0.0
  3
_D_3
  1
_D_3
  0
LINE
  5
114
330
111
100
AcDbEntity
  8
치수문자_일반주서
 62
     0
370
    -2
100
AcDbLine
 10
-19.27844817511134
 20
4.762500000000002
 30
0.0
 11
-55.38625000000002
 21
4.762499999999867
 31
0.0
  0
LINE
  5
115
330
111
100
AcDbEntity
  8
치수문자_일반주서
 62
     0
370
    -2
100
AcDbLine
 10
-19.27844817511134
 20
-4.762500000000006
 30
0.0
 11
-55.38624999999998
 21
-4.762500000000141
 31
0.0
  0
LINE
  5
116
330
111
100
AcDbEntity
  8
치수문자_일반주서
 62
     0
370
    -2
100
AcDbLine
 10
-55.38625
 20
1.460499999999867
 30
0.0
 11
-55.38625
 21
-1.460500000000141
 31
0.0
  0
SOLID
  5
117
330
111
100
AcDbEntity
  8
치수문자_일반주서
 62
     0
100
AcDbTrace
 10
-54.83591666666667
 20
1.460499999999869
 30
0.0
 11
-55.93658333333334
 21
1.460499999999865
 31
0.0
 12
-55.38625000000002
 22
4.762499999999867
 32
0.0
 13
-55.38625000000002
 23
4.762499999999867
 33
0.0
  0
SOLID
  5
118
330
111
100
AcDbEntity
  8
치수문자_일반주서
 62
     0
100
AcDbTrace
 10
-55.93658333333333
 20
-1.460500000000143
 30
0.0
 11
-54.83591666666666
 21
-1.460500000000139
 31
0.0
 12
-55.38624999999998
 22
-4.762500000000141
 32
0.0
 13
-55.38624999999998
 23
-4.762500000000141
 33
0.0
  0
MTEXT
  5
119
330
111
100
AcDbEntity
  8
치수문자_일반주서
 62
     0
100
AcDbMText
 10
-59.76125
 20
-0.0000000000000154
 30
0.0
 40
3.5
 41
0.0
 71
     2
 72
     1
  1
\A1;%%c9.53 [3/8]
  7
SLDTEXTSTYLE0
 11
-3.729883127349604E-15
 21
1.0
 31
0.0
 73
     1
 44
1.0
  0
POINT
  5
11A
330
111
100
AcDbEntity
  8
Defpoints
 62
     0
100
AcDbPoint
 10
-19.21594817511134
 20
4.762500000000002
 30
0.0
  0
POINT
  5
11B
330
111
100
AcDbEntity
  8
Defpoints
 62
     0
100
AcDbPoint
 10
-19.21594817511134
 20
-4.762500000000006
 30
0.0
  0
POINT
  5
11C
330
111
100
AcDbEntity
  8
Defpoints
 62
     0
100
AcDbPoint
 10
-55.38624999999998
 20
-4.762500000000141
 30
0.0
  0
ENDBLK
  5
113
330
111
100
AcDbEntity
  8
0
100
AcDbBlockEnd
  0
BLOCK
  5
12C
330
12B
100
AcDbEntity
  8
0
100
AcDbBlockBegin
  2
SW_DOWELSYMBOL_0
 70
     0
 10
0.0
 20
0.0
 30
0.0
  3
SW_DOWELSYMBOL_0
  1
SW_DOWELSYMBOL_0
  0
CIRCLE
  5
12E
330
12B
100
AcDbEntity
  8
해칭선
 62
     0
100
AcDbCircle
 10
0.0
 20
0.0
 30
0.0
 40
3.000000000000008
  0
HATCH
  5
12F
330
12B
100
AcDbEntity
  8
0
  6
Continuous
 62
     0
370
     0
100
AcDbHatch
 10
0.0
 20
0.0
 30
0.0
210
0.0
220
0.0
230
1.0
  2
SOLID
 70
     1
 71
     0
 91
        1
 92
        0
 93
        3
 72
     2
 10
0.0
 20
0.0
 40
3.000000000000008
 50
0.0
 51
90.0
 73
     1
 72
     1
 10
0.0
 20
3.000000000000008
 11
0.0
 21
0.0
 72
     1
 10
0.0
 20
0.0
 11
3.00000000000001
 21
0.0
 97
        0
 75
     0
 76
     1
 98
        1
 10
0.0
 20
0.0
  0
HATCH
  5
130
330
12B
100
AcDbEntity
  8
0
  6
Continuous
 62
     0
370
     0
100
AcDbHatch
 10
0.0
 20
0.0
 30
0.0
210
0.0
220
0.0
230
1.0
  2
SOLID
 70
     1
 71
     0
 91
        1
 92
        0
 93
        3
 72
     2
 10
0.0
 20
0.0
 40
3.000000000000008
 50
180.0
 51
270.0000000000007
 73
     1
 72
     1
 10
0.0
 20
-3.000000000000008
 11
0.0
 21
0.0
 72
     1
 10
0.0
 20
0.0
 11
-3.00000000000001
 21
0.0
 97
        0
 75
     0
 76
     1
 98
        1
 10
0.0
 20
0.0
  0
ENDBLK
  5
12D
330
12B
100
AcDbEntity
  8
0
100
AcDbBlockEnd
  0
BLOCK
  5
1E0
330
1DF
100
AcDbEntity
  8
0
100
AcDbBlockBegin
  2
*D7
 70
     1
 10
0.0
 20
0.0
 30
0.0
  3
*D7
  1
*D8
  0
LINE
  5
1E2
330
1DF
100
AcDbEntity
  8
치수문자_일반주서
 62
     0
370
    -2
100
AcDbLine
 10
88.78750000000002
 20
12.95399999999995
 30
0.0
 11
102.3475756837006
 21
12.954
 31
0.0
  0
LINE
  5
1E3
330
1DF
100
AcDbEntity
  8
치수문자_일반주서
 62
     0
370
    -2
100
AcDbLine
 10
88.7875
 20
6.603999999999951
 30
0.0
 11
102.3475756837007
 21
6.603999999999999
 31
0.0
  0
LINE
  5
1E4
330
1DF
100
AcDbEntity
  8
치수문자_일반주서
 62
     0
370
    -2
100
AcDbLine
 10
102.3475756837006
 20
12.954
 30
0.0
 11
102.3475756837004
 21
55.44690460849533
 31
0.0
  0
LINE
  5
1E5
330
1DF
100
AcDbEntity
  8
치수문자_일반주서
 62
     0
370
    -2
100
AcDbLine
 10
102.3475756837006
 20
12.954
 30
0.0
 11
102.3475756837007
 21
6.603999999999999
 31
0.0
  0
LINE
  5
1E6
330
1DF
100
AcDbEntity
  8
치수문자_일반주서
 62
     0
370
    -2
100
AcDbLine
 10
102.3475756837006
 20
16.256
 30
0.0
 11
102.3475756837006
 21
19.558
 31
0.0
  0
LINE
  5
1E7
330
1DF
100
AcDbEntity
  8
치수문자_일반주서
 62
     0
370
    -2
100
AcDbLine
 10
102.3475756837007
 20
3.302
 30
0.0
 11
102.3475756837007
 21
0.0
 31
0.0
  0
SOLID
  5
1E8
330
1DF
100
AcDbEntity
  8
치수문자_일반주서
 62
     0
100
AcDbTrace
 10
101.7972423503673
 20
16.256
 30
0.0
 11
102.8979090170339
 21
16.256
 31
0.0
 12
102.3475756837006
 22
12.954
 32
0.0
 13
102.3475756837006
 23
12.954
 33
0.0
  0
SOLID
  5
1E9
330
1DF
100
AcDbEntity
  8
치수문자_일반주서
 62
     0
100
AcDbTrace
 10
102.897909017034
 20
3.302000000000002
 30
0.0
 11
101.7972423503673
 21
3.301999999999997
 31
0.0
 12
102.3475756837007
 22
6.603999999999999
 32
0.0
 13
102.3475756837007
 23
6.603999999999999
 33
0.0
  0
MTEXT
  5
1EA
330
1DF
100
AcDbEntity
  8
치수문자_일반주서
 62
     0
100
AcDbMText
 10
97.9725756837005
 20
42.75940460849531
 30
0.0
 40
3.5
 41
0.0
 71
     2
 72
     1
  1
\A1;%%c6.35 [1/4]
  7
SLDTEXTSTYLE0
 11
-4.475859752819529E-15
 21
1.0
 31
0.0
 73
     1
 44
1.0
  0
POINT
  5
1EB
330
1DF
100
AcDbEntity
  8
Defpoints
 62
     0
100
AcDbPoint
 10
88.72500000000002
 20
12.95399999999995
 30
0.0
  0
POINT
  5
1EC
330
1DF
100
AcDbEntity
  8
Defpoints
 62
     0
100
AcDbPoint
 10
88.725
 20
6.603999999999951
 30
0.0
  0
POINT
  5
1ED
330
1DF
100
AcDbEntity
  8
Defpoints
 62
     0
100
AcDbPoint
 10
102.3475756837006
 20
6.604000000000002
 30
0.0
  0
ENDBLK
  5
1E1
330
1DF
100
AcDbEntity
  8
0
100
AcDbBlockEnd
  0
BLOCK
  5
1EF
330
1EE
100
AcDbEntity
  8
0
100
AcDbBlockBegin
  2
*D8
 70
     1
 10
0.0
 20
0.0
 30
0.0
  3
*D8
  1
*D9
  0
LINE
  5
1F1
330
1EE
100
AcDbEntity
  8
치수문자_일반주서
 62
     0
370
    -2
100
AcDbLine
 10
88.725
 20
13.01649999999995
 30
0.0
 11
88.725
 21
27.57288085582881
 31
0.0
  0
LINE
  5
1F2
330
1EE
100
AcDbEntity
  8
치수문자_일반주서
 62
     0
370
    -2
100
AcDbLine
 10
72.85000000000002
 20
12.96347991411195
 30
0.0
 11
72.85000000000002
 21
27.57288085582881
 31
0.0
  0
LINE
  5
1F3
330
1EE
100
AcDbEntity
  8
치수문자_일반주서
 62
     0
370
    -2
100
AcDbLine
 10
72.85000000000002
 20
27.57288085582881
 30
0.0
 11
38.72203618060725
 21
27.57288085582881
 31
0.0
  0
LINE
  5
1F4
330
1EE
100
AcDbEntity
  8
치수문자_일반주서
 62
     0
370
    -2
100
AcDbLine
 10
88.725
 20
27.57288085582881
 30
0.0
 11
72.85000000000002
 21
27.57288085582881
 31
0.0
  0
LINE
  5
1F5
330
1EE
100
AcDbEntity
  8
치수문자_일반주서
 62
     0
370
    -2
100
AcDbLine
 10
92.02699999999999
 20
27.57288085582881
 30
0.0
 11
95.32899999999998
 21
27.57288085582881
 31
0.0
  0
LINE
  5
1F6
330
1EE
100
AcDbEntity
  8
치수문자_일반주서
 62
     0
370
    -2
100
AcDbLine
 10
69.54800000000003
 20
27.57288085582881
 30
0.0
 11
66.24600000000004
 21
27.57288085582881
 31
0.0
  0
SOLID
  5
1F7
330
1EE
100
AcDbEntity
  8
치수문자_일반주서
 62
     0
100
AcDbTrace
 10
92.02699999999999
 20
28.12321418916214
 30
0.0
 11
92.02699999999999
 21
27.02254752249547
 31
0.0
 12
88.725
 22
27.57288085582881
 32
0.0
 13
88.725
 23
27.57288085582881
 33
0.0
  0
SOLID
  5
1F8
330
1EE
100
AcDbEntity
  8
치수문자_일반주서
 62
     0
100
AcDbTrace
 10
69.54800000000003
 20
27.02254752249547
 30
0.0
 11
69.54800000000003
 21
28.12321418916214
 31
0.0
 12
72.85000000000002
 22
27.57288085582881
 32
0.0
 13
72.85000000000002
 23
27.57288085582881
 33
0.0
  0
MTEXT
  5
1F9
330
1EE
100
AcDbEntity
  8
치수문자_일반주서
 62
     0
100
AcDbMText
 10
51.40953618060725
 20
31.94788085582881
 30
0.0
 40
3.5
 41
0.0
 71
     2
 72
     1
  1
\A1;15.88 [5/8]
  7
SLDTEXTSTYLE0
 73
     1
 44
1.0
  0
POINT
  5
1FA
330
1EE
100
AcDbEntity
  8
Defpoints
 62
     0
100
AcDbPoint
 10
88.725
 20
12.95399999999995
 30
0.0
  0
POINT
  5
1FB
330
1EE
100
AcDbEntity
  8
Defpoints
 62
     0
100
AcDbPoint
 10
72.85000000000002
 20
12.90097991411195
 30
0.0
  0
POINT
  5
1FC
330
1EE
100
AcDbEntity
  8
Defpoints
 62
     0
100
AcDbPoint
 10
72.85000000000002
 20
27.57288085582881
 30
0.0
  0
ENDBLK
  5
1F0
330
1EE
100
AcDbEntity
  8
0
100
AcDbBlockEnd
  0
BLOCK
  5
1FE
330
1FD
100
AcDbEntity
  8
0
100
AcDbBlockBegin
  2
*D9
 70
     1
 10
0.0
 20
0.0
 30
0.0
  3
*D9
  1
*D10
  0
LINE
  5
200
330
1FD
100
AcDbEntity
  8
치수문자_일반주서
 62
     0
370
    -2
100
AcDbLine
 10
88.725
 20
13.01649999999995
 30
0.0
 11
88.725
 21
43.58105829723799
 31
0.0
  0
LINE
  5
201
330
1FD
100
AcDbEntity
  8
치수문자_일반주서
 62
     0
370
    -2
100
AcDbLine
 10
3.000000000000007
 20
13.65149999999995
 30
0.0
 11
3.000000000000007
 21
43.58105829723799
 31
0.0
  0
LINE
  5
202
330
1FD
100
AcDbEntity
  8
치수문자_일반주서
 62
     0
370
    -2
100
AcDbLine
 10
85.423
 20
43.58105829723799
 30
0.0
 11
6.302000000000007
 21
43.58105829723799
 31
0.0
  0
SOLID
  5
203
330
1FD
100
AcDbEntity
  8
치수문자_일반주서
 62
     0
100
AcDbTrace
 10
85.423
 20
43.03072496390466
 30
0.0
 11
85.423
 21
44.13139163057133
 31
0.0
 12
88.725
 22
43.58105829723799
 32
0.0
 13
88.725
 23
43.58105829723799
 33
0.0
  0
SOLID
  5
204
330
1FD
100
AcDbEntity
  8
치수문자_일반주서
 62
     0
100
AcDbTrace
 10
6.302000000000007
 20
44.13139163057133
 30
0.0
 11
6.302000000000007
 21
43.03072496390466
 31
0.0
 12
3.000000000000007
 22
43.58105829723799
 32
0.0
 13
3.000000000000007
 23
43.58105829723799
 33
0.0
  0
MTEXT
  5
205
330
1FD
100
AcDbEntity
  8
치수문자_일반주서
 62
     0
100
AcDbMText
 10
46.94213782486514
 20
47.95605829723799
 30
0.0
 40
3.5
 41
0.0
 71
     2
 72
     1
  1
\A1;85.73 [3 3/8]
  7
SLDTEXTSTYLE0
 73
     1
 44
1.0
  0
POINT
  5
206
330
1FD
100
AcDbEntity
  8
Defpoints
 62
     0
100
AcDbPoint
 10
88.725
 20
12.95399999999995
 30
0.0
  0
POINT
  5
207
330
1FD
100
AcDbEntity
  8
Defpoints
 62
     0
100
AcDbPoint
 10
3.000000000000007
 20
13.58899999999995
 30
0.0
  0
POINT
  5
208
330
1FD
100
AcDbEntity
  8
Defpoints
 62
     0
100
AcDbPoint
 10
3.000000000000007
 20
43.58105829723799
 30
0.0
  0
ENDBLK
  5
1FF
330
1FD
100
AcDbEntity
  8
0
100
AcDbBlockEnd
  0
BLOCK
  5
236
330
235
100
AcDbEntity
  8
0
100
AcDbBlockBegin
  2
*D10
 70
     1
 10
0.0
 20
0.0
 30
0.0
  3
*D10
  1
*D11
  0
LINE
  5
238
330
235
100
AcDbEntity
  8
치수문자_일반주서
 62
     0
370
    -2
100
AcDbLine
 10
157.5035926502843
 20
-27.93219361178653
 30
0.0
 11
171.0636683339849
 21
-27.93219361178648
 31
0.0
  0
LINE
  5
239
330
235
100
AcDbEntity
  8
치수문자_일반주서
 62
     0
370
    -2
100
AcDbLine
 10
157.5035926502843
 20
-34.28219361178653
 30
0.0
 11
171.0636683339849
 21
-34.28219361178648
 31
0.0
  0
LINE
  5
23A
330
235
100
AcDbEntity
  8
치수문자_일반주서
 62
     0
370
    -2
100
AcDbLine
 10
171.0636683339849
 20
-27.93219361178648
 30
0.0
 11
171.0636683339847
 21
14.56071099670885
 31
0.0
  0
LINE
  5
23B
330
235
100
AcDbEntity
  8
치수문자_일반주서
 62
     0
370
    -2
100
AcDbLine
 10
171.0636683339849
 20
-27.93219361178648
 30
0.0
 11
171.0636683339849
 21
-34.28219361178648
 31
0.0
  0
LINE
  5
23C
330
235
100
AcDbEntity
  8
치수문자_일반주서
 62
     0
370
    -2
100
AcDbLine
 10
171.0636683339849
 20
-24.63019361178648
 30
0.0
 11
171.0636683339849
 21
-21.32819361178648
 31
0.0
  0
LINE
  5
23D
330
235
100
AcDbEntity
  8
치수문자_일반주서
 62
     0
370
    -2
100
AcDbLine
 10
171.063668333985
 20
-37.58419361178648
 30
0.0
 11
171.063668333985
 21
-40.88619361178648
 31
0.0
  0
SOLID
  5
23E
330
235
100
AcDbEntity
  8
치수문자_일반주서
 62
     0
100
AcDbTrace
 10
170.5133350006516
 20
-24.63019361178648
 30
0.0
 11
171.6140016673182
 21
-24.63019361178648
 31
0.0
 12
171.0636683339849
 22
-27.93219361178648
 32
0.0
 13
171.0636683339849
 23
-27.93219361178648
 33
0.0
  0
SOLID
  5
23F
330
235
100
AcDbEntity
  8
치수문자_일반주서
 62
     0
100
AcDbTrace
 10
171.6140016673183
 20
-37.58419361178648
 30
0.0
 11
170.5133350006516
 21
-37.58419361178648
 31
0.0
 12
171.0636683339849
 22
-34.28219361178648
 32
0.0
 13
171.0636683339849
 23
-34.28219361178648
 33
0.0
  0
MTEXT
  5
240
330
235
100
AcDbEntity
  8
치수문자_일반주서
 62
     0
100
AcDbMText
 10
166.6886683339848
 20
1.87321099670883
 30
0.0
 40
3.5
 41
0.0
 71
     2
 72
     1
  1
\A1;%%c6.35 [1/4]
  7
SLDTEXTSTYLE0
 11
-4.475859752819528E-15
 21
1.0
 31
0.0
 73
     1
 44
1.0
  0
POINT
  5
241
330
235
100
AcDbEntity
  8
Defpoints
 62
     0
100
AcDbPoint
 10
157.4410926502843
 20
-27.93219361178653
 30
0.0
  0
POINT
  5
242
330
235
100
AcDbEntity
  8
Defpoints
 62
     0
100
AcDbPoint
 10
157.4410926502843
 20
-34.28219361178653
 30
0.0
  0
POINT
  5
243
330
235
100
AcDbEntity
  8
Defpoints
 62
     0
100
AcDbPoint
 10
171.0636683339849
 20
-34.28219361178648
 30
0.0
  0
ENDBLK
  5
237
330
235
100
AcDbEntity
  8
0
100
AcDbBlockEnd
  0
BLOCK
  5
245
330
244
100
AcDbEntity
  8
0
100
AcDbBlockBegin
  2
*D11
 70
     1
 10
0.0
 20
0.0
 30
0.0
  3
*D11
  1
*D12
  0
LINE
  5
247
330
244
100
AcDbEntity
  8
치수문자_일반주서
 62
     0
370
    -2
100
AcDbLine
 10
157.4410926502843
 20
-27.86969361178653
 30
0.0
 11
157.4410926502843
 21
-13.31331275595767
 31
0.0
  0
LINE
  5
248
330
244
100
AcDbEntity
  8
치수문자_일반주서
 62
     0
370
    -2
100
AcDbLine
 10
141.5660926502843
 20
-27.92271369767453
 30
0.0
 11
141.5660926502843
 21
-13.31331275595767
 31
0.0
  0
LINE
  5
249
330
244
100
AcDbEntity
  8
치수문자_일반주서
 62
     0
370
    -2
100
AcDbLine
 10
141.5660926502843
 20
-13.31331275595767
 30
0.0
 11
107.4381288308915
 21
-13.31331275595767
 31
0.0
  0
LINE
  5
24A
330
244
100
AcDbEntity
  8
치수문자_일반주서
 62
     0
370
    -2
100
AcDbLine
 10
157.4410926502843
 20
-13.31331275595767
 30
0.0
 11
141.5660926502843
 21
-13.31331275595767
 31
0.0
  0
LINE
  5
24B
330
244
100
AcDbEntity
  8
치수문자_일반주서
 62
     0
370
    -2
100
AcDbLine
 10
160.7430926502843
 20
-13.31331275595767
 30
0.0
 11
164.0450926502843
 21
-13.31331275595767
 31
0.0
  0
LINE
  5
24C
330
244
100
AcDbEntity
  8
치수문자_일반주서
 62
     0
370
    -2
100
AcDbLine
 10
138.2640926502843
 20
-13.31331275595767
 30
0.0
 11
134.9620926502843
 21
-13.31331275595767
 31
0.0
  0
SOLID
  5
24D
330
244
100
AcDbEntity
  8
치수문자_일반주서
 62
     0
100
AcDbTrace
 10
160.7430926502843
 20
-12.76297942262434
 30
0.0
 11
160.7430926502843
 21
-13.86364608929101
 31
0.0
 12
157.4410926502843
 22
-13.31331275595767
 32
0.0
 13
157.4410926502843
 23
-13.31331275595767
 33
0.0
  0
SOLID
  5
24E
330
244
100
AcDbEntity
  8
치수문자_일반주서
 62
     0
100
AcDbTrace
 10
138.2640926502843
 20
-13.86364608929101
 30
0.0
 11
138.2640926502843
 21
-12.76297942262434
 31
0.0
 12
141.5660926502843
 22
-13.31331275595767
 32
0.0
 13
141.5660926502843
 23
-13.31331275595767
 33
0.0
  0
MTEXT
  5
24F
330
244
100
AcDbEntity
  8
치수문자_일반주서
 62
     0
100
AcDbMText
 10
120.1256288308915
 20
-8.938312755957675
 30
0.0
 40
3.5
 41
0.0
 71
     2
 72
     1
  1
\A1;15.88 [5/8]
  7
SLDTEXTSTYLE0
 73
     1
 44
1.0
  0
POINT
  5
250
330
244
100
AcDbEntity
  8
Defpoints
 62
     0
100
AcDbPoint
 10
157.4410926502843
 20
-27.93219361178653
 30
0.0
  0
POINT
  5
251
330
244
100
AcDbEntity
  8
Defpoints
 62
     0
100
AcDbPoint
 10
141.5660926502843
 20
-27.98521369767453
 30
0.0
  0
POINT
  5
252
330
244
100
AcDbEntity
  8
Defpoints
 62
     0
100
AcDbPoint
 10
141.5660926502843
 20
-13.31331275595767
 30
0.0
  0
ENDBLK
  5
246
330
244
100
AcDbEntity
  8
0
100
AcDbBlockEnd
  0
BLOCK
  5
254
330
253
100
AcDbEntity
  8
0
100
AcDbBlockBegin
  2
*D12
 70
     1
 10
0.0
 20
0.0
 30
0.0
  3
*D12
  1
*D13
  0
LINE
  5
256
330
253
100
AcDbEntity
  8
치수문자_일반주서
 62
     0
370
    -2
100
AcDbLine
 10
157.4410926502843
 20
-27.86969361178653
 30
0.0
 11
157.4410926502843
 21
2.694864685451513
 31
0.0
  0
LINE
  5
257
330
253
100
AcDbEntity
  8
치수문자_일반주서
 62
     0
370
    -2
100
AcDbLine
 10
71.71609265028428
 20
-27.23469361178654
 30
0.0
 11
71.71609265028428
 21
2.694864685451513
 31
0.0
  0
LINE
  5
258
330
253
100
AcDbEntity
  8
치수문자_일반주서
 62
     0
370
    -2
100
AcDbLine
 10
154.1390926502843
 20
2.694864685451513
 30
0.0
 11
75.01809265028427
 21
2.694864685451513
 31
0.0
  0
SOLID
  5
259
330
253
100
AcDbEntity
  8
치수문자_일반주서
 62
     0
100
AcDbTrace
 10
154.1390926502843
 20
2.14453135211818
 30
0.0
 11
154.1390926502843
 21
3.245198018784846
 31
0.0
 12
157.4410926502843
 22
2.694864685451513
 32
0.0
 13
157.4410926502843
 23
2.694864685451513
 33
0.0
  0
SOLID
  5
25A
330
253
100
AcDbEntity
  8
치수문자_일반주서
 62
     0
100
AcDbTrace
 10
75.01809265028427
 20
3.245198018784846
 30
0.0
 11
75.01809265028427
 21
2.14453135211818
 31
0.0
 12
71.71609265028428
 22
2.694864685451513
 32
0.0
 13
71.71609265028428
 23
2.694864685451513
 33
0.0
  0
MTEXT
  5
25B
330
253
100
AcDbEntity
  8
치수문자_일반주서
 62
     0
100
AcDbMText
 10
115.6582304751494
 20
7.069864685451513
 30
0.0
 40
3.5
 41
0.0
 71
     2
 72
     1
  1
\A1;85.73 [3 3/8]
  7
SLDTEXTSTYLE0
 73
     1
 44
1.0
  0
POINT
  5
25C
330
253
100
AcDbEntity
  8
Defpoints
 62
     0
100
AcDbPoint
 10
157.4410926502843
 20
-27.93219361178653
 30
0.0
  0
POINT
  5
25D
330
253
100
AcDbEntity
  8
Defpoints
 62
     0
100
AcDbPoint
 10
71.71609265028428
 20
-27.29719361178654
 30
0.0
  0
POINT
  5
25E
330
253
100
AcDbEntity
  8
Defpoints
 62
     0
100
AcDbPoint
 10
71.71609265028428
 20
2.694864685451513
 30
0.0
  0
ENDBLK
  5
255
330
253
100
AcDbEntity
  8
0
100
AcDbBlockEnd
  0
BLOCK
  5
2F1
330
2F0
100
AcDbEntity
  8
0
100
AcDbBlockBegin
  2
*D13
 70
     1
 10
0.0
 20
0.0
 30
0.0
  3
*D13
  1
*D15
  0
LINE
  5
2F3
330
2F0
100
AcDbEntity
  8
치수문자_일반주서
 62
     0
370
    -2
100
AcDbLine
 10
88.7875
 20
13.35087499999995
 30
0.0
 11
101.9582038077188
 21
13.350875
 31
0.0
  0
LINE
  5
2F4
330
2F0
100
AcDbEntity
  8
치수문자_일반주서
 62
     0
370
    -2
100
AcDbLine
 10
88.78750000000001
 20
6.603999999999949
 30
0.0
 11
101.9582038077188
 21
6.603999999999999
 31
0.0
  0
LINE
  5
2F5
330
2F0
100
AcDbEntity
  8
치수문자_일반주서
 62
     0
370
    -2
100
AcDbLine
 10
101.9582038077188
 20
13.350875
 30
0.0
 11
101.9582038077186
 21
60.3316173965263
 31
0.0
  0
LINE
  5
2F6
330
2F0
100
AcDbEntity
  8
치수문자_일반주서
 62
     0
370
    -2
100
AcDbLine
 10
101.9582038077188
 20
13.350875
 30
0.0
 11
101.9582038077188
 21
6.603999999999999
 31
0.0
  0
LINE
  5
2F7
330
2F0
100
AcDbEntity
  8
치수문자_일반주서
 62
     0
370
    -2
100
AcDbLine
 10
101.9582038077188
 20
16.652875
 30
0.0
 11
101.9582038077188
 21
19.954875
 31
0.0
  0
LINE
  5
2F8
330
2F0
100
AcDbEntity
  8
치수문자_일반주서
 62
     0
370
    -2
100
AcDbLine
 10
101.9582038077189
 20
3.302
 30
0.0
 11
101.9582038077189
 21
0.0
 31
0.0
  0
SOLID
  5
2F9
330
2F0
100
AcDbEntity
  8
치수문자_일반주서
 62
     0
100
AcDbTrace
 10
101.4078704743855
 20
16.65287499999999
 30
0.0
 11
102.5085371410521
 21
16.652875
 31
0.0
 12
101.9582038077188
 22
13.350875
 32
0.0
 13
101.9582038077188
 23
13.350875
 33
0.0
  0
SOLID
  5
2FA
330
2F0
100
AcDbEntity
  8
치수문자_일반주서
 62
     0
100
AcDbTrace
 10
102.5085371410522
 20
3.302000000000002
 30
0.0
 11
101.4078704743855
 21
3.301999999999997
 31
0.0
 12
101.9582038077188
 22
6.603999999999999
 32
0.0
 13
101.9582038077188
 23
6.603999999999999
 33
0.0
  0
MTEXT
  5
2FB
330
2F0
100
AcDbEntity
  8
치수문자_일반주서
 62
     0
100
AcDbMText
 10
97.58320380771869
 20
45.01911739652628
 30
0.0
 40
3.5
 41
0.0
 71
     2
 72
     1
  1
\A1;%%c6.75 [17/64]
  7
SLDTEXTSTYLE0
 11
-4.212573885006615E-15
 21
1.0
 31
0.0
 73
     1
 44
1.0
  0
POINT
  5
2FC
330
2F0
100
AcDbEntity
  8
Defpoints
 62
     0
100
AcDbPoint
 10
88.725
 20
13.35087499999995
 30
0.0
  0
POINT
  5
2FD
330
2F0
100
AcDbEntity
  8
Defpoints
 62
     0
100
AcDbPoint
 10
88.72500000000001
 20
6.603999999999949
 30
0.0
  0
POINT
  5
2FE
330
2F0
100
AcDbEntity
  8
Defpoints
 62
     0
100
AcDbPoint
 10
101.9582038077188
 20
6.603999999999998
 30
0.0
  0
ENDBLK
  5
2F2
330
2F0
100
AcDbEntity
  8
0
100
AcDbBlockEnd
  0
BLOCK
  5
300
330
2FF
100
AcDbEntity
  8
0
100
AcDbBlockBegin
  2
*D14
 70
     1
 10
0.0
 20
0.0
 30
0.0
  3
*D14
  1
*D16
  0
LINE
  5
302
330
2FF
100
AcDbEntity
  8
치수문자_일반주서
 62
     0
370
    -2
100
AcDbLine
 10
88.72500000000001
 20
13.41337499999995
 30
0.0
 11
88.72500000000001
 21
30.21008317052726
 31
0.0
  0
LINE
  5
303
330
2FF
100
AcDbEntity
  8
치수문자_일반주서
 62
     0
370
    -2
100
AcDbLine
 10
71.26249999999999
 20
13.40578167824251
 30
0.0
 11
71.26249999999999
 21
30.21008317052726
 31
0.0
  0
LINE
  5
304
330
2FF
100
AcDbEntity
  8
치수문자_일반주서
 62
     0
370
    -2
100
AcDbLine
 10
71.26249999999999
 20
30.21008317052726
 30
0.0
 11
36.65849999999999
 21
30.21008317052726
 31
0.0
  0
LINE
  5
305
330
2FF
100
AcDbEntity
  8
치수문자_일반주서
 62
     0
370
    -2
100
AcDbLine
 10
88.72500000000001
 20
30.21008317052726
 30
0.0
 11
71.26249999999999
 21
30.21008317052726
 31
0.0
  0
LINE
  5
306
330
2FF
100
AcDbEntity
  8
치수문자_일반주서
 62
     0
370
    -2
100
AcDbLine
 10
92.02700000000002
 20
30.21008317052726
 30
0.0
 11
95.32900000000001
 21
30.21008317052726
 31
0.0
  0
LINE
  5
307
330
2FF
100
AcDbEntity
  8
치수문자_일반주서
 62
     0
370
    -2
100
AcDbLine
 10
67.9605
 20
30.21008317052726
 30
0.0
 11
64.6585
 21
30.21008317052726
 31
0.0
  0
SOLID
  5
308
330
2FF
100
AcDbEntity
  8
치수문자_일반주서
 62
     0
100
AcDbTrace
 10
92.02700000000002
 20
30.7604165038606
 30
0.0
 11
92.02700000000002
 21
29.65974983719393
 31
0.0
 12
88.72500000000001
 22
30.21008317052726
 32
0.0
 13
88.72500000000001
 23
30.21008317052726
 33
0.0
  0
SOLID
  5
309
330
2FF
100
AcDbEntity
  8
치수문자_일반주서
 62
     0
100
AcDbTrace
 10
67.9605
 20
29.65974983719393
 30
0.0
 11
67.9605
 21
30.7604165038606
 31
0.0
 12
71.26249999999999
 22
30.21008317052726
 32
0.0
 13
71.26249999999999
 23
30.21008317052726
 33
0.0
  0
MTEXT
  5
30A
330
2FF
100
AcDbEntity
  8
치수문자_일반주서
 62
     0
100
AcDbMText
 10
50.65849999999998
 20
34.58508317052726
 30
0.0
 40
3.5
 41
0.0
 71
     2
 72
     1
  1
\A1;17.46 [11/16]
  7
SLDTEXTSTYLE0
 73
     1
 44
1.0
  0
POINT
  5
30B
330
2FF
100
AcDbEntity
  8
Defpoints
 62
     0
100
AcDbPoint
 10
88.72500000000001
 20
13.35087499999995
 30
0.0
  0
POINT
  5
30C
330
2FF
100
AcDbEntity
  8
Defpoints
 62
     0
100
AcDbPoint
 10
71.26249999999999
 20
13.34328167824251
 30
0.0
  0
POINT
  5
30D
330
2FF
100
AcDbEntity
  8
Defpoints
 62
     0
100
AcDbPoint
 10
71.26249999999999
 20
30.21008317052726
 30
0.0
  0
ENDBLK
  5
301
330
2FF
100
AcDbEntity
  8
0
100
AcDbBlockEnd
  0
BLOCK
  5
30F
330
30E
100
AcDbEntity
  8
0
100
AcDbBlockBegin
  2
*D15
 70
     1
 10
0.0
 20
0.0
 30
0.0
  3
*D15
  1
*D17
  0
LINE
  5
311
330
30E
100
AcDbEntity
  8
치수문자_일반주서
 62
     0
370
    -2
100
AcDbLine
 10
88.72500000000001
 20
13.41337499999995
 30
0.0
 11
88.725
 21
44.58125647475833
 31
0.0
  0
LINE
  5
312
330
30E
100
AcDbEntity
  8
치수문자_일반주서
 62
     0
370
    -2
100
AcDbLine
 10
3.000000000000007
 20
13.84993749999994
 30
0.0
 11
2.999999999999993
 21
44.58125647475833
 31
0.0
  0
LINE
  5
313
330
30E
100
AcDbEntity
  8
치수문자_일반주서
 62
     0
370
    -2
100
AcDbLine
 10
85.423
 20
44.58125647475833
 30
0.0
 11
6.301999999999992
 21
44.58125647475833
 31
0.0
  0
SOLID
  5
314
330
30E
100
AcDbEntity
  8
치수문자_일반주서
 62
     0
100
AcDbTrace
 10
85.423
 20
44.03092314142499
 30
0.0
 11
85.423
 21
45.13158980809166
 31
0.0
 12
88.725
 22
44.58125647475833
 32
0.0
 13
88.725
 23
44.58125647475833
 33
0.0
  0
SOLID
  5
315
330
30E
100
AcDbEntity
  8
치수문자_일반주서
 62
     0
100
AcDbTrace
 10
6.301999999999992
 20
45.13158980809166
 30
0.0
 11
6.301999999999992
 21
44.03092314142499
 31
0.0
 12
2.999999999999993
 22
44.58125647475833
 32
0.0
 13
2.999999999999993
 23
44.58125647475833
 33
0.0
  0
MTEXT
  5
316
330
30E
100
AcDbEntity
  8
치수문자_일반주서
 62
     0
100
AcDbMText
 10
43.56923418370306
 20
48.95625647475833
 30
0.0
 40
3.5
 41
0.0
 71
     2
 72
     1
  1
\A1;85.73 [3 3/8]
  7
SLDTEXTSTYLE0
 73
     1
 44
1.0
  0
POINT
  5
317
330
30E
100
AcDbEntity
  8
Defpoints
 62
     0
100
AcDbPoint
 10
88.72500000000001
 20
13.35087499999995
 30
0.0
  0
POINT
  5
318
330
30E
100
AcDbEntity
  8
Defpoints
 62
     0
100
AcDbPoint
 10
3.000000000000007
 20
13.78743749999994
 30
0.0
  0
POINT
  5
319
330
30E
100
AcDbEntity
  8
Defpoints
 62
     0
100
AcDbPoint
 10
3.000000000000007
 20
44.58125647475833
 30
0.0
  0
ENDBLK
  5
310
330
30E
100
AcDbEntity
  8
0
100
AcDbBlockEnd
  0
BLOCK
  5
34E
330
34D
100
AcDbEntity
  8
0
100
AcDbBlockBegin
  2
*D16
 70
     1
 10
0.0
 20
0.0
 30
0.0
  3
*D16
  1
*D18
  0
LINE
  5
350
330
34D
100
AcDbEntity
  8
치수문자_일반주서
 62
     0
370
    -2
100
AcDbLine
 10
164.6776584164089
 20
-48.73929839743715
 30
0.0
 11
177.8483622241277
 21
-48.7392983974371
 31
0.0
  0
LINE
  5
351
330
34D
100
AcDbEntity
  8
치수문자_일반주서
 62
     0
370
    -2
100
AcDbLine
 10
164.6776584164089
 20
-55.48617339743716
 30
0.0
 11
177.8483622241278
 21
-55.48617339743711
 31
0.0
  0
LINE
  5
352
330
34D
100
AcDbEntity
  8
치수문자_일반주서
 62
     0
370
    -2
100
AcDbLine
 10
177.8483622241277
 20
-48.7392983974371
 30
0.0
 11
177.8483622241275
 21
-1.758556000910808
 31
0.0
  0
LINE
  5
353
330
34D
100
AcDbEntity
  8
치수문자_일반주서
 62
     0
370
    -2
100
AcDbLine
 10
177.8483622241277
 20
-48.7392983974371
 30
0.0
 11
177.8483622241278
 21
-55.48617339743711
 31
0.0
  0
LINE
  5
354
330
34D
100
AcDbEntity
  8
치수문자_일반주서
 62
     0
370
    -2
100
AcDbLine
 10
177.8483622241277
 20
-45.4372983974371
 30
0.0
 11
177.8483622241277
 21
-42.1352983974371
 31
0.0
  0
LINE
  5
355
330
34D
100
AcDbEntity
  8
치수문자_일반주서
 62
     0
370
    -2
100
AcDbLine
 10
177.8483622241278
 20
-58.78817339743711
 30
0.0
 11
177.8483622241278
 21
-62.09017339743711
 31
0.0
  0
SOLID
  5
356
330
34D
100
AcDbEntity
  8
치수문자_일반주서
 62
     0
100
AcDbTrace
 10
177.2980288907944
 20
-45.4372983974371
 30
0.0
 11
178.3986955574611
 21
-45.4372983974371
 31
0.0
 12
177.8483622241277
 22
-48.7392983974371
 32
0.0
 13
177.8483622241277
 23
-48.7392983974371
 33
0.0
  0
SOLID
  5
357
330
34D
100
AcDbEntity
  8
치수문자_일반주서
 62
     0
100
AcDbTrace
 10
178.3986955574611
 20
-58.78817339743711
 30
0.0
 11
177.2980288907944
 21
-58.78817339743711
 31
0.0
 12
177.8483622241278
 22
-55.48617339743711
 32
0.0
 13
177.8483622241278
 23
-55.48617339743711
 33
0.0
  0
MTEXT
  5
358
330
34D
100
AcDbEntity
  8
치수문자_일반주서
 62
     0
100
AcDbMText
 10
173.4733622241276
 20
-17.07105600091083
 30
0.0
 40
3.5
 41
0.0
 71
     2
 72
     1
  1
\A1;%%c6.75 [17/64]
  7
SLDTEXTSTYLE0
 11
-4.212573885006614E-15
 21
1.0
 31
0.0
 73
     1
 44
1.0
  0
POINT
  5
359
330
34D
100
AcDbEntity
  8
Defpoints
 62
     0
100
AcDbPoint
 10
164.6151584164089
 20
-48.73929839743715
 30
0.0
  0
POINT
  5
35A
330
34D
100
AcDbEntity
  8
Defpoints
 62
     0
100
AcDbPoint
 10
164.6151584164089
 20
-55.48617339743716
 30
0.0
  0
POINT
  5
35B
330
34D
100
AcDbEntity
  8
Defpoints
 62
     0
100
AcDbPoint
 10
177.8483622241278
 20
-55.48617339743711
 30
0.0
  0
ENDBLK
  5
34F
330
34D
100
AcDbEntity
  8
0
100
AcDbBlockEnd
  0
BLOCK
  5
35D
330
35C
100
AcDbEntity
  8
0
100
AcDbBlockBegin
  2
*D17
 70
     1
 10
0.0
 20
0.0
 30
0.0
  3
*D17
  1
*D19
  0
LINE
  5
35F
330
35C
100
AcDbEntity
  8
치수문자_일반주서
 62
     0
370
    -2
100
AcDbLine
 10
164.6151584164089
 20
-48.67679839743715
 30
0.0
 11
164.6151584164089
 21
-31.88009022690984
 31
0.0
  0
LINE
  5
360
330
35C
100
AcDbEntity
  8
치수문자_일반주서
 62
     0
370
    -2
100
AcDbLine
 10
147.1526584164089
 20
-48.68439171919459
 30
0.0
 11
147.1526584164089
 21
-31.88009022690984
 31
0.0
  0
LINE
  5
361
330
35C
100
AcDbEntity
  8
치수문자_일반주서
 62
     0
370
    -2
100
AcDbLine
 10
147.1526584164089
 20
-31.88009022690984
 30
0.0
 11
112.5486584164089
 21
-31.88009022690984
 31
0.0
  0
LINE
  5
362
330
35C
100
AcDbEntity
  8
치수문자_일반주서
 62
     0
370
    -2
100
AcDbLine
 10
164.6151584164089
 20
-31.88009022690984
 30
0.0
 11
147.1526584164089
 21
-31.88009022690984
 31
0.0
  0
LINE
  5
363
330
35C
100
AcDbEntity
  8
치수문자_일반주서
 62
     0
370
    -2
100
AcDbLine
 10
167.9171584164089
 20
-31.88009022690984
 30
0.0
 11
171.2191584164089
 21
-31.88009022690984
 31
0.0
  0
LINE
  5
364
330
35C
100
AcDbEntity
  8
치수문자_일반주서
 62
     0
370
    -2
100
AcDbLine
 10
143.8506584164089
 20
-31.88009022690984
 30
0.0
 11
140.5486584164089
 21
-31.88009022690984
 31
0.0
  0
SOLID
  5
365
330
35C
100
AcDbEntity
  8
치수문자_일반주서
 62
     0
100
AcDbTrace
 10
167.9171584164089
 20
-31.32975689357651
 30
0.0
 11
167.9171584164089
 21
-32.43042356024318
 31
0.0
 12
164.6151584164089
 22
-31.88009022690984
 32
0.0
 13
164.6151584164089
 23
-31.88009022690984
 33
0.0
  0
SOLID
  5
366
330
35C
100
AcDbEntity
  8
치수문자_일반주서
 62
     0
100
AcDbTrace
 10
143.8506584164089
 20
-32.43042356024318
 30
0.0
 11
143.8506584164089
 21
-31.32975689357651
 31
0.0
 12
147.1526584164089
 22
-31.88009022690984
 32
0.0
 13
147.1526584164089
 23
-31.88009022690984
 33
0.0
  0
MTEXT
  5
367
330
35C
100
AcDbEntity
  8
치수문자_일반주서
 62
     0
100
AcDbMText
 10
126.5486584164089
 20
-27.50509022690984
 30
0.0
 40
3.5
 41
0.0
 71
     2
 72
     1
  1
\A1;17.46 [11/16]
  7
SLDTEXTSTYLE0
 73
     1
 44
1.0
  0
POINT
  5
368
330
35C
100
AcDbEntity
  8
Defpoints
 62
     0
100
AcDbPoint
 10
164.6151584164089
 20
-48.73929839743715
 30
0.0
  0
POINT
  5
369
330
35C
100
AcDbEntity
  8
Defpoints
 62
     0
100
AcDbPoint
 10
147.1526584164089
 20
-48.74689171919459
 30
0.0
  0
POINT
  5
36A
330
35C
100
AcDbEntity
  8
Defpoints
 62
     0
100
AcDbPoint
 10
147.1526584164089
 20
-31.88009022690984
 30
0.0
  0
ENDBLK
  5
35E
330
35C
100
AcDbEntity
  8
0
100
AcDbBlockEnd
  0
BLOCK
  5
36C
330
36B
100
AcDbEntity
  8
0
100
AcDbBlockBegin
  2
*D18
 70
     1
 10
0.0
 20
0.0
 30
0.0
  3
*D18
  1
*D20
  0
LINE
  5
36E
330
36B
100
AcDbEntity
  8
치수문자_일반주서
 62
     0
370
    -2
100
AcDbLine
 10
164.6151584164089
 20
-48.67679839743715
 30
0.0
 11
164.6151584164089
 21
-17.50891692267878
 31
0.0
  0
LINE
  5
36F
330
36B
100
AcDbEntity
  8
치수문자_일반주서
 62
     0
370
    -2
100
AcDbLine
 10
78.8901584164089
 20
-48.24023589743716
 30
0.0
 11
78.8901584164089
 21
-17.50891692267878
 31
0.0
  0
LINE
  5
370
330
36B
100
AcDbEntity
  8
치수문자_일반주서
 62
     0
370
    -2
100
AcDbLine
 10
161.3131584164089
 20
-17.50891692267878
 30
0.0
 11
82.19215841640889
 21
-17.50891692267878
 31
0.0
  0
SOLID
  5
371
330
36B
100
AcDbEntity
  8
치수문자_일반주서
 62
     0
100
AcDbTrace
 10
161.3131584164089
 20
-18.05925025601211
 30
0.0
 11
161.3131584164089
 21
-16.95858358934544
 31
0.0
 12
164.6151584164089
 22
-17.50891692267878
 32
0.0
 13
164.6151584164089
 23
-17.50891692267878
 33
0.0
  0
SOLID
  5
372
330
36B
100
AcDbEntity
  8
치수문자_일반주서
 62
     0
100
AcDbTrace
 10
82.19215841640889
 20
-16.95858358934544
 30
0.0
 11
82.19215841640889
 21
-18.05925025601211
 31
0.0
 12
78.8901584164089
 22
-17.50891692267878
 32
0.0
 13
78.8901584164089
 23
-17.50891692267878
 33
0.0
  0
MTEXT
  5
373
330
36B
100
AcDbEntity
  8
치수문자_일반주서
 62
     0
100
AcDbMText
 10
119.459392600112
 20
-13.13391692267878
 30
0.0
 40
3.5
 41
0.0
 71
     2
 72
     1
  1
\A1;85.73 [3 3/8]
  7
SLDTEXTSTYLE0
 73
     1
 44
1.0
  0
POINT
  5
374
330
36B
100
AcDbEntity
  8
Defpoints
 62
     0
100
AcDbPoint
 10
164.6151584164089
 20
-48.73929839743715
 30
0.0
  0
POINT
  5
375
330
36B
100
AcDbEntity
  8
Defpoints
 62
     0
100
AcDbPoint
 10
78.8901584164089
 20
-48.30273589743716
 30
0.0
  0
POINT
  5
376
330
36B
100
AcDbEntity
  8
Defpoints
 62
     0
100
AcDbPoint
 10
78.8901584164089
 20
-17.50891692267878
 30
0.0
  0
ENDBLK
  5
36D
330
36B
100
AcDbEntity
  8
0
100
AcDbBlockEnd
  0
BLOCK
  5
37C
330
37B
100
AcDbEntity
  8
0
100
AcDbBlockBegin
  2
*D19
 70
     1
 10
0.0
 20
0.0
 30
0.0
  3
*D19
  1
*D21
  0
LINE
  5
37E
330
37B
100
AcDbEntity
  8
0
 62
     0
370
    -2
100
AcDbLine
 10
46.2308806570156
 20
-0.709884394646136
 30
0.0
 11
46.2308806570156
 21
-20.03554060625228
 31
0.0
  0
LINE
  5
37F
330
37B
100
AcDbEntity
  8
0
 62
     0
370
    -2
100
AcDbLine
 10
49.23088065701561
 20
-0.9989250712760995
 30
0.0
 11
49.23088065701561
 21
-20.03554060625228
 31
0.0
  0
LINE
  5
380
330
37B
100
AcDbEntity
  8
0
 62
     0
370
    -2
100
AcDbLine
 10
52.53288065701561
 20
-19.03554060625228
 30
0.0
 11
68.79954732368228
 21
-19.03554060625228
 31
0.0
  0
LINE
  5
381
330
37B
100
AcDbEntity
  8
0
 62
     0
370
    -2
100
AcDbLine
 10
46.2308806570156
 20
-19.03554060625228
 30
0.0
 11
49.23088065701561
 21
-19.03554060625228
 31
0.0
  0
LINE
  5
382
330
37B
100
AcDbEntity
  8
0
 62
     0
370
    -2
100
AcDbLine
 10
42.9288806570156
 20
-19.03554060625228
 30
0.0
 11
39.6268806570156
 21
-19.03554060625228
 31
0.0
  0
SOLID
  5
383
330
37B
100
AcDbEntity
  8
0
 62
     0
100
AcDbTrace
 10
42.9288806570156
 20
-19.58587393958561
 30
0.0
 11
42.9288806570156
 21
-18.48520727291895
 31
0.0
 12
46.2308806570156
 22
-19.03554060625228
 32
0.0
 13
46.2308806570156
 23
-19.03554060625228
 33
0.0
  0
SOLID
  5
384
330
37B
100
AcDbEntity
  8
0
 62
     0
100
AcDbTrace
 10
52.53288065701561
 20
-18.48520727291895
 30
0.0
 11
52.53288065701561
 21
-19.58587393958561
 31
0.0
 12
49.23088065701561
 22
-19.03554060625228
 32
0.0
 13
49.23088065701561
 23
-19.03554060625228
 33
0.0
  0
MTEXT
  5
385
330
37B
100
AcDbEntity
  8
0
 62
     0
100
AcDbMText
 10
62.31721399034895
 20
-15.46987393958561
 30
0.0
 40
3.5
 41
0.0
 71
     5
 72
     1
  1
3,00
 73
     1
 44
1.0
  0
POINT
  5
386
330
37B
100
AcDbEntity
  8
Defpoints
 62
     0
100
AcDbPoint
 10
46.2308806570156
 20
0.290115605353864
 30
0.0
  0
POINT
  5
387
330
37B
100
AcDbEntity
  8
Defpoints
 62
     0
100
AcDbPoint
 10
49.23088065701561
 20
0.0010749287239005
 30
0.0
  0
POINT
  5
388
330
37B
100
AcDbEntity
  8
Defpoints
 62
     0
100
AcDbPoint
 10
49.23088065701561
 20
-19.03554060625228
 30
0.0
  0
ENDBLK
  5
37D
330
37B
100
AcDbEntity
  8
0
100
AcDbBlockEnd
  0
BLOCK
  5
417
330
416
100
AcDbEntity
  8
0
100
AcDbBlockBegin
  2
*D20
 70
     1
 10
0.0
 20
0.0
 30
0.0
  3
*D20
  1
*D23
  0
LINE
  5
419
330
416
100
AcDbEntity
  8
치수문자_일반주서
 62
     0
370
    -2
100
AcDbLine
 10
88.7875
 20
13.35087499999995
 30
0.0
 11
101.9582038077188
 21
13.350875
 31
0.0
  0
LINE
  5
41A
330
416
100
AcDbEntity
  8
치수문자_일반주서
 62
     0
370
    -2
100
AcDbLine
 10
88.78750000000001
 20
6.603999999999949
 30
0.0
 11
101.9582038077188
 21
6.603999999999999
 31
0.0
  0
LINE
  5
41B
330
416
100
AcDbEntity
  8
치수문자_일반주서
 62
     0
370
    -2
100
AcDbLine
 10
101.9582038077188
 20
13.350875
 30
0.0
 11
101.9582038077186
 21
60.3316173965263
 31
0.0
  0
LINE
  5
41C
330
416
100
AcDbEntity
  8
치수문자_일반주서
 62
     0
370
    -2
100
AcDbLine
 10
101.9582038077188
 20
13.350875
 30
0.0
 11
101.9582038077188
 21
6.603999999999999
 31
0.0
  0
LINE
  5
41D
330
416
100
AcDbEntity
  8
치수문자_일반주서
 62
     0
370
    -2
100
AcDbLine
 10
101.9582038077188
 20
16.652875
 30
0.0
 11
101.9582038077188
 21
19.954875
 31
0.0
  0
LINE
  5
41E
330
416
100
AcDbEntity
  8
치수문자_일반주서
 62
     0
370
    -2
100
AcDbLine
 10
101.9582038077189
 20
3.302
 30
0.0
 11
101.9582038077189
 21
0.0
 31
0.0
  0
SOLID
  5
41F
330
416
100
AcDbEntity
  8
치수문자_일반주서
 62
     0
100
AcDbTrace
 10
101.4078704743855
 20
16.65287499999999
 30
0.0
 11
102.5085371410521
 21
16.652875
 31
0.0
 12
101.9582038077188
 22
13.350875
 32
0.0
 13
101.9582038077188
 23
13.350875
 33
0.0
  0
SOLID
  5
420
330
416
100
AcDbEntity
  8
치수문자_일반주서
 62
     0
100
AcDbTrace
 10
102.5085371410522
 20
3.302000000000002
 30
0.0
 11
101.4078704743855
 21
3.301999999999997
 31
0.0
 12
101.9582038077188
 22
6.603999999999999
 32
0.0
 13
101.9582038077188
 23
6.603999999999999
 33
0.0
  0
MTEXT
  5
421
330
416
100
AcDbEntity
  8
치수문자_일반주서
 62
     0
100
AcDbMText
 10
97.58320380771869
 20
45.01911739652628
 30
0.0
 40
3.5
 41
0.0
 71
     2
 72
     1
  1
\A1;%%c6.75 [17/64]
  7
SLDTEXTSTYLE0
 11
-4.212573885006615E-15
 21
1.0
 31
0.0
 73
     1
 44
1.0
  0
POINT
  5
422
330
416
100
AcDbEntity
  8
Defpoints
 62
     0
100
AcDbPoint
 10
88.725
 20
13.35087499999995
 30
0.0
  0
POINT
  5
423
330
416
100
AcDbEntity
  8
Defpoints
 62
     0
100
AcDbPoint
 10
88.72500000000001
 20
6.603999999999949
 30
0.0
  0
POINT
  5
424
330
416
100
AcDbEntity
  8
Defpoints
 62
     0
100
AcDbPoint
 10
101.9582038077188
 20
6.603999999999998
 30
0.0
  0
ENDBLK
  5
418
330
416
100
AcDbEntity
  8
0
100
AcDbBlockEnd
  0
BLOCK
  5
426
330
425
100
AcDbEntity
  8
0
100
AcDbBlockBegin
  2
*D21
 70
     1
 10
0.0
 20
0.0
 30
0.0
  3
*D21
  1
*D24
  0
LINE
  5
428
330
425
100
AcDbEntity
  8
치수문자_일반주서
 62
     0
370
    -2
100
AcDbLine
 10
88.72500000000001
 20
13.41337499999995
 30
0.0
 11
88.72500000000001
 21
30.21008317052726
 31
0.0
  0
LINE
  5
429
330
425
100
AcDbEntity
  8
치수문자_일반주서
 62
     0
370
    -2
100
AcDbLine
 10
71.26249999999999
 20
13.40578167824251
 30
0.0
 11
71.26249999999999
 21
30.21008317052726
 31
0.0
  0
LINE
  5
42A
330
425
100
AcDbEntity
  8
치수문자_일반주서
 62
     0
370
    -2
100
AcDbLine
 10
71.26249999999999
 20
30.21008317052726
 30
0.0
 11
36.65849999999999
 21
30.21008317052726
 31
0.0
  0
LINE
  5
42B
330
425
100
AcDbEntity
  8
치수문자_일반주서
 62
     0
370
    -2
100
AcDbLine
 10
88.72500000000001
 20
30.21008317052726
 30
0.0
 11
71.26249999999999
 21
30.21008317052726
 31
0.0
  0
LINE
  5
42C
330
425
100
AcDbEntity
  8
치수문자_일반주서
 62
     0
370
    -2
100
AcDbLine
 10
92.02700000000002
 20
30.21008317052726
 30
0.0
 11
95.32900000000001
 21
30.21008317052726
 31
0.0
  0
LINE
  5
42D
330
425
100
AcDbEntity
  8
치수문자_일반주서
 62
     0
370
    -2
100
AcDbLine
 10
67.9605
 20
30.21008317052726
 30
0.0
 11
64.6585
 21
30.21008317052726
 31
0.0
  0
SOLID
  5
42E
330
425
100
AcDbEntity
  8
치수문자_일반주서
 62
     0
100
AcDbTrace
 10
92.02700000000002
 20
30.7604165038606
 30
0.0
 11
92.02700000000002
 21
29.65974983719393
 31
0.0
 12
88.72500000000001
 22
30.21008317052726
 32
0.0
 13
88.72500000000001
 23
30.21008317052726
 33
0.0
  0
SOLID
  5
42F
330
425
100
AcDbEntity
  8
치수문자_일반주서
 62
     0
100
AcDbTrace
 10
67.9605
 20
29.65974983719393
 30
0.0
 11
67.9605
 21
30.7604165038606
 31
0.0
 12
71.26249999999999
 22
30.21008317052726
 32
0.0
 13
71.26249999999999
 23
30.21008317052726
 33
0.0
  0
MTEXT
  5
430
330
425
100
AcDbEntity
  8
치수문자_일반주서
 62
     0
100
AcDbMText
 10
50.65849999999998
 20
34.58508317052726
 30
0.0
 40
3.5
 41
0.0
 71
     2
 72
     1
  1
\A1;17.46 [11/16]
  7
SLDTEXTSTYLE0
 73
     1
 44
1.0
  0
POINT
  5
431
330
425
100
AcDbEntity
  8
Defpoints
 62
     0
100
AcDbPoint
 10
88.72500000000001
 20
13.35087499999995
 30
0.0
  0
POINT
  5
432
330
425
100
AcDbEntity
  8
Defpoints
 62
     0
100
AcDbPoint
 10
71.26249999999999
 20
13.34328167824251
 30
0.0
  0
POINT
  5
433
330
425
100
AcDbEntity
  8
Defpoints
 62
     0
100
AcDbPoint
 10
71.26249999999999
 20
30.21008317052726
 30
0.0
  0
ENDBLK
  5
427
330
425
100
AcDbEntity
  8
0
100
AcDbBlockEnd
  0
BLOCK
  5
435
330
434
100
AcDbEntity
  8
0
100
AcDbBlockBegin
  2
*D22
 70
     1
 10
0.0
 20
0.0
 30
0.0
  3
*D22
  1
*D25
  0
LINE
  5
437
330
434
100
AcDbEntity
  8
치수문자_일반주서
 62
     0
370
    -2
100
AcDbLine
 10
88.72500000000001
 20
13.41337499999995
 30
0.0
 11
88.725
 21
44.58125647475833
 31
0.0
  0
LINE
  5
438
330
434
100
AcDbEntity
  8
치수문자_일반주서
 62
     0
370
    -2
100
AcDbLine
 10
3.000000000000007
 20
13.84993749999994
 30
0.0
 11
2.999999999999993
 21
44.58125647475833
 31
0.0
  0
LINE
  5
439
330
434
100
AcDbEntity
  8
치수문자_일반주서
 62
     0
370
    -2
100
AcDbLine
 10
85.423
 20
44.58125647475833
 30
0.0
 11
6.301999999999992
 21
44.58125647475833
 31
0.0
  0
SOLID
  5
43A
330
434
100
AcDbEntity
  8
치수문자_일반주서
 62
     0
100
AcDbTrace
 10
85.423
 20
44.03092314142499
 30
0.0
 11
85.423
 21
45.13158980809166
 31
0.0
 12
88.725
 22
44.58125647475833
 32
0.0
 13
88.725
 23
44.58125647475833
 33
0.0
  0
SOLID
  5
43B
330
434
100
AcDbEntity
  8
치수문자_일반주서
 62
     0
100
AcDbTrace
 10
6.301999999999992
 20
45.13158980809166
 30
0.0
 11
6.301999999999992
 21
44.03092314142499
 31
0.0
 12
2.999999999999993
 22
44.58125647475833
 32
0.0
 13
2.999999999999993
 23
44.58125647475833
 33
0.0
  0
MTEXT
  5
43C
330
434
100
AcDbEntity
  8
치수문자_일반주서
 62
     0
100
AcDbMText
 10
43.56923418370306
 20
48.95625647475833
 30
0.0
 40
3.5
 41
0.0
 71
     2
 72
     1
  1
\A1;85.73 [3 3/8]
  7
SLDTEXTSTYLE0
 73
     1
 44
1.0
  0
POINT
  5
43D
330
434
100
AcDbEntity
  8
Defpoints
 62
     0
100
AcDbPoint
 10
88.72500000000001
 20
13.35087499999995
 30
0.0
  0
POINT
  5
43E
330
434
100
AcDbEntity
  8
Defpoints
 62
     0
100
AcDbPoint
 10
3.000000000000007
 20
13.78743749999994
 30
0.0
  0
POINT
  5
43F
330
434
100
AcDbEntity
  8
Defpoints
 62
     0
100
AcDbPoint
 10
3.000000000000007
 20
44.58125647475833
 30
0.0
  0
ENDBLK
  5
436
330
434
100
AcDbEntity
  8
0
100
AcDbBlockEnd
  0
BLOCK
  5
474
330
473
100
AcDbEntity
  8
0
100
AcDbBlockBegin
  2
*D23
 70
     1
 10
0.0
 20
0.0
 30
0.0
  3
*D23
  1
*D26
  0
LINE
  5
476
330
473
100
AcDbEntity
  8
치수문자_일반주서
 62
     0
370
    -2
100
AcDbLine
 10
184.7902359314438
 20
-61.09971413422286
 30
0.0
 11
197.9609397391627
 21
-61.09971413422281
 31
0.0
  0
LINE
  5
477
330
473
100
AcDbEntity
  8
치수문자_일반주서
 62
     0
370
    -2
100
AcDbLine
 10
184.7902359314438
 20
-67.84658913422287
 30
0.0
 11
197.9609397391627
 21
-67.84658913422282
 31
0.0
  0
LINE
  5
478
330
473
100
AcDbEntity
  8
치수문자_일반주서
 62
     0
370
    -2
100
AcDbLine
 10
197.9609397391627
 20
-61.09971413422281
 30
0.0
 11
197.9609397391625
 21
-14.11897173769651
 31
0.0
  0
LINE
  5
479
330
473
100
AcDbEntity
  8
치수문자_일반주서
 62
     0
370
    -2
100
AcDbLine
 10
197.9609397391627
 20
-61.09971413422281
 30
0.0
 11
197.9609397391627
 21
-67.84658913422282
 31
0.0
  0
LINE
  5
47A
330
473
100
AcDbEntity
  8
치수문자_일반주서
 62
     0
370
    -2
100
AcDbLine
 10
197.9609397391627
 20
-57.79771413422282
 30
0.0
 11
197.9609397391627
 21
-54.49571413422282
 31
0.0
  0
LINE
  5
47B
330
473
100
AcDbEntity
  8
치수문자_일반주서
 62
     0
370
    -2
100
AcDbLine
 10
197.9609397391627
 20
-71.14858913422282
 30
0.0
 11
197.9609397391627
 21
-74.45058913422281
 31
0.0
  0
SOLID
  5
47C
330
473
100
AcDbEntity
  8
치수문자_일반주서
 62
     0
100
AcDbTrace
 10
197.4106064058293
 20
-57.79771413422282
 30
0.0
 11
198.511273072496
 21
-57.79771413422282
 31
0.0
 12
197.9609397391627
 22
-61.09971413422281
 32
0.0
 13
197.9609397391627
 23
-61.09971413422281
 33
0.0
  0
SOLID
  5
47D
330
473
100
AcDbEntity
  8
치수문자_일반주서
 62
     0
100
AcDbTrace
 10
198.511273072496
 20
-71.14858913422282
 30
0.0
 11
197.4106064058294
 21
-71.14858913422282
 31
0.0
 12
197.9609397391627
 22
-67.84658913422282
 32
0.0
 13
197.9609397391627
 23
-67.84658913422282
 33
0.0
  0
MTEXT
  5
47E
330
473
100
AcDbEntity
  8
치수문자_일반주서
 62
     0
100
AcDbMText
 10
193.5859397391625
 20
-29.43147173769653
 30
0.0
 40
3.5
 41
0.0
 71
     2
 72
     1
  1
\A1;%%c6.75 [17/64]
  7
SLDTEXTSTYLE0
 11
-4.212573885006609E-15
 21
1.0
 31
0.0
 73
     1
 44
1.0
  0
POINT
  5
47F
330
473
100
AcDbEntity
  8
Defpoints
 62
     0
100
AcDbPoint
 10
184.7277359314438
 20
-61.09971413422286
 30
0.0
  0
POINT
  5
480
330
473
100
AcDbEntity
  8
Defpoints
 62
     0
100
AcDbPoint
 10
184.7277359314438
 20
-67.84658913422287
 30
0.0
  0
POINT
  5
481
330
473
100
AcDbEntity
  8
Defpoints
 62
     0
100
AcDbPoint
 10
197.9609397391627
 20
-67.84658913422282
 30
0.0
  0
ENDBLK
  5
475
330
473
100
AcDbEntity
  8
0
100
AcDbBlockEnd
  0
BLOCK
  5
483
330
482
100
AcDbEntity
  8
0
100
AcDbBlockBegin
  2
*D24
 70
     1
 10
0.0
 20
0.0
 30
0.0
  3
*D24
  1
*D27
  0
LINE
  5
485
330
482
100
AcDbEntity
  8
치수문자_일반주서
 62
     0
370
    -2
100
AcDbLine
 10
184.7277359314438
 20
-61.03721413422286
 30
0.0
 11
184.7277359314438
 21
-44.24050596369555
 31
0.0
  0
LINE
  5
486
330
482
100
AcDbEntity
  8
치수문자_일반주서
 62
     0
370
    -2
100
AcDbLine
 10
167.2652359314438
 20
-61.0448074559803
 30
0.0
 11
167.2652359314438
 21
-44.24050596369555
 31
0.0
  0
LINE
  5
487
330
482
100
AcDbEntity
  8
치수문자_일반주서
 62
     0
370
    -2
100
AcDbLine
 10
167.2652359314438
 20
-44.24050596369555
 30
0.0
 11
132.6612359314438
 21
-44.24050596369555
 31
0.0
  0
LINE
  5
488
330
482
100
AcDbEntity
  8
치수문자_일반주서
 62
     0
370
    -2
100
AcDbLine
 10
184.7277359314438
 20
-44.24050596369555
 30
0.0
 11
167.2652359314438
 21
-44.24050596369555
 31
0.0
  0
LINE
  5
489
330
482
100
AcDbEntity
  8
치수문자_일반주서
 62
     0
370
    -2
100
AcDbLine
 10
188.0297359314438
 20
-44.24050596369555
 30
0.0
 11
191.3317359314438
 21
-44.24050596369555
 31
0.0
  0
LINE
  5
48A
330
482
100
AcDbEntity
  8
치수문자_일반주서
 62
     0
370
    -2
100
AcDbLine
 10
163.9632359314438
 20
-44.24050596369555
 30
0.0
 11
160.6612359314438
 21
-44.24050596369555
 31
0.0
  0
SOLID
  5
48B
330
482
100
AcDbEntity
  8
치수문자_일반주서
 62
     0
100
AcDbTrace
 10
188.0297359314438
 20
-43.69017263036221
 30
0.0
 11
188.0297359314438
 21
-44.79083929702888
 31
0.0
 12
184.7277359314438
 22
-44.24050596369555
 32
0.0
 13
184.7277359314438
 23
-44.24050596369555
 33
0.0
  0
SOLID
  5
48C
330
482
100
AcDbEntity
  8
치수문자_일반주서
 62
     0
100
AcDbTrace
 10
163.9632359314438
 20
-44.79083929702888
 30
0.0
 11
163.9632359314438
 21
-43.69017263036221
 31
0.0
 12
167.2652359314438
 22
-44.24050596369555
 32
0.0
 13
167.2652359314438
 23
-44.24050596369555
 33
0.0
  0
MTEXT
  5
48D
330
482
100
AcDbEntity
  8
치수문자_일반주서
 62
     0
100
AcDbMText
 10
146.6612359314438
 20
-39.86550596369555
 30
0.0
 40
3.5
 41
0.0
 71
     2
 72
     1
  1
\A1;17.46 [11/16]
  7
SLDTEXTSTYLE0
 73
     1
 44
1.0
  0
POINT
  5
48E
330
482
100
AcDbEntity
  8
Defpoints
 62
     0
100
AcDbPoint
 10
184.7277359314438
 20
-61.09971413422286
 30
0.0
  0
POINT
  5
48F
330
482
100
AcDbEntity
  8
Defpoints
 62
     0
100
AcDbPoint
 10
167.2652359314438
 20
-61.1073074559803
 30
0.0
  0
POINT
  5
490
330
482
100
AcDbEntity
  8
Defpoints
 62
     0
100
AcDbPoint
 10
167.2652359314438
 20
-44.24050596369555
 30
0.0
  0
ENDBLK
  5
484
330
482
100
AcDbEntity
  8
0
100
AcDbBlockEnd
  0
BLOCK
  5
492
330
491
100
AcDbEntity
  8
0
100
AcDbBlockBegin
  2
*D25
 70
     1
 10
0.0
 20
0.0
 30
0.0
  3
*D25
  1
*D28
  0
LINE
  5
494
330
491
100
AcDbEntity
  8
치수문자_일반주서
 62
     0
370
    -2
100
AcDbLine
 10
184.7277359314438
 20
-61.03721413422286
 30
0.0
 11
184.7277359314438
 21
-29.86933265946448
 31
0.0
  0
LINE
  5
495
330
491
100
AcDbEntity
  8
치수문자_일반주서
 62
     0
370
    -2
100
AcDbLine
 10
99.00273593144382
 20
-60.60065163422287
 30
0.0
 11
99.00273593144382
 21
-29.86933265946448
 31
0.0
  0
LINE
  5
496
330
491
100
AcDbEntity
  8
치수문자_일반주서
 62
     0
370
    -2
100
AcDbLine
 10
181.4257359314438
 20
-29.86933265946448
 30
0.0
 11
102.3047359314438
 21
-29.86933265946448
 31
0.0
  0
SOLID
  5
497
330
491
100
AcDbEntity
  8
치수문자_일반주서
 62
     0
100
AcDbTrace
 10
181.4257359314438
 20
-30.41966599279782
 30
0.0
 11
181.4257359314438
 21
-29.31899932613115
 31
0.0
 12
184.7277359314438
 22
-29.86933265946448
 32
0.0
 13
184.7277359314438
 23
-29.86933265946448
 33
0.0
  0
SOLID
  5
498
330
491
100
AcDbEntity
  8
치수문자_일반주서
 62
     0
100
AcDbTrace
 10
102.3047359314438
 20
-29.31899932613115
 30
0.0
 11
102.3047359314438
 21
-30.41966599279782
 31
0.0
 12
99.00273593144382
 22
-29.86933265946448
 32
0.0
 13
99.00273593144382
 23
-29.86933265946448
 33
0.0
  0
MTEXT
  5
499
330
491
100
AcDbEntity
  8
치수문자_일반주서
 62
     0
100
AcDbMText
 10
139.5719701151469
 20
-25.49433265946448
 30
0.0
 40
3.5
 41
0.0
 71
     2
 72
     1
  1
\A1;85.73 [3 3/8]
  7
SLDTEXTSTYLE0
 73
     1
 44
1.0
  0
POINT
  5
49A
330
491
100
AcDbEntity
  8
Defpoints
 62
     0
100
AcDbPoint
 10
184.7277359314438
 20
-61.09971413422286
 30
0.0
  0
POINT
  5
49B
330
491
100
AcDbEntity
  8
Defpoints
 62
     0
100
AcDbPoint
 10
99.00273593144382
 20
-60.66315163422287
 30
0.0
  0
POINT
  5
49C
330
491
100
AcDbEntity
  8
Defpoints
 62
     0
100
AcDbPoint
 10
99.00273593144382
 20
-29.86933265946448
 30
0.0
  0
ENDBLK
  5
493
330
491
100
AcDbEntity
  8
0
100
AcDbBlockEnd
  0
ENDSEC
  0
SECTION
  2
ENTITIES
  0
LINE
  5
96
330
1F
100
AcDbEntity
  8
0
  6
Continuous
 62
     1
370
    15
100
AcDbLine
 10
28.78535890409908
 20
-0.9800021810963753
 30
0.0
 11
28.84594749029471
 21
-1.012267001391695
 31
0.0
  0
LINE
  5
97
330
1F
100
AcDbEntity
  8
0
  6
Continuous
 62
     1
370
    15
100
AcDbLine
 10
34.1864448274437
 20
-3.373437500000003
 30
0.0
 11
36.24371429124444
 21
-3.373437500000003
 31
0.0
  0
LINE
  5
98
330
1F
100
AcDbEntity
  8
0
  6
Continuous
 62
     1
370
    15
100
AcDbLine
 10
27.06368609362288
 20
3.3734375
 30
0.0
 11
25.4
 21
3.3734375
 31
0.0
  0
LINE
  5
99
330
1F
100
AcDbEntity
  8
0
  6
Continuous
 62
     1
370
    15
100
AcDbLine
 10
36.24371429124442
 20
3.3734375
 30
0.0
 11
34.18644482744374
 21
3.3734375
 31
0.0
  0
LINE
  5
9A
330
1F
100
AcDbEntity
  8
0
  6
Continuous
 62
     1
370
    15
100
AcDbLine
 10
25.4
 20
-3.373437500000003
 30
0.0
 11
27.06368609362283
 21
-3.373437500000003
 31
0.0
  0
LINE
  5
9B
330
1F
100
AcDbEntity
  8
외형선
  6
Continuous
370
    15
100
AcDbLine
 10
19.21594817511134
 20
-4.76250000000001
 30
0.0
 11
24.4
 21
-3.373437500000003
 31
0.0
  0
LINE
  5
9C
330
1F
100
AcDbEntity
  8
외형선
  6
Continuous
370
    15
100
AcDbLine
 10
24.4
 20
3.3734375
 30
0.0
 11
19.21594817511134
 21
4.762500000000006
 31
0.0
  0
LINE
  5
9D
330
1F
100
AcDbEntity
  8
외형선
  6
Continuous
370
    15
100
AcDbLine
 10
-19.21594817511134
 20
-4.762500000000006
 30
0.0
 11
19.21594817511134
 21
-4.762500000000006
 31
0.0
  0
LINE
  5
9E
330
1F
100
AcDbEntity
  8
외형선
  6
Continuous
370
    15
100
AcDbLine
 10
19.21594817511134
 20
4.762500000000002
 30
0.0
 11
4.838700000000019
 21
4.762500000000002
 31
0.0
  0
LINE
  5
A1
330
1F
100
AcDbEntity
  8
외형선
  6
Continuous
370
    15
100
AcDbLine
 10
25.00691279775847
 20
-3.373437500000002
 30
0.0
 11
25.4
 21
-3.373437500000002
 31
0.0
  0
LINE
  5
A2
330
1F
100
AcDbEntity
  8
외형선
  6
Continuous
370
    15
100
AcDbLine
 10
24.4
 20
-3.373437500000002
 30
0.0
 11
24.89983613923306
 21
-3.373437500000002
 31
0.0
  0
LINE
  5
A3
330
1F
100
AcDbEntity
  8
외형선
  6
Continuous
370
    15
100
AcDbLine
 10
24.89983613923306
 20
3.373437499999999
 30
0.0
 11
24.4
 21
3.373437499999999
 31
0.0
  0
LINE
  5
A4
330
1F
100
AcDbEntity
  8
외형선
  6
Continuous
370
    15
100
AcDbLine
 10
25.4
 20
3.373437499999999
 30
0.0
 11
25.00691279775847
 21
3.373437499999999
 31
0.0
  0
SPLINE
  5
A5
330
1F
100
AcDbEntity
  8
0
  6
Continuous
 62
     1
370
    15
100
AcDbSpline
210
0.0
220
0.0
230
1.0
 70
     8
 71
     3
 72
    18
 73
    14
 74
     0
 42
0.000000001
 43
0.00000001
 40
0.0
 40
0.0
 40
0.0
 40
0.0
 40
0.0970056114077305
 40
0.1940114166983721
 40
0.2910233889333927
 40
0.3880474860234667
 40
0.4850896361333432
 40
0.5821557232416804
 40
0.6792491633379141
 40
0.7682647430396982
 40
0.8572044469655067
 40
0.9461074575534442
 40
1.0
 40
1.0
 40
1.0
 40
1.0
 10
25.4
 20
0.948199802944878
 30
0.0
 10
25.86549642959478
 20
0.6849776057391482
 30
0.0
 10
26.79649021916148
 20
0.158532685231465
 30
0.0
 10
28.19300698647479
 20
-0.6546287896223761
 30
0.0
 10
29.58963171508496
 20
-1.426694934521137
 30
0.0
 10
30.98646442604009
 20
-2.118681970482134
 30
0.0
 10
32.38361280430829
 20
-2.689857248132553
 30
0.0
 10
33.7811482021535
 20
-3.108215993490737
 30
0.0
 10
35.14029855206986
 20
-3.342474450047254
 30
0.0
 10
36.4603154635134
 20
-3.399178833986865
 30
0.0
 10
37.74075329933461
 20
-3.285849164007105
 30
0.0
 10
38.8525749348164
 20
-3.069550620596683
 30
0.0
 10
39.5377010136807
 20
-2.839243297246521
 30
0.0
 10
39.79627479627965
 20
-2.752322892964722
 30
0.0
  0
SPLINE
  5
A6
330
1F
100
AcDbEntity
  8
외형선
  6
Continuous
370
    15
100
AcDbSpline
210
0.0
220
0.0
230
1.0
 70
    24
 71
     3
 72
    12
 73
     8
 74
     0
 42
0.000000001
 43
0.00000001
 40
0.0
 40
0.0
 40
0.0
 40
0.0
 40
0.1297656769315668
 40
0.2634569126869163
 40
0.5206081177057785
 40
0.7777593227246459
 40
1.0
 40
1.0
 40
1.0
 40
1.0
 10
25.39999999999998
 20
3.365844178242564
 30
0.0
 10
25.4
 20
3.257162445576542
 30
0.0
 10
25.4
 20
3.036511234634568
 30
0.0
 10
25.39999999999997
 20
2.576988254849422
 30
0.0
 10
25.40000000000004
 20
2.004241106171124
 30
0.0
 10
25.40000000000001
 20
1.40374100339731
 30
0.0
 10
25.4
 20
1.132957298984848
 30
0.0
 10
25.4
 20
1.007425023436592
 30
0.0
  0
SPLINE
  5
A7
330
1F
100
AcDbEntity
  8
0
  6
Continuous
 62
     1
370
    15
100
AcDbSpline
210
0.0
220
0.0
230
1.0
 70
     8
 71
     3
 72
    46
 73
    42
 74
     0
 42
0.000000001
 43
0.00000001
 40
0.0
 40
0.0
 40
0.0
 40
0.0
 40
0.062499999999996
 40
0.062499999999996
 40
0.124999999999992
 40
0.124999999999992
 40
0.15624999999999
 40
0.15624999999999
 40
0.1874999999999879
 40
0.1874999999999879
 40
0.2499999999999857
 40
0.2499999999999857
 40
0.2812499999999855
 40
0.2812499999999855
 40
0.3124999999999852
 40
0.3124999999999852
 40
0.3749999999999866
 40
0.3749999999999866
 40
0.4374999999999879
 40
0.4374999999999879
 40
0.4999999999999893
 40
0.4999999999999893
 40
0.5624999999999907
 40
0.5624999999999907
 40
0.5937499999999913
 40
0.5937499999999913
 40
0.6249999999999919
 40
0.6249999999999919
 40
0.6874999999999932
 40
0.6874999999999932
 40
0.7187499999999939
 40
0.7187499999999939
 40
0.7499999999999946
 40
0.7499999999999946
 40
0.812499999999996
 40
0.812499999999996
 40
0.8749999999999973
 40
0.8749999999999973
 40
0.9374999999999987
 40
0.9374999999999987
 40
1.0
 40
1.0
 40
1.0
 40
1.0
 10
42.8625
 20
-3.373437499999995
 30
0.0
 10
42.50179922803033
 20
-3.343086176264123
 30
0.0
 10
42.13443261490609
 20
-3.305425982215821
 30
0.0
 10
41.40539528537073
 20
-3.192228736517225
 30
0.0
 10
41.04536574208368
 20
-3.117001408183088
 30
0.0
 10
40.49745197955202
 20
-2.97712230633804
 30
0.0
 10
40.31456975966979
 20
-2.926057903807691
 30
0.0
 10
39.95070680494573
 20
-2.815754102484946
 30
0.0
 10
39.77079502681064
 20
-2.756647271664759
 30
0.0
 10
39.2263684025103
 20
-2.567097460605518
 30
0.0
 10
38.858607306328
 20
-2.424404417175385
 30
0.0
 10
38.31407150058573
 20
-2.191427352809171
 30
0.0
 10
38.13418622434252
 20
-2.110717850865245
 30
0.0
 10
37.7703818736159
 20
-1.942807112773274
 30
0.0
 10
37.58751081687225
 20
-1.855749900124347
 30
0.0
 10
37.03957540092654
 20
-1.586946843704666
 30
0.0
 10
36.67949792929728
 20
-1.398330774560506
 30
0.0
 10
35.95054924273445
 20
-1.005567425266814
 30
0.0
 10
35.58315315946676
 20
-0.8016160596869044
 30
0.0
 10
34.8615500868292
 20
-0.3892580779250906
 30
0.0
 10
34.49441436398663
 20
-0.1784092396939819
 30
0.0
 10
33.76529061642421
 20
0.2419556623598131
 30
0.0
 10
33.40530542090809
 20
0.4510758429327846
 30
0.0
 10
32.85741499209876
 20
0.7605166699647958
 30
0.0
 10
32.67452217166922
 20
0.8627522053386285
 30
0.0
 10
32.31060171873973
 20
1.064071911933205
 30
0.0
 10
32.13065932372284
 20
1.162963643675812
 30
0.0
 10
31.58634352565348
 20
1.454971195545716
 30
0.0
 10
31.21858357496163
 20
1.643124516221828
 30
0.0
 10
30.67394023367433
 20
1.908242108011135
 30
0.0
 10
30.49407734406459
 20
1.993709517309578
 30
0.0
 10
30.13033270253116
 20
2.159239602909632
 30
0.0
 10
29.94747337140271
 20
2.239128996251153
 30
0.0
 10
29.39951798257275
 20
2.46856217059308
 30
0.0
 10
29.03938900251856
 20
2.607329480878488
 30
0.0
 10
28.31053118296977
 20
2.854126953233457
 30
0.0
 10
27.94310677123202
 20
2.96181885026079
 30
0.0
 10
27.22130431948765
 20
3.140526916666278
 30
0.0
 10
26.85439597854258
 20
3.212582207804042
 30
0.0
 10
26.12518803878026
 20
3.318141886678132
 30
0.0
 10
25.76524361001156
 20
3.351740378412309
 30
0.0
 10
25.40000000000003
 20
3.365844178242135
 30
0.0
  0
LINE
  5
A8
330
1F
100
AcDbEntity
  8
0
  6
Continuous
 62
     1
370
    15
100
AcDbLine
 10
42.8625
 20
-3.055259426629931
 30
0.0
 11
42.8625
 21
0.2890406766299692
 31
0.0
  0
SPLINE
  5
A9
330
1F
100
AcDbEntity
  8
0
  6
Continuous
 62
     1
370
    15
100
AcDbSpline
210
0.0
220
0.0
230
1.0
 70
     8
 71
     3
 72
    19
 73
    15
 74
     0
 42
0.000000001
 43
0.00000001
 40
0.0
 40
0.0
 40
0.0
 40
0.0
 40
0.0714811925438536
 40
0.1598808589673553
 40
0.2482915738534072
 40
0.3367187390897801
 40
0.425167716300802
 40
0.5136416182190537
 40
0.5947547774595366
 40
0.6757987968492191
 40
0.7568093803778136
 40
0.8378225181731999
 40
0.9188741784749488
 40
1.0
 40
1.0
 40
1.0
 40
1.0
 10
27.06368609362288
 20
3.358559700541123
 30
0.0
 10
27.44011686031831
 20
3.352389120527921
 30
0.0
 10
28.28207363494936
 20
3.338587481275301
 30
0.0
 10
29.58963175964061
 20
3.088862981226173
 30
0.0
 10
30.98646441646633
 20
2.667490203751243
 30
0.0
 10
32.38361279803458
 20
2.088650259343353
 30
0.0
 10
33.78114823683902
 20
1.39242118572298
 30
0.0
 10
35.14029842420043
 20
0.6380227355829282
 30
0.0
 10
36.46031589725999
 20
-0.1261507998149755
 30
0.0
 10
37.74075167751013
 20
-0.8619431787562214
 30
0.0
 10
39.0205679945315
 20
-1.557068062584137
 30
0.0
 10
40.30043523150455
 20
-2.174921484198378
 30
0.0
 10
41.58100781535008
 20
-2.699315744795995
 30
0.0
 10
42.43520573467178
 20
-2.936575367648329
 30
0.0
 10
42.8625
 20
-3.055259426629931
 30
0.0
  0
SPLINE
  5
AA
330
1F
100
AcDbEntity
  8
0
  6
Continuous
 62
     1
370
    15
100
AcDbSpline
210
0.0
220
0.0
230
1.0
 70
     8
 71
     3
 72
    16
 73
    12
 74
     0
 42
0.000000001
 43
0.00000001
 40
0.0
 40
0.0
 40
0.0
 40
0.0
 40
0.1140485181737436
 40
0.2280638884591487
 40
0.3420529740414598
 40
0.4560227022916443
 40
0.5699800479929493
 40
0.6839320163209172
 40
0.7978856256650134
 40
0.9023467852040001
 40
1.0
 40
1.0
 40
1.0
 40
1.0
 10
42.86249999999999
 20
0.2890406766299692
 30
0.0
 10
42.39652714843296
 20
0.5553548772853829
 30
0.0
 10
41.46471687902739
 20
1.087905875105769
 30
0.0
 10
40.06728389619784
 20
1.820498590882269
 30
0.0
 10
38.67022964626212
 20
2.450585487558513
 30
0.0
 10
37.27346377166079
 20
2.940961741131086
 30
0.0
 10
35.8768719304222
 20
3.263853845132394
 30
0.0
 10
34.48038714977238
 20
3.401967557738888
 30
0.0
 10
33.12258847027672
 20
3.344802646266178
 30
0.0
 10
31.83169942944771
 20
3.133203975043708
 30
0.0
 10
31.00598988474023
 20
2.87877835967031
 30
0.0
 10
30.60704155761738
 20
2.755850540461945
 30
0.0
  0
SPLINE
  5
AB
330
1F
100
AcDbEntity
  8
0
  6
Continuous
 62
     1
370
    15
100
AcDbSpline
210
0.0
220
0.0
230
1.0
 70
     8
 71
     3
 72
    14
 73
    10
 74
     0
 42
0.000000001
 43
0.00000001
 40
0.0
 40
0.0
 40
0.0
 40
0.0
 40
0.125482752493607
 40
0.2711780492298707
 40
0.4169802783703792
 40
0.5628854430178809
 40
0.7086646821500059
 40
0.8543480368738137
 40
1.0
 40
1.0
 40
1.0
 40
1.0
 10
34.1864448274437
 20
-3.357455990876794
 30
0.0
 10
33.81890790701186
 20
-3.352414585931947
 30
0.0
 10
33.02463185614394
 20
-3.3415197152732
 30
0.0
 10
31.80356653478017
 20
-3.118388618936231
 30
0.0
 10
30.52241405875881
 20
-2.75447702755103
 30
0.0
 10
29.24072442968831
 20
-2.253915173253453
 30
0.0
 10
27.95974931307568
 20
-1.646386854408855
 30
0.0
 10
26.67966558623597
 20
-0.9606115399533466
 30
0.0
 10
25.82652455321795
 20
-0.4709967150046936
 30
0.0
 10
25.40000000000003
 20
-0.2262156807115085
 30
0.0
  0
LINE
  5
AC
330
1F
100
AcDbEntity
  8
외형선
  6
Continuous
370
    15
100
AcDbLine
 10
25.39999999999998
 20
-0.2262156807116396
 30
0.0
 11
25.40000000000001
 21
0.9481998029448712
 31
0.0
  0
LINE
  5
AD
330
1F
100
AcDbEntity
  8
0
  6
Continuous
 62
     1
370
    15
100
AcDbLine
 10
42.86250000000001
 20
-3.373437499999995
 30
0.0
 11
42.8625
 21
-3.055259426629931
 31
0.0
  0
LINE
  5
AE
330
1F
100
AcDbEntity
  8
외형선
  6
Continuous
370
    15
100
AcDbLine
 10
25.39999999999998
 20
3.365844178242564
 30
0.0
 11
25.4
 21
3.3734375
 31
0.0
  0
SPLINE
  5
AF
330
1F
100
AcDbEntity
  8
0
  6
Continuous
 62
     1
370
    15
100
AcDbSpline
210
0.0
220
0.0
230
1.0
 70
     8
 71
     3
 72
    11
 73
     7
 74
     0
 42
0.000000001
 43
0.00000001
 40
0.0
 40
0.0
 40
0.0
 40
0.0
 40
0.2681953040884595
 40
0.5363911442127806
 40
0.8046040343355381
 40
1.0
 40
1.0
 40
1.0
 40
1.0
 10
25.4
 20
-3.237436902875722
 30
0.0
 10
25.86549634347491
 20
-3.295395275876686
 30
0.0
 10
26.79648996080164
 20
-3.411312137718697
 30
0.0
 10
28.19300801994389
 20
-3.336666077176925
 30
0.0
 10
29.46318313987936
 20
-3.126859911235218
 30
0.0
 10
30.26788573835491
 20
-2.865855402206533
 30
0.0
 10
30.60704155761732
 20
-2.755850540461948
 30
0.0
  0
SPLINE
  5
B0
330
1F
100
AcDbEntity
  8
외형선
  6
Continuous
370
    15
100
AcDbSpline
210
0.0
220
0.0
230
1.0
 70
    24
 71
     3
 72
    20
 73
    16
 74
     0
 42
0.000000001
 43
0.00000001
 40
0.0
 40
0.0
 40
0.0
 40
0.0
 40
0.0552930964746456
 40
0.1352505086356892
 40
0.2129544997892387
 40
0.2929119119502835
 40
0.370615903103903
 40
0.4505733152648774
 40
0.5282773064183736
 40
0.6082347185793597
 40
0.6859387097329609
 40
0.765896121894062
 40
0.8436001130474319
 40
0.9235575252086554
 40
1.0
 40
1.0
 40
1.0
 40
1.0
 10
25.4
 20
-0.0940823631575327
 30
0.0
 10
25.39999999999998
 20
-0.0961891186162907
 30
0.0
 10
25.4
 20
-0.1013423794306616
 30
0.0
 10
25.40000000000006
 20
-0.1755090812970053
 30
0.0
 10
25.39999999999997
 20
-0.3057659448484496
 30
0.0
 10
25.40000000000004
 20
-0.4879030441350501
 30
0.0
 10
25.39999999999996
 20
-0.7174585753871946
 30
0.0
 10
25.39999999999998
 20
-0.9844954868445375
 30
0.0
 10
25.39999999999996
 20
-1.28607203402137
 30
0.0
 10
25.40000000000003
 20
-1.608288650978023
 30
0.0
 10
25.39999999999998
 20
-1.947755814162726
 30
0.0
 10
25.40000000000003
 20
-2.288964373684136
 30
0.0
 10
25.39999999999996
 20
-2.627627446998435
 30
0.0
 10
25.40000000000001
 20
-2.949196524273889
 30
0.0
 10
25.40000000000001
 20
-3.142807181247354
 30
0.0
 10
25.4
 20
-3.237436902875722
 30
0.0
  0
SPLINE
  5
B1
330
1F
100
AcDbEntity
  8
0
  6
Continuous
 62
     1
370
    15
100
AcDbSpline
210
0.0
220
0.0
230
1.0
 70
     8
 71
     3
 72
    13
 73
     9
 74
     0
 42
0.000000001
 43
0.00000001
 40
0.0
 40
0.0
 40
0.0
 40
0.0
 40
0.0327683788403509
 40
0.2262027092148471
 40
0.4195572355094215
 40
0.6129178582795941
 40
0.806370425838275
 40
0.9999999999999999
 40
0.9999999999999999
 40
0.9999999999999999
 40
0.9999999999999999
 10
36.24371429124444
 20
3.362065159342769
 30
0.0
 10
36.31602184359483
 20
3.365668885599418
 30
0.0
 10
36.81516659280688
 20
3.390545692794981
 30
0.0
 10
37.74073928554968
 20
3.28013641897888
 30
0.0
 10
39.02057131328442
 20
3.02606265493494
 30
0.0
 10
40.30043434604905
 20
2.61114244634609
 30
0.0
 10
41.58100803699414
 20
2.080007188463393
 30
0.0
 10
42.43520580857566
 20
1.646868037065848
 30
0.0
 10
42.8625
 20
1.430199427490837
 30
0.0
  0
LINE
  5
B2
330
1F
100
AcDbEntity
  8
0
  6
Continuous
 62
     1
370
    15
100
AcDbLine
 10
42.8625
 20
0.2890406766299691
 30
0.0
 11
42.8625
 21
1.430199427490837
 31
0.0
  0
SPLINE
  5
B3
330
1F
100
AcDbEntity
  8
0
  6
Continuous
 62
     1
370
    15
100
AcDbSpline
210
0.0
220
0.0
230
1.0
 70
     8
 71
     3
 72
    10
 73
     6
 74
     0
 42
0.000000001
 43
0.00000001
 40
0.0
 40
0.0
 40
0.0
 40
0.0
 40
0.4558865663682123
 40
0.9116406305589387
 40
1.0
 40
1.0
 40
1.0
 40
1.0
 10
42.8625
 20
3.373437500000005
 30
0.0
 10
42.39652807789587
 20
3.316940088807922
 30
0.0
 10
41.46471966714596
 20
3.228769096896683
 30
0.0
 10
40.44266340988295
 20
2.992369313215943
 30
0.0
 10
39.88657826867307
 20
2.785858485684173
 30
0.0
 10
39.79627479627965
 20
2.752322892964719
 30
0.0
  0
LINE
  5
B4
330
1F
100
AcDbEntity
  8
0
  6
Continuous
 62
     1
370
    15
100
AcDbLine
 10
42.8625
 20
1.412531625729411
 30
0.0
 11
42.86250000000001
 21
3.373437500000005
 31
0.0
  0
LINE
  5
B5
330
1F
100
AcDbEntity
  8
외형선
  6
Continuous
370
    15
100
AcDbLine
 10
25.4
 20
-3.373437500000003
 30
0.0
 11
25.4
 21
-3.237436902875722
 31
0.0
  0
LINE
  5
B6
330
1F
100
AcDbEntity
  8
외형선
  6
Continuous
370
    15
100
AcDbLine
 10
24.4
 20
-0.0000000000000017
 30
0.0
 11
24.4
 21
3.3734375
 31
0.0
  0
LINE
  5
B7
330
1F
100
AcDbEntity
  8
외형선
  6
Continuous
370
    15
100
AcDbLine
 10
24.4
 20
-3.373437500000003
 30
0.0
 11
24.4
 21
-0.0000000000000017
 31
0.0
  0
LINE
  5
B8
330
1F
100
AcDbEntity
  8
외형선
  6
Continuous
370
    15
100
AcDbLine
 10
19.21594817511134
 20
-0.0000000000000017
 30
0.0
 11
19.21594817511134
 21
4.76250000000001
 31
0.0
  0
LINE
  5
B9
330
1F
100
AcDbEntity
  8
외형선
  6
Continuous
370
    15
100
AcDbLine
 10
19.21594817511134
 20
-4.76250000000002
 30
0.0
 11
19.21594817511134
 21
-0.0000000000000017
 31
0.0
  0
SPLINE
  5
BE
330
1F
100
AcDbEntity
  8
외형선
  6
Continuous
370
    15
100
AcDbSpline
210
0.0
220
0.0
230
1.0
 70
    24
 71
     3
 72
    14
 73
    10
 74
     0
 42
0.000000001
 43
0.00000001
 40
0.0
 40
0.0
 40
0.0
 40
0.0
 40
0.1221130647846515
 40
0.2796816577539856
 40
0.437250250723319
 40
0.5948188436926575
 40
0.7523874366619907
 40
0.9099560296313192
 40
1.0
 40
1.0
 40
1.0
 40
1.0
 10
25.40000000000001
 20
-3.237436902875723
 30
0.0
 10
25.4
 20
-3.083640832795624
 30
0.0
 10
25.4
 20
-2.731394003908756
 30
0.0
 10
25.40000000000003
 20
-2.092436748452678
 30
0.0
 10
25.4
 20
-1.413097581447083
 30
0.0
 10
25.40000000000001
 20
-0.8074864916429604
 30
0.0
 10
25.40000000000014
 20
-0.3599856463398868
 30
0.0
 10
25.39999999999998
 20
-0.1122145047832992
 30
0.0
 10
25.39999999999998
 20
-0.1153140712451344
 30
0.0
 10
25.39999999999998
 20
-0.1164412243543417
 30
0.0
  0
SPLINE
  5
BF
330
1F
100
AcDbEntity
  8
외형선
  6
Continuous
370
    15
100
AcDbSpline
210
0.0
220
0.0
230
1.0
 70
     8
 71
     3
 72
     8
 73
     4
 74
     0
 42
0.000000001
 43
0.00000001
 40
0.0
 40
0.0
 40
0.0
 40
0.0
 40
1.0
 40
1.0
 40
1.0
 40
1.0
 10
25.4
 20
-3.237436902875722
 30
0.0
 10
25.23320957459279
 20
-3.210440756132924
 30
0.0
 10
25.06618450812104
 20
-3.179488500846773
 30
0.0
 10
24.89983613923306
 20
-3.144759368952183
 30
0.0
  0
SPLINE
  5
C0
330
1F
100
AcDbEntity
  8
외형선
  6
Continuous
370
    15
100
AcDbSpline
210
0.0
220
0.0
230
1.0
 70
     8
 71
     3
 72
     8
 73
     4
 74
     0
 42
0.000000001
 43
0.00000001
 40
0.0
 40
0.0
 40
0.0
 40
0.0
 40
1.0
 40
1.0
 40
1.0
 40
1.0
 10
25.39999999999998
 20
-0.2262156807114707
 30
0.0
 10
25.23320957459276
 20
-0.1303869080551039
 30
0.0
 10
25.06618450812103
 20
-0.0342379622589908
 30
0.0
 10
24.89983613923303
 20
0.0617060498013668
 30
0.0
  0
SPLINE
  5
C1
330
1F
100
AcDbEntity
  8
외형선
  6
Continuous
370
    15
100
AcDbSpline
210
0.0
220
0.0
230
1.0
 70
     8
 71
     3
 72
     8
 73
     4
 74
     0
 42
0.000000001
 43
0.00000001
 40
0.0
 40
0.0
 40
0.0
 40
0.0
 40
1.0
 40
1.0
 40
1.0
 40
1.0
 10
25.39999999999998
 20
3.365844178242138
 30
0.0
 10
25.23320957459276
 20
3.37228475299552
 30
0.0
 10
25.06618450812103
 20
3.374628374027809
 30
0.0
 10
24.89983613923303
 20
3.372873097201281
 30
0.0
  0
LINE
  5
C2
330
1F
100
AcDbEntity
  8
외형선
  6
Continuous
370
    15
100
AcDbLine
 10
24.89983613923306
 20
1.220863136799677
 30
0.0
 11
24.89983613923306
 21
3.373437499999999
 31
0.0
  0
SPLINE
  5
C3
330
1F
100
AcDbEntity
  8
외형선
  6
Continuous
370
    15
100
AcDbSpline
210
0.0
220
0.0
230
1.0
 70
     8
 71
     3
 72
     8
 73
     4
 74
     0
 42
0.000000001
 43
0.00000001
 40
0.0
 40
0.0
 40
0.0
 40
0.0
 40
1.0
 40
1.0
 40
1.0
 40
1.0
 10
25.4
 20
0.948199802944878
 30
0.0
 10
25.23320957459279
 20
1.040372698814658
 30
0.0
 10
25.06618450812104
 20
1.131433503939301
 30
0.0
 10
24.89983613923306
 20
1.220888642667181
 30
0.0
  0
LINE
  5
C4
330
1F
100
AcDbEntity
  8
외형선
  6
Continuous
370
    15
100
AcDbLine
 10
24.89983613923306
 20
-3.144769270965659
 30
0.0
 11
24.89983613923306
 21
0.0617279786842189
 31
0.0
  0
LINE
  5
C5
330
1F
100
AcDbEntity
  8
외형선
  6
Continuous
370
    15
100
AcDbLine
 10
25.00691279775847
 20
-3.372842834912634
 30
0.0
 11
24.89983613923303
 21
-3.372873097201284
 31
0.0
  0
LINE
  5
C6
330
1F
100
AcDbEntity
  8
외형선
  6
Continuous
370
    15
100
AcDbLine
 10
24.89983613923306
 20
-3.373437500000002
 30
0.0
 11
24.89983613923306
 21
-3.372872695945376
 31
0.0
  0
SPLINE
  5
C7
330
1F
100
AcDbEntity
  8
외형선
  6
Continuous
370
    15
100
AcDbSpline
210
0.0
220
0.0
230
1.0
 70
    24
 71
     3
 72
    12
 73
     8
 74
     0
 42
0.000000001
 43
0.00000001
 40
0.0
 40
0.0
 40
0.0
 40
0.0
 40
0.0411588828467041
 40
0.2979552740170789
 40
0.5547516651874459
 40
0.8115480563575146
 40
1.0
 40
1.0
 40
1.0
 40
1.0
 10
25.40000000000003
 20
1.007435023436592
 30
0.0
 10
25.40000000000004
 20
1.024690379141289
 30
0.0
 10
25.40000000000008
 20
1.14960446527924
 30
0.0
 10
25.40000000000011
 20
1.563978402126616
 30
0.0
 10
25.39999999999996
 20
2.191209178103025
 30
0.0
 10
25.39999999999994
 20
2.829588864253106
 30
0.0
 10
25.4
 20
3.206370749484612
 30
0.0
 10
25.40000000000001
 20
3.365844178242184
 30
0.0
  0
LINE
  5
C8
330
1F
100
AcDbEntity
  8
중심선
 48
0.8
100
AcDbLine
 10
-45.8625
 20
-0.0000000000000056
 30
0.0
 11
45.8625
 21
0.0000000000000056
 31
0.0
  0
LINE
  5
C9
330
1F
100
AcDbEntity
  8
참조1
100
AcDbLine
 10
3.368380657015613
 20
0.0010749287238892
 30
0.0
 11
3.368380657015616
 21
-39.99892507127611
 31
0.0
  0
LINE
  5
CA
330
1F
100
AcDbEntity
  8
참조1
100
AcDbLine
 10
3.368380657015616
 20
-39.99892507127611
 30
0.0
 11
-29.25297615729306
 21
-39.9989250712761
 31
0.0
  0
CIRCLE
  5
CB
330
1F
100
AcDbEntity
  8
해칭선
100
AcDbCircle
 10
0.0
 20
0.0
 30
0.0
 40
3.000000000000008
  0
INSERT
  5
CC
330
1F
100
AcDbEntity
  8
0
  6
Continuous
 62
     7
100
AcDbBlockReference
 66
     1
  2
블럭10
 10
-13.9402729321252
 20
-52.04717430164393
 30
0.0
  0
ATTRIB
  5
CD
330
CC
100
AcDbEntity
  8
FORMAT
 62
     2
100
AcDbText
 10
-23.12156822086648
 20
-49.97180738881174
 30
0.0
 40
4.233333333333333
  1
E1053017 [ 4 FLUTE ]
 41
0.75
  7
SLDTEXTSTYLE0
 11
-23.12156822086648
 21
-52.08847405547841
 31
0.0
100
AcDbAttribute
  2
AUTOATTR0
 70
     0
 74
     1
  0
SEQEND
  5
CE
330
CC
100
AcDbEntity
  8
0
  6
Continuous
 62
     7
  0
HATCH
  5
CF
330
1F
100
AcDbEntity
  8
중심선
100
AcDbHatch
 10
0.0
 20
0.0
 30
0.0
210
0.0
220
0.0
230
1.0
  2
SOLID
 70
     1
 71
     0
 91
        1
 92
        0
 93
        4
 72
     1
 10
-8.225363627744365
 20
-35.8
 11
-11.67163887158165
 21
-35.8
 72
     1
 10
-11.67163887158165
 20
-35.8
 11
-13.79986873078567
 21
-38.33632558057257
 72
     1
 10
-13.79986873078567
 20
-38.33632558057257
 11
-10.35356040183524
 21
-38.33628615127008
 72
     1
 10
-10.35356040183524
 20
-38.33628615127008
 11
-8.225363627744365
 21
-35.8
 97
        0
 75
     0
 76
     1
 98
        1
 10
-3.368380657015607
 20
-0.0010749287238949
  0
HATCH
  5
D0
330
1F
100
AcDbEntity
  8
중심선
100
AcDbHatch
 10
0.0
 20
0.0
 30
0.0
210
0.0
220
0.0
230
1.0
  2
SOLID
 70
     1
 71
     0
 91
        1
 92
        0
 93
        4
 72
     1
 10
-3.212599636708385
 20
-35.8
 11
-6.658874880545695
 21
-35.8
 72
     1
 10
-6.658874880545695
 20
-35.8
 11
-11.19001288890308
 21
-41.20000000000002
 72
     1
 10
-11.19001288890308
 20
-41.20000000000002
 11
-7.743737645065802
 21
-41.20000000000002
 72
     1
 10
-7.743737645065801
 20
-41.20000000000002
 11
-3.212599636708385
 21
-35.8
 97
        0
 75
     0
 76
     1
 98
        1
 10
-3.368380657015607
 20
-0.0010749287238949
  0
HATCH
  5
D1
330
1F
100
AcDbEntity
  8
중심선
100
AcDbHatch
 10
0.0
 20
0.0
 30
0.0
210
0.0
220
0.0
230
1.0
  2
SOLID
 70
     1
 71
     0
 91
        1
 92
        0
 93
        4
 72
     1
 10
1.800164354327511
 20
-35.79999999999998
 11
-1.646110889509577
 21
-35.79999999999998
 72
     1
 10
-1.646110889509577
 20
-35.79999999999998
 11
-8.69454779139888
 21
-44.20000000000002
 72
     1
 10
-8.694547791398882
 20
-44.20000000000002
 11
-5.2482725475616
 21
-44.20000000000002
 72
     1
 10
-5.2482725475616
 20
-44.20000000000002
 11
1.80016435432751
 21
-35.79999999999998
 97
        0
 75
     0
 76
     1
 98
        1
 10
-3.368380657015607
 20
-0.0010749287238949
  0
HATCH
  5
D2
330
1F
100
AcDbEntity
  8
중심선
100
AcDbHatch
 10
0.0
 20
0.0
 30
0.0
210
0.0
220
0.0
230
1.0
  2
SOLID
 70
     1
 71
     0
 91
        1
 92
        0
 93
        6
 72
     3
 10
6.600054785339683
 20
-40.00000000005127
 11
3.960054785062283
 21
1.540882976769353E-10
 40
0.3939339440162628
 50
17.09539180608436
 51
320.0019657685078
 73
     0
 72
     1
 10
8.283054441040278
 20
-38.5878940046383
 11
10.58835631474134
 21
-36.65356729459038
 72
     3
 10
6.600054785286837
 20
-40.00000000000015
 11
6.600054785286829
 21
-1.278976924368180E-13
 40
0.636358354079598
 50
39.99873849337385
 51
368.4976242363724
 73
     1
 72
     1
 10
13.02538727718744
 20
-39.03999999993002
 11
5.280122092122758
 21
-39.03999999993002
 72
     1
 10
5.280122092122758
 20
-39.03999999993002
 11
5.280097047676824
 21
-40.95999999992991
 72
     1
 10
5.280097047676824
 20
-40.95999999992991
 11
9.721476817148861
 21
-40.95999999992988
 97
        0
 75
     0
 76
     1
 98
        1
 10
-3.368380657015607
 20
-0.0010749287238949
  0
DIMENSION
  5
D3
330
1F
100
AcDbEntity
  8
치수문자_일반주서
100
AcDbDimension
  2
_D
 10
56.09570380771882
 20
-3.373437499999945
 30
0.0
 11
56.0957038077187
 21
35.04167989652635
 31
0.0
 70
   160
  1
%%c<>
 71
     2
 42
6.746875
 52
-270.0
  3
SLDDIMSTYLE0
100
AcDbAlignedDimension
 13
42.8625
 23
3.373437500000005
 33
0.0
 14
42.86250000000001
 24
-3.373437499999995
 34
0.0
 50
90.0000000000002
100
AcDbRotatedDimension
1001
ACAD
1000
DSTYLE
1002
{
1070
   171
1070
     6
1070
   273
1070
     7
1002
}
  0
DIMENSION
  5
E8
330
1F
100
AcDbEntity
  8
치수문자_일반주서
100
AcDbDimension
  2
_D_1
 10
25.39999999999998
 20
20.23264567052732
 30
0.0
 11
4.795999999999985
 21
20.23264567052732
 31
0.0
 70
   160
  1
<>
 71
     2
 42
17.46250000000003
  3
SLDDIMSTYLE0
100
AcDbAlignedDimension
 13
42.86250000000001
 23
3.373437500000005
 33
0.0
 14
25.39999999999998
 24
3.365844178242564
 34
0.0
 50
0.0000000000001399
100
AcDbRotatedDimension
1001
ACAD
1000
DSTYLE
1002
{
1070
   171
1070
     6
1070
   273
1070
     7
1002
}
  0
DIMENSION
  5
FD
330
1F
100
AcDbEntity
  8
치수문자_일반주서
100
AcDbDimension
  2
_D_2
 10
-42.8625
 20
34.60381897475838
 30
0.0
 11
-2.293265816296937
 21
34.60381897475838
 31
0.0
 70
   160
  1
<>
 71
     2
 42
85.72500000000001
  3
SLDDIMSTYLE0
100
AcDbAlignedDimension
 13
42.86250000000001
 23
3.373437500000005
 33
0.0
 14
-42.8625
 24
3.373437500000037
 34
0.0
100
AcDbRotatedDimension
1001
ACAD
1000
DSTYLE
1002
{
1070
   171
1070
     6
1070
   273
1070
     7
1002
}
  0
DIMENSION
  5
110
330
1F
100
AcDbEntity
  8
치수문자_일반주서
100
AcDbDimension
  2
_D_3
 10
-55.38624999999998
 20
-4.762500000000141
 30
0.0
 11
-55.38625
 21
0.0000000000000009
 31
0.0
 70
   160
  1
%%c<>
 71
     2
 42
9.525000000000007
 52
-270.0
  3
SLDDIMSTYLE0
100
AcDbAlignedDimension
 13
-19.21594817511134
 23
4.762500000000002
 33
0.0
 14
-19.21594817511134
 24
-4.762500000000006
 34
0.0
 50
90.0000000000002
100
AcDbRotatedDimension
1001
ACAD
1000
DSTYLE
1002
{
1070
   171
1070
     6
1070
   273
1070
     7
1002
}
  0
LINE
  5
124
330
1F
100
AcDbEntity
  8
참조1
100
AcDbLine
 10
68.7193644723612
 20
7.441074928723896
 30
0.0
 11
68.7193644723612
 21
-7.438925071276109
 31
0.0
  0
LINE
  5
125
330
1F
100
AcDbEntity
  8
참조1
100
AcDbLine
 10
81.41936447236121
 20
5.441074928723896
 30
0.0
 11
68.7193644723612
 21
5.441074928723896
 31
0.0
  0
SOLID
  5
126
330
1F
100
AcDbEntity
  8
참조1
100
AcDbTrace
 10
68.7193644723612
 20
5.441074928723896
 30
0.0
 11
75.0693644723612
 21
4.425074928723896
 31
0.0
 12
75.0693644723612
 22
6.457074928723896
 32
0.0
 13
75.0693644723612
 23
6.457074928723896
 33
0.0
  0
LINE
  5
127
330
1F
100
AcDbEntity
  8
참조1
100
AcDbLine
 10
81.41936447236121
 20
-5.438925071276109
 30
0.0
 11
68.7193644723612
 21
-5.438925071276109
 31
0.0
  0
SOLID
  5
128
330
1F
100
AcDbEntity
  8
참조1
100
AcDbTrace
 10
68.7193644723612
 20
-5.438925071276109
 30
0.0
 11
75.0693644723612
 21
-6.454925071276109
 31
0.0
 12
75.0693644723612
 22
-4.422925071276109
 32
0.0
 13
75.0693644723612
 23
-4.422925071276109
 33
0.0
  0
MTEXT
  5
129
330
1F
100
AcDbEntity
  8
참조1
100
AcDbMText
 10
78.1037146049872
 20
11.01136670591223
 30
0.0
 40
3.5
 41
0.0
 71
     1
 72
     1
  1
A
  7
SLDTEXTSTYLE0
 73
     1
 44
1.0
  0
MTEXT
  5
12A
330
1F
100
AcDbEntity
  8
참조1
100
AcDbMText
 10
78.1037146049872
 20
0.1313667059122219
 30
0.0
 40
3.5
 41
0.0
 71
     1
 72
     1
  1
A
  7
SLDTEXTSTYLE0
 73
     1
 44
1.0
  0
INSERT
  5
131
330
1F
100
AcDbEntity
  8
해칭선
100
AcDbBlockReference
  2
SW_DOWELSYMBOL_0
 10
0.0
 20
0.0
 30
0.0
  0
LINE
  5
441
330
1F
100
AcDbEntity
  8
0
  6
Continuous
 62
     1
370
    15
100
AcDbLine
 10
-28.78535890409908
 20
0.9800021810963958
 30
0.0
 11
-28.84594749029471
 21
1.01226700139172
 31
0.0
  0
LINE
  5
442
330
1F
100
AcDbEntity
  8
0
  6
Continuous
 62
     1
370
    15
100
AcDbLine
 10
-34.18644482744371
 20
3.373437500000037
 30
0.0
 11
-36.24371429124444
 21
3.373437500000037
 31
0.0
  0
LINE
  5
443
330
1F
100
AcDbEntity
  8
0
  6
Continuous
 62
     1
370
    15
100
AcDbLine
 10
-27.06368609362288
 20
-3.373437499999965
 30
0.0
 11
-25.39999999999999
 21
-3.373437499999965
 31
0.0
  0
LINE
  5
444
330
1F
100
AcDbEntity
  8
0
  6
Continuous
 62
     1
370
    15
100
AcDbLine
 10
-36.24371429124442
 20
-3.373437499999965
 30
0.0
 11
-34.18644482744374
 21
-3.373437499999965
 31
0.0
  0
LINE
  5
445
330
1F
100
AcDbEntity
  8
0
  6
Continuous
 62
     1
370
    15
100
AcDbLine
 10
-25.39999999999999
 20
3.373437500000023
 30
0.0
 11
-27.06368609362282
 21
3.373437500000023
 31
0.0
  0
LINE
  5
446
330
1F
100
AcDbEntity
  8
외형선
  6
Continuous
370
    15
100
AcDbLine
 10
-19.21594817511134
 20
4.762500000000031
 30
0.0
 11
-24.39999999999999
 21
3.373437500000023
 31
0.0
  0
LINE
  5
447
330
1F
100
AcDbEntity
  8
외형선
  6
Continuous
370
    15
100
AcDbLine
 10
-24.39999999999999
 20
-3.373437499999965
 30
0.0
 11
-19.21594817511134
 21
-4.762499999999989
 31
0.0
  0
LINE
  5
44A
330
1F
100
AcDbEntity
  8
외형선
  6
Continuous
370
    15
100
AcDbLine
 10
-25.00691279775846
 20
3.373437500000023
 30
0.0
 11
-25.39999999999999
 21
3.373437500000023
 31
0.0
  0
LINE
  5
44B
330
1F
100
AcDbEntity
  8
외형선
  6
Continuous
370
    15
100
AcDbLine
 10
-24.39999999999999
 20
3.373437500000023
 30
0.0
 11
-24.89983613923305
 21
3.373437500000023
 31
0.0
  0
LINE
  5
44C
330
1F
100
AcDbEntity
  8
외형선
  6
Continuous
370
    15
100
AcDbLine
 10
-24.89983613923305
 20
-3.373437499999965
 30
0.0
 11
-24.39999999999999
 21
-3.373437499999965
 31
0.0
  0
LINE
  5
44D
330
1F
100
AcDbEntity
  8
외형선
  6
Continuous
370
    15
100
AcDbLine
 10
-25.39999999999999
 20
-3.373437499999965
 30
0.0
 11
-25.00691279775846
 21
-3.373437499999965
 31
0.0
  0
SPLINE
  5
44E
330
1F
100
AcDbEntity
  8
0
  6
Continuous
 62
     1
370
    15
100
AcDbSpline
210
0.0
220
0.0
230
1.0
 70
     8
 71
     3
 72
    18
 73
    14
 74
     0
 42
0.000000001
 43
0.00000001
 40
0.0
 40
0.0
 40
0.0
 40
0.0
 40
0.0970056114077305
 40
0.1940114166983721
 40
0.2910233889333927
 40
0.3880474860234667
 40
0.4850896361333432
 40
0.5821557232416804
 40
0.6792491633379141
 40
0.7682647430396982
 40
0.8572044469655067
 40
0.9461074575534442
 40
1.0
 40
1.0
 40
1.0
 40
1.0
 10
-25.39999999999999
 20
-0.9481998029448558
 30
0.0
 10
-25.86549642959478
 20
-0.6849776057391207
 30
0.0
 10
-26.7964902191615
 20
-0.1585326852314492
 30
0.0
 10
-28.1930069864748
 20
0.6546287896223933
 30
0.0
 10
-29.58963171508496
 20
1.426694934521166
 30
0.0
 10
-30.98646442604009
 20
2.118681970482158
 30
0.0
 10
-32.3836128043083
 20
2.689857248132583
 30
0.0
 10
-33.78114820215352
 20
3.108215993490774
 30
0.0
 10
-35.14029855206986
 20
3.342474450047292
 30
0.0
 10
-36.4603154635134
 20
3.399178833986895
 30
0.0
 10
-37.7407532993346
 20
3.285849164007147
 30
0.0
 10
-38.85257493481639
 20
3.069550620596715
 30
0.0
 10
-39.53770101368069
 20
2.839243297246555
 30
0.0
 10
-39.79627479627966
 20
2.752322892964756
 30
0.0
  0
SPLINE
  5
44F
330
1F
100
AcDbEntity
  8
외형선
  6
Continuous
370
    15
100
AcDbSpline
210
0.0
220
0.0
230
1.0
 70
    24
 71
     3
 72
    12
 73
     8
 74
     0
 42
0.000000001
 43
0.00000001
 40
0.0
 40
0.0
 40
0.0
 40
0.0
 40
0.1297656769315668
 40
0.2634569126869163
 40
0.5206081177057785
 40
0.7777593227246459
 40
1.0
 40
1.0
 40
1.0
 40
1.0
 10
-25.39999999999999
 20
-3.365844178242525
 30
0.0
 10
-25.39999999999999
 20
-3.257162445576511
 30
0.0
 10
-25.39999999999999
 20
-3.036511234634531
 30
0.0
 10
-25.39999999999996
 20
-2.576988254849396
 30
0.0
 10
-25.40000000000005
 20
-2.004241106171093
 30
0.0
 10
-25.40000000000002
 20
-1.403741003397272
 30
0.0
 10
-25.39999999999999
 20
-1.13295729898482
 30
0.0
 10
-25.39999999999999
 20
-1.007425023436553
 30
0.0
  0
SPLINE
  5
450
330
1F
100
AcDbEntity
  8
0
  6
Continuous
 62
     1
370
    15
100
AcDbSpline
210
0.0
220
0.0
230
1.0
 70
     8
 71
     3
 72
    46
 73
    42
 74
     0
 42
0.000000001
 43
0.00000001
 40
0.0
 40
0.0
 40
0.0
 40
0.0
 40
0.062499999999996
 40
0.062499999999996
 40
0.124999999999992
 40
0.124999999999992
 40
0.15624999999999
 40
0.15624999999999
 40
0.1874999999999879
 40
0.1874999999999879
 40
0.2499999999999857
 40
0.2499999999999857
 40
0.2812499999999855
 40
0.2812499999999855
 40
0.3124999999999852
 40
0.3124999999999852
 40
0.3749999999999866
 40
0.3749999999999866
 40
0.4374999999999879
 40
0.4374999999999879
 40
0.4999999999999893
 40
0.4999999999999893
 40
0.5624999999999907
 40
0.5624999999999907
 40
0.5937499999999913
 40
0.5937499999999913
 40
0.6249999999999919
 40
0.6249999999999919
 40
0.6874999999999932
 40
0.6874999999999932
 40
0.7187499999999939
 40
0.7187499999999939
 40
0.7499999999999946
 40
0.7499999999999946
 40
0.812499999999996
 40
0.812499999999996
 40
0.8749999999999973
 40
0.8749999999999973
 40
0.9374999999999987
 40
0.9374999999999987
 40
1.0
 40
1.0
 40
1.0
 40
1.0
 10
-42.8625
 20
3.373437500000037
 30
0.0
 10
-42.50179922803032
 20
3.343086176264166
 30
0.0
 10
-42.13443261490609
 20
3.305425982215852
 30
0.0
 10
-41.40539528537072
 20
3.192228736517265
 30
0.0
 10
-41.04536574208369
 20
3.117001408183129
 30
0.0
 10
-40.49745197955203
 20
2.977122306338075
 30
0.0
 10
-40.31456975966979
 20
2.926057903807731
 30
0.0
 10
-39.95070680494574
 20
2.815754102484988
 30
0.0
 10
-39.77079502681063
 20
2.75664727166479
 30
0.0
 10
-39.22636840251032
 20
2.567097460605553
 30
0.0
 10
-38.85860730632798
 20
2.424404417175424
 30
0.0
 10
-38.31407150058571
 20
2.1914273528092
 30
0.0
 10
-38.13418622434251
 20
2.110717850865286
 30
0.0
 10
-37.7703818736159
 20
1.942807112773309
 30
0.0
 10
-37.58751081687224
 20
1.85574990012438
 30
0.0
 10
-37.03957540092652
 20
1.586946843704709
 30
0.0
 10
-36.67949792929728
 20
1.398330774560549
 30
0.0
 10
-35.95054924273445
 20
1.005567425266847
 30
0.0
 10
-35.58315315946676
 20
0.8016160596869358
 30
0.0
 10
-34.86155008682918
 20
0.3892580779251207
 30
0.0
 10
-34.49441436398662
 20
0.1784092396940198
 30
0.0
 10
-33.76529061642422
 20
-0.2419556623597711
 30
0.0
 10
-33.40530542090808
 20
-0.4510758429327521
 30
0.0
 10
-32.85741499209875
 20
-0.7605166699647722
 30
0.0
 10
-32.67452217166924
 20
-0.8627522053386084
 30
0.0
 10
-32.31060171873973
 20
-1.064071911933183
 30
0.0
 10
-32.13065932372284
 20
-1.162963643675795
 30
0.0
 10
-31.58634352565348
 20
-1.454971195545681
 30
0.0
 10
-31.21858357496164
 20
-1.643124516221803
 30
0.0
 10
-30.67394023367432
 20
-1.908242108011109
 30
0.0
 10
-30.49407734406459
 20
-1.993709517309554
 30
0.0
 10
-30.13033270253116
 20
-2.159239602909593
 30
0.0
 10
-29.94747337140272
 20
-2.239128996251125
 30
0.0
 10
-29.39951798257276
 20
-2.46856217059306
 30
0.0
 10
-29.03938900251858
 20
-2.607329480878462
 30
0.0
 10
-28.31053118296977
 20
-2.854126953233418
 30
0.0
 10
-27.94310677123202
 20
-2.961818850260755
 30
0.0
 10
-27.22130431948766
 20
-3.14052691666626
 30
0.0
 10
-26.85439597854257
 20
-3.212582207804018
 30
0.0
 10
-26.12518803878025
 20
-3.318141886678091
 30
0.0
 10
-25.76524361001155
 20
-3.351740378412273
 30
0.0
 10
-25.40000000000002
 20
-3.365844178242099
 30
0.0
  0
LINE
  5
451
330
1F
100
AcDbEntity
  8
0
  6
Continuous
 62
     1
370
    15
100
AcDbLine
 10
-42.8625
 20
3.05525942662996
 30
0.0
 11
-42.8625
 21
-0.2890406766299375
 31
0.0
  0
SPLINE
  5
452
330
1F
100
AcDbEntity
  8
0
  6
Continuous
 62
     1
370
    15
100
AcDbSpline
210
0.0
220
0.0
230
1.0
 70
     8
 71
     3
 72
    19
 73
    15
 74
     0
 42
0.000000001
 43
0.00000001
 40
0.0
 40
0.0
 40
0.0
 40
0.0
 40
0.0714811925438536
 40
0.1598808589673553
 40
0.2482915738534072
 40
0.3367187390897801
 40
0.425167716300802
 40
0.5136416182190537
 40
0.5947547774595366
 40
0.6757987968492191
 40
0.7568093803778136
 40
0.8378225181731999
 40
0.9188741784749488
 40
1.0
 40
1.0
 40
1.0
 40
1.0
 10
-27.06368609362288
 20
-3.358559700541093
 30
0.0
 10
-27.4401168603183
 20
-3.352389120527902
 30
0.0
 10
-28.28207363494936
 20
-3.338587481275283
 30
0.0
 10
-29.5896317596406
 20
-3.088862981226142
 30
0.0
 10
-30.98646441646632
 20
-2.667490203751214
 30
0.0
 10
-32.38361279803458
 20
-2.088650259343324
 30
0.0
 10
-33.78114823683903
 20
-1.392421185722952
 30
0.0
 10
-35.14029842420042
 20
-0.6380227355828932
 30
0.0
 10
-36.46031589725997
 20
0.1261507998150083
 30
0.0
 10
-37.74075167751012
 20
0.8619431787562636
 30
0.0
 10
-39.0205679945315
 20
1.557068062584165
 30
0.0
 10
-40.30043523150455
 20
2.174921484198422
 30
0.0
 10
-41.58100781535008
 20
2.699315744796025
 30
0.0
 10
-42.43520573467178
 20
2.93657536764836
 30
0.0
 10
-42.8625
 20
3.05525942662996
 30
0.0
  0
SPLINE
  5
453
330
1F
100
AcDbEntity
  8
0
  6
Continuous
 62
     1
370
    15
100
AcDbSpline
210
0.0
220
0.0
230
1.0
 70
     8
 71
     3
 72
    16
 73
    12
 74
     0
 42
0.000000001
 43
0.00000001
 40
0.0
 40
0.0
 40
0.0
 40
0.0
 40
0.1140485181737436
 40
0.2280638884591487
 40
0.3420529740414598
 40
0.4560227022916443
 40
0.5699800479929493
 40
0.6839320163209172
 40
0.7978856256650134
 40
0.9023467852040001
 40
1.0
 40
1.0
 40
1.0
 40
1.0
 10
-42.8625
 20
-0.2890406766299375
 30
0.0
 10
-42.39652714843295
 20
-0.5553548772853528
 30
0.0
 10
-41.46471687902739
 20
-1.087905875105747
 30
0.0
 10
-40.06728389619785
 20
-1.820498590882238
 30
0.0
 10
-38.67022964626211
 20
-2.450585487558484
 30
0.0
 10
-37.27346377166079
 20
-2.940961741131047
 30
0.0
 10
-35.87687193042221
 20
-3.263853845132359
 30
0.0
 10
-34.4803871497724
 20
-3.401967557738856
 30
0.0
 10
-33.12258847027674
 20
-3.344802646266146
 30
0.0
 10
-31.83169942944771
 20
-3.13320397504367
 30
0.0
 10
-31.00598988474023
 20
-2.878778359670292
 30
0.0
 10
-30.60704155761736
 20
-2.755850540461921
 30
0.0
  0
SPLINE
  5
454
330
1F
100
AcDbEntity
  8
0
  6
Continuous
 62
     1
370
    15
100
AcDbSpline
210
0.0
220
0.0
230
1.0
 70
     8
 71
     3
 72
    14
 73
    10
 74
     0
 42
0.000000001
 43
0.00000001
 40
0.0
 40
0.0
 40
0.0
 40
0.0
 40
0.125482752493607
 40
0.2711780492298707
 40
0.4169802783703792
 40
0.5628854430178809
 40
0.7086646821500059
 40
0.8543480368738137
 40
1.0
 40
1.0
 40
1.0
 40
1.0
 10
-34.18644482744371
 20
3.35745599087683
 30
0.0
 10
-33.81890790701185
 20
3.352414585931982
 30
0.0
 10
-33.02463185614396
 20
3.341519715273237
 30
0.0
 10
-31.80356653478019
 20
3.118388618936252
 30
0.0
 10
-30.5224140587588
 20
2.754477027551048
 30
0.0
 10
-29.24072442968831
 20
2.253915173253475
 30
0.0
 10
-27.95974931307568
 20
1.646386854408874
 30
0.0
 10
-26.67966558623597
 20
0.9606115399533625
 30
0.0
 10
-25.82652455321794
 20
0.4709967150047166
 30
0.0
 10
-25.40000000000002
 20
0.2262156807115335
 30
0.0
  0
LINE
  5
455
330
1F
100
AcDbEntity
  8
외형선
  6
Continuous
370
    15
100
AcDbLine
 10
-25.39999999999999
 20
0.2262156807116614
 30
0.0
 11
-25.40000000000002
 21
-0.9481998029448416
 31
0.0
  0
LINE
  5
456
330
1F
100
AcDbEntity
  8
0
  6
Continuous
 62
     1
370
    15
100
AcDbLine
 10
-42.8625
 20
3.373437500000037
 30
0.0
 11
-42.8625
 21
3.05525942662996
 31
0.0
  0
LINE
  5
457
330
1F
100
AcDbEntity
  8
외형선
  6
Continuous
370
    15
100
AcDbLine
 10
-25.39999999999999
 20
-3.365844178242525
 30
0.0
 11
-25.39999999999999
 21
-3.373437499999965
 31
0.0
  0
SPLINE
  5
458
330
1F
100
AcDbEntity
  8
0
  6
Continuous
 62
     1
370
    15
100
AcDbSpline
210
0.0
220
0.0
230
1.0
 70
     8
 71
     3
 72
    11
 73
     7
 74
     0
 42
0.000000001
 43
0.00000001
 40
0.0
 40
0.0
 40
0.0
 40
0.0
 40
0.2681953040884595
 40
0.5363911442127806
 40
0.8046040343355381
 40
1.0
 40
1.0
 40
1.0
 40
1.0
 10
-25.39999999999999
 20
3.237436902875743
 30
0.0
 10
-25.8654963434749
 20
3.295395275876715
 30
0.0
 10
-26.79648996080165
 20
3.411312137718725
 30
0.0
 10
-28.19300801994389
 20
3.336666077176944
 30
0.0
 10
-29.46318313987935
 20
3.126859911235244
 30
0.0
 10
-30.26788573835491
 20
2.865855402206549
 30
0.0
 10
-30.60704155761731
 20
2.755850540461964
 30
0.0
  0
SPLINE
  5
459
330
1F
100
AcDbEntity
  8
외형선
  6
Continuous
370
    15
100
AcDbSpline
210
0.0
220
0.0
230
1.0
 70
    24
 71
     3
 72
    20
 73
    16
 74
     0
 42
0.000000001
 43
0.00000001
 40
0.0
 40
0.0
 40
0.0
 40
0.0
 40
0.0552930964746456
 40
0.1352505086356892
 40
0.2129544997892387
 40
0.2929119119502835
 40
0.370615903103903
 40
0.4505733152648774
 40
0.5282773064183736
 40
0.6082347185793597
 40
0.6859387097329609
 40
0.765896121894062
 40
0.8436001130474319
 40
0.9235575252086554
 40
1.0
 40
1.0
 40
1.0
 40
1.0
 10
-25.39999999999999
 20
0.0940823631575543
 30
0.0
 10
-25.39999999999999
 20
0.0961891186163089
 30
0.0
 10
-25.39999999999999
 20
0.1013423794306763
 30
0.0
 10
-25.40000000000005
 20
0.1755090812970226
 30
0.0
 10
-25.39999999999996
 20
0.3057659448484745
 30
0.0
 10
-25.40000000000005
 20
0.4879030441350667
 30
0.0
 10
-25.39999999999996
 20
0.7174585753872126
 30
0.0
 10
-25.39999999999999
 20
0.9844954868445516
 30
0.0
 10
-25.39999999999996
 20
1.286072034021388
 30
0.0
 10
-25.40000000000002
 20
1.60828865097804
 30
0.0
 10
-25.39999999999999
 20
1.947755814162747
 30
0.0
 10
-25.40000000000002
 20
2.288964373684153
 30
0.0
 10
-25.39999999999996
 20
2.62762744699846
 30
0.0
 10
-25.40000000000002
 20
2.949196524273916
 30
0.0
 10
-25.40000000000002
 20
3.142807181247378
 30
0.0
 10
-25.39999999999999
 20
3.237436902875743
 30
0.0
  0
SPLINE
  5
45A
330
1F
100
AcDbEntity
  8
0
  6
Continuous
 62
     1
370
    15
100
AcDbSpline
210
0.0
220
0.0
230
1.0
 70
     8
 71
     3
 72
    13
 73
     9
 74
     0
 42
0.000000001
 43
0.00000001
 40
0.0
 40
0.0
 40
0.0
 40
0.0
 40
0.0327683788403509
 40
0.2262027092148471
 40
0.4195572355094215
 40
0.6129178582795941
 40
0.806370425838275
 40
0.9999999999999999
 40
0.9999999999999999
 40
0.9999999999999999
 40
0.9999999999999999
 10
-36.24371429124444
 20
-3.362065159342734
 30
0.0
 10
-36.31602184359484
 20
-3.36566888559939
 30
0.0
 10
-36.81516659280688
 20
-3.390545692794944
 30
0.0
 10
-37.74073928554968
 20
-3.280136418978855
 30
0.0
 10
-39.02057131328444
 20
-3.026062654934918
 30
0.0
 10
-40.30043434604904
 20
-2.611142446346065
 30
0.0
 10
-41.58100803699413
 20
-2.080007188463355
 30
0.0
 10
-42.43520580857567
 20
-1.646868037065815
 30
0.0
 10
-42.8625
 20
-1.430199427490805
 30
0.0
  0
LINE
  5
45B
330
1F
100
AcDbEntity
  8
0
  6
Continuous
 62
     1
370
    15
100
AcDbLine
 10
-42.8625
 20
-0.2890406766299375
 30
0.0
 11
-42.8625
 21
-1.430199427490805
 31
0.0
  0
SPLINE
  5
45C
330
1F
100
AcDbEntity
  8
0
  6
Continuous
 62
     1
370
    15
100
AcDbSpline
210
0.0
220
0.0
230
1.0
 70
     8
 71
     3
 72
    10
 73
     6
 74
     0
 42
0.000000001
 43
0.00000001
 40
0.0
 40
0.0
 40
0.0
 40
0.0
 40
0.4558865663682123
 40
0.9116406305589387
 40
1.0
 40
1.0
 40
1.0
 40
1.0
 10
-42.8625
 20
-3.373437499999965
 30
0.0
 10
-42.39652807789587
 20
-3.316940088807882
 30
0.0
 10
-41.46471966714596
 20
-3.228769096896655
 30
0.0
 10
-40.44266340988297
 20
-2.992369313215903
 30
0.0
 10
-39.88657826867306
 20
-2.785858485684144
 30
0.0
 10
-39.79627479627966
 20
-2.752322892964684
 30
0.0
  0
LINE
  5
45D
330
1F
100
AcDbEntity
  8
0
  6
Continuous
 62
     1
370
    15
100
AcDbLine
 10
-42.8625
 20
-1.412531625729372
 30
0.0
 11
-42.8625
 21
-3.373437499999965
 31
0.0
  0
LINE
  5
45E
330
1F
100
AcDbEntity
  8
외형선
  6
Continuous
370
    15
100
AcDbLine
 10
-25.39999999999999
 20
3.373437500000023
 30
0.0
 11
-25.39999999999999
 21
3.237436902875743
 31
0.0
  0
LINE
  5
45F
330
1F
100
AcDbEntity
  8
외형선
  6
Continuous
370
    15
100
AcDbLine
 10
-24.39999999999999
 20
0.0000000000000287
 30
0.0
 11
-24.39999999999999
 21
-3.373437499999965
 31
0.0
  0
LINE
  5
460
330
1F
100
AcDbEntity
  8
외형선
  6
Continuous
370
    15
100
AcDbLine
 10
-24.39999999999999
 20
3.373437500000023
 30
0.0
 11
-24.39999999999999
 21
0.0000000000000287
 31
0.0
  0
LINE
  5
461
330
1F
100
AcDbEntity
  8
외형선
  6
Continuous
370
    15
100
AcDbLine
 10
-19.21594817511134
 20
0.0000000000000287
 30
0.0
 11
-19.21594817511134
 21
-4.762499999999989
 31
0.0
  0
LINE
  5
462
330
1F
100
AcDbEntity
  8
외형선
  6
Continuous
370
    15
100
AcDbLine
 10
-19.21594817511134
 20
4.762500000000045
 30
0.0
 11
-19.21594817511134
 21
0.0000000000000287
 31
0.0
  0
SPLINE
  5
463
330
1F
100
AcDbEntity
  8
외형선
  6
Continuous
370
    15
100
AcDbSpline
210
0.0
220
0.0
230
1.0
 70
    24
 71
     3
 72
    14
 73
    10
 74
     0
 42
0.000000001
 43
0.00000001
 40
0.0
 40
0.0
 40
0.0
 40
0.0
 40
0.1221130647846515
 40
0.2796816577539856
 40
0.437250250723319
 40
0.5948188436926575
 40
0.7523874366619907
 40
0.9099560296313192
 40
1.0
 40
1.0
 40
1.0
 40
1.0
 10
-25.40000000000002
 20
3.237436902875743
 30
0.0
 10
-25.39999999999999
 20
3.083640832795652
 30
0.0
 10
-25.39999999999999
 20
2.731394003908776
 30
0.0
 10
-25.40000000000002
 20
2.092436748452699
 30
0.0
 10
-25.39999999999999
 20
1.413097581447105
 30
0.0
 10
-25.40000000000002
 20
0.8074864916429764
 30
0.0
 10
-25.40000000000013
 20
0.3599856463399081
 30
0.0
 10
-25.39999999999999
 20
0.1122145047833246
 30
0.0
 10
-25.39999999999999
 20
0.115314071245152
 30
0.0
 10
-25.39999999999999
 20
0.1164412243543612
 30
0.0
  0
SPLINE
  5
464
330
1F
100
AcDbEntity
  8
외형선
  6
Continuous
370
    15
100
AcDbSpline
210
0.0
220
0.0
230
1.0
 70
     8
 71
     3
 72
     8
 73
     4
 74
     0
 42
0.000000001
 43
0.00000001
 40
0.0
 40
0.0
 40
0.0
 40
0.0
 40
1.0
 40
1.0
 40
1.0
 40
1.0
 10
-25.39999999999999
 20
3.237436902875743
 30
0.0
 10
-25.23320957459281
 20
3.21044075613294
 30
0.0
 10
-25.06618450812105
 20
3.179488500846802
 30
0.0
 10
-24.89983613923305
 20
3.144759368952208
 30
0.0
  0
SPLINE
  5
465
330
1F
100
AcDbEntity
  8
외형선
  6
Continuous
370
    15
100
AcDbSpline
210
0.0
220
0.0
230
1.0
 70
     8
 71
     3
 72
     8
 73
     4
 74
     0
 42
0.000000001
 43
0.00000001
 40
0.0
 40
0.0
 40
0.0
 40
0.0
 40
1.0
 40
1.0
 40
1.0
 40
1.0
 10
-25.39999999999999
 20
0.2262156807114908
 30
0.0
 10
-25.23320957459275
 20
0.1303869080551297
 30
0.0
 10
-25.06618450812103
 20
0.0342379622590133
 30
0.0
 10
-24.89983613923305
 20
-0.0617060498013441
 30
0.0
  0
SPLINE
  5
466
330
1F
100
AcDbEntity
  8
외형선
  6
Continuous
370
    15
100
AcDbSpline
210
0.0
220
0.0
230
1.0
 70
     8
 71
     3
 72
     8
 73
     4
 74
     0
 42
0.000000001
 43
0.00000001
 40
0.0
 40
0.0
 40
0.0
 40
0.0
 40
1.0
 40
1.0
 40
1.0
 40
1.0
 10
-25.39999999999999
 20
-3.365844178242099
 30
0.0
 10
-25.23320957459275
 20
-3.372284752995483
 30
0.0
 10
-25.06618450812103
 20
-3.374628374027778
 30
0.0
 10
-24.89983613923305
 20
-3.37287309720125
 30
0.0
  0
LINE
  5
467
330
1F
100
AcDbEntity
  8
외형선
  6
Continuous
370
    15
100
AcDbLine
 10
-24.89983613923305
 20
-1.22086313679965
 30
0.0
 11
-24.89983613923305
 21
-3.373437499999965
 31
0.0
  0
SPLINE
  5
468
330
1F
100
AcDbEntity
  8
외형선
  6
Continuous
370
    15
100
AcDbSpline
210
0.0
220
0.0
230
1.0
 70
     8
 71
     3
 72
     8
 73
     4
 74
     0
 42
0.000000001
 43
0.00000001
 40
0.0
 40
0.0
 40
0.0
 40
0.0
 40
1.0
 40
1.0
 40
1.0
 40
1.0
 10
-25.39999999999999
 20
-0.9481998029448558
 30
0.0
 10
-25.23320957459281
 20
-1.040372698814622
 30
0.0
 10
-25.06618450812105
 20
-1.131433503939263
 30
0.0
 10
-24.89983613923305
 20
-1.220888642667148
 30
0.0
  0
LINE
  5
469
330
1F
100
AcDbEntity
  8
외형선
  6
Continuous
370
    15
100
AcDbLine
 10
-24.89983613923305
 20
3.144769270965682
 30
0.0
 11
-24.89983613923305
 21
-0.061727978684203
 31
0.0
  0
LINE
  5
46A
330
1F
100
AcDbEntity
  8
외형선
  6
Continuous
370
    15
100
AcDbLine
 10
-25.00691279775846
 20
3.372842834912661
 30
0.0
 11
-24.89983613923305
 21
3.372873097201307
 31
0.0
  0
LINE
  5
46B
330
1F
100
AcDbEntity
  8
외형선
  6
Continuous
370
    15
100
AcDbLine
 10
-24.89983613923305
 20
3.373437500000023
 30
0.0
 11
-24.89983613923305
 21
3.372872695945404
 31
0.0
  0
SPLINE
  5
46C
330
1F
100
AcDbEntity
  8
외형선
  6
Continuous
370
    15
100
AcDbSpline
210
0.0
220
0.0
230
1.0
 70
    24
 71
     3
 72
    12
 73
     8
 74
     0
 42
0.000000001
 43
0.00000001
 40
0.0
 40
0.0
 40
0.0
 40
0.0
 40
0.0411588828467041
 40
0.2979552740170789
 40
0.5547516651874459
 40
0.8115480563575146
 40
1.0
 40
1.0
 40
1.0
 40
1.0
 10
-25.40000000000002
 20
-1.007435023436557
 30
0.0
 10
-25.40000000000005
 20
-1.024690379141262
 30
0.0
 10
-25.40000000000008
 20
-1.149604465279211
 30
0.0
 10
-25.40000000000011
 20
-1.563978402126594
 30
0.0
 10
-25.39999999999996
 20
-2.191209178102994
 30
0.0
 10
-25.39999999999993
 20
-2.829588864253082
 30
0.0
 10
-25.39999999999999
 20
-3.206370749484591
 30
0.0
 10
-25.40000000000002
 20
-3.365844178242156
 30
0.0
  0
LINE
  5
4EA
330
1F
100
AcDbEntity
  8
외형선
  6
Continuous
370
    15
100
AcDbLine
 10
-3.568700000000035
 20
3.49250000000002
 30
0.0
 11
3.568700000000035
 21
3.49250000000002
 31
0.0
  0
LINE
  5
4EB
330
1F
100
AcDbEntity
  8
외형선
  6
Continuous
370
    15
100
AcDbLine
 10
-3.568700000000035
 20
3.49250000000002
 30
0.0
 11
-4.838700000000017
 21
4.762500000000002
 31
0.0
  0
LINE
  5
4EC
330
1F
100
AcDbEntity
  8
외형선
  6
Continuous
370
    15
100
AcDbLine
 10
3.568700000000035
 20
3.49250000000002
 30
0.0
 11
4.838700000000017
 21
4.762500000000002
 31
0.0
  0
LINE
  5
4EE
330
1F
100
AcDbEntity
  8
외형선
  6
Continuous
370
    15
100
AcDbLine
 10
-4.838700000000017
 20
4.762500000000002
 30
0.0
 11
-19.21594817511134
 21
4.762500000000002
 31
0.0
  0
ENDSEC
  0
SECTION
  2
OBJECTS
  0
DICTIONARY
  5
C
330
0
100
AcDbDictionary
281
     1
  3
ACAD_GROUP
350
D
  3
ACAD_IMAGE_VARS
350
155
  3
ACAD_LAYOUT
350
1A
  3
ACAD_MLINESTYLE
350
17
  3
ACAD_PLOTSETTINGS
350
19
  3
ACAD_PLOTSTYLENAME
350
E
  3
ACAD_SCALELIST
350
47
  3
APPDATA
350
153
  3
DWGPROPS
350
4EF
  0
DICTIONARY
  5
1DB
330
2
100
AcDbDictionary
280
     1
281
     1
  3
ACAD_LAYERSTATES
360
1DC
  0
DICTIONARY
  5
D
102
{ACAD_REACTORS
330
C
102
}
330
C
100
AcDbDictionary
281
     1
  0
RASTERVARIABLES
  5
155
102
{ACAD_REACTORS
330
C
102
}
330
C
100
AcDbRasterVariables
 90
        0
 70
     1
 71
     1
 72
     1
  0
DICTIONARY
  5
1A
102
{ACAD_REACTORS
330
C
102
}
330
C
100
AcDbDictionary
281
     1
  3
Layout1
350
1E
  3
Layout2
350
26
  3
Model
350
22
  0
DICTIONARY
  5
17
102
{ACAD_REACTORS
330
C
102
}
330
C
100
AcDbDictionary
281
     1
  3
Standard
350
18
  0
DICTIONARY
  5
19
102
{ACAD_REACTORS
330
C
102
}
330
C
100
AcDbDictionary
281
     1
  0
ACDBDICTIONARYWDFLT
  5
E
102
{ACAD_REACTORS
330
C
102
}
330
C
100
AcDbDictionary
281
     1
  3
Normal
350
F
100
AcDbDictionaryWithDefault
340
F
  0
DICTIONARY
  5
47
102
{ACAD_REACTORS
330
C
102
}
330
C
100
AcDbDictionary
281
     1
  3
A0
350
48
  3
A1
350
49
  3
A2
350
4A
  3
A3
350
4B
  3
A4
350
4C
  3
A5
350
4D
  3
A6
350
4E
  3
A7
350
4F
  3
A8
350
50
  3
A9
350
51
  3
B0
350
52
  3
B1
350
53
  3
B2
350
54
  3
B3
350
55
  3
B4
350
56
  3
B5
350
57
  3
B6
350
58
  3
B7
350
59
  3
B8
350
5A
  3
B9
350
5B
  3
C0
350
5C
  3
C1
350
5D
  3
C2
350
5E
  3
C3
350
5F
  3
C4
350
60
  3
C5
350
61
  3
C6
350
62
  3
C7
350
63
  3
C8
350
64
  3
C9
350
65
  3
D0
350
66
  3
D1
350
67
  3
D2
350
68
  0
DICTIONARY
  5
153
102
{ACAD_REACTORS
330
C
102
}
330
C
100
AcDbDictionary
281
     1
  0
XRECORD
  5
4EF
102
{ACAD_REACTORS
330
C
102
}
330
C
100
AcDbXrecord
280
     1
  1
DWGPROPS COOKIE
  2

  3

  4

  6

  7

  8
12017012
  9

300
=
301
=
302
=
303
=
304
=
305
=
306
=
307
=
308
=
309
=
 40
0.0
 41
2458313.096024653
 42
2458318.983021725
  1

 90
        0
  0
DICTIONARY
  5
1DC
102
{ACAD_REACTORS
330
1DB
102
}
330
1DB
100
AcDbDictionary
281
     1
  0
LAYOUT
  5
1E
102
{ACAD_REACTORS
330
1A
102
}
330
1A
100
AcDbPlotSettings
  1

  2
none_device
  4

  6

 40
0.0
 41
0.0
 42
0.0
 43
0.0
 44
0.0
 45
0.0
 46
0.0
 47
0.0
 48
0.0
 49
0.0
140
0.0
141
0.0
142
1.0
143
1.0
 70
   688
 72
     1
 73
     0
 74
     5
  7

 75
    16
147
1.0
148
0.0
149
0.0
100
AcDbLayout
  1
Layout1
 70
     1
 71
     1
 10
0.0
 20
0.0
 11
420.0
 21
297.0
 12
0.0
 22
0.0
 32
0.0
 14
1.000000000000000E+20
 24
1.000000000000000E+20
 34
1.000000000000000E+20
 15
-1.000000000000000E+20
 25
-1.000000000000000E+20
 35
-1.000000000000000E+20
146
0.0
 13
0.0
 23
0.0
 33
0.0
 16
1.0
 26
0.0
 36
0.0
 17
0.0
 27
1.0
 37
0.0
 76
     0
330
1B
  0
LAYOUT
  5
26
102
{ACAD_REACTORS
330
1A
102
}
330
1A
100
AcDbPlotSettings
  1

  2
none_device
  4

  6

 40
0.0
 41
0.0
 42
0.0
 43
0.0
 44
0.0
 45
0.0
 46
0.0
 47
0.0
 48
0.0
 49
0.0
140
0.0
141
0.0
142
1.0
143
1.0
 70
   688
 72
     1
 73
     0
 74
     5
  7

 75
    16
147
1.0
148
0.0
149
0.0
100
AcDbLayout
  1
Layout2
 70
     1
 71
     2
 10
0.0
 20
0.0
 11
0.0
 21
0.0
 12
0.0
 22
0.0
 32
0.0
 14
0.0
 24
0.0
 34
0.0
 15
0.0
 25
0.0
 35
0.0
146
0.0
 13
0.0
 23
0.0
 33
0.0
 16
1.0
 26
0.0
 36
0.0
 17
0.0
 27
1.0
 37
0.0
 76
     0
330
23
  0
LAYOUT
  5
22
102
{ACAD_REACTORS
330
1A
102
}
330
1A
100
AcDbPlotSettings
  1

  2
none_device
  4
ANSI_A_(11.00_x_8.50_Inches)
  6

 40
6.35
 41
19.05
 42
6.35000508
 43
19.05000254
 44
279.4
 45
215.9
 46
80.80318609916897
 47
81.36982611902849
 48
0.0
 49
0.0
140
0.0
141
0.0
142
0.0537523885999552
143
1.0
 70
  1696
 72
     0
 73
     0
 74
     0
  7

 75
     0
147
0.0235690232323232
148
0.0
149
0.0
100
AcDbLayout
  1
Model
 70
     1
 71
     0
 10
0.0
 20
0.0
 11
420.0
 21
297.0
 12
0.0
 22
0.0
 32
0.0
 14
1.000000000000000E+20
 24
1.000000000000000E+20
 34
1.000000000000000E+20
 15
-1.000000000000000E+20
 25
-1.000000000000000E+20
 35
-1.000000000000000E+20
146
0.0
 13
0.0
 23
0.0
 33
0.0
 16
1.0
 26
0.0
 36
0.0
 17
0.0
 27
1.0
 37
0.0
 76
     0
330
1F
331
29
  0
MLINESTYLE
  5
18
102
{ACAD_REACTORS
330
17
102
}
330
17
100
AcDbMlineStyle
  2
Standard
 70
     0
  3

 62
   256
 51
90.0
 52
90.0
 71
     2
 49
0.5
 62
   256
  6
BYLAYER
 49
-0.5
 62
   256
  6
BYLAYER
  0
ACDBPLACEHOLDER
  5
F
102
{ACAD_REACTORS
330
E
102
}
330
E
  0
SCALE
  5
48
102
{ACAD_REACTORS
330
47
102
}
330
47
100
AcDbScale
 70
     0
300
1:1
140
1.0
141
1.0
290
     1
  0
SCALE
  5
49
102
{ACAD_REACTORS
330
47
102
}
330
47
100
AcDbScale
 70
     0
300
1:2
140
1.0
141
2.0
290
     0
  0
SCALE
  5
4A
102
{ACAD_REACTORS
330
47
102
}
330
47
100
AcDbScale
 70
     0
300
1:4
140
1.0
141
4.0
290
     0
  0
SCALE
  5
4B
102
{ACAD_REACTORS
330
47
102
}
330
47
100
AcDbScale
 70
     0
300
1:5
140
1.0
141
5.0
290
     0
  0
SCALE
  5
4C
102
{ACAD_REACTORS
330
47
102
}
330
47
100
AcDbScale
 70
     0
300
1:8
140
1.0
141
8.0
290
     0
  0
SCALE
  5
4D
102
{ACAD_REACTORS
330
47
102
}
330
47
100
AcDbScale
 70
     0
300
1:10
140
1.0
141
10.0
290
     0
  0
SCALE
  5
4E
102
{ACAD_REACTORS
330
47
102
}
330
47
100
AcDbScale
 70
     0
300
1:16
140
1.0
141
16.0
290
     0
  0
SCALE
  5
4F
102
{ACAD_REACTORS
330
47
102
}
330
47
100
AcDbScale
 70
     0
300
1:20
140
1.0
141
20.0
290
     0
  0
SCALE
  5
50
102
{ACAD_REACTORS
330
47
102
}
330
47
100
AcDbScale
 70
     0
300
1:30
140
1.0
141
30.0
290
     0
  0
SCALE
  5
51
102
{ACAD_REACTORS
330
47
102
}
330
47
100
AcDbScale
 70
     0
300
1:40
140
1.0
141
40.0
290
     0
  0
SCALE
  5
52
102
{ACAD_REACTORS
330
47
102
}
330
47
100
AcDbScale
 70
     0
300
1:50
140
1.0
141
50.0
290
     0
  0
SCALE
  5
53
102
{ACAD_REACTORS
330
47
102
}
330
47
100
AcDbScale
 70
     0
300
1:100
140
1.0
141
100.0
290
     0
  0
SCALE
  5
54
102
{ACAD_REACTORS
330
47
102
}
330
47
100
AcDbScale
 70
     0
300
2:1
140
2.0
141
1.0
290
     0
  0
SCALE
  5
55
102
{ACAD_REACTORS
330
47
102
}
330
47
100
AcDbScale
 70
     0
300
4:1
140
4.0
141
1.0
290
     0
  0
SCALE
  5
56
102
{ACAD_REACTORS
330
47
102
}
330
47
100
AcDbScale
 70
     0
300
8:1
140
8.0
141
1.0
290
     0
  0
SCALE
  5
57
102
{ACAD_REACTORS
330
47
102
}
330
47
100
AcDbScale
 70
     0
300
10:1
140
10.0
141
1.0
290
     0
  0
SCALE
  5
58
102
{ACAD_REACTORS
330
47
102
}
330
47
100
AcDbScale
 70
     0
300
100:1
140
100.0
141
1.0
290
     0
  0
SCALE
  5
59
102
{ACAD_REACTORS
330
47
102
}
330
47
100
AcDbScale
 70
     0
300
1/128" = 1'-0"
140
0.0078125
141
12.0
290
     0
  0
SCALE
  5
5A
102
{ACAD_REACTORS
330
47
102
}
330
47
100
AcDbScale
 70
     0
300
1/64" = 1'-0"
140
0.015625
141
12.0
290
     0
  0
SCALE
  5
5B
102
{ACAD_REACTORS
330
47
102
}
330
47
100
AcDbScale
 70
     0
300
1/32" = 1'-0"
140
0.03125
141
12.0
290
     0
  0
SCALE
  5
5C
102
{ACAD_REACTORS
330
47
102
}
330
47
100
AcDbScale
 70
     0
300
1/16" = 1'-0"
140
0.0625
141
12.0
290
     0
  0
SCALE
  5
5D
102
{ACAD_REACTORS
330
47
102
}
330
47
100
AcDbScale
 70
     0
300
3/32" = 1'-0"
140
0.09375
141
12.0
290
     0
  0
SCALE
  5
5E
102
{ACAD_REACTORS
330
47
102
}
330
47
100
AcDbScale
 70
     0
300
1/8" = 1'-0"
140
0.125
141
12.0
290
     0
  0
SCALE
  5
5F
102
{ACAD_REACTORS
330
47
102
}
330
47
100
AcDbScale
 70
     0
300
3/16" = 1'-0"
140
0.1875
141
12.0
290
     0
  0
SCALE
  5
60
102
{ACAD_REACTORS
330
47
102
}
330
47
100
AcDbScale
 70
     0
300
1/4" = 1'-0"
140
0.25
141
12.0
290
     0
  0
SCALE
  5
61
102
{ACAD_REACTORS
330
47
102
}
330
47
100
AcDbScale
 70
     0
300
3/8" = 1'-0"
140
0.375
141
12.0
290
     0
  0
SCALE
  5
62
102
{ACAD_REACTORS
330
47
102
}
330
47
100
AcDbScale
 70
     0
300
1/2" = 1'-0"
140
0.5
141
12.0
290
     0
  0
SCALE
  5
63
102
{ACAD_REACTORS
330
47
102
}
330
47
100
AcDbScale
 70
     0
300
3/4" = 1'-0"
140
0.75
141
12.0
290
     0
  0
SCALE
  5
64
102
{ACAD_REACTORS
330
47
102
}
330
47
100
AcDbScale
 70
     0
300
1" = 1'-0"
140
1.0
141
12.0
290
     0
  0
SCALE
  5
65
102
{ACAD_REACTORS
330
47
102
}
330
47
100
AcDbScale
 70
     0
300
1-1/2" = 1'-0"
140
1.5
141
12.0
290
     0
  0
SCALE
  5
66
102
{ACAD_REACTORS
330
47
102
}
330
47
100
AcDbScale
 70
     0
300
3" = 1'-0"
140
3.0
141
12.0
290
     0
  0
SCALE
  5
67
102
{ACAD_REACTORS
330
47
102
}
330
47
100
AcDbScale
 70
     0
300
6" = 1'-0"
140
6.0
141
12.0
290
     0
  0
SCALE
  5
68
102
{ACAD_REACTORS
330
47
102
}
330
47
100
AcDbScale
 70
     0
300
1'-0" = 1'-0"
140
12.0
141
12.0
290
     0
  0
ENDSEC
  0
EOF
