  0
SECTION
  2
HEADER
  9
$ACADVER
  1
AC1015
  9
$ACADMAINTVER
 70
     6
  9
$DWGCODEPAGE
  3
ANSI_949
  9
$INSBASE
 10
0.0
 20
0.0
 30
0.0
  9
$EXTMIN
 10
1.000000000000000E+20
 20
1.000000000000000E+20
 30
1.000000000000000E+20
  9
$EXTMAX
 10
-1.000000000000000E+20
 20
-1.000000000000000E+20
 30
-1.000000000000000E+20
  9
$LIMMIN
 10
0.0
 20
0.0
  9
$LIMMAX
 10
420.0
 20
297.0
  9
$ORTHOMODE
 70
     1
  9
$REGENMODE
 70
     1
  9
$FILLMODE
 70
     1
  9
$QTEXTMODE
 70
     0
  9
$MIRRTEXT
 70
     1
  9
$LTSCALE
 40
1.0
  9
$ATTMODE
 70
     1
  9
$TEXTSIZE
 40
3.5
  9
$TRACEWID
 40
1.0
  9
$TEXTSTYLE
  7
Standard
  9
$CLAYER
  8
0
  9
$CELTYPE
  6
ByLayer
  9
$CECOLOR
 62
   256
  9
$CELTSCALE
 40
1.0
  9
$DISPSILH
 70
     0
  9
$DIMSCALE
 40
1.0
  9
$DIMASZ
 40
3.302
  9
$DIMEXO
 40
1.0
  9
$DIMDLI
 40
3.75
  9
$DIMRND
 40
0.0
  9
$DIMDLE
 40
0.0
  9
$DIMEXE
 40
1.0
  9
$DIMTP
 40
0.0
  9
$DIMTM
 40
0.0
  9
$DIMTXT
 40
3.5
  9
$DIMCEN
 40
2.5
  9
$DIMTSZ
 40
0.0
  9
$DIMTOL
 70
     0
  9
$DIMLIM
 70
     0
  9
$DIMTIH
 70
     1
  9
$DIMTOH
 70
     1
  9
$DIMSE1
 70
     0
  9
$DIMSE2
 70
     0
  9
$DIMTAD
 70
     1
  9
$DIMZIN
 70
     0
  9
$DIMBLK
  1

  9
$DIMASO
 70
     1
  9
$DIMSHO
 70
     1
  9
$DIMPOST
  1

  9
$DIMAPOST
  1

  9
$DIMALT
 70
     0
  9
$DIMALTD
 70
     3
  9
$DIMALTF
 40
0.0393700787401575
  9
$DIMLFAC
 40
1.0
  9
$DIMTOFL
 70
     1
  9
$DIMTVP
 40
0.0
  9
$DIMTIX
 70
     0
  9
$DIMSOXD
 70
     0
  9
$DIMSAH
 70
     0
  9
$DIMBLK1
  1

  9
$DIMBLK2
  1

  9
$DIMSTYLE
  2
ISO-25
  9
$DIMCLRD
 70
     0
  9
$DIMCLRE
 70
     0
  9
$DIMCLRT
 70
     0
  9
$DIMTFAC
 40
1.0
  9
$DIMGAP
 40
1.524
  9
$DIMJUST
 70
     0
  9
$DIMSD1
 70
     0
  9
$DIMSD2
 70
     0
  9
$DIMTOLJ
 70
     0
  9
$DIMTZIN
 70
     0
  9
$DIMALTZ
 70
     0
  9
$DIMALTTZ
 70
     0
  9
$DIMUPT
 70
     0
  9
$DIMDEC
 70
     2
  9
$DIMTDEC
 70
     2
  9
$DIMALTU
 70
     2
  9
$DIMALTTD
 70
     3
  9
$DIMTXSTY
  7
Standard
  9
$DIMAUNIT
 70
     0
  9
$DIMADEC
 70
     2
  9
$DIMALTRND
 40
0.0
  9
$DIMAZIN
 70
     0
  9
$DIMDSEP
 70
    44
  9
$DIMATFIT
 70
     3
  9
$DIMFRAC
 70
     0
  9
$DIMLDRBLK
  1

  9
$DIMLUNIT
 70
     2
  9
$DIMLWD
 70
    -2
  9
$DIMLWE
 70
    -2
  9
$DIMTMOVE
 70
     0
  9
$LUNITS
 70
     2
  9
$LUPREC
 70
     2
  9
$SKETCHINC
 40
1.0
  9
$FILLETRAD
 40
10.0
  9
$AUNITS
 70
     0
  9
$AUPREC
 70
     2
  9
$MENU
  1
.
  9
$ELEVATION
 40
0.0
  9
$PELEVATION
 40
0.0
  9
$THICKNESS
 40
0.0
  9
$LIMCHECK
 70
     0
  9
$CHAMFERA
 40
0.0
  9
$CHAMFERB
 40
0.0
  9
$CHAMFERC
 40
0.0
  9
$CHAMFERD
 40
0.0
  9
$SKPOLY
 70
     0
  9
$TDCREATE
 40
2458313.469118322
  9
$TDUCREATE
 40
2458313.094118322
  9
$TDUPDATE
 40
2458319.360956701
  9
$TDUUPDATE
 40
2458318.985956701
  9
$TDINDWG
 40
0.0009651968
  9
$TDUSRTIMER
 40
2458318.985609086
  9
$USRTIMER
 70
     1
  9
$ANGBASE
 50
0.0
  9
$ANGDIR
 70
     0
  9
$PDMODE
 70
     0
  9
$PDSIZE
 40
-1.0
  9
$PLINEWID
 40
0.0
  9
$SPLFRAME
 70
     0
  9
$SPLINETYPE
 70
     6
  9
$SPLINESEGS
 70
     8
  9
$HANDSEED
  5
3D0
  9
$SURFTAB1
 70
     6
  9
$SURFTAB2
 70
     6
  9
$SURFTYPE
 70
     6
  9
$SURFU
 70
     6
  9
$SURFV
 70
     6
  9
$UCSBASE
  2

  9
$UCSNAME
  2

  9
$UCSORG
 10
0.0
 20
0.0
 30
0.0
  9
$UCSXDIR
 10
1.0
 20
0.0
 30
0.0
  9
$UCSYDIR
 10
0.0
 20
1.0
 30
0.0
  9
$UCSORTHOREF
  2

  9
$UCSORTHOVIEW
 70
     0
  9
$UCSORGTOP
 10
0.0
 20
0.0
 30
0.0
  9
$UCSORGBOTTOM
 10
0.0
 20
0.0
 30
0.0
  9
$UCSORGLEFT
 10
0.0
 20
0.0
 30
0.0
  9
$UCSORGRIGHT
 10
0.0
 20
0.0
 30
0.0
  9
$UCSORGFRONT
 10
0.0
 20
0.0
 30
0.0
  9
$UCSORGBACK
 10
0.0
 20
0.0
 30
0.0
  9
$PUCSBASE
  2

  9
$PUCSNAME
  2

  9
$PUCSORG
 10
0.0
 20
0.0
 30
0.0
  9
$PUCSXDIR
 10
1.0
 20
0.0
 30
0.0
  9
$PUCSYDIR
 10
0.0
 20
1.0
 30
0.0
  9
$PUCSORTHOREF
  2

  9
$PUCSORTHOVIEW
 70
     0
  9
$PUCSORGTOP
 10
0.0
 20
0.0
 30
0.0
  9
$PUCSORGBOTTOM
 10
0.0
 20
0.0
 30
0.0
  9
$PUCSORGLEFT
 10
0.0
 20
0.0
 30
0.0
  9
$PUCSORGRIGHT
 10
0.0
 20
0.0
 30
0.0
  9
$PUCSORGFRONT
 10
0.0
 20
0.0
 30
0.0
  9
$PUCSORGBACK
 10
0.0
 20
0.0
 30
0.0
  9
$USERI1
 70
     0
  9
$USERI2
 70
     0
  9
$USERI3
 70
     0
  9
$USERI4
 70
     0
  9
$USERI5
 70
     0
  9
$USERR1
 40
0.0
  9
$USERR2
 40
0.0
  9
$USERR3
 40
0.0
  9
$USERR4
 40
0.0
  9
$USERR5
 40
0.0
  9
$WORLDVIEW
 70
     1
  9
$SHADEDGE
 70
     3
  9
$SHADEDIF
 70
    70
  9
$TILEMODE
 70
     1
  9
$MAXACTVP
 70
    64
  9
$PINSBASE
 10
0.0
 20
0.0
 30
0.0
  9
$PLIMCHECK
 70
     0
  9
$PEXTMIN
 10
1.000000000000000E+20
 20
1.000000000000000E+20
 30
1.000000000000000E+20
  9
$PEXTMAX
 10
-1.000000000000000E+20
 20
-1.000000000000000E+20
 30
-1.000000000000000E+20
  9
$PLIMMIN
 10
0.0
 20
0.0
  9
$PLIMMAX
 10
0.0
 20
0.0
  9
$UNITMODE
 70
     0
  9
$VISRETAIN
 70
     1
  9
$PLINEGEN
 70
     0
  9
$PSLTSCALE
 70
     1
  9
$TREEDEPTH
 70
  3020
  9
$CMLSTYLE
  2
Standard
  9
$CMLJUST
 70
     0
  9
$CMLSCALE
 40
20.0
  9
$PROXYGRAPHICS
 70
     1
  9
$MEASUREMENT
 70
     1
  9
$CELWEIGHT
370
    -1
  9
$ENDCAPS
280
     0
  9
$JOINSTYLE
280
     0
  9
$LWDISPLAY
290
     1
  9
$INSUNITS
 70
     4
  9
$HYPERLINKBASE
  1

  9
$STYLESHEET
  1

  9
$XEDIT
290
     1
  9
$CEPSNTYPE
380
     0
  9
$PSTYLEMODE
290
     1
  9
$FINGERPRINTGUID
  2
{2AD5DB94-3526-4695-86D2-0E00AAFFF4D3}
  9
$VERSIONGUID
  2
{FAEB1C32-E019-11D5-929B-00C0DF256EC4}
  9
$EXTNAMES
290
     1
  9
$PSVPSCALE
 40
0.0
  9
$OLESTARTUP
290
     0
  0
ENDSEC
  0
SECTION
  2
CLASSES
  0
CLASS
  1
ACDBDICTIONARYWDFLT
  2
AcDbDictionaryWithDefault
  3
ObjectDBX Classes
 90
        0
280
     0
281
     0
  0
CLASS
  1
VISUALSTYLE
  2
AcDbVisualStyle
  3
ObjectDBX Classes
 90
     4095
280
     0
281
     0
  0
CLASS
  1
MATERIAL
  2
AcDbMaterial
  3
ObjectDBX Classes
 90
     1153
280
     0
281
     0
  0
CLASS
  1
SCALE
  2
AcDbScale
  3
ObjectDBX Classes
 90
     1153
280
     0
281
     0
  0
CLASS
  1
SUN
  2
AcDbSun
  3
SCENEOE
 90
     1153
280
     0
281
     0
  0
CLASS
  1
ACDBPLACEHOLDER
  2
AcDbPlaceHolder
  3
ObjectDBX Classes
 90
        0
280
     0
281
     0
  0
CLASS
  1
LAYOUT
  2
AcDbLayout
  3
ObjectDBX Classes
 90
        0
280
     0
281
     0
  0
CLASS
  1
TABLESTYLE
  2
AcDbTableStyle
  3
ObjectDBX Classes
 90
     4095
280
     0
281
     0
  0
CLASS
  1
MLEADERSTYLE
  2
AcDbMLeaderStyle
  3
ACDB_MLEADERSTYLE_CLASS
 90
     4095
280
     0
281
     0
  0
CLASS
  1
RASTERVARIABLES
  2
AcDbRasterVariables
  3
ISM
 90
        0
280
     0
281
     0
  0
ENDSEC
  0
SECTION
  2
TABLES
  0
TABLE
  2
VPORT
  5
8
330
0
100
AcDbSymbolTable
 70
     1
  0
VPORT
  5
29
330
8
100
AcDbSymbolTableRecord
100
AcDbViewportTableRecord
  2
*Active
 70
     0
 10
0.0
 20
0.0
 11
1.0
 21
1.0
 12
7.993551517047308
 22
-14.68761606375032
 13
0.0
 23
0.0
 14
10.0
 24
10.0
 15
10.0
 25
10.0
 16
0.0
 26
0.0
 36
1.0
 17
0.0
 27
0.0
 37
0.0
 40
114.2945055651175
 41
1.632093933463797
 42
50.0
 43
0.0
 44
0.0
 50
0.0
 51
0.0
 71
    16
 72
  2000
 73
     1
 74
     3
 75
     0
 76
     0
 77
     0
 78
     0
281
     0
 65
     1
110
0.0
120
0.0
130
0.0
111
1.0
121
0.0
131
0.0
112
0.0
122
1.0
132
0.0
 79
     0
146
0.0
  0
ENDTAB
  0
TABLE
  2
LTYPE
  5
5
330
0
100
AcDbSymbolTable
 70
     6
  0
LTYPE
  5
14
330
5
100
AcDbSymbolTableRecord
100
AcDbLinetypeTableRecord
  2
ByBlock
 70
     0
  3

 72
    65
 73
     0
 40
0.0
  0
LTYPE
  5
15
330
5
100
AcDbSymbolTableRecord
100
AcDbLinetypeTableRecord
  2
ByLayer
 70
     0
  3

 72
    65
 73
     0
 40
0.0
  0
LTYPE
  5
16
330
5
100
AcDbSymbolTableRecord
100
AcDbLinetypeTableRecord
  2
Continuous
 70
     0
  3
Solid line
 72
    65
 73
     0
 40
0.0
  0
LTYPE
  5
6A
330
5
100
AcDbSymbolTableRecord
100
AcDbLinetypeTableRecord
  2
HIDDEN
 70
     0
  3
Hidden __ __ __ __ __ __ __ __ __ __ __ __ __ __
 72
    65
 73
     2
 40
1.905
 49
1.27
 74
     0
 49
-0.635
 74
     0
  0
LTYPE
  5
6B
330
5
100
AcDbSymbolTableRecord
100
AcDbLinetypeTableRecord
  2
PHANTOM
 70
     0
  3
Phantom ______  __  __  ______  __  __  ______
 72
    65
 73
     6
 40
12.7
 49
6.35
 74
     0
 49
-1.27
 74
     0
 49
1.27
 74
     0
 49
-1.27
 74
     0
 49
1.27
 74
     0
 49
-1.27
 74
     0
  0
LTYPE
  5
6C
330
5
100
AcDbSymbolTableRecord
100
AcDbLinetypeTableRecord
  2
CENTER
 70
     0
  3
Center ____ _ ____ _ ____ _ ____ _ ____ _ ____
 72
    65
 73
     4
 40
10.16
 49
6.35
 74
     0
 49
-1.27
 74
     0
 49
1.27
 74
     0
 49
-1.27
 74
     0
  0
LTYPE
  5
6D
330
5
100
AcDbSymbolTableRecord
100
AcDbLinetypeTableRecord
  2
CENTERX2
 70
     0
  3
Center (2x) ________  __  ________  __  _____
 72
    65
 73
     4
 40
20.32
 49
12.7
 74
     0
 49
-2.54
 74
     0
 49
2.54
 74
     0
 49
-2.54
 74
     0
  0
LTYPE
  5
6E
330
5
100
AcDbSymbolTableRecord
100
AcDbLinetypeTableRecord
  2
DOT2
 70
     0
  3
Dot (.5x) ........................................
 72
    65
 73
     2
 40
0.635
 49
0.0
 74
     0
 49
-0.635
 74
     0
  0
ENDTAB
  0
TABLE
  2
LAYER
  5
2
102
{ACAD_XDICTIONARY
360
1DD
102
}
330
0
100
AcDbSymbolTable
 70
    18
  0
LAYER
  5
10
330
2
100
AcDbSymbolTableRecord
100
AcDbLayerTableRecord
  2
0
 70
     0
 62
     7
  6
Continuous
370
    -3
390
F
  0
LAYER
  5
6F
330
2
100
AcDbSymbolTableRecord
100
AcDbLayerTableRecord
  2
FORMAT
 70
     0
 62
     2
  6
Continuous
370
    -3
390
F
  0
LAYER
  5
70
330
2
100
AcDbSymbolTableRecord
100
AcDbLayerTableRecord
  2
외형선
 70
     0
 62
     4
  6
Continuous
370
    30
390
F
  0
LAYER
  5
71
330
2
100
AcDbSymbolTableRecord
100
AcDbLayerTableRecord
  2
숨은선
 70
     0
 62
     2
  6
HIDDEN
370
    15
390
F
  0
LAYER
  5
72
330
2
100
AcDbSymbolTableRecord
100
AcDbLayerTableRecord
  2
중심선
 70
     0
 62
     1
  6
CENTERX2
370
    -3
390
F
  0
LAYER
  5
73
330
2
100
AcDbSymbolTableRecord
100
AcDbLayerTableRecord
  2
파단선
 70
     0
 62
     4
  6
Continuous
370
    -3
390
F
  0
LAYER
  5
74
330
2
100
AcDbSymbolTableRecord
100
AcDbLayerTableRecord
  2
해칭선
 70
     0
 62
   100
  6
Continuous
370
    -3
390
F
  0
LAYER
  5
75
330
2
100
AcDbSymbolTableRecord
100
AcDbLayerTableRecord
  2
가는실선
 70
     0
 62
     4
  6
Continuous
370
    -3
390
F
  0
LAYER
  5
76
330
2
100
AcDbSymbolTableRecord
100
AcDbLayerTableRecord
  2
치수_보조선
 70
     0
 62
     4
  6
Continuous
370
    -3
390
F
  0
LAYER
  5
77
330
2
100
AcDbSymbolTableRecord
100
AcDbLayerTableRecord
  2
치수문자_일반주서
 70
     0
 62
     7
  6
Continuous
370
    15
390
F
  0
LAYER
  5
78
330
2
100
AcDbSymbolTableRecord
100
AcDbLayerTableRecord
  2
개별주서
 70
     0
 62
   100
  6
Continuous
370
    30
390
F
  0
LAYER
  5
79
330
2
100
AcDbSymbolTableRecord
100
AcDbLayerTableRecord
  2
중간선
 70
     0
 62
     2
  6
Continuous
370
    15
390
F
  0
LAYER
  5
7A
330
2
100
AcDbSymbolTableRecord
100
AcDbLayerTableRecord
  2
윤곽선
 70
     0
 62
     3
  6
Continuous
370
    40
390
F
  0
LAYER
  5
7B
330
2
100
AcDbSymbolTableRecord
100
AcDbLayerTableRecord
  2
중심마크
 70
     0
 62
   100
  6
Continuous
370
    30
390
F
  0
LAYER
  5
7C
330
2
100
AcDbSymbolTableRecord
100
AcDbLayerTableRecord
  2
가상선
 70
     0
 62
     4
  6
PHANTOM
370
    -3
390
F
  0
LAYER
  5
7D
330
2
100
AcDbSymbolTableRecord
100
AcDbLayerTableRecord
  2
특수지정선
 70
     0
 62
     5
  6
CENTERX2
370
    60
390
F
  0
LAYER
  5
7E
330
2
100
AcDbSymbolTableRecord
100
AcDbLayerTableRecord
  2
참조1
 70
     0
 62
    -4
  6
Continuous
370
    -3
390
F
  0
LAYER
  5
156
330
2
100
AcDbSymbolTableRecord
100
AcDbLayerTableRecord
  2
Defpoints
 70
     0
 62
     7
  6
Continuous
290
     0
370
    -3
390
F
  0
ENDTAB
  0
TABLE
  2
STYLE
  5
3
330
0
100
AcDbSymbolTable
 70
     2
  0
STYLE
  5
11
330
3
100
AcDbSymbolTableRecord
100
AcDbTextStyleTableRecord
  2
Standard
 70
     0
 40
0.0
 41
1.0
 50
0.0
 71
     0
 42
3.5
  3
txt
  4

  0
STYLE
  5
94
330
3
100
AcDbSymbolTableRecord
100
AcDbTextStyleTableRecord
  2
SLDTEXTSTYLE0
 70
     0
 40
0.0
 41
0.75
 50
0.0
 71
     0
 42
3.5
  3
TXT
  4

  0
ENDTAB
  0
TABLE
  2
VIEW
  5
6
330
0
100
AcDbSymbolTable
 70
     0
  0
ENDTAB
  0
TABLE
  2
UCS
  5
7
330
0
100
AcDbSymbolTable
 70
     0
  0
ENDTAB
  0
TABLE
  2
APPID
  5
9
330
0
100
AcDbSymbolTable
 70
     1
  0
APPID
  5
12
330
9
100
AcDbSymbolTableRecord
100
AcDbRegAppTableRecord
  2
ACAD
 70
     0
  0
ENDTAB
  0
TABLE
  2
DIMSTYLE
  5
A
330
0
100
AcDbSymbolTable
 70
     4
100
AcDbDimStyleTable
  0
DIMSTYLE
105
27
330
A
100
AcDbSymbolTableRecord
100
AcDbDimStyleTableRecord
  2
ISO-25
 70
     0
 41
2.5
 42
0.625
 43
3.75
 44
1.25
 73
     0
 74
     0
 77
     1
 78
     8
140
2.5
141
2.5
143
0.03937007874016
147
0.625
171
     3
172
     1
178
     0
271
     2
272
     2
274
     3
278
    44
283
     0
284
     8
340
11
  0
DIMSTYLE
105
D3
102
{ACAD_REACTORS
330
10F
102
}
330
A
100
AcDbSymbolTableRecord
100
AcDbDimStyleTableRecord
  2
SLDDIMSTYLE0
 70
     0
 41
3.302
 44
0.0
 45
0.000000001
 73
     0
 74
     0
 77
     1
 78
    12
 79
     3
140
3.5
143
0.0393700787401575
147
0.875
148
0.000000001
170
     1
172
     1
173
     1
178
     0
271
     2
272
     2
276
     2
284
    12
289
     0
340
94
  0
DIMSTYLE
105
E8
330
A
100
AcDbSymbolTableRecord
100
AcDbDimStyleTableRecord
  2
SLDDIMSTYLE1
 70
     0
 41
3.302
 44
0.0
 45
0.000000001
 73
     0
 74
     0
 77
     1
 78
    12
 79
     3
140
3.5
143
0.0393700787401575
147
0.875
148
0.000000001
170
     1
173
     1
178
     0
271
     2
272
     2
276
     2
284
    12
340
94
  0
DIMSTYLE
105
15F
102
{ACAD_REACTORS
330
D2
330
E7
330
FC
102
}
330
A
100
AcDbSymbolTableRecord
100
AcDbDimStyleTableRecord
  2
SLDDIMSTYLE2
 70
     0
 41
3.302
 44
0.0
 45
0.000000001
 73
     0
 74
     0
 77
     1
 78
    12
 79
     3
140
3.5
143
0.0393700787401575
147
0.875
148
0.000000001
170
     1
172
     1
173
     1
178
     0
271
     2
272
     2
276
     2
284
    12
289
     0
340
94
  0
ENDTAB
  0
TABLE
  2
BLOCK_RECORD
  5
1
330
0
100
AcDbSymbolTable
 70
    20
  0
BLOCK_RECORD
  5
1F
330
1
100
AcDbSymbolTableRecord
100
AcDbBlockTableRecord
  2
*Model_Space
340
22
  0
BLOCK_RECORD
  5
1B
330
1
100
AcDbSymbolTableRecord
100
AcDbBlockTableRecord
  2
*Paper_Space
340
1E
  0
BLOCK_RECORD
  5
23
330
1
100
AcDbSymbolTableRecord
100
AcDbBlockTableRecord
  2
*Paper_Space0
340
26
  0
BLOCK_RECORD
  5
7F
330
1
100
AcDbSymbolTableRecord
100
AcDbBlockTableRecord
  2
블럭10
340
0
102
{BLKREFS
331
CB
102
}
  0
BLOCK_RECORD
  5
D4
330
1
100
AcDbSymbolTableRecord
100
AcDbBlockTableRecord
  2
_D
340
0
  0
BLOCK_RECORD
  5
E9
330
1
100
AcDbSymbolTableRecord
100
AcDbBlockTableRecord
  2
_D_1
340
0
  0
BLOCK_RECORD
  5
FD
330
1
100
AcDbSymbolTableRecord
100
AcDbBlockTableRecord
  2
_D_2
340
0
  0
BLOCK_RECORD
  5
110
330
1
100
AcDbSymbolTableRecord
100
AcDbBlockTableRecord
  2
_D_3
340
0
  0
BLOCK_RECORD
  5
12A
330
1
100
AcDbSymbolTableRecord
100
AcDbBlockTableRecord
  2
SW_DOWELSYMBOL_0
340
0
102
{BLKREFS
331
130
102
}
  0
BLOCK_RECORD
  5
1E1
330
1
100
AcDbSymbolTableRecord
100
AcDbBlockTableRecord
  2
*D7
340
0
  0
BLOCK_RECORD
  5
1F0
330
1
100
AcDbSymbolTableRecord
100
AcDbBlockTableRecord
  2
*D8
340
0
  0
BLOCK_RECORD
  5
1FF
330
1
100
AcDbSymbolTableRecord
100
AcDbBlockTableRecord
  2
*D9
340
0
  0
BLOCK_RECORD
  5
23A
330
1
100
AcDbSymbolTableRecord
100
AcDbBlockTableRecord
  2
*D10
340
0
  0
BLOCK_RECORD
  5
249
330
1
100
AcDbSymbolTableRecord
100
AcDbBlockTableRecord
  2
*D11
340
0
  0
BLOCK_RECORD
  5
258
330
1
100
AcDbSymbolTableRecord
100
AcDbBlockTableRecord
  2
*D12
340
0
  0
BLOCK_RECORD
  5
2F7
330
1
100
AcDbSymbolTableRecord
100
AcDbBlockTableRecord
  2
*D13
340
0
  0
BLOCK_RECORD
  5
306
330
1
100
AcDbSymbolTableRecord
100
AcDbBlockTableRecord
  2
*D14
340
0
  0
BLOCK_RECORD
  5
315
330
1
100
AcDbSymbolTableRecord
100
AcDbBlockTableRecord
  2
*D15
340
0
  0
BLOCK_RECORD
  5
353
330
1
100
AcDbSymbolTableRecord
100
AcDbBlockTableRecord
  2
*D16
340
0
  0
BLOCK_RECORD
  5
362
330
1
100
AcDbSymbolTableRecord
100
AcDbBlockTableRecord
  2
*D17
340
0
  0
BLOCK_RECORD
  5
371
330
1
100
AcDbSymbolTableRecord
100
AcDbBlockTableRecord
  2
*D18
340
0
  0
ENDTAB
  0
ENDSEC
  0
SECTION
  2
BLOCKS
  0
BLOCK
  5
20
330
1F
100
AcDbEntity
  8
0
100
AcDbBlockBegin
  2
*Model_Space
 70
     0
 10
0.0
 20
0.0
 30
0.0
  3
*Model_Space
  1
*Model_Space
  0
ENDBLK
  5
21
330
1F
100
AcDbEntity
  8
0
100
AcDbBlockEnd
  0
BLOCK
  5
1C
330
1B
100
AcDbEntity
 67
     1
  8
0
100
AcDbBlockBegin
  2
*Paper_Space
 70
     0
 10
0.0
 20
0.0
 30
0.0
  3
*Paper_Space
  1
*Paper_Space
  0
ENDBLK
  5
1D
330
1B
100
AcDbEntity
 67
     1
  8
0
100
AcDbBlockEnd
  0
BLOCK
  5
24
330
23
100
AcDbEntity
  8
0
100
AcDbBlockBegin
  2
*Paper_Space0
 70
     0
 10
0.0
 20
0.0
 30
0.0
  3
*Paper_Space0
  1
*Paper_Space0
  0
ENDBLK
  5
25
330
23
100
AcDbEntity
  8
0
100
AcDbBlockEnd
  0
BLOCK
  5
80
330
7F
100
AcDbEntity
  8
0
100
AcDbBlockBegin
  2
블럭10
 70
     2
 10
0.0
 20
0.0
 30
0.0
  3
블럭10
  1
블럭10
  0
ELLIPSE
  5
82
330
7F
100
AcDbEntity
  8
중심선
100
AcDbEllipse
 10
20.54032771741204
 20
12.0471743016438
 30
0.0
 11
6.600054785286829
 21
-1.261213355974178E-13
 31
0.0
210
0.0
220
0.0
230
1.0
 40
0.636358354079598
 41
0.9219305317359503
 42
6.513795318482858
  0
ELLIPSE
  5
83
330
7F
100
AcDbEntity
  8
중심선
100
AcDbEllipse
 10
20.54032771746488
 20
12.04717430159265
 30
0.0
 11
3.960054785062283
 21
1.540847449632565E-10
 31
0.0
210
0.0
220
0.0
230
1.0
 40
0.3939339440162632
 41
1.131841032648279
 42
5.62031148352944
  0
LINE
  5
84
330
7F
100
AcDbEntity
  8
중심선
100
AcDbLine
 10
2.268634060543552
 20
16.24717430164393
 30
0.0
 11
5.714909304380834
 21
16.24717430164393
 31
0.0
  0
LINE
  5
85
330
7F
100
AcDbEntity
  8
중심선
100
AcDbLine
 10
5.245725140726316
 20
7.84717430164391
 30
0.0
 11
8.692000384563599
 21
7.84717430164391
 31
0.0
  0
LINE
  5
86
330
7F
100
AcDbEntity
  8
중심선
100
AcDbLine
 10
15.74043728645272
 20
16.24717430164393
 30
0.0
 11
8.692000384563599
 21
7.84717430164391
 31
0.0
  0
LINE
  5
87
330
7F
100
AcDbEntity
  8
중심선
100
AcDbLine
 10
0.1404042013395286
 20
13.71084872107135
 30
0.0
 11
3.58671253028996
 21
13.71088815037384
 31
0.0
  0
LINE
  5
88
330
7F
100
AcDbEntity
  8
중심선
100
AcDbLine
 10
2.750260043222114
 20
10.84717430164391
 30
0.0
 11
6.196535287059397
 21
10.84717430164391
 31
0.0
  0
LINE
  5
89
330
7F
100
AcDbEntity
  8
중심선
100
AcDbLine
 10
12.29416204261559
 20
16.24717430164393
 30
0.0
 11
5.245725140726316
 21
7.84717430164391
 31
0.0
  0
LINE
  5
8A
330
7F
100
AcDbEntity
  8
중심선
100
AcDbLine
 10
10.72767329541681
 20
16.24717430164393
 30
0.0
 11
6.196535287059397
 21
10.84717430164391
 31
0.0
  0
LINE
  5
8B
330
7F
100
AcDbEntity
  8
중심선
100
AcDbLine
 10
7.28139805157953
 20
16.24717430164393
 30
0.0
 11
2.750260043222114
 21
10.84717430164391
 31
0.0
  0
LINE
  5
8C
330
7F
100
AcDbEntity
  8
중심선
100
AcDbLine
 10
5.714909304380834
 20
16.24717430164393
 30
0.0
 11
3.58671253028996
 21
13.71088815037384
 31
0.0
  0
LINE
  5
8D
330
7F
100
AcDbEntity
  8
중심선
100
AcDbLine
 10
2.268634060543552
 20
16.24717430164393
 30
0.0
 11
0.1404042013395286
 21
13.71084872107135
 31
0.0
  0
LINE
  5
8E
330
7F
100
AcDbEntity
  8
중심선
100
AcDbLine
 10
7.28139805157953
 20
16.24717430164393
 30
0.0
 11
10.72767329541681
 21
16.24717430164393
 31
0.0
  0
LINE
  5
8F
330
7F
100
AcDbEntity
  8
중심선
100
AcDbLine
 10
12.29416204261559
 20
16.24717430164393
 30
0.0
 11
15.74043728645272
 21
16.24717430164393
 31
0.0
  0
LINE
  5
90
330
7F
100
AcDbEntity
  8
중심선
100
AcDbLine
 10
19.22036997980202
 20
11.08717430171403
 30
0.0
 11
23.66174974927406
 21
11.08717430171406
 31
0.0
  0
LINE
  5
91
330
7F
100
AcDbEntity
  8
중심선
100
AcDbLine
 10
19.22039502424796
 20
13.00717430171391
 30
0.0
 11
19.22036997980202
 21
11.08717430171403
 31
0.0
  0
LINE
  5
92
330
7F
100
AcDbEntity
  8
중심선
100
AcDbLine
 10
19.22039502424796
 20
13.00717430171391
 30
0.0
 11
26.96566020931264
 21
13.00717430171391
 31
0.0
  0
LINE
  5
93
330
7F
100
AcDbEntity
  8
중심선
100
AcDbLine
 10
22.22332737316547
 20
13.45928029700563
 30
0.0
 11
24.52862924686651
 21
15.39360700705356
 31
0.0
  0
ATTDEF
  5
95
330
7F
100
AcDbEntity
  8
FORMAT
 62
     2
100
AcDbText
 10
4.408487351596664
 20
2.075366912832191
 30
0.0
 40
4.233333333333333
  1
E1053008
 41
0.75
  7
SLDTEXTSTYLE0
 11
4.408487351596664
 21
-0.0412997538344756
 31
0.0
100
AcDbAttributeDefinition
  3

  2
AUTOATTR0
 70
     0
 74
     1
  0
ENDBLK
  5
81
330
7F
100
AcDbEntity
  8
0
100
AcDbBlockEnd
  0
BLOCK
  5
D5
330
D4
100
AcDbEntity
  8
0
100
AcDbBlockBegin
  2
_D
 70
     0
 10
0.0
 20
0.0
 30
0.0
  3
_D
  1
_D
  0
LINE
  5
D7
330
D4
100
AcDbEntity
  8
치수문자_일반주서
 62
     0
370
    -2
100
AcDbLine
 10
38.95625000000001
 20
1.587500000000005
 30
0.0
 11
55.63062605524168
 21
1.58750000000007
 31
0.0
  0
LINE
  5
D8
330
D4
100
AcDbEntity
  8
치수문자_일반주서
 62
     0
370
    -2
100
AcDbLine
 10
38.95625
 20
-1.587499999999995
 30
0.0
 11
55.6306260552417
 21
-1.587499999999931
 31
0.0
  0
LINE
  5
D9
330
D4
100
AcDbEntity
  8
치수문자_일반주서
 62
     0
370
    -2
100
AcDbLine
 10
55.63062605524168
 20
1.58750000000007
 30
0.0
 11
55.63062605524154
 21
32.91025000000008
 31
0.0
  0
LINE
  5
DA
330
D4
100
AcDbEntity
  8
치수문자_일반주서
 62
     0
370
    -2
100
AcDbLine
 10
55.63062605524168
 20
1.58750000000007
 30
0.0
 11
55.6306260552417
 21
-1.587499999999931
 31
0.0
  0
LINE
  5
DB
330
D4
100
AcDbEntity
  8
치수문자_일반주서
 62
     0
370
    -2
100
AcDbLine
 10
55.63062605524167
 20
4.889500000000069
 30
0.0
 11
55.63062605524166
 21
8.191500000000069
 31
0.0
  0
LINE
  5
DC
330
D4
100
AcDbEntity
  8
치수문자_일반주서
 62
     0
370
    -2
100
AcDbLine
 10
55.63062605524171
 20
-4.889499999999931
 30
0.0
 11
55.63062605524173
 21
-8.19149999999993
 31
0.0
  0
SOLID
  5
DD
330
D4
100
AcDbEntity
  8
치수문자_일반주서
 62
     0
100
AcDbTrace
 10
55.08029272190834
 20
4.889500000000067
 30
0.0
 11
56.180959388575
 21
4.889500000000072
 31
0.0
 12
55.63062605524168
 22
1.58750000000007
 32
0.0
 13
55.63062605524168
 23
1.58750000000007
 33
0.0
  0
SOLID
  5
DE
330
D4
100
AcDbEntity
  8
치수문자_일반주서
 62
     0
100
AcDbTrace
 10
56.18095938857505
 20
-4.889499999999928
 30
0.0
 11
55.08029272190838
 21
-4.889499999999933
 31
0.0
 12
55.6306260552417
 22
-1.587499999999931
 32
0.0
 13
55.6306260552417
 23
-1.587499999999931
 33
0.0
  0
MTEXT
  5
DF
330
D4
100
AcDbEntity
  8
치수문자_일반주서
 62
     0
100
AcDbMText
 10
51.2556260552416
 20
20.66025000000005
 30
0.0
 40
3.5
 41
0.0
 71
     2
 72
     1
  1
\A1;%%c3.18 [1/8]
  7
SLDTEXTSTYLE0
 11
-4.475859752819529E-15
 21
1.0
 31
0.0
 73
     1
 44
1.0
  0
POINT
  5
E0
330
D4
100
AcDbEntity
  8
Defpoints
 62
     0
100
AcDbPoint
 10
38.89375000000001
 20
1.587500000000005
 30
0.0
  0
POINT
  5
E1
330
D4
100
AcDbEntity
  8
Defpoints
 62
     0
100
AcDbPoint
 10
38.89375
 20
-1.587499999999995
 30
0.0
  0
POINT
  5
E2
330
D4
100
AcDbEntity
  8
Defpoints
 62
     0
100
AcDbPoint
 10
55.6306260552417
 20
-1.587499999999932
 30
0.0
  0
ENDBLK
  5
D6
330
D4
100
AcDbEntity
  8
0
100
AcDbBlockEnd
  0
BLOCK
  5
EA
330
E9
100
AcDbEntity
  8
0
100
AcDbBlockBegin
  2
_D_1
 70
     0
 10
0.0
 20
0.0
 30
0.0
  3
_D_1
  1
_D_1
  0
LINE
  5
EC
330
E9
100
AcDbEntity
  8
치수문자_일반주서
 62
     0
370
    -2
100
AcDbLine
 10
38.89375
 20
1.650000000000005
 30
0.0
 11
38.89375
 21
16.2806669336862
 31
0.0
  0
LINE
  5
ED
330
E9
100
AcDbEntity
  8
치수문자_일반주서
 62
     0
370
    -2
100
AcDbLine
 10
29.36875
 20
1.519465539775544
 30
0.0
 11
29.36875
 21
16.2806669336862
 31
0.0
  0
LINE
  5
EE
330
E9
100
AcDbEntity
  8
치수문자_일반주서
 62
     0
370
    -2
100
AcDbLine
 10
29.36875
 20
16.2806669336862
 30
0.0
 11
-0.8602500000000006
 21
16.2806669336862
 31
0.0
  0
LINE
  5
EF
330
E9
100
AcDbEntity
  8
치수문자_일반주서
 62
     0
370
    -2
100
AcDbLine
 10
38.89375
 20
16.2806669336862
 30
0.0
 11
29.36875
 21
16.2806669336862
 31
0.0
  0
LINE
  5
F0
330
E9
100
AcDbEntity
  8
치수문자_일반주서
 62
     0
370
    -2
100
AcDbLine
 10
42.19575
 20
16.2806669336862
 30
0.0
 11
45.49775
 21
16.2806669336862
 31
0.0
  0
LINE
  5
F1
330
E9
100
AcDbEntity
  8
치수문자_일반주서
 62
     0
370
    -2
100
AcDbLine
 10
26.06675
 20
16.2806669336862
 30
0.0
 11
22.76475
 21
16.2806669336862
 31
0.0
  0
SOLID
  5
F2
330
E9
100
AcDbEntity
  8
치수문자_일반주서
 62
     0
100
AcDbTrace
 10
42.19575
 20
16.83100026701953
 30
0.0
 11
42.19575
 21
15.73033360035287
 31
0.0
 12
38.89375
 22
16.2806669336862
 32
0.0
 13
38.89375
 23
16.2806669336862
 33
0.0
  0
SOLID
  5
F3
330
E9
100
AcDbEntity
  8
치수문자_일반주서
 62
     0
100
AcDbTrace
 10
26.06675
 20
15.73033360035287
 30
0.0
 11
26.06675
 21
16.83100026701953
 31
0.0
 12
29.36875
 22
16.2806669336862
 32
0.0
 13
29.36875
 23
16.2806669336862
 33
0.0
  0
MTEXT
  5
F4
330
E9
100
AcDbEntity
  8
치수문자_일반주서
 62
     0
100
AcDbMText
 10
10.95225
 20
20.6556669336862
 30
0.0
 40
3.5
 41
0.0
 71
     2
 72
     1
  1
\A1;9.53 [3/8]
  7
SLDTEXTSTYLE0
 73
     1
 44
1.0
  0
POINT
  5
F5
330
E9
100
AcDbEntity
  8
Defpoints
 62
     0
100
AcDbPoint
 10
38.89375
 20
1.587500000000005
 30
0.0
  0
POINT
  5
264
330
E9
100
AcDbEntity
  8
Defpoints
 62
     0
100
AcDbPoint
 10
29.36875
 20
1.456965539775544
 30
0.0
  0
POINT
  5
265
330
E9
100
AcDbEntity
  8
Defpoints
 62
     0
100
AcDbPoint
 10
29.36875
 20
16.2806669336862
 30
0.0
  0
ENDBLK
  5
EB
330
E9
100
AcDbEntity
  8
0
100
AcDbBlockEnd
  0
BLOCK
  5
FE
330
FD
100
AcDbEntity
  8
0
100
AcDbBlockBegin
  2
_D_2
 70
     0
 10
0.0
 20
0.0
 30
0.0
  3
_D_2
  1
_D_2
  0
LINE
  5
100
330
FD
100
AcDbEntity
  8
치수문자_일반주서
 62
     0
370
    -2
100
AcDbLine
 10
38.89375
 20
1.650000000000005
 30
0.0
 11
38.89375
 21
28.862009278183
 31
0.0
  0
LINE
  5
101
330
FD
100
AcDbEntity
  8
치수문자_일반주서
 62
     0
370
    -2
100
AcDbLine
 10
-38.89374999999997
 20
1.649999999999995
 30
0.0
 11
-38.89374999999997
 21
28.862009278183
 31
0.0
  0
LINE
  5
102
330
FD
100
AcDbEntity
  8
치수문자_일반주서
 62
     0
370
    -2
100
AcDbLine
 10
35.59175
 20
28.862009278183
 30
0.0
 11
-35.59174999999997
 21
28.862009278183
 31
0.0
  0
SOLID
  5
103
330
FD
100
AcDbEntity
  8
치수문자_일반주서
 62
     0
100
AcDbTrace
 10
35.59175
 20
28.31167594484966
 30
0.0
 11
35.59175
 21
29.41234261151633
 31
0.0
 12
38.89375
 22
28.862009278183
 32
0.0
 13
38.89375
 23
28.862009278183
 33
0.0
  0
SOLID
  5
104
330
FD
100
AcDbEntity
  8
치수문자_일반주서
 62
     0
100
AcDbTrace
 10
-35.59174999999997
 20
29.41234261151633
 30
0.0
 11
-35.59174999999997
 21
28.31167594484966
 31
0.0
 12
-38.89374999999997
 22
28.862009278183
 32
0.0
 13
-38.89374999999997
 23
28.862009278183
 33
0.0
  0
MTEXT
  5
105
330
FD
100
AcDbEntity
  8
치수문자_일반주서
 62
     0
100
AcDbMText
 10
0.0000000000000142
 20
33.237009278183
 30
0.0
 40
3.5
 41
0.0
 71
     2
 72
     1
  1
\A1;77.79 [3 1/16]
  7
SLDTEXTSTYLE0
 73
     1
 44
1.0
  0
POINT
  5
106
330
FD
100
AcDbEntity
  8
Defpoints
 62
     0
100
AcDbPoint
 10
38.89375
 20
1.587500000000005
 30
0.0
  0
POINT
  5
107
330
FD
100
AcDbEntity
  8
Defpoints
 62
     0
100
AcDbPoint
 10
-38.89374999999997
 20
1.587499999999995
 30
0.0
  0
POINT
  5
108
330
FD
100
AcDbEntity
  8
Defpoints
 62
     0
100
AcDbPoint
 10
-38.89374999999997
 20
28.862009278183
 30
0.0
  0
ENDBLK
  5
FF
330
FD
100
AcDbEntity
  8
0
100
AcDbBlockEnd
  0
BLOCK
  5
111
330
110
100
AcDbEntity
  8
0
100
AcDbBlockBegin
  2
_D_3
 70
     0
 10
0.0
 20
0.0
 30
0.0
  3
_D_3
  1
_D_3
  0
LINE
  5
113
330
110
100
AcDbEntity
  8
치수문자_일반주서
 62
     0
370
    -2
100
AcDbLine
 10
-16.5819886859688
 20
4.762500000000006
 30
0.0
 11
-51.41750000000002
 21
4.762499999999878
 31
0.0
  0
LINE
  5
114
330
110
100
AcDbEntity
  8
치수문자_일반주서
 62
     0
370
    -2
100
AcDbLine
 10
-16.5819886859688
 20
-4.762500000000006
 30
0.0
 11
-51.41749999999998
 21
-4.762500000000135
 31
0.0
  0
LINE
  5
115
330
110
100
AcDbEntity
  8
치수문자_일반주서
 62
     0
370
    -2
100
AcDbLine
 10
-51.4175
 20
1.460499999999878
 30
0.0
 11
-51.4175
 21
-1.460500000000136
 31
0.0
  0
SOLID
  5
116
330
110
100
AcDbEntity
  8
치수문자_일반주서
 62
     0
100
AcDbTrace
 10
-50.86716666666667
 20
1.46049999999988
 30
0.0
 11
-51.96783333333334
 21
1.460499999999876
 31
0.0
 12
-51.41750000000002
 22
4.762499999999878
 32
0.0
 13
-51.41750000000002
 23
4.762499999999878
 33
0.0
  0
SOLID
  5
117
330
110
100
AcDbEntity
  8
치수문자_일반주서
 62
     0
100
AcDbTrace
 10
-51.96783333333333
 20
-1.460500000000138
 30
0.0
 11
-50.86716666666666
 21
-1.460500000000134
 31
0.0
 12
-51.41749999999998
 22
-4.762500000000135
 32
0.0
 13
-51.41749999999998
 23
-4.762500000000135
 33
0.0
  0
MTEXT
  5
118
330
110
100
AcDbEntity
  8
치수문자_일반주서
 62
     0
100
AcDbMText
 10
-55.7925
 20
-0.0000000000000153
 30
0.0
 40
3.5
 41
0.0
 71
     2
 72
     1
  1
\A1;%%c9.53 [3/8]
  7
SLDTEXTSTYLE0
 11
-3.729883127349602E-15
 21
1.0
 31
0.0
 73
     1
 44
1.0
  0
POINT
  5
119
330
110
100
AcDbEntity
  8
Defpoints
 62
     0
100
AcDbPoint
 10
-16.5194886859688
 20
4.762500000000006
 30
0.0
  0
POINT
  5
11A
330
110
100
AcDbEntity
  8
Defpoints
 62
     0
100
AcDbPoint
 10
-16.5194886859688
 20
-4.762500000000006
 30
0.0
  0
POINT
  5
11B
330
110
100
AcDbEntity
  8
Defpoints
 62
     0
100
AcDbPoint
 10
-51.41749999999998
 20
-4.762500000000137
 30
0.0
  0
ENDBLK
  5
112
330
110
100
AcDbEntity
  8
0
100
AcDbBlockEnd
  0
BLOCK
  5
12B
330
12A
100
AcDbEntity
  8
0
100
AcDbBlockBegin
  2
SW_DOWELSYMBOL_0
 70
     0
 10
0.0
 20
0.0
 30
0.0
  3
SW_DOWELSYMBOL_0
  1
SW_DOWELSYMBOL_0
  0
CIRCLE
  5
12D
330
12A
100
AcDbEntity
  8
해칭선
 62
     0
100
AcDbCircle
 10
0.0
 20
0.0
 30
0.0
 40
3.000000000000008
  0
HATCH
  5
12E
330
12A
100
AcDbEntity
  8
0
  6
Continuous
 62
     0
370
     0
100
AcDbHatch
 10
0.0
 20
0.0
 30
0.0
210
0.0
220
0.0
230
1.0
  2
SOLID
 70
     1
 71
     0
 91
        1
 92
        0
 93
        3
 72
     2
 10
0.0
 20
0.0
 40
3.000000000000008
 50
0.0
 51
90.0
 73
     1
 72
     1
 10
0.0
 20
3.000000000000008
 11
0.0
 21
0.0
 72
     1
 10
0.0
 20
0.0
 11
3.00000000000001
 21
0.0
 97
        0
 75
     0
 76
     1
 98
        1
 10
0.0
 20
0.0
  0
HATCH
  5
12F
330
12A
100
AcDbEntity
  8
0
  6
Continuous
 62
     0
370
     0
100
AcDbHatch
 10
0.0
 20
0.0
 30
0.0
210
0.0
220
0.0
230
1.0
  2
SOLID
 70
     1
 71
     0
 91
        1
 92
        0
 93
        3
 72
     2
 10
0.0
 20
0.0
 40
3.000000000000008
 50
180.0
 51
270.0000000000007
 73
     1
 72
     1
 10
0.0
 20
-3.000000000000008
 11
0.0
 21
0.0
 72
     1
 10
0.0
 20
0.0
 11
-3.000000000000008
 21
0.0
 97
        0
 75
     0
 76
     1
 98
        1
 10
0.0
 20
0.0
  0
ENDBLK
  5
12C
330
12A
100
AcDbEntity
  8
0
100
AcDbBlockEnd
  0
BLOCK
  5
1E2
330
1E1
100
AcDbEntity
  8
0
100
AcDbBlockBegin
  2
*D7
 70
     1
 10
0.0
 20
0.0
 30
0.0
  3
*D7
  1
*D8
  0
LINE
  5
1E4
330
1E1
100
AcDbEntity
  8
치수문자_일반주서
 62
     0
370
    -2
100
AcDbLine
 10
91.96250000000002
 20
14.54149999999995
 30
0.0
 11
103.9636519775437
 21
14.5415
 31
0.0
  0
LINE
  5
1E5
330
1E1
100
AcDbEntity
  8
치수문자_일반주서
 62
     0
370
    -2
100
AcDbLine
 10
91.96250000000002
 20
6.603999999999955
 30
0.0
 11
103.9636519775438
 21
6.603999999999999
 31
0.0
  0
LINE
  5
1E6
330
1E1
100
AcDbEntity
  8
치수문자_일반주서
 62
     0
370
    -2
100
AcDbLine
 10
103.9636519775437
 20
14.5415
 30
0.0
 11
103.9636519775435
 21
65.79825576061918
 31
0.0
  0
LINE
  5
1E7
330
1E1
100
AcDbEntity
  8
치수문자_일반주서
 62
     0
370
    -2
100
AcDbLine
 10
103.9636519775437
 20
14.5415
 30
0.0
 11
103.9636519775438
 21
6.603999999999999
 31
0.0
  0
LINE
  5
1E8
330
1E1
100
AcDbEntity
  8
치수문자_일반주서
 62
     0
370
    -2
100
AcDbLine
 10
103.9636519775437
 20
17.8435
 30
0.0
 11
103.9636519775437
 21
21.1455
 31
0.0
  0
LINE
  5
1E9
330
1E1
100
AcDbEntity
  8
치수문자_일반주서
 62
     0
370
    -2
100
AcDbLine
 10
103.9636519775438
 20
3.302
 30
0.0
 11
103.9636519775438
 21
0.0
 31
0.0
  0
SOLID
  5
1EA
330
1E1
100
AcDbEntity
  8
치수문자_일반주서
 62
     0
100
AcDbTrace
 10
103.4133186442104
 20
17.8435
 30
0.0
 11
104.513985310877
 21
17.8435
 31
0.0
 12
103.9636519775437
 22
14.5415
 32
0.0
 13
103.9636519775437
 23
14.5415
 33
0.0
  0
SOLID
  5
1EB
330
1E1
100
AcDbEntity
  8
치수문자_일반주서
 62
     0
100
AcDbTrace
 10
104.5139853108771
 20
3.302000000000001
 30
0.0
 11
103.4133186442104
 21
3.301999999999998
 31
0.0
 12
103.9636519775438
 22
6.603999999999999
 32
0.0
 13
103.9636519775438
 23
6.603999999999999
 33
0.0
  0
MTEXT
  5
1EC
330
1E1
100
AcDbEntity
  8
치수문자_일반주서
 62
     0
100
AcDbMText
 10
99.5886519775436
 20
51.79825576061918
 30
0.0
 40
3.5
 41
0.0
 71
     2
 72
     1
  1
\A1;%%c7.94 [5/16]
  7
SLDTEXTSTYLE0
 11
-3.580687802255624E-15
 21
1.0
 31
0.0
 73
     1
 44
1.0
  0
POINT
  5
1ED
330
1E1
100
AcDbEntity
  8
Defpoints
 62
     0
100
AcDbPoint
 10
91.90000000000002
 20
14.54149999999995
 30
0.0
  0
POINT
  5
1EE
330
1E1
100
AcDbEntity
  8
Defpoints
 62
     0
100
AcDbPoint
 10
91.90000000000002
 20
6.603999999999955
 30
0.0
  0
POINT
  5
1EF
330
1E1
100
AcDbEntity
  8
Defpoints
 62
     0
100
AcDbPoint
 10
103.9636519775438
 20
6.604
 30
0.0
  0
ENDBLK
  5
1E3
330
1E1
100
AcDbEntity
  8
0
100
AcDbBlockEnd
  0
BLOCK
  5
1F1
330
1F0
100
AcDbEntity
  8
0
100
AcDbBlockBegin
  2
*D8
 70
     1
 10
0.0
 20
0.0
 30
0.0
  3
*D8
  1
*D9
  0
LINE
  5
1F3
330
1F0
100
AcDbEntity
  8
치수문자_일반주서
 62
     0
370
    -2
100
AcDbLine
 10
91.90000000000002
 20
14.60399999999995
 30
0.0
 11
91.90000000000002
 21
29.61897330062142
 31
0.0
  0
LINE
  5
1F4
330
1F0
100
AcDbEntity
  8
치수문자_일반주서
 62
     0
370
    -2
100
AcDbLine
 10
72.85
 20
14.59495681819049
 30
0.0
 11
72.85
 21
29.61897330062142
 31
0.0
  0
LINE
  5
1F5
330
1F0
100
AcDbEntity
  8
치수문자_일반주서
 62
     0
370
    -2
100
AcDbLine
 10
72.85
 20
29.61897330062142
 30
0.0
 11
41.08975
 21
29.61897330062142
 31
0.0
  0
LINE
  5
1F6
330
1F0
100
AcDbEntity
  8
치수문자_일반주서
 62
     0
370
    -2
100
AcDbLine
 10
91.90000000000002
 20
29.61897330062142
 30
0.0
 11
72.85
 21
29.61897330062142
 31
0.0
  0
LINE
  5
1F7
330
1F0
100
AcDbEntity
  8
치수문자_일반주서
 62
     0
370
    -2
100
AcDbLine
 10
95.20200000000003
 20
29.61897330062142
 30
0.0
 11
98.50400000000002
 21
29.61897330062142
 31
0.0
  0
LINE
  5
1F8
330
1F0
100
AcDbEntity
  8
치수문자_일반주서
 62
     0
370
    -2
100
AcDbLine
 10
69.548
 20
29.61897330062142
 30
0.0
 11
66.24600000000001
 21
29.61897330062142
 31
0.0
  0
SOLID
  5
1F9
330
1F0
100
AcDbEntity
  8
치수문자_일반주서
 62
     0
100
AcDbTrace
 10
95.20200000000003
 20
30.16930663395475
 30
0.0
 11
95.20200000000003
 21
29.06863996728809
 31
0.0
 12
91.90000000000002
 22
29.61897330062142
 32
0.0
 13
91.90000000000002
 23
29.61897330062142
 33
0.0
  0
SOLID
  5
1FA
330
1F0
100
AcDbEntity
  8
치수문자_일반주서
 62
     0
100
AcDbTrace
 10
69.548
 20
29.06863996728809
 30
0.0
 11
69.548
 21
30.16930663395475
 31
0.0
 12
72.85
 22
29.61897330062142
 32
0.0
 13
72.85
 23
29.61897330062142
 33
0.0
  0
MTEXT
  5
1FB
330
1F0
100
AcDbEntity
  8
치수문자_일반주서
 62
     0
100
AcDbMText
 10
53.5585
 20
33.99397330062142
 30
0.0
 40
3.5
 41
0.0
 71
     2
 72
     1
  1
\A1;19.05 [3/4]
  7
SLDTEXTSTYLE0
 73
     1
 44
1.0
  0
POINT
  5
1FC
330
1F0
100
AcDbEntity
  8
Defpoints
 62
     0
100
AcDbPoint
 10
91.90000000000002
 20
14.54149999999995
 30
0.0
  0
POINT
  5
1FD
330
1F0
100
AcDbEntity
  8
Defpoints
 62
     0
100
AcDbPoint
 10
72.85
 20
14.53245681819049
 30
0.0
  0
POINT
  5
1FE
330
1F0
100
AcDbEntity
  8
Defpoints
 62
     0
100
AcDbPoint
 10
72.85
 20
29.61897330062142
 30
0.0
  0
ENDBLK
  5
1F2
330
1F0
100
AcDbEntity
  8
0
100
AcDbBlockEnd
  0
BLOCK
  5
200
330
1FF
100
AcDbEntity
  8
0
100
AcDbBlockBegin
  2
*D9
 70
     1
 10
0.0
 20
0.0
 30
0.0
  3
*D9
  1
*D10
  0
LINE
  5
202
330
1FF
100
AcDbEntity
  8
치수문자_일반주서
 62
     0
370
    -2
100
AcDbLine
 10
91.90000000000002
 20
14.60399999999995
 30
0.0
 11
91.9
 21
42.80854047621217
 31
0.0
  0
LINE
  5
203
330
1FF
100
AcDbEntity
  8
치수문자_일반주서
 62
     0
370
    -2
100
AcDbLine
 10
3.000000000000007
 20
14.44524999999995
 30
0.0
 11
2.999999999999993
 21
42.80854047621217
 31
0.0
  0
LINE
  5
204
330
1FF
100
AcDbEntity
  8
치수문자_일반주서
 62
     0
370
    -2
100
AcDbLine
 10
88.59800000000001
 20
42.80854047621217
 30
0.0
 11
6.301999999999992
 21
42.80854047621217
 31
0.0
  0
SOLID
  5
205
330
1FF
100
AcDbEntity
  8
치수문자_일반주서
 62
     0
100
AcDbTrace
 10
88.59800000000001
 20
42.25820714287884
 30
0.0
 11
88.59800000000001
 21
43.35887380954551
 31
0.0
 12
91.9
 22
42.80854047621217
 32
0.0
 13
91.9
 23
42.80854047621217
 33
0.0
  0
SOLID
  5
206
330
1FF
100
AcDbEntity
  8
치수문자_일반주서
 62
     0
100
AcDbTrace
 10
6.301999999999992
 20
43.35887380954551
 30
0.0
 11
6.301999999999992
 21
42.25820714287884
 31
0.0
 12
2.999999999999993
 22
42.80854047621217
 32
0.0
 13
2.999999999999993
 23
42.80854047621217
 33
0.0
  0
MTEXT
  5
207
330
1FF
100
AcDbEntity
  8
치수문자_일반주서
 62
     0
100
AcDbMText
 10
48.52573739200619
 20
47.18354047621217
 30
0.0
 40
3.5
 41
0.0
 71
     2
 72
     1
  1
\A1;88.9 [3 1/2]
  7
SLDTEXTSTYLE0
 73
     1
 44
1.0
  0
POINT
  5
208
330
1FF
100
AcDbEntity
  8
Defpoints
 62
     0
100
AcDbPoint
 10
91.90000000000002
 20
14.54149999999995
 30
0.0
  0
POINT
  5
209
330
1FF
100
AcDbEntity
  8
Defpoints
 62
     0
100
AcDbPoint
 10
3.000000000000007
 20
14.38274999999995
 30
0.0
  0
POINT
  5
20A
330
1FF
100
AcDbEntity
  8
Defpoints
 62
     0
100
AcDbPoint
 10
3.000000000000007
 20
42.80854047621217
 30
0.0
  0
ENDBLK
  5
201
330
1FF
100
AcDbEntity
  8
0
100
AcDbBlockEnd
  0
BLOCK
  5
23B
330
23A
100
AcDbEntity
  8
0
100
AcDbBlockBegin
  2
*D10
 70
     1
 10
0.0
 20
0.0
 30
0.0
  3
*D10
  1
*D11
  0
LINE
  5
23D
330
23A
100
AcDbEntity
  8
치수문자_일반주서
 62
     0
370
    -2
100
AcDbLine
 10
146.7548030314723
 20
-47.8927512143377
 30
0.0
 11
158.755955009016
 21
-47.89275121433766
 31
0.0
  0
LINE
  5
23E
330
23A
100
AcDbEntity
  8
치수문자_일반주서
 62
     0
370
    -2
100
AcDbLine
 10
146.7548030314723
 20
-55.8302512143377
 30
0.0
 11
158.7559550090161
 21
-55.83025121433766
 31
0.0
  0
LINE
  5
23F
330
23A
100
AcDbEntity
  8
치수문자_일반주서
 62
     0
370
    -2
100
AcDbLine
 10
158.755955009016
 20
-47.89275121433766
 30
0.0
 11
158.7559550090158
 21
3.364004546281535
 31
0.0
  0
LINE
  5
240
330
23A
100
AcDbEntity
  8
치수문자_일반주서
 62
     0
370
    -2
100
AcDbLine
 10
158.755955009016
 20
-47.89275121433766
 30
0.0
 11
158.7559550090161
 21
-55.83025121433766
 31
0.0
  0
LINE
  5
241
330
23A
100
AcDbEntity
  8
치수문자_일반주서
 62
     0
370
    -2
100
AcDbLine
 10
158.755955009016
 20
-44.59075121433766
 30
0.0
 11
158.755955009016
 21
-41.28875121433766
 31
0.0
  0
LINE
  5
242
330
23A
100
AcDbEntity
  8
치수문자_일반주서
 62
     0
370
    -2
100
AcDbLine
 10
158.7559550090161
 20
-59.13225121433766
 30
0.0
 11
158.7559550090161
 21
-62.43425121433766
 31
0.0
  0
SOLID
  5
243
330
23A
100
AcDbEntity
  8
치수문자_일반주서
 62
     0
100
AcDbTrace
 10
158.2056216756827
 20
-44.59075121433766
 30
0.0
 11
159.3062883423494
 21
-44.59075121433766
 31
0.0
 12
158.755955009016
 22
-47.89275121433766
 32
0.0
 13
158.755955009016
 23
-47.89275121433766
 33
0.0
  0
SOLID
  5
244
330
23A
100
AcDbEntity
  8
치수문자_일반주서
 62
     0
100
AcDbTrace
 10
159.3062883423494
 20
-59.13225121433766
 30
0.0
 11
158.2056216756827
 21
-59.13225121433766
 31
0.0
 12
158.7559550090161
 22
-55.83025121433766
 32
0.0
 13
158.7559550090161
 23
-55.83025121433766
 33
0.0
  0
MTEXT
  5
245
330
23A
100
AcDbEntity
  8
치수문자_일반주서
 62
     0
100
AcDbMText
 10
154.3809550090159
 20
-10.63599545371848
 30
0.0
 40
3.5
 41
0.0
 71
     2
 72
     1
  1
\A1;%%c7.94 [5/16]
  7
SLDTEXTSTYLE0
 11
-3.580687802255623E-15
 21
1.0
 31
0.0
 73
     1
 44
1.0
  0
POINT
  5
246
330
23A
100
AcDbEntity
  8
Defpoints
 62
     0
100
AcDbPoint
 10
146.6923030314723
 20
-47.8927512143377
 30
0.0
  0
POINT
  5
247
330
23A
100
AcDbEntity
  8
Defpoints
 62
     0
100
AcDbPoint
 10
146.6923030314723
 20
-55.8302512143377
 30
0.0
  0
POINT
  5
248
330
23A
100
AcDbEntity
  8
Defpoints
 62
     0
100
AcDbPoint
 10
158.7559550090161
 20
-55.83025121433766
 30
0.0
  0
ENDBLK
  5
23C
330
23A
100
AcDbEntity
  8
0
100
AcDbBlockEnd
  0
BLOCK
  5
24A
330
249
100
AcDbEntity
  8
0
100
AcDbBlockBegin
  2
*D11
 70
     1
 10
0.0
 20
0.0
 30
0.0
  3
*D11
  1
*D12
  0
LINE
  5
24C
330
249
100
AcDbEntity
  8
치수문자_일반주서
 62
     0
370
    -2
100
AcDbLine
 10
146.6923030314723
 20
-47.8302512143377
 30
0.0
 11
146.6923030314723
 21
-32.81527791371624
 31
0.0
  0
LINE
  5
24D
330
249
100
AcDbEntity
  8
치수문자_일반주서
 62
     0
370
    -2
100
AcDbLine
 10
127.6423030314723
 20
-47.83929439614717
 30
0.0
 11
127.6423030314723
 21
-32.81527791371624
 31
0.0
  0
LINE
  5
24E
330
249
100
AcDbEntity
  8
치수문자_일반주서
 62
     0
370
    -2
100
AcDbLine
 10
127.6423030314723
 20
-32.81527791371624
 30
0.0
 11
95.88205303147231
 21
-32.81527791371624
 31
0.0
  0
LINE
  5
24F
330
249
100
AcDbEntity
  8
치수문자_일반주서
 62
     0
370
    -2
100
AcDbLine
 10
146.6923030314723
 20
-32.81527791371624
 30
0.0
 11
127.6423030314723
 21
-32.81527791371624
 31
0.0
  0
LINE
  5
250
330
249
100
AcDbEntity
  8
치수문자_일반주서
 62
     0
370
    -2
100
AcDbLine
 10
149.9943030314723
 20
-32.81527791371624
 30
0.0
 11
153.2963030314723
 21
-32.81527791371624
 31
0.0
  0
LINE
  5
251
330
249
100
AcDbEntity
  8
치수문자_일반주서
 62
     0
370
    -2
100
AcDbLine
 10
124.3403030314723
 20
-32.81527791371624
 30
0.0
 11
121.0383030314723
 21
-32.81527791371624
 31
0.0
  0
SOLID
  5
252
330
249
100
AcDbEntity
  8
치수문자_일반주서
 62
     0
100
AcDbTrace
 10
149.9943030314723
 20
-32.2649445803829
 30
0.0
 11
149.9943030314723
 21
-33.36561124704957
 31
0.0
 12
146.6923030314723
 22
-32.81527791371624
 32
0.0
 13
146.6923030314723
 23
-32.81527791371624
 33
0.0
  0
SOLID
  5
253
330
249
100
AcDbEntity
  8
치수문자_일반주서
 62
     0
100
AcDbTrace
 10
124.3403030314723
 20
-33.36561124704957
 30
0.0
 11
124.3403030314723
 21
-32.2649445803829
 31
0.0
 12
127.6423030314723
 22
-32.81527791371624
 32
0.0
 13
127.6423030314723
 23
-32.81527791371624
 33
0.0
  0
MTEXT
  5
254
330
249
100
AcDbEntity
  8
치수문자_일반주서
 62
     0
100
AcDbMText
 10
108.3508030314723
 20
-28.44027791371624
 30
0.0
 40
3.5
 41
0.0
 71
     2
 72
     1
  1
\A1;19.05 [3/4]
  7
SLDTEXTSTYLE0
 73
     1
 44
1.0
  0
POINT
  5
255
330
249
100
AcDbEntity
  8
Defpoints
 62
     0
100
AcDbPoint
 10
146.6923030314723
 20
-47.8927512143377
 30
0.0
  0
POINT
  5
256
330
249
100
AcDbEntity
  8
Defpoints
 62
     0
100
AcDbPoint
 10
127.6423030314723
 20
-47.90179439614717
 30
0.0
  0
POINT
  5
257
330
249
100
AcDbEntity
  8
Defpoints
 62
     0
100
AcDbPoint
 10
127.6423030314723
 20
-32.81527791371624
 30
0.0
  0
ENDBLK
  5
24B
330
249
100
AcDbEntity
  8
0
100
AcDbBlockEnd
  0
BLOCK
  5
259
330
258
100
AcDbEntity
  8
0
100
AcDbBlockBegin
  2
*D12
 70
     1
 10
0.0
 20
0.0
 30
0.0
  3
*D12
  1
*D13
  0
LINE
  5
25B
330
258
100
AcDbEntity
  8
치수문자_일반주서
 62
     0
370
    -2
100
AcDbLine
 10
146.6923030314723
 20
-47.8302512143377
 30
0.0
 11
146.6923030314723
 21
-19.62571073812548
 31
0.0
  0
LINE
  5
25C
330
258
100
AcDbEntity
  8
치수문자_일반주서
 62
     0
370
    -2
100
AcDbLine
 10
57.79230303147232
 20
-47.9890012143377
 30
0.0
 11
57.79230303147232
 21
-19.62571073812548
 31
0.0
  0
LINE
  5
25D
330
258
100
AcDbEntity
  8
치수문자_일반주서
 62
     0
370
    -2
100
AcDbLine
 10
143.3903030314723
 20
-19.62571073812548
 30
0.0
 11
61.09430303147232
 21
-19.62571073812548
 31
0.0
  0
SOLID
  5
25E
330
258
100
AcDbEntity
  8
치수문자_일반주서
 62
     0
100
AcDbTrace
 10
143.3903030314723
 20
-20.17604407145882
 30
0.0
 11
143.3903030314723
 21
-19.07537740479215
 31
0.0
 12
146.6923030314723
 22
-19.62571073812548
 32
0.0
 13
146.6923030314723
 23
-19.62571073812548
 33
0.0
  0
SOLID
  5
25F
330
258
100
AcDbEntity
  8
치수문자_일반주서
 62
     0
100
AcDbTrace
 10
61.09430303147232
 20
-19.07537740479215
 30
0.0
 11
61.09430303147232
 21
-20.17604407145882
 31
0.0
 12
57.79230303147232
 22
-19.62571073812548
 32
0.0
 13
57.79230303147232
 23
-19.62571073812548
 33
0.0
  0
MTEXT
  5
260
330
258
100
AcDbEntity
  8
치수문자_일반주서
 62
     0
100
AcDbMText
 10
103.3180404234785
 20
-15.25071073812548
 30
0.0
 40
3.5
 41
0.0
 71
     2
 72
     1
  1
\A1;88.9 [3 1/2]
  7
SLDTEXTSTYLE0
 73
     1
 44
1.0
  0
POINT
  5
261
330
258
100
AcDbEntity
  8
Defpoints
 62
     0
100
AcDbPoint
 10
146.6923030314723
 20
-47.8927512143377
 30
0.0
  0
POINT
  5
262
330
258
100
AcDbEntity
  8
Defpoints
 62
     0
100
AcDbPoint
 10
57.79230303147232
 20
-48.0515012143377
 30
0.0
  0
POINT
  5
263
330
258
100
AcDbEntity
  8
Defpoints
 62
     0
100
AcDbPoint
 10
57.79230303147232
 20
-19.62571073812548
 30
0.0
  0
ENDBLK
  5
25A
330
258
100
AcDbEntity
  8
0
100
AcDbBlockEnd
  0
BLOCK
  5
2F8
330
2F7
100
AcDbEntity
  8
0
100
AcDbBlockBegin
  2
*D13
 70
     1
 10
0.0
 20
0.0
 30
0.0
  3
*D13
  1
*D15
  0
LINE
  5
2FA
330
2F7
100
AcDbEntity
  8
치수문자_일반주서
 62
     0
370
    -2
100
AcDbLine
 10
80.85000000000001
 20
9.778999999999934
 30
0.0
 11
97.52437605524167
 21
9.778999999999996
 31
0.0
  0
LINE
  5
2FB
330
2F7
100
AcDbEntity
  8
치수문자_일반주서
 62
     0
370
    -2
100
AcDbLine
 10
80.85
 20
6.603999999999935
 30
0.0
 11
97.52437605524169
 21
6.603999999999996
 31
0.0
  0
LINE
  5
2FC
330
2F7
100
AcDbEntity
  8
치수문자_일반주서
 62
     0
370
    -2
100
AcDbLine
 10
97.52437605524167
 20
9.778999999999996
 30
0.0
 11
97.52437605524153
 21
41.10175
 31
0.0
  0
LINE
  5
2FD
330
2F7
100
AcDbEntity
  8
치수문자_일반주서
 62
     0
370
    -2
100
AcDbLine
 10
97.52437605524167
 20
9.778999999999996
 30
0.0
 11
97.52437605524169
 21
6.603999999999996
 31
0.0
  0
LINE
  5
2FE
330
2F7
100
AcDbEntity
  8
치수문자_일반주서
 62
     0
370
    -2
100
AcDbLine
 10
97.52437605524166
 20
13.081
 30
0.0
 11
97.52437605524165
 21
16.383
 31
0.0
  0
LINE
  5
2FF
330
2F7
100
AcDbEntity
  8
치수문자_일반주서
 62
     0
370
    -2
100
AcDbLine
 10
97.5243760552417
 20
3.301999999999996
 30
0.0
 11
97.52437605524172
 21
-0.0000000000000036
 31
0.0
  0
SOLID
  5
300
330
2F7
100
AcDbEntity
  8
치수문자_일반주서
 62
     0
100
AcDbTrace
 10
96.97404272190833
 20
13.08099999999999
 30
0.0
 11
98.07470938857499
 21
13.081
 31
0.0
 12
97.52437605524167
 22
9.778999999999996
 32
0.0
 13
97.52437605524167
 23
9.778999999999996
 33
0.0
  0
SOLID
  5
301
330
2F7
100
AcDbEntity
  8
치수문자_일반주서
 62
     0
100
AcDbTrace
 10
98.07470938857503
 20
3.301999999999999
 30
0.0
 11
96.97404272190838
 21
3.301999999999993
 31
0.0
 12
97.52437605524169
 22
6.603999999999996
 32
0.0
 13
97.52437605524169
 23
6.603999999999996
 33
0.0
  0
MTEXT
  5
302
330
2F7
100
AcDbEntity
  8
치수문자_일반주서
 62
     0
100
AcDbMText
 10
93.14937605524159
 20
28.85174999999998
 30
0.0
 40
3.5
 41
0.0
 71
     2
 72
     1
  1
\A1;%%c3.18 [1/8]
  7
SLDTEXTSTYLE0
 11
-4.475859752819530E-15
 21
1.0
 31
0.0
 73
     1
 44
1.0
  0
POINT
  5
303
330
2F7
100
AcDbEntity
  8
Defpoints
 62
     0
100
AcDbPoint
 10
80.78750000000001
 20
9.778999999999934
 30
0.0
  0
POINT
  5
304
330
2F7
100
AcDbEntity
  8
Defpoints
 62
     0
100
AcDbPoint
 10
80.7875
 20
6.603999999999935
 30
0.0
  0
POINT
  5
305
330
2F7
100
AcDbEntity
  8
Defpoints
 62
     0
100
AcDbPoint
 10
97.5243760552417
 20
6.603999999999997
 30
0.0
  0
ENDBLK
  5
2F9
330
2F7
100
AcDbEntity
  8
0
100
AcDbBlockEnd
  0
BLOCK
  5
307
330
306
100
AcDbEntity
  8
0
100
AcDbBlockBegin
  2
*D14
 70
     1
 10
0.0
 20
0.0
 30
0.0
  3
*D14
  1
*D16
  0
LINE
  5
309
330
306
100
AcDbEntity
  8
치수문자_일반주서
 62
     0
370
    -2
100
AcDbLine
 10
80.7875
 20
9.841499999999934
 30
0.0
 11
80.7875
 21
24.47216693368613
 31
0.0
  0
LINE
  5
30A
330
306
100
AcDbEntity
  8
치수문자_일반주서
 62
     0
370
    -2
100
AcDbLine
 10
71.26249999999999
 20
9.710965539775474
 30
0.0
 11
71.26249999999999
 21
24.47216693368613
 31
0.0
  0
LINE
  5
30B
330
306
100
AcDbEntity
  8
치수문자_일반주서
 62
     0
370
    -2
100
AcDbLine
 10
71.26249999999999
 20
24.47216693368613
 30
0.0
 11
41.03349999999999
 21
24.47216693368613
 31
0.0
  0
LINE
  5
30C
330
306
100
AcDbEntity
  8
치수문자_일반주서
 62
     0
370
    -2
100
AcDbLine
 10
80.7875
 20
24.47216693368613
 30
0.0
 11
71.26249999999999
 21
24.47216693368613
 31
0.0
  0
LINE
  5
30D
330
306
100
AcDbEntity
  8
치수문자_일반주서
 62
     0
370
    -2
100
AcDbLine
 10
84.08949999999999
 20
24.47216693368613
 30
0.0
 11
87.39149999999998
 21
24.47216693368613
 31
0.0
  0
LINE
  5
30E
330
306
100
AcDbEntity
  8
치수문자_일반주서
 62
     0
370
    -2
100
AcDbLine
 10
67.9605
 20
24.47216693368613
 30
0.0
 11
64.6585
 21
24.47216693368613
 31
0.0
  0
SOLID
  5
30F
330
306
100
AcDbEntity
  8
치수문자_일반주서
 62
     0
100
AcDbTrace
 10
84.08949999999999
 20
25.02250026701946
 30
0.0
 11
84.08949999999999
 21
23.92183360035279
 31
0.0
 12
80.7875
 22
24.47216693368613
 32
0.0
 13
80.7875
 23
24.47216693368613
 33
0.0
  0
SOLID
  5
310
330
306
100
AcDbEntity
  8
치수문자_일반주서
 62
     0
100
AcDbTrace
 10
67.9605
 20
23.92183360035279
 30
0.0
 11
67.9605
 21
25.02250026701946
 31
0.0
 12
71.26249999999999
 22
24.47216693368613
 32
0.0
 13
71.26249999999999
 23
24.47216693368613
 33
0.0
  0
MTEXT
  5
311
330
306
100
AcDbEntity
  8
치수문자_일반주서
 62
     0
100
AcDbMText
 10
52.84599999999999
 20
28.84716693368613
 30
0.0
 40
3.5
 41
0.0
 71
     2
 72
     1
  1
\A1;9.53 [3/8]
  7
SLDTEXTSTYLE0
 73
     1
 44
1.0
  0
POINT
  5
312
330
306
100
AcDbEntity
  8
Defpoints
 62
     0
100
AcDbPoint
 10
80.7875
 20
9.778999999999934
 30
0.0
  0
POINT
  5
313
330
306
100
AcDbEntity
  8
Defpoints
 62
     0
100
AcDbPoint
 10
71.26249999999999
 20
9.648465539775474
 30
0.0
  0
POINT
  5
314
330
306
100
AcDbEntity
  8
Defpoints
 62
     0
100
AcDbPoint
 10
71.26249999999999
 20
24.47216693368613
 30
0.0
  0
ENDBLK
  5
308
330
306
100
AcDbEntity
  8
0
100
AcDbBlockEnd
  0
BLOCK
  5
316
330
315
100
AcDbEntity
  8
0
100
AcDbBlockBegin
  2
*D15
 70
     1
 10
0.0
 20
0.0
 30
0.0
  3
*D15
  1
*D17
  0
LINE
  5
318
330
315
100
AcDbEntity
  8
치수문자_일반주서
 62
     0
370
    -2
100
AcDbLine
 10
80.7875
 20
9.841499999999934
 30
0.0
 11
80.7875
 21
37.05350927818293
 31
0.0
  0
LINE
  5
319
330
315
100
AcDbEntity
  8
치수문자_일반주서
 62
     0
370
    -2
100
AcDbLine
 10
3.000000000000007
 20
12.06399999999993
 30
0.0
 11
3.000000000000007
 21
37.05350927818293
 31
0.0
  0
LINE
  5
31A
330
315
100
AcDbEntity
  8
치수문자_일반주서
 62
     0
370
    -2
100
AcDbLine
 10
77.4855
 20
37.05350927818293
 30
0.0
 11
6.302000000000007
 21
37.05350927818293
 31
0.0
  0
SOLID
  5
31B
330
315
100
AcDbEntity
  8
치수문자_일반주서
 62
     0
100
AcDbTrace
 10
77.4855
 20
36.50317594484959
 30
0.0
 11
77.4855
 21
37.60384261151626
 31
0.0
 12
80.7875
 22
37.05350927818293
 32
0.0
 13
80.7875
 23
37.05350927818293
 33
0.0
  0
SOLID
  5
31C
330
315
100
AcDbEntity
  8
치수문자_일반주서
 62
     0
100
AcDbTrace
 10
6.302000000000007
 20
37.60384261151626
 30
0.0
 11
6.302000000000007
 21
36.50317594484959
 31
0.0
 12
3.000000000000007
 22
37.05350927818293
 32
0.0
 13
3.000000000000007
 23
37.05350927818293
 33
0.0
  0
MTEXT
  5
31D
330
315
100
AcDbEntity
  8
치수문자_일반주서
 62
     0
100
AcDbMText
 10
41.89375000000001
 20
41.42850927818293
 30
0.0
 40
3.5
 41
0.0
 71
     2
 72
     1
  1
\A1;77.79 [3 1/16]
  7
SLDTEXTSTYLE0
 73
     1
 44
1.0
  0
POINT
  5
31E
330
315
100
AcDbEntity
  8
Defpoints
 62
     0
100
AcDbPoint
 10
80.7875
 20
9.778999999999934
 30
0.0
  0
POINT
  5
31F
330
315
100
AcDbEntity
  8
Defpoints
 62
     0
100
AcDbPoint
 10
3.000000000000007
 20
12.00149999999993
 30
0.0
  0
POINT
  5
320
330
315
100
AcDbEntity
  8
Defpoints
 62
     0
100
AcDbPoint
 10
3.000000000000007
 20
37.05350927818293
 30
0.0
  0
ENDBLK
  5
317
330
315
100
AcDbEntity
  8
0
100
AcDbBlockEnd
  0
BLOCK
  5
354
330
353
100
AcDbEntity
  8
0
100
AcDbBlockBegin
  2
*D16
 70
     1
 10
0.0
 20
0.0
 30
0.0
  3
*D16
  1
*D18
  0
LINE
  5
356
330
353
100
AcDbEntity
  8
치수문자_일반주서
 62
     0
370
    -2
100
AcDbLine
 10
177.4831236914904
 20
-27.80320723790011
 30
0.0
 11
194.157499746732
 21
-27.80320723790005
 31
0.0
  0
LINE
  5
357
330
353
100
AcDbEntity
  8
치수문자_일반주서
 62
     0
370
    -2
100
AcDbLine
 10
177.4831236914904
 20
-30.97820723790011
 30
0.0
 11
194.157499746732
 21
-30.97820723790004
 31
0.0
  0
LINE
  5
358
330
353
100
AcDbEntity
  8
치수문자_일반주서
 62
     0
370
    -2
100
AcDbLine
 10
194.157499746732
 20
-27.80320723790005
 30
0.0
 11
194.157499746732
 21
3.519542762099956
 31
0.0
  0
LINE
  5
359
330
353
100
AcDbEntity
  8
치수문자_일반주서
 62
     0
370
    -2
100
AcDbLine
 10
194.157499746732
 20
-27.80320723790005
 30
0.0
 11
194.157499746732
 21
-30.97820723790004
 31
0.0
  0
LINE
  5
35A
330
353
100
AcDbEntity
  8
치수문자_일반주서
 62
     0
370
    -2
100
AcDbLine
 10
194.157499746732
 20
-24.50120723790005
 30
0.0
 11
194.157499746732
 21
-21.19920723790005
 31
0.0
  0
LINE
  5
35B
330
353
100
AcDbEntity
  8
치수문자_일반주서
 62
     0
370
    -2
100
AcDbLine
 10
194.157499746732
 20
-34.28020723790004
 30
0.0
 11
194.157499746732
 21
-37.58220723790004
 31
0.0
  0
SOLID
  5
35C
330
353
100
AcDbEntity
  8
치수문자_일반주서
 62
     0
100
AcDbTrace
 10
193.6071664133986
 20
-24.50120723790005
 30
0.0
 11
194.7078330800653
 21
-24.50120723790005
 31
0.0
 12
194.157499746732
 22
-27.80320723790005
 32
0.0
 13
194.157499746732
 23
-27.80320723790005
 33
0.0
  0
SOLID
  5
35D
330
353
100
AcDbEntity
  8
치수문자_일반주서
 62
     0
100
AcDbTrace
 10
194.7078330800653
 20
-34.28020723790004
 30
0.0
 11
193.6071664133986
 21
-34.28020723790004
 31
0.0
 12
194.157499746732
 22
-30.97820723790004
 32
0.0
 13
194.157499746732
 23
-30.97820723790004
 33
0.0
  0
MTEXT
  5
35E
330
353
100
AcDbEntity
  8
치수문자_일반주서
 62
     0
100
AcDbMText
 10
189.782499746732
 20
-8.730457237900044
 30
0.0
 40
3.5
 41
0.0
 71
     2
 72
     1
  1
\A1;%%c3.18 [1/8]
  7
SLDTEXTSTYLE0
 11
0.0
 21
1.0
 31
0.0
 73
     1
 44
1.0
  0
POINT
  5
35F
330
353
100
AcDbEntity
  8
Defpoints
 62
     0
100
AcDbPoint
 10
177.4206236914904
 20
-27.80320723790011
 30
0.0
  0
POINT
  5
360
330
353
100
AcDbEntity
  8
Defpoints
 62
     0
100
AcDbPoint
 10
177.4206236914904
 20
-30.97820723790011
 30
0.0
  0
POINT
  5
361
330
353
100
AcDbEntity
  8
Defpoints
 62
     0
100
AcDbPoint
 10
194.1574997467321
 20
-30.97820723790004
 30
0.0
  0
ENDBLK
  5
355
330
353
100
AcDbEntity
  8
0
100
AcDbBlockEnd
  0
BLOCK
  5
363
330
362
100
AcDbEntity
  8
0
100
AcDbBlockBegin
  2
*D17
 70
     1
 10
0.0
 20
0.0
 30
0.0
  3
*D17
  1
*D19
  0
LINE
  5
365
330
362
100
AcDbEntity
  8
치수문자_일반주서
 62
     0
370
    -2
100
AcDbLine
 10
177.4206236914904
 20
-27.74070723790011
 30
0.0
 11
177.4206236914904
 21
-13.11004030421391
 31
0.0
  0
LINE
  5
366
330
362
100
AcDbEntity
  8
치수문자_일반주서
 62
     0
370
    -2
100
AcDbLine
 10
167.8956236914904
 20
-27.87124169812457
 30
0.0
 11
167.8956236914904
 21
-13.11004030421391
 31
0.0
  0
LINE
  5
367
330
362
100
AcDbEntity
  8
치수문자_일반주서
 62
     0
370
    -2
100
AcDbLine
 10
167.8956236914904
 20
-13.11004030421391
 30
0.0
 11
137.6666236914904
 21
-13.11004030421391
 31
0.0
  0
LINE
  5
368
330
362
100
AcDbEntity
  8
치수문자_일반주서
 62
     0
370
    -2
100
AcDbLine
 10
177.4206236914904
 20
-13.11004030421391
 30
0.0
 11
167.8956236914904
 21
-13.11004030421391
 31
0.0
  0
LINE
  5
369
330
362
100
AcDbEntity
  8
치수문자_일반주서
 62
     0
370
    -2
100
AcDbLine
 10
180.7226236914904
 20
-13.11004030421391
 30
0.0
 11
184.0246236914903
 21
-13.11004030421391
 31
0.0
  0
LINE
  5
36A
330
362
100
AcDbEntity
  8
치수문자_일반주서
 62
     0
370
    -2
100
AcDbLine
 10
164.5936236914904
 20
-13.11004030421391
 30
0.0
 11
161.2916236914904
 21
-13.11004030421391
 31
0.0
  0
SOLID
  5
36B
330
362
100
AcDbEntity
  8
치수문자_일반주서
 62
     0
100
AcDbTrace
 10
180.7226236914904
 20
-12.55970697088058
 30
0.0
 11
180.7226236914904
 21
-13.66037363754725
 31
0.0
 12
177.4206236914904
 22
-13.11004030421391
 32
0.0
 13
177.4206236914904
 23
-13.11004030421391
 33
0.0
  0
SOLID
  5
36C
330
362
100
AcDbEntity
  8
치수문자_일반주서
 62
     0
100
AcDbTrace
 10
164.5936236914904
 20
-13.66037363754725
 30
0.0
 11
164.5936236914904
 21
-12.55970697088058
 31
0.0
 12
167.8956236914904
 22
-13.11004030421391
 32
0.0
 13
167.8956236914904
 23
-13.11004030421391
 33
0.0
  0
MTEXT
  5
36D
330
362
100
AcDbEntity
  8
치수문자_일반주서
 62
     0
100
AcDbMText
 10
149.4791236914904
 20
-8.735040304213914
 30
0.0
 40
3.5
 41
0.0
 71
     2
 72
     1
  1
\A1;9.53 [3/8]
  7
SLDTEXTSTYLE0
 73
     1
 44
1.0
  0
POINT
  5
36E
330
362
100
AcDbEntity
  8
Defpoints
 62
     0
100
AcDbPoint
 10
177.4206236914904
 20
-27.80320723790011
 30
0.0
  0
POINT
  5
36F
330
362
100
AcDbEntity
  8
Defpoints
 62
     0
100
AcDbPoint
 10
167.8956236914904
 20
-27.93374169812457
 30
0.0
  0
POINT
  5
370
330
362
100
AcDbEntity
  8
Defpoints
 62
     0
100
AcDbPoint
 10
167.8956236914904
 20
-13.11004030421391
 30
0.0
  0
ENDBLK
  5
364
330
362
100
AcDbEntity
  8
0
100
AcDbBlockEnd
  0
BLOCK
  5
372
330
371
100
AcDbEntity
  8
0
100
AcDbBlockBegin
  2
*D18
 70
     1
 10
0.0
 20
0.0
 30
0.0
  3
*D18
  1
*D20
  0
LINE
  5
374
330
371
100
AcDbEntity
  8
치수문자_일반주서
 62
     0
370
    -2
100
AcDbLine
 10
177.4206236914904
 20
-27.74070723790011
 30
0.0
 11
177.4206236914904
 21
-0.528697959717114
 31
0.0
  0
LINE
  5
375
330
371
100
AcDbEntity
  8
치수문자_일반주서
 62
     0
370
    -2
100
AcDbLine
 10
99.63312369149037
 20
-25.51820723790011
 30
0.0
 11
99.63312369149037
 21
-0.528697959717114
 31
0.0
  0
LINE
  5
376
330
371
100
AcDbEntity
  8
치수문자_일반주서
 62
     0
370
    -2
100
AcDbLine
 10
174.1186236914904
 20
-0.528697959717114
 30
0.0
 11
102.9351236914904
 21
-0.528697959717114
 31
0.0
  0
SOLID
  5
377
330
371
100
AcDbEntity
  8
치수문자_일반주서
 62
     0
100
AcDbTrace
 10
174.1186236914904
 20
-1.079031293050447
 30
0.0
 11
174.1186236914904
 21
0.0216353736162193
 31
0.0
 12
177.4206236914904
 22
-0.528697959717114
 32
0.0
 13
177.4206236914904
 23
-0.528697959717114
 33
0.0
  0
SOLID
  5
378
330
371
100
AcDbEntity
  8
치수문자_일반주서
 62
     0
100
AcDbTrace
 10
102.9351236914904
 20
0.0216353736162193
 30
0.0
 11
102.9351236914904
 21
-1.079031293050447
 31
0.0
 12
99.63312369149037
 22
-0.528697959717114
 32
0.0
 13
99.63312369149037
 23
-0.528697959717114
 33
0.0
  0
MTEXT
  5
379
330
371
100
AcDbEntity
  8
치수문자_일반주서
 62
     0
100
AcDbMText
 10
138.5268736914904
 20
3.846302040282886
 30
0.0
 40
3.5
 41
0.0
 71
     2
 72
     1
  1
\A1;77.79 [3 1/16]
  7
SLDTEXTSTYLE0
 73
     1
 44
1.0
  0
POINT
  5
37A
330
371
100
AcDbEntity
  8
Defpoints
 62
     0
100
AcDbPoint
 10
177.4206236914904
 20
-27.80320723790011
 30
0.0
  0
POINT
  5
37B
330
371
100
AcDbEntity
  8
Defpoints
 62
     0
100
AcDbPoint
 10
99.63312369149037
 20
-25.58070723790011
 30
0.0
  0
POINT
  5
37C
330
371
100
AcDbEntity
  8
Defpoints
 62
     0
100
AcDbPoint
 10
99.63312369149037
 20
-0.528697959717114
 30
0.0
  0
ENDBLK
  5
373
330
371
100
AcDbEntity
  8
0
100
AcDbBlockEnd
  0
ENDSEC
  0
SECTION
  2
ENTITIES
  0
LINE
  5
96
330
1F
100
AcDbEntity
  8
0
  6
Continuous
 62
     1
370
    15
100
AcDbLine
 10
38.32841630195262
 20
0.4560803767614558
 30
0.0
 11
38.29329045496152
 21
0.4751267227105713
 31
0.0
  0
LINE
  5
97
330
1F
100
AcDbEntity
  8
0
  6
Continuous
 62
     1
370
    15
100
AcDbLine
 10
36.47924567339343
 20
-0.4033423853341852
 30
0.0
 11
36.61579051986217
 21
-0.4762423842367643
 31
0.0
  0
LINE
  5
98
330
1F
100
AcDbEntity
  8
0
  6
Continuous
 62
     1
370
    15
100
AcDbLine
 10
34.81077284231967
 20
-1.587500000000002
 30
0.0
 11
35.77734994565418
 21
-1.587500000000002
 31
0.0
  0
LINE
  5
99
330
1F
100
AcDbEntity
  8
0
  6
Continuous
 62
     1
370
    15
100
AcDbLine
 10
31.45857193709493
 20
1.587499999999999
 30
0.0
 11
30.49132186394955
 21
1.587499999999999
 31
0.0
  0
LINE
  5
9A
330
1F
100
AcDbEntity
  8
0
  6
Continuous
 62
     1
370
    15
100
AcDbLine
 10
35.77734994565419
 20
1.587499999999999
 30
0.0
 11
34.81077284231969
 21
1.587499999999999
 31
0.0
  0
LINE
  5
9B
330
1F
100
AcDbEntity
  8
0
  6
Continuous
 62
     1
370
    15
100
AcDbLine
 10
30.49132186394955
 20
-1.587500000000002
 30
0.0
 11
31.45857193709489
 21
-1.587500000000002
 31
0.0
  0
LINE
  5
9C
330
1F
100
AcDbEntity
  8
외형선
  6
Continuous
370
    15
100
AcDbLine
 10
16.51948868596882
 20
-4.76250000000001
 30
0.0
 11
28.36875
 21
-1.587500000000001
 31
0.0
  0
LINE
  5
9D
330
1F
100
AcDbEntity
  8
외형선
  6
Continuous
370
    15
100
AcDbLine
 10
28.36875
 20
1.587499999999998
 30
0.0
 11
16.51948868596882
 21
4.762500000000006
 31
0.0
  0
LINE
  5
9E
330
1F
100
AcDbEntity
  8
외형선
  6
Continuous
370
    15
100
AcDbLine
 10
-16.51948868596879
 20
-4.762500000000006
 30
0.0
 11
16.51948868596882
 21
-4.762500000000006
 31
0.0
  0
LINE
  5
9F
330
1F
100
AcDbEntity
  8
외형선
  6
Continuous
370
    15
100
AcDbLine
 10
16.51948868596882
 20
4.762500000000002
 30
0.0
 11
4.838700000000017
 21
4.762500000000002
 31
0.0
  0
LINE
  5
A2
330
1F
100
AcDbEntity
  8
외형선
  6
Continuous
370
    15
100
AcDbLine
 10
28.36875
 20
-1.587500000000001
 30
0.0
 11
28.86867789027249
 21
-1.587500000000001
 31
0.0
  0
LINE
  5
A3
330
1F
100
AcDbEntity
  8
외형선
  6
Continuous
370
    15
100
AcDbLine
 10
28.86867789027249
 20
1.587499999999998
 30
0.0
 11
28.36875
 21
1.587499999999998
 31
0.0
  0
LINE
  5
A4
330
1F
100
AcDbEntity
  8
0
  6
Continuous
 62
     1
370
    15
100
AcDbLine
 10
38.89375
 20
-1.437769141943498
 30
0.0
 11
38.89375
 21
0.1360191419435143
 31
0.0
  0
SPLINE
  5
A5
330
1F
100
AcDbEntity
  8
0
  6
Continuous
 62
     1
370
    15
100
AcDbSpline
210
0.0
220
0.0
230
1.0
 70
     8
 71
     3
 72
    16
 73
    12
 74
     0
 42
0.000000001
 43
0.00000001
 40
0.0
 40
0.0
 40
0.0
 40
0.0
 40
0.0775295280828801
 40
0.1970721317867035
 40
0.3166197244603114
 40
0.4361719597297999
 40
0.5489272523495292
 40
0.6616873407543993
 40
0.7744525879495292
 40
0.887223354822423
 40
1.0
 40
1.0
 40
1.0
 40
1.0
 10
31.45857193709493
 20
1.568642471108465
 30
0.0
 10
31.65072333283252
 20
1.569355527135626
 30
0.0
 10
32.13915253032895
 20
1.571168042635601
 30
0.0
 10
32.92388329444863
 20
1.387328369381774
 30
0.0
 10
33.81276161434009
 20
1.059832457289149
 30
0.0
 10
34.68486268580448
 20
0.6242506201300809
 30
0.0
 10
35.54001227965463
 20
0.1394992211069054
 30
0.0
 10
36.37838379327568
 20
-0.3497131580807966
 30
0.0
 10
37.21679225668381
 20
-0.8040075268999676
 30
0.0
 10
38.05525172589659
 20
-1.193709235920262
 30
0.0
 10
38.61424571905897
 20
-1.35641442644036
 30
0.0
 10
38.89375
 20
-1.437769141943498
 30
0.0
  0
SPLINE
  5
A6
330
1F
100
AcDbEntity
  8
0
  6
Continuous
 62
     1
370
    15
100
AcDbSpline
210
0.0
220
0.0
230
1.0
 70
     8
 71
     3
 72
    14
 73
    10
 74
     0
 42
0.000000001
 43
0.00000001
 40
0.0
 40
0.0
 40
0.0
 40
0.0
 40
0.1544594243781139
 40
0.308926217458653
 40
0.4633999372069796
 40
0.6178801388241207
 40
0.7723663749184008
 40
0.9268581956792288
 40
1.0
 40
1.0
 40
1.0
 40
1.0
 10
38.89375000000002
 20
0.1360191419435141
 30
0.0
 10
38.59750370589486
 20
0.3050684252530018
 30
0.0
 10
38.00499698484163
 20
0.6431750566039863
 30
0.0
 10
37.1162054501091
 20
1.08003070210675
 30
0.0
 10
36.22736779823158
 20
1.405519310844979
 30
0.0
 10
35.33848136949949
 20
1.586900976861043
 30
0.0
 10
34.44956781902189
 20
1.597204415842425
 30
0.0
 10
33.71661158128521
 20
1.489885901040323
 30
0.0
 10
33.28005112510028
 20
1.337109869514971
 30
0.0
 10
33.13977826581151
 20
1.288020836211012
 30
0.0
  0
SPLINE
  5
A7
330
1F
100
AcDbEntity
  8
0
  6
Continuous
 62
     1
370
    15
100
AcDbSpline
210
0.0
220
0.0
230
1.0
 70
     8
 71
     3
 72
    17
 73
    13
 74
     0
 42
0.000000001
 43
0.00000001
 40
0.0
 40
0.0
 40
0.0
 40
0.0
 40
0.1098305559166223
 40
0.2196619256848109
 40
0.329498510464021
 40
0.4393399957792941
 40
0.5491860651996006
 40
0.6590364004599627
 40
0.7626413783906317
 40
0.8662507629190056
 40
0.9698648875916209
 40
1.0
 40
1.0
 40
1.0
 40
1.0
 10
29.36874999999983
 20
1.094105788497823
 30
0.0
 10
29.664995680277
 20
0.9590580928613985
 30
0.0
 10
30.25748923603109
 20
0.6889617008763377
 30
0.0
 10
31.14624413428906
 20
0.182051978695149
 30
0.0
 10
32.03503877969183
 20
-0.3355934528062068
 30
0.0
 10
32.92388304244778
 20
-0.8206083133046711
 30
0.0
 10
33.81276167271287
 20
-1.220199055440962
 30
0.0
 10
34.68486270508597
 20
-1.487656586657471
 30
0.0
 10
35.54001215669265
 20
-1.607705173608105
 30
0.0
 10
36.3783842686757
 20
-1.568535849040879
 30
0.0
 10
37.01858890780674
 20
-1.452807210218259
 30
0.0
 10
37.37934362693343
 20
-1.317834077208021
 30
0.0
 10
37.46062546636668
 20
-1.28742320815079
 30
0.0
  0
SPLINE
  5
A8
330
1F
100
AcDbEntity
  8
외형선
  6
Continuous
370
    15
100
AcDbSpline
210
0.0
220
0.0
230
1.0
 70
    24
 71
     3
 72
    10
 73
     6
 74
     0
 42
0.000000001
 43
0.00000001
 40
0.0
 40
0.0
 40
0.0
 40
0.0
 40
0.3106780154920849
 40
0.6248775377813675
 40
1.0
 40
1.0
 40
1.0
 40
1.0
 10
29.36875
 20
1.456965539775544
 30
0.0
 10
29.36875
 20
1.423797857656206
 30
0.0
 10
29.36874999999998
 20
1.357086540784239
 30
0.0
 10
29.36875000000006
 20
1.252376149686688
 30
0.0
 10
29.36875000000006
 20
1.184774221240638
 30
0.0
 10
29.36875000000003
 20
1.147985895292333
 30
0.0
  0
SPLINE
  5
A9
330
1F
100
AcDbEntity
  8
0
  6
Continuous
 62
     1
370
    15
100
AcDbSpline
210
0.0
220
0.0
230
1.0
 70
     8
 71
     3
 72
    38
 73
    34
 74
     0
 42
0.000000001
 43
0.00000001
 40
0.0
 40
0.0
 40
0.0
 40
0.0
 40
0.0625
 40
0.0625
 40
0.125
 40
0.125
 40
0.1875
 40
0.1875
 40
0.25
 40
0.25
 40
0.3125
 40
0.3125
 40
0.375
 40
0.375
 40
0.4375
 40
0.4375
 40
0.5
 40
0.5
 40
0.5625
 40
0.5625
 40
0.625
 40
0.625
 40
0.6875
 40
0.6875
 40
0.75
 40
0.75
 40
0.8125
 40
0.8125
 40
0.875
 40
0.875
 40
0.9375
 40
0.9375
 40
1.0
 40
1.0
 40
1.0
 40
1.0
 10
38.89375000000001
 20
-1.587499999999995
 30
0.0
 10
38.69775017442154
 20
-1.571885825946157
 30
0.0
 10
38.49669627196325
 20
-1.549625714700745
 30
0.0
 10
38.09841273521347
 20
-1.481303463109401
 30
0.0
 10
37.9031568355976
 20
-1.435556732288692
 30
0.0
 10
37.50425148072983
 20
-1.321759279663414
 30
0.0
 10
37.30526114337174
 20
-1.254041397753214
 30
0.0
 10
36.91142549020944
 20
-1.10073208448659
 30
0.0
 10
36.71012099838346
 20
-1.014255693092386
 30
0.0
 10
36.31272764047925
 20
-0.8275273811478427
 30
0.0
 10
36.1170199310354
 20
-0.7274554242641543
 30
0.0
 10
35.7177625205627
 20
-0.5162043879195322
 30
0.0
 10
35.52039230656631
 20
-0.406102176540579
 30
0.0
 10
35.12497906305052
 20
-0.1811920631448073
 30
0.0
 10
34.92356300927138
 20
-0.0657295135904633
 30
0.0
 10
34.52732618883162
 20
0.1631805240161912
 30
0.0
 10
34.33071587517364
 20
0.2769681712153933
 30
0.0
 10
33.93137696644484
 20
0.4996075000479746
 30
0.0
 10
33.73517981071696
 20
0.6072382855373607
 30
0.0
 10
33.33845090161927
 20
0.8121802654498068
 30
0.0
 10
33.13706257293418
 20
0.9095521589884816
 30
0.0
 10
32.74224605558118
 20
1.08738729324253
 30
0.0
 10
32.54428436942641
 20
1.168593293547355
 30
0.0
 10
32.14513470391114
 20
1.311897597391807
 30
0.0
 10
31.949660911154
 20
1.373374512519782
 30
0.0
 10
31.55188120424622
 20
1.474720847488456
 30
0.0
 10
31.35065982316226
 20
1.514313195962858
 30
0.0
 10
30.95752420280093
 20
1.568853245616281
 30
0.0
 10
30.7577654031085
 20
1.584205591156741
 30
0.0
 10
30.35907529480886
 20
1.589838000496649
 30
0.0
 10
30.16387354501315
 20
1.580263389238579
 30
0.0
 10
29.76531026718217
 20
1.536524773390301
 30
0.0
 10
29.5651305684271
 20
1.502304538206294
 30
0.0
 10
29.36874999999982
 20
1.456965539775505
 30
0.0
  0
SPLINE
  5
AA
330
1F
100
AcDbEntity
  8
0
  6
Continuous
 62
     1
370
    15
100
AcDbSpline
210
0.0
220
0.0
230
1.0
 70
     8
 71
     3
 72
    12
 73
     8
 74
     0
 42
0.000000001
 43
0.00000001
 40
0.0
 40
0.0
 40
0.0
 40
0.0
 40
0.2356771316859138
 40
0.4713560097546988
 40
0.7070460783235272
 40
0.9427466625842149
 40
1.0
 40
1.0
 40
1.0
 40
1.0
 10
29.36874999999983
 20
-1.150255960026091
 30
0.0
 10
29.66499569868908
 20
-1.256337624111489
 30
0.0
 10
30.25748929126748
 20
-1.468501738354316
 30
0.0
 10
31.1462439133372
 20
-1.605252780105672
 30
0.0
 10
32.03503960832059
 20
-1.57387891781142
 30
0.0
 10
32.69955578804866
 20
-1.455821107936571
 30
0.0
 10
33.06780886654005
 20
-1.315453521645537
 30
0.0
 10
33.13977826581151
 20
-1.288020836211017
 30
0.0
  0
SPLINE
  5
AB
330
1F
100
AcDbEntity
  8
외형선
  6
Continuous
370
    15
100
AcDbSpline
210
0.0
220
0.0
230
1.0
 70
    24
 71
     3
 72
    22
 73
    18
 74
     0
 42
0.000000001
 43
0.00000001
 40
0.0
 40
0.0
 40
0.0
 40
0.0
 40
0.125
 40
0.125
 40
0.25
 40
0.25
 40
0.3749999999999999
 40
0.3749999999999999
 40
0.4999999999999999
 40
0.4999999999999999
 40
0.625
 40
0.625
 40
0.75
 40
0.75
 40
0.8749999999999999
 40
0.8749999999999999
 40
1.0
 40
1.0
 40
1.0
 40
1.0
 10
29.36875000000003
 20
0.6304027806938627
 30
0.0
 10
29.36875000000004
 20
0.6224680922495024
 30
0.0
 10
29.36875000000001
 20
0.6062724251232016
 30
0.0
 10
29.36875000000001
 20
0.5662686605056129
 30
0.0
 10
29.36875000000001
 20
0.5384019800839198
 30
0.0
 10
29.36875000000003
 20
0.459175691509848
 30
0.0
 10
29.36875000000006
 20
0.4076665628788825
 30
0.0
 10
29.36875000000006
 20
0.2739924115739445
 30
0.0
 10
29.36875
 20
0.1915375399082436
 30
0.0
 10
29.36875000000003
 20
-0.0038587011656123
 30
0.0
 10
29.36875000000001
 20
-0.1169692522628476
 30
0.0
 10
29.36875000000001
 20
-0.3578599807558711
 30
0.0
 10
29.36875000000001
 20
-0.4852235179734574
 30
0.0
 10
29.36875000000001
 20
-0.7253768599730017
 30
0.0
 10
29.36875000000003
 20
-0.8374715790845915
 30
0.0
 10
29.36875000000001
 20
-1.023456391786653
 30
0.0
 10
29.36875
 20
-1.097252874805094
 30
0.0
 10
29.36875
 20
-1.150255960026159
 30
0.0
  0
SPLINE
  5
AC
330
1F
100
AcDbEntity
  8
0
  6
Continuous
 62
     1
370
    15
100
AcDbSpline
210
0.0
220
0.0
230
1.0
 70
     8
 71
     3
 72
    14
 73
    10
 74
     0
 42
0.000000001
 43
0.00000001
 40
0.0
 40
0.0
 40
0.0
 40
0.0
 40
0.0663695547393922
 40
0.2297112566455755
 40
0.3837558114167165
 40
0.5378064661111471
 40
0.6918637191320998
 40
0.84592806616903
 40
1.0
 40
1.0
 40
1.0
 40
1.0
 10
34.81077284231967
 20
-1.567532988475601
 30
0.0
 10
34.69037204152581
 20
-1.572449160365151
 30
0.0
 10
34.27365357234084
 20
-1.589464492576866
 30
0.0
 10
33.57744365014521
 20
-1.448029146107098
 30
0.0
 10
32.72231627235107
 20
-1.170599506373484
 30
0.0
 10
31.88398233839811
 20
-0.781195228800424
 30
0.0
 10
31.04561610292776
 20
-0.3233180795203791
 30
0.0
 10
30.2072012865896
 20
0.169218644157713
 30
0.0
 10
29.64823834970844
 20
0.4766722118536807
 30
0.0
 10
29.36874999999982
 20
0.6304027806939548
 30
0.0
  0
LINE
  5
AD
330
1F
100
AcDbEntity
  8
외형선
  6
Continuous
370
    15
100
AcDbLine
 10
29.36875
 20
0.6304027806938616
 30
0.0
 11
29.36875
 21
1.094105788497744
 31
0.0
  0
LINE
  5
AE
330
1F
100
AcDbEntity
  8
0
  6
Continuous
 62
     1
370
    15
100
AcDbLine
 10
38.89375
 20
-1.587499999999995
 30
0.0
 11
38.89375
 21
-1.437769141943498
 31
0.0
  0
SPLINE
  5
AF
330
1F
100
AcDbEntity
  8
0
  6
Continuous
 62
     1
370
    15
100
AcDbSpline
210
0.0
220
0.0
230
1.0
 70
     8
 71
     3
 72
    11
 73
     7
 74
     0
 42
0.000000001
 43
0.00000001
 40
0.0
 40
0.0
 40
0.0
 40
0.0
 40
0.1928603749860162
 40
0.4618934627180707
 40
0.7309397191877374
 40
1.0
 40
1.0
 40
1.0
 40
1.0
 10
35.77734994565419
 20
1.572572308999149
 30
0.0
 10
35.97768989506201
 20
1.571242658163907
 30
0.0
 10
36.4574966617939
 20
1.56805819360741
 30
0.0
 10
37.21679282791035
 20
1.392585438381292
 30
0.0
 10
38.05525158307834
 20
1.093966774370982
 30
0.0
 10
38.61424567145207
 20
0.8133480457896501
 30
0.0
 10
38.89374999999999
 20
0.6730350247015695
 30
0.0
  0
LINE
  5
B0
330
1F
100
AcDbEntity
  8
0
  6
Continuous
 62
     1
370
    15
100
AcDbLine
 10
38.89375
 20
0.1360191419435143
 30
0.0
 11
38.89375
 21
0.6730350247015694
 31
0.0
  0
SPLINE
  5
B1
330
1F
100
AcDbEntity
  8
0
  6
Continuous
 62
     1
370
    15
100
AcDbSpline
210
0.0
220
0.0
230
1.0
 70
     8
 71
     3
 72
     9
 73
     5
 74
     0
 42
0.000000001
 43
0.00000001
 40
0.0
 40
0.0
 40
0.0
 40
0.0
 40
0.6201442509298397
 40
1.0
 40
1.0
 40
1.0
 40
1.0
 10
38.89375000000001
 20
1.587500000000005
 30
0.0
 10
38.59750396204464
 20
1.555542478439391
 30
0.0
 10
38.11979891598288
 20
1.513423833345676
 30
0.0
 10
37.64208706091371
 20
1.349638143901556
 30
0.0
 10
37.46062546636669
 20
1.287423208150787
 30
0.0
  0
SPLINE
  5
B2
330
1F
100
AcDbEntity
  8
0
  6
Continuous
 62
     1
370
    15
100
AcDbSpline
210
0.0
220
0.0
230
1.0
 70
     8
 71
     3
 72
     9
 73
     5
 74
     0
 42
0.000000001
 43
0.00000001
 40
0.0
 40
0.0
 40
0.0
 40
0.0
 40
0.2530889515000047
 40
1.0
 40
1.0
 40
1.0
 40
1.0
 10
30.49132186394955
 20
-1.571013193507392
 30
0.0
 10
30.39661916322311
 20
-1.575759679321336
 30
0.0
 10
30.02243174743455
 20
-1.594513899076138
 30
0.0
 10
29.64823882673832
 20
-1.515775854904549
 30
0.0
 10
29.36874999999982
 20
-1.456965539775509
 30
0.0
  0
LINE
  5
B3
330
1F
100
AcDbEntity
  8
0
  6
Continuous
 62
     1
370
    15
100
AcDbLine
 10
38.89375
 20
0.6730350247015694
 30
0.0
 11
38.89375
 21
1.587500000000005
 31
0.0
  0
LINE
  5
B4
330
1F
100
AcDbEntity
  8
외형선
  6
Continuous
370
    15
100
AcDbLine
 10
29.36875
 20
-1.456965539775547
 30
0.0
 11
29.36875
 21
-1.150255960026169
 31
0.0
  0
LINE
  5
B5
330
1F
100
AcDbEntity
  8
외형선
  6
Continuous
370
    15
100
AcDbLine
 10
28.36875
 20
-0.0000000000000017
 30
0.0
 11
28.36875
 21
1.587499999999998
 31
0.0
  0
LINE
  5
B6
330
1F
100
AcDbEntity
  8
외형선
  6
Continuous
370
    15
100
AcDbLine
 10
28.36875
 20
-1.587500000000001
 30
0.0
 11
28.36875
 21
-0.0000000000000017
 31
0.0
  0
LINE
  5
B7
330
1F
100
AcDbEntity
  8
외형선
  6
Continuous
370
    15
100
AcDbLine
 10
16.51948868596882
 20
-0.0000000000000017
 30
0.0
 11
16.51948868596882
 21
4.762500000000006
 31
0.0
  0
LINE
  5
B8
330
1F
100
AcDbEntity
  8
외형선
  6
Continuous
370
    15
100
AcDbLine
 10
16.51948868596882
 20
-4.76250000000001
 30
0.0
 11
16.51948868596882
 21
-0.0000000000000017
 31
0.0
  0
SPLINE
  5
BD
330
1F
100
AcDbEntity
  8
외형선
  6
Continuous
370
    15
100
AcDbSpline
210
0.0
220
0.0
230
1.0
 70
     8
 71
     3
 72
     8
 73
     4
 74
     0
 42
0.000000001
 43
0.00000001
 40
0.0
 40
0.0
 40
0.0
 40
0.0
 40
1.0
 40
1.0
 40
1.0
 40
1.0
 10
29.36874999999989
 20
1.456965539775517
 30
0.0
 10
29.20405550164443
 20
1.418942003830498
 30
0.0
 10
29.03599605610567
 20
1.372644413602392
 30
0.0
 10
28.86867789027249
 20
1.319088114500772
 30
0.0
  0
LINE
  5
BE
330
1F
100
AcDbEntity
  8
외형선
  6
Continuous
370
    15
100
AcDbLine
 10
28.8686778902725
 20
1.283914293313033
 30
0.0
 11
28.86867789027249
 21
1.587499999999998
 31
0.0
  0
SPLINE
  5
BF
330
1F
100
AcDbEntity
  8
외형선
  6
Continuous
370
    15
100
AcDbSpline
210
0.0
220
0.0
230
1.0
 70
     8
 71
     3
 72
     8
 73
     4
 74
     0
 42
0.000000001
 43
0.00000001
 40
0.0
 40
0.0
 40
0.0
 40
0.0
 40
1.0
 40
1.0
 40
1.0
 40
1.0
 10
29.36874999999983
 20
1.094105788497823
 30
0.0
 10
29.20405550164437
 20
1.163484922253984
 30
0.0
 10
29.03599605610566
 20
1.227313543498347
 30
0.0
 10
28.86867789027248
 20
1.283924440774044
 30
0.0
  0
SPLINE
  5
C0
330
1F
100
AcDbEntity
  8
외형선
  6
Continuous
370
    15
100
AcDbSpline
210
0.0
220
0.0
230
1.0
 70
     8
 71
     3
 72
     8
 73
     4
 74
     0
 42
0.000000001
 43
0.00000001
 40
0.0
 40
0.0
 40
0.0
 40
0.0
 40
1.0
 40
1.0
 40
1.0
 40
1.0
 10
29.36874999999989
 20
0.6304027806939287
 30
0.0
 10
29.20405550164443
 20
0.7182814881947519
 30
0.0
 10
29.03599605610567
 20
0.8032863413577835
 30
0.0
 10
28.86867789027249
 20
0.8832682470137825
 30
0.0
  0
LINE
  5
C1
330
1F
100
AcDbEntity
  8
외형선
  6
Continuous
370
    15
100
AcDbLine
 10
28.8686778902725
 20
-0.933659647530343
 30
0.0
 11
28.86867789027249
 21
0.883279772658363
 31
0.0
  0
SPLINE
  5
C2
330
1F
100
AcDbEntity
  8
외형선
  6
Continuous
370
    15
100
AcDbSpline
210
0.0
220
0.0
230
1.0
 70
     8
 71
     3
 72
     8
 73
     4
 74
     0
 42
0.000000001
 43
0.00000001
 40
0.0
 40
0.0
 40
0.0
 40
0.0
 40
1.0
 40
1.0
 40
1.0
 40
1.0
 10
29.36874999999983
 20
-1.150255960026094
 30
0.0
 10
29.20405550164437
 20
-1.084263594429606
 30
0.0
 10
29.03599605610566
 20
-1.011495476189266
 30
0.0
 10
28.86867789027248
 20
-0.9336456931743707
 30
0.0
  0
SPLINE
  5
C3
330
1F
100
AcDbEntity
  8
외형선
  6
Continuous
370
    15
100
AcDbSpline
210
0.0
220
0.0
230
1.0
 70
     8
 71
     3
 72
     8
 73
     4
 74
     0
 42
0.000000001
 43
0.00000001
 40
0.0
 40
0.0
 40
0.0
 40
0.0
 40
1.0
 40
1.0
 40
1.0
 40
1.0
 10
29.36874999999989
 20
-1.45696553977552
 30
0.0
 10
29.20405550164443
 20
-1.418942003830501
 30
0.0
 10
29.03599605610567
 20
-1.372644413602395
 30
0.0
 10
28.86867789027249
 20
-1.319088114500775
 30
0.0
  0
LINE
  5
C4
330
1F
100
AcDbEntity
  8
외형선
  6
Continuous
370
    15
100
AcDbLine
 10
28.86867789027249
 20
-1.587500000000001
 30
0.0
 11
28.86867789027249
 21
-1.31908039679642
 31
0.0
  0
SPLINE
  5
C5
330
1F
100
AcDbEntity
  8
외형선
  6
Continuous
370
    15
100
AcDbSpline
210
0.0
220
0.0
230
1.0
 70
    24
 71
     3
 72
    22
 73
    18
 74
     0
 42
0.000000001
 43
0.00000001
 40
0.0
 40
0.0
 40
0.0
 40
0.0
 40
0.1249999999999999
 40
0.1249999999999999
 40
0.2499999999999999
 40
0.2499999999999999
 40
0.3749999999999998
 40
0.3749999999999998
 40
0.4999999999999998
 40
0.4999999999999998
 40
0.6249999999999998
 40
0.6249999999999998
 40
0.7499999999999999
 40
0.7499999999999999
 40
0.8749999999999999
 40
0.8749999999999999
 40
1.0
 40
1.0
 40
1.0
 40
1.0
 10
29.36874999999998
 20
-1.150255960026158
 30
0.0
 10
29.36874999999998
 20
-1.097252874805072
 30
0.0
 10
29.36874999999998
 20
-1.023456391786594
 30
0.0
 10
29.36874999999994
 20
-0.8374715790844325
 30
0.0
 10
29.36874999999996
 20
-0.7253768599727803
 30
0.0
 10
29.36874999999994
 20
-0.4852235179731212
 30
0.0
 10
29.36874999999997
 20
-0.3578599807554836
 30
0.0
 10
29.36874999999997
 20
-0.1169692522623985
 30
0.0
 10
29.36875
 20
-0.0038587011651531
 30
0.0
 10
29.36874999999998
 20
0.1915375399086878
 30
0.0
 10
29.36875000000001
 20
0.2739924115743636
 30
0.0
 10
29.36874999999996
 20
0.4076665628792366
 30
0.0
 10
29.36874999999996
 20
0.4591756915101623
 30
0.0
 10
29.36874999999994
 20
0.5384019800841562
 30
0.0
 10
29.36874999999998
 20
0.5662686605058108
 30
0.0
 10
29.36874999999997
 20
0.60627242512333
 30
0.0
 10
29.36874999999998
 20
0.6224680922496263
 30
0.0
 10
29.36874999999998
 20
0.6304027806939376
 30
0.0
  0
SPLINE
  5
C6
330
1F
100
AcDbEntity
  8
외형선
  6
Continuous
370
    15
100
AcDbSpline
210
0.0
220
0.0
230
1.0
 70
    24
 71
     3
 72
    10
 73
     6
 74
     0
 42
0.000000001
 43
0.00000001
 40
0.0
 40
0.0
 40
0.0
 40
0.0
 40
0.4271327977806971
 40
0.9315955723524298
 40
1.0
 40
1.0
 40
1.0
 40
1.0
 10
29.36875
 20
1.147985895292333
 30
0.0
 10
29.36874999999998
 20
1.190125662928935
 30
0.0
 10
29.36874999999997
 20
1.282034364752332
 30
0.0
 10
29.36874999999998
 20
1.388438335003401
 30
0.0
 10
29.36874999999997
 20
1.449655744671561
 30
0.0
 10
29.36874999999998
 20
1.456965539776246
 30
0.0
  0
LINE
  5
C7
330
1F
100
AcDbEntity
  8
중심선
 48
0.8
100
AcDbLine
 10
-41.89375
 20
-0.0000000000000056
 30
0.0
 11
41.89375
 21
0.0000000000000056
 31
0.0
  0
LINE
  5
C8
330
1F
100
AcDbEntity
  8
참조1
100
AcDbLine
 10
-0.6003693429843873
 20
0.0010749287238892
 30
0.0
 11
-0.6003693429843804
 21
-39.99892507127612
 31
0.0
  0
LINE
  5
C9
330
1F
100
AcDbEntity
  8
참조1
100
AcDbLine
 10
-0.6003693429843804
 20
-39.99892507127612
 30
0.0
 11
-29.25297615729306
 21
-39.9989250712761
 31
0.0
  0
CIRCLE
  5
CA
330
1F
100
AcDbEntity
  8
해칭선
100
AcDbCircle
 10
0.0
 20
0.0
 30
0.0
 40
3.000000000000008
  0
INSERT
  5
CB
330
1F
100
AcDbEntity
  8
0
  6
Continuous
 62
     7
100
AcDbBlockReference
 66
     1
  2
블럭10
 10
-13.9402729321252
 20
-52.04717430164394
 30
0.0
  0
ATTRIB
  5
CC
330
CB
100
AcDbEntity
  8
FORMAT
 62
     2
100
AcDbText
 10
-23.12156822086648
 20
-49.97180738881175
 30
0.0
 40
4.233333333333333
  1
E1053008 [ 4 FLUTE ]
 41
0.75
  7
SLDTEXTSTYLE0
 11
-23.12156822086648
 21
-52.08847405547842
 31
0.0
100
AcDbAttribute
  2
AUTOATTR0
 70
     0
 74
     1
  0
SEQEND
  5
CD
330
CB
100
AcDbEntity
  8
0
  6
Continuous
 62
     7
  0
HATCH
  5
CE
330
1F
100
AcDbEntity
  8
중심선
100
AcDbHatch
 10
0.0
 20
0.0
 30
0.0
210
0.0
220
0.0
230
1.0
  2
SOLID
 70
     1
 71
     0
 91
        1
 92
        0
 93
        4
 72
     1
 10
-8.225363627744358
 20
-35.8
 11
-11.67163887158164
 21
-35.8
 72
     1
 10
-11.67163887158164
 20
-35.8
 11
-13.79986873078566
 21
-38.3363255805726
 72
     1
 10
-13.79986873078566
 20
-38.3363255805726
 11
-10.35356040183523
 21
-38.33628615127011
 72
     1
 10
-10.35356040183523
 20
-38.33628615127011
 11
-8.225363627744358
 21
-35.8
 97
        0
 75
     0
 76
     1
 98
        1
 10
0.6003693429843935
 20
-0.0010749287238948
  0
HATCH
  5
CF
330
1F
100
AcDbEntity
  8
중심선
100
AcDbHatch
 10
0.0
 20
0.0
 30
0.0
210
0.0
220
0.0
230
1.0
  2
SOLID
 70
     1
 71
     0
 91
        1
 92
        0
 93
        4
 72
     1
 10
-3.212599636708406
 20
-35.80000000000003
 11
-6.65887488054566
 21
-35.79999999999998
 72
     1
 10
-6.65887488054566
 20
-35.79999999999998
 11
-11.19001288890308
 21
-41.20000000000002
 72
     1
 10
-11.19001288890308
 20
-41.20000000000002
 11
-7.743737645065794
 21
-41.20000000000002
 72
     1
 10
-7.743737645065794
 20
-41.20000000000002
 11
-3.212599636708406
 21
-35.80000000000003
 97
        0
 75
     0
 76
     1
 98
        1
 10
0.6003693429843935
 20
-0.0010749287238948
  0
HATCH
  5
D0
330
1F
100
AcDbEntity
  8
중심선
100
AcDbHatch
 10
0.0
 20
0.0
 30
0.0
210
0.0
220
0.0
230
1.0
  2
SOLID
 70
     1
 71
     0
 91
        1
 92
        0
 93
        4
 72
     1
 10
1.80016435432749
 20
-35.79999999999998
 11
-1.64611088950957
 21
-35.79999999999998
 72
     1
 10
-1.64611088950957
 20
-35.79999999999998
 11
-8.694547791398875
 21
-44.20000000000002
 72
     1
 10
-8.694547791398875
 20
-44.20000000000002
 11
-5.248272547561593
 21
-44.20000000000002
 72
     1
 10
-5.248272547561593
 20
-44.20000000000002
 11
1.800164354327491
 21
-35.79999999999998
 97
        0
 75
     0
 76
     1
 98
        1
 10
0.6003693429843935
 20
-0.0010749287238948
  0
HATCH
  5
D1
330
1F
100
AcDbEntity
  8
중심선
100
AcDbHatch
 10
0.0
 20
0.0
 30
0.0
210
0.0
220
0.0
230
1.0
  2
SOLID
 70
     1
 71
     0
 91
        1
 92
        0
 93
        6
 72
     3
 10
6.600054785339689
 20
-40.00000000005127
 11
3.960054785062284
 21
1.540882976769353E-10
 40
0.3939339440162627
 50
17.09539180608436
 51
320.0019657685086
 73
     0
 72
     1
 10
8.283054441040314
 20
-38.5878940046383
 11
10.58835631474135
 21
-36.65356729459035
 72
     3
 10
6.600054785286843
 20
-40.00000000000015
 11
6.60005478528683
 21
-1.278976924368180E-13
 40
0.636358354079598
 50
39.99873849337413
 51
368.4976242363724
 73
     1
 72
     1
 10
13.02538727718745
 20
-39.03999999993002
 11
5.280122092122793
 21
-39.03999999993002
 72
     1
 10
5.280122092122793
 20
-39.03999999993002
 11
5.280097047676831
 21
-40.95999999992991
 72
     1
 10
5.280097047676831
 20
-40.95999999992991
 11
9.721476817148869
 21
-40.95999999992988
 97
        0
 75
     0
 76
     1
 98
        1
 10
0.6003693429843935
 20
-0.0010749287238948
  0
DIMENSION
  5
D2
330
1F
100
AcDbEntity
  8
치수문자_일반주서
100
AcDbDimension
  2
_D
 10
55.6306260552417
 20
-1.587499999999931
 30
0.0
 11
55.6306260552416
 21
20.66025000000007
 31
0.0
 70
   160
  1
%%c<>
 71
     2
 42
3.175
 52
-270.0
  3
SLDDIMSTYLE2
100
AcDbAlignedDimension
 13
38.89375000000001
 23
1.587500000000005
 33
0.0
 14
38.89375
 24
-1.587499999999995
 34
0.0
 50
90.0000000000002
100
AcDbRotatedDimension
1001
ACAD
1000
DSTYLE
1002
{
1070
   171
1070
     6
1070
   273
1070
     7
1002
}
  0
DIMENSION
  5
E7
330
1F
100
AcDbEntity
  8
치수문자_일반주서
100
AcDbDimension
  2
_D_1
 10
29.36875
 20
16.2806669336862
 30
0.0
 11
10.95225
 21
16.2806669336862
 31
0.0
 70
   160
  1
<>
 71
     2
 42
9.524999999999999
  3
SLDDIMSTYLE2
100
AcDbAlignedDimension
 13
38.89375
 23
1.587500000000005
 33
0.0
 14
29.36875
 24
1.456965539775544
 34
0.0
 50
-0.0000000000000427
100
AcDbRotatedDimension
1001
ACAD
1000
DSTYLE
1002
{
1070
   171
1070
     6
1070
   273
1070
     7
1002
}
  0
DIMENSION
  5
FC
330
1F
100
AcDbEntity
  8
치수문자_일반주서
100
AcDbDimension
  2
_D_2
 10
-38.89374999999997
 20
28.862009278183
 30
0.0
 11
0.0000000000000142
 21
28.862009278183
 31
0.0
 70
   160
  1
<>
 71
     2
 42
77.78749999999997
  3
SLDDIMSTYLE2
100
AcDbAlignedDimension
 13
38.89375
 23
1.587500000000005
 33
0.0
 14
-38.89374999999997
 24
1.587499999999995
 34
0.0
100
AcDbRotatedDimension
1001
ACAD
1000
DSTYLE
1002
{
1070
   171
1070
     6
1070
   273
1070
     7
1002
}
  0
DIMENSION
  5
10F
330
1F
100
AcDbEntity
  8
치수문자_일반주서
100
AcDbDimension
  2
_D_3
 10
-51.41749999999998
 20
-4.762500000000135
 30
0.0
 11
-51.4175
 21
0.000000000000001
 31
0.0
 70
   160
  1
%%c<>
 71
     2
 42
9.525000000000013
 52
-270.0
  3
SLDDIMSTYLE0
100
AcDbAlignedDimension
 13
-16.5194886859688
 23
4.762500000000006
 33
0.0
 14
-16.5194886859688
 24
-4.762500000000006
 34
0.0
 50
90.0000000000002
100
AcDbRotatedDimension
1001
ACAD
1000
DSTYLE
1002
{
1070
   171
1070
     6
1070
   273
1070
     7
1002
}
  0
LINE
  5
123
330
1F
100
AcDbEntity
  8
참조1
100
AcDbLine
 10
68.7193644723612
 20
7.441074928723896
 30
0.0
 11
68.7193644723612
 21
-7.438925071276109
 31
0.0
  0
LINE
  5
124
330
1F
100
AcDbEntity
  8
참조1
100
AcDbLine
 10
81.41936447236121
 20
5.441074928723896
 30
0.0
 11
68.7193644723612
 21
5.441074928723896
 31
0.0
  0
SOLID
  5
125
330
1F
100
AcDbEntity
  8
참조1
100
AcDbTrace
 10
68.7193644723612
 20
5.441074928723896
 30
0.0
 11
75.0693644723612
 21
4.425074928723896
 31
0.0
 12
75.0693644723612
 22
6.457074928723896
 32
0.0
 13
75.0693644723612
 23
6.457074928723896
 33
0.0
  0
LINE
  5
126
330
1F
100
AcDbEntity
  8
참조1
100
AcDbLine
 10
81.41936447236121
 20
-5.438925071276109
 30
0.0
 11
68.7193644723612
 21
-5.438925071276109
 31
0.0
  0
SOLID
  5
127
330
1F
100
AcDbEntity
  8
참조1
100
AcDbTrace
 10
68.7193644723612
 20
-5.438925071276109
 30
0.0
 11
75.0693644723612
 21
-6.454925071276109
 31
0.0
 12
75.0693644723612
 22
-4.422925071276109
 32
0.0
 13
75.0693644723612
 23
-4.422925071276109
 33
0.0
  0
MTEXT
  5
128
330
1F
100
AcDbEntity
  8
참조1
100
AcDbMText
 10
78.1037146049872
 20
11.01136670591223
 30
0.0
 40
3.5
 41
0.0
 71
     1
 72
     1
  1
A
  7
SLDTEXTSTYLE0
 73
     1
 44
1.0
  0
MTEXT
  5
129
330
1F
100
AcDbEntity
  8
참조1
100
AcDbMText
 10
78.1037146049872
 20
0.1313667059122219
 30
0.0
 40
3.5
 41
0.0
 71
     1
 72
     1
  1
A
  7
SLDTEXTSTYLE0
 73
     1
 44
1.0
  0
INSERT
  5
130
330
1F
100
AcDbEntity
  8
해칭선
100
AcDbBlockReference
  2
SW_DOWELSYMBOL_0
 10
0.0
 20
0.0
 30
0.0
  0
LINE
  5
322
330
1F
100
AcDbEntity
  8
0
  6
Continuous
 62
     1
370
    15
100
AcDbLine
 10
-38.3284163019526
 20
-0.4560803767614555
 30
0.0
 11
-38.29329045496148
 21
-0.4751267227105732
 31
0.0
  0
LINE
  5
323
330
1F
100
AcDbEntity
  8
0
  6
Continuous
 62
     1
370
    15
100
AcDbLine
 10
-36.47924567339341
 20
0.4033423853341848
 30
0.0
 11
-36.61579051986216
 21
0.4762423842367663
 31
0.0
  0
LINE
  5
324
330
1F
100
AcDbEntity
  8
0
  6
Continuous
 62
     1
370
    15
100
AcDbLine
 10
-34.81077284231965
 20
1.587500000000003
 30
0.0
 11
-35.77734994565417
 21
1.587500000000003
 31
0.0
  0
LINE
  5
325
330
1F
100
AcDbEntity
  8
0
  6
Continuous
 62
     1
370
    15
100
AcDbLine
 10
-31.4585719370949
 20
-1.587499999999998
 30
0.0
 11
-30.49132186394952
 21
-1.587499999999998
 31
0.0
  0
LINE
  5
326
330
1F
100
AcDbEntity
  8
0
  6
Continuous
 62
     1
370
    15
100
AcDbLine
 10
-35.77734994565417
 20
-1.587499999999998
 30
0.0
 11
-34.81077284231965
 21
-1.587499999999998
 31
0.0
  0
LINE
  5
327
330
1F
100
AcDbEntity
  8
0
  6
Continuous
 62
     1
370
    15
100
AcDbLine
 10
-30.49132186394952
 20
1.587500000000003
 30
0.0
 11
-31.45857193709485
 21
1.587500000000003
 31
0.0
  0
LINE
  5
328
330
1F
100
AcDbEntity
  8
외형선
  6
Continuous
370
    15
100
AcDbLine
 10
-16.5194886859688
 20
4.762500000000006
 30
0.0
 11
-28.36874999999996
 21
1.587500000000003
 31
0.0
  0
LINE
  5
329
330
1F
100
AcDbEntity
  8
외형선
  6
Continuous
370
    15
100
AcDbLine
 10
-28.36874999999996
 20
-1.587499999999998
 30
0.0
 11
-16.5194886859688
 21
-4.762500000000006
 31
0.0
  0
LINE
  5
32C
330
1F
100
AcDbEntity
  8
외형선
  6
Continuous
370
    15
100
AcDbLine
 10
-28.36874999999996
 20
1.587500000000003
 30
0.0
 11
-28.86867789027245
 21
1.587500000000003
 31
0.0
  0
LINE
  5
32D
330
1F
100
AcDbEntity
  8
외형선
  6
Continuous
370
    15
100
AcDbLine
 10
-28.86867789027245
 20
-1.587499999999998
 30
0.0
 11
-28.36874999999996
 21
-1.587499999999998
 31
0.0
  0
LINE
  5
32E
330
1F
100
AcDbEntity
  8
0
  6
Continuous
 62
     1
370
    15
100
AcDbLine
 10
-38.89374999999997
 20
1.437769141943499
 30
0.0
 11
-38.89374999999997
 21
-0.1360191419435136
 31
0.0
  0
SPLINE
  5
32F
330
1F
100
AcDbEntity
  8
0
  6
Continuous
 62
     1
370
    15
100
AcDbSpline
210
0.0
220
0.0
230
1.0
 70
     8
 71
     3
 72
    16
 73
    12
 74
     0
 42
0.000000001
 43
0.00000001
 40
0.0
 40
0.0
 40
0.0
 40
0.0
 40
0.0775295280828801
 40
0.1970721317867035
 40
0.3166197244603114
 40
0.4361719597297999
 40
0.5489272523495292
 40
0.6616873407543993
 40
0.7744525879495292
 40
0.887223354822423
 40
1.0
 40
1.0
 40
1.0
 40
1.0
 10
-31.4585719370949
 20
-1.568642471108464
 30
0.0
 10
-31.6507233328325
 20
-1.569355527135623
 30
0.0
 10
-32.13915253032893
 20
-1.571168042635601
 30
0.0
 10
-32.9238832944486
 20
-1.387328369381773
 30
0.0
 10
-33.81276161434006
 20
-1.05983245728915
 30
0.0
 10
-34.68486268580445
 20
-0.6242506201300803
 30
0.0
 10
-35.54001227965459
 20
-0.1394992211069056
 30
0.0
 10
-36.37838379327566
 20
0.3497131580807963
 30
0.0
 10
-37.21679225668377
 20
0.8040075268999697
 30
0.0
 10
-38.05525172589655
 20
1.193709235920263
 30
0.0
 10
-38.61424571905893
 20
1.35641442644036
 30
0.0
 10
-38.89374999999997
 20
1.437769141943499
 30
0.0
  0
SPLINE
  5
330
330
1F
100
AcDbEntity
  8
0
  6
Continuous
 62
     1
370
    15
100
AcDbSpline
210
0.0
220
0.0
230
1.0
 70
     8
 71
     3
 72
    14
 73
    10
 74
     0
 42
0.000000001
 43
0.00000001
 40
0.0
 40
0.0
 40
0.0
 40
0.0
 40
0.1544594243781139
 40
0.308926217458653
 40
0.4633999372069796
 40
0.6178801388241207
 40
0.7723663749184008
 40
0.9268581956792288
 40
1.0
 40
1.0
 40
1.0
 40
1.0
 10
-38.89375
 20
-0.1360191419435136
 30
0.0
 10
-38.59750370589482
 20
-0.3050684252530008
 30
0.0
 10
-38.00499698484161
 20
-0.6431750566039863
 30
0.0
 10
-37.11620545010906
 20
-1.08003070210675
 30
0.0
 10
-36.22736779823155
 20
-1.405519310844976
 30
0.0
 10
-35.33848136949946
 20
-1.586900976861041
 30
0.0
 10
-34.44956781902185
 20
-1.597204415842423
 30
0.0
 10
-33.71661158128516
 20
-1.48988590104032
 30
0.0
 10
-33.28005112510026
 20
-1.337109869514971
 30
0.0
 10
-33.13977826581147
 20
-1.288020836211011
 30
0.0
  0
SPLINE
  5
331
330
1F
100
AcDbEntity
  8
0
  6
Continuous
 62
     1
370
    15
100
AcDbSpline
210
0.0
220
0.0
230
1.0
 70
     8
 71
     3
 72
    17
 73
    13
 74
     0
 42
0.000000001
 43
0.00000001
 40
0.0
 40
0.0
 40
0.0
 40
0.0
 40
0.1098305559166223
 40
0.2196619256848109
 40
0.329498510464021
 40
0.4393399957792941
 40
0.5491860651996006
 40
0.6590364004599627
 40
0.7626413783906317
 40
0.8662507629190056
 40
0.9698648875916209
 40
1.0
 40
1.0
 40
1.0
 40
1.0
 10
-29.36874999999979
 20
-1.094105788497824
 30
0.0
 10
-29.66499568027699
 20
-0.9590580928613971
 30
0.0
 10
-30.25748923603105
 20
-0.688961700876337
 30
0.0
 10
-31.14624413428903
 20
-0.182051978695149
 30
0.0
 10
-32.03503877969182
 20
0.3355934528062082
 30
0.0
 10
-32.92388304244774
 20
0.8206083133046714
 30
0.0
 10
-33.81276167271282
 20
1.220199055440962
 30
0.0
 10
-34.68486270508593
 20
1.487656586657473
 30
0.0
 10
-35.54001215669261
 20
1.607705173608107
 30
0.0
 10
-36.37838426867567
 20
1.568535849040881
 30
0.0
 10
-37.01858890780672
 20
1.452807210218261
 30
0.0
 10
-37.37934362693339
 20
1.317834077208023
 30
0.0
 10
-37.46062546636664
 20
1.287423208150792
 30
0.0
  0
SPLINE
  5
332
330
1F
100
AcDbEntity
  8
외형선
  6
Continuous
370
    15
100
AcDbSpline
210
0.0
220
0.0
230
1.0
 70
    24
 71
     3
 72
    10
 73
     6
 74
     0
 42
0.000000001
 43
0.00000001
 40
0.0
 40
0.0
 40
0.0
 40
0.0
 40
0.3106780154920849
 40
0.6248775377813675
 40
1.0
 40
1.0
 40
1.0
 40
1.0
 10
-29.36874999999996
 20
-1.456965539775541
 30
0.0
 10
-29.36874999999996
 20
-1.423797857656207
 30
0.0
 10
-29.36874999999996
 20
-1.357086540784237
 30
0.0
 10
-29.36875000000002
 20
-1.252376149686686
 30
0.0
 10
-29.36875000000002
 20
-1.184774221240637
 30
0.0
 10
-29.36874999999999
 20
-1.147985895292333
 30
0.0
  0
SPLINE
  5
333
330
1F
100
AcDbEntity
  8
0
  6
Continuous
 62
     1
370
    15
100
AcDbSpline
210
0.0
220
0.0
230
1.0
 70
     8
 71
     3
 72
    38
 73
    34
 74
     0
 42
0.000000001
 43
0.00000001
 40
0.0
 40
0.0
 40
0.0
 40
0.0
 40
0.0625
 40
0.0625
 40
0.125
 40
0.125
 40
0.1875
 40
0.1875
 40
0.25
 40
0.25
 40
0.3125
 40
0.3125
 40
0.375
 40
0.375
 40
0.4375
 40
0.4375
 40
0.5
 40
0.5
 40
0.5625
 40
0.5625
 40
0.625
 40
0.625
 40
0.6875
 40
0.6875
 40
0.75
 40
0.75
 40
0.8125
 40
0.8125
 40
0.875
 40
0.875
 40
0.9375
 40
0.9375
 40
1.0
 40
1.0
 40
1.0
 40
1.0
 10
-38.89375
 20
1.587499999999995
 30
0.0
 10
-38.6977501744215
 20
1.571885825946158
 30
0.0
 10
-38.49669627196322
 20
1.549625714700746
 30
0.0
 10
-38.09841273521344
 20
1.481303463109402
 30
0.0
 10
-37.90315683559758
 20
1.435556732288692
 30
0.0
 10
-37.50425148072979
 20
1.321759279663415
 30
0.0
 10
-37.30526114337171
 20
1.254041397753217
 30
0.0
 10
-36.9114254902094
 20
1.100732084486591
 30
0.0
 10
-36.71012099838343
 20
1.014255693092388
 30
0.0
 10
-36.31272764047922
 20
0.8275273811478424
 30
0.0
 10
-36.11701993103536
 20
0.7274554242641539
 30
0.0
 10
-35.71776252056269
 20
0.5162043879195334
 30
0.0
 10
-35.52039230656628
 20
0.4061021765405787
 30
0.0
 10
-35.1249790630505
 20
0.18119206314481
 30
0.0
 10
-34.92356300927135
 20
0.0657295135904657
 30
0.0
 10
-34.52732618883159
 20
-0.1631805240161907
 30
0.0
 10
-34.3307158751736
 20
-0.2769681712153901
 30
0.0
 10
-33.9313769664448
 20
-0.4996075000479753
 30
0.0
 10
-33.73517981071693
 20
-0.6072382855373594
 30
0.0
 10
-33.33845090161923
 20
-0.8121802654498073
 30
0.0
 10
-33.13706257293414
 20
-0.9095521589884786
 30
0.0
 10
-32.74224605558116
 20
-1.087387293242528
 30
0.0
 10
-32.54428436942639
 20
-1.168593293547356
 30
0.0
 10
-32.14513470391113
 20
-1.311897597391809
 30
0.0
 10
-31.94966091115397
 20
-1.373374512519781
 30
0.0
 10
-31.55188120424619
 20
-1.474720847488455
 30
0.0
 10
-31.35065982316222
 20
-1.514313195962859
 30
0.0
 10
-30.95752420280091
 20
-1.568853245616278
 30
0.0
 10
-30.75776540310845
 20
-1.584205591156742
 30
0.0
 10
-30.35907529480885
 20
-1.589838000496648
 30
0.0
 10
-30.16387354501312
 20
-1.580263389238577
 30
0.0
 10
-29.76531026718213
 20
-1.536524773390301
 30
0.0
 10
-29.56513056842708
 20
-1.502304538206292
 30
0.0
 10
-29.36874999999979
 20
-1.456965539775506
 30
0.0
  0
SPLINE
  5
334
330
1F
100
AcDbEntity
  8
0
  6
Continuous
 62
     1
370
    15
100
AcDbSpline
210
0.0
220
0.0
230
1.0
 70
     8
 71
     3
 72
    12
 73
     8
 74
     0
 42
0.000000001
 43
0.00000001
 40
0.0
 40
0.0
 40
0.0
 40
0.0
 40
0.2356771316859138
 40
0.4713560097546988
 40
0.7070460783235272
 40
0.9427466625842149
 40
1.0
 40
1.0
 40
1.0
 40
1.0
 10
-29.36874999999979
 20
1.150255960026091
 30
0.0
 10
-29.66499569868905
 20
1.256337624111492
 30
0.0
 10
-30.25748929126745
 20
1.468501738354317
 30
0.0
 10
-31.14624391333716
 20
1.605252780105673
 30
0.0
 10
-32.03503960832056
 20
1.573878917811421
 30
0.0
 10
-32.69955578804864
 20
1.455821107936572
 30
0.0
 10
-33.06780886654001
 20
1.315453521645538
 30
0.0
 10
-33.13977826581147
 20
1.288020836211019
 30
0.0
  0
SPLINE
  5
335
330
1F
100
AcDbEntity
  8
외형선
  6
Continuous
370
    15
100
AcDbSpline
210
0.0
220
0.0
230
1.0
 70
    24
 71
     3
 72
    22
 73
    18
 74
     0
 42
0.000000001
 43
0.00000001
 40
0.0
 40
0.0
 40
0.0
 40
0.0
 40
0.125
 40
0.125
 40
0.25
 40
0.25
 40
0.3749999999999999
 40
0.3749999999999999
 40
0.4999999999999999
 40
0.4999999999999999
 40
0.625
 40
0.625
 40
0.75
 40
0.75
 40
0.8749999999999999
 40
0.8749999999999999
 40
1.0
 40
1.0
 40
1.0
 40
1.0
 10
-29.36874999999999
 20
-0.6304027806938596
 30
0.0
 10
-29.36875000000002
 20
-0.6224680922495015
 30
0.0
 10
-29.36874999999999
 20
-0.6062724251232009
 30
0.0
 10
-29.36874999999999
 20
-0.5662686605056099
 30
0.0
 10
-29.36874999999999
 20
-0.5384019800839216
 30
0.0
 10
-29.36874999999999
 20
-0.4591756915098447
 30
0.0
 10
-29.36875000000002
 20
-0.4076665628788835
 30
0.0
 10
-29.36875000000002
 20
-0.2739924115739459
 30
0.0
 10
-29.36874999999996
 20
-0.1915375399082425
 30
0.0
 10
-29.36874999999999
 20
0.0038587011656123
 30
0.0
 10
-29.36874999999999
 20
0.1169692522628484
 30
0.0
 10
-29.36874999999999
 20
0.3578599807558728
 30
0.0
 10
-29.36874999999999
 20
0.485223517973456
 30
0.0
 10
-29.36874999999999
 20
0.7253768599730005
 30
0.0
 10
-29.36874999999999
 20
0.8374715790845929
 30
0.0
 10
-29.36874999999999
 20
1.023456391786653
 30
0.0
 10
-29.36874999999996
 20
1.097252874805094
 30
0.0
 10
-29.36874999999996
 20
1.150255960026162
 30
0.0
  0
SPLINE
  5
336
330
1F
100
AcDbEntity
  8
0
  6
Continuous
 62
     1
370
    15
100
AcDbSpline
210
0.0
220
0.0
230
1.0
 70
     8
 71
     3
 72
    14
 73
    10
 74
     0
 42
0.000000001
 43
0.00000001
 40
0.0
 40
0.0
 40
0.0
 40
0.0
 40
0.0663695547393922
 40
0.2297112566455755
 40
0.3837558114167165
 40
0.5378064661111471
 40
0.6918637191320998
 40
0.84592806616903
 40
1.0
 40
1.0
 40
1.0
 40
1.0
 10
-34.81077284231965
 20
1.567532988475602
 30
0.0
 10
-34.69037204152578
 20
1.57244916036515
 30
0.0
 10
-34.27365357234082
 20
1.589464492576866
 30
0.0
 10
-33.57744365014518
 20
1.4480291461071
 30
0.0
 10
-32.72231627235105
 20
1.170599506373485
 30
0.0
 10
-31.88398233839807
 20
0.7811952288004246
 30
0.0
 10
-31.04561610292772
 20
0.3233180795203804
 30
0.0
 10
-30.20720128658958
 20
-0.1692186441577125
 30
0.0
 10
-29.64823834970842
 20
-0.476672211853678
 30
0.0
 10
-29.36874999999979
 20
-0.630402780693952
 30
0.0
  0
LINE
  5
337
330
1F
100
AcDbEntity
  8
외형선
  6
Continuous
370
    15
100
AcDbLine
 10
-29.36874999999996
 20
-0.6304027806938596
 30
0.0
 11
-29.36874999999996
 21
-1.094105788497742
 31
0.0
  0
LINE
  5
338
330
1F
100
AcDbEntity
  8
0
  6
Continuous
 62
     1
370
    15
100
AcDbLine
 10
-38.89374999999997
 20
1.587499999999995
 30
0.0
 11
-38.89374999999997
 21
1.437769141943499
 31
0.0
  0
SPLINE
  5
339
330
1F
100
AcDbEntity
  8
0
  6
Continuous
 62
     1
370
    15
100
AcDbSpline
210
0.0
220
0.0
230
1.0
 70
     8
 71
     3
 72
    11
 73
     7
 74
     0
 42
0.000000001
 43
0.00000001
 40
0.0
 40
0.0
 40
0.0
 40
0.0
 40
0.1928603749860162
 40
0.4618934627180707
 40
0.7309397191877374
 40
1.0
 40
1.0
 40
1.0
 40
1.0
 10
-35.77734994565417
 20
-1.572572308999149
 30
0.0
 10
-35.97768989506197
 20
-1.571242658163907
 30
0.0
 10
-36.45749666179388
 20
-1.568058193607409
 30
0.0
 10
-37.21679282791031
 20
-1.392585438381292
 30
0.0
 10
-38.05525158307832
 20
-1.093966774370979
 30
0.0
 10
-38.61424567145205
 20
-0.8133480457896486
 30
0.0
 10
-38.89374999999997
 20
-0.673035024701569
 30
0.0
  0
LINE
  5
33A
330
1F
100
AcDbEntity
  8
0
  6
Continuous
 62
     1
370
    15
100
AcDbLine
 10
-38.89374999999997
 20
-0.1360191419435136
 30
0.0
 11
-38.89374999999997
 21
-0.673035024701569
 31
0.0
  0
SPLINE
  5
33B
330
1F
100
AcDbEntity
  8
0
  6
Continuous
 62
     1
370
    15
100
AcDbSpline
210
0.0
220
0.0
230
1.0
 70
     8
 71
     3
 72
     9
 73
     5
 74
     0
 42
0.000000001
 43
0.00000001
 40
0.0
 40
0.0
 40
0.0
 40
0.0
 40
0.6201442509298397
 40
1.0
 40
1.0
 40
1.0
 40
1.0
 10
-38.89375
 20
-1.587500000000002
 30
0.0
 10
-38.59750396204463
 20
-1.555542478439388
 30
0.0
 10
-38.11979891598286
 20
-1.513423833345672
 30
0.0
 10
-37.64208706091368
 20
-1.349638143901554
 30
0.0
 10
-37.46062546636666
 20
-1.287423208150787
 30
0.0
  0
SPLINE
  5
33C
330
1F
100
AcDbEntity
  8
0
  6
Continuous
 62
     1
370
    15
100
AcDbSpline
210
0.0
220
0.0
230
1.0
 70
     8
 71
     3
 72
     9
 73
     5
 74
     0
 42
0.000000001
 43
0.00000001
 40
0.0
 40
0.0
 40
0.0
 40
0.0
 40
0.2530889515000047
 40
1.0
 40
1.0
 40
1.0
 40
1.0
 10
-30.49132186394952
 20
1.571013193507394
 30
0.0
 10
-30.39661916322309
 20
1.575759679321337
 30
0.0
 10
-30.02243174743451
 20
1.594513899076138
 30
0.0
 10
-29.64823882673828
 20
1.515775854904551
 30
0.0
 10
-29.36874999999979
 20
1.45696553977551
 30
0.0
  0
LINE
  5
33D
330
1F
100
AcDbEntity
  8
0
  6
Continuous
 62
     1
370
    15
100
AcDbLine
 10
-38.89374999999997
 20
-0.673035024701569
 30
0.0
 11
-38.89374999999997
 21
-1.587500000000002
 31
0.0
  0
LINE
  5
33E
330
1F
100
AcDbEntity
  8
외형선
  6
Continuous
370
    15
100
AcDbLine
 10
-29.36874999999996
 20
1.456965539775549
 30
0.0
 11
-29.36874999999996
 21
1.150255960026169
 31
0.0
  0
LINE
  5
33F
330
1F
100
AcDbEntity
  8
외형선
  6
Continuous
370
    15
100
AcDbLine
 10
-28.36874999999996
 20
0.0000000000000039
 30
0.0
 11
-28.36874999999996
 21
-1.587499999999998
 31
0.0
  0
LINE
  5
340
330
1F
100
AcDbEntity
  8
외형선
  6
Continuous
370
    15
100
AcDbLine
 10
-28.36874999999996
 20
1.587500000000003
 30
0.0
 11
-28.36874999999996
 21
0.0000000000000039
 31
0.0
  0
LINE
  5
341
330
1F
100
AcDbEntity
  8
외형선
  6
Continuous
370
    15
100
AcDbLine
 10
-16.5194886859688
 20
0.0000000000000003
 30
0.0
 11
-16.5194886859688
 21
-4.762500000000006
 31
0.0
  0
LINE
  5
342
330
1F
100
AcDbEntity
  8
외형선
  6
Continuous
370
    15
100
AcDbLine
 10
-16.5194886859688
 20
4.762500000000006
 30
0.0
 11
-16.5194886859688
 21
0.0000000000000003
 31
0.0
  0
SPLINE
  5
343
330
1F
100
AcDbEntity
  8
외형선
  6
Continuous
370
    15
100
AcDbSpline
210
0.0
220
0.0
230
1.0
 70
     8
 71
     3
 72
     8
 73
     4
 74
     0
 42
0.000000001
 43
0.00000001
 40
0.0
 40
0.0
 40
0.0
 40
0.0
 40
1.0
 40
1.0
 40
1.0
 40
1.0
 10
-29.36874999999985
 20
-1.456965539775517
 30
0.0
 10
-29.20405550164439
 20
-1.418942003830498
 30
0.0
 10
-29.03599605610565
 20
-1.37264441360239
 30
0.0
 10
-28.86867789027245
 20
-1.319088114500772
 30
0.0
  0
LINE
  5
344
330
1F
100
AcDbEntity
  8
외형선
  6
Continuous
370
    15
100
AcDbLine
 10
-28.86867789027248
 20
-1.283914293313035
 30
0.0
 11
-28.86867789027245
 21
-1.587499999999998
 31
0.0
  0
SPLINE
  5
345
330
1F
100
AcDbEntity
  8
외형선
  6
Continuous
370
    15
100
AcDbSpline
210
0.0
220
0.0
230
1.0
 70
     8
 71
     3
 72
     8
 73
     4
 74
     0
 42
0.000000001
 43
0.00000001
 40
0.0
 40
0.0
 40
0.0
 40
0.0
 40
1.0
 40
1.0
 40
1.0
 40
1.0
 10
-29.36874999999979
 20
-1.094105788497824
 30
0.0
 10
-29.20405550164433
 20
-1.163484922253982
 30
0.0
 10
-29.03599605610565
 20
-1.227313543498347
 30
0.0
 10
-28.86867789027245
 20
-1.283924440774043
 30
0.0
  0
SPLINE
  5
346
330
1F
100
AcDbEntity
  8
외형선
  6
Continuous
370
    15
100
AcDbSpline
210
0.0
220
0.0
230
1.0
 70
     8
 71
     3
 72
     8
 73
     4
 74
     0
 42
0.000000001
 43
0.00000001
 40
0.0
 40
0.0
 40
0.0
 40
0.0
 40
1.0
 40
1.0
 40
1.0
 40
1.0
 10
-29.36874999999985
 20
-0.6304027806939306
 30
0.0
 10
-29.20405550164439
 20
-0.7182814881947511
 30
0.0
 10
-29.03599605610565
 20
-0.8032863413577825
 30
0.0
 10
-28.86867789027245
 20
-0.8832682470137844
 30
0.0
  0
LINE
  5
347
330
1F
100
AcDbEntity
  8
외형선
  6
Continuous
370
    15
100
AcDbLine
 10
-28.86867789027248
 20
0.9336596475303448
 30
0.0
 11
-28.86867789027245
 21
-0.8832797726583618
 31
0.0
  0
SPLINE
  5
348
330
1F
100
AcDbEntity
  8
외형선
  6
Continuous
370
    15
100
AcDbSpline
210
0.0
220
0.0
230
1.0
 70
     8
 71
     3
 72
     8
 73
     4
 74
     0
 42
0.000000001
 43
0.00000001
 40
0.0
 40
0.0
 40
0.0
 40
0.0
 40
1.0
 40
1.0
 40
1.0
 40
1.0
 10
-29.36874999999979
 20
1.150255960026094
 30
0.0
 10
-29.20405550164433
 20
1.084263594429608
 30
0.0
 10
-29.03599605610565
 20
1.011495476189264
 30
0.0
 10
-28.86867789027245
 20
0.9336456931743736
 30
0.0
  0
SPLINE
  5
349
330
1F
100
AcDbEntity
  8
외형선
  6
Continuous
370
    15
100
AcDbSpline
210
0.0
220
0.0
230
1.0
 70
     8
 71
     3
 72
     8
 73
     4
 74
     0
 42
0.000000001
 43
0.00000001
 40
0.0
 40
0.0
 40
0.0
 40
0.0
 40
1.0
 40
1.0
 40
1.0
 40
1.0
 10
-29.36874999999985
 20
1.456965539775521
 30
0.0
 10
-29.20405550164439
 20
1.418942003830502
 30
0.0
 10
-29.03599605610565
 20
1.372644413602398
 30
0.0
 10
-28.86867789027245
 20
1.319088114500776
 30
0.0
  0
LINE
  5
34A
330
1F
100
AcDbEntity
  8
외형선
  6
Continuous
370
    15
100
AcDbLine
 10
-28.86867789027245
 20
1.587500000000003
 30
0.0
 11
-28.86867789027245
 21
1.31908039679642
 31
0.0
  0
SPLINE
  5
34B
330
1F
100
AcDbEntity
  8
외형선
  6
Continuous
370
    15
100
AcDbSpline
210
0.0
220
0.0
230
1.0
 70
    24
 71
     3
 72
    22
 73
    18
 74
     0
 42
0.000000001
 43
0.00000001
 40
0.0
 40
0.0
 40
0.0
 40
0.0
 40
0.1249999999999999
 40
0.1249999999999999
 40
0.2499999999999999
 40
0.2499999999999999
 40
0.3749999999999998
 40
0.3749999999999998
 40
0.4999999999999998
 40
0.4999999999999998
 40
0.6249999999999998
 40
0.6249999999999998
 40
0.7499999999999999
 40
0.7499999999999999
 40
0.8749999999999999
 40
0.8749999999999999
 40
1.0
 40
1.0
 40
1.0
 40
1.0
 10
-29.36874999999996
 20
1.150255960026158
 30
0.0
 10
-29.36874999999996
 20
1.097252874805072
 30
0.0
 10
-29.36874999999996
 20
1.023456391786592
 30
0.0
 10
-29.36874999999991
 20
0.837471579084433
 30
0.0
 10
-29.36874999999993
 20
0.7253768599727802
 30
0.0
 10
-29.36874999999991
 20
0.485223517973122
 30
0.0
 10
-29.36874999999993
 20
0.3578599807554855
 30
0.0
 10
-29.36874999999993
 20
0.1169692522623972
 30
0.0
 10
-29.36874999999996
 20
0.003858701165154
 30
0.0
 10
-29.36874999999996
 20
-0.1915375399086866
 30
0.0
 10
-29.36874999999999
 20
-0.2739924115743652
 30
0.0
 10
-29.36874999999993
 20
-0.4076665628792352
 30
0.0
 10
-29.36874999999993
 20
-0.4591756915101609
 30
0.0
 10
-29.36874999999991
 20
-0.5384019800841561
 30
0.0
 10
-29.36874999999996
 20
-0.5662686605058088
 30
0.0
 10
-29.36874999999993
 20
-0.6062724251233288
 30
0.0
 10
-29.36874999999996
 20
-0.6224680922496258
 30
0.0
 10
-29.36874999999996
 20
-0.6304027806939377
 30
0.0
  0
SPLINE
  5
34C
330
1F
100
AcDbEntity
  8
외형선
  6
Continuous
370
    15
100
AcDbSpline
210
0.0
220
0.0
230
1.0
 70
    24
 71
     3
 72
    10
 73
     6
 74
     0
 42
0.000000001
 43
0.00000001
 40
0.0
 40
0.0
 40
0.0
 40
0.0
 40
0.4271327977806971
 40
0.9315955723524298
 40
1.0
 40
1.0
 40
1.0
 40
1.0
 10
-29.36874999999996
 20
-1.147985895292333
 30
0.0
 10
-29.36874999999996
 20
-1.190125662928935
 30
0.0
 10
-29.36874999999993
 20
-1.28203436475233
 30
0.0
 10
-29.36874999999996
 20
-1.3884383350034
 30
0.0
 10
-29.36874999999993
 20
-1.449655744671563
 30
0.0
 10
-29.36874999999996
 20
-1.456965539776245
 30
0.0
  0
LINE
  5
3CA
330
1F
100
AcDbEntity
  8
외형선
  6
Continuous
370
    15
100
AcDbLine
 10
-3.568700000000035
 20
3.49250000000002
 30
0.0
 11
3.568700000000035
 21
3.49250000000002
 31
0.0
  0
LINE
  5
3CB
330
1F
100
AcDbEntity
  8
외형선
  6
Continuous
370
    15
100
AcDbLine
 10
-3.568700000000035
 20
3.49250000000002
 30
0.0
 11
-4.838700000000017
 21
4.762500000000002
 31
0.0
  0
LINE
  5
3CC
330
1F
100
AcDbEntity
  8
외형선
  6
Continuous
370
    15
100
AcDbLine
 10
3.568700000000035
 20
3.49250000000002
 30
0.0
 11
4.838700000000017
 21
4.762500000000002
 31
0.0
  0
LINE
  5
3CE
330
1F
100
AcDbEntity
  8
외형선
  6
Continuous
370
    15
100
AcDbLine
 10
-4.838700000000021
 20
4.762500000000002
 30
0.0
 11
-16.51948868596881
 21
4.762500000000002
 31
0.0
  0
ENDSEC
  0
SECTION
  2
OBJECTS
  0
DICTIONARY
  5
C
330
0
100
AcDbDictionary
281
     1
  3
ACAD_GROUP
350
D
  3
ACAD_IMAGE_VARS
350
154
  3
ACAD_LAYOUT
350
1A
  3
ACAD_MLINESTYLE
350
17
  3
ACAD_PLOTSETTINGS
350
19
  3
ACAD_PLOTSTYLENAME
350
E
  3
ACAD_SCALELIST
350
47
  3
APPDATA
350
152
  3
DWGPROPS
350
3CF
  0
DICTIONARY
  5
1DD
330
2
100
AcDbDictionary
280
     1
281
     1
  3
ACAD_LAYERSTATES
360
1DE
  0
DICTIONARY
  5
D
102
{ACAD_REACTORS
330
C
102
}
330
C
100
AcDbDictionary
281
     1
  0
RASTERVARIABLES
  5
154
102
{ACAD_REACTORS
330
C
102
}
330
C
100
AcDbRasterVariables
 90
        0
 70
     1
 71
     1
 72
     1
  0
DICTIONARY
  5
1A
102
{ACAD_REACTORS
330
C
102
}
330
C
100
AcDbDictionary
281
     1
  3
Layout1
350
1E
  3
Layout2
350
26
  3
Model
350
22
  0
DICTIONARY
  5
17
102
{ACAD_REACTORS
330
C
102
}
330
C
100
AcDbDictionary
281
     1
  3
Standard
350
18
  0
DICTIONARY
  5
19
102
{ACAD_REACTORS
330
C
102
}
330
C
100
AcDbDictionary
281
     1
  0
ACDBDICTIONARYWDFLT
  5
E
102
{ACAD_REACTORS
330
C
102
}
330
C
100
AcDbDictionary
281
     1
  3
Normal
350
F
100
AcDbDictionaryWithDefault
340
F
  0
DICTIONARY
  5
47
102
{ACAD_REACTORS
330
C
102
}
330
C
100
AcDbDictionary
281
     1
  3
A0
350
48
  3
A1
350
49
  3
A2
350
4A
  3
A3
350
4B
  3
A4
350
4C
  3
A5
350
4D
  3
A6
350
4E
  3
A7
350
4F
  3
A8
350
50
  3
A9
350
51
  3
B0
350
52
  3
B1
350
53
  3
B2
350
54
  3
B3
350
55
  3
B4
350
56
  3
B5
350
57
  3
B6
350
58
  3
B7
350
59
  3
B8
350
5A
  3
B9
350
5B
  3
C0
350
5C
  3
C1
350
5D
  3
C2
350
5E
  3
C3
350
5F
  3
C4
350
60
  3
C5
350
61
  3
C6
350
62
  3
C7
350
63
  3
C8
350
64
  3
C9
350
65
  3
D0
350
66
  3
D1
350
67
  3
D2
350
68
  0
DICTIONARY
  5
152
102
{ACAD_REACTORS
330
C
102
}
330
C
100
AcDbDictionary
281
     1
  0
XRECORD
  5
3CF
102
{ACAD_REACTORS
330
C
102
}
330
C
100
AcDbXrecord
280
     1
  1
DWGPROPS COOKIE
  2

  3

  4

  6

  7

  8
12017012
  9

300
=
301
=
302
=
303
=
304
=
305
=
306
=
307
=
308
=
309
=
 40
0.0
 41
2458313.094118322
 42
2458318.985956701
  1

 90
        0
  0
DICTIONARY
  5
1DE
102
{ACAD_REACTORS
330
1DD
102
}
330
1DD
100
AcDbDictionary
281
     1
  0
LAYOUT
  5
1E
102
{ACAD_REACTORS
330
1A
102
}
330
1A
100
AcDbPlotSettings
  1

  2
none_device
  4

  6

 40
0.0
 41
0.0
 42
0.0
 43
0.0
 44
0.0
 45
0.0
 46
0.0
 47
0.0
 48
0.0
 49
0.0
140
0.0
141
0.0
142
1.0
143
1.0
 70
   688
 72
     1
 73
     0
 74
     5
  7

 75
    16
147
1.0
148
0.0
149
0.0
100
AcDbLayout
  1
Layout1
 70
     1
 71
     1
 10
0.0
 20
0.0
 11
420.0
 21
297.0
 12
0.0
 22
0.0
 32
0.0
 14
1.000000000000000E+20
 24
1.000000000000000E+20
 34
1.000000000000000E+20
 15
-1.000000000000000E+20
 25
-1.000000000000000E+20
 35
-1.000000000000000E+20
146
0.0
 13
0.0
 23
0.0
 33
0.0
 16
1.0
 26
0.0
 36
0.0
 17
0.0
 27
1.0
 37
0.0
 76
     0
330
1B
  0
LAYOUT
  5
26
102
{ACAD_REACTORS
330
1A
102
}
330
1A
100
AcDbPlotSettings
  1

  2
none_device
  4

  6

 40
0.0
 41
0.0
 42
0.0
 43
0.0
 44
0.0
 45
0.0
 46
0.0
 47
0.0
 48
0.0
 49
0.0
140
0.0
141
0.0
142
1.0
143
1.0
 70
   688
 72
     1
 73
     0
 74
     5
  7

 75
    16
147
1.0
148
0.0
149
0.0
100
AcDbLayout
  1
Layout2
 70
     1
 71
     2
 10
0.0
 20
0.0
 11
0.0
 21
0.0
 12
0.0
 22
0.0
 32
0.0
 14
0.0
 24
0.0
 34
0.0
 15
0.0
 25
0.0
 35
0.0
146
0.0
 13
0.0
 23
0.0
 33
0.0
 16
1.0
 26
0.0
 36
0.0
 17
0.0
 27
1.0
 37
0.0
 76
     0
330
23
  0
LAYOUT
  5
22
102
{ACAD_REACTORS
330
1A
102
}
330
1A
100
AcDbPlotSettings
  1

  2
none_device
  4
ANSI_A_(11.00_x_8.50_Inches)
  6

 40
6.35
 41
19.05
 42
6.35000508
 43
19.05000254
 44
279.4
 45
215.9
 46
106.5979458988245
 47
80.68487887725374
 48
0.0
 49
0.0
140
0.0
141
0.0
142
0.0699206672349539
143
1.0
 70
  1696
 72
     0
 73
     0
 74
     0
  7

 75
     0
147
0.0235690232323232
148
0.0
149
0.0
100
AcDbLayout
  1
Model
 70
     1
 71
     0
 10
0.0
 20
0.0
 11
420.0
 21
297.0
 12
0.0
 22
0.0
 32
0.0
 14
1.000000000000000E+20
 24
1.000000000000000E+20
 34
1.000000000000000E+20
 15
-1.000000000000000E+20
 25
-1.000000000000000E+20
 35
-1.000000000000000E+20
146
0.0
 13
0.0
 23
0.0
 33
0.0
 16
1.0
 26
0.0
 36
0.0
 17
0.0
 27
1.0
 37
0.0
 76
     0
330
1F
331
29
  0
MLINESTYLE
  5
18
102
{ACAD_REACTORS
330
17
102
}
330
17
100
AcDbMlineStyle
  2
Standard
 70
     0
  3

 62
   256
 51
90.0
 52
90.0
 71
     2
 49
0.5
 62
   256
  6
BYLAYER
 49
-0.5
 62
   256
  6
BYLAYER
  0
ACDBPLACEHOLDER
  5
F
102
{ACAD_REACTORS
330
E
102
}
330
E
  0
SCALE
  5
48
102
{ACAD_REACTORS
330
47
102
}
330
47
100
AcDbScale
 70
     0
300
1:1
140
1.0
141
1.0
290
     1
  0
SCALE
  5
49
102
{ACAD_REACTORS
330
47
102
}
330
47
100
AcDbScale
 70
     0
300
1:2
140
1.0
141
2.0
290
     0
  0
SCALE
  5
4A
102
{ACAD_REACTORS
330
47
102
}
330
47
100
AcDbScale
 70
     0
300
1:4
140
1.0
141
4.0
290
     0
  0
SCALE
  5
4B
102
{ACAD_REACTORS
330
47
102
}
330
47
100
AcDbScale
 70
     0
300
1:5
140
1.0
141
5.0
290
     0
  0
SCALE
  5
4C
102
{ACAD_REACTORS
330
47
102
}
330
47
100
AcDbScale
 70
     0
300
1:8
140
1.0
141
8.0
290
     0
  0
SCALE
  5
4D
102
{ACAD_REACTORS
330
47
102
}
330
47
100
AcDbScale
 70
     0
300
1:10
140
1.0
141
10.0
290
     0
  0
SCALE
  5
4E
102
{ACAD_REACTORS
330
47
102
}
330
47
100
AcDbScale
 70
     0
300
1:16
140
1.0
141
16.0
290
     0
  0
SCALE
  5
4F
102
{ACAD_REACTORS
330
47
102
}
330
47
100
AcDbScale
 70
     0
300
1:20
140
1.0
141
20.0
290
     0
  0
SCALE
  5
50
102
{ACAD_REACTORS
330
47
102
}
330
47
100
AcDbScale
 70
     0
300
1:30
140
1.0
141
30.0
290
     0
  0
SCALE
  5
51
102
{ACAD_REACTORS
330
47
102
}
330
47
100
AcDbScale
 70
     0
300
1:40
140
1.0
141
40.0
290
     0
  0
SCALE
  5
52
102
{ACAD_REACTORS
330
47
102
}
330
47
100
AcDbScale
 70
     0
300
1:50
140
1.0
141
50.0
290
     0
  0
SCALE
  5
53
102
{ACAD_REACTORS
330
47
102
}
330
47
100
AcDbScale
 70
     0
300
1:100
140
1.0
141
100.0
290
     0
  0
SCALE
  5
54
102
{ACAD_REACTORS
330
47
102
}
330
47
100
AcDbScale
 70
     0
300
2:1
140
2.0
141
1.0
290
     0
  0
SCALE
  5
55
102
{ACAD_REACTORS
330
47
102
}
330
47
100
AcDbScale
 70
     0
300
4:1
140
4.0
141
1.0
290
     0
  0
SCALE
  5
56
102
{ACAD_REACTORS
330
47
102
}
330
47
100
AcDbScale
 70
     0
300
8:1
140
8.0
141
1.0
290
     0
  0
SCALE
  5
57
102
{ACAD_REACTORS
330
47
102
}
330
47
100
AcDbScale
 70
     0
300
10:1
140
10.0
141
1.0
290
     0
  0
SCALE
  5
58
102
{ACAD_REACTORS
330
47
102
}
330
47
100
AcDbScale
 70
     0
300
100:1
140
100.0
141
1.0
290
     0
  0
SCALE
  5
59
102
{ACAD_REACTORS
330
47
102
}
330
47
100
AcDbScale
 70
     0
300
1/128" = 1'-0"
140
0.0078125
141
12.0
290
     0
  0
SCALE
  5
5A
102
{ACAD_REACTORS
330
47
102
}
330
47
100
AcDbScale
 70
     0
300
1/64" = 1'-0"
140
0.015625
141
12.0
290
     0
  0
SCALE
  5
5B
102
{ACAD_REACTORS
330
47
102
}
330
47
100
AcDbScale
 70
     0
300
1/32" = 1'-0"
140
0.03125
141
12.0
290
     0
  0
SCALE
  5
5C
102
{ACAD_REACTORS
330
47
102
}
330
47
100
AcDbScale
 70
     0
300
1/16" = 1'-0"
140
0.0625
141
12.0
290
     0
  0
SCALE
  5
5D
102
{ACAD_REACTORS
330
47
102
}
330
47
100
AcDbScale
 70
     0
300
3/32" = 1'-0"
140
0.09375
141
12.0
290
     0
  0
SCALE
  5
5E
102
{ACAD_REACTORS
330
47
102
}
330
47
100
AcDbScale
 70
     0
300
1/8" = 1'-0"
140
0.125
141
12.0
290
     0
  0
SCALE
  5
5F
102
{ACAD_REACTORS
330
47
102
}
330
47
100
AcDbScale
 70
     0
300
3/16" = 1'-0"
140
0.1875
141
12.0
290
     0
  0
SCALE
  5
60
102
{ACAD_REACTORS
330
47
102
}
330
47
100
AcDbScale
 70
     0
300
1/4" = 1'-0"
140
0.25
141
12.0
290
     0
  0
SCALE
  5
61
102
{ACAD_REACTORS
330
47
102
}
330
47
100
AcDbScale
 70
     0
300
3/8" = 1'-0"
140
0.375
141
12.0
290
     0
  0
SCALE
  5
62
102
{ACAD_REACTORS
330
47
102
}
330
47
100
AcDbScale
 70
     0
300
1/2" = 1'-0"
140
0.5
141
12.0
290
     0
  0
SCALE
  5
63
102
{ACAD_REACTORS
330
47
102
}
330
47
100
AcDbScale
 70
     0
300
3/4" = 1'-0"
140
0.75
141
12.0
290
     0
  0
SCALE
  5
64
102
{ACAD_REACTORS
330
47
102
}
330
47
100
AcDbScale
 70
     0
300
1" = 1'-0"
140
1.0
141
12.0
290
     0
  0
SCALE
  5
65
102
{ACAD_REACTORS
330
47
102
}
330
47
100
AcDbScale
 70
     0
300
1-1/2" = 1'-0"
140
1.5
141
12.0
290
     0
  0
SCALE
  5
66
102
{ACAD_REACTORS
330
47
102
}
330
47
100
AcDbScale
 70
     0
300
3" = 1'-0"
140
3.0
141
12.0
290
     0
  0
SCALE
  5
67
102
{ACAD_REACTORS
330
47
102
}
330
47
100
AcDbScale
 70
     0
300
6" = 1'-0"
140
6.0
141
12.0
290
     0
  0
SCALE
  5
68
102
{ACAD_REACTORS
330
47
102
}
330
47
100
AcDbScale
 70
     0
300
1'-0" = 1'-0"
140
12.0
141
12.0
290
     0
  0
ENDSEC
  0
EOF
