  0
SECTION
  2
HEADER
  9
$ACADVER
  1
AC1015
  9
$ACADMAINTVER
 70
     6
  9
$DWGCODEPAGE
  3
ANSI_949
  9
$INSBASE
 10
0.0
 20
0.0
 30
0.0
  9
$EXTMIN
 10
-94.48750000000007
 20
-49.97180738881175
 30
0.0
  9
$EXTMAX
 10
104.1441250329551
 20
47.57499999999999
 30
0.0
  9
$LIMMIN
 10
0.0
 20
0.0
  9
$LIMMAX
 10
420.0
 20
297.0
  9
$ORTHOMODE
 70
     1
  9
$REGENMODE
 70
     1
  9
$FILLMODE
 70
     1
  9
$QTEXTMODE
 70
     0
  9
$MIRRTEXT
 70
     1
  9
$LTSCALE
 40
1.0
  9
$ATTMODE
 70
     1
  9
$TEXTSIZE
 40
3.5
  9
$TRACEWID
 40
1.0
  9
$TEXTSTYLE
  7
Standard
  9
$CLAYER
  8
0
  9
$CELTYPE
  6
ByLayer
  9
$CECOLOR
 62
   256
  9
$CELTSCALE
 40
1.0
  9
$DISPSILH
 70
     0
  9
$DIMSCALE
 40
1.0
  9
$DIMASZ
 40
3.302
  9
$DIMEXO
 40
1.0
  9
$DIMDLI
 40
3.75
  9
$DIMRND
 40
0.0
  9
$DIMDLE
 40
0.0
  9
$DIMEXE
 40
1.0
  9
$DIMTP
 40
0.0
  9
$DIMTM
 40
0.0
  9
$DIMTXT
 40
3.5
  9
$DIMCEN
 40
2.5
  9
$DIMTSZ
 40
0.0
  9
$DIMTOL
 70
     0
  9
$DIMLIM
 70
     0
  9
$DIMTIH
 70
     1
  9
$DIMTOH
 70
     1
  9
$DIMSE1
 70
     0
  9
$DIMSE2
 70
     0
  9
$DIMTAD
 70
     1
  9
$DIMZIN
 70
     0
  9
$DIMBLK
  1

  9
$DIMASO
 70
     1
  9
$DIMSHO
 70
     1
  9
$DIMPOST
  1

  9
$DIMAPOST
  1

  9
$DIMALT
 70
     0
  9
$DIMALTD
 70
     3
  9
$DIMALTF
 40
0.0393700787401575
  9
$DIMLFAC
 40
1.0
  9
$DIMTOFL
 70
     1
  9
$DIMTVP
 40
0.0
  9
$DIMTIX
 70
     0
  9
$DIMSOXD
 70
     0
  9
$DIMSAH
 70
     0
  9
$DIMBLK1
  1

  9
$DIMBLK2
  1

  9
$DIMSTYLE
  2
ISO-25
  9
$DIMCLRD
 70
     0
  9
$DIMCLRE
 70
     0
  9
$DIMCLRT
 70
     0
  9
$DIMTFAC
 40
1.0
  9
$DIMGAP
 40
1.524
  9
$DIMJUST
 70
     0
  9
$DIMSD1
 70
     0
  9
$DIMSD2
 70
     0
  9
$DIMTOLJ
 70
     0
  9
$DIMTZIN
 70
     0
  9
$DIMALTZ
 70
     0
  9
$DIMALTTZ
 70
     0
  9
$DIMUPT
 70
     0
  9
$DIMDEC
 70
     2
  9
$DIMTDEC
 70
     2
  9
$DIMALTU
 70
     2
  9
$DIMALTTD
 70
     3
  9
$DIMTXSTY
  7
Standard
  9
$DIMAUNIT
 70
     0
  9
$DIMADEC
 70
     2
  9
$DIMALTRND
 40
0.0
  9
$DIMAZIN
 70
     0
  9
$DIMDSEP
 70
    44
  9
$DIMATFIT
 70
     3
  9
$DIMFRAC
 70
     0
  9
$DIMLDRBLK
  1

  9
$DIMLUNIT
 70
     2
  9
$DIMLWD
 70
    -2
  9
$DIMLWE
 70
    -2
  9
$DIMTMOVE
 70
     0
  9
$LUNITS
 70
     2
  9
$LUPREC
 70
     2
  9
$SKETCHINC
 40
1.0
  9
$FILLETRAD
 40
10.0
  9
$AUNITS
 70
     0
  9
$AUPREC
 70
     2
  9
$MENU
  1
.
  9
$ELEVATION
 40
0.0
  9
$PELEVATION
 40
0.0
  9
$THICKNESS
 40
0.0
  9
$LIMCHECK
 70
     0
  9
$CHAMFERA
 40
0.0
  9
$CHAMFERB
 40
0.0
  9
$CHAMFERC
 40
0.0
  9
$CHAMFERD
 40
0.0
  9
$SKPOLY
 70
     0
  9
$TDCREATE
 40
2458313.402241806
  9
$TDUCREATE
 40
2458313.027241806
  9
$TDUPDATE
 40
2458324.488004607
  9
$TDUUPDATE
 40
2458324.113004607
  9
$TDINDWG
 40
0.0025465046
  9
$TDUSRTIMER
 40
0.0025464931
  9
$USRTIMER
 70
     1
  9
$ANGBASE
 50
0.0
  9
$ANGDIR
 70
     0
  9
$PDMODE
 70
     0
  9
$PDSIZE
 40
-1.0
  9
$PLINEWID
 40
0.0
  9
$SPLFRAME
 70
     0
  9
$SPLINETYPE
 70
     6
  9
$SPLINESEGS
 70
     8
  9
$HANDSEED
  5
274
  9
$SURFTAB1
 70
     6
  9
$SURFTAB2
 70
     6
  9
$SURFTYPE
 70
     6
  9
$SURFU
 70
     6
  9
$SURFV
 70
     6
  9
$UCSBASE
  2

  9
$UCSNAME
  2

  9
$UCSORG
 10
0.0
 20
0.0
 30
0.0
  9
$UCSXDIR
 10
1.0
 20
0.0
 30
0.0
  9
$UCSYDIR
 10
0.0
 20
1.0
 30
0.0
  9
$UCSORTHOREF
  2

  9
$UCSORTHOVIEW
 70
     0
  9
$UCSORGTOP
 10
0.0
 20
0.0
 30
0.0
  9
$UCSORGBOTTOM
 10
0.0
 20
0.0
 30
0.0
  9
$UCSORGLEFT
 10
0.0
 20
0.0
 30
0.0
  9
$UCSORGRIGHT
 10
0.0
 20
0.0
 30
0.0
  9
$UCSORGFRONT
 10
0.0
 20
0.0
 30
0.0
  9
$UCSORGBACK
 10
0.0
 20
0.0
 30
0.0
  9
$PUCSBASE
  2

  9
$PUCSNAME
  2

  9
$PUCSORG
 10
0.0
 20
0.0
 30
0.0
  9
$PUCSXDIR
 10
1.0
 20
0.0
 30
0.0
  9
$PUCSYDIR
 10
0.0
 20
1.0
 30
0.0
  9
$PUCSORTHOREF
  2

  9
$PUCSORTHOVIEW
 70
     0
  9
$PUCSORGTOP
 10
0.0
 20
0.0
 30
0.0
  9
$PUCSORGBOTTOM
 10
0.0
 20
0.0
 30
0.0
  9
$PUCSORGLEFT
 10
0.0
 20
0.0
 30
0.0
  9
$PUCSORGRIGHT
 10
0.0
 20
0.0
 30
0.0
  9
$PUCSORGFRONT
 10
0.0
 20
0.0
 30
0.0
  9
$PUCSORGBACK
 10
0.0
 20
0.0
 30
0.0
  9
$USERI1
 70
     0
  9
$USERI2
 70
     0
  9
$USERI3
 70
     0
  9
$USERI4
 70
     0
  9
$USERI5
 70
     0
  9
$USERR1
 40
0.0
  9
$USERR2
 40
0.0
  9
$USERR3
 40
0.0
  9
$USERR4
 40
0.0
  9
$USERR5
 40
0.0
  9
$WORLDVIEW
 70
     1
  9
$SHADEDGE
 70
     3
  9
$SHADEDIF
 70
    70
  9
$TILEMODE
 70
     1
  9
$MAXACTVP
 70
    64
  9
$PINSBASE
 10
0.0
 20
0.0
 30
0.0
  9
$PLIMCHECK
 70
     0
  9
$PEXTMIN
 10
1.000000000000000E+20
 20
1.000000000000000E+20
 30
1.000000000000000E+20
  9
$PEXTMAX
 10
-1.000000000000000E+20
 20
-1.000000000000000E+20
 30
-1.000000000000000E+20
  9
$PLIMMIN
 10
0.0
 20
0.0
  9
$PLIMMAX
 10
0.0
 20
0.0
  9
$UNITMODE
 70
     0
  9
$VISRETAIN
 70
     1
  9
$PLINEGEN
 70
     0
  9
$PSLTSCALE
 70
     1
  9
$TREEDEPTH
 70
  3020
  9
$CMLSTYLE
  2
Standard
  9
$CMLJUST
 70
     0
  9
$CMLSCALE
 40
20.0
  9
$PROXYGRAPHICS
 70
     1
  9
$MEASUREMENT
 70
     1
  9
$CELWEIGHT
370
    -1
  9
$ENDCAPS
280
     0
  9
$JOINSTYLE
280
     0
  9
$LWDISPLAY
290
     1
  9
$INSUNITS
 70
     4
  9
$HYPERLINKBASE
  1

  9
$STYLESHEET
  1

  9
$XEDIT
290
     1
  9
$CEPSNTYPE
380
     0
  9
$PSTYLEMODE
290
     1
  9
$FINGERPRINTGUID
  2
{A43F99FF-E463-4197-933C-6BFCABACA913}
  9
$VERSIONGUID
  2
{FAEB1C32-E019-11D5-929B-00C0DF256EC4}
  9
$EXTNAMES
290
     1
  9
$PSVPSCALE
 40
0.0
  9
$OLESTARTUP
290
     0
  0
ENDSEC
  0
SECTION
  2
CLASSES
  0
CLASS
  1
ACDBDICTIONARYWDFLT
  2
AcDbDictionaryWithDefault
  3
ObjectDBX Classes
 90
        0
280
     0
281
     0
  0
CLASS
  1
VISUALSTYLE
  2
AcDbVisualStyle
  3
ObjectDBX Classes
 90
     4095
280
     0
281
     0
  0
CLASS
  1
MATERIAL
  2
AcDbMaterial
  3
ObjectDBX Classes
 90
     1153
280
     0
281
     0
  0
CLASS
  1
SCALE
  2
AcDbScale
  3
ObjectDBX Classes
 90
     1153
280
     0
281
     0
  0
CLASS
  1
SUN
  2
AcDbSun
  3
SCENEOE
 90
     1153
280
     0
281
     0
  0
CLASS
  1
ACDBPLACEHOLDER
  2
AcDbPlaceHolder
  3
ObjectDBX Classes
 90
        0
280
     0
281
     0
  0
CLASS
  1
LAYOUT
  2
AcDbLayout
  3
ObjectDBX Classes
 90
        0
280
     0
281
     0
  0
CLASS
  1
TABLESTYLE
  2
AcDbTableStyle
  3
ObjectDBX Classes
 90
     4095
280
     0
281
     0
  0
CLASS
  1
MLEADERSTYLE
  2
AcDbMLeaderStyle
  3
ACDB_MLEADERSTYLE_CLASS
 90
     4095
280
     0
281
     0
  0
CLASS
  1
DICTIONARYVAR
  2
AcDbDictionaryVar
  3
ObjectDBX Classes
 90
        0
280
     0
281
     0
  0
ENDSEC
  0
SECTION
  2
TABLES
  0
TABLE
  2
VPORT
  5
8
330
0
100
AcDbSymbolTable
 70
     1
  0
VPORT
  5
29
330
8
100
AcDbSymbolTableRecord
100
AcDbViewportTableRecord
  2
*Active
 70
     0
 10
0.0
 20
0.0
 11
1.0
 21
1.0
 12
4.828312516477496
 22
-1.198403694405883
 13
0.0
 23
0.0
 14
10.0
 24
10.0
 15
10.0
 25
10.0
 16
0.0
 26
0.0
 36
1.0
 17
0.0
 27
0.0
 37
0.0
 40
113.6462292258088
 41
1.782762691853601
 42
50.0
 43
0.0
 44
0.0
 50
0.0
 51
0.0
 71
    16
 72
  2000
 73
     1
 74
     3
 75
     0
 76
     0
 77
     0
 78
     0
281
     0
 65
     1
110
0.0
120
0.0
130
0.0
111
1.0
121
0.0
131
0.0
112
0.0
122
1.0
132
0.0
 79
     0
146
0.0
  0
ENDTAB
  0
TABLE
  2
LTYPE
  5
5
330
0
100
AcDbSymbolTable
 70
     6
  0
LTYPE
  5
14
330
5
100
AcDbSymbolTableRecord
100
AcDbLinetypeTableRecord
  2
ByBlock
 70
     0
  3

 72
    65
 73
     0
 40
0.0
  0
LTYPE
  5
15
330
5
100
AcDbSymbolTableRecord
100
AcDbLinetypeTableRecord
  2
ByLayer
 70
     0
  3

 72
    65
 73
     0
 40
0.0
  0
LTYPE
  5
16
330
5
100
AcDbSymbolTableRecord
100
AcDbLinetypeTableRecord
  2
Continuous
 70
     0
  3
Solid line
 72
    65
 73
     0
 40
0.0
  0
LTYPE
  5
6A
330
5
100
AcDbSymbolTableRecord
100
AcDbLinetypeTableRecord
  2
HIDDEN
 70
     0
  3
Hidden __ __ __ __ __ __ __ __ __ __ __ __ __ __
 72
    65
 73
     2
 40
1.905
 49
1.27
 74
     0
 49
-0.635
 74
     0
  0
LTYPE
  5
6B
330
5
100
AcDbSymbolTableRecord
100
AcDbLinetypeTableRecord
  2
PHANTOM
 70
     0
  3
Phantom ______  __  __  ______  __  __  ______
 72
    65
 73
     6
 40
12.7
 49
6.35
 74
     0
 49
-1.27
 74
     0
 49
1.27
 74
     0
 49
-1.27
 74
     0
 49
1.27
 74
     0
 49
-1.27
 74
     0
  0
LTYPE
  5
6C
330
5
100
AcDbSymbolTableRecord
100
AcDbLinetypeTableRecord
  2
CENTER
 70
     0
  3
Center ____ _ ____ _ ____ _ ____ _ ____ _ ____
 72
    65
 73
     4
 40
10.16
 49
6.35
 74
     0
 49
-1.27
 74
     0
 49
1.27
 74
     0
 49
-1.27
 74
     0
  0
LTYPE
  5
6D
330
5
100
AcDbSymbolTableRecord
100
AcDbLinetypeTableRecord
  2
CENTERX2
 70
     0
  3
Center (2x) ________  __  ________  __  _____
 72
    65
 73
     4
 40
20.32
 49
12.7
 74
     0
 49
-2.54
 74
     0
 49
2.54
 74
     0
 49
-2.54
 74
     0
  0
LTYPE
  5
6E
330
5
100
AcDbSymbolTableRecord
100
AcDbLinetypeTableRecord
  2
DOT2
 70
     0
  3
Dot (.5x) ........................................
 72
    65
 73
     2
 40
0.635
 49
0.0
 74
     0
 49
-0.635
 74
     0
  0
ENDTAB
  0
TABLE
  2
LAYER
  5
2
102
{ACAD_XDICTIONARY
360
18C
102
}
330
0
100
AcDbSymbolTable
 70
    18
  0
LAYER
  5
10
330
2
100
AcDbSymbolTableRecord
100
AcDbLayerTableRecord
  2
0
 70
     0
 62
     7
  6
Continuous
370
    -3
390
F
  0
LAYER
  5
6F
330
2
100
AcDbSymbolTableRecord
100
AcDbLayerTableRecord
  2
FORMAT
 70
     0
 62
     2
  6
Continuous
370
    -3
390
F
  0
LAYER
  5
70
330
2
100
AcDbSymbolTableRecord
100
AcDbLayerTableRecord
  2
외형선
 70
     0
 62
     4
  6
Continuous
370
    30
390
F
  0
LAYER
  5
71
330
2
100
AcDbSymbolTableRecord
100
AcDbLayerTableRecord
  2
숨은선
 70
     0
 62
     2
  6
HIDDEN
370
    15
390
F
  0
LAYER
  5
72
330
2
100
AcDbSymbolTableRecord
100
AcDbLayerTableRecord
  2
중심선
 70
     0
 62
     1
  6
CENTERX2
370
    -3
390
F
  0
LAYER
  5
73
330
2
100
AcDbSymbolTableRecord
100
AcDbLayerTableRecord
  2
파단선
 70
     0
 62
     4
  6
Continuous
370
    -3
390
F
  0
LAYER
  5
74
330
2
100
AcDbSymbolTableRecord
100
AcDbLayerTableRecord
  2
해칭선
 70
     0
 62
   100
  6
Continuous
370
    -3
390
F
  0
LAYER
  5
75
330
2
100
AcDbSymbolTableRecord
100
AcDbLayerTableRecord
  2
가는실선
 70
     0
 62
     4
  6
Continuous
370
    -3
390
F
  0
LAYER
  5
76
330
2
100
AcDbSymbolTableRecord
100
AcDbLayerTableRecord
  2
치수_보조선
 70
     0
 62
     4
  6
Continuous
370
    -3
390
F
  0
LAYER
  5
77
330
2
100
AcDbSymbolTableRecord
100
AcDbLayerTableRecord
  2
치수문자_일반주서
 70
     0
 62
     7
  6
Continuous
370
    15
390
F
  0
LAYER
  5
78
330
2
100
AcDbSymbolTableRecord
100
AcDbLayerTableRecord
  2
개별주서
 70
     0
 62
   100
  6
Continuous
370
    30
390
F
  0
LAYER
  5
79
330
2
100
AcDbSymbolTableRecord
100
AcDbLayerTableRecord
  2
중간선
 70
     0
 62
     2
  6
Continuous
370
    15
390
F
  0
LAYER
  5
7A
330
2
100
AcDbSymbolTableRecord
100
AcDbLayerTableRecord
  2
윤곽선
 70
     0
 62
     3
  6
Continuous
370
    40
390
F
  0
LAYER
  5
7B
330
2
100
AcDbSymbolTableRecord
100
AcDbLayerTableRecord
  2
중심마크
 70
     0
 62
   100
  6
Continuous
370
    30
390
F
  0
LAYER
  5
7C
330
2
100
AcDbSymbolTableRecord
100
AcDbLayerTableRecord
  2
가상선
 70
     0
 62
     4
  6
PHANTOM
370
    -3
390
F
  0
LAYER
  5
7D
330
2
100
AcDbSymbolTableRecord
100
AcDbLayerTableRecord
  2
특수지정선
 70
     0
 62
     5
  6
CENTERX2
370
    60
390
F
  0
LAYER
  5
7E
330
2
100
AcDbSymbolTableRecord
100
AcDbLayerTableRecord
  2
참조1
 70
     0
 62
    -4
  6
Continuous
370
    -3
390
F
  0
LAYER
  5
154
330
2
100
AcDbSymbolTableRecord
100
AcDbLayerTableRecord
  2
Defpoints
 70
     0
 62
     7
  6
Continuous
290
     0
370
    -3
390
F
  0
ENDTAB
  0
TABLE
  2
STYLE
  5
3
330
0
100
AcDbSymbolTable
 70
     2
  0
STYLE
  5
11
330
3
100
AcDbSymbolTableRecord
100
AcDbTextStyleTableRecord
  2
Standard
 70
     0
 40
0.0
 41
1.0
 50
0.0
 71
     0
 42
3.5
  3
txt
  4

  0
STYLE
  5
94
330
3
100
AcDbSymbolTableRecord
100
AcDbTextStyleTableRecord
  2
SLDTEXTSTYLE0
 70
     0
 40
0.0
 41
0.75
 50
0.0
 71
     0
 42
3.5
  3
TXT
  4

  0
ENDTAB
  0
TABLE
  2
VIEW
  5
6
330
0
100
AcDbSymbolTable
 70
     0
  0
ENDTAB
  0
TABLE
  2
UCS
  5
7
330
0
100
AcDbSymbolTable
 70
     0
  0
ENDTAB
  0
TABLE
  2
APPID
  5
9
330
0
100
AcDbSymbolTable
 70
     4
  0
APPID
  5
12
330
9
100
AcDbSymbolTableRecord
100
AcDbRegAppTableRecord
  2
ACAD
 70
     0
  0
APPID
  5
15C
330
9
100
AcDbSymbolTableRecord
100
AcDbRegAppTableRecord
  2
PE_URL
 70
     0
  0
APPID
  5
272
330
9
100
AcDbSymbolTableRecord
100
AcDbRegAppTableRecord
  2
ACAD_DSTYLE_DIMFLIPARROW_SYMBOL
 70
     0
  0
APPID
  5
273
330
9
100
AcDbSymbolTableRecord
100
AcDbRegAppTableRecord
  2
ACAD_DSTYLE_DIMFLIPARROW_WHICH_SYMBOL
 70
     0
  0
ENDTAB
  0
TABLE
  2
DIMSTYLE
  5
A
330
0
100
AcDbSymbolTable
 70
     3
100
AcDbDimStyleTable
  0
DIMSTYLE
105
27
330
A
100
AcDbSymbolTableRecord
100
AcDbDimStyleTableRecord
  2
ISO-25
 70
     0
 41
2.5
 42
0.625
 43
3.75
 44
1.25
 73
     0
 74
     0
 77
     1
 78
     8
140
2.5
141
2.5
143
0.03937007874016
147
0.625
171
     3
172
     1
178
     0
271
     2
272
     2
274
     3
278
    44
283
     0
284
     8
340
11
  0
DIMSTYLE
105
D4
330
A
100
AcDbSymbolTableRecord
100
AcDbDimStyleTableRecord
  2
SLDDIMSTYLE0
 70
     0
 41
3.302
 44
0.0
 45
0.000000001
 73
     0
 74
     0
 77
     1
 78
     4
 79
     1
140
3.5
143
0.0393700787401575
147
0.875
148
0.000000001
170
     1
172
     1
173
     1
178
     0
271
     2
272
     2
276
     2
284
    12
289
     0
340
94
  0
DIMSTYLE
105
E9
102
{ACAD_REACTORS
330
E8
330
FC
330
110
330
17B
330
D3
102
}
330
A
100
AcDbSymbolTableRecord
100
AcDbDimStyleTableRecord
  2
SLDDIMSTYLE1
 70
     0
 41
3.302
 44
0.0
 45
0.000000001
 73
     0
 74
     0
 77
     1
 78
    12
 79
     3
140
3.5
143
0.0393700787401575
147
0.875
148
0.000000001
170
     1
173
     1
178
     0
271
     2
272
     2
276
     2
284
    12
340
94
  0
ENDTAB
  0
TABLE
  2
BLOCK_RECORD
  5
1
330
0
100
AcDbSymbolTable
 70
    10
  0
BLOCK_RECORD
  5
1F
330
1
100
AcDbSymbolTableRecord
100
AcDbBlockTableRecord
  2
*Model_Space
340
22
  0
BLOCK_RECORD
  5
1B
330
1
100
AcDbSymbolTableRecord
100
AcDbBlockTableRecord
  2
*Paper_Space
340
1E
  0
BLOCK_RECORD
  5
23
330
1
100
AcDbSymbolTableRecord
100
AcDbBlockTableRecord
  2
*Paper_Space0
340
26
  0
BLOCK_RECORD
  5
7F
330
1
100
AcDbSymbolTableRecord
100
AcDbBlockTableRecord
  2
블럭10
340
0
102
{BLKREFS
331
CC
102
}
  0
BLOCK_RECORD
  5
D5
330
1
100
AcDbSymbolTableRecord
100
AcDbBlockTableRecord
  2
_D
340
0
  0
BLOCK_RECORD
  5
EA
330
1
100
AcDbSymbolTableRecord
100
AcDbBlockTableRecord
  2
_D_1
340
0
  0
BLOCK_RECORD
  5
FD
330
1
100
AcDbSymbolTableRecord
100
AcDbBlockTableRecord
  2
_D_2
340
0
  0
BLOCK_RECORD
  5
111
330
1
100
AcDbSymbolTableRecord
100
AcDbBlockTableRecord
  2
_D_3
340
0
  0
BLOCK_RECORD
  5
12A
330
1
100
AcDbSymbolTableRecord
100
AcDbBlockTableRecord
  2
SW_DOWELSYMBOL_0
340
0
102
{BLKREFS
331
130
102
}
  0
BLOCK_RECORD
  5
190
330
1
100
AcDbSymbolTableRecord
100
AcDbBlockTableRecord
  2
*D8
340
0
  0
BLOCK_RECORD
  5
1A2
330
1
100
AcDbSymbolTableRecord
100
AcDbBlockTableRecord
  2
*D9
340
0
  0
ENDTAB
  0
ENDSEC
  0
SECTION
  2
BLOCKS
  0
BLOCK
  5
20
330
1F
100
AcDbEntity
  8
0
100
AcDbBlockBegin
  2
*Model_Space
 70
     0
 10
0.0
 20
0.0
 30
0.0
  3
*Model_Space
  1

  0
ENDBLK
  5
21
330
1F
100
AcDbEntity
  8
0
100
AcDbBlockEnd
  0
BLOCK
  5
1C
330
1B
100
AcDbEntity
 67
     1
  8
0
100
AcDbBlockBegin
  2
*Paper_Space
 70
     0
 10
0.0
 20
0.0
 30
0.0
  3
*Paper_Space
  1

  0
ENDBLK
  5
1D
330
1B
100
AcDbEntity
 67
     1
  8
0
100
AcDbBlockEnd
  0
BLOCK
  5
24
330
23
100
AcDbEntity
  8
0
100
AcDbBlockBegin
  2
*Paper_Space0
 70
     0
 10
0.0
 20
0.0
 30
0.0
  3
*Paper_Space0
  1

  0
ENDBLK
  5
25
330
23
100
AcDbEntity
  8
0
100
AcDbBlockEnd
  0
BLOCK
  5
80
330
7F
100
AcDbEntity
  8
0
100
AcDbBlockBegin
  2
블럭10
 70
     2
 10
0.0
 20
0.0
 30
0.0
  3
블럭10
  1

  0
ELLIPSE
  5
82
330
7F
100
AcDbEntity
  8
중심선
100
AcDbEllipse
 10
20.54032771741204
 20
12.0471743016438
 30
0.0
 11
6.600054785286829
 21
-1.261213355974178E-13
 31
0.0
210
0.0
220
0.0
230
1.0
 40
0.636358354079598
 41
0.9219305317359503
 42
6.513795318482858
  0
ELLIPSE
  5
83
330
7F
100
AcDbEntity
  8
중심선
100
AcDbEllipse
 10
20.54032771746488
 20
12.04717430159265
 30
0.0
 11
3.960054785062283
 21
1.540847449632565E-10
 31
0.0
210
0.0
220
0.0
230
1.0
 40
0.3939339440162632
 41
1.131841032648279
 42
5.62031148352944
  0
LINE
  5
84
330
7F
100
AcDbEntity
  8
중심선
100
AcDbLine
 10
2.268634060543552
 20
16.24717430164393
 30
0.0
 11
5.714909304380834
 21
16.24717430164393
 31
0.0
  0
LINE
  5
85
330
7F
100
AcDbEntity
  8
중심선
100
AcDbLine
 10
5.245725140726316
 20
7.84717430164391
 30
0.0
 11
8.692000384563599
 21
7.84717430164391
 31
0.0
  0
LINE
  5
86
330
7F
100
AcDbEntity
  8
중심선
100
AcDbLine
 10
15.74043728645272
 20
16.24717430164393
 30
0.0
 11
8.692000384563599
 21
7.84717430164391
 31
0.0
  0
LINE
  5
87
330
7F
100
AcDbEntity
  8
중심선
100
AcDbLine
 10
0.1404042013395286
 20
13.71084872107135
 30
0.0
 11
3.58671253028996
 21
13.71088815037384
 31
0.0
  0
LINE
  5
88
330
7F
100
AcDbEntity
  8
중심선
100
AcDbLine
 10
2.750260043222114
 20
10.84717430164391
 30
0.0
 11
6.196535287059397
 21
10.84717430164391
 31
0.0
  0
LINE
  5
89
330
7F
100
AcDbEntity
  8
중심선
100
AcDbLine
 10
12.29416204261559
 20
16.24717430164393
 30
0.0
 11
5.245725140726316
 21
7.84717430164391
 31
0.0
  0
LINE
  5
8A
330
7F
100
AcDbEntity
  8
중심선
100
AcDbLine
 10
10.72767329541681
 20
16.24717430164393
 30
0.0
 11
6.196535287059397
 21
10.84717430164391
 31
0.0
  0
LINE
  5
8B
330
7F
100
AcDbEntity
  8
중심선
100
AcDbLine
 10
7.28139805157953
 20
16.24717430164393
 30
0.0
 11
2.750260043222114
 21
10.84717430164391
 31
0.0
  0
LINE
  5
8C
330
7F
100
AcDbEntity
  8
중심선
100
AcDbLine
 10
5.714909304380834
 20
16.24717430164393
 30
0.0
 11
3.58671253028996
 21
13.71088815037384
 31
0.0
  0
LINE
  5
8D
330
7F
100
AcDbEntity
  8
중심선
100
AcDbLine
 10
2.268634060543552
 20
16.24717430164393
 30
0.0
 11
0.1404042013395286
 21
13.71084872107135
 31
0.0
  0
LINE
  5
8E
330
7F
100
AcDbEntity
  8
중심선
100
AcDbLine
 10
7.28139805157953
 20
16.24717430164393
 30
0.0
 11
10.72767329541681
 21
16.24717430164393
 31
0.0
  0
LINE
  5
8F
330
7F
100
AcDbEntity
  8
중심선
100
AcDbLine
 10
12.29416204261559
 20
16.24717430164393
 30
0.0
 11
15.74043728645272
 21
16.24717430164393
 31
0.0
  0
LINE
  5
90
330
7F
100
AcDbEntity
  8
중심선
100
AcDbLine
 10
19.22036997980202
 20
11.08717430171403
 30
0.0
 11
23.66174974927406
 21
11.08717430171406
 31
0.0
  0
LINE
  5
91
330
7F
100
AcDbEntity
  8
중심선
100
AcDbLine
 10
19.22039502424796
 20
13.00717430171391
 30
0.0
 11
19.22036997980202
 21
11.08717430171403
 31
0.0
  0
LINE
  5
92
330
7F
100
AcDbEntity
  8
중심선
100
AcDbLine
 10
19.22039502424796
 20
13.00717430171391
 30
0.0
 11
26.96566020931264
 21
13.00717430171391
 31
0.0
  0
LINE
  5
93
330
7F
100
AcDbEntity
  8
중심선
100
AcDbLine
 10
22.22332737316547
 20
13.45928029700563
 30
0.0
 11
24.52862924686651
 21
15.39360700705356
 31
0.0
  0
ATTDEF
  5
95
330
7F
100
AcDbEntity
  8
FORMAT
 62
     2
100
AcDbText
 10
4.408487351596664
 20
2.075366912832191
 30
0.0
 40
4.233333333333333
  1
E1050064
 41
0.75
  7
SLDTEXTSTYLE0
 11
4.408487351596664
 21
-0.0412997538344756
 31
0.0
100
AcDbAttributeDefinition
  3

  2
AUTOATTR0
 70
     0
 74
     1
  0
ENDBLK
  5
81
330
7F
100
AcDbEntity
  8
0
100
AcDbBlockEnd
  0
BLOCK
  5
D6
330
D5
100
AcDbEntity
  8
0
100
AcDbBlockBegin
  2
_D
 70
     0
 10
0.0
 20
0.0
 30
0.0
  3
_D
  1

  0
LINE
  5
D8
330
D5
100
AcDbEntity
  8
치수문자_일반주서
 62
     0
370
    -2
100
AcDbLine
 10
-30.35011081259613
 20
12.69999999999999
 30
0.0
 11
-89.6125
 21
12.69999999999977
 31
0.0
  0
LINE
  5
D9
330
D5
100
AcDbEntity
  8
치수문자_일반주서
 62
     0
370
    -2
100
AcDbLine
 10
-30.35011081259617
 20
-12.7
 30
0.0
 11
-89.61249999999991
 21
-12.70000000000022
 31
0.0
  0
LINE
  5
DA
330
D5
100
AcDbEntity
  8
치수문자_일반주서
 62
     0
370
    -2
100
AcDbLine
 10
-89.6125
 20
12.69999999999977
 30
0.0
 11
-89.61250000000008
 21
38.75199999999992
 31
0.0
  0
LINE
  5
DB
330
D5
100
AcDbEntity
  8
치수문자_일반주서
 62
     0
370
    -2
100
AcDbLine
 10
-89.6125
 20
12.69999999999977
 30
0.0
 11
-89.61249999999991
 21
-12.70000000000022
 31
0.0
  0
LINE
  5
DC
330
D5
100
AcDbEntity
  8
치수문자_일반주서
 62
     0
370
    -2
100
AcDbLine
 10
-89.61250000000001
 20
16.00199999999977
 30
0.0
 11
-89.61250000000003
 21
19.30399999999977
 31
0.0
  0
LINE
  5
DD
330
D5
100
AcDbEntity
  8
치수문자_일반주서
 62
     0
370
    -2
100
AcDbLine
 10
-89.6124999999999
 20
-16.00200000000022
 30
0.0
 11
-89.61249999999988
 21
-19.30400000000022
 31
0.0
  0
SOLID
  5
DE
330
D5
100
AcDbEntity
  8
치수문자_일반주서
 62
     0
100
AcDbTrace
 10
-90.16283333333334
 20
16.00199999999976
 30
0.0
 11
-89.06216666666668
 21
16.00199999999977
 31
0.0
 12
-89.6125
 22
12.69999999999977
 32
0.0
 13
-89.6125
 23
12.69999999999977
 33
0.0
  0
SOLID
  5
DF
330
D5
100
AcDbEntity
  8
치수문자_일반주서
 62
     0
100
AcDbTrace
 10
-89.06216666666657
 20
-16.00200000000022
 30
0.0
 11
-90.16283333333323
 21
-16.00200000000023
 31
0.0
 12
-89.61249999999991
 22
-12.70000000000022
 32
0.0
 13
-89.61249999999991
 23
-12.70000000000022
 33
0.0
  0
MTEXT
  5
E0
330
D5
100
AcDbEntity
  8
치수문자_일반주서
 62
     0
100
AcDbMText
 10
-94.48750000000004
 20
27.37699999999991
 30
0.0
 40
4.0
 41
0.0
 71
     2
 72
     1
  1
\A1;%%c25.4 [1]
  7
SLDTEXTSTYLE0
 11
-3.356894814614647E-15
 21
1.0
 31
0.0
 73
     1
 44
1.0
  0
POINT
  5
1B9
330
D5
100
AcDbEntity
  8
Defpoints
 62
     0
100
AcDbPoint
 10
-30.28761081259613
 20
12.69999999999999
 30
0.0
  0
POINT
  5
1BA
330
D5
100
AcDbEntity
  8
Defpoints
 62
     0
100
AcDbPoint
 10
-30.28761081259617
 20
-12.7
 30
0.0
  0
POINT
  5
1BB
330
D5
100
AcDbEntity
  8
Defpoints
 62
     0
100
AcDbPoint
 10
-89.61249999999991
 20
-12.70000000000022
 30
0.0
  0
ENDBLK
  5
D7
330
D5
100
AcDbEntity
  8
0
100
AcDbBlockEnd
  0
BLOCK
  5
EB
330
EA
100
AcDbEntity
  8
0
100
AcDbBlockBegin
  2
_D_1
 70
     0
 10
0.0
 20
0.0
 30
0.0
  3
_D_1
  1

  0
LINE
  5
ED
330
EA
100
AcDbEntity
  8
치수문자_일반주서
 62
     0
370
    -2
100
AcDbLine
 10
74.67500000000003
 20
-12.7
 30
0.0
 11
89.6125000000001
 21
-12.69999999999994
 31
0.0
  0
LINE
  5
EE
330
EA
100
AcDbEntity
  8
치수문자_일반주서
 62
     0
370
    -2
100
AcDbLine
 10
74.67500000000003
 20
12.7
 30
0.0
 11
89.61250000000001
 21
12.70000000000006
 31
0.0
  0
LINE
  5
EF
330
EA
100
AcDbEntity
  8
치수문자_일반주서
 62
     0
370
    -2
100
AcDbLine
 10
89.61250000000001
 20
12.70000000000006
 30
0.0
 11
89.61249999999991
 21
40.25200000000006
 31
0.0
  0
LINE
  5
F0
330
EA
100
AcDbEntity
  8
치수문자_일반주서
 62
     0
370
    -2
100
AcDbLine
 10
89.6125000000001
 20
-12.69999999999994
 30
0.0
 11
89.61250000000001
 21
12.70000000000006
 31
0.0
  0
LINE
  5
F1
330
EA
100
AcDbEntity
  8
치수문자_일반주서
 62
     0
370
    -2
100
AcDbLine
 10
89.61250000000011
 20
-16.00199999999994
 30
0.0
 11
89.61250000000013
 21
-19.30399999999994
 31
0.0
  0
LINE
  5
F2
330
EA
100
AcDbEntity
  8
치수문자_일반주서
 62
     0
370
    -2
100
AcDbLine
 10
89.6125
 20
16.00200000000006
 30
0.0
 11
89.61249999999998
 21
19.30400000000006
 31
0.0
  0
SOLID
  5
F3
330
EA
100
AcDbEntity
  8
치수문자_일반주서
 62
     0
100
AcDbTrace
 10
90.16283333333344
 20
-16.00199999999993
 30
0.0
 11
89.06216666666678
 21
-16.00199999999994
 31
0.0
 12
89.6125000000001
 22
-12.69999999999994
 32
0.0
 13
89.6125000000001
 23
-12.69999999999994
 33
0.0
  0
SOLID
  5
F4
330
EA
100
AcDbEntity
  8
치수문자_일반주서
 62
     0
100
AcDbTrace
 10
89.06216666666667
 20
16.00200000000006
 30
0.0
 11
90.16283333333332
 21
16.00200000000006
 31
0.0
 12
89.61250000000001
 22
12.70000000000006
 32
0.0
 13
89.61250000000001
 23
12.70000000000006
 33
0.0
  0
MTEXT
  5
F5
330
EA
100
AcDbEntity
  8
치수문자_일반주서
 62
     0
100
AcDbMText
 10
84.73749999999995
 20
28.87700000000004
 30
0.0
 40
4.0
 41
0.0
 71
     2
 72
     1
  1
\A1;%%c25.4 [1]
  7
SLDTEXTSTYLE0
 11
-3.356894814614647E-15
 21
1.0
 31
0.0
 73
     1
 44
1.0
  0
POINT
  5
F6
330
EA
100
AcDbEntity
  8
Defpoints
 62
     0
100
AcDbPoint
 10
74.61250000000003
 20
-12.7
 30
0.0
  0
POINT
  5
1BC
330
EA
100
AcDbEntity
  8
Defpoints
 62
     0
100
AcDbPoint
 10
74.61250000000003
 20
12.7
 30
0.0
  0
POINT
  5
1BD
330
EA
100
AcDbEntity
  8
Defpoints
 62
     0
100
AcDbPoint
 10
89.61250000000001
 20
12.70000000000006
 30
0.0
  0
ENDBLK
  5
EC
330
EA
100
AcDbEntity
  8
0
100
AcDbBlockEnd
  0
BLOCK
  5
FE
330
FD
100
AcDbEntity
  8
0
100
AcDbBlockBegin
  2
_D_2
 70
     0
 10
0.0
 20
0.0
 30
0.0
  3
_D_2
  1

  0
LINE
  5
100
330
FD
100
AcDbEntity
  8
치수문자_일반주서
 62
     0
370
    -2
100
AcDbLine
 10
74.61250000000004
 20
12.75176615341647
 30
0.0
 11
74.61250000000004
 21
27.7
 31
0.0
  0
LINE
  5
101
330
FD
100
AcDbEntity
  8
치수문자_일반주서
 62
     0
370
    -2
100
AcDbLine
 10
33.33750000000003
 20
10.0025263028657
 30
0.0
 11
33.33750000000003
 21
27.7
 31
0.0
  0
LINE
  5
102
330
FD
100
AcDbEntity
  8
치수문자_일반주서
 62
     0
370
    -2
100
AcDbLine
 10
71.31050000000005
 20
27.7
 30
0.0
 11
36.63950000000003
 21
27.7
 31
0.0
  0
SOLID
  5
103
330
FD
100
AcDbEntity
  8
치수문자_일반주서
 62
     0
100
AcDbTrace
 10
71.31050000000005
 20
27.14966666666666
 30
0.0
 11
71.31050000000005
 21
28.25033333333333
 31
0.0
 12
74.61250000000004
 22
27.7
 32
0.0
 13
74.61250000000004
 23
27.7
 33
0.0
  0
SOLID
  5
104
330
FD
100
AcDbEntity
  8
치수문자_일반주서
 62
     0
100
AcDbTrace
 10
36.63950000000003
 20
28.25033333333333
 30
0.0
 11
36.63950000000003
 21
27.14966666666666
 31
0.0
 12
33.33750000000003
 22
27.7
 32
0.0
 13
33.33750000000003
 23
27.7
 33
0.0
  0
MTEXT
  5
105
330
FD
100
AcDbEntity
  8
치수문자_일반주서
 62
     0
100
AcDbMText
 10
53.97500000000007
 20
32.575
 30
0.0
 40
4.0
 41
0.0
 71
     2
 72
     1
  1
\A1;41.28 [1 5/8]
  7
SLDTEXTSTYLE0
 73
     1
 44
1.0
  0
POINT
  5
106
330
FD
100
AcDbEntity
  8
Defpoints
 62
     0
100
AcDbPoint
 10
74.61250000000004
 20
12.68926615341647
 30
0.0
  0
POINT
  5
107
330
FD
100
AcDbEntity
  8
Defpoints
 62
     0
100
AcDbPoint
 10
33.33750000000003
 20
9.940026302865704
 30
0.0
  0
POINT
  5
108
330
FD
100
AcDbEntity
  8
Defpoints
 62
     0
100
AcDbPoint
 10
33.33750000000003
 20
27.7
 30
0.0
  0
ENDBLK
  5
FF
330
FD
100
AcDbEntity
  8
0
100
AcDbBlockEnd
  0
BLOCK
  5
112
330
111
100
AcDbEntity
  8
0
100
AcDbBlockBegin
  2
_D_3
 70
     0
 10
0.0
 20
0.0
 30
0.0
  3
_D_3
  1

  0
LINE
  5
114
330
111
100
AcDbEntity
  8
치수문자_일반주서
 62
     0
370
    -2
100
AcDbLine
 10
-74.61250000000005
 20
12.76250000000005
 30
0.0
 11
-74.61250000000005
 21
42.7
 31
0.0
  0
LINE
  5
115
330
111
100
AcDbEntity
  8
치수문자_일반주서
 62
     0
370
    -2
100
AcDbLine
 10
74.61250000000003
 20
12.7625
 30
0.0
 11
74.61250000000003
 21
42.7
 31
0.0
  0
LINE
  5
116
330
111
100
AcDbEntity
  8
치수문자_일반주서
 62
     0
370
    -2
100
AcDbLine
 10
-71.31050000000005
 20
42.7
 30
0.0
 11
71.31050000000002
 21
42.7
 31
0.0
  0
SOLID
  5
117
330
111
100
AcDbEntity
  8
치수문자_일반주서
 62
     0
100
AcDbTrace
 10
-71.31050000000005
 20
43.25033333333333
 30
0.0
 11
-71.31050000000005
 21
42.14966666666666
 31
0.0
 12
-74.61250000000005
 22
42.7
 32
0.0
 13
-74.61250000000005
 23
42.7
 33
0.0
  0
SOLID
  5
118
330
111
100
AcDbEntity
  8
치수문자_일반주서
 62
     0
100
AcDbTrace
 10
71.31050000000002
 20
42.14966666666666
 30
0.0
 11
71.31050000000002
 21
43.25033333333333
 31
0.0
 12
74.61250000000003
 22
42.7
 32
0.0
 13
74.61250000000003
 23
42.7
 33
0.0
  0
MTEXT
  5
119
330
111
100
AcDbEntity
  8
치수문자_일반주서
 62
     0
100
AcDbMText
 10
0.0000000000000284
 20
47.575
 30
0.0
 40
4.0
 41
0.0
 71
     2
 72
     1
  1
\A1;149.23 [5 7/8]
  7
SLDTEXTSTYLE0
 73
     1
 44
1.0
  0
POINT
  5
11A
330
111
100
AcDbEntity
  8
Defpoints
 62
     0
100
AcDbPoint
 10
-74.61250000000005
 20
12.70000000000005
 30
0.0
  0
POINT
  5
11B
330
111
100
AcDbEntity
  8
Defpoints
 62
     0
100
AcDbPoint
 10
74.61250000000003
 20
12.7
 30
0.0
  0
POINT
  5
11C
330
111
100
AcDbEntity
  8
Defpoints
 62
     0
100
AcDbPoint
 10
74.61250000000003
 20
42.7
 30
0.0
  0
ENDBLK
  5
113
330
111
100
AcDbEntity
  8
0
100
AcDbBlockEnd
  0
BLOCK
  5
12B
330
12A
100
AcDbEntity
  8
0
100
AcDbBlockBegin
  2
SW_DOWELSYMBOL_0
 70
     0
 10
0.0
 20
0.0
 30
0.0
  3
SW_DOWELSYMBOL_0
  1

  0
CIRCLE
  5
12D
330
12A
100
AcDbEntity
  8
해칭선
 62
     0
100
AcDbCircle
 10
0.0
 20
0.0
 30
0.0
 40
3.000000000000001
  0
HATCH
  5
12E
330
12A
100
AcDbEntity
  8
0
  6
Continuous
 62
     0
370
     0
100
AcDbHatch
 10
0.0
 20
0.0
 30
0.0
210
0.0
220
0.0
230
1.0
  2
SOLID
 70
     1
 71
     0
 91
        1
 92
        0
 93
        3
 72
     2
 10
0.0
 20
0.0
 40
3.000000000000001
 50
0.0
 51
90.0
 73
     1
 72
     1
 10
0.0
 20
3.000000000000001
 11
0.0
 21
0.0
 72
     1
 10
0.0
 20
0.0
 11
3.000000000000001
 21
0.0
 97
        0
 75
     0
 76
     1
 98
        1
 10
0.0
 20
0.0
  0
HATCH
  5
12F
330
12A
100
AcDbEntity
  8
0
  6
Continuous
 62
     0
370
     0
100
AcDbHatch
 10
0.0
 20
0.0
 30
0.0
210
0.0
220
0.0
230
1.0
  2
SOLID
 70
     1
 71
     0
 91
        1
 92
        0
 93
        3
 72
     2
 10
0.0
 20
0.0
 40
3.000000000000001
 50
180.0
 51
270.0000000000008
 73
     1
 72
     1
 10
0.0
 20
-3.000000000000001
 11
0.0
 21
0.0
 72
     1
 10
0.0
 20
0.0
 11
-3.000000000000001
 21
0.0
 97
        0
 75
     0
 76
     1
 98
        1
 10
0.0
 20
0.0
  0
ENDBLK
  5
12C
330
12A
100
AcDbEntity
  8
0
100
AcDbBlockEnd
  0
BLOCK
  5
191
330
190
100
AcDbEntity
  8
0
100
AcDbBlockBegin
  2
*D8
 70
     1
 10
0.0
 20
0.0
 30
0.0
  3
*D8
  1

  0
LINE
  5
193
330
190
100
AcDbEntity
  8
치수문자_일반주서
 62
     0
370
    -2
100
AcDbLine
 10
83.07069999999995
 20
9.276761832744846
 30
0.0
 11
83.07069999999995
 21
25.41461438121116
 31
0.0
  0
LINE
  5
194
330
190
100
AcDbEntity
  8
치수문자_일반주서
 62
     0
370
    -2
100
AcDbLine
 10
41.79569999999995
 20
6.780133273909215
 30
0.0
 11
41.79569999999995
 21
25.41461438121116
 31
0.0
  0
LINE
  5
195
330
190
100
AcDbEntity
  8
치수문자_일반주서
 62
     0
370
    -2
100
AcDbLine
 10
79.76869999999994
 20
25.41461438121116
 30
0.0
 11
45.09769999999995
 21
25.41461438121116
 31
0.0
  0
SOLID
  5
196
330
190
100
AcDbEntity
  8
치수문자_일반주서
 62
     0
100
AcDbTrace
 10
79.76869999999994
 20
24.86428104787783
 30
0.0
 11
79.76869999999994
 21
25.9649477145445
 31
0.0
 12
83.07069999999995
 22
25.41461438121116
 32
0.0
 13
83.07069999999995
 23
25.41461438121116
 33
0.0
  0
SOLID
  5
197
330
190
100
AcDbEntity
  8
치수문자_일반주서
 62
     0
100
AcDbTrace
 10
45.09769999999995
 20
25.9649477145445
 30
0.0
 11
45.09769999999995
 21
24.86428104787783
 31
0.0
 12
41.79569999999995
 22
25.41461438121116
 32
0.0
 13
41.79569999999995
 23
25.41461438121116
 33
0.0
  0
MTEXT
  5
198
330
190
100
AcDbEntity
  8
치수문자_일반주서
 62
     0
100
AcDbMText
 10
62.43319999999993
 20
30.28961438121116
 30
0.0
 40
4.0
 41
0.0
 71
     2
 72
     1
  1
\A1;41.28 [1 5/8]
  7
SLDTEXTSTYLE0
 73
     1
 44
1.0
  0
POINT
  5
199
330
190
100
AcDbEntity
  8
Defpoints
 62
     0
100
AcDbPoint
 10
83.07069999999995
 20
9.214261832744846
 30
0.0
  0
POINT
  5
19A
330
190
100
AcDbEntity
  8
Defpoints
 62
     0
100
AcDbPoint
 10
41.79569999999995
 20
6.717633273909215
 30
0.0
  0
POINT
  5
19B
330
190
100
AcDbEntity
  8
Defpoints
 62
     0
100
AcDbPoint
 10
41.79569999999995
 20
25.41461438121116
 30
0.0
  0
ENDBLK
  5
192
330
190
100
AcDbEntity
  8
0
100
AcDbBlockEnd
  0
BLOCK
  5
1A3
330
1A2
100
AcDbEntity
  8
0
100
AcDbBlockBegin
  2
*D9
 70
     1
 10
0.0
 20
0.0
 30
0.0
  3
*D9
  1

  0
LINE
  5
1A5
330
1A2
100
AcDbEntity
  8
치수문자_일반주서
 62
     0
370
    -2
100
AcDbLine
 10
137.5601630868027
 20
-28.63229076024783
 30
0.0
 11
137.5601630868027
 21
-12.49443821178152
 31
0.0
  0
LINE
  5
1A6
330
1A2
100
AcDbEntity
  8
치수문자_일반주서
 62
     0
370
    -2
100
AcDbLine
 10
96.2851630868027
 20
-31.12891931908347
 30
0.0
 11
96.2851630868027
 21
-12.49443821178152
 31
0.0
  0
LINE
  5
1A7
330
1A2
100
AcDbEntity
  8
치수문자_일반주서
 62
     0
370
    -2
100
AcDbLine
 10
134.2581630868027
 20
-12.49443821178152
 30
0.0
 11
99.58716308680269
 21
-12.49443821178152
 31
0.0
  0
SOLID
  5
1A8
330
1A2
100
AcDbEntity
  8
치수문자_일반주서
 62
     0
100
AcDbTrace
 10
134.2581630868027
 20
-13.04477154511485
 30
0.0
 11
134.2581630868027
 21
-11.94410487844818
 31
0.0
 12
137.5601630868027
 22
-12.49443821178152
 32
0.0
 13
137.5601630868027
 23
-12.49443821178152
 33
0.0
  0
SOLID
  5
1A9
330
1A2
100
AcDbEntity
  8
치수문자_일반주서
 62
     0
100
AcDbTrace
 10
99.58716308680269
 20
-11.94410487844818
 30
0.0
 11
99.58716308680269
 21
-13.04477154511485
 31
0.0
 12
96.2851630868027
 22
-12.49443821178152
 32
0.0
 13
96.2851630868027
 23
-12.49443821178152
 33
0.0
  0
MTEXT
  5
1AA
330
1A2
100
AcDbEntity
  8
치수문자_일반주서
 62
     0
100
AcDbMText
 10
116.9226630868027
 20
-7.619438211781517
 30
0.0
 40
4.0
 41
0.0
 71
     2
 72
     1
  1
\A1;41.28 [1 5/8]
  7
SLDTEXTSTYLE0
 73
     1
 44
1.0
  0
POINT
  5
1AB
330
1A2
100
AcDbEntity
  8
Defpoints
 62
     0
100
AcDbPoint
 10
137.5601630868027
 20
-28.69479076024783
 30
0.0
  0
POINT
  5
1AC
330
1A2
100
AcDbEntity
  8
Defpoints
 62
     0
100
AcDbPoint
 10
96.2851630868027
 20
-31.19141931908347
 30
0.0
  0
POINT
  5
1AD
330
1A2
100
AcDbEntity
  8
Defpoints
 62
     0
100
AcDbPoint
 10
96.2851630868027
 20
-12.49443821178152
 30
0.0
  0
ENDBLK
  5
1A4
330
1A2
100
AcDbEntity
  8
0
100
AcDbBlockEnd
  0
ENDSEC
  0
SECTION
  2
ENTITIES
  0
LINE
  5
96
330
1F
100
AcDbEntity
  8
외형선
  6
Continuous
370
    15
100
AcDbLine
 10
30.28761081259611
 20
12.69999999999999
 30
0.0
 11
8.458199999999962
 21
12.69999999999999
 31
0.0
  0
LINE
  5
97
330
1F
100
AcDbEntity
  8
외형선
  6
Continuous
370
    15
100
AcDbLine
 10
-30.28761081259617
 20
-12.70000000000001
 30
0.0
 11
30.28761081259611
 21
-12.7
 31
0.0
  0
SPLINE
  5
9A
330
1F
100
AcDbEntity
  8
외형선
  6
Continuous
370
    15
100
AcDbSpline
210
0.0
220
0.0
230
1.0
 70
     8
 71
     3
 72
     9
 73
     5
 74
     0
 42
0.000000001
 43
0.00000001
 40
0.0
 40
0.0
 40
0.0
 40
0.0
 40
0.5134152951130191
 40
1.0
 40
1.0
 40
1.0
 40
1.0
 10
33.33750000000004
 20
9.939487277299609
 30
0.0
 10
32.90096805561677
 20
9.932559342376882
 30
0.0
 10
32.05071690700776
 20
9.919065519756737
 30
0.0
 10
31.20077831658746
 20
9.918429673093254
 30
0.0
 10
30.78721119839574
 20
9.918120279832152
 30
0.0
  0
SPLINE
  5
9B
330
1F
100
AcDbEntity
  8
외형선
  6
Continuous
370
    15
100
AcDbSpline
210
0.0
220
0.0
230
1.0
 70
     8
 71
     3
 72
    15
 73
    11
 74
     0
 42
0.000000001
 43
0.00000001
 40
0.0
 40
0.0
 40
0.0
 40
0.0
 40
0.0244565305943415
 40
0.0541440412059384
 40
0.14549988211492
 40
0.4992080449010887
 40
0.8529115144652595
 40
0.9446926652747172
 40
0.9748701462070619
 40
1.0
 40
1.0
 40
1.0
 40
1.0
 10
30.78652993422336
 20
9.918313302500133
 30
0.0
 10
30.78424016376013
 20
9.91876400065233
 30
0.0
 10
30.77917086638637
 20
9.919761796281177
 30
0.0
 10
30.75577363102797
 20
9.933490939956648
 30
0.0
 10
30.66536800591392
 20
10.00468820002118
 30
0.0
 10
30.51667545003778
 20
10.14770306579357
 30
0.0
 10
30.37357744985784
 20
10.29663221865356
 30
0.0
 10
30.30259473068045
 20
10.38606605545374
 30
0.0
 10
30.28902272128708
 20
10.40862082226974
 30
0.0
 10
30.28805191527047
 20
10.41326827598838
 30
0.0
 10
30.28761081259611
 20
10.41537992777993
 30
0.0
  0
SPLINE
  5
9C
330
1F
100
AcDbEntity
  8
외형선
  6
Continuous
370
    15
100
AcDbSpline
210
0.0
220
0.0
230
1.0
 70
     8
 71
     3
 72
     9
 73
     5
 74
     0
 42
0.000000001
 43
0.00000001
 40
0.0
 40
0.0
 40
0.0
 40
0.0
 40
0.4442159744532239
 40
1.0
 40
1.0
 40
1.0
 40
1.0
 10
30.28765318366938
 20
-9.92043464141012
 30
0.0
 10
30.72866068319137
 20
-9.91866971489613
 30
0.0
 10
31.72143790167123
 20
-9.914696587823954
 30
0.0
 10
32.76018240077408
 20
-9.930631119268293
 30
0.0
 10
33.33750000000003
 20
-9.939487277299627
 30
0.0
  0
LINE
  5
9D
330
1F
100
AcDbEntity
  8
0
  6
Continuous
 62
     1
370
    15
100
AcDbLine
 10
38.23568897923963
 20
4.991234211863299
 30
0.0
 11
38.18712037573611
 21
5.016473112540063
 31
0.0
1001
PE_URL
1000

  0
SPLINE
  5
9E
330
1F
100
AcDbEntity
  8
0
  6
Continuous
 62
     1
370
    15
100
AcDbSpline
210
0.0
220
0.0
230
1.0
 70
     8
 71
     3
 72
    10
 73
     6
 74
     0
 42
0.000000001
 43
0.00000001
 40
0.0
 40
0.0
 40
0.0
 40
0.0
 40
0.4610269080958186
 40
0.6278203800406557
 40
0.9999999999999999
 40
0.9999999999999999
 40
0.9999999999999999
 40
0.9999999999999999
 10
41.70993445472384
 20
3.254372496492919
 30
0.0
 10
41.17471397003847
 20
3.509576036002171
 30
0.0
 10
40.44585775318862
 20
3.857108859680911
 30
0.0
 10
39.29633093576055
 20
4.434674926761421
 30
0.0
 10
38.66893064680108
 20
4.763895786024221
 30
0.0
 10
38.23568897923963
 20
4.991234211863299
 30
0.0
1001
PE_URL
1000

  0
LINE
  5
9F
330
1F
100
AcDbEntity
  8
0
  6
Continuous
 62
     1
370
    15
100
AcDbLine
 10
34.68921865889386
 20
3.574176163163733
 30
0.0
 11
34.54958456257707
 21
3.651209552347478
 31
0.0
1001
PE_URL
1000

  0
SPLINE
  5
A0
330
1F
100
AcDbEntity
  8
0
  6
Continuous
 62
     1
370
    15
100
AcDbSpline
210
0.0
220
0.0
230
1.0
 70
     8
 71
     3
 72
     9
 73
     5
 74
     0
 42
0.000000001
 43
0.00000001
 40
0.0
 40
0.0
 40
0.0
 40
0.0
 40
0.4999070183579613
 40
1.0
 40
1.0
 40
1.0
 40
1.0
 10
37.51252440917636
 20
10.09192116887869
 30
0.0
 10
36.81551356534402
 20
10.05765709772178
 30
0.0
 10
35.42123259261071
 20
9.989116209319276
 30
0.0
 10
34.03216363614524
 20
9.956032305436642
 30
0.0
 10
33.33750000000003
 20
9.939487277299614
 30
0.0
1001
PE_URL
1000

  0
SPLINE
  5
A1
330
1F
100
AcDbEntity
  8
0
  6
Continuous
 62
     1
370
    15
100
AcDbSpline
210
0.0
220
0.0
230
1.0
 70
     8
 71
     3
 72
    29
 73
    25
 74
     0
 42
0.000000001
 43
0.00000001
 40
0.0
 40
0.0
 40
0.0
 40
0.0
 40
0.0684085709394976
 40
0.1230693880202409
 40
0.1640014538483975
 40
0.1912334947773948
 40
0.2172380402350778
 40
0.2466600150898899
 40
0.2814672697686008
 40
0.3217806496949205
 40
0.3946773139677202
 40
0.4784489149644338
 40
0.542090279295242
 40
0.598068172538889
 40
0.6532375774801394
 40
0.7071344688905681
 40
0.7299753987007663
 40
0.7495818201359092
 40
0.7664365747204999
 40
0.7903786183576073
 40
0.8257539841682414
 40
0.8725878921207504
 40
0.9306814385438106
 40
1.0
 40
1.0
 40
1.0
 40
1.0
 10
69.89425311207354
 20
8.686217254783669
 30
0.0
 10
69.40033289708789
 20
8.645894575077264
 30
0.0
 10
68.51175332651229
 20
8.57335267796334
 30
0.0
 10
67.3252766731374
 20
8.497759426485832
 30
0.0
 10
66.42937205420932
 20
8.45055888405849
 30
0.0
 10
65.73124641262841
 20
8.420569950501697
 30
0.0
 10
65.09578305332607
 20
8.40057970836942
 30
0.0
 10
64.41061654985606
 20
8.381551630884225
 30
0.0
 10
63.62056402701325
 20
8.365797815704479
 30
0.0
 10
62.50939091566356
 20
8.354147201922562
 30
0.0
 10
61.04534837421885
 20
8.360749391469861
 30
0.0
 10
59.43526733795108
 20
8.40107090829974
 30
0.0
 10
57.94945534055135
 20
8.464778368252425
 30
0.0
 10
56.65165266181255
 20
8.540208042775337
 30
0.0
 10
55.42949549041466
 20
8.628477460448405
 30
0.0
 10
54.45439009088876
 20
8.711547338842854
 30
0.0
 10
53.73338176683217
 20
8.779845408386988
 30
0.0
 10
53.28668327893327
 20
8.824502527913193
 30
0.0
 10
52.82704803056325
 20
8.872156561704216
 30
0.0
 10
52.25559338381717
 20
8.934321249220162
 30
0.0
 10
51.46870638737191
 20
9.025561261647246
 30
0.0
 10
50.43412129975063
 20
9.155418308675767
 30
0.0
 10
49.15362587201143
 20
9.330193490850005
 30
0.0
 10
48.21730973843557
 20
9.473905723235918
 30
0.0
 10
47.70790691535998
 20
9.552092367962729
 30
0.0
1001
PE_URL
1000

  0
SPLINE
  5
A2
330
1F
100
AcDbEntity
  8
0
  6
Continuous
 62
     1
370
    15
100
AcDbSpline
210
0.0
220
0.0
230
1.0
 70
     8
 71
     3
 72
    15
 73
    11
 74
     0
 42
0.000000001
 43
0.00000001
 40
0.0
 40
0.0
 40
0.0
 40
0.0
 40
0.1446767480472222
 40
0.269209929447942
 40
0.3754457632373384
 40
0.5358922100540598
 40
0.6785613499677403
 40
0.8109322277071462
 40
0.940322776169353
 40
1.0
 40
1.0
 40
1.0
 40
1.0
 10
47.70790691535998
 20
-9.552092367962741
 30
0.0
 10
48.12948291759024
 20
-9.485988457106993
 30
0.0
 10
48.91393824541048
 20
-9.362984384801596
 30
0.0
 10
50.06496784193521
 20
-9.194381124515576
 30
0.0
 10
51.32659371062914
 20
-9.032684302360664
 30
0.0
 10
52.6724482311086
 20
-8.887760139875704
 30
0.0
 10
54.09626913068773
 20
-8.741018662027965
 30
0.0
 10
55.42248546677944
 20
-8.625864387934715
 30
0.0
 10
56.39315026337189
 20
-8.557107366382288
 30
0.0
 10
56.9815779460524
 20
-8.523251046575355
 30
0.0
 10
57.16730886201771
 20
-8.512564660679452
 30
0.0
1001
PE_URL
1000

  0
SPLINE
  5
A3
330
1F
100
AcDbEntity
  8
0
  6
Continuous
 62
     1
370
    15
100
AcDbSpline
210
0.0
220
0.0
230
1.0
 70
     8
 71
     3
 72
     9
 73
     5
 74
     0
 42
0.000000001
 43
0.00000001
 40
0.0
 40
0.0
 40
0.0
 40
0.0
 40
0.5000929816420387
 40
1.0
 40
1.0
 40
1.0
 40
1.0
 10
33.33750000000003
 20
-9.939487277299625
 30
0.0
 10
34.03216363614524
 20
-9.95603230543665
 30
0.0
 10
35.42123259261071
 20
-9.989116209319281
 30
0.0
 10
36.81551356534402
 20
-10.05765709772179
 30
0.0
 10
37.51252440917636
 20
-10.0919211688787
 30
0.0
1001
PE_URL
1000

  0
SPLINE
  5
A4
330
1F
100
AcDbEntity
  8
외형선
  6
Continuous
370
    15
100
AcDbSpline
210
0.0
220
0.0
230
1.0
 70
     8
 71
     3
 72
    10
 73
     6
 74
     0
 42
0.000000001
 43
0.00000001
 40
0.0
 40
0.0
 40
0.0
 40
0.0
 40
0.5000000000000001
 40
0.5000000000000001
 40
1.0
 40
1.0
 40
1.0
 40
1.0
 10
33.33750000000003
 20
7.446721624469292
 30
0.0
 10
32.82852042277708
 20
7.684567226967086
 30
0.0
 10
32.31887695914897
 20
7.916538245378725
 30
0.0
 10
31.30193482506662
 20
8.36707182130109
 30
0.0
 10
30.79592368513402
 20
8.585462560442124
 30
0.0
 10
30.28772682781811
 20
8.79712200006722
 30
0.0
  0
LINE
  5
A5
330
1F
100
AcDbEntity
  8
외형선
  6
Continuous
370
    15
100
AcDbLine
 10
33.33750000000003
 20
7.446721624469292
 30
0.0
 11
33.33750000000003
 21
4.31582751875631
 31
0.0
  0
SPLINE
  5
A6
330
1F
100
AcDbEntity
  8
외형선
  6
Continuous
370
    15
100
AcDbSpline
210
0.0
220
0.0
230
1.0
 70
     8
 71
     3
 72
    10
 73
     6
 74
     0
 42
0.000000001
 43
0.00000001
 40
0.0
 40
0.0
 40
0.0
 40
0.0
 40
0.5
 40
0.5
 40
1.0
 40
1.0
 40
1.0
 40
1.0
 10
33.33750000000003
 20
4.315827518756309
 30
0.0
 10
32.82850105712979
 20
4.591981233107697
 30
0.0
 10
32.31883817740115
 20
4.864789966932774
 30
0.0
 10
31.30185752902764
 20
5.401758808994049
 30
0.0
 10
30.79582721408887
 20
5.665703784534663
 30
0.0
 10
30.28761081259612
 20
5.925282220656461
 30
0.0
  0
LINE
  5
A7
330
1F
100
AcDbEntity
  8
외형선
  6
Continuous
370
    15
100
AcDbLine
 10
30.28761081259612
 20
8.797514552226684
 30
0.0
 11
30.28761081259611
 21
12.69999999999999
 31
0.0
  0
LINE
  5
A9
330
1F
100
AcDbEntity
  8
외형선
  6
Continuous
370
    15
100
AcDbLine
 10
30.28761081259611
 20
-12.7
 30
0.0
 11
30.28761081259612
 21
5.925284874232199
 31
0.0
  0
SPLINE
  5
AB
330
1F
100
AcDbEntity
  8
외형선
  6
Continuous
370
    15
100
AcDbSpline
210
0.0
220
0.0
230
1.0
 70
    24
 71
     3
 72
    10
 73
     6
 74
     0
 42
0.000000001
 43
0.00000001
 40
0.0
 40
0.0
 40
0.0
 40
0.0
 40
0.4999999999999999
 40
0.4999999999999999
 40
1.0
 40
1.0
 40
1.0
 40
1.0
 10
33.33750000000003
 20
4.315827518756294
 30
0.0
 10
33.33750000000003
 20
4.279658615326983
 30
0.0
 10
33.33750000000003
 20
4.110592275494118
 30
0.0
 10
33.33750000000003
 20
3.536403249295893
 30
0.0
 10
33.33750000000003
 20
3.133699623960422
 30
0.0
 10
33.33750000000003
 20
2.674846316482873
 30
0.0
  0
SPLINE
  5
AC
330
1F
100
AcDbEntity
  8
외형선
  6
Continuous
370
    15
100
AcDbSpline
210
0.0
220
0.0
230
1.0
 70
     8
 71
     3
 72
    10
 73
     6
 74
     0
 42
0.000000001
 43
0.00000001
 40
0.0
 40
0.0
 40
0.0
 40
0.0
 40
0.5
 40
0.5
 40
1.0
 40
1.0
 40
1.0
 40
1.0
 10
33.33750000000003
 20
2.674846316482875
 30
0.0
 10
32.82850572366787
 20
2.870859885713889
 30
0.0
 10
32.3188475226352
 20
3.064811132365839
 30
0.0
 10
31.30187615504436
 20
3.447195878410514
 30
0.0
 10
30.79585046071178
 20
3.635475267125552
 30
0.0
 10
30.28763876877687
 20
3.820964835720193
 30
0.0
  0
SPLINE
  5
AD
330
1F
100
AcDbEntity
  8
외형선
  6
Continuous
370
    15
100
AcDbSpline
210
0.0
220
0.0
230
1.0
 70
     8
 71
     3
 72
    10
 73
     6
 74
     0
 42
0.000000001
 43
0.00000001
 40
0.0
 40
0.0
 40
0.0
 40
0.0
 40
0.5000000000000001
 40
0.5000000000000001
 40
1.0
 40
1.0
 40
1.0
 40
1.0
 10
33.33750000000003
 20
-9.689197666626093
 30
0.0
 10
32.82850812984955
 20
-9.618520521853256
 30
0.0
 10
32.31885234126742
 20
-9.540034571421144
 30
0.0
 10
31.30188575907667
 20
-9.36802604665634
 30
0.0
 10
30.79586244724044
 20
-9.274597583487251
 30
0.0
 10
30.28765318366938
 20
-9.173688581716458
 30
0.0
  0
SPLINE
  5
AE
330
1F
100
AcDbEntity
  8
외형선
  6
Continuous
370
    15
100
AcDbSpline
210
0.0
220
0.0
230
1.0
 70
    24
 71
     3
 72
    14
 73
    10
 74
     0
 42
0.000000001
 43
0.00000001
 40
0.0
 40
0.0
 40
0.0
 40
0.0
 40
0.25
 40
0.25
 40
0.4999999999999999
 40
0.4999999999999999
 40
0.75
 40
0.75
 40
1.0
 40
1.0
 40
1.0
 40
1.0
 10
33.33750000000002
 20
2.674846316482878
 30
0.0
 10
33.33750000000002
 20
1.554485769315655
 30
0.0
 10
33.33750000000002
 20
0.3856054938153922
 30
0.0
 10
33.33750000000002
 20
-1.945594131518681
 30
0.0
 10
33.33750000000002
 20
-3.106767436886732
 30
0.0
 10
33.33750000000002
 20
-5.30421452179838
 30
0.0
 10
33.33750000000002
 20
-6.339317409663784
 30
0.0
 10
33.33750000000002
 20
-8.190148010146235
 30
0.0
 10
33.33750000000002
 20
-9.005404382512431
 30
0.0
 10
33.33750000000002
 20
-9.689197666626095
 30
0.0
  0
SPLINE
  5
AF
330
1F
100
AcDbEntity
  8
외형선
  6
Continuous
370
    15
100
AcDbSpline
210
0.0
220
0.0
230
1.0
 70
    24
 71
     3
 72
    12
 73
     8
 74
     0
 42
0.000000001
 43
0.00000001
 40
0.0
 40
0.0
 40
0.0
 40
0.0
 40
0.0488393199348688
 40
0.3353008796498038
 40
0.6300698440027561
 40
0.88902373406671
 40
1.0
 40
1.0
 40
1.0
 40
1.0
 10
33.33750000000003
 20
9.922574482852257
 30
0.0
 10
33.33750000000003
 20
9.926307885018904
 30
0.0
 10
33.33750000000003
 20
9.95193913934909
 30
0.0
 10
33.33750000000003
 20
9.70110580773992
 30
0.0
 10
33.33750000000003
 20
9.055033931987081
 30
0.0
 10
33.33750000000003
 20
8.307951177836175
 30
0.0
 10
33.33750000000003
 20
7.72605480450625
 30
0.0
 10
33.33750000000003
 20
7.551490266781028
 30
0.0
  0
SPLINE
  5
B0
330
1F
100
AcDbEntity
  8
외형선
  6
Continuous
370
    15
100
AcDbSpline
210
0.0
220
0.0
230
1.0
 70
    24
 71
     3
 72
     9
 73
     5
 74
     0
 42
0.000000001
 43
0.00000001
 40
0.0
 40
0.0
 40
0.0
 40
0.0
 40
0.5713337064870135
 40
1.0
 40
1.0
 40
1.0
 40
1.0
 10
33.33750000000003
 20
-9.689197666626097
 30
0.0
 10
33.33750000000003
 20
-9.776153382331168
 30
0.0
 10
33.33750000000003
 20
-9.928351151721913
 30
0.0
 10
33.33750000000003
 20
-9.924307608846664
 30
0.0
 10
33.33750000000003
 20
-9.92257427830967
 30
0.0
  0
SPLINE
  5
B1
330
1F
100
AcDbEntity
  8
0
  6
Continuous
 62
     1
370
    15
100
AcDbSpline
210
0.0
220
0.0
230
1.0
 70
     8
 71
     3
 72
    46
 73
    42
 74
     0
 42
0.000000001
 43
0.00000001
 40
0.0
 40
0.0
 40
0.0
 40
0.0
 40
0.0625000000000011
 40
0.0625000000000011
 40
0.1250000000000022
 40
0.1250000000000022
 40
0.1562500000000025
 40
0.1562500000000025
 40
0.1875000000000028
 40
0.1875000000000028
 40
0.2500000000000031
 40
0.2500000000000031
 40
0.281250000000003
 40
0.281250000000003
 40
0.3125000000000029
 40
0.3125000000000029
 40
0.3750000000000027
 40
0.3750000000000027
 40
0.4375000000000025
 40
0.4375000000000025
 40
0.5000000000000023
 40
0.5000000000000023
 40
0.5625000000000022
 40
0.5625000000000022
 40
0.6250000000000019
 40
0.6250000000000019
 40
0.6875000000000017
 40
0.6875000000000017
 40
0.7187500000000016
 40
0.7187500000000016
 40
0.7500000000000014
 40
0.7500000000000014
 40
0.7812500000000013
 40
0.7812500000000013
 40
0.8125000000000012
 40
0.8125000000000012
 40
0.8750000000000008
 40
0.8750000000000008
 40
0.9375000000000004
 40
0.9375000000000004
 40
1.0
 40
1.0
 40
1.0
 40
1.0
 10
74.61250000000003
 20
-12.05154903924513
 30
0.0
 10
73.75552336815083
 20
-11.89511349864417
 30
0.0
 10
72.89229595826376
 20
-11.7106409071992
 30
0.0
 10
71.17107464804026
 20
-11.28918609935062
 30
0.0
 10
70.31477866983165
 20
-11.05246802764861
 30
0.0
 10
69.02287754825451
 20
-10.65953923207231
 30
0.0
 10
68.59198877638488
 20
-10.52234161189882
 30
0.0
 10
67.7319226578177
 20
-10.23622812879244
 30
0.0
 10
67.30377830225737
 20
-10.08744021235875
 30
0.0
 10
66.01536930258334
 20
-9.623559513695907
 30
0.0
 10
65.15177063034966
 20
-9.290919085209682
 30
0.0
 10
63.8627038464539
 20
-8.761992708821202
 30
0.0
 10
63.43470675507269
 20
-8.580802875162862
 30
0.0
 10
62.57500046485351
 20
-8.20828219595553
 30
0.0
 10
62.14418213912563
 20
-8.01706845283945
 30
0.0
 10
60.85216213924707
 20
-7.430019351370407
 30
0.0
 10
59.99554036066299
 20
-7.021439379603729
 30
0.0
 10
58.27488091676711
 20
-6.172837891571613
 30
0.0
 10
57.4114936893781
 20
-5.732859573800205
 30
0.0
 10
55.69635015507045
 20
-4.83068119810712
 30
0.0
 10
54.83446793172739
 20
-4.366722108927342
 30
0.0
 10
53.11277146257334
 20
-3.421262996181764
 30
0.0
 10
52.25666103708051
 20
-2.940479938841583
 30
0.0
 10
50.53437164099405
 20
-1.965772145040639
 30
0.0
 10
49.67439954836404
 20
-1.473007406397304
 30
0.0
 10
47.95748407398065
 20
-0.4835734897888005
 30
0.0
 10
47.09392925733103
 20
0.0143662456866196
 30
0.0
 10
45.80426940921312
 20
0.7584312913247184
 30
0.0
 10
45.37625799461129
 20
1.005800388957487
 30
0.0
 10
44.51695473452716
 20
1.499733638927588
 30
0.0
 10
44.08622861799556
 20
1.746187810395787
 30
0.0
 10
43.22484617668377
 20
2.236796257899981
 30
0.0
 10
42.79419112560876
 20
2.480949808911088
 30
0.0
 10
41.93517090886834
 20
2.965704551652907
 30
0.0
 10
41.50706444300771
 20
3.206260829992864
 30
0.0
 10
40.21705621956301
 20
3.923068356389053
 30
0.0
 10
39.35355299435165
 20
4.393657964567734
 30
0.0
 10
37.63730487746099
 20
5.310637641695527
 30
0.0
 10
36.77662853062944
 20
5.758454978466907
 30
0.0
 10
35.05454368982193
 20
6.625757965686913
 30
0.0
 10
34.19847853820137
 20
7.044387290597891
 30
0.0
 10
33.33749999999628
 20
7.446721624471048
 30
0.0
1001
PE_URL
1000

  0
SPLINE
  5
B2
330
1F
100
AcDbEntity
  8
0
  6
Continuous
 62
     1
370
    15
100
AcDbSpline
210
0.0
220
0.0
230
1.0
 70
     8
 71
     3
 72
    16
 73
    12
 74
     0
 42
0.000000001
 43
0.00000001
 40
0.0
 40
0.0
 40
0.0
 40
0.0
 40
0.1120661135386513
 40
0.2241326895656381
 40
0.336199713348636
 40
0.4482671701409408
 40
0.5603350451819366
 40
0.6724033236975651
 40
0.7844719909007971
 40
0.8965410319921036
 40
1.0
 40
1.0
 40
1.0
 40
1.0
 10
74.61250000000003
 20
-10.01994775747635
 30
0.0
 10
73.38128514132481
 20
-9.76787642252361
 30
0.0
 10
70.9188503428442
 20
-9.263732712338888
 30
0.0
 10
67.2251877972698
 20
-8.171385597605864
 30
0.0
 10
63.53150847077982
 20
-6.86941221099013
 30
0.0
 10
59.83781270985136
 20
-5.368727229294117
 30
0.0
 10
56.14410112643353
 20
-3.718610758607707
 30
0.0
 10
52.45037427769513
 20
-1.962937103527934
 30
0.0
 10
48.75663267759449
 20
-0.1542147988806096
 30
0.0
 10
45.15747599881028
 20
1.619970513065586
 30
0.0
 10
42.78956571539879
 20
2.740535756971068
 30
0.0
 10
41.65290809358464
 20
3.278435792351698
 30
0.0
1001
PE_URL
1000

  0
LINE
  5
B3
330
1F
100
AcDbEntity
  8
0
  6
Continuous
 62
     1
370
    15
100
AcDbLine
 10
74.61249999999976
 20
-12.05154903924513
 30
0.0
 11
74.61250000000003
 21
-10.01994775747635
 31
0.0
1001
PE_URL
1000

  0
SPLINE
  5
B4
330
1F
100
AcDbEntity
  8
0
  6
Continuous
 62
     1
370
    15
100
AcDbSpline
210
0.0
220
0.0
230
1.0
 70
     8
 71
     3
 72
    46
 73
    42
 74
     0
 42
0.000000001
 43
0.00000001
 40
0.0
 40
0.0
 40
0.0
 40
0.0
 40
0.0625000000000005
 40
0.0625000000000005
 40
0.125000000000001
 40
0.125000000000001
 40
0.1562500000000012
 40
0.1562500000000012
 40
0.1875000000000015
 40
0.1875000000000015
 40
0.2500000000000016
 40
0.2500000000000016
 40
0.2812500000000017
 40
0.2812500000000017
 40
0.3125000000000018
 40
0.3125000000000018
 40
0.3750000000000017
 40
0.3750000000000017
 40
0.4375000000000017
 40
0.4375000000000017
 40
0.5000000000000016
 40
0.5000000000000016
 40
0.5625000000000016
 40
0.5625000000000016
 40
0.6250000000000016
 40
0.6250000000000016
 40
0.6875000000000012
 40
0.6875000000000012
 40
0.7187500000000012
 40
0.7187500000000012
 40
0.7500000000000011
 40
0.7500000000000011
 40
0.781250000000001
 40
0.781250000000001
 40
0.8125000000000009
 40
0.8125000000000009
 40
0.8750000000000007
 40
0.8750000000000007
 40
0.9375000000000003
 40
0.9375000000000003
 40
1.0
 40
1.0
 40
1.0
 40
1.0
 10
74.61250000000003
 20
-12.7
 30
0.0
 10
73.75552336815092
 20
-12.66888172996807
 30
0.0
 10
72.89229595826396
 20
-12.61932649145726
 30
0.0
 10
71.17107464804059
 20
-12.46264914720379
 30
0.0
 10
70.31477866983207
 20
-12.35571397793478
 30
0.0
 10
69.02287754825502
 20
-12.15290962277116
 30
0.0
 10
68.59198877638543
 20
-12.07827821850325
 30
0.0
 10
67.73192265781833
 20
-11.91535975286441
 30
0.0
 10
67.30377830225802
 20
-11.82715334534657
 30
0.0
 10
66.01536930258412
 20
-11.54211402367307
 30
0.0
 10
65.15177063035051
 20
-11.32478006311305
 30
0.0
 10
63.86270384645486
 20
-10.96114974958545
 30
0.0
 10
63.43470675507371
 20
-10.83376004118904
 30
0.0
 10
62.5750004648546
 20
-10.56635290185847
 30
0.0
 10
62.14418213912676
 20
-10.42641308132184
 30
0.0
 10
60.85216213924832
 20
-9.988932830999335
 30
0.0
 10
59.99554036066431
 20
-9.674245209912145
 30
0.0
 10
58.2748809167686
 20
-9.001124794393327
 30
0.0
 10
57.41149368937966
 20
-8.642684253806749
 30
0.0
 10
55.69635015507214
 20
-7.889541450259365
 30
0.0
 10
54.83446793172921
 20
-7.493378792072482
 30
0.0
 10
53.1127714625753
 20
-6.668806267028055
 30
0.0
 10
52.25666103708252
 20
-6.241054631410266
 30
0.0
 10
50.53437164099625
 20
-5.357253144744909
 30
0.0
 10
49.6743995483663
 20
-4.902233731272998
 30
0.0
 10
47.95748407398308
 20
-3.972395501729449
 30
0.0
 10
47.09392925733353
 20
-3.496364889126046
 30
0.0
 10
45.80426940921572
 20
-2.772974201691866
 30
0.0
 10
45.37625799461393
 20
-2.530470033960618
 30
0.0
 10
44.51695473452989
 20
-2.042225637007507
 30
0.0
 10
44.08622861799833
 20
-1.796589293843958
 30
0.0
 10
43.22484617668661
 20
-1.303549287776618
 30
0.0
 10
42.79419112561165
 20
-1.056146354259563
 30
0.0
 10
41.93517090887129
 20
-0.5608535141949746
 30
0.0
 10
41.50706444301071
 20
-0.3130141863220733
 30
0.0
 10
40.21705621956615
 20
0.4317098346948979
 30
0.0
 10
39.35355299435485
 20
0.9290096166786531
 30
0.0
 10
37.63730487746432
 20
1.915024006059608
 30
0.0
 10
36.77662853063289
 20
2.405258308834967
 30
0.0
 10
35.05454368982552
 20
3.372593096460401
 30
0.0
 10
34.19847853820504
 20
3.848709807349272
 30
0.0
 10
33.33750000000003
 20
4.315827518756305
 30
0.0
1001
PE_URL
1000

  0
SPLINE
  5
B5
330
1F
100
AcDbEntity
  8
0
  6
Continuous
 62
     1
370
    15
100
AcDbSpline
210
0.0
220
0.0
230
1.0
 70
     8
 71
     3
 72
    10
 73
     6
 74
     0
 42
0.000000001
 43
0.00000001
 40
0.0
 40
0.0
 40
0.0
 40
0.0
 40
0.1743444635474942
 40
0.5871529655879844
 40
0.9999999999999999
 40
0.9999999999999999
 40
0.9999999999999999
 40
0.9999999999999999
 10
43.06491914430701
 20
-1.206144002427997
 30
0.0
 10
42.49963028724994
 20
-0.9808585383968312
 30
0.0
 10
40.59586447741975
 20
-0.2221477332571561
 30
0.0
 10
37.35335367276286
 20
1.102745642687854
 30
0.0
 10
34.67615953808677
 20
2.15079645478549
 30
0.0
 10
33.33750000000003
 20
2.674846316482872
 30
0.0
1001
PE_URL
1000

  0
SPLINE
  5
B6
330
1F
100
AcDbEntity
  8
외형선
  6
Continuous
370
    15
100
AcDbSpline
210
0.0
220
0.0
230
1.0
 70
    24
 71
     3
 72
    10
 73
     6
 74
     0
 42
0.000000001
 43
0.00000001
 40
0.0
 40
0.0
 40
0.0
 40
0.0
 40
0.5
 40
0.5
 40
1.0
 40
1.0
 40
1.0
 40
1.0
 10
33.33750000000003
 20
4.315827518756294
 30
0.0
 10
33.33750000000003
 20
4.279658615326984
 30
0.0
 10
33.33750000000003
 20
4.110592275494118
 30
0.0
 10
33.33750000000003
 20
3.536403249295894
 30
0.0
 10
33.33750000000003
 20
3.133699623960423
 30
0.0
 10
33.33750000000003
 20
2.674846316482873
 30
0.0
  0
LINE
  5
B7
330
1F
100
AcDbEntity
  8
0
  6
Continuous
 62
     1
370
    15
100
AcDbLine
 10
74.61250000000003
 20
-12.7
 30
0.0
 11
74.6124999999997
 21
-12.05154903924511
 31
0.0
1001
PE_URL
1000

  0
SPLINE
  5
B8
330
1F
100
AcDbEntity
  8
0
  6
Continuous
 62
     1
370
    15
100
AcDbSpline
210
0.0
220
0.0
230
1.0
 70
     8
 71
     3
 72
    10
 73
     6
 74
     0
 42
0.000000001
 43
0.00000001
 40
0.0
 40
0.0
 40
0.0
 40
0.0
 40
0.5
 40
0.5
 40
1.0
 40
1.0
 40
1.0
 40
1.0
 10
74.61250000000003
 20
-3.393985414576489
 30
0.0
 10
73.76190223300546
 20
-2.72527650021991
 30
0.0
 10
72.91993926415033
 20
-2.038875865003514
 30
0.0
 10
71.25304037091928
 20
-0.6311881139455381
 30
0.0
 10
70.42810326807886
 20
0.0900965873561285
 30
0.0
 10
69.61250000000169
 20
0.8305052561804191
 30
0.0
1001
PE_URL
1000

  0
LINE
  5
B9
330
1F
100
AcDbEntity
  8
0
  6
Continuous
 62
     1
370
    15
100
AcDbLine
 10
69.61250000000003
 20
2.937719435296586
 30
0.0
 11
74.61250000000003
 21
-0.0000000000000004
 31
0.0
1001
PE_URL
1000

  0
LINE
  5
BA
330
1F
100
AcDbEntity
  8
0
  6
Continuous
 62
     1
370
    15
100
AcDbLine
 10
74.61250000000003
 20
-0.0000000000000004
 30
0.0
 11
74.61250000000003
 21
-3.393985414576491
 31
0.0
1001
PE_URL
1000

  0
SPLINE
  5
BB
330
1F
100
AcDbEntity
  8
0
  6
Continuous
 62
     1
370
    15
100
AcDbSpline
210
0.0
220
0.0
230
1.0
 70
     8
 71
     3
 72
    16
 73
    12
 74
     0
 42
0.000000001
 43
0.00000001
 40
0.0
 40
0.0
 40
0.0
 40
0.0
 40
0.0947059384359922
 40
0.1894438310275897
 40
0.3045084430810176
 40
0.4195734906580349
 40
0.5346389583728568
 40
0.6497048308261454
 40
0.764771092605503
 40
0.8798377282859651
 40
1.0
 40
1.0
 40
1.0
 40
1.0
 10
69.61250000000001
 20
2.289784744250641
 30
0.0
 10
68.59920246735174
 20
2.741624217379325
 30
0.0
 10
66.57226551148779
 20
3.645455616049615
 30
0.0
 10
63.31401719987854
 20
5.010731657634251
 30
0.0
 10
59.83778059132186
 20
6.35263469849231
 30
0.0
 10
56.14407258256801
 20
7.598569065333386
 30
0.0
 10
52.45033619848307
 20
8.63065348904103
 30
0.0
 10
48.75659236597568
 20
9.421524563019226
 30
0.0
 10
45.0628184080438
 20
9.941114702087923
 30
0.0
 10
41.31456663824117
 20
10.20829163821339
 30
0.0
 10
38.79740690364904
 20
10.12700792776444
 30
0.0
 10
37.51156310440703
 20
10.08548567010879
 30
0.0
1001
PE_URL
1000

  0
SPLINE
  5
BC
330
1F
100
AcDbEntity
  8
0
  6
Continuous
 62
     1
370
    15
100
AcDbSpline
210
0.0
220
0.0
230
1.0
 70
    24
 71
     3
 72
     8
 73
     4
 74
     0
 42
0.000000001
 43
0.00000001
 40
0.0
 40
0.0
 40
0.0
 40
0.0
 40
1.0
 40
1.0
 40
1.0
 40
1.0
 10
69.61250000000004
 20
0.8305052561693492
 30
0.0
 10
69.61250000000004
 20
1.322728240362225
 30
0.0
 10
69.61250000000004
 20
1.810406971894839
 30
0.0
 10
69.61250000000004
 20
2.289784744250638
 30
0.0
1001
PE_URL
1000

  0
SPLINE
  5
BD
330
1F
100
AcDbEntity
  8
0
  6
Continuous
 62
     1
370
    15
100
AcDbSpline
210
0.0
220
0.0
230
1.0
 70
    24
 71
     3
 72
    12
 73
     8
 74
     0
 42
0.000000001
 43
0.00000001
 40
0.0
 40
0.0
 40
0.0
 40
0.0
 40
0.4999999999999998
 40
0.4999999999999998
 40
0.7499999999999999
 40
0.7499999999999999
 40
1.0
 40
1.0
 40
1.0
 40
1.0
 10
74.61250000000003
 20
-10.01994775747634
 30
0.0
 10
74.61250000000003
 20
-9.251840640348325
 30
0.0
 10
74.61250000000003
 20
-8.281307845612153
 30
0.0
 10
74.61250000000003
 20
-6.589011337313267
 30
0.0
 10
74.61250000000003
 20
-5.98648455740601
 30
0.0
 10
74.61250000000005
 20
-4.725678605577812
 30
0.0
 10
74.61250000000003
 20
-4.067494970664267
 30
0.0
 10
74.61250000000003
 20
-3.393985414576898
 30
0.0
1001
PE_URL
1000

  0
SPLINE
  5
BE
330
1F
100
AcDbEntity
  8
외형선
  6
Continuous
370
    15
100
AcDbSpline
210
0.0
220
0.0
230
1.0
 70
    24
 71
     3
 72
    12
 73
     8
 74
     0
 42
0.000000001
 43
0.00000001
 40
0.0
 40
0.0
 40
0.0
 40
0.0
 40
0.0496288857037067
 40
0.3358526514828963
 40
0.6303769258598576
 40
0.8891158563154224
 40
1.0
 40
1.0
 40
1.0
 40
1.0
 10
33.33750000000003
 20
9.922367256810919
 30
0.0
 10
33.33750000000003
 20
9.926207158513014
 30
0.0
 10
33.33750000000003
 20
9.952192855145054
 30
0.0
 10
33.33750000000003
 20
9.701138718071704
 30
0.0
 10
33.33750000000003
 20
9.055026014782278
 30
0.0
 10
33.33750000000003
 20
8.3079518699017
 30
0.0
 10
33.33750000000003
 20
7.726054964210601
 30
0.0
 10
33.33750000000003
 20
7.551490266781028
 30
0.0
  0
SPLINE
  5
BF
330
1F
100
AcDbEntity
  8
0
  6
Continuous
 62
     1
370
    15
100
AcDbSpline
210
0.0
220
0.0
230
1.0
 70
    24
 71
     3
 72
    10
 73
     6
 74
     0
 42
0.000000001
 43
0.00000001
 40
0.0
 40
0.0
 40
0.0
 40
0.0
 40
0.5000000000000001
 40
0.5000000000000001
 40
1.0
 40
1.0
 40
1.0
 40
1.0
 10
69.61250000000004
 20
2.289784744250633
 30
0.0
 10
69.61250000000004
 20
3.318117051978193
 30
0.0
 10
69.61250000000004
 20
4.293337801787537
 30
0.0
 10
69.61250000000004
 20
6.003026800807377
 30
0.0
 10
69.61250000000004
 20
6.735761112039302
 30
0.0
 10
69.61250000000004
 20
7.298596457508373
 30
0.0
1001
PE_URL
1000

  0
SPLINE
  5
C0
330
1F
100
AcDbEntity
  8
0
  6
Continuous
 62
     1
370
    15
100
AcDbSpline
210
0.0
220
0.0
230
1.0
 70
     8
 71
     3
 72
     9
 73
     5
 74
     0
 42
0.000000001
 43
0.00000001
 40
0.0
 40
0.0
 40
0.0
 40
0.0
 40
0.7817776230893256
 40
1.0
 40
1.0
 40
1.0
 40
1.0
 10
74.61250000000003
 20
8.889999999999993
 30
0.0
 10
73.38128275492974
 20
8.88044574508833
 30
0.0
 10
71.80638829810852
 20
8.868224552476153
 30
0.0
 10
70.23149279438121
 20
8.698305206035743
 30
0.0
 10
69.8878153541719
 20
8.661225002372408
 30
0.0
1001
PE_URL
1000

  0
SPLINE
  5
C1
330
1F
100
AcDbEntity
  8
0
  6
Continuous
 62
     1
370
    15
100
AcDbSpline
210
0.0
220
0.0
230
1.0
 70
     8
 71
     3
 72
     8
 73
     4
 74
     0
 42
0.000000001
 43
0.00000001
 40
0.0
 40
0.0
 40
0.0
 40
0.0
 40
1.0
 40
1.0
 40
1.0
 40
1.0
 10
74.61250000000003
 20
8.889999999999999
 30
0.0
 10
72.9318518865621
 20
8.434389401781289
 30
0.0
 10
71.2645423396972
 20
7.907363561684507
 30
0.0
 10
69.61250000000004
 20
7.298596457508375
 30
0.0
1001
PE_URL
1000

  0
SPLINE
  5
C2
330
1F
100
AcDbEntity
  8
0
  6
Continuous
 62
     1
370
    15
100
AcDbSpline
210
0.0
220
0.0
230
1.0
 70
     8
 71
     3
 72
    11
 73
     7
 74
     0
 42
0.000000001
 43
0.00000001
 40
0.0
 40
0.0
 40
0.0
 40
0.0
 40
0.1845539233567602
 40
0.4414475406385845
 40
0.7207110758524324
 40
1.0
 40
1.0
 40
1.0
 40
1.0
 10
47.71646110142414
 20
-9.523325443478987
 30
0.0
 10
46.83191629245979
 20
-9.660352258688722
 30
0.0
 10
44.71611120200339
 20
-9.988116358609494
 30
0.0
 10
41.26187530965879
 20
-10.18687209003694
 30
0.0
 10
37.35336503722348
 20
-10.1555073782856
 30
0.0
 10
34.67616224304971
 20
-9.844638947341432
 30
0.0
 10
33.33750000000005
 20
-9.689197666626095
 30
0.0
1001
PE_URL
1000

  0
SPLINE
  5
C3
330
1F
100
AcDbEntity
  8
외형선
  6
Continuous
370
    15
100
AcDbSpline
210
0.0
220
0.0
230
1.0
 70
    24
 71
     3
 72
    14
 73
    10
 74
     0
 42
0.000000001
 43
0.00000001
 40
0.0
 40
0.0
 40
0.0
 40
0.0
 40
0.25
 40
0.25
 40
0.4999999999999999
 40
0.4999999999999999
 40
0.75
 40
0.75
 40
1.0
 40
1.0
 40
1.0
 40
1.0
 10
33.33750000000002
 20
2.674846316482878
 30
0.0
 10
33.33750000000002
 20
1.554485769315655
 30
0.0
 10
33.33750000000002
 20
0.3856054938153922
 30
0.0
 10
33.33750000000002
 20
-1.945594131518681
 30
0.0
 10
33.33750000000002
 20
-3.106767436886732
 30
0.0
 10
33.33750000000002
 20
-5.30421452179838
 30
0.0
 10
33.33750000000002
 20
-6.339317409663784
 30
0.0
 10
33.33750000000002
 20
-8.190148010146235
 30
0.0
 10
33.33750000000002
 20
-9.005404382512431
 30
0.0
 10
33.33750000000002
 20
-9.689197666626095
 30
0.0
  0
LINE
  5
C4
330
1F
100
AcDbEntity
  8
0
  6
Continuous
 62
     1
370
    15
100
AcDbLine
 10
74.61250000000003
 20
-0.0000000000000004
 30
0.0
 11
74.61250000000003
 21
8.889999999999997
 31
0.0
1001
PE_URL
1000

  0
SPLINE
  5
C5
330
1F
100
AcDbEntity
  8
외형선
  6
Continuous
370
    15
100
AcDbSpline
210
0.0
220
0.0
230
1.0
 70
    24
 71
     3
 72
     9
 73
     5
 74
     0
 42
0.000000001
 43
0.00000001
 40
0.0
 40
0.0
 40
0.0
 40
0.0
 40
0.5727226647651854
 40
1.0
 40
1.0
 40
1.0
 40
1.0
 10
33.33750000000003
 20
-9.689197666626097
 30
0.0
 10
33.33750000000003
 20
-9.776194711214405
 30
0.0
 10
33.33750000000003
 20
-9.928095535017105
 30
0.0
 10
33.33750000000003
 20
-9.924133960603164
 30
0.0
 10
33.33750000000003
 20
-9.922441269644242
 30
0.0
  0
SPLINE
  5
C6
330
1F
100
AcDbEntity
  8
0
  6
Continuous
 62
     1
370
    15
100
AcDbSpline
210
0.0
220
0.0
230
1.0
 70
     8
 71
     3
 72
    12
 73
     8
 74
     0
 42
0.000000001
 43
0.00000001
 40
0.0
 40
0.0
 40
0.0
 40
0.0
 40
0.1670913291694676
 40
0.3753184873813082
 40
0.5835456519124282
 40
0.7917728227797006
 40
1.0
 40
1.0
 40
1.0
 40
1.0
 10
57.16861046162384
 20
8.513094786246258
 30
0.0
 10
58.14018467786963
 20
8.921753208347052
 30
0.0
 10
60.32252272636413
 20
9.839676727184727
 30
0.0
 10
63.71562466995132
 20
10.96214884798093
 30
0.0
 10
67.34791632495869
 20
11.88518733782948
 30
0.0
 10
70.98020811162938
 20
12.50266425617128
 30
0.0
 10
73.40173602489634
 20
12.62706552036882
 30
0.0
 10
74.61250000000003
 20
12.7
 30
0.0
1001
PE_URL
1000

  0
SPLINE
  5
C7
330
1F
100
AcDbEntity
  8
0
  6
Continuous
 62
     1
370
    15
100
AcDbSpline
210
0.0
220
0.0
230
1.0
 70
    24
 71
     3
 72
    10
 73
     6
 74
     0
 42
0.000000001
 43
0.00000001
 40
0.0
 40
0.0
 40
0.0
 40
0.0
 40
0.5
 40
0.5
 40
1.0
 40
1.0
 40
1.0
 40
1.0
 10
74.61250000000003
 20
8.889999999999993
 30
0.0
 10
74.61250000000003
 20
9.428889661452878
 30
0.0
 10
74.61250000000003
 20
10.05512935461238
 30
0.0
 10
74.61250000000004
 20
11.36897854420285
 30
0.0
 10
74.61250000000003
 20
12.05323263467869
 30
0.0
 10
74.61250000000001
 20
12.7
 30
0.0
1001
PE_URL
1000

  0
LINE
  5
C8
330
1F
100
AcDbEntity
  8
중심선
 62
     1
100
AcDbLine
 10
-81.6125
 20
-0.0000000000000093
 30
0.0
 11
81.6125
 21
0.0000000000000091
 31
0.0
  0
LINE
  5
C9
330
1F
100
AcDbEntity
  8
참조1
100
AcDbLine
 10
0.0
 20
-0.00000000000001
 30
0.0
 11
0.0000000000000071
 21
-40.00000000000001
 31
0.0
  0
LINE
  5
CA
330
1F
100
AcDbEntity
  8
참조1
100
AcDbLine
 10
0.0000000000000071
 20
-40.00000000000001
 30
0.0
 11
-6.528215596699194
 21
-40.00000000000001
 31
0.0
  0
CIRCLE
  5
CB
330
1F
100
AcDbEntity
  8
해칭선
100
AcDbCircle
 10
0.0
 20
0.0
 30
0.0
 40
3.000000000000001
  0
INSERT
  5
CC
330
1F
100
AcDbEntity
  8
0
  6
Continuous
 62
     7
100
AcDbBlockReference
 66
     1
  2
블럭10
 10
-13.94027293212521
 20
-52.04717430164394
 30
0.0
  0
ATTRIB
  5
CD
330
CC
100
AcDbEntity
  8
FORMAT
 62
     2
100
AcDbText
 10
-23.12156822086649
 20
-49.97180738881175
 30
0.0
 40
4.233333333333333
  1
E1050064 [ 2 FLUTE ]
 41
0.75
  7
SLDTEXTSTYLE0
 11
-23.12156822086649
 21
-52.08847405547842
 31
0.0
100
AcDbAttribute
  2
AUTOATTR0
 70
     0
 74
     1
  0
SEQEND
  5
CE
330
CC
100
AcDbEntity
  8
0
  6
Continuous
 62
     7
  0
HATCH
  5
CF
330
1F
100
AcDbEntity
  8
중심선
100
AcDbHatch
 10
0.0
 20
0.0
 30
0.0
210
0.0
220
0.0
230
1.0
  2
SOLID
 70
     1
 71
     0
 91
        1
 92
        0
 93
        4
 72
     1
 10
-8.225363627744372
 20
-35.8
 11
-11.67163887158166
 21
-35.8
 72
     1
 10
-11.67163887158166
 20
-35.8
 11
-13.79986873078568
 21
-38.33632558057258
 72
     1
 10
-13.79986873078568
 20
-38.33632558057258
 11
-10.35356040183525
 21
-38.33628615127009
 72
     1
 10
-10.35356040183525
 20
-38.33628615127009
 11
-8.225363627744372
 21
-35.8
 97
        0
 75
     0
 76
     1
 98
        1
 10
22.93171167873054
 20
-0.0010749287238992
  0
HATCH
  5
D0
330
1F
100
AcDbEntity
  8
중심선
100
AcDbHatch
 10
0.0
 20
0.0
 30
0.0
210
0.0
220
0.0
230
1.0
  2
SOLID
 70
     1
 71
     0
 91
        1
 92
        0
 93
        4
 72
     1
 10
-3.21259963670839
 20
-35.8
 11
-6.658874880545703
 21
-35.80000000000003
 72
     1
 10
-6.658874880545703
 20
-35.80000000000003
 11
-11.19001288890309
 21
-41.20000000000002
 72
     1
 10
-11.19001288890309
 20
-41.20000000000002
 11
-7.743737645065806
 21
-41.20000000000002
 72
     1
 10
-7.743737645065806
 20
-41.20000000000002
 11
-3.21259963670839
 21
-35.8
 97
        0
 75
     0
 76
     1
 98
        1
 10
22.93171167873054
 20
-0.0010749287238992
  0
HATCH
  5
D1
330
1F
100
AcDbEntity
  8
중심선
100
AcDbHatch
 10
0.0
 20
0.0
 30
0.0
210
0.0
220
0.0
230
1.0
  2
SOLID
 70
     1
 71
     0
 91
        1
 92
        0
 93
        4
 72
     1
 10
1.800164354327475
 20
-35.8
 11
-1.646110889509639
 21
-35.8
 72
     1
 10
-1.646110889509639
 20
-35.8
 11
-8.69454779139889
 21
-44.20000000000002
 72
     1
 10
-8.69454779139889
 20
-44.20000000000002
 11
-5.248272547561605
 21
-44.20000000000002
 72
     1
 10
-5.248272547561605
 20
-44.20000000000002
 11
1.800164354327475
 21
-35.8
 97
        0
 75
     0
 76
     1
 98
        1
 10
22.93171167873054
 20
-0.0010749287238992
  0
HATCH
  5
D2
330
1F
100
AcDbEntity
  8
중심선
100
AcDbHatch
 10
0.0
 20
0.0
 30
0.0
210
0.0
220
0.0
230
1.0
  2
SOLID
 70
     1
 71
     0
 91
        1
 92
        0
 93
        6
 72
     3
 10
6.600054785339676
 20
-40.00000000005128
 11
3.960054785062283
 21
1.540882976769353E-10
 40
0.3939339440162628
 50
17.09539180608437
 51
320.0019657685086
 73
     0
 72
     1
 10
8.28305444104027
 20
-38.58789400463834
 11
10.58835631474134
 21
-36.65356729459039
 72
     3
 10
6.600054785286829
 20
-40.00000000000016
 11
6.600054785286829
 21
-1.278976924368180E-13
 40
0.636358354079598
 50
39.99873849337385
 51
368.4976242363725
 73
     1
 72
     1
 10
13.02538727718744
 20
-39.03999999993003
 11
5.280122092122753
 21
-39.03999999993003
 72
     1
 10
5.280122092122753
 20
-39.03999999993003
 11
5.280097047676819
 21
-40.95999999992992
 72
     1
 10
5.280097047676819
 20
-40.95999999992992
 11
9.721476817148854
 21
-40.95999999992989
 97
        0
 75
     0
 76
     1
 98
        1
 10
22.93171167873054
 20
-0.0010749287238992
  0
DIMENSION
  5
D3
330
1F
100
AcDbEntity
  8
치수문자_일반주서
100
AcDbDimension
  2
_D
 10
-89.61249999999991
 20
-12.70000000000022
 30
0.0
 11
-89.61250000000004
 21
27.37699999999992
 31
0.0
 70
   160
  1
%%c<>
 71
     2
 42
25.39999999999999
 52
-270.0
  3
SLDDIMSTYLE1
100
AcDbAlignedDimension
 13
-30.28761081259613
 23
12.69999999999999
 33
0.0
 14
-30.28761081259617
 24
-12.7
 34
0.0
 50
90.0000000000002
100
AcDbRotatedDimension
1001
PE_URL
1000

1001
ACAD
1000
DSTYLE
1002
{
1070
   171
1070
     8
1070
   273
1070
     7
1070
   140
1040
4.0
1002
}
1001
ACAD_DSTYLE_DIMFLIPARROW_SYMBOL
1070
   385
1070
     0
1001
ACAD_DSTYLE_DIMFLIPARROW_WHICH_SYMBOL
1070
   386
1070
     3
  0
DIMENSION
  5
E8
330
1F
100
AcDbEntity
  8
치수문자_일반주서
100
AcDbDimension
  2
_D_1
 10
89.61250000000001
 20
12.70000000000006
 30
0.0
 11
89.61249999999995
 21
28.87700000000006
 31
0.0
 70
   160
  1
%%c<>
 71
     2
 42
25.4
 52
-270.0
  3
SLDDIMSTYLE1
100
AcDbAlignedDimension
 13
74.61250000000003
 23
-12.7
 33
0.0
 14
74.61250000000003
 24
12.7
 34
0.0
 50
90.0000000000002
100
AcDbRotatedDimension
1001
PE_URL
1000

1001
ACAD
1000
DSTYLE
1002
{
1070
   171
1070
     8
1070
   273
1070
     7
1070
   140
1040
4.0
1002
}
1001
ACAD_DSTYLE_DIMFLIPARROW_SYMBOL
1070
   385
1070
     0
1001
ACAD_DSTYLE_DIMFLIPARROW_WHICH_SYMBOL
1070
   386
1070
     3
  0
DIMENSION
  5
FC
330
1F
100
AcDbEntity
  8
치수문자_일반주서
100
AcDbDimension
  2
_D_2
 10
33.33750000000003
 20
27.7
 30
0.0
 11
53.97500000000007
 21
27.7
 31
0.0
 70
   160
  1
<>
 71
     2
 42
41.27500000000001
  3
SLDDIMSTYLE1
100
AcDbAlignedDimension
 13
74.61250000000004
 23
12.68926615341647
 33
0.0
 14
33.33750000000003
 24
9.940026302865704
 34
0.0
 50
0.0000000000000099
100
AcDbRotatedDimension
1001
PE_URL
1000

1001
ACAD
1000
DSTYLE
1002
{
1070
   171
1070
     8
1070
   273
1070
     7
1070
   140
1040
4.0
1002
}
  0
DIMENSION
  5
110
330
1F
100
AcDbEntity
  8
치수문자_일반주서
100
AcDbDimension
  2
_D_3
 10
74.61250000000003
 20
42.7
 30
0.0
 11
0.0000000000000284
 21
42.7
 31
0.0
 70
   160
  1
<>
 71
     2
 42
149.2250000000001
  3
SLDDIMSTYLE1
100
AcDbAlignedDimension
 13
-74.61250000000005
 23
12.70000000000005
 33
0.0
 14
74.61250000000003
 24
12.7
 34
0.0
 50
-0.0000000000000055
100
AcDbRotatedDimension
1001
PE_URL
1000

1001
ACAD
1000
DSTYLE
1002
{
1070
   171
1070
     8
1070
   273
1070
     7
1070
   140
1040
4.0
1002
}
  0
LINE
  5
123
330
1F
100
AcDbEntity
  8
참조1
100
AcDbLine
 10
91.44412503295507
 20
7.439999999999996
 30
0.0
 11
91.44412503295507
 21
-7.440000000000008
 31
0.0
  0
LINE
  5
124
330
1F
100
AcDbEntity
  8
참조1
100
AcDbLine
 10
104.1441250329551
 20
5.439999999999996
 30
0.0
 11
91.44412503295507
 21
5.439999999999996
 31
0.0
  0
SOLID
  5
125
330
1F
100
AcDbEntity
  8
참조1
100
AcDbTrace
 10
91.44412503295507
 20
5.439999999999996
 30
0.0
 11
97.79412503295507
 21
4.423999999999996
 31
0.0
 12
97.79412503295507
 22
6.455999999999996
 32
0.0
 13
97.79412503295507
 23
6.455999999999996
 33
0.0
  0
LINE
  5
126
330
1F
100
AcDbEntity
  8
참조1
100
AcDbLine
 10
104.1441250329551
 20
-5.440000000000008
 30
0.0
 11
91.44412503295507
 21
-5.440000000000008
 31
0.0
  0
SOLID
  5
127
330
1F
100
AcDbEntity
  8
참조1
100
AcDbTrace
 10
91.44412503295507
 20
-5.440000000000008
 30
0.0
 11
97.79412503295507
 21
-6.456000000000008
 31
0.0
 12
97.79412503295507
 22
-4.424000000000008
 32
0.0
 13
97.79412503295507
 23
-4.424000000000008
 33
0.0
  0
MTEXT
  5
128
330
1F
100
AcDbEntity
  8
참조1
100
AcDbMText
 10
100.8284751655811
 20
11.01029177718832
 30
0.0
 40
3.5
 41
0.0
 71
     1
 72
     1
  1
A
  7
SLDTEXTSTYLE0
 73
     1
 44
1.0
  0
MTEXT
  5
129
330
1F
100
AcDbEntity
  8
참조1
100
AcDbMText
 10
100.8284751655811
 20
0.1302917771883201
 30
0.0
 40
3.5
 41
0.0
 71
     1
 72
     1
  1
A
  7
SLDTEXTSTYLE0
 73
     1
 44
1.0
  0
INSERT
  5
130
330
1F
100
AcDbEntity
  8
해칭선
100
AcDbBlockReference
  2
SW_DOWELSYMBOL_0
 10
0.0
 20
0.0
 30
0.0
  0
LINE
  5
19F
330
1F
100
AcDbEntity
  8
외형선
  6
Continuous
370
    15
100
AcDbLine
 10
-6.553199999999961
 20
10.79499999999999
 30
0.0
 11
6.553199999999933
 21
10.79499999999999
 31
0.0
1001
PE_URL
1000

  0
LINE
  5
1A0
330
1F
100
AcDbEntity
  8
외형선
  6
Continuous
370
    15
100
AcDbLine
 10
-6.553199999999961
 20
10.795
 30
0.0
 11
-8.458199999999934
 21
12.69999999999999
 31
0.0
1001
PE_URL
1000

  0
LINE
  5
1A1
330
1F
100
AcDbEntity
  8
외형선
  6
Continuous
370
    15
100
AcDbLine
 10
6.553199999999933
 20
10.795
 30
0.0
 11
8.458199999999962
 21
12.69999999999999
 31
0.0
1001
PE_URL
1000

  0
SPLINE
  5
244
330
1F
100
AcDbEntity
  8
외형선
  6
Continuous
370
    15
100
AcDbSpline
210
0.0
220
0.0
230
1.0
 70
     8
 71
     3
 72
     9
 73
     5
 74
     0
 42
0.000000001
 43
0.00000001
 40
0.0
 40
0.0
 40
0.0
 40
0.0
 40
0.5134152951130191
 40
1.0
 40
1.0
 40
1.0
 40
1.0
 10
-33.33750000000009
 20
-9.93948727729962
 30
0.0
 10
-32.90096805561681
 20
-9.93255934237689
 30
0.0
 10
-32.05071690700781
 20
-9.91906551975675
 30
0.0
 10
-31.20077831658751
 20
-9.918429673093264
 30
0.0
 10
-30.7872111983958
 20
-9.918120279832166
 30
0.0
  0
SPLINE
  5
245
330
1F
100
AcDbEntity
  8
외형선
  6
Continuous
370
    15
100
AcDbSpline
210
0.0
220
0.0
230
1.0
 70
     8
 71
     3
 72
    15
 73
    11
 74
     0
 42
0.000000001
 43
0.00000001
 40
0.0
 40
0.0
 40
0.0
 40
0.0
 40
0.0244565305943415
 40
0.0541440412059384
 40
0.14549988211492
 40
0.4992080449010887
 40
0.8529115144652595
 40
0.9446926652747172
 40
0.9748701462070619
 40
1.0
 40
1.0
 40
1.0
 40
1.0
 10
-30.78652993422342
 20
-9.918313302500145
 30
0.0
 10
-30.78424016376019
 20
-9.918764000652345
 30
0.0
 10
-30.77917086638643
 20
-9.919761796281193
 30
0.0
 10
-30.75577363102803
 20
-9.933490939956663
 30
0.0
 10
-30.66536800591397
 20
-10.00468820002119
 30
0.0
 10
-30.51667545003784
 20
-10.14770306579359
 30
0.0
 10
-30.3735774498579
 20
-10.29663221865357
 30
0.0
 10
-30.3025947306805
 20
-10.38606605545375
 30
0.0
 10
-30.28902272128713
 20
-10.40862082226975
 30
0.0
 10
-30.28805191527052
 20
-10.41326827598839
 30
0.0
 10
-30.28761081259616
 20
-10.41537992777995
 30
0.0
  0
SPLINE
  5
246
330
1F
100
AcDbEntity
  8
외형선
  6
Continuous
370
    15
100
AcDbSpline
210
0.0
220
0.0
230
1.0
 70
     8
 71
     3
 72
     9
 73
     5
 74
     0
 42
0.000000001
 43
0.00000001
 40
0.0
 40
0.0
 40
0.0
 40
0.0
 40
0.4442159744532239
 40
1.0
 40
1.0
 40
1.0
 40
1.0
 10
-30.28765318366941
 20
9.920434641410104
 30
0.0
 10
-30.7286606831914
 20
9.918669714896115
 30
0.0
 10
-31.72143790167125
 20
9.91469658782394
 30
0.0
 10
-32.76018240077411
 20
9.93063111926828
 30
0.0
 10
-33.33750000000006
 20
9.939487277299612
 30
0.0
  0
LINE
  5
247
330
1F
100
AcDbEntity
  8
0
  6
Continuous
 62
     1
370
    15
100
AcDbLine
 10
-38.23568897923967
 20
-4.991234211863301
 30
0.0
 11
-38.18712037573616
 21
-5.016473112540069
 31
0.0
1001
PE_URL
1000

  0
SPLINE
  5
248
330
1F
100
AcDbEntity
  8
0
  6
Continuous
 62
     1
370
    15
100
AcDbSpline
210
0.0
220
0.0
230
1.0
 70
     8
 71
     3
 72
    10
 73
     6
 74
     0
 42
0.000000001
 43
0.00000001
 40
0.0
 40
0.0
 40
0.0
 40
0.0
 40
0.4610269080958186
 40
0.6278203800406557
 40
0.9999999999999999
 40
0.9999999999999999
 40
0.9999999999999999
 40
0.9999999999999999
 10
-41.70993445472388
 20
-3.25437249649292
 30
0.0
 10
-41.17471397003852
 20
-3.509576036002173
 30
0.0
 10
-40.44585775318866
 20
-3.857108859680913
 30
0.0
 10
-39.29633093576059
 20
-4.434674926761424
 30
0.0
 10
-38.66893064680113
 20
-4.763895786024221
 30
0.0
 10
-38.23568897923967
 20
-4.991234211863301
 30
0.0
1001
PE_URL
1000

  0
LINE
  5
249
330
1F
100
AcDbEntity
  8
0
  6
Continuous
 62
     1
370
    15
100
AcDbLine
 10
-34.68921865889391
 20
-3.574176163163742
 30
0.0
 11
-34.54958456257711
 21
-3.651209552347488
 31
0.0
1001
PE_URL
1000

  0
SPLINE
  5
24A
330
1F
100
AcDbEntity
  8
0
  6
Continuous
 62
     1
370
    15
100
AcDbSpline
210
0.0
220
0.0
230
1.0
 70
     8
 71
     3
 72
     9
 73
     5
 74
     0
 42
0.000000001
 43
0.00000001
 40
0.0
 40
0.0
 40
0.0
 40
0.0
 40
0.4999070183579613
 40
1.0
 40
1.0
 40
1.0
 40
1.0
 10
-37.51252440917642
 20
-10.09192116887869
 30
0.0
 10
-36.81551356534408
 20
-10.05765709772179
 30
0.0
 10
-35.42123259261076
 20
-9.989116209319285
 30
0.0
 10
-34.0321636361453
 20
-9.95603230543665
 30
0.0
 10
-33.33750000000009
 20
-9.939487277299627
 30
0.0
1001
PE_URL
1000

  0
SPLINE
  5
24B
330
1F
100
AcDbEntity
  8
0
  6
Continuous
 62
     1
370
    15
100
AcDbSpline
210
0.0
220
0.0
230
1.0
 70
     8
 71
     3
 72
    29
 73
    25
 74
     0
 42
0.000000001
 43
0.00000001
 40
0.0
 40
0.0
 40
0.0
 40
0.0
 40
0.0684085709394976
 40
0.1230693880202409
 40
0.1640014538483975
 40
0.1912334947773948
 40
0.2172380402350778
 40
0.2466600150898899
 40
0.2814672697686008
 40
0.3217806496949205
 40
0.3946773139677202
 40
0.4784489149644338
 40
0.542090279295242
 40
0.598068172538889
 40
0.6532375774801394
 40
0.7071344688905681
 40
0.7299753987007663
 40
0.7495818201359092
 40
0.7664365747204999
 40
0.7903786183576073
 40
0.8257539841682414
 40
0.8725878921207504
 40
0.9306814385438106
 40
1.0
 40
1.0
 40
1.0
 40
1.0
 10
-69.8942531120736
 20
-8.686217254783628
 30
0.0
 10
-69.40033289708795
 20
-8.645894575077222
 30
0.0
 10
-68.51175332651233
 20
-8.5733526779633
 30
0.0
 10
-67.32527667313745
 20
-8.4977594264858
 30
0.0
 10
-66.42937205420937
 20
-8.45055888405846
 30
0.0
 10
-65.73124641262847
 20
-8.420569950501665
 30
0.0
 10
-65.09578305332612
 20
-8.400579708369385
 30
0.0
 10
-64.4106165498561
 20
-8.38155163088419
 30
0.0
 10
-63.6205640270133
 20
-8.365797815704447
 30
0.0
 10
-62.50939091566362
 20
-8.35414720192253
 30
0.0
 10
-61.0453483742189
 20
-8.360749391469838
 30
0.0
 10
-59.43526733795113
 20
-8.401070908299715
 30
0.0
 10
-57.9494553405514
 20
-8.464778368252404
 30
0.0
 10
-56.65165266181261
 20
-8.540208042775312
 30
0.0
 10
-55.42949549041471
 20
-8.62847746044838
 30
0.0
 10
-54.45439009088881
 20
-8.711547338842841
 30
0.0
 10
-53.73338176683222
 20
-8.779845408386969
 30
0.0
 10
-53.28668327893332
 20
-8.824502527913175
 30
0.0
 10
-52.8270480305633
 20
-8.872156561704202
 30
0.0
 10
-52.25559338381723
 20
-8.934321249220147
 30
0.0
 10
-51.46870638737197
 20
-9.025561261647233
 30
0.0
 10
-50.43412129975069
 20
-9.155418308675756
 30
0.0
 10
-49.15362587201149
 20
-9.330193490849993
 30
0.0
 10
-48.21730973843562
 20
-9.473905723235909
 30
0.0
 10
-47.70790691536004
 20
-9.552092367962722
 30
0.0
1001
PE_URL
1000

  0
SPLINE
  5
24C
330
1F
100
AcDbEntity
  8
0
  6
Continuous
 62
     1
370
    15
100
AcDbSpline
210
0.0
220
0.0
230
1.0
 70
     8
 71
     3
 72
    15
 73
    11
 74
     0
 42
0.000000001
 43
0.00000001
 40
0.0
 40
0.0
 40
0.0
 40
0.0
 40
0.1446767480472222
 40
0.269209929447942
 40
0.3754457632373384
 40
0.5358922100540598
 40
0.6785613499677403
 40
0.8109322277071462
 40
0.940322776169353
 40
1.0
 40
1.0
 40
1.0
 40
1.0
 10
-47.70790691536001
 20
9.552092367962754
 30
0.0
 10
-48.12948291759027
 20
9.485988457107002
 30
0.0
 10
-48.91393824541051
 20
9.362984384801607
 30
0.0
 10
-50.06496784193524
 20
9.194381124515587
 30
0.0
 10
-51.32659371062917
 20
9.032684302360678
 30
0.0
 10
-52.67244823110863
 20
8.88776013987572
 30
0.0
 10
-54.09626913068776
 20
8.741018662027987
 30
0.0
 10
-55.42248546677948
 20
8.625864387934737
 30
0.0
 10
-56.39315026337192
 20
8.557107366382308
 30
0.0
 10
-56.98157794605243
 20
8.523251046575378
 30
0.0
 10
-57.16730886201773
 20
8.512564660679473
 30
0.0
1001
PE_URL
1000

  0
SPLINE
  5
24D
330
1F
100
AcDbEntity
  8
0
  6
Continuous
 62
     1
370
    15
100
AcDbSpline
210
0.0
220
0.0
230
1.0
 70
     8
 71
     3
 72
     9
 73
     5
 74
     0
 42
0.000000001
 43
0.00000001
 40
0.0
 40
0.0
 40
0.0
 40
0.0
 40
0.5000929816420387
 40
1.0
 40
1.0
 40
1.0
 40
1.0
 10
-33.33750000000006
 20
9.939487277299612
 30
0.0
 10
-34.03216363614527
 20
9.95603230543664
 30
0.0
 10
-35.42123259261075
 20
9.989116209319274
 30
0.0
 10
-36.81551356534405
 20
10.05765709772178
 30
0.0
 10
-37.51252440917639
 20
10.0919211688787
 30
0.0
1001
PE_URL
1000

  0
SPLINE
  5
24E
330
1F
100
AcDbEntity
  8
외형선
  6
Continuous
370
    15
100
AcDbSpline
210
0.0
220
0.0
230
1.0
 70
     8
 71
     3
 72
    10
 73
     6
 74
     0
 42
0.000000001
 43
0.00000001
 40
0.0
 40
0.0
 40
0.0
 40
0.0
 40
0.5000000000000001
 40
0.5000000000000001
 40
1.0
 40
1.0
 40
1.0
 40
1.0
 10
-33.33750000000009
 20
-7.446721624469305
 30
0.0
 10
-32.82852042277713
 20
-7.684567226967097
 30
0.0
 10
-32.31887695914902
 20
-7.916538245378739
 30
0.0
 10
-31.30193482506668
 20
-8.367071821301103
 30
0.0
 10
-30.79592368513407
 20
-8.585462560442139
 30
0.0
 10
-30.28772682781817
 20
-8.797122000067233
 30
0.0
  0
LINE
  5
24F
330
1F
100
AcDbEntity
  8
외형선
  6
Continuous
370
    15
100
AcDbLine
 10
-33.33750000000008
 20
-7.446721624469305
 30
0.0
 11
-33.33750000000008
 21
-4.315827518756322
 31
0.0
  0
SPLINE
  5
250
330
1F
100
AcDbEntity
  8
외형선
  6
Continuous
370
    15
100
AcDbSpline
210
0.0
220
0.0
230
1.0
 70
     8
 71
     3
 72
    10
 73
     6
 74
     0
 42
0.000000001
 43
0.00000001
 40
0.0
 40
0.0
 40
0.0
 40
0.0
 40
0.5
 40
0.5
 40
1.0
 40
1.0
 40
1.0
 40
1.0
 10
-33.33750000000008
 20
-4.315827518756322
 30
0.0
 10
-32.82850105712984
 20
-4.59198123310771
 30
0.0
 10
-32.31883817740119
 20
-4.864789966932783
 30
0.0
 10
-31.30185752902769
 20
-5.40175880899406
 30
0.0
 10
-30.79582721408892
 20
-5.665703784534678
 30
0.0
 10
-30.28761081259617
 20
-5.92528222065647
 30
0.0
  0
LINE
  5
251
330
1F
100
AcDbEntity
  8
외형선
  6
Continuous
370
    15
100
AcDbLine
 10
-30.28761081259617
 20
-8.797514552226694
 30
0.0
 11
-30.28761081259617
 21
-12.7
 31
0.0
  0
LINE
  5
252
330
1F
100
AcDbEntity
  8
외형선
  6
Continuous
370
    15
100
AcDbLine
 10
-30.28761081259613
 20
12.69999999999999
 30
0.0
 11
-30.28761081259617
 21
-5.925284874232212
 31
0.0
  0
SPLINE
  5
253
330
1F
100
AcDbEntity
  8
외형선
  6
Continuous
370
    15
100
AcDbSpline
210
0.0
220
0.0
230
1.0
 70
    24
 71
     3
 72
    10
 73
     6
 74
     0
 42
0.000000001
 43
0.00000001
 40
0.0
 40
0.0
 40
0.0
 40
0.0
 40
0.4999999999999999
 40
0.4999999999999999
 40
1.0
 40
1.0
 40
1.0
 40
1.0
 10
-33.33750000000008
 20
-4.315827518756308
 30
0.0
 10
-33.33750000000008
 20
-4.279658615326994
 30
0.0
 10
-33.33750000000008
 20
-4.110592275494128
 30
0.0
 10
-33.33750000000008
 20
-3.536403249295901
 30
0.0
 10
-33.33750000000008
 20
-3.133699623960432
 30
0.0
 10
-33.33750000000008
 20
-2.674846316482885
 30
0.0
  0
SPLINE
  5
254
330
1F
100
AcDbEntity
  8
외형선
  6
Continuous
370
    15
100
AcDbSpline
210
0.0
220
0.0
230
1.0
 70
     8
 71
     3
 72
    10
 73
     6
 74
     0
 42
0.000000001
 43
0.00000001
 40
0.0
 40
0.0
 40
0.0
 40
0.0
 40
0.5
 40
0.5
 40
1.0
 40
1.0
 40
1.0
 40
1.0
 10
-33.33750000000008
 20
-2.674846316482885
 30
0.0
 10
-32.82850572366792
 20
-2.870859885713898
 30
0.0
 10
-32.31884752263524
 20
-3.064811132365854
 30
0.0
 10
-31.3018761550444
 20
-3.447195878410525
 30
0.0
 10
-30.79585046071182
 20
-3.635475267125564
 30
0.0
 10
-30.28763876877691
 20
-3.820964835720204
 30
0.0
  0
SPLINE
  5
255
330
1F
100
AcDbEntity
  8
외형선
  6
Continuous
370
    15
100
AcDbSpline
210
0.0
220
0.0
230
1.0
 70
     8
 71
     3
 72
    10
 73
     6
 74
     0
 42
0.000000001
 43
0.00000001
 40
0.0
 40
0.0
 40
0.0
 40
0.0
 40
0.5000000000000001
 40
0.5000000000000001
 40
1.0
 40
1.0
 40
1.0
 40
1.0
 10
-33.33750000000006
 20
9.689197666626079
 30
0.0
 10
-32.82850812984958
 20
9.618520521853242
 30
0.0
 10
-32.31885234126744
 20
9.540034571421131
 30
0.0
 10
-31.30188575907669
 20
9.368026046656325
 30
0.0
 10
-30.79586244724047
 20
9.274597583487235
 30
0.0
 10
-30.28765318366941
 20
9.173688581716444
 30
0.0
  0
SPLINE
  5
256
330
1F
100
AcDbEntity
  8
외형선
  6
Continuous
370
    15
100
AcDbSpline
210
0.0
220
0.0
230
1.0
 70
    24
 71
     3
 72
    14
 73
    10
 74
     0
 42
0.000000001
 43
0.00000001
 40
0.0
 40
0.0
 40
0.0
 40
0.0
 40
0.25
 40
0.25
 40
0.4999999999999999
 40
0.4999999999999999
 40
0.75
 40
0.75
 40
1.0
 40
1.0
 40
1.0
 40
1.0
 10
-33.33750000000006
 20
-2.674846316482888
 30
0.0
 10
-33.33750000000006
 20
-1.554485769315665
 30
0.0
 10
-33.33750000000006
 20
-0.3856054938154045
 30
0.0
 10
-33.33750000000006
 20
1.945594131518671
 30
0.0
 10
-33.33750000000006
 20
3.10676743688672
 30
0.0
 10
-33.33750000000006
 20
5.304214521798368
 30
0.0
 10
-33.33750000000006
 20
6.339317409663771
 30
0.0
 10
-33.33750000000005
 20
8.190148010146224
 30
0.0
 10
-33.33750000000005
 20
9.005404382512417
 30
0.0
 10
-33.33750000000005
 20
9.689197666626082
 30
0.0
  0
SPLINE
  5
257
330
1F
100
AcDbEntity
  8
외형선
  6
Continuous
370
    15
100
AcDbSpline
210
0.0
220
0.0
230
1.0
 70
    24
 71
     3
 72
    12
 73
     8
 74
     0
 42
0.000000001
 43
0.00000001
 40
0.0
 40
0.0
 40
0.0
 40
0.0
 40
0.0488393199348688
 40
0.3353008796498038
 40
0.6300698440027561
 40
0.88902373406671
 40
1.0
 40
1.0
 40
1.0
 40
1.0
 10
-33.33750000000009
 20
-9.92257448285227
 30
0.0
 10
-33.33750000000009
 20
-9.926307885018915
 30
0.0
 10
-33.33750000000009
 20
-9.9519391393491
 30
0.0
 10
-33.33750000000009
 20
-9.701105807739935
 30
0.0
 10
-33.33750000000009
 20
-9.055033931987097
 30
0.0
 10
-33.33750000000009
 20
-8.307951177836188
 30
0.0
 10
-33.33750000000009
 20
-7.726054804506262
 30
0.0
 10
-33.33750000000009
 20
-7.551490266781038
 30
0.0
  0
SPLINE
  5
258
330
1F
100
AcDbEntity
  8
외형선
  6
Continuous
370
    15
100
AcDbSpline
210
0.0
220
0.0
230
1.0
 70
    24
 71
     3
 72
     9
 73
     5
 74
     0
 42
0.000000001
 43
0.00000001
 40
0.0
 40
0.0
 40
0.0
 40
0.0
 40
0.5713337064870135
 40
1.0
 40
1.0
 40
1.0
 40
1.0
 10
-33.33750000000006
 20
9.689197666626086
 30
0.0
 10
-33.33750000000006
 20
9.776153382331156
 30
0.0
 10
-33.33750000000006
 20
9.928351151721898
 30
0.0
 10
-33.33750000000006
 20
9.924307608846654
 30
0.0
 10
-33.33750000000006
 20
9.922574278309657
 30
0.0
  0
SPLINE
  5
259
330
1F
100
AcDbEntity
  8
0
  6
Continuous
 62
     1
370
    15
100
AcDbSpline
210
0.0
220
0.0
230
1.0
 70
     8
 71
     3
 72
    46
 73
    42
 74
     0
 42
0.000000001
 43
0.00000001
 40
0.0
 40
0.0
 40
0.0
 40
0.0
 40
0.0625000000000011
 40
0.0625000000000011
 40
0.1250000000000022
 40
0.1250000000000022
 40
0.1562500000000025
 40
0.1562500000000025
 40
0.1875000000000028
 40
0.1875000000000028
 40
0.2500000000000031
 40
0.2500000000000031
 40
0.281250000000003
 40
0.281250000000003
 40
0.3125000000000029
 40
0.3125000000000029
 40
0.3750000000000027
 40
0.3750000000000027
 40
0.4375000000000025
 40
0.4375000000000025
 40
0.5000000000000023
 40
0.5000000000000023
 40
0.5625000000000022
 40
0.5625000000000022
 40
0.6250000000000019
 40
0.6250000000000019
 40
0.6875000000000017
 40
0.6875000000000017
 40
0.7187500000000016
 40
0.7187500000000016
 40
0.7500000000000014
 40
0.7500000000000014
 40
0.7812500000000013
 40
0.7812500000000013
 40
0.8125000000000012
 40
0.8125000000000012
 40
0.8750000000000008
 40
0.8750000000000008
 40
0.9375000000000004
 40
0.9375000000000004
 40
1.0
 40
1.0
 40
1.0
 40
1.0
 10
-74.61250000000005
 20
12.05154903924518
 30
0.0
 10
-73.75552336815086
 20
11.89511349864422
 30
0.0
 10
-72.89229595826377
 20
11.71064090719925
 30
0.0
 10
-71.17107464804029
 20
11.28918609935067
 30
0.0
 10
-70.31477866983168
 20
11.05246802764866
 30
0.0
 10
-69.02287754825453
 20
10.65953923207235
 30
0.0
 10
-68.5919887763849
 20
10.52234161189886
 30
0.0
 10
-67.73192265781772
 20
10.23622812879248
 30
0.0
 10
-67.30377830225738
 20
10.08744021235879
 30
0.0
 10
-66.01536930258337
 20
9.623559513695941
 30
0.0
 10
-65.15177063034969
 20
9.290919085209715
 30
0.0
 10
-63.86270384645393
 20
8.761992708821232
 30
0.0
 10
-63.43470675507272
 20
8.580802875162895
 30
0.0
 10
-62.57500046485355
 20
8.208282195955558
 30
0.0
 10
-62.14418213912566
 20
8.017068452839478
 30
0.0
 10
-60.8521621392471
 20
7.430019351370436
 30
0.0
 10
-59.99554036066301
 20
7.021439379603756
 30
0.0
 10
-58.27488091676715
 20
6.172837891571639
 30
0.0
 10
-57.41149368937815
 20
5.73285957380023
 30
0.0
 10
-55.69635015507049
 20
4.83068119810714
 30
0.0
 10
-54.83446793172743
 20
4.366722108927362
 30
0.0
 10
-53.11277146257338
 20
3.421262996181781
 30
0.0
 10
-52.25666103708055
 20
2.940479938841598
 30
0.0
 10
-50.5343716409941
 20
1.965772145040653
 30
0.0
 10
-49.67439954836408
 20
1.473007406397315
 30
0.0
 10
-47.95748407398069
 20
0.4835734897888102
 30
0.0
 10
-47.09392925733107
 20
-0.0143662456866132
 30
0.0
 10
-45.80426940921316
 20
-0.7584312913247118
 30
0.0
 10
-45.37625799461134
 20
-1.005800388957482
 30
0.0
 10
-44.5169547345272
 20
-1.49973363892758
 30
0.0
 10
-44.0862286179956
 20
-1.746187810395782
 30
0.0
 10
-43.22484617668381
 20
-2.236796257899979
 30
0.0
 10
-42.7941911256088
 20
-2.480949808911085
 30
0.0
 10
-41.93517090886839
 20
-2.965704551652912
 30
0.0
 10
-41.50706444300775
 20
-3.206260829992864
 30
0.0
 10
-40.21705621956306
 20
-3.923068356389052
 30
0.0
 10
-39.35355299435169
 20
-4.393657964567737
 30
0.0
 10
-37.63730487746103
 20
-5.310637641695529
 30
0.0
 10
-36.77662853062949
 20
-5.758454978466908
 30
0.0
 10
-35.05454368982198
 20
-6.625757965686923
 30
0.0
 10
-34.19847853820143
 20
-7.044387290597903
 30
0.0
 10
-33.33749999999633
 20
-7.44672162447106
 30
0.0
1001
PE_URL
1000

  0
SPLINE
  5
25A
330
1F
100
AcDbEntity
  8
0
  6
Continuous
 62
     1
370
    15
100
AcDbSpline
210
0.0
220
0.0
230
1.0
 70
     8
 71
     3
 72
    16
 73
    12
 74
     0
 42
0.000000001
 43
0.00000001
 40
0.0
 40
0.0
 40
0.0
 40
0.0
 40
0.1120661135386513
 40
0.2241326895656381
 40
0.336199713348636
 40
0.4482671701409408
 40
0.5603350451819366
 40
0.6724033236975651
 40
0.7844719909007971
 40
0.8965410319921036
 40
1.0
 40
1.0
 40
1.0
 40
1.0
 10
-74.61250000000005
 20
10.0199477574764
 30
0.0
 10
-73.38128514132484
 20
9.767876422523656
 30
0.0
 10
-70.91885034284422
 20
9.263732712338928
 30
0.0
 10
-67.22518779726983
 20
8.171385597605902
 30
0.0
 10
-63.53150847077985
 20
6.869412210990163
 30
0.0
 10
-59.83781270985141
 20
5.368727229294141
 30
0.0
 10
-56.14410112643357
 20
3.718610758607728
 30
0.0
 10
-52.45037427769516
 20
1.962937103527949
 30
0.0
 10
-48.75663267759452
 20
0.15421479888062
 30
0.0
 10
-45.15747599881033
 20
-1.619970513065581
 30
0.0
 10
-42.78956571539884
 20
-2.740535756971063
 30
0.0
 10
-41.65290809358468
 20
-3.278435792351701
 30
0.0
1001
PE_URL
1000

  0
LINE
  5
25B
330
1F
100
AcDbEntity
  8
0
  6
Continuous
 62
     1
370
    15
100
AcDbLine
 10
-74.61249999999977
 20
12.05154903924518
 30
0.0
 11
-74.61250000000005
 21
10.0199477574764
 31
0.0
1001
PE_URL
1000

  0
SPLINE
  5
25C
330
1F
100
AcDbEntity
  8
0
  6
Continuous
 62
     1
370
    15
100
AcDbSpline
210
0.0
220
0.0
230
1.0
 70
     8
 71
     3
 72
    46
 73
    42
 74
     0
 42
0.000000001
 43
0.00000001
 40
0.0
 40
0.0
 40
0.0
 40
0.0
 40
0.0625000000000005
 40
0.0625000000000005
 40
0.125000000000001
 40
0.125000000000001
 40
0.1562500000000012
 40
0.1562500000000012
 40
0.1875000000000015
 40
0.1875000000000015
 40
0.2500000000000016
 40
0.2500000000000016
 40
0.2812500000000017
 40
0.2812500000000017
 40
0.3125000000000018
 40
0.3125000000000018
 40
0.3750000000000017
 40
0.3750000000000017
 40
0.4375000000000017
 40
0.4375000000000017
 40
0.5000000000000016
 40
0.5000000000000016
 40
0.5625000000000016
 40
0.5625000000000016
 40
0.6250000000000016
 40
0.6250000000000016
 40
0.6875000000000012
 40
0.6875000000000012
 40
0.7187500000000012
 40
0.7187500000000012
 40
0.7500000000000011
 40
0.7500000000000011
 40
0.781250000000001
 40
0.781250000000001
 40
0.8125000000000009
 40
0.8125000000000009
 40
0.8750000000000007
 40
0.8750000000000007
 40
0.9375000000000003
 40
0.9375000000000003
 40
1.0
 40
1.0
 40
1.0
 40
1.0
 10
-74.61250000000005
 20
12.70000000000004
 30
0.0
 10
-73.75552336815095
 20
12.66888172996812
 30
0.0
 10
-72.89229595826397
 20
12.6193264914573
 30
0.0
 10
-71.1710746480406
 20
12.46264914720383
 30
0.0
 10
-70.31477866983208
 20
12.35571397793483
 30
0.0
 10
-69.02287754825504
 20
12.1529096227712
 30
0.0
 10
-68.59198877638546
 20
12.07827821850329
 30
0.0
 10
-67.73192265781834
 20
11.91535975286444
 30
0.0
 10
-67.30377830225804
 20
11.82715334534661
 30
0.0
 10
-66.01536930258415
 20
11.5421140236731
 30
0.0
 10
-65.15177063035053
 20
11.32478006311309
 30
0.0
 10
-63.86270384645489
 20
10.96114974958549
 30
0.0
 10
-63.43470675507373
 20
10.83376004118907
 30
0.0
 10
-62.57500046485463
 20
10.5663529018585
 30
0.0
 10
-62.14418213912678
 20
10.42641308132187
 30
0.0
 10
-60.85216213924835
 20
9.988932830999364
 30
0.0
 10
-59.99554036066434
 20
9.674245209912172
 30
0.0
 10
-58.27488091676864
 20
9.001124794393352
 30
0.0
 10
-57.4114936893797
 20
8.64268425380677
 30
0.0
 10
-55.69635015507217
 20
7.889541450259383
 30
0.0
 10
-54.83446793172924
 20
7.493378792072502
 30
0.0
 10
-53.11277146257532
 20
6.668806267028071
 30
0.0
 10
-52.25666103708257
 20
6.241054631410282
 30
0.0
 10
-50.53437164099628
 20
5.357253144744924
 30
0.0
 10
-49.67439954836634
 20
4.902233731273007
 30
0.0
 10
-47.95748407398312
 20
3.972395501729459
 30
0.0
 10
-47.09392925733357
 20
3.496364889126053
 30
0.0
 10
-45.80426940921576
 20
2.772974201691873
 30
0.0
 10
-45.37625799461397
 20
2.530470033960626
 30
0.0
 10
-44.51695473452993
 20
2.042225637007512
 30
0.0
 10
-44.08622861799837
 20
1.796589293843965
 30
0.0
 10
-43.22484617668665
 20
1.303549287776619
 30
0.0
 10
-42.79419112561169
 20
1.056146354259564
 30
0.0
 10
-41.93517090887133
 20
0.560853514194978
 30
0.0
 10
-41.50706444301075
 20
0.313014186322075
 30
0.0
 10
-40.21705621956619
 20
-0.4317098346948995
 30
0.0
 10
-39.3535529943549
 20
-0.9290096166786554
 30
0.0
 10
-37.63730487746436
 20
-1.91502400605961
 30
0.0
 10
-36.77662853063293
 20
-2.405258308834973
 30
0.0
 10
-35.05454368982556
 20
-3.372593096460413
 30
0.0
 10
-34.19847853820509
 20
-3.84870980734928
 30
0.0
 10
-33.33750000000008
 20
-4.315827518756315
 30
0.0
1001
PE_URL
1000

  0
SPLINE
  5
25D
330
1F
100
AcDbEntity
  8
0
  6
Continuous
 62
     1
370
    15
100
AcDbSpline
210
0.0
220
0.0
230
1.0
 70
     8
 71
     3
 72
    10
 73
     6
 74
     0
 42
0.000000001
 43
0.00000001
 40
0.0
 40
0.0
 40
0.0
 40
0.0
 40
0.1743444635474942
 40
0.5871529655879844
 40
0.9999999999999999
 40
0.9999999999999999
 40
0.9999999999999999
 40
0.9999999999999999
 10
-43.06491914430705
 20
1.206144002427997
 30
0.0
 10
-42.49963028724999
 20
0.9808585383968342
 30
0.0
 10
-40.59586447741979
 20
0.2221477332571524
 30
0.0
 10
-37.35335367276291
 20
-1.102745642687857
 30
0.0
 10
-34.67615953808682
 20
-2.150796454785496
 30
0.0
 10
-33.33750000000008
 20
-2.674846316482885
 30
0.0
1001
PE_URL
1000

  0
SPLINE
  5
25E
330
1F
100
AcDbEntity
  8
외형선
  6
Continuous
370
    15
100
AcDbSpline
210
0.0
220
0.0
230
1.0
 70
    24
 71
     3
 72
    10
 73
     6
 74
     0
 42
0.000000001
 43
0.00000001
 40
0.0
 40
0.0
 40
0.0
 40
0.0
 40
0.5
 40
0.5
 40
1.0
 40
1.0
 40
1.0
 40
1.0
 10
-33.33750000000008
 20
-4.315827518756308
 30
0.0
 10
-33.33750000000008
 20
-4.279658615326994
 30
0.0
 10
-33.33750000000008
 20
-4.110592275494128
 30
0.0
 10
-33.33750000000008
 20
-3.536403249295908
 30
0.0
 10
-33.33750000000008
 20
-3.133699623960432
 30
0.0
 10
-33.33750000000008
 20
-2.674846316482885
 30
0.0
  0
LINE
  5
25F
330
1F
100
AcDbEntity
  8
0
  6
Continuous
 62
     1
370
    15
100
AcDbLine
 10
-74.61250000000005
 20
12.70000000000005
 30
0.0
 11
-74.61249999999971
 21
12.05154903924516
 31
0.0
1001
PE_URL
1000

  0
SPLINE
  5
260
330
1F
100
AcDbEntity
  8
0
  6
Continuous
 62
     1
370
    15
100
AcDbSpline
210
0.0
220
0.0
230
1.0
 70
     8
 71
     3
 72
    10
 73
     6
 74
     0
 42
0.000000001
 43
0.00000001
 40
0.0
 40
0.0
 40
0.0
 40
0.0
 40
0.5
 40
0.5
 40
1.0
 40
1.0
 40
1.0
 40
1.0
 10
-74.61250000000007
 20
3.393985414576537
 30
0.0
 10
-73.76190223300549
 20
2.725276500219955
 30
0.0
 10
-72.91993926415037
 20
2.038875865003558
 30
0.0
 10
-71.25304037091931
 20
0.6311881139455799
 30
0.0
 10
-70.4281032680789
 20
-0.0900965873560864
 30
0.0
 10
-69.61250000000172
 20
-0.8305052561803805
 30
0.0
1001
PE_URL
1000

  0
LINE
  5
261
330
1F
100
AcDbEntity
  8
0
  6
Continuous
 62
     1
370
    15
100
AcDbLine
 10
-69.61250000000007
 20
-2.937719435296543
 30
0.0
 11
-74.61250000000007
 21
0.0000000000000462
 31
0.0
1001
PE_URL
1000

  0
LINE
  5
262
330
1F
100
AcDbEntity
  8
0
  6
Continuous
 62
     1
370
    15
100
AcDbLine
 10
-74.61250000000007
 20
0.0000000000000462
 30
0.0
 11
-74.61250000000007
 21
3.393985414576537
 31
0.0
1001
PE_URL
1000

  0
SPLINE
  5
263
330
1F
100
AcDbEntity
  8
0
  6
Continuous
 62
     1
370
    15
100
AcDbSpline
210
0.0
220
0.0
230
1.0
 70
     8
 71
     3
 72
    16
 73
    12
 74
     0
 42
0.000000001
 43
0.00000001
 40
0.0
 40
0.0
 40
0.0
 40
0.0
 40
0.0947059384359922
 40
0.1894438310275897
 40
0.3045084430810176
 40
0.4195734906580349
 40
0.5346389583728568
 40
0.6497048308261454
 40
0.764771092605503
 40
0.8798377282859651
 40
1.0
 40
1.0
 40
1.0
 40
1.0
 10
-69.61250000000004
 20
-2.289784744250603
 30
0.0
 10
-68.59920246735177
 20
-2.741624217379282
 30
0.0
 10
-66.57226551148783
 20
-3.645455616049581
 30
0.0
 10
-63.31401719987859
 20
-5.010731657634217
 30
0.0
 10
-59.8377805913219
 20
-6.352634698492288
 30
0.0
 10
-56.14407258256807
 20
-7.598569065333365
 30
0.0
 10
-52.45033619848313
 20
-8.630653489041016
 30
0.0
 10
-48.75659236597573
 20
-9.421524563019211
 30
0.0
 10
-45.06281840804385
 20
-9.941114702087916
 30
0.0
 10
-41.31456663824123
 20
-10.2082916382134
 30
0.0
 10
-38.79740690364909
 20
-10.12700792776445
 30
0.0
 10
-37.51156310440709
 20
-10.08548567010879
 30
0.0
1001
PE_URL
1000

  0
SPLINE
  5
264
330
1F
100
AcDbEntity
  8
0
  6
Continuous
 62
     1
370
    15
100
AcDbSpline
210
0.0
220
0.0
230
1.0
 70
    24
 71
     3
 72
     8
 73
     4
 74
     0
 42
0.000000001
 43
0.00000001
 40
0.0
 40
0.0
 40
0.0
 40
0.0
 40
1.0
 40
1.0
 40
1.0
 40
1.0
 10
-69.61250000000007
 20
-0.8305052561693103
 30
0.0
 10
-69.61250000000007
 20
-1.322728240362189
 30
0.0
 10
-69.61250000000007
 20
-1.810406971894803
 30
0.0
 10
-69.61250000000007
 20
-2.2897847442506
 30
0.0
1001
PE_URL
1000

  0
SPLINE
  5
265
330
1F
100
AcDbEntity
  8
0
  6
Continuous
 62
     1
370
    15
100
AcDbSpline
210
0.0
220
0.0
230
1.0
 70
    24
 71
     3
 72
    12
 73
     8
 74
     0
 42
0.000000001
 43
0.00000001
 40
0.0
 40
0.0
 40
0.0
 40
0.0
 40
0.4999999999999998
 40
0.4999999999999998
 40
0.7499999999999999
 40
0.7499999999999999
 40
1.0
 40
1.0
 40
1.0
 40
1.0
 10
-74.61250000000005
 20
10.01994775747639
 30
0.0
 10
-74.61250000000007
 20
9.251840640348373
 30
0.0
 10
-74.61250000000007
 20
8.2813078456122
 30
0.0
 10
-74.61250000000007
 20
6.589011337313313
 30
0.0
 10
-74.61250000000007
 20
5.986484557406055
 30
0.0
 10
-74.6125000000001
 20
4.725678605577858
 30
0.0
 10
-74.61250000000007
 20
4.067494970664313
 30
0.0
 10
-74.61250000000007
 20
3.393985414576946
 30
0.0
1001
PE_URL
1000

  0
SPLINE
  5
266
330
1F
100
AcDbEntity
  8
외형선
  6
Continuous
370
    15
100
AcDbSpline
210
0.0
220
0.0
230
1.0
 70
    24
 71
     3
 72
    12
 73
     8
 74
     0
 42
0.000000001
 43
0.00000001
 40
0.0
 40
0.0
 40
0.0
 40
0.0
 40
0.0496288857037067
 40
0.3358526514828963
 40
0.6303769258598576
 40
0.8891158563154224
 40
1.0
 40
1.0
 40
1.0
 40
1.0
 10
-33.33750000000009
 20
-9.92236725681093
 30
0.0
 10
-33.33750000000009
 20
-9.926207158513023
 30
0.0
 10
-33.33750000000009
 20
-9.952192855145064
 30
0.0
 10
-33.33750000000009
 20
-9.701138718071718
 30
0.0
 10
-33.33750000000009
 20
-9.055026014782293
 30
0.0
 10
-33.33750000000009
 20
-8.307951869901714
 30
0.0
 10
-33.33750000000009
 20
-7.726054964210611
 30
0.0
 10
-33.33750000000009
 20
-7.551490266781038
 30
0.0
  0
SPLINE
  5
267
330
1F
100
AcDbEntity
  8
0
  6
Continuous
 62
     1
370
    15
100
AcDbSpline
210
0.0
220
0.0
230
1.0
 70
    24
 71
     3
 72
    10
 73
     6
 74
     0
 42
0.000000001
 43
0.00000001
 40
0.0
 40
0.0
 40
0.0
 40
0.0
 40
0.5000000000000001
 40
0.5000000000000001
 40
1.0
 40
1.0
 40
1.0
 40
1.0
 10
-69.61250000000007
 20
-2.289784744250596
 30
0.0
 10
-69.61250000000008
 20
-3.318117051978149
 30
0.0
 10
-69.61250000000008
 20
-4.293337801787494
 30
0.0
 10
-69.61250000000008
 20
-6.003026800807334
 30
0.0
 10
-69.61250000000008
 20
-6.735761112039256
 30
0.0
 10
-69.61250000000008
 20
-7.298596457508332
 30
0.0
1001
PE_URL
1000

  0
SPLINE
  5
268
330
1F
100
AcDbEntity
  8
0
  6
Continuous
 62
     1
370
    15
100
AcDbSpline
210
0.0
220
0.0
230
1.0
 70
     8
 71
     3
 72
     9
 73
     5
 74
     0
 42
0.000000001
 43
0.00000001
 40
0.0
 40
0.0
 40
0.0
 40
0.0
 40
0.7817776230893256
 40
1.0
 40
1.0
 40
1.0
 40
1.0
 10
-74.61250000000008
 20
-8.88999999999995
 30
0.0
 10
-73.38128275492979
 20
-8.880445745088288
 30
0.0
 10
-71.80638829810856
 20
-8.868224552476107
 30
0.0
 10
-70.23149279438125
 20
-8.698305206035698
 30
0.0
 10
-69.88781535417196
 20
-8.661225002372369
 30
0.0
1001
PE_URL
1000

  0
SPLINE
  5
269
330
1F
100
AcDbEntity
  8
0
  6
Continuous
 62
     1
370
    15
100
AcDbSpline
210
0.0
220
0.0
230
1.0
 70
     8
 71
     3
 72
     8
 73
     4
 74
     0
 42
0.000000001
 43
0.00000001
 40
0.0
 40
0.0
 40
0.0
 40
0.0
 40
1.0
 40
1.0
 40
1.0
 40
1.0
 10
-74.61250000000008
 20
-8.889999999999958
 30
0.0
 10
-72.93185188656214
 20
-8.434389401781246
 30
0.0
 10
-71.26454233969726
 20
-7.907363561684463
 30
0.0
 10
-69.61250000000008
 20
-7.298596457508332
 30
0.0
1001
PE_URL
1000

  0
SPLINE
  5
26A
330
1F
100
AcDbEntity
  8
0
  6
Continuous
 62
     1
370
    15
100
AcDbSpline
210
0.0
220
0.0
230
1.0
 70
     8
 71
     3
 72
    11
 73
     7
 74
     0
 42
0.000000001
 43
0.00000001
 40
0.0
 40
0.0
 40
0.0
 40
0.0
 40
0.1845539233567602
 40
0.4414475406385845
 40
0.7207110758524324
 40
1.0
 40
1.0
 40
1.0
 40
1.0
 10
-47.71646110142417
 20
9.523325443479
 30
0.0
 10
-46.83191629245982
 20
9.660352258688729
 30
0.0
 10
-44.71611120200342
 20
9.9881163586095
 30
0.0
 10
-41.26187530965882
 20
10.18687209003694
 30
0.0
 10
-37.35336503722351
 20
10.1555073782856
 30
0.0
 10
-34.67616224304975
 20
9.844638947341426
 30
0.0
 10
-33.33750000000008
 20
9.689197666626082
 30
0.0
1001
PE_URL
1000

  0
SPLINE
  5
26B
330
1F
100
AcDbEntity
  8
외형선
  6
Continuous
370
    15
100
AcDbSpline
210
0.0
220
0.0
230
1.0
 70
    24
 71
     3
 72
    14
 73
    10
 74
     0
 42
0.000000001
 43
0.00000001
 40
0.0
 40
0.0
 40
0.0
 40
0.0
 40
0.25
 40
0.25
 40
0.4999999999999999
 40
0.4999999999999999
 40
0.75
 40
0.75
 40
1.0
 40
1.0
 40
1.0
 40
1.0
 10
-33.33750000000006
 20
-2.674846316482888
 30
0.0
 10
-33.33750000000006
 20
-1.554485769315665
 30
0.0
 10
-33.33750000000006
 20
-0.3856054938154045
 30
0.0
 10
-33.33750000000006
 20
1.945594131518671
 30
0.0
 10
-33.33750000000006
 20
3.10676743688672
 30
0.0
 10
-33.33750000000006
 20
5.304214521798368
 30
0.0
 10
-33.33750000000006
 20
6.339317409663771
 30
0.0
 10
-33.33750000000005
 20
8.190148010146224
 30
0.0
 10
-33.33750000000005
 20
9.005404382512417
 30
0.0
 10
-33.33750000000005
 20
9.689197666626082
 30
0.0
  0
LINE
  5
26C
330
1F
100
AcDbEntity
  8
0
  6
Continuous
 62
     1
370
    15
100
AcDbLine
 10
-74.61250000000007
 20
0.0000000000000462
 30
0.0
 11
-74.61250000000008
 21
-8.889999999999958
 31
0.0
1001
PE_URL
1000

  0
SPLINE
  5
26D
330
1F
100
AcDbEntity
  8
외형선
  6
Continuous
370
    15
100
AcDbSpline
210
0.0
220
0.0
230
1.0
 70
    24
 71
     3
 72
     9
 73
     5
 74
     0
 42
0.000000001
 43
0.00000001
 40
0.0
 40
0.0
 40
0.0
 40
0.0
 40
0.5727226647651854
 40
1.0
 40
1.0
 40
1.0
 40
1.0
 10
-33.33750000000006
 20
9.689197666626086
 30
0.0
 10
-33.33750000000006
 20
9.776194711214394
 30
0.0
 10
-33.33750000000006
 20
9.928095535017093
 30
0.0
 10
-33.33750000000006
 20
9.92413396060315
 30
0.0
 10
-33.33750000000006
 20
9.922441269644231
 30
0.0
  0
SPLINE
  5
26E
330
1F
100
AcDbEntity
  8
0
  6
Continuous
 62
     1
370
    15
100
AcDbSpline
210
0.0
220
0.0
230
1.0
 70
     8
 71
     3
 72
    12
 73
     8
 74
     0
 42
0.000000001
 43
0.00000001
 40
0.0
 40
0.0
 40
0.0
 40
0.0
 40
0.1670913291694676
 40
0.3753184873813082
 40
0.5835456519124282
 40
0.7917728227797006
 40
1.0
 40
1.0
 40
1.0
 40
1.0
 10
-57.1686104616239
 20
-8.513094786246235
 30
0.0
 10
-58.14018467786968
 20
-8.921753208347027
 30
0.0
 10
-60.32252272636418
 20
-9.839676727184703
 30
0.0
 10
-63.71562466995138
 20
-10.9621488479809
 30
0.0
 10
-67.34791632495875
 20
-11.88518733782945
 30
0.0
 10
-70.98020811162944
 20
-12.50266425617124
 30
0.0
 10
-73.40173602489638
 20
-12.62706552036878
 30
0.0
 10
-74.61250000000008
 20
-12.69999999999996
 30
0.0
1001
PE_URL
1000

  0
SPLINE
  5
26F
330
1F
100
AcDbEntity
  8
0
  6
Continuous
 62
     1
370
    15
100
AcDbSpline
210
0.0
220
0.0
230
1.0
 70
    24
 71
     3
 72
    10
 73
     6
 74
     0
 42
0.000000001
 43
0.00000001
 40
0.0
 40
0.0
 40
0.0
 40
0.0
 40
0.5
 40
0.5
 40
1.0
 40
1.0
 40
1.0
 40
1.0
 10
-74.61250000000008
 20
-8.88999999999995
 30
0.0
 10
-74.61250000000008
 20
-9.428889661452835
 30
0.0
 10
-74.61250000000008
 20
-10.05512935461233
 30
0.0
 10
-74.61250000000008
 20
-11.36897854420281
 30
0.0
 10
-74.61250000000008
 20
-12.05323263467865
 30
0.0
 10
-74.61250000000005
 20
-12.69999999999996
 30
0.0
1001
PE_URL
1000

  0
LINE
  5
270
330
1F
100
AcDbEntity
  8
외형선
  6
Continuous
370
    15
100
AcDbLine
 10
-8.458199999999938
 20
12.69999999999999
 30
0.0
 11
-30.28761081259613
 21
12.69999999999999
 31
0.0
  0
ENDSEC
  0
SECTION
  2
OBJECTS
  0
DICTIONARY
  5
C
330
0
100
AcDbDictionary
281
     1
  3
ACAD_DETAILVIEWSTYLE
350
1B3
  3
ACAD_GROUP
350
D
  3
ACAD_LAYOUT
350
1A
  3
ACAD_MLINESTYLE
350
17
  3
ACAD_PLOTSETTINGS
350
19
  3
ACAD_PLOTSTYLENAME
350
E
  3
ACAD_SCALELIST
350
47
  3
ACAD_SECTIONVIEWSTYLE
350
1B4
  3
AcDbVariableDictionary
350
1AE
  3
APPDATA
350
152
  3
DWGPROPS
350
271
  0
DICTIONARY
  5
18C
330
2
100
AcDbDictionary
280
     1
281
     1
  3
ACAD_LAYERSTATES
360
18D
  0
DICTIONARY
  5
1B3
102
{ACAD_REACTORS
330
C
102
}
330
C
100
AcDbDictionary
281
     1
  0
DICTIONARY
  5
D
102
{ACAD_REACTORS
330
C
102
}
330
C
100
AcDbDictionary
281
     1
  0
DICTIONARY
  5
1A
102
{ACAD_REACTORS
330
C
102
}
330
C
100
AcDbDictionary
281
     1
  3
Layout1
350
1E
  3
Layout2
350
26
  3
Model
350
22
  0
DICTIONARY
  5
17
102
{ACAD_REACTORS
330
C
102
}
330
C
100
AcDbDictionary
281
     1
  3
Standard
350
18
  0
DICTIONARY
  5
19
102
{ACAD_REACTORS
330
C
102
}
330
C
100
AcDbDictionary
281
     1
  0
ACDBDICTIONARYWDFLT
  5
E
102
{ACAD_REACTORS
330
C
102
}
330
C
100
AcDbDictionary
281
     1
  3
Normal
350
F
100
AcDbDictionaryWithDefault
340
F
  0
DICTIONARY
  5
47
102
{ACAD_REACTORS
330
C
102
}
330
C
100
AcDbDictionary
281
     1
  3
A0
350
48
  3
A1
350
49
  3
A2
350
4A
  3
A3
350
4B
  3
A4
350
4C
  3
A5
350
4D
  3
A6
350
4E
  3
A7
350
4F
  3
A8
350
50
  3
A9
350
51
  3
B0
350
52
  3
B1
350
53
  3
B2
350
54
  3
B3
350
55
  3
B4
350
56
  3
B5
350
57
  3
B6
350
58
  3
B7
350
59
  3
B8
350
5A
  3
B9
350
5B
  3
C0
350
5C
  3
C1
350
5D
  3
C2
350
5E
  3
C3
350
5F
  3
C4
350
60
  3
C5
350
61
  3
C6
350
62
  3
C7
350
63
  3
C8
350
64
  3
C9
350
65
  3
D0
350
66
  3
D1
350
67
  3
D2
350
68
  0
DICTIONARY
  5
1B4
102
{ACAD_REACTORS
330
C
102
}
330
C
100
AcDbDictionary
281
     1
  0
DICTIONARY
  5
1AE
102
{ACAD_REACTORS
330
C
102
}
330
C
100
AcDbDictionary
281
     1
  0
DICTIONARY
  5
152
102
{ACAD_REACTORS
330
C
102
}
330
C
100
AcDbDictionary
281
     1
  0
XRECORD
  5
271
102
{ACAD_REACTORS
330
C
102
}
330
C
100
AcDbXrecord
280
     1
  1
DWGPROPS COOKIE
  2

  3

  4

  6

  7

  8
120170442
  9

300
=
301
=
302
=
303
=
304
=
305
=
306
=
307
=
308
=
309
=
 40
0.0
 41
2458313.027241806
 42
2458324.113004607
  1

 90
        0
  0
DICTIONARY
  5
18D
102
{ACAD_REACTORS
330
18C
102
}
330
18C
100
AcDbDictionary
281
     1
  0
LAYOUT
  5
1E
102
{ACAD_REACTORS
330
1A
102
}
330
1A
100
AcDbPlotSettings
  1

  2
none_device
  4

  6

 40
0.0
 41
0.0
 42
0.0
 43
0.0
 44
0.0
 45
0.0
 46
0.0
 47
0.0
 48
0.0
 49
0.0
140
0.0
141
0.0
142
1.0
143
1.0
 70
   688
 72
     1
 73
     0
 74
     5
  7

 75
    16
147
1.0
148
0.0
149
0.0
100
AcDbLayout
  1
Layout1
 70
     1
 71
     1
 10
0.0
 20
0.0
 11
420.0
 21
297.0
 12
0.0
 22
0.0
 32
0.0
 14
1.000000000000000E+20
 24
1.000000000000000E+20
 34
1.000000000000000E+20
 15
-1.000000000000000E+20
 25
-1.000000000000000E+20
 35
-1.000000000000000E+20
146
0.0
 13
0.0
 23
0.0
 33
0.0
 16
1.0
 26
0.0
 36
0.0
 17
0.0
 27
1.0
 37
0.0
 76
     0
330
1B
  0
LAYOUT
  5
26
102
{ACAD_REACTORS
330
1A
102
}
330
1A
100
AcDbPlotSettings
  1

  2
none_device
  4

  6

 40
0.0
 41
0.0
 42
0.0
 43
0.0
 44
0.0
 45
0.0
 46
0.0
 47
0.0
 48
0.0
 49
0.0
140
0.0
141
0.0
142
1.0
143
1.0
 70
   688
 72
     1
 73
     0
 74
     5
  7

 75
    16
147
1.0
148
0.0
149
0.0
100
AcDbLayout
  1
Layout2
 70
     1
 71
     2
 10
0.0
 20
0.0
 11
0.0
 21
0.0
 12
0.0
 22
0.0
 32
0.0
 14
0.0
 24
0.0
 34
0.0
 15
0.0
 25
0.0
 35
0.0
146
0.0
 13
0.0
 23
0.0
 33
0.0
 16
1.0
 26
0.0
 36
0.0
 17
0.0
 27
1.0
 37
0.0
 76
     0
330
23
  0
LAYOUT
  5
22
102
{ACAD_REACTORS
330
1A
102
}
330
1A
100
AcDbPlotSettings
  1

  2
none_device
  4
ANSI_A_(11.00_x_8.50_Inches)
  6

 40
6.35
 41
19.05
 42
6.35000508
 43
19.05000254
 44
279.4
 45
215.9
 46
53.04992004226212
 47
21.47931169158544
 48
0.0
 49
0.0
140
0.0
141
0.0
142
0.0189089557844881
143
1.0
 70
  1696
 72
     0
 73
     0
 74
     0
  7

 75
     0
147
0.0235690232323232
148
0.0
149
0.0
100
AcDbLayout
  1
Model
 70
     1
 71
     0
 10
0.0
 20
0.0
 11
420.0
 21
297.0
 12
0.0
 22
0.0
 32
0.0
 14
-94.48750000000007
 24
-49.97180738881175
 34
0.0
 15
104.1441250329551
 25
47.57499999999999
 35
0.0
146
0.0
 13
0.0
 23
0.0
 33
0.0
 16
1.0
 26
0.0
 36
0.0
 17
0.0
 27
1.0
 37
0.0
 76
     0
330
1F
331
29
  0
MLINESTYLE
  5
18
102
{ACAD_REACTORS
330
17
102
}
330
17
100
AcDbMlineStyle
  2
Standard
 70
     0
  3

 62
   256
 51
90.0
 52
90.0
 71
     2
 49
0.5
 62
   256
  6
BYLAYER
 49
-0.5
 62
   256
  6
BYLAYER
  0
ACDBPLACEHOLDER
  5
F
102
{ACAD_REACTORS
330
E
102
}
330
E
  0
SCALE
  5
48
102
{ACAD_REACTORS
330
47
102
}
330
47
100
AcDbScale
 70
     0
300
1:1
140
1.0
141
1.0
290
     1
  0
SCALE
  5
49
102
{ACAD_REACTORS
330
47
102
}
330
47
100
AcDbScale
 70
     0
300
1:2
140
1.0
141
2.0
290
     0
  0
SCALE
  5
4A
102
{ACAD_REACTORS
330
47
102
}
330
47
100
AcDbScale
 70
     0
300
1:4
140
1.0
141
4.0
290
     0
  0
SCALE
  5
4B
102
{ACAD_REACTORS
330
47
102
}
330
47
100
AcDbScale
 70
     0
300
1:5
140
1.0
141
5.0
290
     0
  0
SCALE
  5
4C
102
{ACAD_REACTORS
330
47
102
}
330
47
100
AcDbScale
 70
     0
300
1:8
140
1.0
141
8.0
290
     0
  0
SCALE
  5
4D
102
{ACAD_REACTORS
330
47
102
}
330
47
100
AcDbScale
 70
     0
300
1:10
140
1.0
141
10.0
290
     0
  0
SCALE
  5
4E
102
{ACAD_REACTORS
330
47
102
}
330
47
100
AcDbScale
 70
     0
300
1:16
140
1.0
141
16.0
290
     0
  0
SCALE
  5
4F
102
{ACAD_REACTORS
330
47
102
}
330
47
100
AcDbScale
 70
     0
300
1:20
140
1.0
141
20.0
290
     0
  0
SCALE
  5
50
102
{ACAD_REACTORS
330
47
102
}
330
47
100
AcDbScale
 70
     0
300
1:30
140
1.0
141
30.0
290
     0
  0
SCALE
  5
51
102
{ACAD_REACTORS
330
47
102
}
330
47
100
AcDbScale
 70
     0
300
1:40
140
1.0
141
40.0
290
     0
  0
SCALE
  5
52
102
{ACAD_REACTORS
330
47
102
}
330
47
100
AcDbScale
 70
     0
300
1:50
140
1.0
141
50.0
290
     0
  0
SCALE
  5
53
102
{ACAD_REACTORS
330
47
102
}
330
47
100
AcDbScale
 70
     0
300
1:100
140
1.0
141
100.0
290
     0
  0
SCALE
  5
54
102
{ACAD_REACTORS
330
47
102
}
330
47
100
AcDbScale
 70
     0
300
2:1
140
2.0
141
1.0
290
     0
  0
SCALE
  5
55
102
{ACAD_REACTORS
330
47
102
}
330
47
100
AcDbScale
 70
     0
300
4:1
140
4.0
141
1.0
290
     0
  0
SCALE
  5
56
102
{ACAD_REACTORS
330
47
102
}
330
47
100
AcDbScale
 70
     0
300
8:1
140
8.0
141
1.0
290
     0
  0
SCALE
  5
57
102
{ACAD_REACTORS
330
47
102
}
330
47
100
AcDbScale
 70
     0
300
10:1
140
10.0
141
1.0
290
     0
  0
SCALE
  5
58
102
{ACAD_REACTORS
330
47
102
}
330
47
100
AcDbScale
 70
     0
300
100:1
140
100.0
141
1.0
290
     0
  0
SCALE
  5
59
102
{ACAD_REACTORS
330
47
102
}
330
47
100
AcDbScale
 70
     0
300
1/128" = 1'-0"
140
0.0078125
141
12.0
290
     0
  0
SCALE
  5
5A
102
{ACAD_REACTORS
330
47
102
}
330
47
100
AcDbScale
 70
     0
300
1/64" = 1'-0"
140
0.015625
141
12.0
290
     0
  0
SCALE
  5
5B
102
{ACAD_REACTORS
330
47
102
}
330
47
100
AcDbScale
 70
     0
300
1/32" = 1'-0"
140
0.03125
141
12.0
290
     0
  0
SCALE
  5
5C
102
{ACAD_REACTORS
330
47
102
}
330
47
100
AcDbScale
 70
     0
300
1/16" = 1'-0"
140
0.0625
141
12.0
290
     0
  0
SCALE
  5
5D
102
{ACAD_REACTORS
330
47
102
}
330
47
100
AcDbScale
 70
     0
300
3/32" = 1'-0"
140
0.09375
141
12.0
290
     0
  0
SCALE
  5
5E
102
{ACAD_REACTORS
330
47
102
}
330
47
100
AcDbScale
 70
     0
300
1/8" = 1'-0"
140
0.125
141
12.0
290
     0
  0
SCALE
  5
5F
102
{ACAD_REACTORS
330
47
102
}
330
47
100
AcDbScale
 70
     0
300
3/16" = 1'-0"
140
0.1875
141
12.0
290
     0
  0
SCALE
  5
60
102
{ACAD_REACTORS
330
47
102
}
330
47
100
AcDbScale
 70
     0
300
1/4" = 1'-0"
140
0.25
141
12.0
290
     0
  0
SCALE
  5
61
102
{ACAD_REACTORS
330
47
102
}
330
47
100
AcDbScale
 70
     0
300
3/8" = 1'-0"
140
0.375
141
12.0
290
     0
  0
SCALE
  5
62
102
{ACAD_REACTORS
330
47
102
}
330
47
100
AcDbScale
 70
     0
300
1/2" = 1'-0"
140
0.5
141
12.0
290
     0
  0
SCALE
  5
63
102
{ACAD_REACTORS
330
47
102
}
330
47
100
AcDbScale
 70
     0
300
3/4" = 1'-0"
140
0.75
141
12.0
290
     0
  0
SCALE
  5
64
102
{ACAD_REACTORS
330
47
102
}
330
47
100
AcDbScale
 70
     0
300
1" = 1'-0"
140
1.0
141
12.0
290
     0
  0
SCALE
  5
65
102
{ACAD_REACTORS
330
47
102
}
330
47
100
AcDbScale
 70
     0
300
1-1/2" = 1'-0"
140
1.5
141
12.0
290
     0
  0
SCALE
  5
66
102
{ACAD_REACTORS
330
47
102
}
330
47
100
AcDbScale
 70
     0
300
3" = 1'-0"
140
3.0
141
12.0
290
     0
  0
SCALE
  5
67
102
{ACAD_REACTORS
330
47
102
}
330
47
100
AcDbScale
 70
     0
300
6" = 1'-0"
140
6.0
141
12.0
290
     0
  0
SCALE
  5
68
102
{ACAD_REACTORS
330
47
102
}
330
47
100
AcDbScale
 70
     0
300
1'-0" = 1'-0"
140
12.0
141
12.0
290
     0
  0
ENDSEC
  0
EOF
