  0
SECTION
  2
HEADER
  9
$ACADVER
  1
AC1015
  9
$ACADMAINTVER
 70
     6
  9
$DWGCODEPAGE
  3
ANSI_949
  9
$INSBASE
 10
0.0
 20
0.0
 30
0.0
  9
$EXTMIN
 10
-94.48750000000007
 20
-49.97180738881175
 30
0.0
  9
$EXTMAX
 10
104.1441250329551
 20
53.34472658612229
 30
0.0
  9
$LIMMIN
 10
0.0
 20
0.0
  9
$LIMMAX
 10
420.0
 20
297.0
  9
$ORTHOMODE
 70
     1
  9
$REGENMODE
 70
     1
  9
$FILLMODE
 70
     1
  9
$QTEXTMODE
 70
     0
  9
$MIRRTEXT
 70
     1
  9
$LTSCALE
 40
1.0
  9
$ATTMODE
 70
     1
  9
$TEXTSIZE
 40
3.5
  9
$TRACEWID
 40
1.0
  9
$TEXTSTYLE
  7
Standard
  9
$CLAYER
  8
0
  9
$CELTYPE
  6
ByLayer
  9
$CECOLOR
 62
   256
  9
$CELTSCALE
 40
1.0
  9
$DISPSILH
 70
     0
  9
$DIMSCALE
 40
1.0
  9
$DIMASZ
 40
3.302
  9
$DIMEXO
 40
1.0
  9
$DIMDLI
 40
3.75
  9
$DIMRND
 40
0.0
  9
$DIMDLE
 40
0.0
  9
$DIMEXE
 40
1.0
  9
$DIMTP
 40
0.0
  9
$DIMTM
 40
0.0
  9
$DIMTXT
 40
3.5
  9
$DIMCEN
 40
2.5
  9
$DIMTSZ
 40
0.0
  9
$DIMTOL
 70
     0
  9
$DIMLIM
 70
     0
  9
$DIMTIH
 70
     1
  9
$DIMTOH
 70
     1
  9
$DIMSE1
 70
     0
  9
$DIMSE2
 70
     0
  9
$DIMTAD
 70
     1
  9
$DIMZIN
 70
     0
  9
$DIMBLK
  1

  9
$DIMASO
 70
     1
  9
$DIMSHO
 70
     1
  9
$DIMPOST
  1

  9
$DIMAPOST
  1

  9
$DIMALT
 70
     0
  9
$DIMALTD
 70
     3
  9
$DIMALTF
 40
0.0393700787401575
  9
$DIMLFAC
 40
1.0
  9
$DIMTOFL
 70
     1
  9
$DIMTVP
 40
0.0
  9
$DIMTIX
 70
     0
  9
$DIMSOXD
 70
     0
  9
$DIMSAH
 70
     0
  9
$DIMBLK1
  1

  9
$DIMBLK2
  1

  9
$DIMSTYLE
  2
ISO-25
  9
$DIMCLRD
 70
     0
  9
$DIMCLRE
 70
     0
  9
$DIMCLRT
 70
     0
  9
$DIMTFAC
 40
1.0
  9
$DIMGAP
 40
1.524
  9
$DIMJUST
 70
     0
  9
$DIMSD1
 70
     0
  9
$DIMSD2
 70
     0
  9
$DIMTOLJ
 70
     0
  9
$DIMTZIN
 70
     0
  9
$DIMALTZ
 70
     0
  9
$DIMALTTZ
 70
     0
  9
$DIMUPT
 70
     0
  9
$DIMDEC
 70
     2
  9
$DIMTDEC
 70
     2
  9
$DIMALTU
 70
     2
  9
$DIMALTTD
 70
     3
  9
$DIMTXSTY
  7
Standard
  9
$DIMAUNIT
 70
     0
  9
$DIMADEC
 70
     2
  9
$DIMALTRND
 40
0.0
  9
$DIMAZIN
 70
     0
  9
$DIMDSEP
 70
    44
  9
$DIMATFIT
 70
     3
  9
$DIMFRAC
 70
     0
  9
$DIMLDRBLK
  1

  9
$DIMLUNIT
 70
     2
  9
$DIMLWD
 70
    -2
  9
$DIMLWE
 70
    -2
  9
$DIMTMOVE
 70
     0
  9
$LUNITS
 70
     2
  9
$LUPREC
 70
     2
  9
$SKETCHINC
 40
1.0
  9
$FILLETRAD
 40
10.0
  9
$AUNITS
 70
     0
  9
$AUPREC
 70
     2
  9
$MENU
  1
.
  9
$ELEVATION
 40
0.0
  9
$PELEVATION
 40
0.0
  9
$THICKNESS
 40
0.0
  9
$LIMCHECK
 70
     0
  9
$CHAMFERA
 40
0.0
  9
$CHAMFERB
 40
0.0
  9
$CHAMFERC
 40
0.0
  9
$CHAMFERD
 40
0.0
  9
$SKPOLY
 70
     0
  9
$TDCREATE
 40
2458313.402030556
  9
$TDUCREATE
 40
2458313.027030556
  9
$TDUPDATE
 40
2458324.485455474
  9
$TDUUPDATE
 40
2458324.110455474
  9
$TDINDWG
 40
0.000420162
  9
$TDUSRTIMER
 40
0.0031381944
  9
$USRTIMER
 70
     1
  9
$ANGBASE
 50
0.0
  9
$ANGDIR
 70
     0
  9
$PDMODE
 70
     0
  9
$PDSIZE
 40
-1.0
  9
$PLINEWID
 40
0.0
  9
$SPLFRAME
 70
     0
  9
$SPLINETYPE
 70
     6
  9
$SPLINESEGS
 70
     8
  9
$HANDSEED
  5
22A
  9
$SURFTAB1
 70
     6
  9
$SURFTAB2
 70
     6
  9
$SURFTYPE
 70
     6
  9
$SURFU
 70
     6
  9
$SURFV
 70
     6
  9
$UCSBASE
  2

  9
$UCSNAME
  2

  9
$UCSORG
 10
0.0
 20
0.0
 30
0.0
  9
$UCSXDIR
 10
1.0
 20
0.0
 30
0.0
  9
$UCSYDIR
 10
0.0
 20
1.0
 30
0.0
  9
$UCSORTHOREF
  2

  9
$UCSORTHOVIEW
 70
     0
  9
$UCSORGTOP
 10
0.0
 20
0.0
 30
0.0
  9
$UCSORGBOTTOM
 10
0.0
 20
0.0
 30
0.0
  9
$UCSORGLEFT
 10
0.0
 20
0.0
 30
0.0
  9
$UCSORGRIGHT
 10
0.0
 20
0.0
 30
0.0
  9
$UCSORGFRONT
 10
0.0
 20
0.0
 30
0.0
  9
$UCSORGBACK
 10
0.0
 20
0.0
 30
0.0
  9
$PUCSBASE
  2

  9
$PUCSNAME
  2

  9
$PUCSORG
 10
0.0
 20
0.0
 30
0.0
  9
$PUCSXDIR
 10
1.0
 20
0.0
 30
0.0
  9
$PUCSYDIR
 10
0.0
 20
1.0
 30
0.0
  9
$PUCSORTHOREF
  2

  9
$PUCSORTHOVIEW
 70
     0
  9
$PUCSORGTOP
 10
0.0
 20
0.0
 30
0.0
  9
$PUCSORGBOTTOM
 10
0.0
 20
0.0
 30
0.0
  9
$PUCSORGLEFT
 10
0.0
 20
0.0
 30
0.0
  9
$PUCSORGRIGHT
 10
0.0
 20
0.0
 30
0.0
  9
$PUCSORGFRONT
 10
0.0
 20
0.0
 30
0.0
  9
$PUCSORGBACK
 10
0.0
 20
0.0
 30
0.0
  9
$USERI1
 70
     0
  9
$USERI2
 70
     0
  9
$USERI3
 70
     0
  9
$USERI4
 70
     0
  9
$USERI5
 70
     0
  9
$USERR1
 40
0.0
  9
$USERR2
 40
0.0
  9
$USERR3
 40
0.0
  9
$USERR4
 40
0.0
  9
$USERR5
 40
0.0
  9
$WORLDVIEW
 70
     1
  9
$SHADEDGE
 70
     3
  9
$SHADEDIF
 70
    70
  9
$TILEMODE
 70
     1
  9
$MAXACTVP
 70
    64
  9
$PINSBASE
 10
0.0
 20
0.0
 30
0.0
  9
$PLIMCHECK
 70
     0
  9
$PEXTMIN
 10
1.000000000000000E+20
 20
1.000000000000000E+20
 30
1.000000000000000E+20
  9
$PEXTMAX
 10
-1.000000000000000E+20
 20
-1.000000000000000E+20
 30
-1.000000000000000E+20
  9
$PLIMMIN
 10
0.0
 20
0.0
  9
$PLIMMAX
 10
0.0
 20
0.0
  9
$UNITMODE
 70
     0
  9
$VISRETAIN
 70
     1
  9
$PLINEGEN
 70
     0
  9
$PSLTSCALE
 70
     1
  9
$TREEDEPTH
 70
  3020
  9
$CMLSTYLE
  2
Standard
  9
$CMLJUST
 70
     0
  9
$CMLSCALE
 40
20.0
  9
$PROXYGRAPHICS
 70
     1
  9
$MEASUREMENT
 70
     1
  9
$CELWEIGHT
370
    -1
  9
$ENDCAPS
280
     0
  9
$JOINSTYLE
280
     0
  9
$LWDISPLAY
290
     1
  9
$INSUNITS
 70
     4
  9
$HYPERLINKBASE
  1

  9
$STYLESHEET
  1

  9
$XEDIT
290
     1
  9
$CEPSNTYPE
380
     0
  9
$PSTYLEMODE
290
     1
  9
$FINGERPRINTGUID
  2
{BE13D2A8-47B9-4D92-90BC-2E03AB0E738A}
  9
$VERSIONGUID
  2
{FAEB1C32-E019-11D5-929B-00C0DF256EC4}
  9
$EXTNAMES
290
     1
  9
$PSVPSCALE
 40
0.0
  9
$OLESTARTUP
290
     0
  0
ENDSEC
  0
SECTION
  2
CLASSES
  0
CLASS
  1
ACDBDICTIONARYWDFLT
  2
AcDbDictionaryWithDefault
  3
ObjectDBX Classes
 90
        0
280
     0
281
     0
  0
CLASS
  1
VISUALSTYLE
  2
AcDbVisualStyle
  3
ObjectDBX Classes
 90
     4095
280
     0
281
     0
  0
CLASS
  1
MATERIAL
  2
AcDbMaterial
  3
ObjectDBX Classes
 90
     1153
280
     0
281
     0
  0
CLASS
  1
SCALE
  2
AcDbScale
  3
ObjectDBX Classes
 90
     1153
280
     0
281
     0
  0
CLASS
  1
SUN
  2
AcDbSun
  3
SCENEOE
 90
     1153
280
     0
281
     0
  0
CLASS
  1
ACDBPLACEHOLDER
  2
AcDbPlaceHolder
  3
ObjectDBX Classes
 90
        0
280
     0
281
     0
  0
CLASS
  1
LAYOUT
  2
AcDbLayout
  3
ObjectDBX Classes
 90
        0
280
     0
281
     0
  0
CLASS
  1
TABLESTYLE
  2
AcDbTableStyle
  3
ObjectDBX Classes
 90
     4095
280
     0
281
     0
  0
CLASS
  1
MLEADERSTYLE
  2
AcDbMLeaderStyle
  3
ACDB_MLEADERSTYLE_CLASS
 90
     4095
280
     0
281
     0
  0
CLASS
  1
DICTIONARYVAR
  2
AcDbDictionaryVar
  3
ObjectDBX Classes
 90
        0
280
     0
281
     0
  0
ENDSEC
  0
SECTION
  2
TABLES
  0
TABLE
  2
VPORT
  5
8
330
0
100
AcDbSymbolTable
 70
     1
  0
VPORT
  5
29
330
8
100
AcDbSymbolTableRecord
100
AcDbViewportTableRecord
  2
*Active
 70
     0
 10
0.0
 20
0.0
 11
1.0
 21
1.0
 12
4.82831251647751
 22
1.686459598655254
 13
0.0
 23
0.0
 14
10.0
 24
10.0
 15
10.0
 25
10.0
 16
0.0
 26
0.0
 36
1.0
 17
0.0
 27
0.0
 37
0.0
 40
113.6462292258088
 41
1.782762691853601
 42
50.0
 43
0.0
 44
0.0
 50
0.0
 51
0.0
 71
    16
 72
  2000
 73
     1
 74
     3
 75
     0
 76
     0
 77
     0
 78
     0
281
     0
 65
     1
110
0.0
120
0.0
130
0.0
111
1.0
121
0.0
131
0.0
112
0.0
122
1.0
132
0.0
 79
     0
146
0.0
  0
ENDTAB
  0
TABLE
  2
LTYPE
  5
5
330
0
100
AcDbSymbolTable
 70
     6
  0
LTYPE
  5
14
330
5
100
AcDbSymbolTableRecord
100
AcDbLinetypeTableRecord
  2
ByBlock
 70
     0
  3

 72
    65
 73
     0
 40
0.0
  0
LTYPE
  5
15
330
5
100
AcDbSymbolTableRecord
100
AcDbLinetypeTableRecord
  2
ByLayer
 70
     0
  3

 72
    65
 73
     0
 40
0.0
  0
LTYPE
  5
16
330
5
100
AcDbSymbolTableRecord
100
AcDbLinetypeTableRecord
  2
Continuous
 70
     0
  3
Solid line
 72
    65
 73
     0
 40
0.0
  0
LTYPE
  5
6A
330
5
100
AcDbSymbolTableRecord
100
AcDbLinetypeTableRecord
  2
HIDDEN
 70
     0
  3
Hidden __ __ __ __ __ __ __ __ __ __ __ __ __ __
 72
    65
 73
     2
 40
1.905
 49
1.27
 74
     0
 49
-0.635
 74
     0
  0
LTYPE
  5
6B
330
5
100
AcDbSymbolTableRecord
100
AcDbLinetypeTableRecord
  2
PHANTOM
 70
     0
  3
Phantom ______  __  __  ______  __  __  ______
 72
    65
 73
     6
 40
12.7
 49
6.35
 74
     0
 49
-1.27
 74
     0
 49
1.27
 74
     0
 49
-1.27
 74
     0
 49
1.27
 74
     0
 49
-1.27
 74
     0
  0
LTYPE
  5
6C
330
5
100
AcDbSymbolTableRecord
100
AcDbLinetypeTableRecord
  2
CENTER
 70
     0
  3
Center ____ _ ____ _ ____ _ ____ _ ____ _ ____
 72
    65
 73
     4
 40
10.16
 49
6.35
 74
     0
 49
-1.27
 74
     0
 49
1.27
 74
     0
 49
-1.27
 74
     0
  0
LTYPE
  5
6D
330
5
100
AcDbSymbolTableRecord
100
AcDbLinetypeTableRecord
  2
CENTERX2
 70
     0
  3
Center (2x) ________  __  ________  __  _____
 72
    65
 73
     4
 40
20.32
 49
12.7
 74
     0
 49
-2.54
 74
     0
 49
2.54
 74
     0
 49
-2.54
 74
     0
  0
LTYPE
  5
6E
330
5
100
AcDbSymbolTableRecord
100
AcDbLinetypeTableRecord
  2
DOT2
 70
     0
  3
Dot (.5x) ........................................
 72
    65
 73
     2
 40
0.635
 49
0.0
 74
     0
 49
-0.635
 74
     0
  0
ENDTAB
  0
TABLE
  2
LAYER
  5
2
102
{ACAD_XDICTIONARY
360
191
102
}
330
0
100
AcDbSymbolTable
 70
    18
  0
LAYER
  5
10
330
2
100
AcDbSymbolTableRecord
100
AcDbLayerTableRecord
  2
0
 70
     0
 62
     7
  6
Continuous
370
    -3
390
F
  0
LAYER
  5
6F
330
2
100
AcDbSymbolTableRecord
100
AcDbLayerTableRecord
  2
FORMAT
 70
     0
 62
     2
  6
Continuous
370
    -3
390
F
  0
LAYER
  5
70
330
2
100
AcDbSymbolTableRecord
100
AcDbLayerTableRecord
  2
외형선
 70
     0
 62
     4
  6
Continuous
370
    30
390
F
  0
LAYER
  5
71
330
2
100
AcDbSymbolTableRecord
100
AcDbLayerTableRecord
  2
숨은선
 70
     0
 62
     2
  6
HIDDEN
370
    15
390
F
  0
LAYER
  5
72
330
2
100
AcDbSymbolTableRecord
100
AcDbLayerTableRecord
  2
중심선
 70
     0
 62
     1
  6
CENTERX2
370
    -3
390
F
  0
LAYER
  5
73
330
2
100
AcDbSymbolTableRecord
100
AcDbLayerTableRecord
  2
파단선
 70
     0
 62
     4
  6
Continuous
370
    -3
390
F
  0
LAYER
  5
74
330
2
100
AcDbSymbolTableRecord
100
AcDbLayerTableRecord
  2
해칭선
 70
     0
 62
   100
  6
Continuous
370
    -3
390
F
  0
LAYER
  5
75
330
2
100
AcDbSymbolTableRecord
100
AcDbLayerTableRecord
  2
가는실선
 70
     0
 62
     4
  6
Continuous
370
    -3
390
F
  0
LAYER
  5
76
330
2
100
AcDbSymbolTableRecord
100
AcDbLayerTableRecord
  2
치수_보조선
 70
     0
 62
     4
  6
Continuous
370
    -3
390
F
  0
LAYER
  5
77
330
2
100
AcDbSymbolTableRecord
100
AcDbLayerTableRecord
  2
치수문자_일반주서
 70
     0
 62
     7
  6
Continuous
370
    15
390
F
  0
LAYER
  5
78
330
2
100
AcDbSymbolTableRecord
100
AcDbLayerTableRecord
  2
개별주서
 70
     0
 62
   100
  6
Continuous
370
    30
390
F
  0
LAYER
  5
79
330
2
100
AcDbSymbolTableRecord
100
AcDbLayerTableRecord
  2
중간선
 70
     0
 62
     2
  6
Continuous
370
    15
390
F
  0
LAYER
  5
7A
330
2
100
AcDbSymbolTableRecord
100
AcDbLayerTableRecord
  2
윤곽선
 70
     0
 62
     3
  6
Continuous
370
    40
390
F
  0
LAYER
  5
7B
330
2
100
AcDbSymbolTableRecord
100
AcDbLayerTableRecord
  2
중심마크
 70
     0
 62
   100
  6
Continuous
370
    30
390
F
  0
LAYER
  5
7C
330
2
100
AcDbSymbolTableRecord
100
AcDbLayerTableRecord
  2
가상선
 70
     0
 62
     4
  6
PHANTOM
370
    -3
390
F
  0
LAYER
  5
7D
330
2
100
AcDbSymbolTableRecord
100
AcDbLayerTableRecord
  2
특수지정선
 70
     0
 62
     5
  6
CENTERX2
370
    60
390
F
  0
LAYER
  5
7E
330
2
100
AcDbSymbolTableRecord
100
AcDbLayerTableRecord
  2
참조1
 70
     0
 62
    -4
  6
Continuous
370
    -3
390
F
  0
LAYER
  5
159
330
2
100
AcDbSymbolTableRecord
100
AcDbLayerTableRecord
  2
Defpoints
 70
     0
 62
     7
  6
Continuous
290
     0
370
    -3
390
F
  0
ENDTAB
  0
TABLE
  2
STYLE
  5
3
330
0
100
AcDbSymbolTable
 70
     2
  0
STYLE
  5
11
330
3
100
AcDbSymbolTableRecord
100
AcDbTextStyleTableRecord
  2
Standard
 70
     0
 40
0.0
 41
1.0
 50
0.0
 71
     0
 42
3.5
  3
txt
  4

  0
STYLE
  5
94
330
3
100
AcDbSymbolTableRecord
100
AcDbTextStyleTableRecord
  2
SLDTEXTSTYLE0
 70
     0
 40
0.0
 41
0.75
 50
0.0
 71
     0
 42
3.5
  3
TXT
  4

  0
ENDTAB
  0
TABLE
  2
VIEW
  5
6
330
0
100
AcDbSymbolTable
 70
     0
  0
ENDTAB
  0
TABLE
  2
UCS
  5
7
330
0
100
AcDbSymbolTable
 70
     0
  0
ENDTAB
  0
TABLE
  2
APPID
  5
9
330
0
100
AcDbSymbolTable
 70
     4
  0
APPID
  5
12
330
9
100
AcDbSymbolTableRecord
100
AcDbRegAppTableRecord
  2
ACAD
 70
     0
  0
APPID
  5
161
330
9
100
AcDbSymbolTableRecord
100
AcDbRegAppTableRecord
  2
PE_URL
 70
     0
  0
APPID
  5
228
330
9
100
AcDbSymbolTableRecord
100
AcDbRegAppTableRecord
  2
ACAD_DSTYLE_DIMFLIPARROW_SYMBOL
 70
     0
  0
APPID
  5
229
330
9
100
AcDbSymbolTableRecord
100
AcDbRegAppTableRecord
  2
ACAD_DSTYLE_DIMFLIPARROW_WHICH_SYMBOL
 70
     0
  0
ENDTAB
  0
TABLE
  2
DIMSTYLE
  5
A
330
0
100
AcDbSymbolTable
 70
     3
100
AcDbDimStyleTable
  0
DIMSTYLE
105
27
330
A
100
AcDbSymbolTableRecord
100
AcDbDimStyleTableRecord
  2
ISO-25
 70
     0
 41
2.5
 42
0.625
 43
3.75
 44
1.25
 73
     0
 74
     0
 77
     1
 78
     8
140
2.5
141
2.5
143
0.03937007874016
147
0.625
171
     3
172
     1
178
     0
271
     2
272
     2
274
     3
278
    44
283
     0
284
     8
340
11
  0
DIMSTYLE
105
D9
330
A
100
AcDbSymbolTableRecord
100
AcDbDimStyleTableRecord
  2
SLDDIMSTYLE0
 70
     0
 41
3.302
 44
0.0
 45
0.000000001
 73
     0
 74
     0
 77
     1
 78
     4
 79
     1
140
3.5
143
0.0393700787401575
147
0.875
148
0.000000001
170
     1
172
     1
173
     1
178
     0
271
     2
272
     2
276
     2
284
    12
289
     0
340
94
  0
DIMSTYLE
105
EE
102
{ACAD_REACTORS
330
ED
330
101
330
115
330
180
330
D8
102
}
330
A
100
AcDbSymbolTableRecord
100
AcDbDimStyleTableRecord
  2
SLDDIMSTYLE1
 70
     0
 41
3.302
 44
0.0
 45
0.000000001
 73
     0
 74
     0
 77
     1
 78
    12
 79
     3
140
3.5
143
0.0393700787401575
147
0.875
148
0.000000001
170
     1
173
     1
178
     0
271
     2
272
     2
276
     2
284
    12
340
94
  0
ENDTAB
  0
TABLE
  2
BLOCK_RECORD
  5
1
330
0
100
AcDbSymbolTable
 70
    10
  0
BLOCK_RECORD
  5
1F
330
1
100
AcDbSymbolTableRecord
100
AcDbBlockTableRecord
  2
*Model_Space
340
22
  0
BLOCK_RECORD
  5
1B
330
1
100
AcDbSymbolTableRecord
100
AcDbBlockTableRecord
  2
*Paper_Space
340
1E
  0
BLOCK_RECORD
  5
23
330
1
100
AcDbSymbolTableRecord
100
AcDbBlockTableRecord
  2
*Paper_Space0
340
26
  0
BLOCK_RECORD
  5
7F
330
1
100
AcDbSymbolTableRecord
100
AcDbBlockTableRecord
  2
블럭10
340
0
102
{BLKREFS
331
D1
102
}
  0
BLOCK_RECORD
  5
DA
330
1
100
AcDbSymbolTableRecord
100
AcDbBlockTableRecord
  2
_D
340
0
  0
BLOCK_RECORD
  5
EF
330
1
100
AcDbSymbolTableRecord
100
AcDbBlockTableRecord
  2
_D_1
340
0
  0
BLOCK_RECORD
  5
102
330
1
100
AcDbSymbolTableRecord
100
AcDbBlockTableRecord
  2
_D_2
340
0
  0
BLOCK_RECORD
  5
116
330
1
100
AcDbSymbolTableRecord
100
AcDbBlockTableRecord
  2
_D_3
340
0
  0
BLOCK_RECORD
  5
12F
330
1
100
AcDbSymbolTableRecord
100
AcDbBlockTableRecord
  2
SW_DOWELSYMBOL_0
340
0
102
{BLKREFS
331
135
102
}
  0
BLOCK_RECORD
  5
195
330
1
100
AcDbSymbolTableRecord
100
AcDbBlockTableRecord
  2
*D8
340
0
  0
BLOCK_RECORD
  5
1A7
330
1
100
AcDbSymbolTableRecord
100
AcDbBlockTableRecord
  2
*D9
340
0
  0
ENDTAB
  0
ENDSEC
  0
SECTION
  2
BLOCKS
  0
BLOCK
  5
20
330
1F
100
AcDbEntity
  8
0
100
AcDbBlockBegin
  2
*Model_Space
 70
     0
 10
0.0
 20
0.0
 30
0.0
  3
*Model_Space
  1

  0
ENDBLK
  5
21
330
1F
100
AcDbEntity
  8
0
100
AcDbBlockEnd
  0
BLOCK
  5
1C
330
1B
100
AcDbEntity
 67
     1
  8
0
100
AcDbBlockBegin
  2
*Paper_Space
 70
     0
 10
0.0
 20
0.0
 30
0.0
  3
*Paper_Space
  1

  0
ENDBLK
  5
1D
330
1B
100
AcDbEntity
 67
     1
  8
0
100
AcDbBlockEnd
  0
BLOCK
  5
24
330
23
100
AcDbEntity
  8
0
100
AcDbBlockBegin
  2
*Paper_Space0
 70
     0
 10
0.0
 20
0.0
 30
0.0
  3
*Paper_Space0
  1

  0
ENDBLK
  5
25
330
23
100
AcDbEntity
  8
0
100
AcDbBlockEnd
  0
BLOCK
  5
80
330
7F
100
AcDbEntity
  8
0
100
AcDbBlockBegin
  2
블럭10
 70
     2
 10
0.0
 20
0.0
 30
0.0
  3
블럭10
  1

  0
ELLIPSE
  5
82
330
7F
100
AcDbEntity
  8
중심선
100
AcDbEllipse
 10
20.54032771741204
 20
12.0471743016438
 30
0.0
 11
6.600054785286829
 21
-1.261213355974178E-13
 31
0.0
210
0.0
220
0.0
230
1.0
 40
0.636358354079598
 41
0.9219305317359503
 42
6.513795318482858
  0
ELLIPSE
  5
83
330
7F
100
AcDbEntity
  8
중심선
100
AcDbEllipse
 10
20.54032771746488
 20
12.04717430159265
 30
0.0
 11
3.960054785062283
 21
1.540847449632565E-10
 31
0.0
210
0.0
220
0.0
230
1.0
 40
0.3939339440162632
 41
1.131841032648279
 42
5.62031148352944
  0
LINE
  5
84
330
7F
100
AcDbEntity
  8
중심선
100
AcDbLine
 10
2.268634060543552
 20
16.24717430164393
 30
0.0
 11
5.714909304380834
 21
16.24717430164393
 31
0.0
  0
LINE
  5
85
330
7F
100
AcDbEntity
  8
중심선
100
AcDbLine
 10
5.245725140726316
 20
7.84717430164391
 30
0.0
 11
8.692000384563599
 21
7.84717430164391
 31
0.0
  0
LINE
  5
86
330
7F
100
AcDbEntity
  8
중심선
100
AcDbLine
 10
15.74043728645272
 20
16.24717430164393
 30
0.0
 11
8.692000384563599
 21
7.84717430164391
 31
0.0
  0
LINE
  5
87
330
7F
100
AcDbEntity
  8
중심선
100
AcDbLine
 10
0.1404042013395286
 20
13.71084872107135
 30
0.0
 11
3.58671253028996
 21
13.71088815037384
 31
0.0
  0
LINE
  5
88
330
7F
100
AcDbEntity
  8
중심선
100
AcDbLine
 10
2.750260043222114
 20
10.84717430164391
 30
0.0
 11
6.196535287059397
 21
10.84717430164391
 31
0.0
  0
LINE
  5
89
330
7F
100
AcDbEntity
  8
중심선
100
AcDbLine
 10
12.29416204261559
 20
16.24717430164393
 30
0.0
 11
5.245725140726316
 21
7.84717430164391
 31
0.0
  0
LINE
  5
8A
330
7F
100
AcDbEntity
  8
중심선
100
AcDbLine
 10
10.72767329541681
 20
16.24717430164393
 30
0.0
 11
6.196535287059397
 21
10.84717430164391
 31
0.0
  0
LINE
  5
8B
330
7F
100
AcDbEntity
  8
중심선
100
AcDbLine
 10
7.28139805157953
 20
16.24717430164393
 30
0.0
 11
2.750260043222114
 21
10.84717430164391
 31
0.0
  0
LINE
  5
8C
330
7F
100
AcDbEntity
  8
중심선
100
AcDbLine
 10
5.714909304380834
 20
16.24717430164393
 30
0.0
 11
3.58671253028996
 21
13.71088815037384
 31
0.0
  0
LINE
  5
8D
330
7F
100
AcDbEntity
  8
중심선
100
AcDbLine
 10
2.268634060543552
 20
16.24717430164393
 30
0.0
 11
0.1404042013395286
 21
13.71084872107135
 31
0.0
  0
LINE
  5
8E
330
7F
100
AcDbEntity
  8
중심선
100
AcDbLine
 10
7.28139805157953
 20
16.24717430164393
 30
0.0
 11
10.72767329541681
 21
16.24717430164393
 31
0.0
  0
LINE
  5
8F
330
7F
100
AcDbEntity
  8
중심선
100
AcDbLine
 10
12.29416204261559
 20
16.24717430164393
 30
0.0
 11
15.74043728645272
 21
16.24717430164393
 31
0.0
  0
LINE
  5
90
330
7F
100
AcDbEntity
  8
중심선
100
AcDbLine
 10
19.22036997980202
 20
11.08717430171403
 30
0.0
 11
23.66174974927406
 21
11.08717430171406
 31
0.0
  0
LINE
  5
91
330
7F
100
AcDbEntity
  8
중심선
100
AcDbLine
 10
19.22039502424796
 20
13.00717430171391
 30
0.0
 11
19.22036997980202
 21
11.08717430171403
 31
0.0
  0
LINE
  5
92
330
7F
100
AcDbEntity
  8
중심선
100
AcDbLine
 10
19.22039502424796
 20
13.00717430171391
 30
0.0
 11
26.96566020931264
 21
13.00717430171391
 31
0.0
  0
LINE
  5
93
330
7F
100
AcDbEntity
  8
중심선
100
AcDbLine
 10
22.22332737316547
 20
13.45928029700563
 30
0.0
 11
24.52862924686651
 21
15.39360700705356
 31
0.0
  0
ATTDEF
  5
95
330
7F
100
AcDbEntity
  8
FORMAT
 62
     2
100
AcDbText
 10
4.408487351596664
 20
2.075366912832191
 30
0.0
 40
4.233333333333333
  1
E1050062
 41
0.75
  7
SLDTEXTSTYLE0
 11
4.408487351596664
 21
-0.0412997538344756
 31
0.0
100
AcDbAttributeDefinition
  3

  2
AUTOATTR0
 70
     0
 74
     1
  0
ENDBLK
  5
81
330
7F
100
AcDbEntity
  8
0
100
AcDbBlockEnd
  0
BLOCK
  5
DB
330
DA
100
AcDbEntity
  8
0
100
AcDbBlockBegin
  2
_D
 70
     0
 10
0.0
 20
0.0
 30
0.0
  3
_D
  1

  0
LINE
  5
DD
330
DA
100
AcDbEntity
  8
치수문자_일반주서
 62
     0
370
    -2
100
AcDbLine
 10
-30.34995617949561
 20
12.69999999999999
 30
0.0
 11
-89.6125
 21
12.69999999999977
 31
0.0
  0
LINE
  5
DE
330
DA
100
AcDbEntity
  8
치수문자_일반주서
 62
     0
370
    -2
100
AcDbLine
 10
-30.34995617949568
 20
-12.7
 30
0.0
 11
-89.61249999999991
 21
-12.70000000000022
 31
0.0
  0
LINE
  5
DF
330
DA
100
AcDbEntity
  8
치수문자_일반주서
 62
     0
370
    -2
100
AcDbLine
 10
-89.6125
 20
12.69999999999977
 30
0.0
 11
-89.61250000000008
 21
38.75199999999992
 31
0.0
  0
LINE
  5
E0
330
DA
100
AcDbEntity
  8
치수문자_일반주서
 62
     0
370
    -2
100
AcDbLine
 10
-89.6125
 20
12.69999999999977
 30
0.0
 11
-89.61249999999991
 21
-12.70000000000022
 31
0.0
  0
LINE
  5
E1
330
DA
100
AcDbEntity
  8
치수문자_일반주서
 62
     0
370
    -2
100
AcDbLine
 10
-89.61250000000001
 20
16.00199999999977
 30
0.0
 11
-89.61250000000003
 21
19.30399999999977
 31
0.0
  0
LINE
  5
E2
330
DA
100
AcDbEntity
  8
치수문자_일반주서
 62
     0
370
    -2
100
AcDbLine
 10
-89.6124999999999
 20
-16.00200000000022
 30
0.0
 11
-89.61249999999988
 21
-19.30400000000022
 31
0.0
  0
SOLID
  5
E3
330
DA
100
AcDbEntity
  8
치수문자_일반주서
 62
     0
100
AcDbTrace
 10
-90.16283333333334
 20
16.00199999999976
 30
0.0
 11
-89.06216666666668
 21
16.00199999999977
 31
0.0
 12
-89.6125
 22
12.69999999999977
 32
0.0
 13
-89.6125
 23
12.69999999999977
 33
0.0
  0
SOLID
  5
E4
330
DA
100
AcDbEntity
  8
치수문자_일반주서
 62
     0
100
AcDbTrace
 10
-89.06216666666657
 20
-16.00200000000022
 30
0.0
 11
-90.16283333333323
 21
-16.00200000000023
 31
0.0
 12
-89.61249999999991
 22
-12.70000000000022
 32
0.0
 13
-89.61249999999991
 23
-12.70000000000022
 33
0.0
  0
MTEXT
  5
E5
330
DA
100
AcDbEntity
  8
치수문자_일반주서
 62
     0
100
AcDbMText
 10
-94.48750000000004
 20
27.37699999999991
 30
0.0
 40
4.0
 41
0.0
 71
     2
 72
     1
  1
\A1;%%c25.4 [1]
  7
SLDTEXTSTYLE0
 11
-3.356894814614648E-15
 21
1.0
 31
0.0
 73
     1
 44
1.0
  0
POINT
  5
1B7
330
DA
100
AcDbEntity
  8
Defpoints
 62
     0
100
AcDbPoint
 10
-30.28745617949561
 20
12.69999999999999
 30
0.0
  0
POINT
  5
1B8
330
DA
100
AcDbEntity
  8
Defpoints
 62
     0
100
AcDbPoint
 10
-30.28745617949568
 20
-12.7
 30
0.0
  0
POINT
  5
1B9
330
DA
100
AcDbEntity
  8
Defpoints
 62
     0
100
AcDbPoint
 10
-89.61249999999991
 20
-12.70000000000022
 30
0.0
  0
ENDBLK
  5
DC
330
DA
100
AcDbEntity
  8
0
100
AcDbBlockEnd
  0
BLOCK
  5
F0
330
EF
100
AcDbEntity
  8
0
100
AcDbBlockBegin
  2
_D_1
 70
     0
 10
0.0
 20
0.0
 30
0.0
  3
_D_1
  1

  0
LINE
  5
F2
330
EF
100
AcDbEntity
  8
치수문자_일반주서
 62
     0
370
    -2
100
AcDbLine
 10
74.67500000000003
 20
-12.29272658612221
 30
0.0
 11
89.6125000000001
 21
-12.29272658612216
 31
0.0
  0
LINE
  5
F3
330
EF
100
AcDbEntity
  8
치수문자_일반주서
 62
     0
370
    -2
100
AcDbLine
 10
74.67500000000003
 20
12.29272658612221
 30
0.0
 11
89.61250000000001
 21
12.29272658612226
 31
0.0
  0
LINE
  5
F4
330
EF
100
AcDbEntity
  8
치수문자_일반주서
 62
     0
370
    -2
100
AcDbLine
 10
89.61250000000001
 20
12.29272658612226
 30
0.0
 11
89.61249999999987
 21
53.34472658612226
 31
0.0
  0
LINE
  5
F5
330
EF
100
AcDbEntity
  8
치수문자_일반주서
 62
     0
370
    -2
100
AcDbLine
 10
89.6125000000001
 20
-12.29272658612216
 30
0.0
 11
89.61250000000001
 21
12.29272658612226
 31
0.0
  0
LINE
  5
F6
330
EF
100
AcDbEntity
  8
치수문자_일반주서
 62
     0
370
    -2
100
AcDbLine
 10
89.61250000000011
 20
-15.59472658612216
 30
0.0
 11
89.61250000000013
 21
-18.89672658612216
 31
0.0
  0
LINE
  5
F7
330
EF
100
AcDbEntity
  8
치수문자_일반주서
 62
     0
370
    -2
100
AcDbLine
 10
89.6125
 20
15.59472658612226
 30
0.0
 11
89.61249999999998
 21
18.89672658612226
 31
0.0
  0
SOLID
  5
F8
330
EF
100
AcDbEntity
  8
치수문자_일반주서
 62
     0
100
AcDbTrace
 10
90.16283333333344
 20
-15.59472658612215
 30
0.0
 11
89.06216666666678
 21
-15.59472658612216
 31
0.0
 12
89.6125000000001
 22
-12.29272658612216
 32
0.0
 13
89.6125000000001
 23
-12.29272658612216
 33
0.0
  0
SOLID
  5
F9
330
EF
100
AcDbEntity
  8
치수문자_일반주서
 62
     0
100
AcDbTrace
 10
89.06216666666667
 20
15.59472658612226
 30
0.0
 11
90.16283333333332
 21
15.59472658612227
 31
0.0
 12
89.61250000000001
 22
12.29272658612226
 32
0.0
 13
89.61250000000001
 23
12.29272658612226
 33
0.0
  0
MTEXT
  5
FA
330
EF
100
AcDbEntity
  8
치수문자_일반주서
 62
     0
100
AcDbMText
 10
84.73749999999994
 20
34.46972658612225
 30
0.0
 40
4.0
 41
0.0
 71
     2
 72
     1
  1
\A1;%%c24.59 [31/32]
  7
SLDTEXTSTYLE0
 11
-3.468112940357411E-15
 21
1.0
 31
0.0
 73
     1
 44
1.0
  0
POINT
  5
FB
330
EF
100
AcDbEntity
  8
Defpoints
 62
     0
100
AcDbPoint
 10
74.61250000000003
 20
-12.29272658612221
 30
0.0
  0
POINT
  5
1BA
330
EF
100
AcDbEntity
  8
Defpoints
 62
     0
100
AcDbPoint
 10
74.61250000000003
 20
12.29272658612221
 30
0.0
  0
POINT
  5
1BB
330
EF
100
AcDbEntity
  8
Defpoints
 62
     0
100
AcDbPoint
 10
89.61250000000003
 20
12.29272658612226
 30
0.0
  0
ENDBLK
  5
F1
330
EF
100
AcDbEntity
  8
0
100
AcDbBlockEnd
  0
BLOCK
  5
103
330
102
100
AcDbEntity
  8
0
100
AcDbBlockBegin
  2
_D_2
 70
     0
 10
0.0
 20
0.0
 30
0.0
  3
_D_2
  1

  0
LINE
  5
105
330
102
100
AcDbEntity
  8
치수문자_일반주서
 62
     0
370
    -2
100
AcDbLine
 10
74.61250000000003
 20
12.35522658612221
 30
0.0
 11
74.61250000000003
 21
27.69999999999999
 31
0.0
  0
LINE
  5
106
330
102
100
AcDbEntity
  8
치수문자_일반주서
 62
     0
370
    -2
100
AcDbLine
 10
33.33750000000003
 20
9.674354582459138
 30
0.0
 11
33.33750000000003
 21
27.69999999999999
 31
0.0
  0
LINE
  5
107
330
102
100
AcDbEntity
  8
치수문자_일반주서
 62
     0
370
    -2
100
AcDbLine
 10
71.31050000000002
 20
27.69999999999999
 30
0.0
 11
36.63950000000003
 21
27.69999999999999
 31
0.0
  0
SOLID
  5
108
330
102
100
AcDbEntity
  8
치수문자_일반주서
 62
     0
100
AcDbTrace
 10
71.31050000000002
 20
27.14966666666666
 30
0.0
 11
71.31050000000002
 21
28.25033333333333
 31
0.0
 12
74.61250000000003
 22
27.69999999999999
 32
0.0
 13
74.61250000000003
 23
27.69999999999999
 33
0.0
  0
SOLID
  5
109
330
102
100
AcDbEntity
  8
치수문자_일반주서
 62
     0
100
AcDbTrace
 10
36.63950000000003
 20
28.25033333333333
 30
0.0
 11
36.63950000000003
 21
27.14966666666666
 31
0.0
 12
33.33750000000003
 22
27.69999999999999
 32
0.0
 13
33.33750000000003
 23
27.69999999999999
 33
0.0
  0
MTEXT
  5
10A
330
102
100
AcDbEntity
  8
치수문자_일반주서
 62
     0
100
AcDbMText
 10
53.97500000000001
 20
32.57499999999999
 30
0.0
 40
4.0
 41
0.0
 71
     2
 72
     1
  1
\A1;41.28 [1 5/8]
  7
SLDTEXTSTYLE0
 73
     1
 44
1.0
  0
POINT
  5
10B
330
102
100
AcDbEntity
  8
Defpoints
 62
     0
100
AcDbPoint
 10
74.61250000000003
 20
12.29272658612221
 30
0.0
  0
POINT
  5
10C
330
102
100
AcDbEntity
  8
Defpoints
 62
     0
100
AcDbPoint
 10
33.33750000000003
 20
9.611854582459138
 30
0.0
  0
POINT
  5
10D
330
102
100
AcDbEntity
  8
Defpoints
 62
     0
100
AcDbPoint
 10
33.33750000000003
 20
27.69999999999999
 30
0.0
  0
ENDBLK
  5
104
330
102
100
AcDbEntity
  8
0
100
AcDbBlockEnd
  0
BLOCK
  5
117
330
116
100
AcDbEntity
  8
0
100
AcDbBlockBegin
  2
_D_3
 70
     0
 10
0.0
 20
0.0
 30
0.0
  3
_D_3
  1

  0
LINE
  5
119
330
116
100
AcDbEntity
  8
치수문자_일반주서
 62
     0
370
    -2
100
AcDbLine
 10
-74.61250000000008
 20
12.35522658612233
 30
0.0
 11
-74.61250000000008
 21
42.69999999999999
 31
0.0
  0
LINE
  5
11A
330
116
100
AcDbEntity
  8
치수문자_일반주서
 62
     0
370
    -2
100
AcDbLine
 10
74.61250000000003
 20
12.35522658612221
 30
0.0
 11
74.61250000000003
 21
42.69999999999999
 31
0.0
  0
LINE
  5
11B
330
116
100
AcDbEntity
  8
치수문자_일반주서
 62
     0
370
    -2
100
AcDbLine
 10
-71.31050000000008
 20
42.69999999999999
 30
0.0
 11
71.31050000000002
 21
42.69999999999999
 31
0.0
  0
SOLID
  5
11C
330
116
100
AcDbEntity
  8
치수문자_일반주서
 62
     0
100
AcDbTrace
 10
-71.31050000000008
 20
43.25033333333332
 30
0.0
 11
-71.31050000000008
 21
42.14966666666665
 31
0.0
 12
-74.61250000000008
 22
42.69999999999999
 32
0.0
 13
-74.61250000000008
 23
42.69999999999999
 33
0.0
  0
SOLID
  5
11D
330
116
100
AcDbEntity
  8
치수문자_일반주서
 62
     0
100
AcDbTrace
 10
71.31050000000002
 20
42.14966666666665
 30
0.0
 11
71.31050000000002
 21
43.25033333333332
 31
0.0
 12
74.61250000000003
 22
42.69999999999999
 32
0.0
 13
74.61250000000003
 23
42.69999999999999
 33
0.0
  0
MTEXT
  5
11E
330
116
100
AcDbEntity
  8
치수문자_일반주서
 62
     0
100
AcDbMText
 10
0.0
 20
47.57499999999999
 30
0.0
 40
4.0
 41
0.0
 71
     2
 72
     1
  1
\A1;149.23 [5 7/8]
  7
SLDTEXTSTYLE0
 73
     1
 44
1.0
  0
POINT
  5
11F
330
116
100
AcDbEntity
  8
Defpoints
 62
     0
100
AcDbPoint
 10
-74.61250000000008
 20
12.29272658612233
 30
0.0
  0
POINT
  5
120
330
116
100
AcDbEntity
  8
Defpoints
 62
     0
100
AcDbPoint
 10
74.61250000000003
 20
12.29272658612221
 30
0.0
  0
POINT
  5
121
330
116
100
AcDbEntity
  8
Defpoints
 62
     0
100
AcDbPoint
 10
74.61250000000003
 20
42.69999999999999
 30
0.0
  0
ENDBLK
  5
118
330
116
100
AcDbEntity
  8
0
100
AcDbBlockEnd
  0
BLOCK
  5
130
330
12F
100
AcDbEntity
  8
0
100
AcDbBlockBegin
  2
SW_DOWELSYMBOL_0
 70
     0
 10
0.0
 20
0.0
 30
0.0
  3
SW_DOWELSYMBOL_0
  1

  0
CIRCLE
  5
132
330
12F
100
AcDbEntity
  8
해칭선
 62
     0
100
AcDbCircle
 10
0.0
 20
0.0
 30
0.0
 40
3.000000000000001
  0
HATCH
  5
133
330
12F
100
AcDbEntity
  8
0
  6
Continuous
 62
     0
370
     0
100
AcDbHatch
 10
0.0
 20
0.0
 30
0.0
210
0.0
220
0.0
230
1.0
  2
SOLID
 70
     1
 71
     0
 91
        1
 92
        0
 93
        3
 72
     2
 10
0.0
 20
0.0
 40
3.000000000000001
 50
0.0
 51
90.0
 73
     1
 72
     1
 10
0.0
 20
3.000000000000001
 11
0.0
 21
0.0
 72
     1
 10
0.0
 20
0.0
 11
3.000000000000001
 21
0.0
 97
        0
 75
     0
 76
     1
 98
        1
 10
0.0
 20
0.0
  0
HATCH
  5
134
330
12F
100
AcDbEntity
  8
0
  6
Continuous
 62
     0
370
     0
100
AcDbHatch
 10
0.0
 20
0.0
 30
0.0
210
0.0
220
0.0
230
1.0
  2
SOLID
 70
     1
 71
     0
 91
        1
 92
        0
 93
        3
 72
     2
 10
0.0
 20
0.0
 40
3.000000000000001
 50
180.0
 51
270.0000000000008
 73
     1
 72
     1
 10
0.0
 20
-3.000000000000001
 11
0.0
 21
0.0
 72
     1
 10
0.0
 20
0.0
 11
-3.000000000000001
 21
0.0
 97
        0
 75
     0
 76
     1
 98
        1
 10
0.0
 20
0.0
  0
ENDBLK
  5
131
330
12F
100
AcDbEntity
  8
0
100
AcDbBlockEnd
  0
BLOCK
  5
196
330
195
100
AcDbEntity
  8
0
100
AcDbBlockBegin
  2
*D8
 70
     1
 10
0.0
 20
0.0
 30
0.0
  3
*D8
  1

  0
LINE
  5
198
330
195
100
AcDbEntity
  8
치수문자_일반주서
 62
     0
370
    -2
100
AcDbLine
 10
83.07069999999995
 20
9.276761832744846
 30
0.0
 11
83.07069999999995
 21
25.41461438121116
 31
0.0
  0
LINE
  5
199
330
195
100
AcDbEntity
  8
치수문자_일반주서
 62
     0
370
    -2
100
AcDbLine
 10
41.79569999999995
 20
6.780133273909215
 30
0.0
 11
41.79569999999995
 21
25.41461438121116
 31
0.0
  0
LINE
  5
19A
330
195
100
AcDbEntity
  8
치수문자_일반주서
 62
     0
370
    -2
100
AcDbLine
 10
79.76869999999994
 20
25.41461438121116
 30
0.0
 11
45.09769999999995
 21
25.41461438121116
 31
0.0
  0
SOLID
  5
19B
330
195
100
AcDbEntity
  8
치수문자_일반주서
 62
     0
100
AcDbTrace
 10
79.76869999999994
 20
24.86428104787783
 30
0.0
 11
79.76869999999994
 21
25.9649477145445
 31
0.0
 12
83.07069999999995
 22
25.41461438121116
 32
0.0
 13
83.07069999999995
 23
25.41461438121116
 33
0.0
  0
SOLID
  5
19C
330
195
100
AcDbEntity
  8
치수문자_일반주서
 62
     0
100
AcDbTrace
 10
45.09769999999995
 20
25.9649477145445
 30
0.0
 11
45.09769999999995
 21
24.86428104787783
 31
0.0
 12
41.79569999999995
 22
25.41461438121116
 32
0.0
 13
41.79569999999995
 23
25.41461438121116
 33
0.0
  0
MTEXT
  5
19D
330
195
100
AcDbEntity
  8
치수문자_일반주서
 62
     0
100
AcDbMText
 10
62.43319999999993
 20
30.28961438121116
 30
0.0
 40
4.0
 41
0.0
 71
     2
 72
     1
  1
\A1;41.28 [1 5/8]
  7
SLDTEXTSTYLE0
 73
     1
 44
1.0
  0
POINT
  5
19E
330
195
100
AcDbEntity
  8
Defpoints
 62
     0
100
AcDbPoint
 10
83.07069999999995
 20
9.214261832744846
 30
0.0
  0
POINT
  5
19F
330
195
100
AcDbEntity
  8
Defpoints
 62
     0
100
AcDbPoint
 10
41.79569999999995
 20
6.717633273909215
 30
0.0
  0
POINT
  5
1A0
330
195
100
AcDbEntity
  8
Defpoints
 62
     0
100
AcDbPoint
 10
41.79569999999995
 20
25.41461438121116
 30
0.0
  0
ENDBLK
  5
197
330
195
100
AcDbEntity
  8
0
100
AcDbBlockEnd
  0
BLOCK
  5
1A8
330
1A7
100
AcDbEntity
  8
0
100
AcDbBlockBegin
  2
*D9
 70
     1
 10
0.0
 20
0.0
 30
0.0
  3
*D9
  1

  0
LINE
  5
1AA
330
1A7
100
AcDbEntity
  8
치수문자_일반주서
 62
     0
370
    -2
100
AcDbLine
 10
139.626668210693
 20
-25.85725095530038
 30
0.0
 11
139.626668210693
 21
-9.719398406834063
 31
0.0
  0
LINE
  5
1AB
330
1A7
100
AcDbEntity
  8
치수문자_일반주서
 62
     0
370
    -2
100
AcDbLine
 10
98.35166821069302
 20
-28.35387951413601
 30
0.0
 11
98.35166821069302
 21
-9.719398406834063
 31
0.0
  0
LINE
  5
1AC
330
1A7
100
AcDbEntity
  8
치수문자_일반주서
 62
     0
370
    -2
100
AcDbLine
 10
136.324668210693
 20
-9.719398406834063
 30
0.0
 11
101.653668210693
 21
-9.719398406834063
 31
0.0
  0
SOLID
  5
1AD
330
1A7
100
AcDbEntity
  8
치수문자_일반주서
 62
     0
100
AcDbTrace
 10
136.324668210693
 20
-10.2697317401674
 30
0.0
 11
136.324668210693
 21
-9.16906507350073
 31
0.0
 12
139.626668210693
 22
-9.719398406834063
 32
0.0
 13
139.626668210693
 23
-9.719398406834063
 33
0.0
  0
SOLID
  5
1AE
330
1A7
100
AcDbEntity
  8
치수문자_일반주서
 62
     0
100
AcDbTrace
 10
101.653668210693
 20
-9.16906507350073
 30
0.0
 11
101.653668210693
 21
-10.2697317401674
 31
0.0
 12
98.35166821069302
 22
-9.719398406834063
 32
0.0
 13
98.35166821069302
 23
-9.719398406834063
 33
0.0
  0
MTEXT
  5
1AF
330
1A7
100
AcDbEntity
  8
치수문자_일반주서
 62
     0
100
AcDbMText
 10
118.989168210693
 20
-4.844398406834063
 30
0.0
 40
4.0
 41
0.0
 71
     2
 72
     1
  1
\A1;41.28 [1 5/8]
  7
SLDTEXTSTYLE0
 73
     1
 44
1.0
  0
POINT
  5
1B0
330
1A7
100
AcDbEntity
  8
Defpoints
 62
     0
100
AcDbPoint
 10
139.626668210693
 20
-25.91975095530038
 30
0.0
  0
POINT
  5
1B1
330
1A7
100
AcDbEntity
  8
Defpoints
 62
     0
100
AcDbPoint
 10
98.35166821069302
 20
-28.41637951413601
 30
0.0
  0
POINT
  5
1B2
330
1A7
100
AcDbEntity
  8
Defpoints
 62
     0
100
AcDbPoint
 10
98.35166821069302
 20
-9.719398406834063
 30
0.0
  0
ENDBLK
  5
1A9
330
1A7
100
AcDbEntity
  8
0
100
AcDbBlockEnd
  0
ENDSEC
  0
SECTION
  2
ENTITIES
  0
LINE
  5
96
330
1F
100
AcDbEntity
  8
외형선
  6
Continuous
370
    15
100
AcDbLine
 10
30.28745617949557
 20
12.69999999999999
 30
0.0
 11
8.458199999999966
 21
12.69999999999999
 31
0.0
  0
LINE
  5
97
330
1F
100
AcDbEntity
  8
외형선
  6
Continuous
370
    15
100
AcDbLine
 10
-30.28745617949567
 20
-12.7
 30
0.0
 11
30.28745617949558
 21
-12.7
 31
0.0
  0
SPLINE
  5
9A
330
1F
100
AcDbEntity
  8
외형선
  6
Continuous
370
    15
100
AcDbSpline
210
0.0
220
0.0
230
1.0
 70
     8
 71
     3
 72
     9
 73
     5
 74
     0
 42
0.000000001
 43
0.00000001
 40
0.0
 40
0.0
 40
0.0
 40
0.0
 40
0.5634436875402152
 40
1.0
 40
1.0
 40
1.0
 40
1.0
 10
33.33750000000004
 20
9.611247401943322
 30
0.0
 10
32.85802100781168
 20
9.609062980316471
 30
0.0
 10
32.00704157048479
 20
9.605186068257364
 30
0.0
 10
31.14567221318512
 20
9.61542119844532
 30
0.0
 10
30.76963598289652
 20
9.61988940913772
 30
0.0
  0
SPLINE
  5
9B
330
1F
100
AcDbEntity
  8
외형선
  6
Continuous
370
    15
100
AcDbSpline
210
0.0
220
0.0
230
1.0
 70
     8
 71
     3
 72
    13
 73
     9
 74
     0
 42
0.000000001
 43
0.00000001
 40
0.0
 40
0.0
 40
0.0
 40
0.0
 40
0.0957875521831195
 40
0.2033511463349407
 40
0.4965749177989263
 40
0.7910312878587801
 40
0.9009814402804097
 40
0.9999999999999999
 40
0.9999999999999999
 40
0.9999999999999999
 40
0.9999999999999999
 10
30.78046675913821
 20
9.6194967747636
 30
0.0
 10
30.77502136340097
 20
9.621052233673733
 30
0.0
 10
30.76346111950522
 20
9.624354378318245
 30
0.0
 10
30.6804152515001
 20
9.685808068979087
 30
0.0
 10
30.51132486727169
 20
9.84250589821145
 30
0.0
 10
30.353279259563
 20
10.00826691603977
 30
0.0
 10
30.29218841607673
 20
10.08059384933077
 30
0.0
 10
30.2889776035716
 20
10.08611837666851
 30
0.0
 10
30.28745617949557
 20
10.08873614051703
 30
0.0
  0
SPLINE
  5
9C
330
1F
100
AcDbEntity
  8
외형선
  6
Continuous
370
    15
100
AcDbSpline
210
0.0
220
0.0
230
1.0
 70
     8
 71
     3
 72
     9
 73
     5
 74
     0
 42
0.000000001
 43
0.00000001
 40
0.0
 40
0.0
 40
0.0
 40
0.0
 40
0.4912909761963197
 40
1.0
 40
1.0
 40
1.0
 40
1.0
 10
30.26907730476351
 20
-9.627806252046463
 30
0.0
 10
30.77465296469877
 20
-9.620180061902612
 30
0.0
 10
31.80372877604287
 20
-9.604657305504976
 30
0.0
 10
32.8203404617676
 20
-9.609025342239946
 30
0.0
 10
33.33750000000004
 20
-9.611247401943329
 30
0.0
  0
SPLINE
  5
9D
330
1F
100
AcDbEntity
  8
0
  6
Continuous
 62
     1
370
    15
100
AcDbSpline
210
0.0
220
0.0
230
1.0
 70
     8
 71
     3
 72
     9
 73
     5
 74
     0
 42
0.000000001
 43
0.00000001
 40
0.0
 40
0.0
 40
0.0
 40
0.0
 40
0.4296676999016798
 40
0.9999999999999999
 40
0.9999999999999999
 40
0.9999999999999999
 40
0.9999999999999999
 10
42.73825522600214
 20
3.152619175022362
 30
0.0
 10
42.2531487809716
 20
3.383195803250934
 30
0.0
 10
41.12412175580415
 20
3.919835230141379
 30
0.0
 10
39.978623869111
 20
4.51838905749407
 30
0.0
 10
39.32530942463553
 20
4.859763638580784
 30
0.0
1001
PE_URL
1000

  0
LINE
  5
9E
330
1F
100
AcDbEntity
  8
0
  6
Continuous
 62
     1
370
    15
100
AcDbLine
 10
35.96672999587763
 20
3.446161724577046
 30
0.0
 11
35.80155876847292
 21
3.537104766253304
 31
0.0
1001
PE_URL
1000

  0
SPLINE
  5
9F
330
1F
100
AcDbEntity
  8
0
  6
Continuous
 62
     1
370
    15
100
AcDbSpline
210
0.0
220
0.0
230
1.0
 70
     8
 71
     3
 72
     9
 73
     5
 74
     0
 42
0.000000001
 43
0.00000001
 40
0.0
 40
0.0
 40
0.0
 40
0.0
 40
0.4996662119134593
 40
1.0
 40
1.0
 40
1.0
 40
1.0
 10
38.67188569480794
 20
9.77654794093976
 30
0.0
 10
37.78227419069337
 20
9.733900502213428
 30
0.0
 10
36.00186262212276
 20
9.648548645895163
 30
0.0
 10
34.22601604499491
 20
9.623686682345431
 30
0.0
 10
33.33750000000003
 20
9.611247401943325
 30
0.0
1001
PE_URL
1000

  0
SPLINE
  5
A0
330
1F
100
AcDbEntity
  8
0
  6
Continuous
 62
     1
370
    15
100
AcDbSpline
210
0.0
220
0.0
230
1.0
 70
     8
 71
     3
 72
    30
 73
    26
 74
     0
 42
0.000000001
 43
0.00000001
 40
0.0
 40
0.0
 40
0.0
 40
0.0
 40
0.0721110989323938
 40
0.130647856581162
 40
0.1757165120305294
 40
0.2072792785188402
 40
0.2269853046238161
 40
0.2543277495726181
 40
0.2876176114815769
 40
0.3264896500903717
 40
0.3770787073577733
 40
0.4232607305802293
 40
0.4713237539581445
 40
0.5280769212459299
 40
0.6107310046797969
 40
0.6833229946844438
 40
0.7443989017876685
 40
0.763710363924621
 40
0.781089803478497
 40
0.7965989962577272
 40
0.8126299804115139
 40
0.8401043772842781
 40
0.8805649491516111
 40
0.9338755142088246
 40
1.0
 40
1.0
 40
1.0
 40
1.0
 10
70.041676228418
 20
8.414771065357218
 30
0.0
 10
69.53280793182827
 20
8.37344748223456
 30
0.0
 10
68.61086175133968
 20
8.298579152100105
 30
0.0
 10
67.36870266644785
 20
8.222233131340074
 30
0.0
 10
66.40534380843374
 20
8.174789562624028
 30
0.0
 10
65.71062741101622
 20
8.14793386030054
 30
0.0
 10
65.1275976221663
 20
8.130513198802499
 30
0.0
 10
64.53638633029425
 20
8.11537643388157
 30
0.0
 10
63.81285577864715
 20
8.10229707331891
 30
0.0
 10
62.93101557224026
 20
8.094690651588397
 30
0.0
 10
61.95653648212414
 20
8.097501298416553
 30
0.0
 10
60.91343248630548
 20
8.113469727572074
 30
0.0
 10
59.83429706670452
 20
8.143427898771282
 30
0.0
 10
58.52288871835948
 20
8.196428197562154
 30
0.0
 10
57.01911788280188
 20
8.282239030637372
 30
0.0
 10
55.45183978842547
 20
8.404148614279059
 30
0.0
 10
54.33093434511434
 20
8.509836888339713
 30
0.0
 10
53.61288534026087
 20
8.583841652752941
 30
0.0
 10
53.22865241211456
 20
8.624875645774921
 30
0.0
 10
52.86841353572218
 20
8.66417122200849
 30
0.0
 10
52.43229374138518
 20
8.712783085730138
 30
0.0
 10
51.83012750135112
 20
8.785770259136541
 30
0.0
 10
50.97170289393105
 20
8.896840838431608
 30
0.0
 10
49.84914080004022
 20
9.053351696258174
 30
0.0
 10
49.01199196196582
 20
9.182251154040918
 30
0.0
 10
48.54850962528879
 20
9.253615550875018
 30
0.0
1001
PE_URL
1000

  0
SPLINE
  5
A1
330
1F
100
AcDbEntity
  8
0
  6
Continuous
 62
     1
370
    15
100
AcDbSpline
210
0.0
220
0.0
230
1.0
 70
     8
 71
     3
 72
    17
 73
    13
 74
     0
 42
0.000000001
 43
0.00000001
 40
0.0
 40
0.0
 40
0.0
 40
0.0
 40
0.1551109381108176
 40
0.280163732976494
 40
0.3750737679469234
 40
0.4395215957367942
 40
0.5013830332942963
 40
0.5700427204183703
 40
0.6515499170329345
 40
0.7460295688555119
 40
0.9149400343619194
 40
1.0
 40
1.0
 40
1.0
 40
1.0
 10
48.54850962528879
 20
-9.253615550875026
 30
0.0
 10
49.011980051493
 20
-9.18225085619244
 30
0.0
 10
49.84910737669047
 20
-9.053350860431237
 30
0.0
 10
50.97179673073309
 20
-8.896843185034458
 30
0.0
 10
51.82990153432655
 20
-8.785764608316699
 30
0.0
 10
52.50699716828293
 20
-8.703807949544677
 30
0.0
 10
53.12294620349157
 20
-8.636177317864853
 30
0.0
 10
53.78727477296704
 20
-8.5651253634744
 30
0.0
 10
54.55259546535122
 20
-8.488545886911192
 30
0.0
 10
55.6275562461969
 20
-8.390924406073488
 30
0.0
 10
56.70691730367062
 20
-8.303470099165578
 30
0.0
 10
57.47338700117198
 20
-8.261747089124714
 30
0.0
 10
57.73009360216604
 20
-8.247773187578774
 30
0.0
1001
PE_URL
1000

  0
SPLINE
  5
A2
330
1F
100
AcDbEntity
  8
0
  6
Continuous
 62
     1
370
    15
100
AcDbSpline
210
0.0
220
0.0
230
1.0
 70
     8
 71
     3
 72
     9
 73
     5
 74
     0
 42
0.000000001
 43
0.00000001
 40
0.0
 40
0.0
 40
0.0
 40
0.0
 40
0.5003337880865406
 40
1.0
 40
1.0
 40
1.0
 40
1.0
 10
33.33750000000003
 20
-9.611247401943332
 30
0.0
 10
34.22601604499491
 20
-9.623686682345442
 30
0.0
 10
36.00186262212276
 20
-9.648548645895174
 30
0.0
 10
37.78227419069337
 20
-9.733900502213437
 30
0.0
 10
38.67188569480794
 20
-9.776547940939768
 30
0.0
1001
PE_URL
1000

  0
SPLINE
  5
A3
330
1F
100
AcDbEntity
  8
외형선
  6
Continuous
370
    15
100
AcDbSpline
210
0.0
220
0.0
230
1.0
 70
     8
 71
     3
 72
     8
 73
     4
 74
     0
 42
0.000000001
 43
0.00000001
 40
0.0
 40
0.0
 40
0.0
 40
0.0
 40
1.0
 40
1.0
 40
1.0
 40
1.0
 10
30.85634233574614
 20
9.016602811609408
 30
0.0
 10
30.66671569388669
 20
9.096106647201232
 30
0.0
 10
30.47703795230678
 20
9.174548697613607
 30
0.0
 10
30.28741026865908
 20
9.25188712271355
 30
0.0
  0
LINE
  5
A4
330
1F
100
AcDbEntity
  8
외형선
  6
Continuous
370
    15
100
AcDbLine
 10
30.85634233574614
 20
9.016602811609406
 30
0.0
 11
30.85634233574614
 21
6.231464472035981
 31
0.0
  0
SPLINE
  5
A5
330
1F
100
AcDbEntity
  8
외형선
  6
Continuous
370
    15
100
AcDbSpline
210
0.0
220
0.0
230
1.0
 70
     8
 71
     3
 72
     8
 73
     4
 74
     0
 42
0.000000001
 43
0.00000001
 40
0.0
 40
0.0
 40
0.0
 40
0.0
 40
1.0
 40
1.0
 40
1.0
 40
1.0
 10
30.28745617949555
 20
6.524309401813329
 30
0.0
 10
30.47706856760914
 20
6.427458927799837
 30
0.0
 10
30.66673099741404
 20
6.329826596407804
 30
0.0
 10
30.85634233574553
 20
6.231464472036297
 30
0.0
  0
LINE
  5
A6
330
1F
100
AcDbEntity
  8
외형선
  6
Continuous
370
    15
100
AcDbLine
 10
30.28745617949557
 20
-12.7
 30
0.0
 11
30.28745617949555
 21
6.524424262310744
 31
0.0
  0
LINE
  5
A7
330
1F
100
AcDbEntity
  8
외형선
  6
Continuous
370
    15
100
AcDbLine
 10
30.28745617949556
 20
9.252138259689977
 30
0.0
 11
30.28745617949557
 21
12.69999999999999
 31
0.0
  0
SPLINE
  5
AA
330
1F
100
AcDbEntity
  8
외형선
  6
Continuous
370
    15
100
AcDbSpline
210
0.0
220
0.0
230
1.0
 70
    24
 71
     3
 72
    10
 73
     6
 74
     0
 42
0.000000001
 43
0.00000001
 40
0.0
 40
0.0
 40
0.0
 40
0.0
 40
0.5
 40
0.5
 40
1.0
 40
1.0
 40
1.0
 40
1.0
 10
33.33750000000003
 20
4.872581225826933
 30
0.0
 10
33.33750000000003
 20
4.799229208358922
 30
0.0
 10
33.33750000000003
 20
4.596862630010216
 30
0.0
 10
33.33750000000003
 20
3.971583492488071
 30
0.0
 10
33.33750000000003
 20
3.55117141845498
 30
0.0
 10
33.33750000000003
 20
3.082863232179735
 30
0.0
  0
SPLINE
  5
AB
330
1F
100
AcDbEntity
  8
외형선
  6
Continuous
370
    15
100
AcDbSpline
210
0.0
220
0.0
230
1.0
 70
     8
 71
     3
 72
    10
 73
     6
 74
     0
 42
0.000000001
 43
0.00000001
 40
0.0
 40
0.0
 40
0.0
 40
0.0
 40
0.5
 40
0.5
 40
1.0
 40
1.0
 40
1.0
 40
1.0
 10
33.33750000000003
 20
3.082863232179733
 30
0.0
 10
32.82866866844891
 20
3.274779640964764
 30
0.0
 10
32.32230695163783
 20
3.463755144569914
 30
0.0
 10
31.30629154543301
 20
3.835886126073917
 30
0.0
 10
30.79668831084107
 20
4.019027332171445
 30
0.0
 10
30.28744511953749
 20
4.198532966142776
 30
0.0
  0
SPLINE
  5
AC
330
1F
100
AcDbEntity
  8
외형선
  6
Continuous
370
    15
100
AcDbSpline
210
0.0
220
0.0
230
1.0
 70
     8
 71
     3
 72
     8
 73
     4
 74
     0
 42
0.000000001
 43
0.00000001
 40
0.0
 40
0.0
 40
0.0
 40
0.0
 40
1.0
 40
1.0
 40
1.0
 40
1.0
 10
30.85634233574614
 20
6.231464472035981
 30
0.0
 10
31.3505853827123
 20
5.954322175603676
 30
0.0
 10
31.84429122851752
 20
5.676315829804651
 30
0.0
 10
32.33750000000033
 20
5.397520048359284
 30
0.0
  0
SPLINE
  5
AD
330
1F
100
AcDbEntity
  8
외형선
  6
Continuous
370
    15
100
AcDbSpline
210
0.0
220
0.0
230
1.0
 70
     8
 71
     3
 72
     8
 73
     4
 74
     0
 42
0.000000001
 43
0.00000001
 40
0.0
 40
0.0
 40
0.0
 40
0.0
 40
1.0
 40
1.0
 40
1.0
 40
1.0
 10
32.33750000000003
 20
5.397520048359894
 30
0.0
 10
32.67005018419079
 20
5.224595731113273
 30
0.0
 10
33.00356647700031
 20
5.049522356209995
 30
0.0
 10
33.33750000000003
 20
4.872581225826932
 30
0.0
  0
LINE
  5
AE
330
1F
100
AcDbEntity
  8
외형선
  6
Continuous
370
    15
100
AcDbLine
 10
32.33750000000003
 20
8.241023560441082
 30
0.0
 11
32.33750000000003
 21
5.397520048359892
 31
0.0
  0
SPLINE
  5
AF
330
1F
100
AcDbEntity
  8
외형선
  6
Continuous
370
    15
100
AcDbSpline
210
0.0
220
0.0
230
1.0
 70
     8
 71
     3
 72
     8
 73
     4
 74
     0
 42
0.000000001
 43
0.00000001
 40
0.0
 40
0.0
 40
0.0
 40
0.0
 40
1.0
 40
1.0
 40
1.0
 40
1.0
 10
33.33750000000003
 20
7.803111961591305
 30
0.0
 10
33.00356647700031
 20
7.95209385233104
 30
0.0
 10
32.67005018419079
 20
8.098140707339759
 30
0.0
 10
32.33750000000003
 20
8.241023560441082
 30
0.0
  0
LINE
  5
B0
330
1F
100
AcDbEntity
  8
외형선
  6
Continuous
370
    15
100
AcDbLine
 10
33.33750000000003
 20
7.803111961591305
 30
0.0
 11
33.33750000000003
 21
4.872581225826933
 31
0.0
  0
SPLINE
  5
B1
330
1F
100
AcDbEntity
  8
외형선
  6
Continuous
370
    15
100
AcDbSpline
210
0.0
220
0.0
230
1.0
 70
     8
 71
     3
 72
     8
 73
     4
 74
     0
 42
0.000000001
 43
0.00000001
 40
0.0
 40
0.0
 40
0.0
 40
0.0
 40
1.0
 40
1.0
 40
1.0
 40
1.0
 10
32.33750000000003
 20
8.241023560441324
 30
0.0
 10
31.84289233849964
 20
8.499997680611925
 30
0.0
 10
31.34917964134651
 20
8.75856475600386
 30
0.0
 10
30.85634233574614
 20
9.016602811609406
 30
0.0
  0
SPLINE
  5
B2
330
1F
100
AcDbEntity
  8
외형선
  6
Continuous
370
    15
100
AcDbSpline
210
0.0
220
0.0
230
1.0
 70
     8
 71
     3
 72
    10
 73
     6
 74
     0
 42
0.000000001
 43
0.00000001
 40
0.0
 40
0.0
 40
0.0
 40
0.0
 40
0.5
 40
0.5
 40
1.0
 40
1.0
 40
1.0
 40
1.0
 10
33.33750000000003
 20
-9.190286110574998
 30
0.0
 10
32.82866771864632
 20
-9.106200430869661
 30
0.0
 10
32.32230506105753
 20
-9.014409774903434
 30
0.0
 10
31.30628774642222
 20
-8.81541805764353
 30
0.0
 10
30.79668355528912
 20
-8.70820001201022
 30
0.0
 10
30.28743941610922
 20
-8.593653288710955
 30
0.0
  0
SPLINE
  5
B3
330
1F
100
AcDbEntity
  8
외형선
  6
Continuous
370
    15
100
AcDbSpline
210
0.0
220
0.0
230
1.0
 70
    24
 71
     3
 72
    14
 73
    10
 74
     0
 42
0.000000001
 43
0.00000001
 40
0.0
 40
0.0
 40
0.0
 40
0.0
 40
0.25
 40
0.25
 40
0.5
 40
0.5
 40
0.75
 40
0.75
 40
1.0
 40
1.0
 40
1.0
 40
1.0
 10
33.33750000000002
 20
3.08286323217974
 30
0.0
 10
33.33750000000002
 20
2.00548832826371
 30
0.0
 10
33.33750000000002
 20
0.8733483790520985
 30
0.0
 10
33.33750000000002
 20
-1.402477610971409
 30
0.0
 10
33.33750000000002
 20
-2.545079736673644
 30
0.0
 10
33.33750000000002
 20
-4.726372223400963
 30
0.0
 10
33.33750000000002
 20
-5.763900300593158
 30
0.0
 10
33.33750000000002
 20
-7.639360215689371
 30
0.0
 10
33.33750000000002
 20
-8.476770474238707
 30
0.0
 10
33.33750000000002
 20
-9.190286110574998
 30
0.0
  0
SPLINE
  5
B4
330
1F
100
AcDbEntity
  8
외형선
  6
Continuous
370
    15
100
AcDbSpline
210
0.0
220
0.0
230
1.0
 70
    24
 71
     3
 72
    11
 73
     7
 74
     0
 42
0.000000001
 43
0.00000001
 40
0.0
 40
0.0
 40
0.0
 40
0.0
 40
0.2964158330222672
 40
0.6304708484009702
 40
0.9239374483110925
 40
1.0
 40
1.0
 40
1.0
 40
1.0
 10
33.33750000000003
 20
9.596491081411413
 30
0.0
 10
33.33750000000003
 20
9.579620879044164
 30
0.0
 10
33.33750000000003
 20
9.543738278945758
 30
0.0
 10
33.33750000000003
 20
9.013672331660251
 30
0.0
 10
33.33750000000003
 20
8.450370226503592
 30
0.0
 10
33.33750000000003
 20
8.000475328792456
 30
0.0
 10
33.33750000000003
 20
7.907870580929797
 30
0.0
  0
SPLINE
  5
B5
330
1F
100
AcDbEntity
  8
외형선
  6
Continuous
370
    15
100
AcDbSpline
210
0.0
220
0.0
230
1.0
 70
    24
 71
     3
 72
    10
 73
     6
 74
     0
 42
0.000000001
 43
0.00000001
 40
0.0
 40
0.0
 40
0.0
 40
0.0
 40
0.4670523432351364
 40
0.9401684800823529
 40
1.0
 40
1.0
 40
1.0
 40
1.0
 10
33.33750000000003
 20
-9.190286110574998
 30
0.0
 10
33.33750000000003
 20
-9.29533879440347
 30
0.0
 10
33.33750000000003
 20
-9.50680807298466
 30
0.0
 10
33.33750000000003
 20
-9.63960085636985
 30
0.0
 10
33.33750000000003
 20
-9.60084682819227
 30
0.0
 10
33.33750000000003
 20
-9.596496096221944
 30
0.0
  0
SPLINE
  5
B6
330
1F
100
AcDbEntity
  8
0
  6
Continuous
 62
     1
370
    15
100
AcDbSpline
210
0.0
220
0.0
230
1.0
 70
     8
 71
     3
 72
    48
 73
    44
 74
     0
 42
0.000000001
 43
0.00000001
 40
0.0
 40
0.0
 40
0.0
 40
0.0
 40
0.0625000000000003
 40
0.0625000000000003
 40
0.1250000000000006
 40
0.1250000000000006
 40
0.1562500000000008
 40
0.1562500000000008
 40
0.1875000000000009
 40
0.1875000000000009
 40
0.2500000000000012
 40
0.2500000000000012
 40
0.3125000000000012
 40
0.3125000000000012
 40
0.3750000000000011
 40
0.3750000000000011
 40
0.406250000000001
 40
0.406250000000001
 40
0.4375000000000009
 40
0.4375000000000009
 40
0.5000000000000008
 40
0.5000000000000008
 40
0.5312500000000008
 40
0.5312500000000008
 40
0.5625000000000008
 40
0.5625000000000008
 40
0.6250000000000007
 40
0.6250000000000007
 40
0.6875000000000004
 40
0.6875000000000004
 40
0.7500000000000001
 40
0.7500000000000001
 40
0.7812500000000001
 40
0.7812500000000001
 40
0.8125
 40
0.8125
 40
0.84375
 40
0.84375
 40
0.875
 40
0.875
 40
0.9375
 40
0.9375
 40
1.0
 40
1.0
 40
1.0
 40
1.0
 10
74.61250000000003
 20
-11.67493813176872
 30
0.0
 10
73.75556301281873
 20
-11.51850982804543
 30
0.0
 10
72.89217387945072
 20
-11.33313643829436
 30
0.0
 10
71.1713884109192
 20
-10.90833546145973
 30
0.0
 10
70.31479330965333
 20
-10.66910207809746
 30
0.0
 10
69.02280993096687
 20
-10.2714029038766
 30
0.0
 10
68.59203363980713
 20
-10.13245933353048
 30
0.0
 10
67.73261550190276
 20
-9.842608573657577
 30
0.0
 10
67.30464770474877
 20
-9.691792279842836
 30
0.0
 10
66.01507305157627
 20
-9.221217580616285
 30
0.0
 10
65.15143342183896
 20
-8.883657315129508
 30
0.0
 10
63.43522299825008
 20
-8.16832561598972
 30
0.0
 10
62.57441243374708
 20
-7.789450325155387
 30
0.0
 10
60.85263469549895
 20
-6.995461790036223
 30
0.0
 10
59.99652811689658
 20
-6.581156947857061
 30
0.0
 10
58.70481595912161
 20
-5.935914935543039
 30
0.0
 10
58.27389837979168
 20
-5.717013821304649
 30
0.0
 10
57.41373685699301
 20
-5.272781579874645
 30
0.0
 10
56.98556582781762
 20
-5.047642919102509
 30
0.0
 10
55.69727516024795
 20
-4.36274931193277
 30
0.0
 10
54.83356746530313
 20
-3.893494722607548
 30
0.0
 10
53.54492516272495
 20
-3.178330000149514
 30
0.0
 10
53.11686717372774
 20
-2.938135090445763
 30
0.0
 10
52.2568774416804
 20
-2.453730222995111
 30
0.0
 10
51.82598717113966
 20
-2.209712032808598
 30
0.0
 10
50.53418043134118
 20
-1.474215221427673
 30
0.0
 10
49.67800277561893
 20
-0.9800415171596926
 30
0.0
 10
47.95644290134051
 20
0.0124357775104305
 30
0.0
 10
47.09502999993721
 20
0.509976413368154
 30
0.0
 10
45.37937927935135
 20
1.498773404848105
 30
0.0
 10
44.51578599845801
 20
1.991817400964319
 30
0.0
 10
43.22592809775144
 20
2.721236920750817
 30
0.0
 10
42.797908676406
 20
2.96250151642663
 30
0.0
 10
41.93870797379228
 20
3.441715578326062
 30
0.0
 10
41.5079819878802
 20
3.679575809026696
 30
0.0
 10
40.64664260215459
 20
4.150485499212119
 30
0.0
 10
40.21603064798524
 20
4.383534169866722
 30
0.0
 10
39.35728398971223
 20
4.843555242525253
 30
0.0
 10
38.92904562577535
 20
5.070552483628704
 30
0.0
 10
37.63868862405261
 20
5.742835291171086
 30
0.0
 10
36.77521858554944
 20
6.178597346274281
 30
0.0
 10
35.06071738059219
 20
7.015826073431823
 30
0.0
 10
34.19803584245429
 20
7.419190468156104
 30
0.0
 10
33.3374999999964
 20
7.803111961592927
 30
0.0
1001
PE_URL
1000

  0
SPLINE
  5
B7
330
1F
100
AcDbEntity
  8
0
  6
Continuous
 62
     1
370
    15
100
AcDbSpline
210
0.0
220
0.0
230
1.0
 70
     8
 71
     3
 72
    16
 73
    12
 74
     0
 42
0.000000001
 43
0.00000001
 40
0.0
 40
0.0
 40
0.0
 40
0.0
 40
0.1156621048368289
 40
0.2313283565101603
 40
0.3469983148529219
 40
0.4626715385498501
 40
0.5783475852732529
 40
0.6940260118194451
 40
0.8097063742457634
 40
0.925388228008074
 40
1.0
 40
1.0
 40
1.0
 40
1.0
 10
74.61250000000003
 20
-9.706824390055218
 30
0.0
 10
73.38142861621027
 20
-9.453884814819343
 30
0.0
 10
70.91924171099586
 20
-8.94799659569832
 30
0.0
 10
67.22587434798083
 20
-7.843068905726146
 30
0.0
 10
63.53237262307525
 20
-6.523985912279378
 30
0.0
 10
59.8387507412382
 20
-5.003700750641534
 30
0.0
 10
56.14502543728969
 20
-3.335208337759881
 30
0.0
 10
52.451212871912
 20
-1.565343381846312
 30
0.0
 10
48.75732917026515
 20
0.2476081623229449
 30
0.0
 10
45.50055119882254
 20
1.85177534494695
 30
0.0
 10
43.47506835245466
 20
2.798061089051592
 30
0.0
 10
42.68090163400695
 20
3.169088000218499
 30
0.0
1001
PE_URL
1000

  0
LINE
  5
B8
330
1F
100
AcDbEntity
  8
0
  6
Continuous
 62
     1
370
    15
100
AcDbLine
 10
74.61249999999976
 20
-11.67493813176872
 30
0.0
 11
74.61250000000003
 21
-9.706824390055216
 31
0.0
1001
PE_URL
1000

  0
SPLINE
  5
B9
330
1F
100
AcDbEntity
  8
0
  6
Continuous
 62
     1
370
    15
100
AcDbSpline
210
0.0
220
0.0
230
1.0
 70
     8
 71
     3
 72
    48
 73
    44
 74
     0
 42
0.000000001
 43
0.00000001
 40
0.0
 40
0.0
 40
0.0
 40
0.0
 40
0.0625
 40
0.0625
 40
0.1249999999999999
 40
0.1249999999999999
 40
0.1562499999999999
 40
0.1562499999999999
 40
0.1874999999999999
 40
0.1874999999999999
 40
0.2187499999999999
 40
0.2187499999999999
 40
0.2499999999999999
 40
0.2499999999999999
 40
0.3124999999999998
 40
0.3124999999999998
 40
0.3749999999999998
 40
0.3749999999999998
 40
0.4374999999999997
 40
0.4374999999999997
 40
0.4687499999999997
 40
0.4687499999999997
 40
0.4999999999999997
 40
0.4999999999999997
 40
0.5624999999999998
 40
0.5624999999999998
 40
0.5937499999999999
 40
0.5937499999999999
 40
0.625
 40
0.625
 40
0.6875000000000002
 40
0.6875000000000002
 40
0.7500000000000002
 40
0.7500000000000002
 40
0.8125000000000004
 40
0.8125000000000004
 40
0.8437500000000004
 40
0.8437500000000004
 40
0.8750000000000006
 40
0.8750000000000006
 40
0.9375000000000002
 40
0.9375000000000002
 40
1.0
 40
1.0
 40
1.0
 40
1.0
 10
33.33750000000003
 20
4.872581225826932
 30
0.0
 10
34.19803584245785
 20
4.416609679958037
 30
0.0
 10
35.06071738059563
 20
3.94831995204468
 30
0.0
 10
36.77521858555277
 20
2.996761802902653
 30
0.0
 10
37.63868862405586
 20
2.511341269636806
 30
0.0
 10
38.92904562577849
 20
1.776686359718572
 30
0.0
 10
39.35728398971531
 20
1.530925292635686
 30
0.0
 10
40.21603064798826
 20
1.037404221434708
 30
0.0
 10
40.6466426021576
 20
0.7896224231520754
 30
0.0
 10
41.50798198788311
 20
0.2933734466160564
 30
0.0
 10
41.93870797379515
 20
0.0449071010516094
 30
0.0
 10
42.7979086764088
 20
-0.4513441688700847
 30
0.0
 10
43.22592809775419
 20
-0.6990419004505224
 30
0.0
 10
44.51578599846067
 20
-1.441516598140562
 30
0.0
 10
45.37937927935393
 20
-1.934881415828867
 30
0.0
 10
47.09502999993961
 20
-2.907588148106486
 30
0.0
 10
47.95644290134285
 20
-3.388699864672418
 30
0.0
 10
49.67800277562112
 20
-4.331788396924711
 30
0.0
 10
50.5341804313433
 20
-4.793069888370481
 30
0.0
 10
51.82598717114166
 20
-5.467102945343325
 30
0.0
 10
52.25687744168238
 20
-5.688623332304279
 30
0.0
 10
53.11686717372962
 20
-6.124142023716671
 30
0.0
 10
53.54492516272681
 20
-6.33797298108645
 30
0.0
 10
54.83356746530487
 20
-6.96822379847441
 30
0.0
 10
55.69727516024962
 20
-7.37309715068278
 30
0.0
 10
56.98556582781917
 20
-7.950821717813152
 30
0.0
 10
57.41373685699452
 20
-8.138481567509077
 30
0.0
 10
58.27389837979312
 20
-8.50419217778943
 30
0.0
 10
58.704815959123
 20
-8.682079273834736
 30
0.0
 10
59.99652811689787
 20
-9.199351891828293
 30
0.0
 10
60.85263469550015
 20
-9.521909388836999
 30
0.0
 10
62.57441243374814
 20
-10.12018423585204
 30
0.0
 10
63.43522299825106
 20
-10.39525913538124
 30
0.0
 10
65.15143342183978
 20
-10.89286665522176
 30
0.0
 10
66.01507305157702
 20
-11.11614686205411
 30
0.0
 10
67.30464770474941
 20
-11.40903857977763
 30
0.0
 10
67.73261550190335
 20
-11.49963115366145
 30
0.0
 10
68.59203363980765
 20
-11.6669241055378
 30
0.0
 10
69.02280993096738
 20
-11.74356318102237
 30
0.0
 10
70.31479330965371
 20
-11.95177935076877
 30
0.0
 10
71.17138841091949
 20
-12.06148036072991
 30
0.0
 10
72.89217387945088
 20
-12.22184386951574
 30
0.0
 10
73.7555630128188
 20
-12.27234310567933
 30
0.0
 10
74.61250000000003
 20
-12.29272658612221
 30
0.0
1001
PE_URL
1000

  0
SPLINE
  5
BA
330
1F
100
AcDbEntity
  8
0
  6
Continuous
 62
     1
370
    15
100
AcDbSpline
210
0.0
220
0.0
230
1.0
 70
     8
 71
     3
 72
    10
 73
     6
 74
     0
 42
0.000000001
 43
0.00000001
 40
0.0
 40
0.0
 40
0.0
 40
0.0
 40
0.2495818887867742
 40
0.6247998330986438
 40
1.0
 40
1.0
 40
1.0
 40
1.0
 10
44.04068282915236
 20
-1.165915972756863
 30
0.0
 10
43.15027946491889
 20
-0.8089543653715247
 30
0.0
 10
40.92125605273198
 20
0.0846583635053067
 30
0.0
 10
37.35341188714411
 20
1.536609351541058
 30
0.0
 10
34.67611615399626
 20
2.567453412201275
 30
0.0
 10
33.33750000000003
 20
3.082863232179736
 30
0.0
1001
PE_URL
1000

  0
SPLINE
  5
BB
330
1F
100
AcDbEntity
  8
외형선
  6
Continuous
370
    15
100
AcDbSpline
210
0.0
220
0.0
230
1.0
 70
    24
 71
     3
 72
    10
 73
     6
 74
     0
 42
0.000000001
 43
0.00000001
 40
0.0
 40
0.0
 40
0.0
 40
0.0
 40
0.5
 40
0.5
 40
1.0
 40
1.0
 40
1.0
 40
1.0
 10
33.33750000000003
 20
4.872581225826932
 30
0.0
 10
33.33750000000003
 20
4.799229208358923
 30
0.0
 10
33.33750000000003
 20
4.59686263001022
 30
0.0
 10
33.33750000000003
 20
3.971583492488072
 30
0.0
 10
33.33750000000003
 20
3.55117141845498
 30
0.0
 10
33.33750000000003
 20
3.082863232179735
 30
0.0
  0
LINE
  5
BC
330
1F
100
AcDbEntity
  8
0
  6
Continuous
 62
     1
370
    15
100
AcDbLine
 10
74.61250000000003
 20
-12.29272658612221
 30
0.0
 11
74.6124999999997
 21
-11.6749381317687
 31
0.0
1001
PE_URL
1000

  0
SPLINE
  5
BD
330
1F
100
AcDbEntity
  8
0
  6
Continuous
 62
     1
370
    15
100
AcDbSpline
210
0.0
220
0.0
230
1.0
 70
     8
 71
     3
 72
    10
 73
     6
 74
     0
 42
0.000000001
 43
0.00000001
 40
0.0
 40
0.0
 40
0.0
 40
0.0
 40
0.5
 40
0.5
 40
1.0
 40
1.0
 40
1.0
 40
1.0
 10
74.61250000000003
 20
-3.287923370370973
 30
0.0
 10
73.76084545869799
 20
-2.61838365863014
 30
0.0
 10
72.91834983163895
 20
-1.930727653883239
 30
0.0
 10
71.25141618244822
 20
-0.5196977794576638
 30
0.0
 10
70.42697362952721
 20
0.2036671283390346
 30
0.0
 10
69.61249999999994
 20
0.9467505237605042
 30
0.0
1001
PE_URL
1000

  0
LINE
  5
BE
330
1F
100
AcDbEntity
  8
0
  6
Continuous
 62
     1
370
    15
100
AcDbLine
 10
69.61250000000003
 20
2.937719435296587
 30
0.0
 11
74.61250000000003
 21
0.000000000000001
 31
0.0
1001
PE_URL
1000

  0
LINE
  5
BF
330
1F
100
AcDbEntity
  8
0
  6
Continuous
 62
     1
370
    15
100
AcDbLine
 10
74.61250000000003
 20
0.000000000000001
 30
0.0
 11
74.61250000000003
 21
-3.287923370370974
 31
0.0
1001
PE_URL
1000

  0
SPLINE
  5
C0
330
1F
100
AcDbEntity
  8
0
  6
Continuous
 62
     1
370
    15
100
AcDbSpline
210
0.0
220
0.0
230
1.0
 70
     8
 71
     3
 72
    16
 73
    12
 74
     0
 42
0.000000001
 43
0.00000001
 40
0.0
 40
0.0
 40
0.0
 40
0.0
 40
0.0982319395065235
 40
0.196480796943177
 40
0.3158324615762643
 40
0.4351870796839524
 40
0.5545441875979796
 40
0.6739033208747007
 40
0.7932640144393636
 40
0.912625802730806
 40
1.0
 40
1.0
 40
1.0
 40
1.0
 10
69.61250000000003
 20
2.288411181696536
 30
0.0
 10
68.59925259331416
 20
2.739162379288463
 30
0.0
 10
66.57258327408496
 20
3.64074240479607
 30
0.0
 10
63.31478595395028
 20
4.997183721300737
 30
0.0
 10
59.83874121635221
 20
6.322085569377544
 30
0.0
 10
56.14504232890743
 20
7.539417401350771
 30
0.0
 10
52.4512244246453
 20
8.53030083229311
 30
0.0
 10
48.75735085033983
 20
9.268600804306258
 30
0.0
 10
45.06339304370196
 20
9.717334062270233
 30
0.0
 10
41.69948031537913
 20
9.90087557314072
 30
0.0
 10
39.56666347301181
 20
9.786390704512801
 30
0.0
 10
38.66525698096495
 20
9.738005207093437
 30
0.0
1001
PE_URL
1000

  0
SPLINE
  5
C1
330
1F
100
AcDbEntity
  8
0
  6
Continuous
 62
     1
370
    15
100
AcDbSpline
210
0.0
220
0.0
230
1.0
 70
    24
 71
     3
 72
     8
 73
     4
 74
     0
 42
0.000000001
 43
0.00000001
 40
0.0
 40
0.0
 40
0.0
 40
0.0
 40
1.0
 40
1.0
 40
1.0
 40
1.0
 10
69.61250000000004
 20
0.946750523760715
 30
0.0
 10
69.61250000000004
 20
1.399314816032988
 30
0.0
 10
69.61250000000004
 20
1.847568214879755
 30
0.0
 10
69.61250000000004
 20
2.288411181696535
 30
0.0
1001
PE_URL
1000

  0
SPLINE
  5
C2
330
1F
100
AcDbEntity
  8
0
  6
Continuous
 62
     1
370
    15
100
AcDbSpline
210
0.0
220
0.0
230
1.0
 70
    24
 71
     3
 72
    10
 73
     6
 74
     0
 42
0.000000001
 43
0.00000001
 40
0.0
 40
0.0
 40
0.0
 40
0.0
 40
0.4999999999999999
 40
0.4999999999999999
 40
1.0
 40
1.0
 40
1.0
 40
1.0
 10
74.61250000000003
 20
-9.70682439005521
 30
0.0
 10
74.61250000000004
 20
-8.962720620337443
 30
0.0
 10
74.61250000000003
 20
-8.022516975436778
 30
0.0
 10
74.61250000000001
 20
-5.83663398555071
 30
0.0
 10
74.61250000000001
 20
-4.592848135290646
 30
0.0
 10
74.61250000000003
 20
-3.287923370371366
 30
0.0
1001
PE_URL
1000

  0
SPLINE
  5
C3
330
1F
100
AcDbEntity
  8
외형선
  6
Continuous
370
    15
100
AcDbSpline
210
0.0
220
0.0
230
1.0
 70
    24
 71
     3
 72
    11
 73
     7
 74
     0
 42
0.000000001
 43
0.00000001
 40
0.0
 40
0.0
 40
0.0
 40
0.0
 40
0.2978469628969809
 40
0.631222491535157
 40
0.9240921638308244
 40
1.0
 40
1.0
 40
1.0
 40
1.0
 10
33.33750000000003
 20
9.59733430682437
 30
0.0
 10
33.33750000000003
 20
9.580429296798942
 30
0.0
 10
33.33750000000003
 20
9.544602768826682
 30
0.0
 10
33.33750000000003
 20
9.013749343939509
 30
0.0
 10
33.33750000000003
 20
8.450366457722224
 30
0.0
 10
33.33750000000003
 20
8.000474685461066
 30
0.0
 10
33.33750000000003
 20
7.907870580929797
 30
0.0
  0
SPLINE
  5
C4
330
1F
100
AcDbEntity
  8
0
  6
Continuous
 62
     1
370
    15
100
AcDbSpline
210
0.0
220
0.0
230
1.0
 70
    24
 71
     3
 72
    10
 73
     6
 74
     0
 42
0.000000001
 43
0.00000001
 40
0.0
 40
0.0
 40
0.0
 40
0.0
 40
0.4999999999999999
 40
0.4999999999999999
 40
1.0
 40
1.0
 40
1.0
 40
1.0
 10
69.61250000000001
 20
2.288411181696542
 30
0.0
 10
69.61250000000001
 20
3.253366688984419
 30
0.0
 10
69.61250000000003
 20
4.168536976405876
 30
0.0
 10
69.61250000000001
 20
5.779252926637048
 30
0.0
 10
69.61250000000001
 20
6.473323564578473
 30
0.0
 10
69.61250000000001
 20
7.012658168455007
 30
0.0
1001
PE_URL
1000

  0
SPLINE
  5
C5
330
1F
100
AcDbEntity
  8
0
  6
Continuous
 62
     1
370
    15
100
AcDbSpline
210
0.0
220
0.0
230
1.0
 70
     8
 71
     3
 72
     9
 73
     5
 74
     0
 42
0.000000001
 43
0.00000001
 40
0.0
 40
0.0
 40
0.0
 40
0.0
 40
0.806912978123168
 40
1.0
 40
1.0
 40
1.0
 40
1.0
 10
74.61250000000003
 20
8.612187499999996
 30
0.0
 10
73.38143007675302
 20
8.603360998034182
 30
0.0
 10
71.85577618764293
 20
8.592422393494266
 30
0.0
 10
70.3301134886146
 20
8.423963792433897
 30
0.0
 10
70.03552782167066
 20
8.391436622845614
 30
0.0
1001
PE_URL
1000

  0
SPLINE
  5
C6
330
1F
100
AcDbEntity
  8
0
  6
Continuous
 62
     1
370
    15
100
AcDbSpline
210
0.0
220
0.0
230
1.0
 70
     8
 71
     3
 72
     8
 73
     4
 74
     0
 42
0.000000001
 43
0.00000001
 40
0.0
 40
0.0
 40
0.0
 40
0.0
 40
1.0
 40
1.0
 40
1.0
 40
1.0
 10
74.61250000000003
 20
8.612187500000001
 30
0.0
 10
72.93130009742512
 20
8.156427316048992
 30
0.0
 10
71.2639065256124
 20
7.627122981486152
 30
0.0
 10
69.61250000000004
 20
7.012658168455009
 30
0.0
1001
PE_URL
1000

  0
SPLINE
  5
C7
330
1F
100
AcDbEntity
  8
0
  6
Continuous
 62
     1
370
    15
100
AcDbSpline
210
0.0
220
0.0
230
1.0
 70
     8
 71
     3
 72
    11
 73
     7
 74
     0
 42
0.000000001
 43
0.00000001
 40
0.0
 40
0.0
 40
0.0
 40
0.0
 40
0.2292799355706101
 40
0.4720861112790521
 40
0.7360491459200793
 40
1.0
 40
1.0
 40
1.0
 40
1.0
 10
48.55161102009983
 20
-9.245723428027702
 30
0.0
 10
47.38887686208572
 20
-9.408125577278653
 30
0.0
 10
44.99481370194865
 20
-9.742510698734833
 30
0.0
 10
41.26221049864595
 20
-9.888452636431966
 30
0.0
 10
37.35340471177271
 20
-9.760832262045627
 30
0.0
 10
34.67611431287712
 20
-9.38046523566146
 30
0.0
 10
33.33750000000003
 20
-9.190286110575
 30
0.0
1001
PE_URL
1000

  0
SPLINE
  5
C8
330
1F
100
AcDbEntity
  8
외형선
  6
Continuous
370
    15
100
AcDbSpline
210
0.0
220
0.0
230
1.0
 70
    24
 71
     3
 72
    14
 73
    10
 74
     0
 42
0.000000001
 43
0.00000001
 40
0.0
 40
0.0
 40
0.0
 40
0.0
 40
0.25
 40
0.25
 40
0.5
 40
0.5
 40
0.75
 40
0.75
 40
1.0
 40
1.0
 40
1.0
 40
1.0
 10
33.33750000000002
 20
3.08286323217974
 30
0.0
 10
33.33750000000002
 20
2.00548832826371
 30
0.0
 10
33.33750000000002
 20
0.8733483790520985
 30
0.0
 10
33.33750000000002
 20
-1.402477610971409
 30
0.0
 10
33.33750000000002
 20
-2.545079736673644
 30
0.0
 10
33.33750000000002
 20
-4.726372223400963
 30
0.0
 10
33.33750000000002
 20
-5.763900300593158
 30
0.0
 10
33.33750000000002
 20
-7.639360215689371
 30
0.0
 10
33.33750000000002
 20
-8.476770474238707
 30
0.0
 10
33.33750000000002
 20
-9.190286110574998
 30
0.0
  0
LINE
  5
C9
330
1F
100
AcDbEntity
  8
0
  6
Continuous
 62
     1
370
    15
100
AcDbLine
 10
74.61250000000003
 20
0.000000000000001
 30
0.0
 11
74.61250000000003
 21
8.612187499999997
 31
0.0
1001
PE_URL
1000

  0
SPLINE
  5
CA
330
1F
100
AcDbEntity
  8
외형선
  6
Continuous
370
    15
100
AcDbSpline
210
0.0
220
0.0
230
1.0
 70
    24
 71
     3
 72
    10
 73
     6
 74
     0
 42
0.000000001
 43
0.00000001
 40
0.0
 40
0.0
 40
0.0
 40
0.0
 40
0.469067836561881
 40
0.94422563411459
 40
1.0
 40
1.0
 40
1.0
 40
1.0
 10
33.33750000000003
 20
-9.190286110574998
 30
0.0
 10
33.33750000000003
 20
-9.295274178238694
 30
0.0
 10
33.33750000000003
 20
-9.506613385571319
 30
0.0
 10
33.33750000000003
 20
-9.639529721687358
 30
0.0
 10
33.33750000000003
 20
-9.601345549906958
 30
0.0
 10
33.33750000000003
 20
-9.597334306824377
 30
0.0
  0
SPLINE
  5
CB
330
1F
100
AcDbEntity
  8
0
  6
Continuous
 62
     1
370
    15
100
AcDbSpline
210
0.0
220
0.0
230
1.0
 70
    24
 71
     3
 72
    10
 73
     6
 74
     0
 42
0.000000001
 43
0.00000001
 40
0.0
 40
0.0
 40
0.0
 40
0.0
 40
0.5
 40
0.5
 40
1.0
 40
1.0
 40
1.0
 40
1.0
 10
74.61250000000003
 20
8.612187499999996
 30
0.0
 10
74.61250000000003
 20
9.13423685953248
 30
0.0
 10
74.61250000000003
 20
9.740906562280744
 30
0.0
 10
74.61250000000003
 20
11.01369796469652
 30
0.0
 10
74.61250000000003
 20
11.67656911484499
 30
0.0
 10
74.61250000000003
 20
12.29272658612221
 30
0.0
1001
PE_URL
1000

  0
SPLINE
  5
CC
330
1F
100
AcDbEntity
  8
0
  6
Continuous
 62
     1
370
    15
100
AcDbSpline
210
0.0
220
0.0
230
1.0
 70
     8
 71
     3
 72
    14
 73
    10
 74
     0
 42
0.000000001
 43
0.00000001
 40
0.0
 40
0.0
 40
0.0
 40
0.0
 40
0.0714079931806523
 40
0.1765092851466676
 40
0.2819755697339862
 40
0.4594307583561303
 40
0.637382949347804
 40
0.8184277125447438
 40
1.0
 40
1.0
 40
1.0
 40
1.0
 10
57.69209433185983
 20
8.250059287569826
 30
0.0
 10
58.09484278377882
 20
8.422312164593752
 30
0.0
 10
59.09037337042199
 20
8.848094081066762
 30
0.0
 10
60.68032033190921
 20
9.460095810128355
 30
0.0
 10
62.86888828556064
 20
10.22994683696016
 30
0.0
 10
65.46818523553917
 20
11.00502073235549
 30
0.0
 10
68.49385471532037
 20
11.68293419486843
 30
0.0
 10
71.54287055620678
 20
12.14612234557921
 30
0.0
 10
73.58829831003646
 20
12.24381113438143
 30
0.0
 10
74.61249999999933
 20
12.29272658612219
 30
0.0
1001
PE_URL
1000

  0
LINE
  5
CD
330
1F
100
AcDbEntity
  8
중심선
 62
     1
100
AcDbLine
 10
-81.6125
 20
-0.0000000000000066
 30
0.0
 11
81.6125
 21
0.0000000000000066
 31
0.0
  0
LINE
  5
CE
330
1F
100
AcDbEntity
  8
참조1
100
AcDbLine
 10
0.0
 20
-0.0000000000000085
 30
0.0
 11
0.0000000000000071
 21
-40.00000000000001
 31
0.0
  0
LINE
  5
CF
330
1F
100
AcDbEntity
  8
참조1
100
AcDbLine
 10
0.0000000000000071
 20
-40.00000000000001
 30
0.0
 11
-6.528215596699194
 21
-40.0
 31
0.0
  0
CIRCLE
  5
D0
330
1F
100
AcDbEntity
  8
해칭선
100
AcDbCircle
 10
0.0
 20
0.0
 30
0.0
 40
3.000000000000001
  0
INSERT
  5
D1
330
1F
100
AcDbEntity
  8
0
  6
Continuous
 62
     7
100
AcDbBlockReference
 66
     1
  2
블럭10
 10
-13.94027293212521
 20
-52.04717430164393
 30
0.0
  0
ATTRIB
  5
D2
330
D1
100
AcDbEntity
  8
FORMAT
 62
     2
100
AcDbText
 10
-23.12156822086649
 20
-49.97180738881175
 30
0.0
 40
4.233333333333333
  1
E1050062 [ 2 FLUTE ]
 41
0.75
  7
SLDTEXTSTYLE0
 11
-23.12156822086649
 21
-52.08847405547841
 31
0.0
100
AcDbAttribute
  2
AUTOATTR0
 70
     0
 74
     1
  0
SEQEND
  5
D3
330
D1
100
AcDbEntity
  8
0
  6
Continuous
 62
     7
  0
HATCH
  5
D4
330
1F
100
AcDbEntity
  8
중심선
100
AcDbHatch
 10
0.0
 20
0.0
 30
0.0
210
0.0
220
0.0
230
1.0
  2
SOLID
 70
     1
 71
     0
 91
        1
 92
        0
 93
        4
 72
     1
 10
-8.225363627744372
 20
-35.8
 11
-11.67163887158166
 21
-35.8
 72
     1
 10
-11.67163887158166
 20
-35.8
 11
-13.79986873078568
 21
-38.33632558057257
 72
     1
 10
-13.79986873078568
 20
-38.33632558057257
 11
-10.35356040183525
 21
-38.33628615127008
 72
     1
 10
-10.35356040183525
 20
-38.33628615127008
 11
-8.225363627744372
 21
-35.8
 97
        0
 75
     0
 76
     1
 98
        1
 10
22.93171167873054
 20
-0.0010749287238977
  0
HATCH
  5
D5
330
1F
100
AcDbEntity
  8
중심선
100
AcDbHatch
 10
0.0
 20
0.0
 30
0.0
210
0.0
220
0.0
230
1.0
  2
SOLID
 70
     1
 71
     0
 91
        1
 92
        0
 93
        4
 72
     1
 10
-3.21259963670839
 20
-35.8
 11
-6.658874880545703
 21
-35.80000000000003
 72
     1
 10
-6.658874880545703
 20
-35.80000000000003
 11
-11.19001288890309
 21
-41.20000000000002
 72
     1
 10
-11.19001288890309
 20
-41.20000000000002
 11
-7.743737645065806
 21
-41.20000000000002
 72
     1
 10
-7.743737645065806
 20
-41.20000000000002
 11
-3.21259963670839
 21
-35.8
 97
        0
 75
     0
 76
     1
 98
        1
 10
22.93171167873054
 20
-0.0010749287238977
  0
HATCH
  5
D6
330
1F
100
AcDbEntity
  8
중심선
100
AcDbHatch
 10
0.0
 20
0.0
 30
0.0
210
0.0
220
0.0
230
1.0
  2
SOLID
 70
     1
 71
     0
 91
        1
 92
        0
 93
        4
 72
     1
 10
1.800164354327475
 20
-35.8
 11
-1.646110889509639
 21
-35.8
 72
     1
 10
-1.646110889509639
 20
-35.8
 11
-8.69454779139889
 21
-44.20000000000002
 72
     1
 10
-8.69454779139889
 20
-44.20000000000002
 11
-5.248272547561605
 21
-44.20000000000002
 72
     1
 10
-5.248272547561605
 20
-44.20000000000002
 11
1.800164354327475
 21
-35.8
 97
        0
 75
     0
 76
     1
 98
        1
 10
22.93171167873054
 20
-0.0010749287238977
  0
HATCH
  5
D7
330
1F
100
AcDbEntity
  8
중심선
100
AcDbHatch
 10
0.0
 20
0.0
 30
0.0
210
0.0
220
0.0
230
1.0
  2
SOLID
 70
     1
 71
     0
 91
        1
 92
        0
 93
        6
 72
     3
 10
6.600054785339676
 20
-40.00000000005127
 11
3.960054785062283
 21
1.540882976769353E-10
 40
0.3939339440162628
 50
17.09539180608437
 51
320.0019657685086
 73
     0
 72
     1
 10
8.28305444104027
 20
-38.58789400463833
 11
10.58835631474134
 21
-36.65356729459038
 72
     3
 10
6.600054785286829
 20
-40.00000000000015
 11
6.600054785286829
 21
-1.278976924368180E-13
 40
0.636358354079598
 50
39.99873849337385
 51
368.4976242363725
 73
     1
 72
     1
 10
13.02538727718744
 20
-39.03999999993002
 11
5.280122092122753
 21
-39.03999999993002
 72
     1
 10
5.280122092122753
 20
-39.03999999993002
 11
5.280097047676819
 21
-40.95999999992991
 72
     1
 10
5.280097047676819
 20
-40.95999999992991
 11
9.721476817148854
 21
-40.95999999992988
 97
        0
 75
     0
 76
     1
 98
        1
 10
22.93171167873054
 20
-0.0010749287238977
  0
DIMENSION
  5
D8
330
1F
100
AcDbEntity
  8
치수문자_일반주서
100
AcDbDimension
  2
_D
 10
-89.61249999999991
 20
-12.70000000000022
 30
0.0
 11
-89.61250000000004
 21
27.37699999999992
 31
0.0
 70
   160
  1
%%c<>
 71
     2
 42
25.39999999999999
 52
-270.0
  3
SLDDIMSTYLE1
100
AcDbAlignedDimension
 13
-30.28745617949561
 23
12.69999999999999
 33
0.0
 14
-30.28745617949568
 24
-12.7
 34
0.0
 50
90.0000000000002
100
AcDbRotatedDimension
1001
PE_URL
1000

1001
ACAD
1000
DSTYLE
1002
{
1070
   171
1070
     8
1070
   273
1070
     7
1070
   140
1040
4.0
1002
}
1001
ACAD_DSTYLE_DIMFLIPARROW_SYMBOL
1070
   385
1070
     0
1001
ACAD_DSTYLE_DIMFLIPARROW_WHICH_SYMBOL
1070
   386
1070
     3
  0
DIMENSION
  5
ED
330
1F
100
AcDbEntity
  8
치수문자_일반주서
100
AcDbDimension
  2
_D_1
 10
89.61250000000001
 20
12.29272658612226
 30
0.0
 11
89.61249999999994
 21
34.46972658612226
 31
0.0
 70
   160
  1
%%c<>
 71
     2
 42
24.58545317224442
 52
-270.0
  3
SLDDIMSTYLE1
100
AcDbAlignedDimension
 13
74.61250000000003
 23
-12.29272658612221
 33
0.0
 14
74.61250000000003
 24
12.29272658612221
 34
0.0
 50
90.0000000000002
100
AcDbRotatedDimension
1001
PE_URL
1000

1001
ACAD
1000
DSTYLE
1002
{
1070
   171
1070
     8
1070
   273
1070
     7
1070
   140
1040
4.0
1002
}
1001
ACAD_DSTYLE_DIMFLIPARROW_SYMBOL
1070
   385
1070
     0
1001
ACAD_DSTYLE_DIMFLIPARROW_WHICH_SYMBOL
1070
   386
1070
     3
  0
DIMENSION
  5
101
330
1F
100
AcDbEntity
  8
치수문자_일반주서
100
AcDbDimension
  2
_D_2
 10
33.33750000000003
 20
27.69999999999999
 30
0.0
 11
53.97500000000001
 21
27.69999999999999
 31
0.0
 70
   160
  1
<>
 71
     2
 42
41.27499999999999
  3
SLDDIMSTYLE1
100
AcDbAlignedDimension
 13
74.61250000000003
 23
12.29272658612221
 33
0.0
 14
33.33750000000003
 24
9.611854582459138
 34
0.0
 50
0.0000000000000099
100
AcDbRotatedDimension
1001
PE_URL
1000

1001
ACAD
1000
DSTYLE
1002
{
1070
   171
1070
     8
1070
   273
1070
     7
1070
   140
1040
4.0
1002
}
  0
DIMENSION
  5
115
330
1F
100
AcDbEntity
  8
치수문자_일반주서
100
AcDbDimension
  2
_D_3
 10
74.61250000000003
 20
42.69999999999999
 30
0.0
 11
0.0
 21
42.69999999999999
 31
0.0
 70
   160
  1
<>
 71
     2
 42
149.2250000000001
  3
SLDDIMSTYLE1
100
AcDbAlignedDimension
 13
-74.61250000000008
 23
12.29272658612233
 33
0.0
 14
74.61250000000003
 24
12.29272658612221
 34
0.0
 50
-0.0000000000000055
100
AcDbRotatedDimension
1001
PE_URL
1000

1001
ACAD
1000
DSTYLE
1002
{
1070
   171
1070
     8
1070
   273
1070
     7
1070
   140
1040
4.0
1002
}
  0
LINE
  5
128
330
1F
100
AcDbEntity
  8
참조1
100
AcDbLine
 10
91.44412503295507
 20
7.439999999999998
 30
0.0
 11
91.44412503295507
 21
-7.440000000000007
 31
0.0
  0
LINE
  5
129
330
1F
100
AcDbEntity
  8
참조1
100
AcDbLine
 10
104.1441250329551
 20
5.439999999999998
 30
0.0
 11
91.44412503295507
 21
5.439999999999998
 31
0.0
  0
SOLID
  5
12A
330
1F
100
AcDbEntity
  8
참조1
100
AcDbTrace
 10
91.44412503295507
 20
5.439999999999998
 30
0.0
 11
97.79412503295507
 21
4.423999999999998
 31
0.0
 12
97.79412503295507
 22
6.455999999999998
 32
0.0
 13
97.79412503295507
 23
6.455999999999998
 33
0.0
  0
LINE
  5
12B
330
1F
100
AcDbEntity
  8
참조1
100
AcDbLine
 10
104.1441250329551
 20
-5.440000000000007
 30
0.0
 11
91.44412503295507
 21
-5.440000000000007
 31
0.0
  0
SOLID
  5
12C
330
1F
100
AcDbEntity
  8
참조1
100
AcDbTrace
 10
91.44412503295507
 20
-5.440000000000007
 30
0.0
 11
97.79412503295507
 21
-6.456000000000007
 31
0.0
 12
97.79412503295507
 22
-4.424000000000007
 32
0.0
 13
97.79412503295507
 23
-4.424000000000007
 33
0.0
  0
MTEXT
  5
12D
330
1F
100
AcDbEntity
  8
참조1
100
AcDbMText
 10
100.8284751655811
 20
11.01029177718832
 30
0.0
 40
3.5
 41
0.0
 71
     1
 72
     1
  1
A
  7
SLDTEXTSTYLE0
 73
     1
 44
1.0
  0
MTEXT
  5
12E
330
1F
100
AcDbEntity
  8
참조1
100
AcDbMText
 10
100.8284751655811
 20
0.1302917771883216
 30
0.0
 40
3.5
 41
0.0
 71
     1
 72
     1
  1
A
  7
SLDTEXTSTYLE0
 73
     1
 44
1.0
  0
INSERT
  5
135
330
1F
100
AcDbEntity
  8
해칭선
100
AcDbBlockReference
  2
SW_DOWELSYMBOL_0
 10
0.0
 20
0.0
 30
0.0
  0
LINE
  5
1A4
330
1F
100
AcDbEntity
  8
외형선
  6
Continuous
370
    15
100
AcDbLine
 10
-6.553199999999958
 20
10.79499999999999
 30
0.0
 11
6.553199999999936
 21
10.79499999999999
 31
0.0
1001
PE_URL
1000

  0
LINE
  5
1A5
330
1F
100
AcDbEntity
  8
외형선
  6
Continuous
370
    15
100
AcDbLine
 10
-6.553199999999958
 20
10.795
 30
0.0
 11
-8.45819999999993
 21
12.69999999999999
 31
0.0
1001
PE_URL
1000

  0
LINE
  5
1A6
330
1F
100
AcDbEntity
  8
외형선
  6
Continuous
370
    15
100
AcDbLine
 10
6.553199999999936
 20
10.795
 30
0.0
 11
8.458199999999966
 21
12.69999999999999
 31
0.0
1001
PE_URL
1000

  0
SPLINE
  5
1ED
330
1F
100
AcDbEntity
  8
외형선
  6
Continuous
370
    15
100
AcDbSpline
210
0.0
220
0.0
230
1.0
 70
     8
 71
     3
 72
     9
 73
     5
 74
     0
 42
0.000000001
 43
0.00000001
 40
0.0
 40
0.0
 40
0.0
 40
0.0
 40
0.5634436875402152
 40
1.0
 40
1.0
 40
1.0
 40
1.0
 10
-33.33750000000014
 20
-9.611247401943324
 30
0.0
 10
-32.85802100781178
 20
-9.609062980316473
 30
0.0
 10
-32.00704157048489
 20
-9.605186068257368
 30
0.0
 10
-31.14567221318521
 20
-9.615421198445326
 30
0.0
 10
-30.76963598289661
 20
-9.619889409137734
 30
0.0
  0
SPLINE
  5
1EE
330
1F
100
AcDbEntity
  8
외형선
  6
Continuous
370
    15
100
AcDbSpline
210
0.0
220
0.0
230
1.0
 70
     8
 71
     3
 72
    13
 73
     9
 74
     0
 42
0.000000001
 43
0.00000001
 40
0.0
 40
0.0
 40
0.0
 40
0.0
 40
0.0957875521831195
 40
0.2033511463349407
 40
0.4965749177989263
 40
0.7910312878587801
 40
0.9009814402804097
 40
0.9999999999999999
 40
0.9999999999999999
 40
0.9999999999999999
 40
0.9999999999999999
 10
-30.7804667591383
 20
-9.619496774763611
 30
0.0
 10
-30.77502136340107
 20
-9.621052233673744
 30
0.0
 10
-30.76346111950532
 20
-9.624354378318252
 30
0.0
 10
-30.6804152515002
 20
-9.6858080689791
 30
0.0
 10
-30.51132486727178
 20
-9.842505898211463
 30
0.0
 10
-30.3532792595631
 20
-10.00826691603979
 30
0.0
 10
-30.29218841607683
 20
-10.08059384933078
 30
0.0
 10
-30.2889776035717
 20
-10.08611837666852
 30
0.0
 10
-30.28745617949567
 20
-10.08873614051705
 30
0.0
  0
SPLINE
  5
1EF
330
1F
100
AcDbEntity
  8
외형선
  6
Continuous
370
    15
100
AcDbSpline
210
0.0
220
0.0
230
1.0
 70
     8
 71
     3
 72
     9
 73
     5
 74
     0
 42
0.000000001
 43
0.00000001
 40
0.0
 40
0.0
 40
0.0
 40
0.0
 40
0.4912909761963197
 40
1.0
 40
1.0
 40
1.0
 40
1.0
 10
-30.26907730476355
 20
9.627806252046451
 30
0.0
 10
-30.77465296469881
 20
9.620180061902605
 30
0.0
 10
-31.80372877604291
 20
9.604657305504972
 30
0.0
 10
-32.82034046176764
 20
9.609025342239942
 30
0.0
 10
-33.33750000000008
 20
9.611247401943327
 30
0.0
  0
SPLINE
  5
1F0
330
1F
100
AcDbEntity
  8
0
  6
Continuous
 62
     1
370
    15
100
AcDbSpline
210
0.0
220
0.0
230
1.0
 70
     8
 71
     3
 72
     9
 73
     5
 74
     0
 42
0.000000001
 43
0.00000001
 40
0.0
 40
0.0
 40
0.0
 40
0.0
 40
0.4296676999016798
 40
0.9999999999999999
 40
0.9999999999999999
 40
0.9999999999999999
 40
0.9999999999999999
 10
-42.73825522600221
 20
-3.152619175022334
 30
0.0
 10
-42.25314878097168
 20
-3.383195803250906
 30
0.0
 10
-41.12412175580423
 20
-3.919835230141356
 30
0.0
 10
-39.97862386911108
 20
-4.518389057494048
 30
0.0
 10
-39.32530942463561
 20
-4.859763638580773
 30
0.0
1001
PE_URL
1000

  0
LINE
  5
1F1
330
1F
100
AcDbEntity
  8
0
  6
Continuous
 62
     1
370
    15
100
AcDbLine
 10
-35.96672999587771
 20
-3.446161724577038
 30
0.0
 11
-35.801558768473
 21
-3.5371047662533
 31
0.0
1001
PE_URL
1000

  0
SPLINE
  5
1F2
330
1F
100
AcDbEntity
  8
0
  6
Continuous
 62
     1
370
    15
100
AcDbSpline
210
0.0
220
0.0
230
1.0
 70
     8
 71
     3
 72
     9
 73
     5
 74
     0
 42
0.000000001
 43
0.00000001
 40
0.0
 40
0.0
 40
0.0
 40
0.0
 40
0.4996662119134593
 40
1.0
 40
1.0
 40
1.0
 40
1.0
 10
-38.67188569480804
 20
-9.77654794093975
 30
0.0
 10
-37.78227419069347
 20
-9.733900502213416
 30
0.0
 10
-36.00186262212286
 20
-9.648548645895154
 30
0.0
 10
-34.22601604499501
 20
-9.62368668234543
 30
0.0
 10
-33.33750000000013
 20
-9.61124740194333
 30
0.0
1001
PE_URL
1000

  0
SPLINE
  5
1F3
330
1F
100
AcDbEntity
  8
0
  6
Continuous
 62
     1
370
    15
100
AcDbSpline
210
0.0
220
0.0
230
1.0
 70
     8
 71
     3
 72
    30
 73
    26
 74
     0
 42
0.000000001
 43
0.00000001
 40
0.0
 40
0.0
 40
0.0
 40
0.0
 40
0.0721110989323938
 40
0.130647856581162
 40
0.1757165120305294
 40
0.2072792785188402
 40
0.2269853046238161
 40
0.2543277495726181
 40
0.2876176114815769
 40
0.3264896500903717
 40
0.3770787073577733
 40
0.4232607305802293
 40
0.4713237539581445
 40
0.5280769212459299
 40
0.6107310046797969
 40
0.6833229946844438
 40
0.7443989017876685
 40
0.763710363924621
 40
0.781089803478497
 40
0.7965989962577272
 40
0.8126299804115139
 40
0.8401043772842781
 40
0.8805649491516111
 40
0.9338755142088246
 40
1.0
 40
1.0
 40
1.0
 40
1.0
 10
-70.04167622841808
 20
-8.414771065357108
 30
0.0
 10
-69.53280793182836
 20
-8.373447482234447
 30
0.0
 10
-68.61086175133977
 20
-8.298579152100004
 30
0.0
 10
-67.36870266644794
 20
-8.222233131339976
 30
0.0
 10
-66.40534380843383
 20
-8.174789562623936
 30
0.0
 10
-65.7106274110163
 20
-8.147933860300448
 30
0.0
 10
-65.1275976221664
 20
-8.130513198802404
 30
0.0
 10
-64.53638633029433
 20
-8.11537643388148
 30
0.0
 10
-63.81285577864724
 20
-8.102297073318816
 30
0.0
 10
-62.93101557224036
 20
-8.094690651588309
 30
0.0
 10
-61.95653648212423
 20
-8.097501298416468
 30
0.0
 10
-60.91343248630557
 20
-8.113469727571989
 30
0.0
 10
-59.83429706670461
 20
-8.143427898771208
 30
0.0
 10
-58.52288871835957
 20
-8.196428197562078
 30
0.0
 10
-57.01911788280197
 20
-8.282239030637307
 30
0.0
 10
-55.45183978842556
 20
-8.404148614278995
 30
0.0
 10
-54.33093434511443
 20
-8.509836888339656
 30
0.0
 10
-53.61288534026097
 20
-8.58384165275288
 30
0.0
 10
-53.22865241211465
 20
-8.624875645774864
 30
0.0
 10
-52.86841353572228
 20
-8.664171222008434
 30
0.0
 10
-52.43229374138527
 20
-8.71278308573008
 30
0.0
 10
-51.83012750135121
 20
-8.785770259136484
 30
0.0
 10
-50.97170289393114
 20
-8.896840838431558
 30
0.0
 10
-49.84914080004031
 20
-9.053351696258126
 30
0.0
 10
-49.01199196196591
 20
-9.18225115404087
 30
0.0
 10
-48.54850962528889
 20
-9.253615550874976
 30
0.0
1001
PE_URL
1000

  0
SPLINE
  5
1F4
330
1F
100
AcDbEntity
  8
0
  6
Continuous
 62
     1
370
    15
100
AcDbSpline
210
0.0
220
0.0
230
1.0
 70
     8
 71
     3
 72
    17
 73
    13
 74
     0
 42
0.000000001
 43
0.00000001
 40
0.0
 40
0.0
 40
0.0
 40
0.0
 40
0.1551109381108176
 40
0.280163732976494
 40
0.3750737679469234
 40
0.4395215957367942
 40
0.5013830332942963
 40
0.5700427204183703
 40
0.6515499170329345
 40
0.7460295688555119
 40
0.9149400343619194
 40
1.0
 40
1.0
 40
1.0
 40
1.0
 10
-48.54850962528883
 20
9.253615550875072
 30
0.0
 10
-49.01198005149303
 20
9.182250856192486
 30
0.0
 10
-49.8491073766905
 20
9.053350860431287
 30
0.0
 10
-50.97179673073313
 20
8.896843185034506
 30
0.0
 10
-51.82990153432659
 20
8.78576460831675
 30
0.0
 10
-52.50699716828296
 20
8.703807949544732
 30
0.0
 10
-53.12294620349161
 20
8.63617731786491
 30
0.0
 10
-53.78727477296707
 20
8.565125363474458
 30
0.0
 10
-54.55259546535126
 20
8.488545886911254
 30
0.0
 10
-55.62755624619695
 20
8.390924406073552
 30
0.0
 10
-56.70691730367066
 20
8.303470099165644
 30
0.0
 10
-57.47338700117202
 20
8.261747089124786
 30
0.0
 10
-57.73009360216608
 20
8.247773187578847
 30
0.0
1001
PE_URL
1000

  0
SPLINE
  5
1F5
330
1F
100
AcDbEntity
  8
0
  6
Continuous
 62
     1
370
    15
100
AcDbSpline
210
0.0
220
0.0
230
1.0
 70
     8
 71
     3
 72
     9
 73
     5
 74
     0
 42
0.000000001
 43
0.00000001
 40
0.0
 40
0.0
 40
0.0
 40
0.0
 40
0.5003337880865406
 40
1.0
 40
1.0
 40
1.0
 40
1.0
 10
-33.33750000000006
 20
9.611247401943334
 30
0.0
 10
-34.22601604499495
 20
9.623686682345443
 30
0.0
 10
-36.00186262212279
 20
9.648548645895179
 30
0.0
 10
-37.78227419069341
 20
9.733900502213451
 30
0.0
 10
-38.67188569480798
 20
9.776547940939782
 30
0.0
1001
PE_URL
1000

  0
SPLINE
  5
1F6
330
1F
100
AcDbEntity
  8
외형선
  6
Continuous
370
    15
100
AcDbSpline
210
0.0
220
0.0
230
1.0
 70
     8
 71
     3
 72
     8
 73
     4
 74
     0
 42
0.000000001
 43
0.00000001
 40
0.0
 40
0.0
 40
0.0
 40
0.0
 40
1.0
 40
1.0
 40
1.0
 40
1.0
 10
-30.85634233574623
 20
-9.016602811609417
 30
0.0
 10
-30.66671569388678
 20
-9.096106647201246
 30
0.0
 10
-30.47703795230687
 20
-9.174548697613623
 30
0.0
 10
-30.28741026865917
 20
-9.251887122713562
 30
0.0
  0
LINE
  5
1F7
330
1F
100
AcDbEntity
  8
외형선
  6
Continuous
370
    15
100
AcDbLine
 10
-30.85634233574623
 20
-9.016602811609417
 30
0.0
 11
-30.85634233574623
 21
-6.231464472035995
 31
0.0
  0
SPLINE
  5
1F8
330
1F
100
AcDbEntity
  8
외형선
  6
Continuous
370
    15
100
AcDbSpline
210
0.0
220
0.0
230
1.0
 70
     8
 71
     3
 72
     8
 73
     4
 74
     0
 42
0.000000001
 43
0.00000001
 40
0.0
 40
0.0
 40
0.0
 40
0.0
 40
1.0
 40
1.0
 40
1.0
 40
1.0
 10
-30.28745617949564
 20
-6.524309401813341
 30
0.0
 10
-30.47706856760923
 20
-6.427458927799847
 30
0.0
 10
-30.66673099741412
 20
-6.329826596407813
 30
0.0
 10
-30.85634233574562
 20
-6.231464472036308
 30
0.0
  0
LINE
  5
1F9
330
1F
100
AcDbEntity
  8
외형선
  6
Continuous
370
    15
100
AcDbLine
 10
-30.2874561794956
 20
12.69999999999999
 30
0.0
 11
-30.28745617949564
 21
-6.524424262310752
 31
0.0
  0
LINE
  5
1FA
330
1F
100
AcDbEntity
  8
외형선
  6
Continuous
370
    15
100
AcDbLine
 10
-30.28745617949565
 20
-9.252138259689993
 30
0.0
 11
-30.28745617949568
 21
-12.7
 31
0.0
  0
SPLINE
  5
1FB
330
1F
100
AcDbEntity
  8
외형선
  6
Continuous
370
    15
100
AcDbSpline
210
0.0
220
0.0
230
1.0
 70
    24
 71
     3
 72
    10
 73
     6
 74
     0
 42
0.000000001
 43
0.00000001
 40
0.0
 40
0.0
 40
0.0
 40
0.0
 40
0.5
 40
0.5
 40
1.0
 40
1.0
 40
1.0
 40
1.0
 10
-33.33750000000011
 20
-4.872581225826934
 30
0.0
 10
-33.33750000000011
 20
-4.799229208358923
 30
0.0
 10
-33.33750000000011
 20
-4.596862630010222
 30
0.0
 10
-33.33750000000011
 20
-3.971583492488069
 30
0.0
 10
-33.33750000000011
 20
-3.551171418454981
 30
0.0
 10
-33.33750000000011
 20
-3.082863232179736
 30
0.0
  0
SPLINE
  5
1FC
330
1F
100
AcDbEntity
  8
외형선
  6
Continuous
370
    15
100
AcDbSpline
210
0.0
220
0.0
230
1.0
 70
     8
 71
     3
 72
    10
 73
     6
 74
     0
 42
0.000000001
 43
0.00000001
 40
0.0
 40
0.0
 40
0.0
 40
0.0
 40
0.5
 40
0.5
 40
1.0
 40
1.0
 40
1.0
 40
1.0
 10
-33.33750000000011
 20
-3.082863232179733
 30
0.0
 10
-32.82866866844898
 20
-3.274779640964766
 30
0.0
 10
-32.32230695163791
 20
-3.463755144569916
 30
0.0
 10
-31.30629154543308
 20
-3.835886126073923
 30
0.0
 10
-30.79668831084114
 20
-4.019027332171454
 30
0.0
 10
-30.28744511953758
 20
-4.198532966142785
 30
0.0
  0
SPLINE
  5
1FD
330
1F
100
AcDbEntity
  8
외형선
  6
Continuous
370
    15
100
AcDbSpline
210
0.0
220
0.0
230
1.0
 70
     8
 71
     3
 72
     8
 73
     4
 74
     0
 42
0.000000001
 43
0.00000001
 40
0.0
 40
0.0
 40
0.0
 40
0.0
 40
1.0
 40
1.0
 40
1.0
 40
1.0
 10
-30.85634233574623
 20
-6.231464472035995
 30
0.0
 10
-31.35058538271238
 20
-5.954322175603679
 30
0.0
 10
-31.8442912285176
 20
-5.676315829804651
 30
0.0
 10
-32.33750000000041
 20
-5.39752004835929
 30
0.0
  0
SPLINE
  5
1FE
330
1F
100
AcDbEntity
  8
외형선
  6
Continuous
370
    15
100
AcDbSpline
210
0.0
220
0.0
230
1.0
 70
     8
 71
     3
 72
     8
 73
     4
 74
     0
 42
0.000000001
 43
0.00000001
 40
0.0
 40
0.0
 40
0.0
 40
0.0
 40
1.0
 40
1.0
 40
1.0
 40
1.0
 10
-32.33750000000011
 20
-5.397520048359894
 30
0.0
 10
-32.67005018419086
 20
-5.224595731113276
 30
0.0
 10
-33.00356647700039
 20
-5.049522356209998
 30
0.0
 10
-33.33750000000011
 20
-4.872581225826934
 30
0.0
  0
LINE
  5
1FF
330
1F
100
AcDbEntity
  8
외형선
  6
Continuous
370
    15
100
AcDbLine
 10
-32.33750000000013
 20
-8.241023560441086
 30
0.0
 11
-32.33750000000011
 21
-5.397520048359894
 31
0.0
  0
SPLINE
  5
200
330
1F
100
AcDbEntity
  8
외형선
  6
Continuous
370
    15
100
AcDbSpline
210
0.0
220
0.0
230
1.0
 70
     8
 71
     3
 72
     8
 73
     4
 74
     0
 42
0.000000001
 43
0.00000001
 40
0.0
 40
0.0
 40
0.0
 40
0.0
 40
1.0
 40
1.0
 40
1.0
 40
1.0
 10
-33.33750000000013
 20
-7.803111961591306
 30
0.0
 10
-33.0035664770004
 20
-7.952093852331046
 30
0.0
 10
-32.67005018419088
 20
-8.098140707339766
 30
0.0
 10
-32.33750000000013
 20
-8.241023560441086
 30
0.0
  0
LINE
  5
201
330
1F
100
AcDbEntity
  8
외형선
  6
Continuous
370
    15
100
AcDbLine
 10
-33.33750000000013
 20
-7.803111961591306
 30
0.0
 11
-33.33750000000011
 21
-4.872581225826934
 31
0.0
  0
SPLINE
  5
202
330
1F
100
AcDbEntity
  8
외형선
  6
Continuous
370
    15
100
AcDbSpline
210
0.0
220
0.0
230
1.0
 70
     8
 71
     3
 72
     8
 73
     4
 74
     0
 42
0.000000001
 43
0.00000001
 40
0.0
 40
0.0
 40
0.0
 40
0.0
 40
1.0
 40
1.0
 40
1.0
 40
1.0
 10
-32.33750000000013
 20
-8.241023560441327
 30
0.0
 10
-31.84289233849973
 20
-8.499997680611926
 30
0.0
 10
-31.3491796413466
 20
-8.758564756003864
 30
0.0
 10
-30.85634233574623
 20
-9.016602811609417
 30
0.0
  0
SPLINE
  5
203
330
1F
100
AcDbEntity
  8
외형선
  6
Continuous
370
    15
100
AcDbSpline
210
0.0
220
0.0
230
1.0
 70
     8
 71
     3
 72
    10
 73
     6
 74
     0
 42
0.000000001
 43
0.00000001
 40
0.0
 40
0.0
 40
0.0
 40
0.0
 40
0.5
 40
0.5
 40
1.0
 40
1.0
 40
1.0
 40
1.0
 10
-33.33750000000007
 20
9.190286110574998
 30
0.0
 10
-32.82866771864636
 20
9.106200430869656
 30
0.0
 10
-32.32230506105757
 20
9.01440977490343
 30
0.0
 10
-31.30628774642226
 20
8.815418057643523
 30
0.0
 10
-30.79668355528916
 20
8.708200012010213
 30
0.0
 10
-30.28743941610927
 20
8.593653288710943
 30
0.0
  0
SPLINE
  5
204
330
1F
100
AcDbEntity
  8
외형선
  6
Continuous
370
    15
100
AcDbSpline
210
0.0
220
0.0
230
1.0
 70
    24
 71
     3
 72
    14
 73
    10
 74
     0
 42
0.000000001
 43
0.00000001
 40
0.0
 40
0.0
 40
0.0
 40
0.0
 40
0.25
 40
0.25
 40
0.5
 40
0.5
 40
0.75
 40
0.75
 40
1.0
 40
1.0
 40
1.0
 40
1.0
 10
-33.33750000000009
 20
-3.08286323217974
 30
0.0
 10
-33.33750000000009
 20
-2.005488328263709
 30
0.0
 10
-33.33750000000009
 20
-0.8733483790520964
 30
0.0
 10
-33.33750000000008
 20
1.40247761097141
 30
0.0
 10
-33.33750000000008
 20
2.545079736673646
 30
0.0
 10
-33.33750000000008
 20
4.726372223400965
 30
0.0
 10
-33.33750000000007
 20
5.763900300593161
 30
0.0
 10
-33.33750000000006
 20
7.639360215689372
 30
0.0
 10
-33.33750000000006
 20
8.476770474238709
 30
0.0
 10
-33.33750000000006
 20
9.190286110574998
 30
0.0
  0
SPLINE
  5
205
330
1F
100
AcDbEntity
  8
외형선
  6
Continuous
370
    15
100
AcDbSpline
210
0.0
220
0.0
230
1.0
 70
    24
 71
     3
 72
    11
 73
     7
 74
     0
 42
0.000000001
 43
0.00000001
 40
0.0
 40
0.0
 40
0.0
 40
0.0
 40
0.2964158330222672
 40
0.6304708484009702
 40
0.9239374483110925
 40
1.0
 40
1.0
 40
1.0
 40
1.0
 10
-33.33750000000013
 20
-9.596491081411415
 30
0.0
 10
-33.33750000000013
 20
-9.579620879044171
 30
0.0
 10
-33.33750000000013
 20
-9.54373827894576
 30
0.0
 10
-33.33750000000013
 20
-9.013672331660253
 30
0.0
 10
-33.33750000000013
 20
-8.450370226503594
 30
0.0
 10
-33.33750000000013
 20
-8.000475328792461
 30
0.0
 10
-33.33750000000013
 20
-7.907870580929796
 30
0.0
  0
SPLINE
  5
206
330
1F
100
AcDbEntity
  8
외형선
  6
Continuous
370
    15
100
AcDbSpline
210
0.0
220
0.0
230
1.0
 70
    24
 71
     3
 72
    10
 73
     6
 74
     0
 42
0.000000001
 43
0.00000001
 40
0.0
 40
0.0
 40
0.0
 40
0.0
 40
0.4670523432351364
 40
0.9401684800823529
 40
1.0
 40
1.0
 40
1.0
 40
1.0
 10
-33.33750000000007
 20
9.190286110574998
 30
0.0
 10
-33.33750000000007
 20
9.29533879440347
 30
0.0
 10
-33.33750000000007
 20
9.506808072984658
 30
0.0
 10
-33.33750000000007
 20
9.63960085636985
 30
0.0
 10
-33.33750000000007
 20
9.600846828192271
 30
0.0
 10
-33.33750000000007
 20
9.596496096221944
 30
0.0
  0
SPLINE
  5
207
330
1F
100
AcDbEntity
  8
0
  6
Continuous
 62
     1
370
    15
100
AcDbSpline
210
0.0
220
0.0
230
1.0
 70
     8
 71
     3
 72
    48
 73
    44
 74
     0
 42
0.000000001
 43
0.00000001
 40
0.0
 40
0.0
 40
0.0
 40
0.0
 40
0.0625000000000003
 40
0.0625000000000003
 40
0.1250000000000006
 40
0.1250000000000006
 40
0.1562500000000008
 40
0.1562500000000008
 40
0.1875000000000009
 40
0.1875000000000009
 40
0.2500000000000012
 40
0.2500000000000012
 40
0.3125000000000012
 40
0.3125000000000012
 40
0.3750000000000011
 40
0.3750000000000011
 40
0.406250000000001
 40
0.406250000000001
 40
0.4375000000000009
 40
0.4375000000000009
 40
0.5000000000000008
 40
0.5000000000000008
 40
0.5312500000000008
 40
0.5312500000000008
 40
0.5625000000000008
 40
0.5625000000000008
 40
0.6250000000000007
 40
0.6250000000000007
 40
0.6875000000000004
 40
0.6875000000000004
 40
0.7500000000000001
 40
0.7500000000000001
 40
0.7812500000000001
 40
0.7812500000000001
 40
0.8125
 40
0.8125
 40
0.84375
 40
0.84375
 40
0.875
 40
0.875
 40
0.9375
 40
0.9375
 40
1.0
 40
1.0
 40
1.0
 40
1.0
 10
-74.61250000000008
 20
11.67493813176884
 30
0.0
 10
-73.75556301281877
 20
11.51850982804555
 30
0.0
 10
-72.89217387945077
 20
11.33313643829447
 30
0.0
 10
-71.17138841091925
 20
10.90833546145983
 30
0.0
 10
-70.31479330965338
 20
10.66910207809757
 30
0.0
 10
-69.02280993096691
 20
10.2714029038767
 30
0.0
 10
-68.59203363980718
 20
10.13245933353058
 30
0.0
 10
-67.7326155019028
 20
9.842608573657678
 30
0.0
 10
-67.30464770474883
 20
9.691792279842936
 30
0.0
 10
-66.01507305157632
 20
9.22121758061638
 30
0.0
 10
-65.151433421839
 20
8.8836573151296
 30
0.0
 10
-63.43522299825012
 20
8.168325615989811
 30
0.0
 10
-62.57441243374712
 20
7.789450325155471
 30
0.0
 10
-60.85263469549899
 20
6.995461790036302
 30
0.0
 10
-59.99652811689663
 20
6.581156947857142
 30
0.0
 10
-58.70481595912166
 20
5.935914935543114
 30
0.0
 10
-58.27389837979173
 20
5.717013821304722
 30
0.0
 10
-57.41373685699307
 20
5.272781579874717
 30
0.0
 10
-56.98556582781768
 20
5.047642919102579
 30
0.0
 10
-55.69727516024801
 20
4.362749311932838
 30
0.0
 10
-54.83356746530319
 20
3.89349472260761
 30
0.0
 10
-53.54492516272501
 20
3.178330000149572
 30
0.0
 10
-53.1168671737278
 20
2.938135090445822
 30
0.0
 10
-52.25687744168047
 20
2.453730222995166
 30
0.0
 10
-51.82598717113972
 20
2.20971203280865
 30
0.0
 10
-50.53418043134125
 20
1.474215221427723
 30
0.0
 10
-49.67800277561899
 20
0.9800415171597407
 30
0.0
 10
-47.95644290134057
 20
-0.0124357775103903
 30
0.0
 10
-47.09502999993728
 20
-0.5099764133681148
 30
0.0
 10
-45.37937927935143
 20
-1.49877340484807
 30
0.0
 10
-44.51578599845809
 20
-1.991817400964287
 30
0.0
 10
-43.22592809775151
 20
-2.72123692075079
 30
0.0
 10
-42.79790867640607
 20
-2.962501516426602
 30
0.0
 10
-41.93870797379235
 20
-3.44171557832604
 30
0.0
 10
-41.50798198788028
 20
-3.679575809026673
 30
0.0
 10
-40.64664260215467
 20
-4.150485499212099
 30
0.0
 10
-40.21603064798532
 20
-4.383534169866699
 30
0.0
 10
-39.35728398971231
 20
-4.843555242525241
 30
0.0
 10
-38.92904562577543
 20
-5.070552483628688
 30
0.0
 10
-37.63868862405268
 20
-5.742835291171076
 30
0.0
 10
-36.77521858554952
 20
-6.178597346274273
 30
0.0
 10
-35.06071738059229
 20
-7.015826073431818
 30
0.0
 10
-34.19803584245438
 20
-7.419190468156096
 30
0.0
 10
-33.33749999999649
 20
-7.803111961592933
 30
0.0
1001
PE_URL
1000

  0
SPLINE
  5
208
330
1F
100
AcDbEntity
  8
0
  6
Continuous
 62
     1
370
    15
100
AcDbSpline
210
0.0
220
0.0
230
1.0
 70
     8
 71
     3
 72
    16
 73
    12
 74
     0
 42
0.000000001
 43
0.00000001
 40
0.0
 40
0.0
 40
0.0
 40
0.0
 40
0.1156621048368289
 40
0.2313283565101603
 40
0.3469983148529219
 40
0.4626715385498501
 40
0.5783475852732529
 40
0.6940260118194451
 40
0.8097063742457634
 40
0.925388228008074
 40
1.0
 40
1.0
 40
1.0
 40
1.0
 10
-74.61250000000008
 20
9.706824390055338
 30
0.0
 10
-73.38142861621033
 20
9.45388481481946
 30
0.0
 10
-70.9192417109959
 20
8.94799659569843
 30
0.0
 10
-67.22587434798088
 20
7.843068905726245
 30
0.0
 10
-63.53237262307529
 20
6.523985912279468
 30
0.0
 10
-59.83875074123826
 20
5.00370075064161
 30
0.0
 10
-56.14502543728975
 20
3.335208337759948
 30
0.0
 10
-52.45121287191206
 20
1.565343381846365
 30
0.0
 10
-48.75732917026522
 20
-0.2476081623229014
 30
0.0
 10
-45.50055119882261
 20
-1.851775344946915
 30
0.0
 10
-43.47506835245473
 20
-2.798061089051565
 30
0.0
 10
-42.68090163400702
 20
-3.169088000218473
 30
0.0
1001
PE_URL
1000

  0
LINE
  5
209
330
1F
100
AcDbEntity
  8
0
  6
Continuous
 62
     1
370
    15
100
AcDbLine
 10
-74.6124999999998
 20
11.67493813176884
 30
0.0
 11
-74.61250000000008
 21
9.706824390055335
 31
0.0
1001
PE_URL
1000

  0
SPLINE
  5
20A
330
1F
100
AcDbEntity
  8
0
  6
Continuous
 62
     1
370
    15
100
AcDbSpline
210
0.0
220
0.0
230
1.0
 70
     8
 71
     3
 72
    48
 73
    44
 74
     0
 42
0.000000001
 43
0.00000001
 40
0.0
 40
0.0
 40
0.0
 40
0.0
 40
0.0625
 40
0.0625
 40
0.1249999999999999
 40
0.1249999999999999
 40
0.1562499999999999
 40
0.1562499999999999
 40
0.1874999999999999
 40
0.1874999999999999
 40
0.2187499999999999
 40
0.2187499999999999
 40
0.2499999999999999
 40
0.2499999999999999
 40
0.3124999999999998
 40
0.3124999999999998
 40
0.3749999999999998
 40
0.3749999999999998
 40
0.4374999999999997
 40
0.4374999999999997
 40
0.4687499999999997
 40
0.4687499999999997
 40
0.4999999999999997
 40
0.4999999999999997
 40
0.5624999999999998
 40
0.5624999999999998
 40
0.5937499999999999
 40
0.5937499999999999
 40
0.625
 40
0.625
 40
0.6875000000000002
 40
0.6875000000000002
 40
0.7500000000000002
 40
0.7500000000000002
 40
0.8125000000000004
 40
0.8125000000000004
 40
0.8437500000000004
 40
0.8437500000000004
 40
0.8750000000000006
 40
0.8750000000000006
 40
0.9375000000000002
 40
0.9375000000000002
 40
1.0
 40
1.0
 40
1.0
 40
1.0
 10
-33.33750000000011
 20
-4.872581225826934
 30
0.0
 10
-34.19803584245793
 20
-4.416609679958036
 30
0.0
 10
-35.06071738059571
 20
-3.948319952044674
 30
0.0
 10
-36.77521858555284
 20
-2.996761802902643
 30
0.0
 10
-37.63868862405593
 20
-2.511341269636794
 30
0.0
 10
-38.92904562577856
 20
-1.776686359718557
 30
0.0
 10
-39.35728398971538
 20
-1.530925292635668
 30
0.0
 10
-40.21603064798833
 20
-1.037404221434688
 30
0.0
 10
-40.64664260215767
 20
-0.789622423152057
 30
0.0
 10
-41.50798198788318
 20
-0.2933734466160338
 30
0.0
 10
-41.93870797379522
 20
-0.0449071010515851
 30
0.0
 10
-42.79790867640886
 20
0.4513441688701114
 30
0.0
 10
-43.22592809775426
 20
0.699041900450549
 30
0.0
 10
-44.51578599846074
 20
1.441516598140595
 30
0.0
 10
-45.37937927935399
 20
1.934881415828901
 30
0.0
 10
-47.09502999993967
 20
2.907588148106527
 30
0.0
 10
-47.95644290134291
 20
3.388699864672461
 30
0.0
 10
-49.67800277562118
 20
4.331788396924761
 30
0.0
 10
-50.53418043134336
 20
4.793069888370532
 30
0.0
 10
-51.82598717114172
 20
5.467102945343377
 30
0.0
 10
-52.25687744168243
 20
5.688623332304331
 30
0.0
 10
-53.11686717372967
 20
6.124142023716729
 30
0.0
 10
-53.54492516272686
 20
6.337972981086509
 30
0.0
 10
-54.83356746530491
 20
6.968223798474472
 30
0.0
 10
-55.69727516024966
 20
7.373097150682845
 30
0.0
 10
-56.98556582781922
 20
7.950821717813223
 30
0.0
 10
-57.41373685699456
 20
8.13848156750915
 30
0.0
 10
-58.27389837979315
 20
8.504192177789502
 30
0.0
 10
-58.70481595912303
 20
8.682079273834809
 30
0.0
 10
-59.99652811689791
 20
9.199351891828375
 30
0.0
 10
-60.85263469550019
 20
9.521909388837077
 30
0.0
 10
-62.57441243374817
 20
10.12018423585212
 30
0.0
 10
-63.4352229982511
 20
10.39525913538133
 30
0.0
 10
-65.15143342183983
 20
10.89286665522185
 30
0.0
 10
-66.01507305157706
 20
11.1161468620542
 30
0.0
 10
-67.30464770474946
 20
11.40903857977774
 30
0.0
 10
-67.7326155019034
 20
11.49963115366155
 30
0.0
 10
-68.5920336398077
 20
11.6669241055379
 30
0.0
 10
-69.02280993096743
 20
11.74356318102248
 30
0.0
 10
-70.31479330965375
 20
11.95177935076888
 30
0.0
 10
-71.17138841091953
 20
12.06148036073002
 30
0.0
 10
-72.89217387945094
 20
12.22184386951586
 30
0.0
 10
-73.75556301281885
 20
12.27234310567945
 30
0.0
 10
-74.61250000000008
 20
12.29272658612233
 30
0.0
1001
PE_URL
1000

  0
SPLINE
  5
20B
330
1F
100
AcDbEntity
  8
0
  6
Continuous
 62
     1
370
    15
100
AcDbSpline
210
0.0
220
0.0
230
1.0
 70
     8
 71
     3
 72
    10
 73
     6
 74
     0
 42
0.000000001
 43
0.00000001
 40
0.0
 40
0.0
 40
0.0
 40
0.0
 40
0.2495818887867742
 40
0.6247998330986438
 40
1.0
 40
1.0
 40
1.0
 40
1.0
 10
-44.04068282915242
 20
1.165915972756896
 30
0.0
 10
-43.15027946491895
 20
0.8089543653715516
 30
0.0
 10
-40.92125605273204
 20
-0.0846583635052838
 30
0.0
 10
-37.35341188714418
 20
-1.536609351541049
 30
0.0
 10
-34.67611615399633
 20
-2.567453412201274
 30
0.0
 10
-33.33750000000011
 20
-3.082863232179736
 30
0.0
1001
PE_URL
1000

  0
SPLINE
  5
20C
330
1F
100
AcDbEntity
  8
외형선
  6
Continuous
370
    15
100
AcDbSpline
210
0.0
220
0.0
230
1.0
 70
    24
 71
     3
 72
    10
 73
     6
 74
     0
 42
0.000000001
 43
0.00000001
 40
0.0
 40
0.0
 40
0.0
 40
0.0
 40
0.5
 40
0.5
 40
1.0
 40
1.0
 40
1.0
 40
1.0
 10
-33.33750000000011
 20
-4.872581225826934
 30
0.0
 10
-33.33750000000011
 20
-4.799229208358923
 30
0.0
 10
-33.33750000000011
 20
-4.596862630010222
 30
0.0
 10
-33.33750000000011
 20
-3.971583492488072
 30
0.0
 10
-33.33750000000011
 20
-3.551171418454981
 30
0.0
 10
-33.33750000000011
 20
-3.082863232179736
 30
0.0
  0
LINE
  5
20D
330
1F
100
AcDbEntity
  8
0
  6
Continuous
 62
     1
370
    15
100
AcDbLine
 10
-74.61250000000008
 20
12.29272658612233
 30
0.0
 11
-74.61249999999974
 21
11.67493813176882
 31
0.0
1001
PE_URL
1000

  0
SPLINE
  5
20E
330
1F
100
AcDbEntity
  8
0
  6
Continuous
 62
     1
370
    15
100
AcDbSpline
210
0.0
220
0.0
230
1.0
 70
     8
 71
     3
 72
    10
 73
     6
 74
     0
 42
0.000000001
 43
0.00000001
 40
0.0
 40
0.0
 40
0.0
 40
0.0
 40
0.5
 40
0.5
 40
1.0
 40
1.0
 40
1.0
 40
1.0
 10
-74.6125000000001
 20
3.287923370371093
 30
0.0
 10
-73.76084545869804
 20
2.618383658630258
 30
0.0
 10
-72.918349831639
 20
1.930727653883356
 30
0.0
 10
-71.2514161824483
 20
0.5196977794577755
 30
0.0
 10
-70.4269736295273
 20
-0.2036671283389246
 30
0.0
 10
-69.61250000000003
 20
-0.9467505237603966
 30
0.0
1001
PE_URL
1000

  0
LINE
  5
20F
330
1F
100
AcDbEntity
  8
0
  6
Continuous
 62
     1
370
    15
100
AcDbLine
 10
-69.61250000000011
 20
-2.937719435296483
 30
0.0
 11
-74.61250000000011
 21
0.0000000000001172
 31
0.0
1001
PE_URL
1000

  0
LINE
  5
210
330
1F
100
AcDbEntity
  8
0
  6
Continuous
 62
     1
370
    15
100
AcDbLine
 10
-74.61250000000011
 20
0.0000000000001172
 30
0.0
 11
-74.6125000000001
 21
3.287923370371093
 31
0.0
1001
PE_URL
1000

  0
SPLINE
  5
211
330
1F
100
AcDbEntity
  8
0
  6
Continuous
 62
     1
370
    15
100
AcDbSpline
210
0.0
220
0.0
230
1.0
 70
     8
 71
     3
 72
    16
 73
    12
 74
     0
 42
0.000000001
 43
0.00000001
 40
0.0
 40
0.0
 40
0.0
 40
0.0
 40
0.0982319395065235
 40
0.196480796943177
 40
0.3158324615762643
 40
0.4351870796839524
 40
0.5545441875979796
 40
0.6739033208747007
 40
0.7932640144393636
 40
0.912625802730806
 40
1.0
 40
1.0
 40
1.0
 40
1.0
 10
-69.61250000000011
 20
-2.288411181696429
 30
0.0
 10
-68.59925259331423
 20
-2.739162379288359
 30
0.0
 10
-66.57258327408503
 20
-3.640742404795972
 30
0.0
 10
-63.31478595395036
 20
-4.997183721300651
 30
0.0
 10
-59.8387412163523
 20
-6.322085569377471
 30
0.0
 10
-56.14504232890752
 20
-7.539417401350704
 30
0.0
 10
-52.4512244246454
 20
-8.530300832293051
 30
0.0
 10
-48.75735085033993
 20
-9.268600804306217
 30
0.0
 10
-45.06339304370206
 20
-9.717334062270197
 30
0.0
 10
-41.69948031537923
 20
-9.900875573140695
 30
0.0
 10
-39.56666347301191
 20
-9.786390704512783
 30
0.0
 10
-38.66525698096505
 20
-9.738005207093423
 30
0.0
1001
PE_URL
1000

  0
SPLINE
  5
212
330
1F
100
AcDbEntity
  8
0
  6
Continuous
 62
     1
370
    15
100
AcDbSpline
210
0.0
220
0.0
230
1.0
 70
    24
 71
     3
 72
     8
 73
     4
 74
     0
 42
0.000000001
 43
0.00000001
 40
0.0
 40
0.0
 40
0.0
 40
0.0
 40
1.0
 40
1.0
 40
1.0
 40
1.0
 10
-69.61250000000011
 20
-0.9467505237606098
 30
0.0
 10
-69.61250000000011
 20
-1.399314816032881
 30
0.0
 10
-69.61250000000011
 20
-1.847568214879651
 30
0.0
 10
-69.61250000000011
 20
-2.288411181696429
 30
0.0
1001
PE_URL
1000

  0
SPLINE
  5
213
330
1F
100
AcDbEntity
  8
0
  6
Continuous
 62
     1
370
    15
100
AcDbSpline
210
0.0
220
0.0
230
1.0
 70
    24
 71
     3
 72
    10
 73
     6
 74
     0
 42
0.000000001
 43
0.00000001
 40
0.0
 40
0.0
 40
0.0
 40
0.0
 40
0.4999999999999999
 40
0.4999999999999999
 40
1.0
 40
1.0
 40
1.0
 40
1.0
 10
-74.61250000000008
 20
9.706824390055331
 30
0.0
 10
-74.61250000000008
 20
8.962720620337564
 30
0.0
 10
-74.61250000000008
 20
8.022516975436897
 30
0.0
 10
-74.61250000000007
 20
5.836633985550829
 30
0.0
 10
-74.61250000000007
 20
4.592848135290765
 30
0.0
 10
-74.6125000000001
 20
3.287923370371487
 30
0.0
1001
PE_URL
1000

  0
SPLINE
  5
214
330
1F
100
AcDbEntity
  8
외형선
  6
Continuous
370
    15
100
AcDbSpline
210
0.0
220
0.0
230
1.0
 70
    24
 71
     3
 72
    11
 73
     7
 74
     0
 42
0.000000001
 43
0.00000001
 40
0.0
 40
0.0
 40
0.0
 40
0.0
 40
0.2978469628969809
 40
0.631222491535157
 40
0.9240921638308244
 40
1.0
 40
1.0
 40
1.0
 40
1.0
 10
-33.33750000000013
 20
-9.597334306824372
 30
0.0
 10
-33.33750000000013
 20
-9.580429296798947
 30
0.0
 10
-33.33750000000013
 20
-9.544602768826685
 30
0.0
 10
-33.33750000000013
 20
-9.013749343939509
 30
0.0
 10
-33.33750000000012
 20
-8.450366457722225
 30
0.0
 10
-33.33750000000012
 20
-8.000474685461072
 30
0.0
 10
-33.33750000000013
 20
-7.907870580929796
 30
0.0
  0
SPLINE
  5
215
330
1F
100
AcDbEntity
  8
0
  6
Continuous
 62
     1
370
    15
100
AcDbSpline
210
0.0
220
0.0
230
1.0
 70
    24
 71
     3
 72
    10
 73
     6
 74
     0
 42
0.000000001
 43
0.00000001
 40
0.0
 40
0.0
 40
0.0
 40
0.0
 40
0.4999999999999999
 40
0.4999999999999999
 40
1.0
 40
1.0
 40
1.0
 40
1.0
 10
-69.61250000000008
 20
-2.288411181696436
 30
0.0
 10
-69.61250000000008
 20
-3.253366688984315
 30
0.0
 10
-69.61250000000011
 20
-4.168536976405772
 30
0.0
 10
-69.6125000000001
 20
-5.779252926636936
 30
0.0
 10
-69.6125000000001
 20
-6.473323564578365
 30
0.0
 10
-69.6125000000001
 20
-7.012658168454898
 30
0.0
1001
PE_URL
1000

  0
SPLINE
  5
216
330
1F
100
AcDbEntity
  8
0
  6
Continuous
 62
     1
370
    15
100
AcDbSpline
210
0.0
220
0.0
230
1.0
 70
     8
 71
     3
 72
     9
 73
     5
 74
     0
 42
0.000000001
 43
0.00000001
 40
0.0
 40
0.0
 40
0.0
 40
0.0
 40
0.806912978123168
 40
1.0
 40
1.0
 40
1.0
 40
1.0
 10
-74.61250000000013
 20
-8.612187499999877
 30
0.0
 10
-73.3814300767531
 20
-8.603360998034063
 30
0.0
 10
-71.85577618764302
 20
-8.592422393494154
 30
0.0
 10
-70.3301134886147
 20
-8.423963792433788
 30
0.0
 10
-70.03552782167074
 20
-8.391436622845504
 30
0.0
1001
PE_URL
1000

  0
SPLINE
  5
217
330
1F
100
AcDbEntity
  8
0
  6
Continuous
 62
     1
370
    15
100
AcDbSpline
210
0.0
220
0.0
230
1.0
 70
     8
 71
     3
 72
     8
 73
     4
 74
     0
 42
0.000000001
 43
0.00000001
 40
0.0
 40
0.0
 40
0.0
 40
0.0
 40
1.0
 40
1.0
 40
1.0
 40
1.0
 10
-74.61250000000013
 20
-8.612187499999884
 30
0.0
 10
-72.93130009742521
 20
-8.156427316048877
 30
0.0
 10
-71.2639065256125
 20
-7.627122981486039
 30
0.0
 10
-69.61250000000013
 20
-7.012658168454898
 30
0.0
1001
PE_URL
1000

  0
SPLINE
  5
218
330
1F
100
AcDbEntity
  8
0
  6
Continuous
 62
     1
370
    15
100
AcDbSpline
210
0.0
220
0.0
230
1.0
 70
     8
 71
     3
 72
    11
 73
     7
 74
     0
 42
0.000000001
 43
0.00000001
 40
0.0
 40
0.0
 40
0.0
 40
0.0
 40
0.2292799355706101
 40
0.4720861112790521
 40
0.7360491459200793
 40
1.0
 40
1.0
 40
1.0
 40
1.0
 10
-48.55161102009986
 20
9.245723428027748
 30
0.0
 10
-47.38887686208576
 20
9.408125577278696
 30
0.0
 10
-44.99481370194869
 20
9.742510698734865
 30
0.0
 10
-41.26221049864598
 20
9.888452636431989
 30
0.0
 10
-37.35340471177275
 20
9.760832262045636
 30
0.0
 10
-34.67611431287715
 20
9.380465235661461
 30
0.0
 10
-33.33750000000007
 20
9.190286110574998
 30
0.0
1001
PE_URL
1000

  0
SPLINE
  5
219
330
1F
100
AcDbEntity
  8
외형선
  6
Continuous
370
    15
100
AcDbSpline
210
0.0
220
0.0
230
1.0
 70
    24
 71
     3
 72
    14
 73
    10
 74
     0
 42
0.000000001
 43
0.00000001
 40
0.0
 40
0.0
 40
0.0
 40
0.0
 40
0.25
 40
0.25
 40
0.5
 40
0.5
 40
0.75
 40
0.75
 40
1.0
 40
1.0
 40
1.0
 40
1.0
 10
-33.33750000000009
 20
-3.08286323217974
 30
0.0
 10
-33.33750000000009
 20
-2.005488328263709
 30
0.0
 10
-33.33750000000009
 20
-0.8733483790520964
 30
0.0
 10
-33.33750000000008
 20
1.40247761097141
 30
0.0
 10
-33.33750000000008
 20
2.545079736673646
 30
0.0
 10
-33.33750000000008
 20
4.726372223400965
 30
0.0
 10
-33.33750000000007
 20
5.763900300593161
 30
0.0
 10
-33.33750000000006
 20
7.639360215689372
 30
0.0
 10
-33.33750000000006
 20
8.476770474238709
 30
0.0
 10
-33.33750000000006
 20
9.190286110574998
 30
0.0
  0
LINE
  5
21A
330
1F
100
AcDbEntity
  8
0
  6
Continuous
 62
     1
370
    15
100
AcDbLine
 10
-74.61250000000011
 20
0.0000000000001172
 30
0.0
 11
-74.61250000000013
 21
-8.612187499999877
 31
0.0
1001
PE_URL
1000

  0
SPLINE
  5
21B
330
1F
100
AcDbEntity
  8
외형선
  6
Continuous
370
    15
100
AcDbSpline
210
0.0
220
0.0
230
1.0
 70
    24
 71
     3
 72
    10
 73
     6
 74
     0
 42
0.000000001
 43
0.00000001
 40
0.0
 40
0.0
 40
0.0
 40
0.0
 40
0.469067836561881
 40
0.94422563411459
 40
1.0
 40
1.0
 40
1.0
 40
1.0
 10
-33.33750000000007
 20
9.190286110574998
 30
0.0
 10
-33.33750000000007
 20
9.295274178238696
 30
0.0
 10
-33.33750000000006
 20
9.506613385571317
 30
0.0
 10
-33.33750000000007
 20
9.639529721687357
 30
0.0
 10
-33.33750000000006
 20
9.601345549906956
 30
0.0
 10
-33.33750000000006
 20
9.597334306824376
 30
0.0
  0
SPLINE
  5
21C
330
1F
100
AcDbEntity
  8
0
  6
Continuous
 62
     1
370
    15
100
AcDbSpline
210
0.0
220
0.0
230
1.0
 70
    24
 71
     3
 72
    10
 73
     6
 74
     0
 42
0.000000001
 43
0.00000001
 40
0.0
 40
0.0
 40
0.0
 40
0.0
 40
0.5
 40
0.5
 40
1.0
 40
1.0
 40
1.0
 40
1.0
 10
-74.61250000000013
 20
-8.612187499999877
 30
0.0
 10
-74.61250000000013
 20
-9.134236859532365
 30
0.0
 10
-74.61250000000013
 20
-9.740906562280628
 30
0.0
 10
-74.61250000000014
 20
-11.0136979646964
 30
0.0
 10
-74.61250000000014
 20
-11.67656911484487
 30
0.0
 10
-74.61250000000014
 20
-12.29272658612209
 30
0.0
1001
PE_URL
1000

  0
SPLINE
  5
21D
330
1F
100
AcDbEntity
  8
0
  6
Continuous
 62
     1
370
    15
100
AcDbSpline
210
0.0
220
0.0
230
1.0
 70
     8
 71
     3
 72
    14
 73
    10
 74
     0
 42
0.000000001
 43
0.00000001
 40
0.0
 40
0.0
 40
0.0
 40
0.0
 40
0.0714079931806523
 40
0.1765092851466676
 40
0.2819755697339862
 40
0.4594307583561303
 40
0.637382949347804
 40
0.8184277125447438
 40
1.0
 40
1.0
 40
1.0
 40
1.0
 10
-57.69209433185992
 20
-8.250059287569748
 30
0.0
 10
-58.09484278377891
 20
-8.422312164593677
 30
0.0
 10
-59.09037337042208
 20
-8.848094081066684
 30
0.0
 10
-60.68032033190931
 20
-9.460095810128273
 30
0.0
 10
-62.86888828556074
 20
-10.22994683696008
 30
0.0
 10
-65.46818523553928
 20
-11.0050207323554
 30
0.0
 10
-68.49385471532047
 20
-11.68293419486833
 30
0.0
 10
-71.54287055620689
 20
-12.14612234557909
 30
0.0
 10
-73.58829831003656
 20
-12.2438111343813
 30
0.0
 10
-74.61249999999943
 20
-12.29272658612207
 30
0.0
1001
PE_URL
1000

  0
LINE
  5
21E
330
1F
100
AcDbEntity
  8
외형선
  6
Continuous
370
    15
100
AcDbLine
 10
-8.45819999999993
 20
12.69999999999999
 30
0.0
 11
-30.2874561794956
 21
12.69999999999999
 31
0.0
  0
ENDSEC
  0
SECTION
  2
OBJECTS
  0
DICTIONARY
  5
C
330
0
100
AcDbDictionary
281
     1
  3
ACAD_DETAILVIEWSTYLE
350
224
  3
ACAD_GROUP
350
D
  3
ACAD_LAYOUT
350
1A
  3
ACAD_MLINESTYLE
350
17
  3
ACAD_PLOTSETTINGS
350
19
  3
ACAD_PLOTSTYLENAME
350
E
  3
ACAD_SCALELIST
350
47
  3
ACAD_SECTIONVIEWSTYLE
350
225
  3
AcDbVariableDictionary
350
21F
  3
APPDATA
350
157
  3
DWGPROPS
350
227
  0
DICTIONARY
  5
191
330
2
100
AcDbDictionary
280
     1
281
     1
  3
ACAD_LAYERSTATES
360
192
  0
DICTIONARY
  5
224
102
{ACAD_REACTORS
330
C
102
}
330
C
100
AcDbDictionary
281
     1
  0
DICTIONARY
  5
D
102
{ACAD_REACTORS
330
C
102
}
330
C
100
AcDbDictionary
281
     1
  0
DICTIONARY
  5
1A
102
{ACAD_REACTORS
330
C
102
}
330
C
100
AcDbDictionary
281
     1
  3
Layout1
350
1E
  3
Layout2
350
26
  3
Model
350
22
  0
DICTIONARY
  5
17
102
{ACAD_REACTORS
330
C
102
}
330
C
100
AcDbDictionary
281
     1
  3
Standard
350
18
  0
DICTIONARY
  5
19
102
{ACAD_REACTORS
330
C
102
}
330
C
100
AcDbDictionary
281
     1
  0
ACDBDICTIONARYWDFLT
  5
E
102
{ACAD_REACTORS
330
C
102
}
330
C
100
AcDbDictionary
281
     1
  3
Normal
350
F
100
AcDbDictionaryWithDefault
340
F
  0
DICTIONARY
  5
47
102
{ACAD_REACTORS
330
C
102
}
330
C
100
AcDbDictionary
281
     1
  3
A0
350
48
  3
A1
350
49
  3
A2
350
4A
  3
A3
350
4B
  3
A4
350
4C
  3
A5
350
4D
  3
A6
350
4E
  3
A7
350
4F
  3
A8
350
50
  3
A9
350
51
  3
B0
350
52
  3
B1
350
53
  3
B2
350
54
  3
B3
350
55
  3
B4
350
56
  3
B5
350
57
  3
B6
350
58
  3
B7
350
59
  3
B8
350
5A
  3
B9
350
5B
  3
C0
350
5C
  3
C1
350
5D
  3
C2
350
5E
  3
C3
350
5F
  3
C4
350
60
  3
C5
350
61
  3
C6
350
62
  3
C7
350
63
  3
C8
350
64
  3
C9
350
65
  3
D0
350
66
  3
D1
350
67
  3
D2
350
68
  0
DICTIONARY
  5
225
102
{ACAD_REACTORS
330
C
102
}
330
C
100
AcDbDictionary
281
     1
  0
DICTIONARY
  5
21F
102
{ACAD_REACTORS
330
C
102
}
330
C
100
AcDbDictionary
281
     1
  0
DICTIONARY
  5
157
102
{ACAD_REACTORS
330
C
102
}
330
C
100
AcDbDictionary
281
     1
  0
XRECORD
  5
227
102
{ACAD_REACTORS
330
C
102
}
330
C
100
AcDbXrecord
280
     1
  1
DWGPROPS COOKIE
  2

  3

  4

  6

  7

  8
120170442
  9

300
=
301
=
302
=
303
=
304
=
305
=
306
=
307
=
308
=
309
=
 40
0.0
 41
2458313.027030556
 42
2458324.110455474
  1

 90
        0
  0
DICTIONARY
  5
192
102
{ACAD_REACTORS
330
191
102
}
330
191
100
AcDbDictionary
281
     1
  0
LAYOUT
  5
1E
102
{ACAD_REACTORS
330
1A
102
}
330
1A
100
AcDbPlotSettings
  1

  2
none_device
  4

  6

 40
0.0
 41
0.0
 42
0.0
 43
0.0
 44
0.0
 45
0.0
 46
0.0
 47
0.0
 48
0.0
 49
0.0
140
0.0
141
0.0
142
1.0
143
1.0
 70
   688
 72
     1
 73
     0
 74
     5
  7

 75
    16
147
1.0
148
0.0
149
0.0
100
AcDbLayout
  1
Layout1
 70
     1
 71
     1
 10
0.0
 20
0.0
 11
420.0
 21
297.0
 12
0.0
 22
0.0
 32
0.0
 14
1.000000000000000E+20
 24
1.000000000000000E+20
 34
1.000000000000000E+20
 15
-1.000000000000000E+20
 25
-1.000000000000000E+20
 35
-1.000000000000000E+20
146
0.0
 13
0.0
 23
0.0
 33
0.0
 16
1.0
 26
0.0
 36
0.0
 17
0.0
 27
1.0
 37
0.0
 76
     0
330
1B
  0
LAYOUT
  5
26
102
{ACAD_REACTORS
330
1A
102
}
330
1A
100
AcDbPlotSettings
  1

  2
none_device
  4

  6

 40
0.0
 41
0.0
 42
0.0
 43
0.0
 44
0.0
 45
0.0
 46
0.0
 47
0.0
 48
0.0
 49
0.0
140
0.0
141
0.0
142
1.0
143
1.0
 70
   688
 72
     1
 73
     0
 74
     5
  7

 75
    16
147
1.0
148
0.0
149
0.0
100
AcDbLayout
  1
Layout2
 70
     1
 71
     2
 10
0.0
 20
0.0
 11
0.0
 21
0.0
 12
0.0
 22
0.0
 32
0.0
 14
0.0
 24
0.0
 34
0.0
 15
0.0
 25
0.0
 35
0.0
146
0.0
 13
0.0
 23
0.0
 33
0.0
 16
1.0
 26
0.0
 36
0.0
 17
0.0
 27
1.0
 37
0.0
 76
     0
330
23
  0
LAYOUT
  5
22
102
{ACAD_REACTORS
330
1A
102
}
330
1A
100
AcDbPlotSettings
  1

  2
none_device
  4
ANSI_A_(11.00_x_8.50_Inches)
  6

 40
6.35
 41
19.05
 42
6.35000508
 43
19.05000254
 44
279.4
 45
215.9
 46
53.04992004226213
 47
23.90331537407167
 48
0.0
 49
0.0
140
0.0
141
0.0
142
0.0189089557844881
143
1.0
 70
  1696
 72
     0
 73
     0
 74
     0
  7

 75
     0
147
0.0235690232323232
148
0.0
149
0.0
100
AcDbLayout
  1
Model
 70
     1
 71
     0
 10
0.0
 20
0.0
 11
420.0
 21
297.0
 12
0.0
 22
0.0
 32
0.0
 14
-94.48750000000007
 24
-49.97180738881175
 34
0.0
 15
104.1441250329551
 25
53.34472658612229
 35
0.0
146
0.0
 13
0.0
 23
0.0
 33
0.0
 16
1.0
 26
0.0
 36
0.0
 17
0.0
 27
1.0
 37
0.0
 76
     0
330
1F
331
29
  0
MLINESTYLE
  5
18
102
{ACAD_REACTORS
330
17
102
}
330
17
100
AcDbMlineStyle
  2
Standard
 70
     0
  3

 62
   256
 51
90.0
 52
90.0
 71
     2
 49
0.5
 62
   256
  6
BYLAYER
 49
-0.5
 62
   256
  6
BYLAYER
  0
ACDBPLACEHOLDER
  5
F
102
{ACAD_REACTORS
330
E
102
}
330
E
  0
SCALE
  5
48
102
{ACAD_REACTORS
330
47
102
}
330
47
100
AcDbScale
 70
     0
300
1:1
140
1.0
141
1.0
290
     1
  0
SCALE
  5
49
102
{ACAD_REACTORS
330
47
102
}
330
47
100
AcDbScale
 70
     0
300
1:2
140
1.0
141
2.0
290
     0
  0
SCALE
  5
4A
102
{ACAD_REACTORS
330
47
102
}
330
47
100
AcDbScale
 70
     0
300
1:4
140
1.0
141
4.0
290
     0
  0
SCALE
  5
4B
102
{ACAD_REACTORS
330
47
102
}
330
47
100
AcDbScale
 70
     0
300
1:5
140
1.0
141
5.0
290
     0
  0
SCALE
  5
4C
102
{ACAD_REACTORS
330
47
102
}
330
47
100
AcDbScale
 70
     0
300
1:8
140
1.0
141
8.0
290
     0
  0
SCALE
  5
4D
102
{ACAD_REACTORS
330
47
102
}
330
47
100
AcDbScale
 70
     0
300
1:10
140
1.0
141
10.0
290
     0
  0
SCALE
  5
4E
102
{ACAD_REACTORS
330
47
102
}
330
47
100
AcDbScale
 70
     0
300
1:16
140
1.0
141
16.0
290
     0
  0
SCALE
  5
4F
102
{ACAD_REACTORS
330
47
102
}
330
47
100
AcDbScale
 70
     0
300
1:20
140
1.0
141
20.0
290
     0
  0
SCALE
  5
50
102
{ACAD_REACTORS
330
47
102
}
330
47
100
AcDbScale
 70
     0
300
1:30
140
1.0
141
30.0
290
     0
  0
SCALE
  5
51
102
{ACAD_REACTORS
330
47
102
}
330
47
100
AcDbScale
 70
     0
300
1:40
140
1.0
141
40.0
290
     0
  0
SCALE
  5
52
102
{ACAD_REACTORS
330
47
102
}
330
47
100
AcDbScale
 70
     0
300
1:50
140
1.0
141
50.0
290
     0
  0
SCALE
  5
53
102
{ACAD_REACTORS
330
47
102
}
330
47
100
AcDbScale
 70
     0
300
1:100
140
1.0
141
100.0
290
     0
  0
SCALE
  5
54
102
{ACAD_REACTORS
330
47
102
}
330
47
100
AcDbScale
 70
     0
300
2:1
140
2.0
141
1.0
290
     0
  0
SCALE
  5
55
102
{ACAD_REACTORS
330
47
102
}
330
47
100
AcDbScale
 70
     0
300
4:1
140
4.0
141
1.0
290
     0
  0
SCALE
  5
56
102
{ACAD_REACTORS
330
47
102
}
330
47
100
AcDbScale
 70
     0
300
8:1
140
8.0
141
1.0
290
     0
  0
SCALE
  5
57
102
{ACAD_REACTORS
330
47
102
}
330
47
100
AcDbScale
 70
     0
300
10:1
140
10.0
141
1.0
290
     0
  0
SCALE
  5
58
102
{ACAD_REACTORS
330
47
102
}
330
47
100
AcDbScale
 70
     0
300
100:1
140
100.0
141
1.0
290
     0
  0
SCALE
  5
59
102
{ACAD_REACTORS
330
47
102
}
330
47
100
AcDbScale
 70
     0
300
1/128" = 1'-0"
140
0.0078125
141
12.0
290
     0
  0
SCALE
  5
5A
102
{ACAD_REACTORS
330
47
102
}
330
47
100
AcDbScale
 70
     0
300
1/64" = 1'-0"
140
0.015625
141
12.0
290
     0
  0
SCALE
  5
5B
102
{ACAD_REACTORS
330
47
102
}
330
47
100
AcDbScale
 70
     0
300
1/32" = 1'-0"
140
0.03125
141
12.0
290
     0
  0
SCALE
  5
5C
102
{ACAD_REACTORS
330
47
102
}
330
47
100
AcDbScale
 70
     0
300
1/16" = 1'-0"
140
0.0625
141
12.0
290
     0
  0
SCALE
  5
5D
102
{ACAD_REACTORS
330
47
102
}
330
47
100
AcDbScale
 70
     0
300
3/32" = 1'-0"
140
0.09375
141
12.0
290
     0
  0
SCALE
  5
5E
102
{ACAD_REACTORS
330
47
102
}
330
47
100
AcDbScale
 70
     0
300
1/8" = 1'-0"
140
0.125
141
12.0
290
     0
  0
SCALE
  5
5F
102
{ACAD_REACTORS
330
47
102
}
330
47
100
AcDbScale
 70
     0
300
3/16" = 1'-0"
140
0.1875
141
12.0
290
     0
  0
SCALE
  5
60
102
{ACAD_REACTORS
330
47
102
}
330
47
100
AcDbScale
 70
     0
300
1/4" = 1'-0"
140
0.25
141
12.0
290
     0
  0
SCALE
  5
61
102
{ACAD_REACTORS
330
47
102
}
330
47
100
AcDbScale
 70
     0
300
3/8" = 1'-0"
140
0.375
141
12.0
290
     0
  0
SCALE
  5
62
102
{ACAD_REACTORS
330
47
102
}
330
47
100
AcDbScale
 70
     0
300
1/2" = 1'-0"
140
0.5
141
12.0
290
     0
  0
SCALE
  5
63
102
{ACAD_REACTORS
330
47
102
}
330
47
100
AcDbScale
 70
     0
300
3/4" = 1'-0"
140
0.75
141
12.0
290
     0
  0
SCALE
  5
64
102
{ACAD_REACTORS
330
47
102
}
330
47
100
AcDbScale
 70
     0
300
1" = 1'-0"
140
1.0
141
12.0
290
     0
  0
SCALE
  5
65
102
{ACAD_REACTORS
330
47
102
}
330
47
100
AcDbScale
 70
     0
300
1-1/2" = 1'-0"
140
1.5
141
12.0
290
     0
  0
SCALE
  5
66
102
{ACAD_REACTORS
330
47
102
}
330
47
100
AcDbScale
 70
     0
300
3" = 1'-0"
140
3.0
141
12.0
290
     0
  0
SCALE
  5
67
102
{ACAD_REACTORS
330
47
102
}
330
47
100
AcDbScale
 70
     0
300
6" = 1'-0"
140
6.0
141
12.0
290
     0
  0
SCALE
  5
68
102
{ACAD_REACTORS
330
47
102
}
330
47
100
AcDbScale
 70
     0
300
1'-0" = 1'-0"
140
12.0
141
12.0
290
     0
  0
ENDSEC
  0
EOF
