  0
SECTION
  2
HEADER
  9
$ACADVER
  1
AC1015
  9
$ACADMAINTVER
 70
     6
  9
$DWGCODEPAGE
  3
ANSI_949
  9
$INSBASE
 10
0.0
 20
0.0
 30
0.0
  9
$EXTMIN
 10
-94.48750000000007
 20
-49.97180738881175
 30
0.0
  9
$EXTMAX
 10
104.1441250329551
 20
47.57499999999999
 30
0.0
  9
$LIMMIN
 10
0.0
 20
0.0
  9
$LIMMAX
 10
420.0
 20
297.0
  9
$ORTHOMODE
 70
     1
  9
$REGENMODE
 70
     1
  9
$FILLMODE
 70
     1
  9
$QTEXTMODE
 70
     0
  9
$MIRRTEXT
 70
     1
  9
$LTSCALE
 40
1.0
  9
$ATTMODE
 70
     1
  9
$TEXTSIZE
 40
3.5
  9
$TRACEWID
 40
1.0
  9
$TEXTSTYLE
  7
Standard
  9
$CLAYER
  8
0
  9
$CELTYPE
  6
ByLayer
  9
$CECOLOR
 62
   256
  9
$CELTSCALE
 40
1.0
  9
$DISPSILH
 70
     0
  9
$DIMSCALE
 40
1.0
  9
$DIMASZ
 40
3.302
  9
$DIMEXO
 40
1.0
  9
$DIMDLI
 40
3.75
  9
$DIMRND
 40
0.0
  9
$DIMDLE
 40
0.0
  9
$DIMEXE
 40
1.0
  9
$DIMTP
 40
0.0
  9
$DIMTM
 40
0.0
  9
$DIMTXT
 40
3.5
  9
$DIMCEN
 40
2.5
  9
$DIMTSZ
 40
0.0
  9
$DIMTOL
 70
     0
  9
$DIMLIM
 70
     0
  9
$DIMTIH
 70
     1
  9
$DIMTOH
 70
     1
  9
$DIMSE1
 70
     0
  9
$DIMSE2
 70
     0
  9
$DIMTAD
 70
     1
  9
$DIMZIN
 70
     0
  9
$DIMBLK
  1

  9
$DIMASO
 70
     1
  9
$DIMSHO
 70
     1
  9
$DIMPOST
  1

  9
$DIMAPOST
  1

  9
$DIMALT
 70
     0
  9
$DIMALTD
 70
     3
  9
$DIMALTF
 40
0.0393700787401575
  9
$DIMLFAC
 40
1.0
  9
$DIMTOFL
 70
     1
  9
$DIMTVP
 40
0.0
  9
$DIMTIX
 70
     0
  9
$DIMSOXD
 70
     0
  9
$DIMSAH
 70
     0
  9
$DIMBLK1
  1

  9
$DIMBLK2
  1

  9
$DIMSTYLE
  2
ISO-25
  9
$DIMCLRD
 70
     0
  9
$DIMCLRE
 70
     0
  9
$DIMCLRT
 70
     0
  9
$DIMTFAC
 40
1.0
  9
$DIMGAP
 40
1.524
  9
$DIMJUST
 70
     0
  9
$DIMSD1
 70
     0
  9
$DIMSD2
 70
     0
  9
$DIMTOLJ
 70
     0
  9
$DIMTZIN
 70
     0
  9
$DIMALTZ
 70
     0
  9
$DIMALTTZ
 70
     0
  9
$DIMUPT
 70
     0
  9
$DIMDEC
 70
     2
  9
$DIMTDEC
 70
     2
  9
$DIMALTU
 70
     2
  9
$DIMALTTD
 70
     3
  9
$DIMTXSTY
  7
Standard
  9
$DIMAUNIT
 70
     0
  9
$DIMADEC
 70
     2
  9
$DIMALTRND
 40
0.0
  9
$DIMAZIN
 70
     0
  9
$DIMDSEP
 70
    44
  9
$DIMATFIT
 70
     3
  9
$DIMFRAC
 70
     0
  9
$DIMLDRBLK
  1

  9
$DIMLUNIT
 70
     2
  9
$DIMLWD
 70
    -2
  9
$DIMLWE
 70
    -2
  9
$DIMTMOVE
 70
     0
  9
$LUNITS
 70
     2
  9
$LUPREC
 70
     2
  9
$SKETCHINC
 40
1.0
  9
$FILLETRAD
 40
10.0
  9
$AUNITS
 70
     0
  9
$AUPREC
 70
     2
  9
$MENU
  1
.
  9
$ELEVATION
 40
0.0
  9
$PELEVATION
 40
0.0
  9
$THICKNESS
 40
0.0
  9
$LIMCHECK
 70
     0
  9
$CHAMFERA
 40
0.0
  9
$CHAMFERB
 40
0.0
  9
$CHAMFERC
 40
0.0
  9
$CHAMFERD
 40
0.0
  9
$SKPOLY
 70
     0
  9
$TDCREATE
 40
2458313.401606609
  9
$TDUCREATE
 40
2458313.026606609
  9
$TDUPDATE
 40
2458324.48803412
  9
$TDUUPDATE
 40
2458324.11303412
  9
$TDINDWG
 40
0.0002978935
  9
$TDUSRTIMER
 40
0.0000267708
  9
$USRTIMER
 70
     1
  9
$ANGBASE
 50
0.0
  9
$ANGDIR
 70
     0
  9
$PDMODE
 70
     0
  9
$PDSIZE
 40
-1.0
  9
$PLINEWID
 40
0.0
  9
$SPLFRAME
 70
     0
  9
$SPLINETYPE
 70
     6
  9
$SPLINESEGS
 70
     8
  9
$HANDSEED
  5
273
  9
$SURFTAB1
 70
     6
  9
$SURFTAB2
 70
     6
  9
$SURFTYPE
 70
     6
  9
$SURFU
 70
     6
  9
$SURFV
 70
     6
  9
$UCSBASE
  2

  9
$UCSNAME
  2

  9
$UCSORG
 10
0.0
 20
0.0
 30
0.0
  9
$UCSXDIR
 10
1.0
 20
0.0
 30
0.0
  9
$UCSYDIR
 10
0.0
 20
1.0
 30
0.0
  9
$UCSORTHOREF
  2

  9
$UCSORTHOVIEW
 70
     0
  9
$UCSORGTOP
 10
0.0
 20
0.0
 30
0.0
  9
$UCSORGBOTTOM
 10
0.0
 20
0.0
 30
0.0
  9
$UCSORGLEFT
 10
0.0
 20
0.0
 30
0.0
  9
$UCSORGRIGHT
 10
0.0
 20
0.0
 30
0.0
  9
$UCSORGFRONT
 10
0.0
 20
0.0
 30
0.0
  9
$UCSORGBACK
 10
0.0
 20
0.0
 30
0.0
  9
$PUCSBASE
  2

  9
$PUCSNAME
  2

  9
$PUCSORG
 10
0.0
 20
0.0
 30
0.0
  9
$PUCSXDIR
 10
1.0
 20
0.0
 30
0.0
  9
$PUCSYDIR
 10
0.0
 20
1.0
 30
0.0
  9
$PUCSORTHOREF
  2

  9
$PUCSORTHOVIEW
 70
     0
  9
$PUCSORGTOP
 10
0.0
 20
0.0
 30
0.0
  9
$PUCSORGBOTTOM
 10
0.0
 20
0.0
 30
0.0
  9
$PUCSORGLEFT
 10
0.0
 20
0.0
 30
0.0
  9
$PUCSORGRIGHT
 10
0.0
 20
0.0
 30
0.0
  9
$PUCSORGFRONT
 10
0.0
 20
0.0
 30
0.0
  9
$PUCSORGBACK
 10
0.0
 20
0.0
 30
0.0
  9
$USERI1
 70
     0
  9
$USERI2
 70
     0
  9
$USERI3
 70
     0
  9
$USERI4
 70
     0
  9
$USERI5
 70
     0
  9
$USERR1
 40
0.0
  9
$USERR2
 40
0.0
  9
$USERR3
 40
0.0
  9
$USERR4
 40
0.0
  9
$USERR5
 40
0.0
  9
$WORLDVIEW
 70
     1
  9
$SHADEDGE
 70
     3
  9
$SHADEDIF
 70
    70
  9
$TILEMODE
 70
     1
  9
$MAXACTVP
 70
    64
  9
$PINSBASE
 10
0.0
 20
0.0
 30
0.0
  9
$PLIMCHECK
 70
     0
  9
$PEXTMIN
 10
1.000000000000000E+20
 20
1.000000000000000E+20
 30
1.000000000000000E+20
  9
$PEXTMAX
 10
-1.000000000000000E+20
 20
-1.000000000000000E+20
 30
-1.000000000000000E+20
  9
$PLIMMIN
 10
0.0
 20
0.0
  9
$PLIMMAX
 10
0.0
 20
0.0
  9
$UNITMODE
 70
     0
  9
$VISRETAIN
 70
     1
  9
$PLINEGEN
 70
     0
  9
$PSLTSCALE
 70
     1
  9
$TREEDEPTH
 70
  3020
  9
$CMLSTYLE
  2
Standard
  9
$CMLJUST
 70
     0
  9
$CMLSCALE
 40
20.0
  9
$PROXYGRAPHICS
 70
     1
  9
$MEASUREMENT
 70
     1
  9
$CELWEIGHT
370
    -1
  9
$ENDCAPS
280
     0
  9
$JOINSTYLE
280
     0
  9
$LWDISPLAY
290
     1
  9
$INSUNITS
 70
     4
  9
$HYPERLINKBASE
  1

  9
$STYLESHEET
  1

  9
$XEDIT
290
     1
  9
$CEPSNTYPE
380
     0
  9
$PSTYLEMODE
290
     1
  9
$FINGERPRINTGUID
  2
{5A15FAED-DE5C-4B37-A7AB-20561E93839D}
  9
$VERSIONGUID
  2
{FAEB1C32-E019-11D5-929B-00C0DF256EC4}
  9
$EXTNAMES
290
     1
  9
$PSVPSCALE
 40
0.0
  9
$OLESTARTUP
290
     0
  0
ENDSEC
  0
SECTION
  2
CLASSES
  0
CLASS
  1
ACDBDICTIONARYWDFLT
  2
AcDbDictionaryWithDefault
  3
ObjectDBX Classes
 90
        0
280
     0
281
     0
  0
CLASS
  1
VISUALSTYLE
  2
AcDbVisualStyle
  3
ObjectDBX Classes
 90
     4095
280
     0
281
     0
  0
CLASS
  1
MATERIAL
  2
AcDbMaterial
  3
ObjectDBX Classes
 90
     1153
280
     0
281
     0
  0
CLASS
  1
SCALE
  2
AcDbScale
  3
ObjectDBX Classes
 90
     1153
280
     0
281
     0
  0
CLASS
  1
SUN
  2
AcDbSun
  3
SCENEOE
 90
     1153
280
     0
281
     0
  0
CLASS
  1
ACDBPLACEHOLDER
  2
AcDbPlaceHolder
  3
ObjectDBX Classes
 90
        0
280
     0
281
     0
  0
CLASS
  1
LAYOUT
  2
AcDbLayout
  3
ObjectDBX Classes
 90
        0
280
     0
281
     0
  0
CLASS
  1
TABLESTYLE
  2
AcDbTableStyle
  3
ObjectDBX Classes
 90
     4095
280
     0
281
     0
  0
CLASS
  1
MLEADERSTYLE
  2
AcDbMLeaderStyle
  3
ACDB_MLEADERSTYLE_CLASS
 90
     4095
280
     0
281
     0
  0
CLASS
  1
DICTIONARYVAR
  2
AcDbDictionaryVar
  3
ObjectDBX Classes
 90
        0
280
     0
281
     0
  0
ENDSEC
  0
SECTION
  2
TABLES
  0
TABLE
  2
VPORT
  5
8
330
0
100
AcDbSymbolTable
 70
     1
  0
VPORT
  5
29
330
8
100
AcDbSymbolTableRecord
100
AcDbViewportTableRecord
  2
*Active
 70
     0
 10
0.0
 20
0.0
 11
1.0
 21
1.0
 12
4.828312516477524
 22
-1.198403694405883
 13
0.0
 23
0.0
 14
10.0
 24
10.0
 15
10.0
 25
10.0
 16
0.0
 26
0.0
 36
1.0
 17
0.0
 27
0.0
 37
0.0
 40
113.6462292258088
 41
1.782762691853601
 42
50.0
 43
0.0
 44
0.0
 50
0.0
 51
0.0
 71
    16
 72
  2000
 73
     1
 74
     3
 75
     0
 76
     0
 77
     0
 78
     0
281
     0
 65
     1
110
0.0
120
0.0
130
0.0
111
1.0
121
0.0
131
0.0
112
0.0
122
1.0
132
0.0
 79
     0
146
0.0
  0
ENDTAB
  0
TABLE
  2
LTYPE
  5
5
330
0
100
AcDbSymbolTable
 70
     6
  0
LTYPE
  5
14
330
5
100
AcDbSymbolTableRecord
100
AcDbLinetypeTableRecord
  2
ByBlock
 70
     0
  3

 72
    65
 73
     0
 40
0.0
  0
LTYPE
  5
15
330
5
100
AcDbSymbolTableRecord
100
AcDbLinetypeTableRecord
  2
ByLayer
 70
     0
  3

 72
    65
 73
     0
 40
0.0
  0
LTYPE
  5
16
330
5
100
AcDbSymbolTableRecord
100
AcDbLinetypeTableRecord
  2
Continuous
 70
     0
  3
Solid line
 72
    65
 73
     0
 40
0.0
  0
LTYPE
  5
6A
330
5
100
AcDbSymbolTableRecord
100
AcDbLinetypeTableRecord
  2
HIDDEN
 70
     0
  3
Hidden __ __ __ __ __ __ __ __ __ __ __ __ __ __
 72
    65
 73
     2
 40
1.905
 49
1.27
 74
     0
 49
-0.635
 74
     0
  0
LTYPE
  5
6B
330
5
100
AcDbSymbolTableRecord
100
AcDbLinetypeTableRecord
  2
PHANTOM
 70
     0
  3
Phantom ______  __  __  ______  __  __  ______
 72
    65
 73
     6
 40
12.7
 49
6.35
 74
     0
 49
-1.27
 74
     0
 49
1.27
 74
     0
 49
-1.27
 74
     0
 49
1.27
 74
     0
 49
-1.27
 74
     0
  0
LTYPE
  5
6C
330
5
100
AcDbSymbolTableRecord
100
AcDbLinetypeTableRecord
  2
CENTER
 70
     0
  3
Center ____ _ ____ _ ____ _ ____ _ ____ _ ____
 72
    65
 73
     4
 40
10.16
 49
6.35
 74
     0
 49
-1.27
 74
     0
 49
1.27
 74
     0
 49
-1.27
 74
     0
  0
LTYPE
  5
6D
330
5
100
AcDbSymbolTableRecord
100
AcDbLinetypeTableRecord
  2
CENTERX2
 70
     0
  3
Center (2x) ________  __  ________  __  _____
 72
    65
 73
     4
 40
20.32
 49
12.7
 74
     0
 49
-2.54
 74
     0
 49
2.54
 74
     0
 49
-2.54
 74
     0
  0
LTYPE
  5
6E
330
5
100
AcDbSymbolTableRecord
100
AcDbLinetypeTableRecord
  2
DOT2
 70
     0
  3
Dot (.5x) ........................................
 72
    65
 73
     2
 40
0.635
 49
0.0
 74
     0
 49
-0.635
 74
     0
  0
ENDTAB
  0
TABLE
  2
LAYER
  5
2
102
{ACAD_XDICTIONARY
360
18E
102
}
330
0
100
AcDbSymbolTable
 70
    18
  0
LAYER
  5
10
330
2
100
AcDbSymbolTableRecord
100
AcDbLayerTableRecord
  2
0
 70
     0
 62
     7
  6
Continuous
370
    -3
390
F
  0
LAYER
  5
6F
330
2
100
AcDbSymbolTableRecord
100
AcDbLayerTableRecord
  2
FORMAT
 70
     0
 62
     2
  6
Continuous
370
    -3
390
F
  0
LAYER
  5
70
330
2
100
AcDbSymbolTableRecord
100
AcDbLayerTableRecord
  2
외형선
 70
     0
 62
     4
  6
Continuous
370
    30
390
F
  0
LAYER
  5
71
330
2
100
AcDbSymbolTableRecord
100
AcDbLayerTableRecord
  2
숨은선
 70
     0
 62
     2
  6
HIDDEN
370
    15
390
F
  0
LAYER
  5
72
330
2
100
AcDbSymbolTableRecord
100
AcDbLayerTableRecord
  2
중심선
 70
     0
 62
     1
  6
CENTERX2
370
    -3
390
F
  0
LAYER
  5
73
330
2
100
AcDbSymbolTableRecord
100
AcDbLayerTableRecord
  2
파단선
 70
     0
 62
     4
  6
Continuous
370
    -3
390
F
  0
LAYER
  5
74
330
2
100
AcDbSymbolTableRecord
100
AcDbLayerTableRecord
  2
해칭선
 70
     0
 62
   100
  6
Continuous
370
    -3
390
F
  0
LAYER
  5
75
330
2
100
AcDbSymbolTableRecord
100
AcDbLayerTableRecord
  2
가는실선
 70
     0
 62
     4
  6
Continuous
370
    -3
390
F
  0
LAYER
  5
76
330
2
100
AcDbSymbolTableRecord
100
AcDbLayerTableRecord
  2
치수_보조선
 70
     0
 62
     4
  6
Continuous
370
    -3
390
F
  0
LAYER
  5
77
330
2
100
AcDbSymbolTableRecord
100
AcDbLayerTableRecord
  2
치수문자_일반주서
 70
     0
 62
     7
  6
Continuous
370
    15
390
F
  0
LAYER
  5
78
330
2
100
AcDbSymbolTableRecord
100
AcDbLayerTableRecord
  2
개별주서
 70
     0
 62
   100
  6
Continuous
370
    30
390
F
  0
LAYER
  5
79
330
2
100
AcDbSymbolTableRecord
100
AcDbLayerTableRecord
  2
중간선
 70
     0
 62
     2
  6
Continuous
370
    15
390
F
  0
LAYER
  5
7A
330
2
100
AcDbSymbolTableRecord
100
AcDbLayerTableRecord
  2
윤곽선
 70
     0
 62
     3
  6
Continuous
370
    40
390
F
  0
LAYER
  5
7B
330
2
100
AcDbSymbolTableRecord
100
AcDbLayerTableRecord
  2
중심마크
 70
     0
 62
   100
  6
Continuous
370
    30
390
F
  0
LAYER
  5
7C
330
2
100
AcDbSymbolTableRecord
100
AcDbLayerTableRecord
  2
가상선
 70
     0
 62
     4
  6
PHANTOM
370
    -3
390
F
  0
LAYER
  5
7D
330
2
100
AcDbSymbolTableRecord
100
AcDbLayerTableRecord
  2
특수지정선
 70
     0
 62
     5
  6
CENTERX2
370
    60
390
F
  0
LAYER
  5
7E
330
2
100
AcDbSymbolTableRecord
100
AcDbLayerTableRecord
  2
참조1
 70
     0
 62
    -4
  6
Continuous
370
    -3
390
F
  0
LAYER
  5
15A
330
2
100
AcDbSymbolTableRecord
100
AcDbLayerTableRecord
  2
Defpoints
 70
     0
 62
     7
  6
Continuous
290
     0
370
    -3
390
F
  0
ENDTAB
  0
TABLE
  2
STYLE
  5
3
330
0
100
AcDbSymbolTable
 70
     2
  0
STYLE
  5
11
330
3
100
AcDbSymbolTableRecord
100
AcDbTextStyleTableRecord
  2
Standard
 70
     0
 40
0.0
 41
1.0
 50
0.0
 71
     0
 42
3.5
  3
txt
  4

  0
STYLE
  5
94
330
3
100
AcDbSymbolTableRecord
100
AcDbTextStyleTableRecord
  2
SLDTEXTSTYLE0
 70
     0
 40
0.0
 41
0.75
 50
0.0
 71
     0
 42
3.5
  3
TXT
  4

  0
ENDTAB
  0
TABLE
  2
VIEW
  5
6
330
0
100
AcDbSymbolTable
 70
     0
  0
ENDTAB
  0
TABLE
  2
UCS
  5
7
330
0
100
AcDbSymbolTable
 70
     0
  0
ENDTAB
  0
TABLE
  2
APPID
  5
9
330
0
100
AcDbSymbolTable
 70
     4
  0
APPID
  5
12
330
9
100
AcDbSymbolTableRecord
100
AcDbRegAppTableRecord
  2
ACAD
 70
     0
  0
APPID
  5
161
330
9
100
AcDbSymbolTableRecord
100
AcDbRegAppTableRecord
  2
PE_URL
 70
     0
  0
APPID
  5
24F
330
9
100
AcDbSymbolTableRecord
100
AcDbRegAppTableRecord
  2
ACAD_DSTYLE_DIMFLIPARROW_SYMBOL
 70
     0
  0
APPID
  5
250
330
9
100
AcDbSymbolTableRecord
100
AcDbRegAppTableRecord
  2
ACAD_DSTYLE_DIMFLIPARROW_WHICH_SYMBOL
 70
     0
  0
ENDTAB
  0
TABLE
  2
DIMSTYLE
  5
A
330
0
100
AcDbSymbolTable
 70
     3
100
AcDbDimStyleTable
  0
DIMSTYLE
105
27
330
A
100
AcDbSymbolTableRecord
100
AcDbDimStyleTableRecord
  2
ISO-25
 70
     0
 41
2.5
 42
0.625
 43
3.75
 44
1.25
 73
     0
 74
     0
 77
     1
 78
     8
140
2.5
141
2.5
143
0.03937007874016
147
0.625
171
     3
172
     1
178
     0
271
     2
272
     2
274
     3
278
    44
283
     0
284
     8
340
11
  0
DIMSTYLE
105
DA
330
A
100
AcDbSymbolTableRecord
100
AcDbDimStyleTableRecord
  2
SLDDIMSTYLE0
 70
     0
 41
3.302
 44
0.0
 45
0.000000001
 73
     0
 74
     0
 77
     1
 78
     4
 79
     1
140
3.5
143
0.0393700787401575
147
0.875
148
0.000000001
170
     1
172
     1
173
     1
178
     0
271
     2
272
     2
276
     2
284
    12
289
     0
340
94
  0
DIMSTYLE
105
EF
102
{ACAD_REACTORS
330
EE
330
102
330
116
330
D9
102
}
330
A
100
AcDbSymbolTableRecord
100
AcDbDimStyleTableRecord
  2
SLDDIMSTYLE1
 70
     0
 41
3.302
 44
0.0
 45
0.000000001
 73
     0
 74
     0
 77
     1
 78
    12
 79
     3
140
3.5
143
0.0393700787401575
147
0.875
148
0.000000001
170
     1
173
     1
178
     0
271
     2
272
     2
276
     2
284
    12
340
94
  0
ENDTAB
  0
TABLE
  2
BLOCK_RECORD
  5
1
330
0
100
AcDbSymbolTable
 70
     9
  0
BLOCK_RECORD
  5
1F
330
1
100
AcDbSymbolTableRecord
100
AcDbBlockTableRecord
  2
*Model_Space
340
22
  0
BLOCK_RECORD
  5
1B
330
1
100
AcDbSymbolTableRecord
100
AcDbBlockTableRecord
  2
*Paper_Space
340
1E
  0
BLOCK_RECORD
  5
23
330
1
100
AcDbSymbolTableRecord
100
AcDbBlockTableRecord
  2
*Paper_Space0
340
26
  0
BLOCK_RECORD
  5
7F
330
1
100
AcDbSymbolTableRecord
100
AcDbBlockTableRecord
  2
블럭10
340
0
102
{BLKREFS
331
D2
102
}
  0
BLOCK_RECORD
  5
DB
330
1
100
AcDbSymbolTableRecord
100
AcDbBlockTableRecord
  2
_D
340
0
  0
BLOCK_RECORD
  5
F0
330
1
100
AcDbSymbolTableRecord
100
AcDbBlockTableRecord
  2
_D_1
340
0
  0
BLOCK_RECORD
  5
103
330
1
100
AcDbSymbolTableRecord
100
AcDbBlockTableRecord
  2
_D_2
340
0
  0
BLOCK_RECORD
  5
117
330
1
100
AcDbSymbolTableRecord
100
AcDbBlockTableRecord
  2
_D_3
340
0
  0
BLOCK_RECORD
  5
130
330
1
100
AcDbSymbolTableRecord
100
AcDbBlockTableRecord
  2
SW_DOWELSYMBOL_0
340
0
102
{BLKREFS
331
136
102
}
  0
BLOCK_RECORD
  5
192
330
1
100
AcDbSymbolTableRecord
100
AcDbBlockTableRecord
  2
*D7
340
0
  0
BLOCK_RECORD
  5
1A1
330
1
100
AcDbSymbolTableRecord
100
AcDbBlockTableRecord
  2
*D8
340
0
  0
ENDTAB
  0
ENDSEC
  0
SECTION
  2
BLOCKS
  0
BLOCK
  5
20
330
1F
100
AcDbEntity
  8
0
100
AcDbBlockBegin
  2
*Model_Space
 70
     0
 10
0.0
 20
0.0
 30
0.0
  3
*Model_Space
  1

  0
ENDBLK
  5
21
330
1F
100
AcDbEntity
  8
0
100
AcDbBlockEnd
  0
BLOCK
  5
1C
330
1B
100
AcDbEntity
 67
     1
  8
0
100
AcDbBlockBegin
  2
*Paper_Space
 70
     0
 10
0.0
 20
0.0
 30
0.0
  3
*Paper_Space
  1

  0
ENDBLK
  5
1D
330
1B
100
AcDbEntity
 67
     1
  8
0
100
AcDbBlockEnd
  0
BLOCK
  5
24
330
23
100
AcDbEntity
  8
0
100
AcDbBlockBegin
  2
*Paper_Space0
 70
     0
 10
0.0
 20
0.0
 30
0.0
  3
*Paper_Space0
  1

  0
ENDBLK
  5
25
330
23
100
AcDbEntity
  8
0
100
AcDbBlockEnd
  0
BLOCK
  5
80
330
7F
100
AcDbEntity
  8
0
100
AcDbBlockBegin
  2
블럭10
 70
     2
 10
0.0
 20
0.0
 30
0.0
  3
블럭10
  1

  0
ELLIPSE
  5
82
330
7F
100
AcDbEntity
  8
중심선
100
AcDbEllipse
 10
20.54032771741204
 20
12.0471743016438
 30
0.0
 11
6.600054785286829
 21
-1.261213355974178E-13
 31
0.0
210
0.0
220
0.0
230
1.0
 40
0.636358354079598
 41
0.9219305317359503
 42
6.513795318482858
  0
ELLIPSE
  5
83
330
7F
100
AcDbEntity
  8
중심선
100
AcDbEllipse
 10
20.54032771746488
 20
12.04717430159265
 30
0.0
 11
3.960054785062283
 21
1.540847449632565E-10
 31
0.0
210
0.0
220
0.0
230
1.0
 40
0.3939339440162632
 41
1.131841032648279
 42
5.62031148352944
  0
LINE
  5
84
330
7F
100
AcDbEntity
  8
중심선
100
AcDbLine
 10
2.268634060543552
 20
16.24717430164393
 30
0.0
 11
5.714909304380834
 21
16.24717430164393
 31
0.0
  0
LINE
  5
85
330
7F
100
AcDbEntity
  8
중심선
100
AcDbLine
 10
5.245725140726316
 20
7.84717430164391
 30
0.0
 11
8.692000384563599
 21
7.84717430164391
 31
0.0
  0
LINE
  5
86
330
7F
100
AcDbEntity
  8
중심선
100
AcDbLine
 10
15.74043728645272
 20
16.24717430164393
 30
0.0
 11
8.692000384563599
 21
7.84717430164391
 31
0.0
  0
LINE
  5
87
330
7F
100
AcDbEntity
  8
중심선
100
AcDbLine
 10
0.1404042013395286
 20
13.71084872107135
 30
0.0
 11
3.58671253028996
 21
13.71088815037384
 31
0.0
  0
LINE
  5
88
330
7F
100
AcDbEntity
  8
중심선
100
AcDbLine
 10
2.750260043222114
 20
10.84717430164391
 30
0.0
 11
6.196535287059397
 21
10.84717430164391
 31
0.0
  0
LINE
  5
89
330
7F
100
AcDbEntity
  8
중심선
100
AcDbLine
 10
12.29416204261559
 20
16.24717430164393
 30
0.0
 11
5.245725140726316
 21
7.84717430164391
 31
0.0
  0
LINE
  5
8A
330
7F
100
AcDbEntity
  8
중심선
100
AcDbLine
 10
10.72767329541681
 20
16.24717430164393
 30
0.0
 11
6.196535287059397
 21
10.84717430164391
 31
0.0
  0
LINE
  5
8B
330
7F
100
AcDbEntity
  8
중심선
100
AcDbLine
 10
7.28139805157953
 20
16.24717430164393
 30
0.0
 11
2.750260043222114
 21
10.84717430164391
 31
0.0
  0
LINE
  5
8C
330
7F
100
AcDbEntity
  8
중심선
100
AcDbLine
 10
5.714909304380834
 20
16.24717430164393
 30
0.0
 11
3.58671253028996
 21
13.71088815037384
 31
0.0
  0
LINE
  5
8D
330
7F
100
AcDbEntity
  8
중심선
100
AcDbLine
 10
2.268634060543552
 20
16.24717430164393
 30
0.0
 11
0.1404042013395286
 21
13.71084872107135
 31
0.0
  0
LINE
  5
8E
330
7F
100
AcDbEntity
  8
중심선
100
AcDbLine
 10
7.28139805157953
 20
16.24717430164393
 30
0.0
 11
10.72767329541681
 21
16.24717430164393
 31
0.0
  0
LINE
  5
8F
330
7F
100
AcDbEntity
  8
중심선
100
AcDbLine
 10
12.29416204261559
 20
16.24717430164393
 30
0.0
 11
15.74043728645272
 21
16.24717430164393
 31
0.0
  0
LINE
  5
90
330
7F
100
AcDbEntity
  8
중심선
100
AcDbLine
 10
19.22036997980202
 20
11.08717430171403
 30
0.0
 11
23.66174974927406
 21
11.08717430171406
 31
0.0
  0
LINE
  5
91
330
7F
100
AcDbEntity
  8
중심선
100
AcDbLine
 10
19.22039502424796
 20
13.00717430171391
 30
0.0
 11
19.22036997980202
 21
11.08717430171403
 31
0.0
  0
LINE
  5
92
330
7F
100
AcDbEntity
  8
중심선
100
AcDbLine
 10
19.22039502424796
 20
13.00717430171391
 30
0.0
 11
26.96566020931264
 21
13.00717430171391
 31
0.0
  0
LINE
  5
93
330
7F
100
AcDbEntity
  8
중심선
100
AcDbLine
 10
22.22332737316547
 20
13.45928029700563
 30
0.0
 11
24.52862924686651
 21
15.39360700705356
 31
0.0
  0
ATTDEF
  5
95
330
7F
100
AcDbEntity
  8
FORMAT
 62
     2
100
AcDbText
 10
4.408487351596664
 20
2.075366912832191
 30
0.0
 40
4.233333333333333
  1
E1050058
 41
0.75
  7
SLDTEXTSTYLE0
 11
4.408487351596664
 21
-0.0412997538344756
 31
0.0
100
AcDbAttributeDefinition
  3

  2
AUTOATTR0
 70
     0
 74
     1
  0
ENDBLK
  5
81
330
7F
100
AcDbEntity
  8
0
100
AcDbBlockEnd
  0
BLOCK
  5
DC
330
DB
100
AcDbEntity
  8
0
100
AcDbBlockBegin
  2
_D
 70
     0
 10
0.0
 20
0.0
 30
0.0
  3
_D
  1

  0
LINE
  5
DE
330
DB
100
AcDbEntity
  8
치수문자_일반주서
 62
     0
370
    -2
100
AcDbLine
 10
-27.95652700723836
 20
12.69999999999999
 30
0.0
 11
-89.6125
 21
12.69999999999976
 31
0.0
  0
LINE
  5
DF
330
DB
100
AcDbEntity
  8
치수문자_일반주서
 62
     0
370
    -2
100
AcDbLine
 10
-27.95652700723834
 20
-12.70000000000001
 30
0.0
 11
-89.61249999999991
 21
-12.70000000000024
 31
0.0
  0
LINE
  5
E0
330
DB
100
AcDbEntity
  8
치수문자_일반주서
 62
     0
370
    -2
100
AcDbLine
 10
-89.6125
 20
12.69999999999976
 30
0.0
 11
-89.61250000000008
 21
38.75199999999992
 31
0.0
  0
LINE
  5
E1
330
DB
100
AcDbEntity
  8
치수문자_일반주서
 62
     0
370
    -2
100
AcDbLine
 10
-89.6125
 20
12.69999999999976
 30
0.0
 11
-89.61249999999991
 21
-12.70000000000024
 31
0.0
  0
LINE
  5
E2
330
DB
100
AcDbEntity
  8
치수문자_일반주서
 62
     0
370
    -2
100
AcDbLine
 10
-89.61250000000001
 20
16.00199999999976
 30
0.0
 11
-89.61250000000003
 21
19.30399999999976
 31
0.0
  0
LINE
  5
E3
330
DB
100
AcDbEntity
  8
치수문자_일반주서
 62
     0
370
    -2
100
AcDbLine
 10
-89.6124999999999
 20
-16.00200000000024
 30
0.0
 11
-89.61249999999988
 21
-19.30400000000024
 31
0.0
  0
SOLID
  5
E4
330
DB
100
AcDbEntity
  8
치수문자_일반주서
 62
     0
100
AcDbTrace
 10
-90.16283333333334
 20
16.00199999999975
 30
0.0
 11
-89.06216666666668
 21
16.00199999999976
 31
0.0
 12
-89.6125
 22
12.69999999999976
 32
0.0
 13
-89.6125
 23
12.69999999999976
 33
0.0
  0
SOLID
  5
E5
330
DB
100
AcDbEntity
  8
치수문자_일반주서
 62
     0
100
AcDbTrace
 10
-89.06216666666657
 20
-16.00200000000023
 30
0.0
 11
-90.16283333333323
 21
-16.00200000000024
 31
0.0
 12
-89.61249999999991
 22
-12.70000000000024
 32
0.0
 13
-89.61249999999991
 23
-12.70000000000024
 33
0.0
  0
MTEXT
  5
E6
330
DB
100
AcDbEntity
  8
치수문자_일반주서
 62
     0
100
AcDbMText
 10
-94.48750000000004
 20
27.37699999999991
 30
0.0
 40
4.0
 41
0.0
 71
     2
 72
     1
  1
\A1;%%c25.4 [1]
  7
SLDTEXTSTYLE0
 11
-3.356894814614647E-15
 21
1.0
 31
0.0
 73
     1
 44
1.0
  0
POINT
  5
1B1
330
DB
100
AcDbEntity
  8
Defpoints
 62
     0
100
AcDbPoint
 10
-27.89402700723836
 20
12.69999999999999
 30
0.0
  0
POINT
  5
1B2
330
DB
100
AcDbEntity
  8
Defpoints
 62
     0
100
AcDbPoint
 10
-27.89402700723834
 20
-12.70000000000001
 30
0.0
  0
POINT
  5
1B3
330
DB
100
AcDbEntity
  8
Defpoints
 62
     0
100
AcDbPoint
 10
-89.61249999999991
 20
-12.70000000000024
 30
0.0
  0
ENDBLK
  5
DD
330
DB
100
AcDbEntity
  8
0
100
AcDbBlockEnd
  0
BLOCK
  5
F1
330
F0
100
AcDbEntity
  8
0
100
AcDbBlockBegin
  2
_D_1
 70
     0
 10
0.0
 20
0.0
 30
0.0
  3
_D_1
  1

  0
LINE
  5
F3
330
F0
100
AcDbEntity
  8
치수문자_일반주서
 62
     0
370
    -2
100
AcDbLine
 10
74.67500000000003
 20
-11.49964745153369
 30
0.0
 11
89.6125000000001
 21
-11.49964745153363
 31
0.0
  0
LINE
  5
F4
330
F0
100
AcDbEntity
  8
치수문자_일반주서
 62
     0
370
    -2
100
AcDbLine
 10
74.67500000000003
 20
11.49964745153367
 30
0.0
 11
89.61250000000001
 21
11.49964745153373
 31
0.0
  0
LINE
  5
F5
330
F0
100
AcDbEntity
  8
치수문자_일반주서
 62
     0
370
    -2
100
AcDbLine
 10
89.61250000000001
 20
11.49964745153373
 30
0.0
 11
89.61249999999988
 21
46.55164745153373
 31
0.0
  0
LINE
  5
F6
330
F0
100
AcDbEntity
  8
치수문자_일반주서
 62
     0
370
    -2
100
AcDbLine
 10
89.6125000000001
 20
-11.49964745153363
 30
0.0
 11
89.61250000000001
 21
11.49964745153373
 31
0.0
  0
LINE
  5
F7
330
F0
100
AcDbEntity
  8
치수문자_일반주서
 62
     0
370
    -2
100
AcDbLine
 10
89.61250000000011
 20
-14.80164745153363
 30
0.0
 11
89.61250000000013
 21
-18.10364745153363
 31
0.0
  0
LINE
  5
F8
330
F0
100
AcDbEntity
  8
치수문자_일반주서
 62
     0
370
    -2
100
AcDbLine
 10
89.6125
 20
14.80164745153373
 30
0.0
 11
89.61249999999998
 21
18.10364745153372
 31
0.0
  0
SOLID
  5
F9
330
F0
100
AcDbEntity
  8
치수문자_일반주서
 62
     0
100
AcDbTrace
 10
90.16283333333344
 20
-14.80164745153363
 30
0.0
 11
89.06216666666678
 21
-14.80164745153363
 31
0.0
 12
89.6125000000001
 22
-11.49964745153363
 32
0.0
 13
89.6125000000001
 23
-11.49964745153363
 33
0.0
  0
SOLID
  5
FA
330
F0
100
AcDbEntity
  8
치수문자_일반주서
 62
     0
100
AcDbTrace
 10
89.06216666666667
 20
14.80164745153372
 30
0.0
 11
90.16283333333332
 21
14.80164745153373
 31
0.0
 12
89.61250000000001
 22
11.49964745153373
 32
0.0
 13
89.61250000000001
 23
11.49964745153373
 33
0.0
  0
MTEXT
  5
FB
330
F0
100
AcDbEntity
  8
치수문자_일반주서
 62
     0
100
AcDbMText
 10
84.73749999999994
 20
30.67664745153371
 30
0.0
 40
4.0
 41
0.0
 71
     2
 72
     1
  1
\A1;%%c23 [29/32]
  7
SLDTEXTSTYLE0
 11
-3.707293143140679E-15
 21
1.0
 31
0.0
 73
     1
 44
1.0
  0
POINT
  5
FC
330
F0
100
AcDbEntity
  8
Defpoints
 62
     0
100
AcDbPoint
 10
74.61250000000003
 20
-11.49964745153369
 30
0.0
  0
POINT
  5
1BB
330
F0
100
AcDbEntity
  8
Defpoints
 62
     0
100
AcDbPoint
 10
74.61250000000003
 20
11.49964745153367
 30
0.0
  0
POINT
  5
1BC
330
F0
100
AcDbEntity
  8
Defpoints
 62
     0
100
AcDbPoint
 10
89.61250000000001
 20
11.49964745153373
 30
0.0
  0
ENDBLK
  5
F2
330
F0
100
AcDbEntity
  8
0
100
AcDbBlockEnd
  0
BLOCK
  5
104
330
103
100
AcDbEntity
  8
0
100
AcDbBlockBegin
  2
_D_2
 70
     0
 10
0.0
 20
0.0
 30
0.0
  3
_D_2
  1

  0
LINE
  5
106
330
103
100
AcDbEntity
  8
치수문자_일반주서
 62
     0
370
    -2
100
AcDbLine
 10
74.61250000000003
 20
11.56214745153367
 30
0.0
 11
74.61250000000003
 21
27.69999999999999
 31
0.0
  0
LINE
  5
107
330
103
100
AcDbEntity
  8
치수문자_일반주서
 62
     0
370
    -2
100
AcDbLine
 10
33.33750000000003
 20
9.065518892698039
 30
0.0
 11
33.33750000000003
 21
27.69999999999999
 31
0.0
  0
LINE
  5
108
330
103
100
AcDbEntity
  8
치수문자_일반주서
 62
     0
370
    -2
100
AcDbLine
 10
71.31050000000002
 20
27.69999999999999
 30
0.0
 11
36.63950000000003
 21
27.69999999999999
 31
0.0
  0
SOLID
  5
109
330
103
100
AcDbEntity
  8
치수문자_일반주서
 62
     0
100
AcDbTrace
 10
71.31050000000002
 20
27.14966666666665
 30
0.0
 11
71.31050000000002
 21
28.25033333333332
 31
0.0
 12
74.61250000000003
 22
27.69999999999999
 32
0.0
 13
74.61250000000003
 23
27.69999999999999
 33
0.0
  0
SOLID
  5
10A
330
103
100
AcDbEntity
  8
치수문자_일반주서
 62
     0
100
AcDbTrace
 10
36.63950000000003
 20
28.25033333333332
 30
0.0
 11
36.63950000000003
 21
27.14966666666665
 31
0.0
 12
33.33750000000003
 22
27.69999999999999
 32
0.0
 13
33.33750000000003
 23
27.69999999999999
 33
0.0
  0
MTEXT
  5
10B
330
103
100
AcDbEntity
  8
치수문자_일반주서
 62
     0
100
AcDbMText
 10
53.97500000000001
 20
32.57499999999999
 30
0.0
 40
4.0
 41
0.0
 71
     2
 72
     1
  1
\A1;41.28 [1 5/8]
  7
SLDTEXTSTYLE0
 73
     1
 44
1.0
  0
POINT
  5
10C
330
103
100
AcDbEntity
  8
Defpoints
 62
     0
100
AcDbPoint
 10
74.61250000000003
 20
11.49964745153367
 30
0.0
  0
POINT
  5
10D
330
103
100
AcDbEntity
  8
Defpoints
 62
     0
100
AcDbPoint
 10
33.33750000000003
 20
9.003018892698039
 30
0.0
  0
POINT
  5
10E
330
103
100
AcDbEntity
  8
Defpoints
 62
     0
100
AcDbPoint
 10
33.33750000000003
 20
27.69999999999999
 30
0.0
  0
ENDBLK
  5
105
330
103
100
AcDbEntity
  8
0
100
AcDbBlockEnd
  0
BLOCK
  5
118
330
117
100
AcDbEntity
  8
0
100
AcDbBlockBegin
  2
_D_3
 70
     0
 10
0.0
 20
0.0
 30
0.0
  3
_D_3
  1

  0
LINE
  5
11A
330
117
100
AcDbEntity
  8
치수문자_일반주서
 62
     0
370
    -2
100
AcDbLine
 10
-74.61250000000003
 20
11.56214745153367
 30
0.0
 11
-74.61250000000003
 21
42.69999999999999
 31
0.0
  0
LINE
  5
11B
330
117
100
AcDbEntity
  8
치수문자_일반주서
 62
     0
370
    -2
100
AcDbLine
 10
74.61250000000003
 20
11.56214745153367
 30
0.0
 11
74.61250000000003
 21
42.69999999999999
 31
0.0
  0
LINE
  5
11C
330
117
100
AcDbEntity
  8
치수문자_일반주서
 62
     0
370
    -2
100
AcDbLine
 10
-71.31050000000002
 20
42.69999999999999
 30
0.0
 11
71.31050000000002
 21
42.69999999999999
 31
0.0
  0
SOLID
  5
11D
330
117
100
AcDbEntity
  8
치수문자_일반주서
 62
     0
100
AcDbTrace
 10
-71.31050000000002
 20
43.25033333333332
 30
0.0
 11
-71.31050000000002
 21
42.14966666666665
 31
0.0
 12
-74.61250000000003
 22
42.69999999999999
 32
0.0
 13
-74.61250000000003
 23
42.69999999999999
 33
0.0
  0
SOLID
  5
11E
330
117
100
AcDbEntity
  8
치수문자_일반주서
 62
     0
100
AcDbTrace
 10
71.31050000000002
 20
42.14966666666665
 30
0.0
 11
71.31050000000002
 21
43.25033333333332
 31
0.0
 12
74.61250000000003
 22
42.69999999999999
 32
0.0
 13
74.61250000000003
 23
42.69999999999999
 33
0.0
  0
MTEXT
  5
11F
330
117
100
AcDbEntity
  8
치수문자_일반주서
 62
     0
100
AcDbMText
 10
0.0
 20
47.57499999999999
 30
0.0
 40
4.0
 41
0.0
 71
     2
 72
     1
  1
\A1;149.23 [5 7/8]
  7
SLDTEXTSTYLE0
 73
     1
 44
1.0
  0
POINT
  5
120
330
117
100
AcDbEntity
  8
Defpoints
 62
     0
100
AcDbPoint
 10
-74.61250000000003
 20
11.49964745153367
 30
0.0
  0
POINT
  5
121
330
117
100
AcDbEntity
  8
Defpoints
 62
     0
100
AcDbPoint
 10
74.61250000000003
 20
11.49964745153367
 30
0.0
  0
POINT
  5
122
330
117
100
AcDbEntity
  8
Defpoints
 62
     0
100
AcDbPoint
 10
74.61250000000003
 20
42.69999999999999
 30
0.0
  0
ENDBLK
  5
119
330
117
100
AcDbEntity
  8
0
100
AcDbBlockEnd
  0
BLOCK
  5
131
330
130
100
AcDbEntity
  8
0
100
AcDbBlockBegin
  2
SW_DOWELSYMBOL_0
 70
     0
 10
0.0
 20
0.0
 30
0.0
  3
SW_DOWELSYMBOL_0
  1

  0
CIRCLE
  5
133
330
130
100
AcDbEntity
  8
해칭선
 62
     0
100
AcDbCircle
 10
0.0
 20
0.0
 30
0.0
 40
3.000000000000001
  0
HATCH
  5
134
330
130
100
AcDbEntity
  8
0
  6
Continuous
 62
     0
370
     0
100
AcDbHatch
 10
0.0
 20
0.0
 30
0.0
210
0.0
220
0.0
230
1.0
  2
SOLID
 70
     1
 71
     0
 91
        1
 92
        0
 93
        3
 72
     2
 10
0.0
 20
0.0
 40
3.000000000000001
 50
0.0
 51
90.0
 73
     1
 72
     1
 10
0.0
 20
3.000000000000001
 11
0.0
 21
0.0
 72
     1
 10
0.0
 20
0.0
 11
3.000000000000001
 21
0.0
 97
        0
 75
     0
 76
     1
 98
        1
 10
0.0
 20
0.0
  0
HATCH
  5
135
330
130
100
AcDbEntity
  8
0
  6
Continuous
 62
     0
370
     0
100
AcDbHatch
 10
0.0
 20
0.0
 30
0.0
210
0.0
220
0.0
230
1.0
  2
SOLID
 70
     1
 71
     0
 91
        1
 92
        0
 93
        3
 72
     2
 10
0.0
 20
0.0
 40
3.000000000000001
 50
180.0
 51
270.0000000000007
 73
     1
 72
     1
 10
0.0
 20
-3.000000000000001
 11
0.0
 21
0.0
 72
     1
 10
0.0
 20
0.0
 11
-3.000000000000001
 21
0.0
 97
        0
 75
     0
 76
     1
 98
        1
 10
0.0
 20
0.0
  0
ENDBLK
  5
132
330
130
100
AcDbEntity
  8
0
100
AcDbBlockEnd
  0
BLOCK
  5
193
330
192
100
AcDbEntity
  8
0
100
AcDbBlockBegin
  2
*D7
 70
     1
 10
0.0
 20
0.0
 30
0.0
  3
*D7
  1

  0
LINE
  5
195
330
192
100
AcDbEntity
  8
치수문자_일반주서
 62
     0
370
    -2
100
AcDbLine
 10
39.6875
 20
7.699178019198558
 30
0.0
 11
39.6875
 21
23.83568883684194
 31
0.0
  0
LINE
  5
196
330
192
100
AcDbEntity
  8
치수문자_일반주서
 62
     0
370
    -2
100
AcDbLine
 10
0.0
 20
6.438861833078366
 30
0.0
 11
0.0
 21
23.83568883684194
 31
0.0
  0
LINE
  5
197
330
192
100
AcDbEntity
  8
치수문자_일반주서
 62
     0
370
    -2
100
AcDbLine
 10
36.3855
 20
23.83568883684194
 30
0.0
 11
3.302
 21
23.83568883684194
 31
0.0
  0
SOLID
  5
198
330
192
100
AcDbEntity
  8
치수문자_일반주서
 62
     0
100
AcDbTrace
 10
36.3855
 20
23.28535550350861
 30
0.0
 11
36.3855
 21
24.38602217017528
 31
0.0
 12
39.6875
 22
23.83568883684194
 32
0.0
 13
39.6875
 23
23.83568883684194
 33
0.0
  0
SOLID
  5
199
330
192
100
AcDbEntity
  8
치수문자_일반주서
 62
     0
100
AcDbTrace
 10
3.302
 20
24.38602217017528
 30
0.0
 11
3.302
 21
23.28535550350861
 31
0.0
 12
0.0
 22
23.83568883684194
 32
0.0
 13
0.0
 23
23.83568883684194
 33
0.0
  0
MTEXT
  5
19A
330
192
100
AcDbEntity
  8
치수문자_일반주서
 62
     0
100
AcDbMText
 10
19.84375
 20
28.71068883684194
 30
0.0
 40
4.0
 41
0.0
 71
     2
 72
     1
  1
\A1;39.69 [1 9/16]
  7
SLDTEXTSTYLE0
 73
     1
 44
1.0
  0
POINT
  5
19B
330
192
100
AcDbEntity
  8
Defpoints
 62
     0
100
AcDbPoint
 10
39.6875
 20
7.636678019198558
 30
0.0
  0
POINT
  5
19C
330
192
100
AcDbEntity
  8
Defpoints
 62
     0
100
AcDbPoint
 10
0.0
 20
6.376361833078366
 30
0.0
  0
POINT
  5
19D
330
192
100
AcDbEntity
  8
Defpoints
 62
     0
100
AcDbPoint
 10
0.0
 20
23.83568883684194
 30
0.0
  0
ENDBLK
  5
194
330
192
100
AcDbEntity
  8
0
100
AcDbBlockEnd
  0
BLOCK
  5
1A2
330
1A1
100
AcDbEntity
  8
0
100
AcDbBlockBegin
  2
*D8
 70
     1
 10
0.0
 20
0.0
 30
0.0
  3
*D8
  1

  0
LINE
  5
1A4
330
1A1
100
AcDbEntity
  8
치수문자_일반주서
 62
     0
370
    -2
100
AcDbLine
 10
128.5760225766918
 20
-1.344299066640116
 30
0.0
 11
128.5760225766918
 21
14.79221175100327
 31
0.0
  0
LINE
  5
1A5
330
1A1
100
AcDbEntity
  8
치수문자_일반주서
 62
     0
370
    -2
100
AcDbLine
 10
88.8885225766918
 20
-2.604615252760309
 30
0.0
 11
88.8885225766918
 21
14.79221175100327
 31
0.0
  0
LINE
  5
1A6
330
1A1
100
AcDbEntity
  8
치수문자_일반주서
 62
     0
370
    -2
100
AcDbLine
 10
125.2740225766918
 20
14.79221175100327
 30
0.0
 11
92.19052257669179
 21
14.79221175100327
 31
0.0
  0
SOLID
  5
1A7
330
1A1
100
AcDbEntity
  8
치수문자_일반주서
 62
     0
100
AcDbTrace
 10
125.2740225766918
 20
14.24187841766994
 30
0.0
 11
125.2740225766918
 21
15.3425450843366
 31
0.0
 12
128.5760225766918
 22
14.79221175100327
 32
0.0
 13
128.5760225766918
 23
14.79221175100327
 33
0.0
  0
SOLID
  5
1A8
330
1A1
100
AcDbEntity
  8
치수문자_일반주서
 62
     0
100
AcDbTrace
 10
92.19052257669179
 20
15.3425450843366
 30
0.0
 11
92.19052257669179
 21
14.24187841766994
 31
0.0
 12
88.8885225766918
 22
14.79221175100327
 32
0.0
 13
88.8885225766918
 23
14.79221175100327
 33
0.0
  0
MTEXT
  5
1A9
330
1A1
100
AcDbEntity
  8
치수문자_일반주서
 62
     0
100
AcDbMText
 10
108.7322725766918
 20
19.66721175100327
 30
0.0
 40
4.0
 41
0.0
 71
     2
 72
     1
  1
\A1;39.69 [1 9/16]
  7
SLDTEXTSTYLE0
 73
     1
 44
1.0
  0
POINT
  5
1AA
330
1A1
100
AcDbEntity
  8
Defpoints
 62
     0
100
AcDbPoint
 10
128.5760225766918
 20
-1.406799066640116
 30
0.0
  0
POINT
  5
1AB
330
1A1
100
AcDbEntity
  8
Defpoints
 62
     0
100
AcDbPoint
 10
88.8885225766918
 20
-2.667115252760309
 30
0.0
  0
POINT
  5
1AC
330
1A1
100
AcDbEntity
  8
Defpoints
 62
     0
100
AcDbPoint
 10
88.8885225766918
 20
14.79221175100327
 30
0.0
  0
ENDBLK
  5
1A3
330
1A1
100
AcDbEntity
  8
0
100
AcDbBlockEnd
  0
ENDSEC
  0
SECTION
  2
ENTITIES
  0
LINE
  5
96
330
1F
100
AcDbEntity
  8
외형선
  6
Continuous
370
    15
100
AcDbLine
 10
27.89402700723835
 20
12.69999999999999
 30
0.0
 11
8.45819999999998
 21
12.69999999999999
 31
0.0
  0
LINE
  5
97
330
1F
100
AcDbEntity
  8
외형선
  6
Continuous
370
    15
100
AcDbLine
 10
-27.89402700723834
 20
-12.70000000000001
 30
0.0
 11
27.89402700723835
 21
-12.7
 31
0.0
  0
LINE
  5
98
330
1F
100
AcDbEntity
  8
외형선
  6
Continuous
370
    15
100
AcDbLine
 10
27.89402700723835
 20
-12.70000000000001
 30
0.0
 11
30.28738552474924
 21
-12.05870151803481
 31
0.0
  0
LINE
  5
99
330
1F
100
AcDbEntity
  8
외형선
  6
Continuous
370
    15
100
AcDbLine
 10
30.28738552474924
 20
12.0587015180348
 30
0.0
 11
27.89402700723835
 21
12.69999999999999
 31
0.0
  0
SPLINE
  5
9C
330
1F
100
AcDbEntity
  8
외형선
  6
Continuous
370
    15
100
AcDbSpline
210
0.0
220
0.0
230
1.0
 70
     8
 71
     3
 72
     9
 73
     5
 74
     0
 42
0.000000001
 43
0.00000001
 40
0.0
 40
0.0
 40
0.0
 40
0.0
 40
0.8890558134047156
 40
1.0
 40
1.0
 40
1.0
 40
1.0
 10
33.33750000000005
 20
9.003018365940264
 30
0.0
 10
32.9023584292906
 20
9.010533681412682
 30
0.0
 10
32.41291607466155
 20
9.018986823902845
 30
0.0
 10
31.92327728068
 20
9.036163888550444
 30
0.0
 10
31.86895470295623
 20
9.038069584015865
 30
0.0
  0
SPLINE
  5
9D
330
1F
100
AcDbEntity
  8
외형선
  6
Continuous
370
    15
100
AcDbSpline
210
0.0
220
0.0
230
1.0
 70
     8
 71
     3
 72
     9
 73
     5
 74
     0
 42
0.000000001
 43
0.00000001
 40
0.0
 40
0.0
 40
0.0
 40
0.0
 40
0.5006752979875018
 40
1.0
 40
1.0
 40
1.0
 40
1.0
 10
30.28734174356702
 20
-9.09593909427231
 30
0.0
 10
30.7965037910341
 20
-9.075150688416379
 30
0.0
 10
31.81345439657365
 20
-9.033629954440697
 30
0.0
 10
32.82994242040245
 20
-9.013213037104961
 30
0.0
 10
33.33750000000003
 20
-9.00301836594028
 30
0.0
  0
LINE
  5
9E
330
1F
100
AcDbEntity
  8
0
  6
Continuous
 62
     1
370
    15
100
AcDbLine
 10
38.48832910866626
 20
3.208418489617063
 30
0.0
 11
38.30556326343561
 21
3.308960371209218
 31
0.0
1001
PE_URL
1000

  0
LINE
  5
9F
330
1F
100
AcDbEntity
  8
0
  6
Continuous
 62
     1
370
    15
100
AcDbLine
 10
41.66692882556207
 20
4.512419915257092
 30
0.0
 11
41.6018732647594
 21
4.546217848974453
 31
0.0
1001
PE_URL
1000

  0
SPLINE
  5
A0
330
1F
100
AcDbEntity
  8
0
  6
Continuous
 62
     1
370
    15
100
AcDbSpline
210
0.0
220
0.0
230
1.0
 70
     8
 71
     3
 72
    10
 73
     6
 74
     0
 42
0.000000001
 43
0.00000001
 40
0.0
 40
0.0
 40
0.0
 40
0.0
 40
0.4671027678559116
 40
0.6475938496965757
 40
1.0
 40
1.0
 40
1.0
 40
1.0
 10
44.79388386949591
 20
2.949303340579756
 30
0.0
 10
44.30544413500263
 20
3.182080585423992
 30
0.0
 10
43.62826859725705
 20
3.504804239583416
 30
0.0
 10
42.59781266600029
 20
4.025014021344825
 30
0.0
 10
42.03747885066372
 20
4.318401866626171
 30
0.0
 10
41.66692882556207
 20
4.512419915257092
 30
0.0
1001
PE_URL
1000

  0
SPLINE
  5
A1
330
1F
100
AcDbEntity
  8
0
  6
Continuous
 62
     1
370
    15
100
AcDbSpline
210
0.0
220
0.0
230
1.0
 70
     8
 71
     3
 72
    14
 73
    10
 74
     0
 42
0.000000001
 43
0.00000001
 40
0.0
 40
0.0
 40
0.0
 40
0.0
 40
0.13431166599018
 40
0.2494553944146378
 40
0.3477200177921825
 40
0.4339811267443195
 40
0.575593548242885
 40
0.763625803906804
 40
1.0
 40
1.0
 40
1.0
 40
1.0
 10
40.9890728639466
 20
9.145792525515505
 30
0.0
 10
40.67721155160082
 20
9.128938959205536
 30
0.0
 10
40.09799539714133
 20
9.09763703915152
 30
0.0
 10
39.24265373684808
 20
9.056214613541382
 30
0.0
 10
38.46636971576022
 20
9.028935701545802
 30
0.0
 10
37.60954943293262
 20
9.01330500853543
 30
0.0
 10
36.51822149665293
 20
8.99457368736248
 30
0.0
 10
35.04205054868557
 20
8.982996743072533
 30
0.0
 10
33.94725115865841
 20
8.99585623880286
 30
0.0
 10
33.33750000000003
 20
9.003018365940266
 30
0.0
1001
PE_URL
1000

  0
SPLINE
  5
A2
330
1F
100
AcDbEntity
  8
0
  6
Continuous
 62
     1
370
    15
100
AcDbSpline
210
0.0
220
0.0
230
1.0
 70
     8
 71
     3
 72
    30
 73
    26
 74
     0
 42
0.000000001
 43
0.00000001
 40
0.0
 40
0.0
 40
0.0
 40
0.0
 40
0.0779726308301791
 40
0.1462321010266259
 40
0.2068725809869345
 40
0.2579336749064788
 40
0.2976532017647449
 40
0.3338707671889752
 40
0.3772878380785126
 40
0.4154853058682901
 40
0.4481144909663817
 40
0.4815036804648487
 40
0.5131174620773344
 40
0.5438075175533644
 40
0.5732270117205731
 40
0.6031291176503272
 40
0.6412555075709261
 40
0.6885321103625264
 40
0.7416637256033195
 40
0.7792974394899213
 40
0.8068021199920881
 40
0.8373670344045262
 40
0.8758612926578467
 40
0.9300298611220822
 40
1.0
 40
1.0
 40
1.0
 40
1.0
 10
70.3366634376622
 20
7.871872786759679
 30
0.0
 10
69.85890620122163
 20
7.831496916396858
 30
0.0
 10
68.96290662134933
 20
7.755774854808441
 30
0.0
 10
67.59158071994938
 20
7.667603347153078
 30
0.0
 10
66.33955998383976
 20
7.621160967163504
 30
0.0
 10
65.2866228835247
 20
7.593250646425922
 30
0.0
 10
64.41838087539435
 20
7.578266423177576
 30
0.0
 10
63.61768516386508
 20
7.572699961836541
 30
0.0
 10
62.8267679810384
 20
7.57522928787384
 30
0.0
 10
62.05960936804993
 20
7.585736051747141
 30
0.0
 10
61.35762923259274
 20
7.601745983382087
 30
0.0
 10
60.70756211861889
 20
7.622145367557668
 30
0.0
 10
60.07787528573258
 20
7.64682709349726
 30
0.0
 10
59.4650912637056
 20
7.675607358252751
 30
0.0
 10
58.85698752297603
 20
7.70900698405186
 30
0.0
 10
58.1919572118724
 20
7.750685478805263
 30
0.0
 10
57.41024365377129
 20
7.806222404388396
 30
0.0
 10
56.47280032198454
 20
7.882920936944645
 30
0.0
 10
55.53957201766085
 20
7.970302559854868
 30
0.0
 10
54.74357601135871
 20
8.053596434808622
 30
0.0
 10
54.11339849979213
 20
8.124282617116506
 30
0.0
 10
53.45908562318503
 20
8.20219214382346
 30
0.0
 10
52.62137182745412
 20
8.308476529054147
 30
0.0
 10
51.52944613910058
 20
8.457089776058915
 30
0.0
 10
50.69824465077773
 20
8.58468948655553
 30
0.0
 10
50.22974224070202
 20
8.656610401920165
 30
0.0
1001
PE_URL
1000

  0
SPLINE
  5
A3
330
1F
100
AcDbEntity
  8
0
  6
Continuous
 62
     1
370
    15
100
AcDbSpline
210
0.0
220
0.0
230
1.0
 70
     8
 71
     3
 72
    17
 73
    13
 74
     0
 42
0.000000001
 43
0.00000001
 40
0.0
 40
0.0
 40
0.0
 40
0.0
 40
0.1438166792629554
 40
0.2532239681021736
 40
0.3354295886310488
 40
0.4035174041493021
 40
0.4682716376158529
 40
0.5386439529108435
 40
0.6141347550382197
 40
0.7474509458094604
 40
0.88718661132105
 40
1.0
 40
1.0
 40
1.0
 40
1.0
 10
50.22974224070202
 20
-8.65661040192018
 30
0.0
 10
50.63072837244039
 20
-8.594497510745965
 30
0.0
 10
51.33676121893014
 20
-8.485132777433806
 30
0.0
 10
52.30992811394082
 20
-8.350124610126466
 30
0.0
 10
53.0794994859635
 20
-8.249791778095306
 30
0.0
 10
53.69545706755584
 20
-8.173964760780004
 30
0.0
 10
54.2323512682002
 20
-8.109885980273626
 30
0.0
 10
54.85794140250457
 20
-8.041164946323157
 30
0.0
 10
55.68067166127943
 20
-7.956511452988293
 30
0.0
 10
56.69048405554302
 20
-7.863680699667451
 30
0.0
 10
57.76843934100834
 20
-7.777260334375617
 30
0.0
 10
58.49877225218946
 20
-7.733672717990663
 30
0.0
 10
58.82501117174584
 20
-7.714202177011664
 30
0.0
1001
PE_URL
1000

  0
SPLINE
  5
A4
330
1F
100
AcDbEntity
  8
0
  6
Continuous
 62
     1
370
    15
100
AcDbSpline
210
0.0
220
0.0
230
1.0
 70
     8
 71
     3
 72
    14
 73
    10
 74
     0
 42
0.000000001
 43
0.00000001
 40
0.0
 40
0.0
 40
0.0
 40
0.0
 40
0.2363741960931959
 40
0.4244064517571148
 40
0.5660188732556803
 40
0.6522799822078172
 40
0.7505446055853621
 40
0.8656883340098201
 40
1.0
 40
1.0
 40
1.0
 40
1.0
 10
33.33750000000003
 20
-9.003018365940282
 30
0.0
 10
33.94725115865841
 20
-8.995856238802876
 30
0.0
 10
35.04205054868557
 20
-8.982996743072551
 30
0.0
 10
36.51822149665293
 20
-8.994573687362495
 30
0.0
 10
37.60954943293262
 20
-9.013305008535447
 30
0.0
 10
38.46636971576022
 20
-9.028935701545816
 30
0.0
 10
39.24265373684808
 20
-9.056214613541396
 30
0.0
 10
40.09799539714133
 20
-9.097637039151536
 30
0.0
 10
40.67721155160082
 20
-9.128938959205552
 30
0.0
 10
40.9890728639466
 20
-9.145792525515521
 30
0.0
1001
PE_URL
1000

  0
LINE
  5
A5
330
1F
100
AcDbEntity
  8
외형선
  6
Continuous
370
    15
100
AcDbLine
 10
27.89402700723835
 20
12.69999999999999
 30
0.0
 11
27.89402700723835
 21
-12.7
 31
0.0
  0
SPLINE
  5
A7
330
1F
100
AcDbEntity
  8
외형선
  6
Continuous
370
    15
100
AcDbSpline
210
0.0
220
0.0
230
1.0
 70
     8
 71
     3
 72
     8
 73
     4
 74
     0
 42
0.000000001
 43
0.00000001
 40
0.0
 40
0.0
 40
0.0
 40
0.0
 40
1.0
 40
1.0
 40
1.0
 40
1.0
 10
32.33750000000003
 20
8.803174589435036
 30
0.0
 10
31.65199186266798
 20
9.147896282099609
 30
0.0
 10
30.96858611912636
 20
9.489546132501049
 30
0.0
 10
30.28726563456206
 20
9.82758542601595
 30
0.0
  0
LINE
  5
A8
330
1F
100
AcDbEntity
  8
외형선
  6
Continuous
370
    15
100
AcDbLine
 10
32.33750000000003
 20
8.803174589435038
 30
0.0
 11
32.33750000000003
 21
6.413131733812936
 31
0.0
  0
SPLINE
  5
A9
330
1F
100
AcDbEntity
  8
외형선
  6
Continuous
370
    15
100
AcDbSpline
210
0.0
220
0.0
230
1.0
 70
     8
 71
     3
 72
     8
 73
     4
 74
     0
 42
0.000000001
 43
0.00000001
 40
0.0
 40
0.0
 40
0.0
 40
0.0
 40
1.0
 40
1.0
 40
1.0
 40
1.0
 10
30.28738552474923
 20
7.553713684018664
 30
0.0
 10
30.97159339367816
 20
7.177092581427345
 30
0.0
 10
31.65493713613315
 20
6.796878366271177
 30
0.0
 10
32.33750000000003
 20
6.413131733812939
 30
0.0
  0
LINE
  5
AA
330
1F
100
AcDbEntity
  8
외형선
  6
Continuous
370
    15
100
AcDbLine
 10
30.28738552474924
 20
-12.05870151803481
 30
0.0
 11
30.28738552474923
 21
7.553859454716966
 31
0.0
  0
SPLINE
  5
AB
330
1F
100
AcDbEntity
  8
외형선
  6
Continuous
370
    15
100
AcDbSpline
210
0.0
220
0.0
230
1.0
 70
     8
 71
     3
 72
     9
 73
     5
 74
     0
 42
0.000000001
 43
0.00000001
 40
0.0
 40
0.0
 40
0.0
 40
0.0
 40
0.3524088293499116
 40
1.0
 40
1.0
 40
1.0
 40
1.0
 10
31.86996423279211
 20
-9.037563478188282
 30
0.0
 10
31.683575653171
 20
-9.13111495683612
 30
0.0
 10
31.15467693072715
 20
-9.396577881872394
 30
0.0
 10
30.62820451959931
 20
-9.65817648219356
 30
0.0
 10
30.28726563456206
 20
-9.827585426015967
 30
0.0
  0
LINE
  5
AC
330
1F
100
AcDbEntity
  8
외형선
  6
Continuous
370
    15
100
AcDbLine
 10
30.28738552474924
 20
9.827708934770289
 30
0.0
 11
30.28738552474924
 21
12.0587015180348
 31
0.0
  0
SPLINE
  5
AE
330
1F
100
AcDbEntity
  8
외형선
  6
Continuous
370
    15
100
AcDbSpline
210
0.0
220
0.0
230
1.0
 70
    24
 71
     3
 72
    10
 73
     6
 74
     0
 42
0.000000001
 43
0.00000001
 40
0.0
 40
0.0
 40
0.0
 40
0.0
 40
0.5
 40
0.5
 40
1.0
 40
1.0
 40
1.0
 40
1.0
 10
33.33750000000003
 20
5.925083199556778
 30
0.0
 10
33.33750000000003
 20
5.778365679924069
 30
0.0
 10
33.33750000000003
 20
5.511961382368257
 30
0.0
 10
33.33750000000003
 20
4.792272409760402
 30
0.0
 10
33.33750000000003
 20
4.34162034570896
 30
0.0
 10
33.33750000000003
 20
3.860139730417775
 30
0.0
  0
SPLINE
  5
AF
330
1F
100
AcDbEntity
  8
외형선
  6
Continuous
370
    15
100
AcDbSpline
210
0.0
220
0.0
230
1.0
 70
     8
 71
     3
 72
    10
 73
     6
 74
     0
 42
0.000000001
 43
0.00000001
 40
0.0
 40
0.0
 40
0.0
 40
0.0
 40
0.5000000000000001
 40
0.5000000000000001
 40
1.0
 40
1.0
 40
1.0
 40
1.0
 10
33.33750000000004
 20
3.86013973041777
 30
0.0
 10
32.82971838856817
 20
4.040400995276152
 30
0.0
 10
32.32357067611777
 20
4.216712263734007
 30
0.0
 10
31.3058680817565
 20
4.561389933199898
 30
0.0
 10
30.79600162073448
 20
4.729552898900836
 30
0.0
 10
30.28735663950045
 20
4.89280413674467
 30
0.0
  0
SPLINE
  5
B0
330
1F
100
AcDbEntity
  8
외형선
  6
Continuous
370
    15
100
AcDbSpline
210
0.0
220
0.0
230
1.0
 70
     8
 71
     3
 72
     8
 73
     4
 74
     0
 42
0.000000001
 43
0.00000001
 40
0.0
 40
0.0
 40
0.0
 40
0.0
 40
1.0
 40
1.0
 40
1.0
 40
1.0
 10
32.33750000000003
 20
6.413131733812936
 30
0.0
 10
32.67131271011542
 20
6.253002340215758
 30
0.0
 10
33.00376109798826
 20
6.090394634592125
 30
0.0
 10
33.33750000000003
 20
5.92508319955678
 30
0.0
  0
SPLINE
  5
B1
330
1F
100
AcDbEntity
  8
외형선
  6
Continuous
370
    15
100
AcDbSpline
210
0.0
220
0.0
230
1.0
 70
     8
 71
     3
 72
     8
 73
     4
 74
     0
 42
0.000000001
 43
0.00000001
 40
0.0
 40
0.0
 40
0.0
 40
0.0
 40
1.0
 40
1.0
 40
1.0
 40
1.0
 10
33.33750000000018
 20
8.419726758111144
 30
0.0
 10
33.00376109798836
 20
8.551192621327566
 30
0.0
 10
32.67131271011547
 20
8.67894964685909
 30
0.0
 10
32.33750000000003
 20
8.803174589435038
 30
0.0
  0
LINE
  5
B2
330
1F
100
AcDbEntity
  8
외형선
  6
Continuous
370
    15
100
AcDbLine
 10
33.33750000000003
 20
8.419726758111201
 30
0.0
 11
33.33750000000003
 21
5.925083199556778
 31
0.0
  0
SPLINE
  5
B3
330
1F
100
AcDbEntity
  8
외형선
  6
Continuous
370
    15
100
AcDbSpline
210
0.0
220
0.0
230
1.0
 70
     8
 71
     3
 72
    10
 73
     6
 74
     0
 42
0.000000001
 43
0.00000001
 40
0.0
 40
0.0
 40
0.0
 40
0.0
 40
0.4999999999999999
 40
0.4999999999999999
 40
1.0
 40
1.0
 40
1.0
 40
1.0
 10
33.33750000000003
 20
-8.081828088050901
 30
0.0
 10
32.82971591012657
 20
-7.969372291704594
 30
0.0
 10
32.3235657186994
 20
-7.849170681846743
 30
0.0
 10
31.30585813719886
 20
-7.593262476506102
 30
0.0
 10
30.79598918362414
 20
-7.457676139925217
 30
0.0
 10
30.28734174356702
 20
-7.315055335568432
 30
0.0
  0
SPLINE
  5
B4
330
1F
100
AcDbEntity
  8
외형선
  6
Continuous
370
    15
100
AcDbSpline
210
0.0
220
0.0
230
1.0
 70
    24
 71
     3
 72
    14
 73
    10
 74
     0
 42
0.000000001
 43
0.00000001
 40
0.0
 40
0.0
 40
0.0
 40
0.0
 40
0.2499999999999998
 40
0.2499999999999998
 40
0.4999999999999999
 40
0.4999999999999999
 40
0.75
 40
0.75
 40
1.0
 40
1.0
 40
1.0
 40
1.0
 10
33.33750000000001
 20
3.860139730417779
 30
0.0
 10
33.33750000000001
 20
2.881750136543528
 30
0.0
 10
33.33750000000001
 20
1.83679049484136
 30
0.0
 10
33.33750000000002
 20
-0.3006963576729892
 30
0.0
 10
33.33750000000002
 20
-1.392276951124681
 30
0.0
 10
33.33750000000002
 20
-3.514708932655379
 30
0.0
 10
33.33750000000001
 20
-4.54442940023952
 30
0.0
 10
33.33750000000001
 20
-6.446209185792104
 30
0.0
 10
33.33750000000001
 20
-7.317652949693763
 30
0.0
 10
33.33750000000001
 20
-8.081828088050893
 30
0.0
  0
SPLINE
  5
B5
330
1F
100
AcDbEntity
  8
외형선
  6
Continuous
370
    15
100
AcDbSpline
210
0.0
220
0.0
230
1.0
 70
    24
 71
     3
 72
    10
 73
     6
 74
     0
 42
0.000000001
 43
0.00000001
 40
0.0
 40
0.0
 40
0.0
 40
0.0
 40
0.034994735145659
 40
0.6789590622389181
 40
0.9999999999999999
 40
0.9999999999999999
 40
0.9999999999999999
 40
0.9999999999999999
 10
33.33750000000003
 20
8.993798199703479
 30
0.0
 10
33.33750000000003
 20
8.99682257994767
 30
0.0
 10
33.33750000000002
 20
9.05550084586121
 30
0.0
 10
33.33750000000003
 20
8.910935660420527
 30
0.0
 10
33.33750000000003
 20
8.620956588073069
 30
0.0
 10
33.33750000000003
 20
8.524485452932094
 30
0.0
  0
SPLINE
  5
B6
330
1F
100
AcDbEntity
  8
외형선
  6
Continuous
370
    15
100
AcDbSpline
210
0.0
220
0.0
230
1.0
 70
    24
 71
     3
 72
    10
 73
     6
 74
     0
 42
0.000000001
 43
0.00000001
 40
0.0
 40
0.0
 40
0.0
 40
0.0
 40
0.2937544604858656
 40
0.5913258321403677
 40
1.0
 40
1.0
 40
1.0
 40
1.0
 10
33.33750000000003
 20
-8.081828088050901
 30
0.0
 10
33.33750000000003
 20
-8.244796201516852
 30
0.0
 10
33.33750000000002
 20
-8.572849961613667
 30
0.0
 10
33.33750000000003
 20
-8.92221780297262
 30
0.0
 10
33.33750000000003
 20
-8.967566288528436
 30
0.0
 10
33.33750000000003
 20
-8.9938075227187
 30
0.0
  0
SPLINE
  5
B7
330
1F
100
AcDbEntity
  8
0
  6
Continuous
 62
     1
370
    15
100
AcDbSpline
210
0.0
220
0.0
230
1.0
 70
     8
 71
     3
 72
    50
 73
    46
 74
     0
 42
0.000000001
 43
0.00000001
 40
0.0
 40
0.0
 40
0.0
 40
0.0
 40
0.0624999999999998
 40
0.0624999999999998
 40
0.0937499999999998
 40
0.0937499999999998
 40
0.1249999999999997
 40
0.1249999999999997
 40
0.1874999999999997
 40
0.1874999999999997
 40
0.2187499999999998
 40
0.2187499999999998
 40
0.2499999999999999
 40
0.2499999999999999
 40
0.3124999999999998
 40
0.3124999999999998
 40
0.3437499999999997
 40
0.3437499999999997
 40
0.3749999999999997
 40
0.3749999999999997
 40
0.4374999999999998
 40
0.4374999999999998
 40
0.4999999999999999
 40
0.4999999999999999
 40
0.5625
 40
0.5625
 40
0.59375
 40
0.59375
 40
0.6250000000000002
 40
0.6250000000000002
 40
0.6875
 40
0.6875
 40
0.75
 40
0.75
 40
0.8124999999999996
 40
0.8124999999999996
 40
0.8437499999999997
 40
0.8437499999999997
 40
0.8749999999999998
 40
0.8749999999999998
 40
0.9062499999999998
 40
0.9062499999999998
 40
0.9374999999999999
 40
0.9374999999999999
 40
1.0
 40
1.0
 40
1.0
 40
1.0
 10
33.33750000000003
 20
5.92508319955678
 30
0.0
 10
34.19642236251367
 20
5.49963178386873
 30
0.0
 10
35.06063407579775
 20
5.056719758862055
 30
0.0
 10
36.34866986160885
 20
4.374477419021515
 30
0.0
 10
36.77668170966652
 20
4.144095069195125
 30
0.0
 10
37.63695617183247
 20
3.677110126459452
 30
0.0
 10
38.06800806511831
 20
3.440720141335315
 30
0.0
 10
39.35984870416193
 20
2.725075676456955
 30
0.0
 10
40.21550614385158
 20
2.240074893789143
 30
0.0
 10
41.50720627154575
 20
1.503694048878896
 30
0.0
 10
41.93827853597701
 20
1.256915058446277
 30
0.0
 10
42.79872773164244
 20
0.7622706705642596
 30
0.0
 10
43.22692703324278
 20
0.514632975530819
 30
0.0
 10
44.51454271453473
 20
-0.2294166368178958
 30
0.0
 10
45.37874186268863
 20
-0.7273047820480855
 30
0.0
 10
46.66750859401145
 20
-1.467575718880931
 30
0.0
 10
47.09529654130408
 20
-1.713138362976285
 30
0.0
 10
47.95520952347197
 20
-2.202358759457179
 30
0.0
 10
48.38620554931456
 20
-2.445798516152016
 30
0.0
 10
49.67825495313456
 20
-3.170305886803146
 30
0.0
 10
50.53402084711428
 20
-3.644765286275306
 30
0.0
 10
52.25586696372991
 20
-4.572615616258177
 30
0.0
 10
53.1169860799628
 20
-5.025068400113695
 30
0.0
 10
54.83269147408447
 20
-5.898361426877906
 30
0.0
 10
55.69683117152775
 20
-6.320786672971551
 30
0.0
 10
56.98625986927345
 20
-6.925114743688344
 30
0.0
 10
57.41398782127868
 20
-7.121550449052106
 30
0.0
 10
58.27349320576419
 20
-7.504839472749154
 30
0.0
 10
58.70441011893135
 20
-7.691550534493173
 30
0.0
 10
59.99659872009342
 20
-8.235089440546151
 30
0.0
 10
60.85261426967085
 20
-8.574712772373159
 30
0.0
 10
62.57394706846575
 20
-9.20550261745341
 30
0.0
 10
63.43637671802142
 20
-9.496203539084574
 30
0.0
 10
65.1508750995686
 20
-10.02201486492795
 30
0.0
 10
66.01490847151439
 20
-10.2583163465687
 30
0.0
 10
67.30493003809883
 20
-10.56829348911032
 30
0.0
 10
67.73276191101934
 20
-10.66415470684664
 30
0.0
 10
68.59181365313246
 20
-10.84113938733253
 30
0.0
 10
69.02262822263128
 20
-10.92221485794891
 30
0.0
 10
69.88413369335223
 20
-11.06898004786949
 30
0.0
 10
70.31482270660564
 20
-11.13466945176159
 30
0.0
 10
71.17337484284678
 20
-11.25030291038649
 30
0.0
 10
71.60147453430801
 20
-11.30027625127455
 30
0.0
 10
72.89201976595733
 20
-11.42668188231088
 30
0.0
 10
73.75589995692044
 20
-11.47926666595146
 30
0.0
 10
74.61250000000004
 20
-11.49964745153368
 30
0.0
1001
PE_URL
1000

  0
SPLINE
  5
B8
330
1F
100
AcDbEntity
  8
0
  6
Continuous
 62
     1
370
    15
100
AcDbSpline
210
0.0
220
0.0
230
1.0
 70
     8
 71
     3
 72
    11
 73
     7
 74
     0
 42
0.000000001
 43
0.00000001
 40
0.0
 40
0.0
 40
0.0
 40
0.0
 40
0.0747811382855726
 40
0.3662674599871663
 40
0.6831619514933647
 40
1.0
 40
1.0
 40
1.0
 40
1.0
 10
46.01098304502763
 20
-1.088277159752064
 30
0.0
 10
45.69507719964351
 20
-0.9631385974071393
 30
0.0
 10
44.14781495896874
 20
-0.350227582312789
 30
0.0
 10
41.26192201269496
 20
0.8272565490716653
 30
0.0
 10
37.35316141673543
 20
2.389635501447466
 30
0.0
 10
34.67597432490366
 20
3.37000075930425
 30
0.0
 10
33.33750000000004
 20
3.86013973041777
 30
0.0
1001
PE_URL
1000

  0
SPLINE
  5
B9
330
1F
100
AcDbEntity
  8
외형선
  6
Continuous
370
    15
100
AcDbSpline
210
0.0
220
0.0
230
1.0
 70
    24
 71
     3
 72
    10
 73
     6
 74
     0
 42
0.000000001
 43
0.00000001
 40
0.0
 40
0.0
 40
0.0
 40
0.0
 40
0.5
 40
0.5
 40
1.0
 40
1.0
 40
1.0
 40
1.0
 10
33.33750000000003
 20
5.925083199556775
 30
0.0
 10
33.33750000000003
 20
5.778365679924067
 30
0.0
 10
33.33750000000003
 20
5.511961382368254
 30
0.0
 10
33.33750000000003
 20
4.792272409760399
 30
0.0
 10
33.33750000000003
 20
4.341620345708958
 30
0.0
 10
33.33750000000003
 20
3.860139730417774
 30
0.0
  0
SPLINE
  5
BA
330
1F
100
AcDbEntity
  8
0
  6
Continuous
 62
     1
370
    15
100
AcDbSpline
210
0.0
220
0.0
230
1.0
 70
     8
 71
     3
 72
    50
 73
    46
 74
     0
 42
0.000000001
 43
0.00000001
 40
0.0
 40
0.0
 40
0.0
 40
0.0
 40
0.0624999999999996
 40
0.0624999999999996
 40
0.0937499999999994
 40
0.0937499999999994
 40
0.1249999999999993
 40
0.1249999999999993
 40
0.1562499999999991
 40
0.1562499999999991
 40
0.1874999999999989
 40
0.1874999999999989
 40
0.2499999999999989
 40
0.2499999999999989
 40
0.3124999999999992
 40
0.3124999999999992
 40
0.3749999999999995
 40
0.3749999999999995
 40
0.4062499999999996
 40
0.4062499999999996
 40
0.4374999999999998
 40
0.4374999999999998
 40
0.4999999999999998
 40
0.4999999999999998
 40
0.5624999999999998
 40
0.5624999999999998
 40
0.6249999999999999
 40
0.6249999999999999
 40
0.6562499999999999
 40
0.6562499999999999
 40
0.6874999999999999
 40
0.6874999999999999
 40
0.75
 40
0.75
 40
0.78125
 40
0.78125
 40
0.8125
 40
0.8125
 40
0.875
 40
0.875
 40
0.90625
 40
0.90625
 40
0.9375
 40
0.9375
 40
1.0
 40
1.0
 40
1.0
 40
1.0
 10
74.61250000000003
 20
-10.9217163168159
 30
0.0
 10
73.75589995692039
 20
-10.76530869417712
 30
0.0
 10
72.89201976595719
 20
-10.57792880941617
 30
0.0
 10
71.60147453430778
 20
-10.2537206784322
 30
0.0
 10
71.1733748428465
 20
-10.13860313649448
 30
0.0
 10
70.3148227066053
 20
-9.89420116739741
 30
0.0
 10
69.88413369335186
 20
-9.764877502605104
 30
0.0
 10
69.02262822263084
 20
-9.49274906132571
 30
0.0
 10
68.591813653132
 20
-9.349944875760134
 30
0.0
 10
67.73276191101881
 20
-9.051790134362491
 30
0.0
 10
67.30493003809826
 20
-8.896503650630518
 30
0.0
 10
66.01490847151369
 20
-8.411571429601173
 30
0.0
 10
65.15087509956783
 20
-8.063302484617017
 30
0.0
 10
63.43637671802054
 20
-7.325661433428868
 30
0.0
 10
62.57394706846482
 20
-6.934601742849828
 30
0.0
 10
60.8526142696698
 20
-6.116468117513477
 30
0.0
 10
59.99659872009229
 20
-5.689936693953298
 30
0.0
 10
58.70441011893011
 20
-5.026772103230602
 30
0.0
 10
58.27349320576293
 20
-4.802015670026257
 30
0.0
 10
57.41398782127735
 20
-4.346525916908342
 30
0.0
 10
56.98625986927208
 20
-4.115953548237694
 30
0.0
 10
55.69683117152627
 20
-3.414995200968078
 30
0.0
 10
54.83269147408291
 20
-2.93599918428096
 30
0.0
 10
53.11698607996114
 20
-1.966645162618743
 30
0.0
 10
52.25586696372815
 20
-1.474508706383217
 30
0.0
 10
50.5340208471124
 20
-0.4848143231225229
 30
0.0
 10
49.67825495313261
 20
0.0117777396991501
 30
0.0
 10
48.3862055493125
 20
0.7561537491858301
 30
0.0
 10
47.95520952346988
 20
1.003983654420089
 30
0.0
 10
47.09529654130193
 20
1.497498869316001
 30
0.0
 10
46.66750859400926
 20
1.742970461120181
 30
0.0
 10
45.37874186268634
 20
2.476258326735139
 30
0.0
 10
44.51454271453238
 20
2.960495836752799
 30
0.0
 10
43.22692703324034
 20
3.670844629196834
 30
0.0
 10
42.79872773163996
 20
3.905052708532907
 30
0.0
 10
41.93827853597444
 20
4.368428452819523
 30
0.0
 10
41.50720627154316
 20
4.597377761828515
 30
0.0
 10
40.2155061438489
 20
5.273846249157285
 30
0.0
 10
39.35984870415916
 20
5.710416003823235
 30
0.0
 10
38.06800806511544
 20
6.340975542718183
 30
0.0
 10
37.63695617182957
 20
6.546946681073901
 30
0.0
 10
36.77668170966356
 20
6.949174958466694
 30
0.0
 10
36.34866986160586
 20
7.145254838539489
 30
0.0
 10
35.06063407579465
 20
7.7187671622659
 30
0.0
 10
34.1964223625105
 20
8.081381515340219
 30
0.0
 10
33.3374999999968
 20
8.419726758112478
 30
0.0
1001
PE_URL
1000

  0
SPLINE
  5
BB
330
1F
100
AcDbEntity
  8
0
  6
Continuous
 62
     1
370
    15
100
AcDbSpline
210
0.0
220
0.0
230
1.0
 70
     8
 71
     3
 72
    16
 73
    12
 74
     0
 42
0.000000001
 43
0.00000001
 40
0.0
 40
0.0
 40
0.0
 40
0.0
 40
0.1236419926563995
 40
0.2472916856175944
 40
0.3709480047851156
 40
0.494609872336712
 40
0.6182762073282999
 40
0.7419459262996662
 40
0.8656179438832082
 40
0.9892911734149766
 40
1.0
 40
1.0
 40
1.0
 40
1.0
 10
74.61250000000003
 20
-9.080577655212947
 30
0.0
 10
73.38150377485347
 20
-8.82569515838568
 30
0.0
 10
70.91943465929532
 20
-8.31591429089354
 30
0.0
 10
67.22618211452027
 20
-7.183298163092348
 30
0.0
 10
63.53270509313818
 20
-5.827144143015588
 30
0.0
 10
59.83903701443536
 20
-4.265267212735784
 30
0.0
 10
56.14521591068461
 20
-2.559849220981407
 30
0.0
 10
52.45127864681285
 20
-0.7630098550883524
 30
0.0
 10
48.75726267495002
 20
1.047388925124046
 30
0.0
 10
46.18793942845613
 20
2.314003190903016
 30
0.0
 10
44.84996062127165
 20
2.920116942103924
 30
0.0
 10
44.74333788134183
 20
2.96841778851133
 30
0.0
1001
PE_URL
1000

  0
LINE
  5
BC
330
1F
100
AcDbEntity
  8
0
  6
Continuous
 62
     1
370
    15
100
AcDbLine
 10
74.61249999999976
 20
-10.92171631681591
 30
0.0
 11
74.61250000000003
 21
-9.080577655212947
 31
0.0
1001
PE_URL
1000

  0
LINE
  5
BD
330
1F
100
AcDbEntity
  8
0
  6
Continuous
 62
     1
370
    15
100
AcDbLine
 10
74.61250000000003
 20
-11.49964745153369
 30
0.0
 11
74.6124999999997
 21
-10.92171631681589
 31
0.0
1001
PE_URL
1000

  0
SPLINE
  5
BE
330
1F
100
AcDbEntity
  8
0
  6
Continuous
 62
     1
370
    15
100
AcDbSpline
210
0.0
220
0.0
230
1.0
 70
     8
 71
     3
 72
    10
 73
     6
 74
     0
 42
0.000000001
 43
0.00000001
 40
0.0
 40
0.0
 40
0.0
 40
0.0
 40
0.5
 40
0.5
 40
1.0
 40
1.0
 40
1.0
 40
1.0
 10
74.61250000000003
 20
-3.075799281959951
 30
0.0
 10
73.75837612722921
 20
-2.404317664218603
 30
0.0
 10
72.91463343762358
 20
-1.713816985881498
 30
0.0
 10
71.24760647325002
 20
-0.2953343686129258
 30
0.0
 10
70.4243113718025
 20
0.4326277350769778
 30
0.0
 10
69.61250000000004
 20
1.181628842366932
 30
0.0
1001
PE_URL
1000

  0
LINE
  5
BF
330
1F
100
AcDbEntity
  8
0
  6
Continuous
 62
     1
370
    15
100
AcDbLine
 10
69.61250000000003
 20
2.937719435296584
 30
0.0
 11
74.61250000000003
 21
-0.0000000000000021
 31
0.0
1001
PE_URL
1000

  0
LINE
  5
C0
330
1F
100
AcDbEntity
  8
0
  6
Continuous
 62
     1
370
    15
100
AcDbLine
 10
74.61250000000003
 20
-0.0000000000000021
 30
0.0
 11
74.61250000000003
 21
-3.075799281959948
 31
0.0
1001
PE_URL
1000

  0
SPLINE
  5
C1
330
1F
100
AcDbEntity
  8
0
  6
Continuous
 62
     1
370
    15
100
AcDbSpline
210
0.0
220
0.0
230
1.0
 70
     8
 71
     3
 72
    16
 73
    12
 74
     0
 42
0.000000001
 43
0.00000001
 40
0.0
 40
0.0
 40
0.0
 40
0.0
 40
0.1061981579461432
 40
0.2124110979671127
 40
0.3414465746489768
 40
0.470486777953242
 40
0.5995305616358241
 40
0.7285767774288913
 40
0.8576242756891328
 40
0.9866719060476871
 40
1.0
 40
1.0
 40
1.0
 40
1.0
 10
69.61250000000004
 20
2.285385618788825
 30
0.0
 10
68.59929164029103
 20
2.73366466645998
 30
0.0
 10
66.57273388903141
 20
3.63028515925394
 30
0.0
 10
63.31509763475847
 20
4.965983169698845
 30
0.0
 10
59.83903652135472
 20
6.251981811622295
 30
0.0
 10
56.14525411686785
 20
7.403752603666201
 30
0.0
 10
52.4513124408101
 20
8.299943904661244
 30
0.0
 10
48.75731494459534
 20
8.921272002082016
 30
0.0
 10
45.06322696491914
 20
9.202192615926073
 30
0.0
 10
42.47343755839312
 20
9.26988422059416
 30
0.0
 10
41.1148277488073
 20
9.141868123609855
 30
0.0
 10
40.98764539890643
 20
9.129884264870778
 30
0.0
1001
PE_URL
1000

  0
SPLINE
  5
C2
330
1F
100
AcDbEntity
  8
0
  6
Continuous
 62
     1
370
    15
100
AcDbSpline
210
0.0
220
0.0
230
1.0
 70
    24
 71
     3
 72
     8
 73
     4
 74
     0
 42
0.000000001
 43
0.00000001
 40
0.0
 40
0.0
 40
0.0
 40
0.0
 40
1.0
 40
1.0
 40
1.0
 40
1.0
 10
69.61250000000004
 20
1.181628842338003
 30
0.0
 10
69.61250000000004
 20
1.553877396001909
 30
0.0
 10
69.61250000000004
 20
1.922448558518588
 30
0.0
 10
69.61250000000004
 20
2.285385618788833
 30
0.0
1001
PE_URL
1000

  0
SPLINE
  5
C3
330
1F
100
AcDbEntity
  8
0
  6
Continuous
 62
     1
370
    15
100
AcDbSpline
210
0.0
220
0.0
230
1.0
 70
    24
 71
     3
 72
    10
 73
     6
 74
     0
 42
0.000000001
 43
0.00000001
 40
0.0
 40
0.0
 40
0.0
 40
0.0
 40
0.5
 40
0.5
 40
1.0
 40
1.0
 40
1.0
 40
1.0
 10
74.61250000000003
 20
-9.080577655212942
 30
0.0
 10
74.61250000000003
 20
-8.384480580315673
 30
0.0
 10
74.61250000000003
 20
-7.50493523508602
 30
0.0
 10
74.61250000000003
 20
-5.460076954224867
 30
0.0
 10
74.61250000000003
 20
-4.296535352368679
 30
0.0
 10
74.61250000000003
 20
-3.075799281960321
 30
0.0
1001
PE_URL
1000

  0
SPLINE
  5
C4
330
1F
100
AcDbEntity
  8
외형선
  6
Continuous
370
    15
100
AcDbSpline
210
0.0
220
0.0
230
1.0
 70
    24
 71
     3
 72
    10
 73
     6
 74
     0
 42
0.000000001
 43
0.00000001
 40
0.0
 40
0.0
 40
0.0
 40
0.0
 40
0.0390535827799801
 40
0.6803171936872869
 40
1.0
 40
1.0
 40
1.0
 40
1.0
 10
33.33750000000003
 20
8.992753492903452
 30
0.0
 10
33.33750000000003
 20
8.996160372204157
 30
0.0
 10
33.33750000000003
 20
9.05550853951948
 30
0.0
 10
33.33750000000003
 20
8.911052683668478
 30
0.0
 10
33.33750000000003
 20
8.620991533180348
 30
0.0
 10
33.33750000000003
 20
8.524495452932092
 30
0.0
  0
SPLINE
  5
C5
330
1F
100
AcDbEntity
  8
0
  6
Continuous
 62
     1
370
    15
100
AcDbSpline
210
0.0
220
0.0
230
1.0
 70
    24
 71
     3
 72
    10
 73
     6
 74
     0
 42
0.000000001
 43
0.00000001
 40
0.0
 40
0.0
 40
0.0
 40
0.0
 40
0.5
 40
0.5
 40
1.0
 40
1.0
 40
1.0
 40
1.0
 10
69.61250000000001
 20
2.285385618788835
 30
0.0
 10
69.61250000000001
 20
3.124137972101106
 30
0.0
 10
69.61250000000001
 20
3.919900563583379
 30
0.0
 10
69.6125
 20
5.332560942253685
 30
0.0
 10
69.61250000000001
 20
5.94843914593913
 30
0.0
 10
69.61250000000001
 20
6.438916722646112
 30
0.0
1001
PE_URL
1000

  0
SPLINE
  5
C6
330
1F
100
AcDbEntity
  8
0
  6
Continuous
 62
     1
370
    15
100
AcDbSpline
210
0.0
220
0.0
230
1.0
 70
     8
 71
     3
 72
     9
 73
     5
 74
     0
 42
0.000000001
 43
0.00000001
 40
0.0
 40
0.0
 40
0.0
 40
0.0
 40
0.8629194303725491
 40
1.0
 40
1.0
 40
1.0
 40
1.0
 10
74.61250000000003
 20
8.056562499999995
 30
0.0
 10
73.38150737052258
 20
8.049581364713523
 30
0.0
 10
71.95496326205816
 20
8.041491229017474
 30
0.0
 10
70.52840484602336
 20
7.876355982442786
 30
0.0
 10
70.33285140574648
 20
7.85371914877676
 30
0.0
1001
PE_URL
1000

  0
SPLINE
  5
C7
330
1F
100
AcDbEntity
  8
0
  6
Continuous
 62
     1
370
    15
100
AcDbSpline
210
0.0
220
0.0
230
1.0
 70
     8
 71
     3
 72
     8
 73
     4
 74
     0
 42
0.000000001
 43
0.00000001
 40
0.0
 40
0.0
 40
0.0
 40
0.0
 40
1.0
 40
1.0
 40
1.0
 40
1.0
 10
74.61250000000003
 20
8.056562499999997
 30
0.0
 10
72.93065633592212
 20
7.600589040958021
 30
0.0
 10
71.26175796193765
 20
7.065928614174098
 30
0.0
 10
69.61250000000004
 20
6.438916722646112
 30
0.0
1001
PE_URL
1000

  0
SPLINE
  5
C8
330
1F
100
AcDbEntity
  8
0
  6
Continuous
 62
     1
370
    15
100
AcDbSpline
210
0.0
220
0.0
230
1.0
 70
     8
 71
     3
 72
    12
 73
     8
 74
     0
 42
0.000000001
 43
0.00000001
 40
0.0
 40
0.0
 40
0.0
 40
0.0
 40
0.0879859512467226
 40
0.3064783930774082
 40
0.5249710585659197
 40
0.7625061322466673
 40
1.0
 40
1.0
 40
1.0
 40
1.0
 10
50.24489859873005
 20
-8.61872356213927
 30
0.0
 10
49.74903890388515
 20
-8.705695123100526
 30
0.0
 10
48.02182813540945
 20
-9.008640125900989
 30
0.0
 10
45.06323810612719
 20
-9.213668057992091
 30
0.0
 10
41.26193936679212
 20
-9.216523167463228
 30
0.0
 10
37.35314171261037
 20
-8.874702183412248
 30
0.0
 10
34.67596982797237
 20
-8.346104168929685
 30
0.0
 10
33.33750000000003
 20
-8.0818280880509
 30
0.0
1001
PE_URL
1000

  0
SPLINE
  5
C9
330
1F
100
AcDbEntity
  8
외형선
  6
Continuous
370
    15
100
AcDbSpline
210
0.0
220
0.0
230
1.0
 70
    24
 71
     3
 72
    14
 73
    10
 74
     0
 42
0.000000001
 43
0.00000001
 40
0.0
 40
0.0
 40
0.0
 40
0.0
 40
0.25
 40
0.25
 40
0.5
 40
0.5
 40
0.75
 40
0.75
 40
1.0
 40
1.0
 40
1.0
 40
1.0
 10
33.33750000000002
 20
3.860139730417777
 30
0.0
 10
33.33750000000002
 20
2.881750136543526
 30
0.0
 10
33.33750000000002
 20
1.836790494841358
 30
0.0
 10
33.33750000000002
 20
-0.3006963576729914
 30
0.0
 10
33.33750000000002
 20
-1.392276951124684
 30
0.0
 10
33.33750000000002
 20
-3.514708932655382
 30
0.0
 10
33.33750000000002
 20
-4.544429400239522
 30
0.0
 10
33.33750000000002
 20
-6.446209185792104
 30
0.0
 10
33.33750000000002
 20
-7.317652949693759
 30
0.0
 10
33.33750000000002
 20
-8.081828088050893
 30
0.0
  0
SPLINE
  5
CA
330
1F
100
AcDbEntity
  8
외형선
  6
Continuous
370
    15
100
AcDbSpline
210
0.0
220
0.0
230
1.0
 70
    24
 71
     3
 72
    10
 73
     6
 74
     0
 42
0.000000001
 43
0.00000001
 40
0.0
 40
0.0
 40
0.0
 40
0.0
 40
0.2946227664900962
 40
0.5930737265200975
 40
1.0
 40
1.0
 40
1.0
 40
1.0
 10
33.33750000000003
 20
-8.081828088050901
 30
0.0
 10
33.33750000000003
 20
-8.244783267513563
 30
0.0
 10
33.33750000000004
 20
-8.572810991545275
 30
0.0
 10
33.33750000000003
 20
-8.9213703957113
 30
0.0
 10
33.33750000000003
 20
-8.966638626279993
 30
0.0
 10
33.33750000000003
 20
-8.992753492903468
 30
0.0
  0
LINE
  5
CB
330
1F
100
AcDbEntity
  8
0
  6
Continuous
 62
     1
370
    15
100
AcDbLine
 10
74.61250000000003
 20
-0.0000000000000021
 30
0.0
 11
74.61250000000003
 21
8.056562499999997
 31
0.0
1001
PE_URL
1000

  0
SPLINE
  5
CC
330
1F
100
AcDbEntity
  8
0
  6
Continuous
 62
     1
370
    15
100
AcDbSpline
210
0.0
220
0.0
230
1.0
 70
    24
 71
     3
 72
    10
 73
     6
 74
     0
 42
0.000000001
 43
0.00000001
 40
0.0
 40
0.0
 40
0.0
 40
0.0
 40
0.5
 40
0.5
 40
1.0
 40
1.0
 40
1.0
 40
1.0
 10
74.61250000000003
 20
8.056562499999993
 30
0.0
 10
74.61250000000003
 20
8.54493125569167
 30
0.0
 10
74.61250000000003
 20
9.112460977617468
 30
0.0
 10
74.61250000000004
 20
10.30313680568384
 30
0.0
 10
74.61250000000003
 20
10.92324207517756
 30
0.0
 10
74.61250000000003
 20
11.49964745153367
 30
0.0
1001
PE_URL
1000

  0
SPLINE
  5
CD
330
1F
100
AcDbEntity
  8
0
  6
Continuous
 62
     1
370
    15
100
AcDbSpline
210
0.0
220
0.0
230
1.0
 70
     8
 71
     3
 72
    16
 73
    12
 74
     0
 42
0.000000001
 43
0.00000001
 40
0.0
 40
0.0
 40
0.0
 40
0.0
 40
0.1120253725780414
 40
0.2208121688923087
 40
0.330007110681453
 40
0.4394073057913551
 40
0.5492202577635467
 40
0.6613542338996958
 40
0.7737109746645098
 40
0.8867413732645295
 40
1.0
 40
1.0
 40
1.0
 40
1.0
 10
58.79036993989995
 20
7.713966090335323
 30
0.0
 10
59.38135439113553
 20
7.966196497775154
 30
0.0
 10
60.54623834068946
 20
8.46336550552454
 30
0.0
 10
62.28626372880895
 20
9.106256668732287
 30
0.0
 10
64.01326855519454
 20
9.684530795149657
 30
0.0
 10
65.74484997894002
 20
10.18991693485146
 30
0.0
 10
67.49277941349777
 20
10.62205531437608
 30
0.0
 10
69.25549576792741
 20
10.97622753848259
 30
0.0
 10
71.03587182385587
 20
11.24443333431391
 30
0.0
 10
72.82167499432335
 20
11.43034945603916
 30
0.0
 10
74.01515709502195
 20
11.47653259340591
 30
0.0
 10
74.6124999999997
 20
11.49964745153365
 30
0.0
1001
PE_URL
1000

  0
LINE
  5
CE
330
1F
100
AcDbEntity
  8
중심선
 62
     1
100
AcDbLine
 10
-81.6125
 20
-0.0000000000000101
 30
0.0
 11
81.6125
 21
0.0000000000000101
 31
0.0
  0
LINE
  5
CF
330
1F
100
AcDbEntity
  8
참조1
100
AcDbLine
 10
0.0
 20
-0.0000000000000117
 30
0.0
 11
0.0000000000000071
 21
-40.00000000000001
 31
0.0
  0
LINE
  5
D0
330
1F
100
AcDbEntity
  8
참조1
100
AcDbLine
 10
0.0000000000000071
 20
-40.00000000000001
 30
0.0
 11
-6.528215596699194
 21
-40.00000000000001
 31
0.0
  0
CIRCLE
  5
D1
330
1F
100
AcDbEntity
  8
해칭선
100
AcDbCircle
 10
0.0
 20
0.0
 30
0.0
 40
3.000000000000002
  0
INSERT
  5
D2
330
1F
100
AcDbEntity
  8
0
  6
Continuous
 62
     7
100
AcDbBlockReference
 66
     1
  2
블럭10
 10
-13.94027293212521
 20
-52.04717430164394
 30
0.0
  0
ATTRIB
  5
D3
330
D2
100
AcDbEntity
  8
FORMAT
 62
     2
100
AcDbText
 10
-23.12156822086649
 20
-49.97180738881175
 30
0.0
 40
4.233333333333333
  1
E1050058 [ 2 FLUTE ]
 41
0.75
  7
SLDTEXTSTYLE0
 11
-23.12156822086649
 21
-52.08847405547842
 31
0.0
100
AcDbAttribute
  2
AUTOATTR0
 70
     0
 74
     1
  0
SEQEND
  5
D4
330
D2
100
AcDbEntity
  8
0
  6
Continuous
 62
     7
  0
HATCH
  5
D5
330
1F
100
AcDbEntity
  8
중심선
100
AcDbHatch
 10
0.0
 20
0.0
 30
0.0
210
0.0
220
0.0
230
1.0
  2
SOLID
 70
     1
 71
     0
 91
        1
 92
        0
 93
        4
 72
     1
 10
-8.225363627744372
 20
-35.8
 11
-11.67163887158166
 21
-35.8
 72
     1
 10
-11.67163887158166
 20
-35.8
 11
-13.79986873078568
 21
-38.33632558057258
 72
     1
 10
-13.79986873078568
 20
-38.33632558057258
 11
-10.35356040183525
 21
-38.33628615127009
 72
     1
 10
-10.35356040183525
 20
-38.33628615127009
 11
-8.225363627744372
 21
-35.8
 97
        0
 75
     0
 76
     1
 98
        1
 10
22.93171167873054
 20
-0.0010749287239009
  0
HATCH
  5
D6
330
1F
100
AcDbEntity
  8
중심선
100
AcDbHatch
 10
0.0
 20
0.0
 30
0.0
210
0.0
220
0.0
230
1.0
  2
SOLID
 70
     1
 71
     0
 91
        1
 92
        0
 93
        4
 72
     1
 10
-3.21259963670839
 20
-35.8
 11
-6.658874880545703
 21
-35.80000000000003
 72
     1
 10
-6.658874880545703
 20
-35.80000000000003
 11
-11.19001288890309
 21
-41.20000000000002
 72
     1
 10
-11.19001288890309
 20
-41.20000000000002
 11
-7.743737645065806
 21
-41.20000000000002
 72
     1
 10
-7.743737645065806
 20
-41.20000000000002
 11
-3.21259963670839
 21
-35.8
 97
        0
 75
     0
 76
     1
 98
        1
 10
22.93171167873054
 20
-0.0010749287239009
  0
HATCH
  5
D7
330
1F
100
AcDbEntity
  8
중심선
100
AcDbHatch
 10
0.0
 20
0.0
 30
0.0
210
0.0
220
0.0
230
1.0
  2
SOLID
 70
     1
 71
     0
 91
        1
 92
        0
 93
        4
 72
     1
 10
1.800164354327475
 20
-35.8
 11
-1.646110889509639
 21
-35.8
 72
     1
 10
-1.646110889509639
 20
-35.8
 11
-8.69454779139889
 21
-44.20000000000002
 72
     1
 10
-8.69454779139889
 20
-44.20000000000002
 11
-5.248272547561605
 21
-44.20000000000002
 72
     1
 10
-5.248272547561605
 20
-44.20000000000002
 11
1.800164354327475
 21
-35.8
 97
        0
 75
     0
 76
     1
 98
        1
 10
22.93171167873054
 20
-0.0010749287239009
  0
HATCH
  5
D8
330
1F
100
AcDbEntity
  8
중심선
100
AcDbHatch
 10
0.0
 20
0.0
 30
0.0
210
0.0
220
0.0
230
1.0
  2
SOLID
 70
     1
 71
     0
 91
        1
 92
        0
 93
        6
 72
     3
 10
6.600054785339676
 20
-40.00000000005128
 11
3.960054785062283
 21
1.540882976769353E-10
 40
0.3939339440162628
 50
17.09539180608436
 51
320.0019657685086
 73
     0
 72
     1
 10
8.28305444104027
 20
-38.58789400463834
 11
10.58835631474134
 21
-36.65356729459039
 72
     3
 10
6.600054785286829
 20
-40.00000000000016
 11
6.600054785286829
 21
-1.278976924368180E-13
 40
0.636358354079598
 50
39.99873849337385
 51
368.4976242363724
 73
     1
 72
     1
 10
13.02538727718744
 20
-39.03999999993003
 11
5.280122092122753
 21
-39.03999999993003
 72
     1
 10
5.280122092122753
 20
-39.03999999993003
 11
5.280097047676819
 21
-40.95999999992992
 72
     1
 10
5.280097047676819
 20
-40.95999999992992
 11
9.721476817148854
 21
-40.95999999992989
 97
        0
 75
     0
 76
     1
 98
        1
 10
22.93171167873054
 20
-0.0010749287239009
  0
DIMENSION
  5
D9
330
1F
100
AcDbEntity
  8
치수문자_일반주서
100
AcDbDimension
  2
_D
 10
-89.61249999999991
 20
-12.70000000000024
 30
0.0
 11
-89.61250000000004
 21
27.37699999999992
 31
0.0
 70
   160
  1
%%c<>
 71
     2
 42
25.4
 52
-270.0
  3
SLDDIMSTYLE1
100
AcDbAlignedDimension
 13
-27.89402700723836
 23
12.69999999999999
 33
0.0
 14
-27.89402700723834
 24
-12.70000000000001
 34
0.0
 50
90.0000000000002
100
AcDbRotatedDimension
1001
PE_URL
1000

1001
ACAD
1000
DSTYLE
1002
{
1070
   171
1070
     8
1070
   273
1070
     7
1070
   140
1040
4.0
1002
}
1001
ACAD_DSTYLE_DIMFLIPARROW_SYMBOL
1070
   385
1070
     0
1001
ACAD_DSTYLE_DIMFLIPARROW_WHICH_SYMBOL
1070
   386
1070
     3
  0
DIMENSION
  5
EE
330
1F
100
AcDbEntity
  8
치수문자_일반주서
100
AcDbDimension
  2
_D_1
 10
89.61250000000001
 20
11.49964745153373
 30
0.0
 11
89.61249999999994
 21
30.67664745153373
 31
0.0
 70
   160
  1
%%c<>
 71
     2
 42
22.99929490306737
 52
-270.0
  3
SLDDIMSTYLE1
100
AcDbAlignedDimension
 13
74.61250000000003
 23
-11.49964745153369
 33
0.0
 14
74.61250000000003
 24
11.49964745153367
 34
0.0
 50
90.0000000000002
100
AcDbRotatedDimension
1001
PE_URL
1000

1001
ACAD
1000
DSTYLE
1002
{
1070
   171
1070
     8
1070
   273
1070
     7
1070
   140
1040
4.0
1002
}
1001
ACAD_DSTYLE_DIMFLIPARROW_SYMBOL
1070
   385
1070
     0
1001
ACAD_DSTYLE_DIMFLIPARROW_WHICH_SYMBOL
1070
   386
1070
     3
  0
DIMENSION
  5
102
330
1F
100
AcDbEntity
  8
치수문자_일반주서
100
AcDbDimension
  2
_D_2
 10
33.33750000000003
 20
27.69999999999999
 30
0.0
 11
53.97500000000001
 21
27.69999999999999
 31
0.0
 70
   160
  1
<>
 71
     2
 42
41.27499999999999
  3
SLDDIMSTYLE1
100
AcDbAlignedDimension
 13
74.61250000000003
 23
11.49964745153367
 33
0.0
 14
33.33750000000003
 24
9.003018892698039
 34
0.0
 50
0.0000000000000099
100
AcDbRotatedDimension
1001
PE_URL
1000

1001
ACAD
1000
DSTYLE
1002
{
1070
   171
1070
     8
1070
   273
1070
     7
1070
   140
1040
4.0
1002
}
  0
DIMENSION
  5
116
330
1F
100
AcDbEntity
  8
치수문자_일반주서
100
AcDbDimension
  2
_D_3
 10
74.61250000000003
 20
42.69999999999999
 30
0.0
 11
0.0
 21
42.69999999999999
 31
0.0
 70
   160
  1
<>
 71
     2
 42
149.2250000000001
  3
SLDDIMSTYLE1
100
AcDbAlignedDimension
 13
-74.61250000000003
 23
11.49964745153367
 33
0.0
 14
74.61250000000003
 24
11.49964745153367
 34
0.0
 50
-0.0000000000000055
100
AcDbRotatedDimension
1001
PE_URL
1000

1001
ACAD
1000
DSTYLE
1002
{
1070
   171
1070
     8
1070
   273
1070
     7
1070
   140
1040
4.0
1002
}
  0
LINE
  5
129
330
1F
100
AcDbEntity
  8
참조1
100
AcDbLine
 10
91.44412503295507
 20
7.439999999999995
 30
0.0
 11
91.44412503295507
 21
-7.440000000000009
 31
0.0
  0
LINE
  5
12A
330
1F
100
AcDbEntity
  8
참조1
100
AcDbLine
 10
104.1441250329551
 20
5.439999999999995
 30
0.0
 11
91.44412503295507
 21
5.439999999999995
 31
0.0
  0
SOLID
  5
12B
330
1F
100
AcDbEntity
  8
참조1
100
AcDbTrace
 10
91.44412503295507
 20
5.439999999999995
 30
0.0
 11
97.79412503295507
 21
4.423999999999995
 31
0.0
 12
97.79412503295507
 22
6.455999999999995
 32
0.0
 13
97.79412503295507
 23
6.455999999999995
 33
0.0
  0
LINE
  5
12C
330
1F
100
AcDbEntity
  8
참조1
100
AcDbLine
 10
104.1441250329551
 20
-5.440000000000009
 30
0.0
 11
91.44412503295507
 21
-5.440000000000009
 31
0.0
  0
SOLID
  5
12D
330
1F
100
AcDbEntity
  8
참조1
100
AcDbTrace
 10
91.44412503295507
 20
-5.440000000000009
 30
0.0
 11
97.79412503295507
 21
-6.456000000000009
 31
0.0
 12
97.79412503295507
 22
-4.424000000000009
 32
0.0
 13
97.79412503295507
 23
-4.424000000000009
 33
0.0
  0
MTEXT
  5
12E
330
1F
100
AcDbEntity
  8
참조1
100
AcDbMText
 10
100.8284751655811
 20
11.01029177718832
 30
0.0
 40
3.5
 41
0.0
 71
     1
 72
     1
  1
A
  7
SLDTEXTSTYLE0
 73
     1
 44
1.0
  0
MTEXT
  5
12F
330
1F
100
AcDbEntity
  8
참조1
100
AcDbMText
 10
100.8284751655811
 20
0.1302917771883184
 30
0.0
 40
3.5
 41
0.0
 71
     1
 72
     1
  1
A
  7
SLDTEXTSTYLE0
 73
     1
 44
1.0
  0
INSERT
  5
136
330
1F
100
AcDbEntity
  8
해칭선
100
AcDbBlockReference
  2
SW_DOWELSYMBOL_0
 10
0.0
 20
0.0
 30
0.0
  0
LINE
  5
1EF
330
1F
100
AcDbEntity
  8
외형선
  6
Continuous
370
    15
100
AcDbLine
 10
-27.89402700723836
 20
12.69999999999999
 30
0.0
 11
-30.28738552474925
 21
12.05870151803479
 31
0.0
  0
LINE
  5
1F0
330
1F
100
AcDbEntity
  8
외형선
  6
Continuous
370
    15
100
AcDbLine
 10
-30.28738552474925
 20
-12.05870151803482
 30
0.0
 11
-27.89402700723835
 21
-12.70000000000001
 31
0.0
  0
SPLINE
  5
1F1
330
1F
100
AcDbEntity
  8
외형선
  6
Continuous
370
    15
100
AcDbSpline
210
0.0
220
0.0
230
1.0
 70
     8
 71
     3
 72
     9
 73
     5
 74
     0
 42
0.000000001
 43
0.00000001
 40
0.0
 40
0.0
 40
0.0
 40
0.0
 40
0.8890558134047156
 40
1.0
 40
1.0
 40
1.0
 40
1.0
 10
-33.33750000000005
 20
-9.003018365940282
 30
0.0
 10
-32.9023584292906
 20
-9.0105336814127
 30
0.0
 10
-32.41291607466155
 20
-9.01898682390286
 30
0.0
 10
-31.92327728068001
 20
-9.036163888550458
 30
0.0
 10
-31.86895470295623
 20
-9.038069584015883
 30
0.0
  0
SPLINE
  5
1F2
330
1F
100
AcDbEntity
  8
외형선
  6
Continuous
370
    15
100
AcDbSpline
210
0.0
220
0.0
230
1.0
 70
     8
 71
     3
 72
     9
 73
     5
 74
     0
 42
0.000000001
 43
0.00000001
 40
0.0
 40
0.0
 40
0.0
 40
0.0
 40
0.5006752979875018
 40
1.0
 40
1.0
 40
1.0
 40
1.0
 10
-30.28734174356702
 20
9.095939094272293
 30
0.0
 10
-30.7965037910341
 20
9.075150688416361
 30
0.0
 10
-31.81345439657365
 20
9.03362995444068
 30
0.0
 10
-32.82994242040245
 20
9.013213037104943
 30
0.0
 10
-33.33750000000003
 20
9.00301836594026
 30
0.0
  0
LINE
  5
1F3
330
1F
100
AcDbEntity
  8
0
  6
Continuous
 62
     1
370
    15
100
AcDbLine
 10
-38.48832910866626
 20
-3.208418489617085
 30
0.0
 11
-38.30556326343562
 21
-3.308960371209235
 31
0.0
1001
PE_URL
1000

  0
LINE
  5
1F4
330
1F
100
AcDbEntity
  8
0
  6
Continuous
 62
     1
370
    15
100
AcDbLine
 10
-41.66692882556207
 20
-4.512419915257109
 30
0.0
 11
-41.6018732647594
 21
-4.546217848974468
 31
0.0
1001
PE_URL
1000

  0
SPLINE
  5
1F5
330
1F
100
AcDbEntity
  8
0
  6
Continuous
 62
     1
370
    15
100
AcDbSpline
210
0.0
220
0.0
230
1.0
 70
     8
 71
     3
 72
    10
 73
     6
 74
     0
 42
0.000000001
 43
0.00000001
 40
0.0
 40
0.0
 40
0.0
 40
0.0
 40
0.4671027678559116
 40
0.6475938496965757
 40
1.0
 40
1.0
 40
1.0
 40
1.0
 10
-44.79388386949591
 20
-2.949303340579771
 30
0.0
 10
-44.30544413500263
 20
-3.182080585424007
 30
0.0
 10
-43.62826859725705
 20
-3.504804239583432
 30
0.0
 10
-42.59781266600029
 20
-4.025014021344841
 30
0.0
 10
-42.03747885066372
 20
-4.318401866626186
 30
0.0
 10
-41.66692882556207
 20
-4.512419915257109
 30
0.0
1001
PE_URL
1000

  0
SPLINE
  5
1F6
330
1F
100
AcDbEntity
  8
0
  6
Continuous
 62
     1
370
    15
100
AcDbSpline
210
0.0
220
0.0
230
1.0
 70
     8
 71
     3
 72
    14
 73
    10
 74
     0
 42
0.000000001
 43
0.00000001
 40
0.0
 40
0.0
 40
0.0
 40
0.0
 40
0.13431166599018
 40
0.2494553944146378
 40
0.3477200177921825
 40
0.4339811267443195
 40
0.575593548242885
 40
0.763625803906804
 40
1.0
 40
1.0
 40
1.0
 40
1.0
 10
-40.9890728639466
 20
-9.145792525515521
 30
0.0
 10
-40.67721155160082
 20
-9.128938959205552
 30
0.0
 10
-40.09799539714133
 20
-9.09763703915154
 30
0.0
 10
-39.24265373684808
 20
-9.056214613541396
 30
0.0
 10
-38.46636971576022
 20
-9.028935701545816
 30
0.0
 10
-37.60954943293262
 20
-9.01330500853545
 30
0.0
 10
-36.51822149665293
 20
-8.9945736873625
 30
0.0
 10
-35.04205054868557
 20
-8.982996743072551
 30
0.0
 10
-33.94725115865842
 20
-8.995856238802876
 30
0.0
 10
-33.33750000000003
 20
-9.003018365940282
 30
0.0
1001
PE_URL
1000

  0
SPLINE
  5
1F7
330
1F
100
AcDbEntity
  8
0
  6
Continuous
 62
     1
370
    15
100
AcDbSpline
210
0.0
220
0.0
230
1.0
 70
     8
 71
     3
 72
    30
 73
    26
 74
     0
 42
0.000000001
 43
0.00000001
 40
0.0
 40
0.0
 40
0.0
 40
0.0
 40
0.0779726308301791
 40
0.1462321010266259
 40
0.2068725809869345
 40
0.2579336749064788
 40
0.2976532017647449
 40
0.3338707671889752
 40
0.3772878380785126
 40
0.4154853058682901
 40
0.4481144909663817
 40
0.4815036804648487
 40
0.5131174620773344
 40
0.5438075175533644
 40
0.5732270117205731
 40
0.6031291176503272
 40
0.6412555075709261
 40
0.6885321103625264
 40
0.7416637256033195
 40
0.7792974394899213
 40
0.8068021199920881
 40
0.8373670344045262
 40
0.8758612926578467
 40
0.9300298611220822
 40
1.0
 40
1.0
 40
1.0
 40
1.0
 10
-70.3366634376622
 20
-7.871872786759699
 30
0.0
 10
-69.85890620122163
 20
-7.831496916396876
 30
0.0
 10
-68.96290662134933
 20
-7.755774854808461
 30
0.0
 10
-67.59158071994938
 20
-7.667603347153094
 30
0.0
 10
-66.33955998383976
 20
-7.621160967163522
 30
0.0
 10
-65.2866228835247
 20
-7.59325064642594
 30
0.0
 10
-64.41838087539435
 20
-7.578266423177592
 30
0.0
 10
-63.61768516386508
 20
-7.572699961836559
 30
0.0
 10
-62.8267679810384
 20
-7.575229287873857
 30
0.0
 10
-62.05960936804993
 20
-7.585736051747158
 30
0.0
 10
-61.35762923259274
 20
-7.601745983382106
 30
0.0
 10
-60.7075621186189
 20
-7.622145367557689
 30
0.0
 10
-60.07787528573259
 20
-7.646827093497276
 30
0.0
 10
-59.4650912637056
 20
-7.675607358252773
 30
0.0
 10
-58.85698752297603
 20
-7.709006984051879
 30
0.0
 10
-58.19195721187241
 20
-7.750685478805277
 30
0.0
 10
-57.41024365377129
 20
-7.806222404388411
 30
0.0
 10
-56.47280032198454
 20
-7.882920936944661
 30
0.0
 10
-55.53957201766086
 20
-7.970302559854883
 30
0.0
 10
-54.74357601135871
 20
-8.053596434808636
 30
0.0
 10
-54.11339849979213
 20
-8.124282617116524
 30
0.0
 10
-53.45908562318503
 20
-8.202192143823478
 30
0.0
 10
-52.62137182745413
 20
-8.308476529054165
 30
0.0
 10
-51.52944613910059
 20
-8.457089776058933
 30
0.0
 10
-50.69824465077774
 20
-8.584689486555543
 30
0.0
 10
-50.22974224070202
 20
-8.656610401920187
 30
0.0
1001
PE_URL
1000

  0
SPLINE
  5
1F8
330
1F
100
AcDbEntity
  8
0
  6
Continuous
 62
     1
370
    15
100
AcDbSpline
210
0.0
220
0.0
230
1.0
 70
     8
 71
     3
 72
    17
 73
    13
 74
     0
 42
0.000000001
 43
0.00000001
 40
0.0
 40
0.0
 40
0.0
 40
0.0
 40
0.1438166792629554
 40
0.2532239681021736
 40
0.3354295886310488
 40
0.4035174041493021
 40
0.4682716376158529
 40
0.5386439529108435
 40
0.6141347550382197
 40
0.7474509458094604
 40
0.88718661132105
 40
1.0
 40
1.0
 40
1.0
 40
1.0
 10
-50.22974224070202
 20
8.656610401920158
 30
0.0
 10
-50.63072837244039
 20
8.594497510745946
 30
0.0
 10
-51.33676121893014
 20
8.485132777433783
 30
0.0
 10
-52.30992811394083
 20
8.350124610126443
 30
0.0
 10
-53.0794994859635
 20
8.249791778095286
 30
0.0
 10
-53.69545706755585
 20
8.173964760779981
 30
0.0
 10
-54.2323512682002
 20
8.109885980273603
 30
0.0
 10
-54.85794140250457
 20
8.041164946323136
 30
0.0
 10
-55.68067166127943
 20
7.956511452988273
 30
0.0
 10
-56.69048405554302
 20
7.86368069966743
 30
0.0
 10
-57.76843934100835
 20
7.777260334375597
 30
0.0
 10
-58.49877225218947
 20
7.733672717990643
 30
0.0
 10
-58.82501117174584
 20
7.714202177011643
 30
0.0
1001
PE_URL
1000

  0
SPLINE
  5
1F9
330
1F
100
AcDbEntity
  8
0
  6
Continuous
 62
     1
370
    15
100
AcDbSpline
210
0.0
220
0.0
230
1.0
 70
     8
 71
     3
 72
    14
 73
    10
 74
     0
 42
0.000000001
 43
0.00000001
 40
0.0
 40
0.0
 40
0.0
 40
0.0
 40
0.2363741960931959
 40
0.4244064517571148
 40
0.5660188732556803
 40
0.6522799822078172
 40
0.7505446055853621
 40
0.8656883340098201
 40
1.0
 40
1.0
 40
1.0
 40
1.0
 10
-33.33750000000003
 20
9.003018365940264
 30
0.0
 10
-33.94725115865842
 20
8.995856238802858
 30
0.0
 10
-35.04205054868557
 20
8.982996743072533
 30
0.0
 10
-36.51822149665293
 20
8.994573687362479
 30
0.0
 10
-37.60954943293262
 20
9.01330500853543
 30
0.0
 10
-38.46636971576022
 20
9.028935701545798
 30
0.0
 10
-39.24265373684808
 20
9.056214613541378
 30
0.0
 10
-40.09799539714133
 20
9.097637039151518
 30
0.0
 10
-40.67721155160082
 20
9.128938959205534
 30
0.0
 10
-40.9890728639466
 20
9.145792525515503
 30
0.0
1001
PE_URL
1000

  0
LINE
  5
1FA
330
1F
100
AcDbEntity
  8
외형선
  6
Continuous
370
    15
100
AcDbLine
 10
-27.89402700723835
 20
-12.70000000000001
 30
0.0
 11
-27.89402700723836
 21
12.69999999999999
 31
0.0
  0
SPLINE
  5
1FB
330
1F
100
AcDbEntity
  8
외형선
  6
Continuous
370
    15
100
AcDbSpline
210
0.0
220
0.0
230
1.0
 70
     8
 71
     3
 72
     8
 73
     4
 74
     0
 42
0.000000001
 43
0.00000001
 40
0.0
 40
0.0
 40
0.0
 40
0.0
 40
1.0
 40
1.0
 40
1.0
 40
1.0
 10
-32.33750000000003
 20
-8.803174589435056
 30
0.0
 10
-31.65199186266798
 20
-9.147896282099627
 30
0.0
 10
-30.96858611912636
 20
-9.489546132501065
 30
0.0
 10
-30.28726563456206
 20
-9.827585426015968
 30
0.0
  0
LINE
  5
1FC
330
1F
100
AcDbEntity
  8
외형선
  6
Continuous
370
    15
100
AcDbLine
 10
-32.33750000000003
 20
-8.803174589435056
 30
0.0
 11
-32.33750000000003
 21
-6.413131733812957
 31
0.0
  0
SPLINE
  5
1FD
330
1F
100
AcDbEntity
  8
외형선
  6
Continuous
370
    15
100
AcDbSpline
210
0.0
220
0.0
230
1.0
 70
     8
 71
     3
 72
     8
 73
     4
 74
     0
 42
0.000000001
 43
0.00000001
 40
0.0
 40
0.0
 40
0.0
 40
0.0
 40
1.0
 40
1.0
 40
1.0
 40
1.0
 10
-30.28738552474924
 20
-7.553713684018685
 30
0.0
 10
-30.97159339367816
 20
-7.177092581427363
 30
0.0
 10
-31.65493713613315
 20
-6.796878366271198
 30
0.0
 10
-32.33750000000003
 20
-6.413131733812957
 30
0.0
  0
LINE
  5
1FE
330
1F
100
AcDbEntity
  8
외형선
  6
Continuous
370
    15
100
AcDbLine
 10
-30.28738552474925
 20
12.05870151803479
 30
0.0
 11
-30.28738552474924
 21
-7.553859454716982
 31
0.0
  0
SPLINE
  5
1FF
330
1F
100
AcDbEntity
  8
외형선
  6
Continuous
370
    15
100
AcDbSpline
210
0.0
220
0.0
230
1.0
 70
     8
 71
     3
 72
     9
 73
     5
 74
     0
 42
0.000000001
 43
0.00000001
 40
0.0
 40
0.0
 40
0.0
 40
0.0
 40
0.3524088293499116
 40
1.0
 40
1.0
 40
1.0
 40
1.0
 10
-31.86996423279211
 20
9.037563478188265
 30
0.0
 10
-31.683575653171
 20
9.131114956836104
 30
0.0
 10
-31.15467693072715
 20
9.396577881872378
 30
0.0
 10
-30.62820451959931
 20
9.658176482193543
 30
0.0
 10
-30.28726563456206
 20
9.827585426015947
 30
0.0
  0
LINE
  5
200
330
1F
100
AcDbEntity
  8
외형선
  6
Continuous
370
    15
100
AcDbLine
 10
-30.28738552474924
 20
-9.82770893477031
 30
0.0
 11
-30.28738552474925
 21
-12.05870151803482
 31
0.0
  0
SPLINE
  5
201
330
1F
100
AcDbEntity
  8
외형선
  6
Continuous
370
    15
100
AcDbSpline
210
0.0
220
0.0
230
1.0
 70
    24
 71
     3
 72
    10
 73
     6
 74
     0
 42
0.000000001
 43
0.00000001
 40
0.0
 40
0.0
 40
0.0
 40
0.0
 40
0.5
 40
0.5
 40
1.0
 40
1.0
 40
1.0
 40
1.0
 10
-33.33750000000003
 20
-5.925083199556799
 30
0.0
 10
-33.33750000000003
 20
-5.778365679924089
 30
0.0
 10
-33.33750000000003
 20
-5.511961382368273
 30
0.0
 10
-33.33750000000003
 20
-4.792272409760418
 30
0.0
 10
-33.33750000000003
 20
-4.341620345708979
 30
0.0
 10
-33.33750000000003
 20
-3.860139730417796
 30
0.0
  0
SPLINE
  5
202
330
1F
100
AcDbEntity
  8
외형선
  6
Continuous
370
    15
100
AcDbSpline
210
0.0
220
0.0
230
1.0
 70
     8
 71
     3
 72
    10
 73
     6
 74
     0
 42
0.000000001
 43
0.00000001
 40
0.0
 40
0.0
 40
0.0
 40
0.0
 40
0.5000000000000001
 40
0.5000000000000001
 40
1.0
 40
1.0
 40
1.0
 40
1.0
 10
-33.33750000000005
 20
-3.860139730417789
 30
0.0
 10
-32.82971838856817
 20
-4.040400995276169
 30
0.0
 10
-32.32357067611777
 20
-4.216712263734028
 30
0.0
 10
-31.3058680817565
 20
-4.561389933199916
 30
0.0
 10
-30.79600162073449
 20
-4.729552898900852
 30
0.0
 10
-30.28735663950046
 20
-4.89280413674469
 30
0.0
  0
SPLINE
  5
203
330
1F
100
AcDbEntity
  8
외형선
  6
Continuous
370
    15
100
AcDbSpline
210
0.0
220
0.0
230
1.0
 70
     8
 71
     3
 72
     8
 73
     4
 74
     0
 42
0.000000001
 43
0.00000001
 40
0.0
 40
0.0
 40
0.0
 40
0.0
 40
1.0
 40
1.0
 40
1.0
 40
1.0
 10
-32.33750000000003
 20
-6.413131733812957
 30
0.0
 10
-32.67131271011543
 20
-6.253002340215776
 30
0.0
 10
-33.00376109798826
 20
-6.09039463459214
 30
0.0
 10
-33.33750000000003
 20
-5.925083199556799
 30
0.0
  0
SPLINE
  5
204
330
1F
100
AcDbEntity
  8
외형선
  6
Continuous
370
    15
100
AcDbSpline
210
0.0
220
0.0
230
1.0
 70
     8
 71
     3
 72
     8
 73
     4
 74
     0
 42
0.000000001
 43
0.00000001
 40
0.0
 40
0.0
 40
0.0
 40
0.0
 40
1.0
 40
1.0
 40
1.0
 40
1.0
 10
-33.33750000000018
 20
-8.419726758111164
 30
0.0
 10
-33.00376109798836
 20
-8.551192621327584
 30
0.0
 10
-32.67131271011547
 20
-8.678949646859106
 30
0.0
 10
-32.33750000000003
 20
-8.803174589435056
 30
0.0
  0
LINE
  5
205
330
1F
100
AcDbEntity
  8
외형선
  6
Continuous
370
    15
100
AcDbLine
 10
-33.33750000000003
 20
-8.41972675811122
 30
0.0
 11
-33.33750000000003
 21
-5.925083199556799
 31
0.0
  0
SPLINE
  5
206
330
1F
100
AcDbEntity
  8
외형선
  6
Continuous
370
    15
100
AcDbSpline
210
0.0
220
0.0
230
1.0
 70
     8
 71
     3
 72
    10
 73
     6
 74
     0
 42
0.000000001
 43
0.00000001
 40
0.0
 40
0.0
 40
0.0
 40
0.0
 40
0.4999999999999999
 40
0.4999999999999999
 40
1.0
 40
1.0
 40
1.0
 40
1.0
 10
-33.33750000000003
 20
8.081828088050884
 30
0.0
 10
-32.82971591012657
 20
7.969372291704577
 30
0.0
 10
-32.3235657186994
 20
7.849170681846726
 30
0.0
 10
-31.30585813719886
 20
7.593262476506084
 30
0.0
 10
-30.79598918362415
 20
7.457676139925201
 30
0.0
 10
-30.28734174356702
 20
7.315055335568413
 30
0.0
  0
SPLINE
  5
207
330
1F
100
AcDbEntity
  8
외형선
  6
Continuous
370
    15
100
AcDbSpline
210
0.0
220
0.0
230
1.0
 70
    24
 71
     3
 72
    14
 73
    10
 74
     0
 42
0.000000001
 43
0.00000001
 40
0.0
 40
0.0
 40
0.0
 40
0.0
 40
0.2499999999999998
 40
0.2499999999999998
 40
0.4999999999999999
 40
0.4999999999999999
 40
0.75
 40
0.75
 40
1.0
 40
1.0
 40
1.0
 40
1.0
 10
-33.33750000000002
 20
-3.860139730417796
 30
0.0
 10
-33.33750000000002
 20
-2.881750136543548
 30
0.0
 10
-33.33750000000002
 20
-1.836790494841377
 30
0.0
 10
-33.33750000000002
 20
0.3006963576729724
 30
0.0
 10
-33.33750000000002
 20
1.392276951124664
 30
0.0
 10
-33.33750000000002
 20
3.514708932655363
 30
0.0
 10
-33.33750000000002
 20
4.544429400239501
 30
0.0
 10
-33.33750000000002
 20
6.446209185792085
 30
0.0
 10
-33.33750000000002
 20
7.317652949693745
 30
0.0
 10
-33.33750000000002
 20
8.081828088050873
 30
0.0
  0
SPLINE
  5
208
330
1F
100
AcDbEntity
  8
외형선
  6
Continuous
370
    15
100
AcDbSpline
210
0.0
220
0.0
230
1.0
 70
    24
 71
     3
 72
    10
 73
     6
 74
     0
 42
0.000000001
 43
0.00000001
 40
0.0
 40
0.0
 40
0.0
 40
0.0
 40
0.034994735145659
 40
0.6789590622389181
 40
0.9999999999999999
 40
0.9999999999999999
 40
0.9999999999999999
 40
0.9999999999999999
 10
-33.33750000000003
 20
-8.993798199703495
 30
0.0
 10
-33.33750000000003
 20
-8.996822579947686
 30
0.0
 10
-33.33750000000002
 20
-9.055500845861228
 30
0.0
 10
-33.33750000000003
 20
-8.910935660420545
 30
0.0
 10
-33.33750000000003
 20
-8.620956588073089
 30
0.0
 10
-33.33750000000003
 20
-8.524485452932108
 30
0.0
  0
SPLINE
  5
209
330
1F
100
AcDbEntity
  8
외형선
  6
Continuous
370
    15
100
AcDbSpline
210
0.0
220
0.0
230
1.0
 70
    24
 71
     3
 72
    10
 73
     6
 74
     0
 42
0.000000001
 43
0.00000001
 40
0.0
 40
0.0
 40
0.0
 40
0.0
 40
0.2937544604858656
 40
0.5913258321403677
 40
1.0
 40
1.0
 40
1.0
 40
1.0
 10
-33.33750000000003
 20
8.081828088050884
 30
0.0
 10
-33.33750000000003
 20
8.244796201516834
 30
0.0
 10
-33.33750000000002
 20
8.572849961613649
 30
0.0
 10
-33.33750000000003
 20
8.9222178029726
 30
0.0
 10
-33.33750000000003
 20
8.96756628852842
 30
0.0
 10
-33.33750000000003
 20
8.993807522718683
 30
0.0
  0
SPLINE
  5
20A
330
1F
100
AcDbEntity
  8
0
  6
Continuous
 62
     1
370
    15
100
AcDbSpline
210
0.0
220
0.0
230
1.0
 70
     8
 71
     3
 72
    50
 73
    46
 74
     0
 42
0.000000001
 43
0.00000001
 40
0.0
 40
0.0
 40
0.0
 40
0.0
 40
0.0624999999999998
 40
0.0624999999999998
 40
0.0937499999999998
 40
0.0937499999999998
 40
0.1249999999999997
 40
0.1249999999999997
 40
0.1874999999999997
 40
0.1874999999999997
 40
0.2187499999999998
 40
0.2187499999999998
 40
0.2499999999999999
 40
0.2499999999999999
 40
0.3124999999999998
 40
0.3124999999999998
 40
0.3437499999999997
 40
0.3437499999999997
 40
0.3749999999999997
 40
0.3749999999999997
 40
0.4374999999999998
 40
0.4374999999999998
 40
0.4999999999999999
 40
0.4999999999999999
 40
0.5625
 40
0.5625
 40
0.59375
 40
0.59375
 40
0.6250000000000002
 40
0.6250000000000002
 40
0.6875
 40
0.6875
 40
0.75
 40
0.75
 40
0.8124999999999996
 40
0.8124999999999996
 40
0.8437499999999997
 40
0.8437499999999997
 40
0.8749999999999998
 40
0.8749999999999998
 40
0.9062499999999998
 40
0.9062499999999998
 40
0.9374999999999999
 40
0.9374999999999999
 40
1.0
 40
1.0
 40
1.0
 40
1.0
 10
-33.33750000000003
 20
-5.925083199556799
 30
0.0
 10
-34.19642236251367
 20
-5.499631783868747
 30
0.0
 10
-35.06063407579775
 20
-5.056719758862069
 30
0.0
 10
-36.34866986160885
 20
-4.374477419021535
 30
0.0
 10
-36.77668170966652
 20
-4.144095069195142
 30
0.0
 10
-37.63695617183247
 20
-3.677110126459471
 30
0.0
 10
-38.06800806511832
 20
-3.44072014133533
 30
0.0
 10
-39.35984870416193
 20
-2.725075676456971
 30
0.0
 10
-40.21550614385158
 20
-2.24007489378916
 30
0.0
 10
-41.50720627154575
 20
-1.503694048878913
 30
0.0
 10
-41.93827853597701
 20
-1.256915058446296
 30
0.0
 10
-42.79872773164244
 20
-0.762270670564277
 30
0.0
 10
-43.22692703324279
 20
-0.5146329755308372
 30
0.0
 10
-44.51454271453473
 20
0.2294166368178772
 30
0.0
 10
-45.37874186268864
 20
0.7273047820480691
 30
0.0
 10
-46.66750859401145
 20
1.467575718880912
 30
0.0
 10
-47.09529654130408
 20
1.713138362976267
 30
0.0
 10
-47.95520952347198
 20
2.202358759457159
 30
0.0
 10
-48.38620554931457
 20
2.445798516151996
 30
0.0
 10
-49.67825495313457
 20
3.170305886803124
 30
0.0
 10
-50.53402084711428
 20
3.644765286275284
 30
0.0
 10
-52.25586696372991
 20
4.572615616258155
 30
0.0
 10
-53.1169860799628
 20
5.025068400113675
 30
0.0
 10
-54.83269147408447
 20
5.898361426877884
 30
0.0
 10
-55.69683117152775
 20
6.320786672971529
 30
0.0
 10
-56.98625986927345
 20
6.925114743688322
 30
0.0
 10
-57.41398782127868
 20
7.121550449052084
 30
0.0
 10
-58.2734932057642
 20
7.504839472749133
 30
0.0
 10
-58.70441011893135
 20
7.691550534493153
 30
0.0
 10
-59.99659872009343
 20
8.23508944054613
 30
0.0
 10
-60.85261426967085
 20
8.57471277237314
 30
0.0
 10
-62.57394706846576
 20
9.20550261745339
 30
0.0
 10
-63.43637671802142
 20
9.496203539084554
 30
0.0
 10
-65.1508750995686
 20
10.02201486492793
 30
0.0
 10
-66.01490847151439
 20
10.25831634656868
 30
0.0
 10
-67.30493003809883
 20
10.5682934891103
 30
0.0
 10
-67.73276191101934
 20
10.66415470684662
 30
0.0
 10
-68.59181365313246
 20
10.84113938733251
 30
0.0
 10
-69.02262822263128
 20
10.92221485794889
 30
0.0
 10
-69.88413369335223
 20
11.06898004786947
 30
0.0
 10
-70.31482270660564
 20
11.13466945176157
 30
0.0
 10
-71.17337484284678
 20
11.25030291038647
 30
0.0
 10
-71.60147453430801
 20
11.30027625127452
 30
0.0
 10
-72.89201976595733
 20
11.42668188231086
 30
0.0
 10
-73.75589995692044
 20
11.47926666595144
 30
0.0
 10
-74.61250000000004
 20
11.49964745153366
 30
0.0
1001
PE_URL
1000

  0
SPLINE
  5
20B
330
1F
100
AcDbEntity
  8
0
  6
Continuous
 62
     1
370
    15
100
AcDbSpline
210
0.0
220
0.0
230
1.0
 70
     8
 71
     3
 72
    11
 73
     7
 74
     0
 42
0.000000001
 43
0.00000001
 40
0.0
 40
0.0
 40
0.0
 40
0.0
 40
0.0747811382855726
 40
0.3662674599871663
 40
0.6831619514933647
 40
1.0
 40
1.0
 40
1.0
 40
1.0
 10
-46.01098304502763
 20
1.088277159752046
 30
0.0
 10
-45.69507719964351
 20
0.96313859740712
 30
0.0
 10
-44.14781495896875
 20
0.3502275823127725
 30
0.0
 10
-41.26192201269497
 20
-0.8272565490716843
 30
0.0
 10
-37.35316141673543
 20
-2.389635501447483
 30
0.0
 10
-34.67597432490366
 20
-3.370000759304265
 30
0.0
 10
-33.33750000000005
 20
-3.860139730417789
 30
0.0
1001
PE_URL
1000

  0
SPLINE
  5
20C
330
1F
100
AcDbEntity
  8
외형선
  6
Continuous
370
    15
100
AcDbSpline
210
0.0
220
0.0
230
1.0
 70
    24
 71
     3
 72
    10
 73
     6
 74
     0
 42
0.000000001
 43
0.00000001
 40
0.0
 40
0.0
 40
0.0
 40
0.0
 40
0.5
 40
0.5
 40
1.0
 40
1.0
 40
1.0
 40
1.0
 10
-33.33750000000003
 20
-5.925083199556791
 30
0.0
 10
-33.33750000000003
 20
-5.778365679924082
 30
0.0
 10
-33.33750000000003
 20
-5.511961382368273
 30
0.0
 10
-33.33750000000003
 20
-4.792272409760418
 30
0.0
 10
-33.33750000000003
 20
-4.341620345708979
 30
0.0
 10
-33.33750000000003
 20
-3.860139730417789
 30
0.0
  0
SPLINE
  5
20D
330
1F
100
AcDbEntity
  8
0
  6
Continuous
 62
     1
370
    15
100
AcDbSpline
210
0.0
220
0.0
230
1.0
 70
     8
 71
     3
 72
    50
 73
    46
 74
     0
 42
0.000000001
 43
0.00000001
 40
0.0
 40
0.0
 40
0.0
 40
0.0
 40
0.0624999999999996
 40
0.0624999999999996
 40
0.0937499999999994
 40
0.0937499999999994
 40
0.1249999999999993
 40
0.1249999999999993
 40
0.1562499999999991
 40
0.1562499999999991
 40
0.1874999999999989
 40
0.1874999999999989
 40
0.2499999999999989
 40
0.2499999999999989
 40
0.3124999999999992
 40
0.3124999999999992
 40
0.3749999999999995
 40
0.3749999999999995
 40
0.4062499999999996
 40
0.4062499999999996
 40
0.4374999999999998
 40
0.4374999999999998
 40
0.4999999999999998
 40
0.4999999999999998
 40
0.5624999999999998
 40
0.5624999999999998
 40
0.6249999999999999
 40
0.6249999999999999
 40
0.6562499999999999
 40
0.6562499999999999
 40
0.6874999999999999
 40
0.6874999999999999
 40
0.75
 40
0.75
 40
0.78125
 40
0.78125
 40
0.8125
 40
0.8125
 40
0.875
 40
0.875
 40
0.90625
 40
0.90625
 40
0.9375
 40
0.9375
 40
1.0
 40
1.0
 40
1.0
 40
1.0
 10
-74.61250000000003
 20
10.92171631681588
 30
0.0
 10
-73.75589995692039
 20
10.7653086941771
 30
0.0
 10
-72.89201976595719
 20
10.57792880941615
 30
0.0
 10
-71.60147453430778
 20
10.25372067843218
 30
0.0
 10
-71.1733748428465
 20
10.13860313649446
 30
0.0
 10
-70.3148227066053
 20
9.89420116739739
 30
0.0
 10
-69.88413369335186
 20
9.764877502605081
 30
0.0
 10
-69.02262822263084
 20
9.49274906132569
 30
0.0
 10
-68.591813653132
 20
9.349944875760112
 30
0.0
 10
-67.73276191101881
 20
9.05179013436247
 30
0.0
 10
-67.30493003809826
 20
8.896503650630496
 30
0.0
 10
-66.01490847151369
 20
8.411571429601153
 30
0.0
 10
-65.15087509956783
 20
8.063302484616997
 30
0.0
 10
-63.43637671802054
 20
7.325661433428849
 30
0.0
 10
-62.57394706846482
 20
6.934601742849807
 30
0.0
 10
-60.8526142696698
 20
6.116468117513456
 30
0.0
 10
-59.99659872009229
 20
5.689936693953278
 30
0.0
 10
-58.70441011893011
 20
5.026772103230581
 30
0.0
 10
-58.27349320576293
 20
4.802015670026236
 30
0.0
 10
-57.41398782127736
 20
4.34652591690832
 30
0.0
 10
-56.98625986927209
 20
4.115953548237673
 30
0.0
 10
-55.69683117152627
 20
3.414995200968058
 30
0.0
 10
-54.83269147408292
 20
2.935999184280938
 30
0.0
 10
-53.11698607996114
 20
1.966645162618722
 30
0.0
 10
-52.25586696372815
 20
1.474508706383197
 30
0.0
 10
-50.5340208471124
 20
0.4848143231225031
 30
0.0
 10
-49.67825495313261
 20
-0.0117777396991698
 30
0.0
 10
-48.38620554931251
 20
-0.7561537491858523
 30
0.0
 10
-47.95520952346988
 20
-1.003983654420111
 30
0.0
 10
-47.09529654130193
 20
-1.497498869316018
 30
0.0
 10
-46.66750859400926
 20
-1.742970461120198
 30
0.0
 10
-45.37874186268634
 20
-2.476258326735159
 30
0.0
 10
-44.51454271453238
 20
-2.960495836752816
 30
0.0
 10
-43.22692703324034
 20
-3.670844629196854
 30
0.0
 10
-42.79872773163997
 20
-3.905052708532924
 30
0.0
 10
-41.93827853597445
 20
-4.36842845281954
 30
0.0
 10
-41.50720627154317
 20
-4.597377761828536
 30
0.0
 10
-40.2155061438489
 20
-5.273846249157305
 30
0.0
 10
-39.35984870415916
 20
-5.710416003823251
 30
0.0
 10
-38.06800806511544
 20
-6.340975542718201
 30
0.0
 10
-37.63695617182957
 20
-6.546946681073916
 30
0.0
 10
-36.77668170966356
 20
-6.94917495846671
 30
0.0
 10
-36.34866986160587
 20
-7.145254838539504
 30
0.0
 10
-35.06063407579465
 20
-7.718767162265916
 30
0.0
 10
-34.1964223625105
 20
-8.081381515340237
 30
0.0
 10
-33.33749999999681
 20
-8.4197267581125
 30
0.0
1001
PE_URL
1000

  0
SPLINE
  5
20E
330
1F
100
AcDbEntity
  8
0
  6
Continuous
 62
     1
370
    15
100
AcDbSpline
210
0.0
220
0.0
230
1.0
 70
     8
 71
     3
 72
    16
 73
    12
 74
     0
 42
0.000000001
 43
0.00000001
 40
0.0
 40
0.0
 40
0.0
 40
0.0
 40
0.1236419926563995
 40
0.2472916856175944
 40
0.3709480047851156
 40
0.494609872336712
 40
0.6182762073282999
 40
0.7419459262996662
 40
0.8656179438832082
 40
0.9892911734149766
 40
1.0
 40
1.0
 40
1.0
 40
1.0
 10
-74.61250000000003
 20
9.080577655212927
 30
0.0
 10
-73.38150377485347
 20
8.825695158385656
 30
0.0
 10
-70.91943465929532
 20
8.315914290893517
 30
0.0
 10
-67.22618211452027
 20
7.183298163092328
 30
0.0
 10
-63.53270509313819
 20
5.827144143015566
 30
0.0
 10
-59.83903701443536
 20
4.265267212735765
 30
0.0
 10
-56.14521591068461
 20
2.559849220981384
 30
0.0
 10
-52.45127864681285
 20
0.7630098550883311
 30
0.0
 10
-48.75726267495003
 20
-1.047388925124068
 30
0.0
 10
-46.18793942845613
 20
-2.314003190903033
 30
0.0
 10
-44.84996062127165
 20
-2.920116942103942
 30
0.0
 10
-44.74333788134183
 20
-2.968417788511349
 30
0.0
1001
PE_URL
1000

  0
LINE
  5
20F
330
1F
100
AcDbEntity
  8
0
  6
Continuous
 62
     1
370
    15
100
AcDbLine
 10
-74.61249999999976
 20
10.92171631681589
 30
0.0
 11
-74.61250000000003
 21
9.080577655212927
 31
0.0
1001
PE_URL
1000

  0
LINE
  5
210
330
1F
100
AcDbEntity
  8
0
  6
Continuous
 62
     1
370
    15
100
AcDbLine
 10
-74.61250000000003
 20
11.49964745153367
 30
0.0
 11
-74.6124999999997
 21
10.92171631681586
 31
0.0
1001
PE_URL
1000

  0
SPLINE
  5
211
330
1F
100
AcDbEntity
  8
0
  6
Continuous
 62
     1
370
    15
100
AcDbSpline
210
0.0
220
0.0
230
1.0
 70
     8
 71
     3
 72
    10
 73
     6
 74
     0
 42
0.000000001
 43
0.00000001
 40
0.0
 40
0.0
 40
0.0
 40
0.0
 40
0.5
 40
0.5
 40
1.0
 40
1.0
 40
1.0
 40
1.0
 10
-74.61250000000003
 20
3.075799281959931
 30
0.0
 10
-73.75837612722921
 20
2.404317664218581
 30
0.0
 10
-72.91463343762358
 20
1.713816985881476
 30
0.0
 10
-71.24760647325002
 20
0.295334368612906
 30
0.0
 10
-70.4243113718025
 20
-0.4326277350769985
 30
0.0
 10
-69.61250000000004
 20
-1.181628842366955
 30
0.0
1001
PE_URL
1000

  0
LINE
  5
212
330
1F
100
AcDbEntity
  8
0
  6
Continuous
 62
     1
370
    15
100
AcDbLine
 10
-69.61250000000003
 20
-2.937719435296604
 30
0.0
 11
-74.61250000000003
 21
-0.0000000000000178
 31
0.0
1001
PE_URL
1000

  0
LINE
  5
213
330
1F
100
AcDbEntity
  8
0
  6
Continuous
 62
     1
370
    15
100
AcDbLine
 10
-74.61250000000003
 20
-0.0000000000000178
 30
0.0
 11
-74.61250000000003
 21
3.075799281959927
 31
0.0
1001
PE_URL
1000

  0
SPLINE
  5
214
330
1F
100
AcDbEntity
  8
0
  6
Continuous
 62
     1
370
    15
100
AcDbSpline
210
0.0
220
0.0
230
1.0
 70
     8
 71
     3
 72
    16
 73
    12
 74
     0
 42
0.000000001
 43
0.00000001
 40
0.0
 40
0.0
 40
0.0
 40
0.0
 40
0.1061981579461432
 40
0.2124110979671127
 40
0.3414465746489768
 40
0.470486777953242
 40
0.5995305616358241
 40
0.7285767774288913
 40
0.8576242756891328
 40
0.9866719060476871
 40
1.0
 40
1.0
 40
1.0
 40
1.0
 10
-69.61250000000004
 20
-2.28538561878884
 30
0.0
 10
-68.59929164029103
 20
-2.733664666459998
 30
0.0
 10
-66.57273388903141
 20
-3.630285159253955
 30
0.0
 10
-63.31509763475847
 20
-4.965983169698863
 30
0.0
 10
-59.83903652135473
 20
-6.251981811622311
 30
0.0
 10
-56.14525411686785
 20
-7.403752603666216
 30
0.0
 10
-52.4513124408101
 20
-8.299943904661259
 30
0.0
 10
-48.75731494459535
 20
-8.92127200208203
 30
0.0
 10
-45.06322696491914
 20
-9.20219261592609
 30
0.0
 10
-42.47343755839312
 20
-9.269884220594175
 30
0.0
 10
-41.1148277488073
 20
-9.141868123609871
 30
0.0
 10
-40.98764539890644
 20
-9.129884264870793
 30
0.0
1001
PE_URL
1000

  0
SPLINE
  5
215
330
1F
100
AcDbEntity
  8
0
  6
Continuous
 62
     1
370
    15
100
AcDbSpline
210
0.0
220
0.0
230
1.0
 70
    24
 71
     3
 72
     8
 73
     4
 74
     0
 42
0.000000001
 43
0.00000001
 40
0.0
 40
0.0
 40
0.0
 40
0.0
 40
1.0
 40
1.0
 40
1.0
 40
1.0
 10
-69.61250000000004
 20
-1.181628842338025
 30
0.0
 10
-69.61250000000004
 20
-1.55387739600193
 30
0.0
 10
-69.61250000000004
 20
-1.92244855851861
 30
0.0
 10
-69.61250000000004
 20
-2.285385618788847
 30
0.0
1001
PE_URL
1000

  0
SPLINE
  5
216
330
1F
100
AcDbEntity
  8
0
  6
Continuous
 62
     1
370
    15
100
AcDbSpline
210
0.0
220
0.0
230
1.0
 70
    24
 71
     3
 72
    10
 73
     6
 74
     0
 42
0.000000001
 43
0.00000001
 40
0.0
 40
0.0
 40
0.0
 40
0.0
 40
0.5
 40
0.5
 40
1.0
 40
1.0
 40
1.0
 40
1.0
 10
-74.61250000000003
 20
9.08057765521292
 30
0.0
 10
-74.61250000000003
 20
8.384480580315653
 30
0.0
 10
-74.61250000000003
 20
7.504935235085998
 30
0.0
 10
-74.61250000000003
 20
5.460076954224846
 30
0.0
 10
-74.61250000000003
 20
4.296535352368657
 30
0.0
 10
-74.61250000000003
 20
3.0757992819603
 30
0.0
1001
PE_URL
1000

  0
SPLINE
  5
217
330
1F
100
AcDbEntity
  8
외형선
  6
Continuous
370
    15
100
AcDbSpline
210
0.0
220
0.0
230
1.0
 70
    24
 71
     3
 72
    10
 73
     6
 74
     0
 42
0.000000001
 43
0.00000001
 40
0.0
 40
0.0
 40
0.0
 40
0.0
 40
0.0390535827799801
 40
0.6803171936872869
 40
1.0
 40
1.0
 40
1.0
 40
1.0
 10
-33.33750000000003
 20
-8.992753492903471
 30
0.0
 10
-33.33750000000003
 20
-8.996160372204177
 30
0.0
 10
-33.33750000000003
 20
-9.055508539519497
 30
0.0
 10
-33.33750000000003
 20
-8.911052683668498
 30
0.0
 10
-33.33750000000003
 20
-8.62099153318037
 30
0.0
 10
-33.33750000000003
 20
-8.524495452932111
 30
0.0
  0
SPLINE
  5
218
330
1F
100
AcDbEntity
  8
0
  6
Continuous
 62
     1
370
    15
100
AcDbSpline
210
0.0
220
0.0
230
1.0
 70
    24
 71
     3
 72
    10
 73
     6
 74
     0
 42
0.000000001
 43
0.00000001
 40
0.0
 40
0.0
 40
0.0
 40
0.0
 40
0.5
 40
0.5
 40
1.0
 40
1.0
 40
1.0
 40
1.0
 10
-69.61250000000001
 20
-2.285385618788855
 30
0.0
 10
-69.61250000000001
 20
-3.124137972101121
 30
0.0
 10
-69.61250000000001
 20
-3.919900563583393
 30
0.0
 10
-69.6125
 20
-5.332560942253703
 30
0.0
 10
-69.61250000000001
 20
-5.948439145939144
 30
0.0
 10
-69.61250000000001
 20
-6.43891672264613
 30
0.0
1001
PE_URL
1000

  0
SPLINE
  5
219
330
1F
100
AcDbEntity
  8
0
  6
Continuous
 62
     1
370
    15
100
AcDbSpline
210
0.0
220
0.0
230
1.0
 70
     8
 71
     3
 72
     9
 73
     5
 74
     0
 42
0.000000001
 43
0.00000001
 40
0.0
 40
0.0
 40
0.0
 40
0.0
 40
0.8629194303725491
 40
1.0
 40
1.0
 40
1.0
 40
1.0
 10
-74.61250000000003
 20
-8.056562500000009
 30
0.0
 10
-73.38150737052258
 20
-8.049581364713543
 30
0.0
 10
-71.95496326205816
 20
-8.041491229017492
 30
0.0
 10
-70.52840484602336
 20
-7.876355982442806
 30
0.0
 10
-70.33285140574648
 20
-7.853719148776779
 30
0.0
1001
PE_URL
1000

  0
SPLINE
  5
21A
330
1F
100
AcDbEntity
  8
0
  6
Continuous
 62
     1
370
    15
100
AcDbSpline
210
0.0
220
0.0
230
1.0
 70
     8
 71
     3
 72
     8
 73
     4
 74
     0
 42
0.000000001
 43
0.00000001
 40
0.0
 40
0.0
 40
0.0
 40
0.0
 40
1.0
 40
1.0
 40
1.0
 40
1.0
 10
-74.61250000000003
 20
-8.056562500000016
 30
0.0
 10
-72.93065633592212
 20
-7.600589040958038
 30
0.0
 10
-71.26175796193765
 20
-7.065928614174116
 30
0.0
 10
-69.61250000000004
 20
-6.43891672264613
 30
0.0
1001
PE_URL
1000

  0
SPLINE
  5
21B
330
1F
100
AcDbEntity
  8
0
  6
Continuous
 62
     1
370
    15
100
AcDbSpline
210
0.0
220
0.0
230
1.0
 70
     8
 71
     3
 72
    12
 73
     8
 74
     0
 42
0.000000001
 43
0.00000001
 40
0.0
 40
0.0
 40
0.0
 40
0.0
 40
0.0879859512467226
 40
0.3064783930774082
 40
0.5249710585659197
 40
0.7625061322466673
 40
1.0
 40
1.0
 40
1.0
 40
1.0
 10
-50.24489859873005
 20
8.618723562139248
 30
0.0
 10
-49.74903890388515
 20
8.705695123100504
 30
0.0
 10
-48.02182813540945
 20
9.008640125900968
 30
0.0
 10
-45.0632381061272
 20
9.213668057992074
 30
0.0
 10
-41.26193936679212
 20
9.216523167463212
 30
0.0
 10
-37.35314171261037
 20
8.874702183412229
 30
0.0
 10
-34.67596982797238
 20
8.346104168929667
 30
0.0
 10
-33.33750000000003
 20
8.08182808805088
 30
0.0
1001
PE_URL
1000

  0
SPLINE
  5
21C
330
1F
100
AcDbEntity
  8
외형선
  6
Continuous
370
    15
100
AcDbSpline
210
0.0
220
0.0
230
1.0
 70
    24
 71
     3
 72
    14
 73
    10
 74
     0
 42
0.000000001
 43
0.00000001
 40
0.0
 40
0.0
 40
0.0
 40
0.0
 40
0.25
 40
0.25
 40
0.5
 40
0.5
 40
0.75
 40
0.75
 40
1.0
 40
1.0
 40
1.0
 40
1.0
 10
-33.33750000000002
 20
-3.860139730417796
 30
0.0
 10
-33.33750000000002
 20
-2.881750136543541
 30
0.0
 10
-33.33750000000002
 20
-1.836790494841377
 30
0.0
 10
-33.33750000000002
 20
0.3006963576729724
 30
0.0
 10
-33.33750000000002
 20
1.392276951124664
 30
0.0
 10
-33.33750000000002
 20
3.514708932655363
 30
0.0
 10
-33.33750000000002
 20
4.544429400239505
 30
0.0
 10
-33.33750000000002
 20
6.446209185792085
 30
0.0
 10
-33.33750000000002
 20
7.317652949693741
 30
0.0
 10
-33.33750000000002
 20
8.081828088050873
 30
0.0
  0
SPLINE
  5
21D
330
1F
100
AcDbEntity
  8
외형선
  6
Continuous
370
    15
100
AcDbSpline
210
0.0
220
0.0
230
1.0
 70
    24
 71
     3
 72
    10
 73
     6
 74
     0
 42
0.000000001
 43
0.00000001
 40
0.0
 40
0.0
 40
0.0
 40
0.0
 40
0.2946227664900962
 40
0.5930737265200975
 40
1.0
 40
1.0
 40
1.0
 40
1.0
 10
-33.33750000000003
 20
8.081828088050884
 30
0.0
 10
-33.33750000000003
 20
8.244783267513544
 30
0.0
 10
-33.33750000000005
 20
8.572810991545257
 30
0.0
 10
-33.33750000000003
 20
8.921370395711282
 30
0.0
 10
-33.33750000000003
 20
8.966638626279977
 30
0.0
 10
-33.33750000000003
 20
8.99275349290345
 30
0.0
  0
LINE
  5
21E
330
1F
100
AcDbEntity
  8
0
  6
Continuous
 62
     1
370
    15
100
AcDbLine
 10
-74.61250000000003
 20
-0.0000000000000178
 30
0.0
 11
-74.61250000000003
 21
-8.056562500000016
 31
0.0
1001
PE_URL
1000

  0
SPLINE
  5
21F
330
1F
100
AcDbEntity
  8
0
  6
Continuous
 62
     1
370
    15
100
AcDbSpline
210
0.0
220
0.0
230
1.0
 70
    24
 71
     3
 72
    10
 73
     6
 74
     0
 42
0.000000001
 43
0.00000001
 40
0.0
 40
0.0
 40
0.0
 40
0.0
 40
0.5
 40
0.5
 40
1.0
 40
1.0
 40
1.0
 40
1.0
 10
-74.61250000000003
 20
-8.056562500000009
 30
0.0
 10
-74.61250000000003
 20
-8.54493125569169
 30
0.0
 10
-74.61250000000003
 20
-9.112460977617484
 30
0.0
 10
-74.61250000000004
 20
-10.30313680568386
 30
0.0
 10
-74.61250000000003
 20
-10.92324207517758
 30
0.0
 10
-74.61250000000003
 20
-11.49964745153369
 30
0.0
1001
PE_URL
1000

  0
SPLINE
  5
220
330
1F
100
AcDbEntity
  8
0
  6
Continuous
 62
     1
370
    15
100
AcDbSpline
210
0.0
220
0.0
230
1.0
 70
     8
 71
     3
 72
    16
 73
    12
 74
     0
 42
0.000000001
 43
0.00000001
 40
0.0
 40
0.0
 40
0.0
 40
0.0
 40
0.1120253725780414
 40
0.2208121688923087
 40
0.330007110681453
 40
0.4394073057913551
 40
0.5492202577635467
 40
0.6613542338996958
 40
0.7737109746645098
 40
0.8867413732645295
 40
1.0
 40
1.0
 40
1.0
 40
1.0
 10
-58.79036993989995
 20
-7.713966090335344
 30
0.0
 10
-59.38135439113553
 20
-7.966196497775169
 30
0.0
 10
-60.54623834068946
 20
-8.46336550552456
 30
0.0
 10
-62.28626372880896
 20
-9.106256668732303
 30
0.0
 10
-64.01326855519454
 20
-9.684530795149673
 30
0.0
 10
-65.74484997894002
 20
-10.18991693485148
 30
0.0
 10
-67.49277941349777
 20
-10.62205531437609
 30
0.0
 10
-69.25549576792741
 20
-10.9762275384826
 30
0.0
 10
-71.03587182385587
 20
-11.24443333431394
 30
0.0
 10
-72.82167499432335
 20
-11.43034945603918
 30
0.0
 10
-74.01515709502195
 20
-11.47653259340593
 30
0.0
 10
-74.6124999999997
 20
-11.49964745153367
 30
0.0
1001
PE_URL
1000

  0
LINE
  5
24A
330
1F
100
AcDbEntity
  8
외형선
  6
Continuous
370
    15
100
AcDbLine
 10
-6.553199999999947
 20
10.79499999999999
 30
0.0
 11
6.553199999999947
 21
10.79499999999999
 31
0.0
1001
PE_URL
1000

  0
LINE
  5
24B
330
1F
100
AcDbEntity
  8
외형선
  6
Continuous
370
    15
100
AcDbLine
 10
-6.553199999999947
 20
10.795
 30
0.0
 11
-8.45819999999992
 21
12.69999999999999
 31
0.0
1001
PE_URL
1000

  0
LINE
  5
24C
330
1F
100
AcDbEntity
  8
외형선
  6
Continuous
370
    15
100
AcDbLine
 10
6.553199999999947
 20
10.795
 30
0.0
 11
8.458199999999977
 21
12.69999999999999
 31
0.0
1001
PE_URL
1000

  0
LINE
  5
24D
330
1F
100
AcDbEntity
  8
외형선
  6
Continuous
370
    15
100
AcDbLine
 10
-8.458199999999913
 20
12.69999999999999
 30
0.0
 11
-27.89402700723834
 21
12.69999999999999
 31
0.0
  0
ENDSEC
  0
SECTION
  2
OBJECTS
  0
DICTIONARY
  5
C
330
0
100
AcDbDictionary
281
     1
  3
ACAD_DETAILVIEWSTYLE
350
1B9
  3
ACAD_GROUP
350
D
  3
ACAD_LAYOUT
350
1A
  3
ACAD_MLINESTYLE
350
17
  3
ACAD_PLOTSETTINGS
350
19
  3
ACAD_PLOTSTYLENAME
350
E
  3
ACAD_SCALELIST
350
47
  3
ACAD_SECTIONVIEWSTYLE
350
1BA
  3
AcDbVariableDictionary
350
1B4
  3
APPDATA
350
158
  3
DWGPROPS
350
272
  0
DICTIONARY
  5
18E
330
2
100
AcDbDictionary
280
     1
281
     1
  3
ACAD_LAYERSTATES
360
18F
  0
DICTIONARY
  5
1B9
102
{ACAD_REACTORS
330
C
102
}
330
C
100
AcDbDictionary
281
     1
  0
DICTIONARY
  5
D
102
{ACAD_REACTORS
330
C
102
}
330
C
100
AcDbDictionary
281
     1
  0
DICTIONARY
  5
1A
102
{ACAD_REACTORS
330
C
102
}
330
C
100
AcDbDictionary
281
     1
  3
Layout1
350
1E
  3
Layout2
350
26
  3
Model
350
22
  0
DICTIONARY
  5
17
102
{ACAD_REACTORS
330
C
102
}
330
C
100
AcDbDictionary
281
     1
  3
Standard
350
18
  0
DICTIONARY
  5
19
102
{ACAD_REACTORS
330
C
102
}
330
C
100
AcDbDictionary
281
     1
  0
ACDBDICTIONARYWDFLT
  5
E
102
{ACAD_REACTORS
330
C
102
}
330
C
100
AcDbDictionary
281
     1
  3
Normal
350
F
100
AcDbDictionaryWithDefault
340
F
  0
DICTIONARY
  5
47
102
{ACAD_REACTORS
330
C
102
}
330
C
100
AcDbDictionary
281
     1
  3
A0
350
48
  3
A1
350
49
  3
A2
350
4A
  3
A3
350
4B
  3
A4
350
4C
  3
A5
350
4D
  3
A6
350
4E
  3
A7
350
4F
  3
A8
350
50
  3
A9
350
51
  3
B0
350
52
  3
B1
350
53
  3
B2
350
54
  3
B3
350
55
  3
B4
350
56
  3
B5
350
57
  3
B6
350
58
  3
B7
350
59
  3
B8
350
5A
  3
B9
350
5B
  3
C0
350
5C
  3
C1
350
5D
  3
C2
350
5E
  3
C3
350
5F
  3
C4
350
60
  3
C5
350
61
  3
C6
350
62
  3
C7
350
63
  3
C8
350
64
  3
C9
350
65
  3
D0
350
66
  3
D1
350
67
  3
D2
350
68
  0
DICTIONARY
  5
1BA
102
{ACAD_REACTORS
330
C
102
}
330
C
100
AcDbDictionary
281
     1
  0
DICTIONARY
  5
1B4
102
{ACAD_REACTORS
330
C
102
}
330
C
100
AcDbDictionary
281
     1
  0
DICTIONARY
  5
158
102
{ACAD_REACTORS
330
C
102
}
330
C
100
AcDbDictionary
281
     1
  0
XRECORD
  5
272
102
{ACAD_REACTORS
330
C
102
}
330
C
100
AcDbXrecord
280
     1
  1
DWGPROPS COOKIE
  2

  3

  4

  6

  7

  8
120170442
  9

300
=
301
=
302
=
303
=
304
=
305
=
306
=
307
=
308
=
309
=
 40
0.0
 41
2458313.026606609
 42
2458324.11303412
  1

 90
        0
  0
DICTIONARY
  5
18F
102
{ACAD_REACTORS
330
18E
102
}
330
18E
100
AcDbDictionary
281
     1
  0
LAYOUT
  5
1E
102
{ACAD_REACTORS
330
1A
102
}
330
1A
100
AcDbPlotSettings
  1

  2
none_device
  4

  6

 40
0.0
 41
0.0
 42
0.0
 43
0.0
 44
0.0
 45
0.0
 46
0.0
 47
0.0
 48
0.0
 49
0.0
140
0.0
141
0.0
142
1.0
143
1.0
 70
   688
 72
     1
 73
     0
 74
     5
  7

 75
    16
147
1.0
148
0.0
149
0.0
100
AcDbLayout
  1
Layout1
 70
     1
 71
     1
 10
0.0
 20
0.0
 11
420.0
 21
297.0
 12
0.0
 22
0.0
 32
0.0
 14
1.000000000000000E+20
 24
1.000000000000000E+20
 34
1.000000000000000E+20
 15
-1.000000000000000E+20
 25
-1.000000000000000E+20
 35
-1.000000000000000E+20
146
0.0
 13
0.0
 23
0.0
 33
0.0
 16
1.0
 26
0.0
 36
0.0
 17
0.0
 27
1.0
 37
0.0
 76
     0
330
1B
  0
LAYOUT
  5
26
102
{ACAD_REACTORS
330
1A
102
}
330
1A
100
AcDbPlotSettings
  1

  2
none_device
  4

  6

 40
0.0
 41
0.0
 42
0.0
 43
0.0
 44
0.0
 45
0.0
 46
0.0
 47
0.0
 48
0.0
 49
0.0
140
0.0
141
0.0
142
1.0
143
1.0
 70
   688
 72
     1
 73
     0
 74
     5
  7

 75
    16
147
1.0
148
0.0
149
0.0
100
AcDbLayout
  1
Layout2
 70
     1
 71
     2
 10
0.0
 20
0.0
 11
0.0
 21
0.0
 12
0.0
 22
0.0
 32
0.0
 14
0.0
 24
0.0
 34
0.0
 15
0.0
 25
0.0
 35
0.0
146
0.0
 13
0.0
 23
0.0
 33
0.0
 16
1.0
 26
0.0
 36
0.0
 17
0.0
 27
1.0
 37
0.0
 76
     0
330
23
  0
LAYOUT
  5
22
102
{ACAD_REACTORS
330
1A
102
}
330
1A
100
AcDbPlotSettings
  1

  2
none_device
  4
ANSI_A_(11.00_x_8.50_Inches)
  6

 40
6.35
 41
19.05
 42
6.35000508
 43
19.05000254
 44
279.4
 45
215.9
 46
53.04992004226213
 47
29.1834522463226
 48
0.0
 49
0.0
140
0.0
141
0.0
142
0.0189089557844881
143
1.0
 70
  1696
 72
     0
 73
     0
 74
     0
  7

 75
     0
147
0.0235690232323232
148
0.0
149
0.0
100
AcDbLayout
  1
Model
 70
     1
 71
     0
 10
0.0
 20
0.0
 11
420.0
 21
297.0
 12
0.0
 22
0.0
 32
0.0
 14
-94.48750000000007
 24
-49.97180738881175
 34
0.0
 15
104.1441250329551
 25
47.57499999999999
 35
0.0
146
0.0
 13
0.0
 23
0.0
 33
0.0
 16
1.0
 26
0.0
 36
0.0
 17
0.0
 27
1.0
 37
0.0
 76
     0
330
1F
331
29
  0
MLINESTYLE
  5
18
102
{ACAD_REACTORS
330
17
102
}
330
17
100
AcDbMlineStyle
  2
Standard
 70
     0
  3

 62
   256
 51
90.0
 52
90.0
 71
     2
 49
0.5
 62
   256
  6
BYLAYER
 49
-0.5
 62
   256
  6
BYLAYER
  0
ACDBPLACEHOLDER
  5
F
102
{ACAD_REACTORS
330
E
102
}
330
E
  0
SCALE
  5
48
102
{ACAD_REACTORS
330
47
102
}
330
47
100
AcDbScale
 70
     0
300
1:1
140
1.0
141
1.0
290
     1
  0
SCALE
  5
49
102
{ACAD_REACTORS
330
47
102
}
330
47
100
AcDbScale
 70
     0
300
1:2
140
1.0
141
2.0
290
     0
  0
SCALE
  5
4A
102
{ACAD_REACTORS
330
47
102
}
330
47
100
AcDbScale
 70
     0
300
1:4
140
1.0
141
4.0
290
     0
  0
SCALE
  5
4B
102
{ACAD_REACTORS
330
47
102
}
330
47
100
AcDbScale
 70
     0
300
1:5
140
1.0
141
5.0
290
     0
  0
SCALE
  5
4C
102
{ACAD_REACTORS
330
47
102
}
330
47
100
AcDbScale
 70
     0
300
1:8
140
1.0
141
8.0
290
     0
  0
SCALE
  5
4D
102
{ACAD_REACTORS
330
47
102
}
330
47
100
AcDbScale
 70
     0
300
1:10
140
1.0
141
10.0
290
     0
  0
SCALE
  5
4E
102
{ACAD_REACTORS
330
47
102
}
330
47
100
AcDbScale
 70
     0
300
1:16
140
1.0
141
16.0
290
     0
  0
SCALE
  5
4F
102
{ACAD_REACTORS
330
47
102
}
330
47
100
AcDbScale
 70
     0
300
1:20
140
1.0
141
20.0
290
     0
  0
SCALE
  5
50
102
{ACAD_REACTORS
330
47
102
}
330
47
100
AcDbScale
 70
     0
300
1:30
140
1.0
141
30.0
290
     0
  0
SCALE
  5
51
102
{ACAD_REACTORS
330
47
102
}
330
47
100
AcDbScale
 70
     0
300
1:40
140
1.0
141
40.0
290
     0
  0
SCALE
  5
52
102
{ACAD_REACTORS
330
47
102
}
330
47
100
AcDbScale
 70
     0
300
1:50
140
1.0
141
50.0
290
     0
  0
SCALE
  5
53
102
{ACAD_REACTORS
330
47
102
}
330
47
100
AcDbScale
 70
     0
300
1:100
140
1.0
141
100.0
290
     0
  0
SCALE
  5
54
102
{ACAD_REACTORS
330
47
102
}
330
47
100
AcDbScale
 70
     0
300
2:1
140
2.0
141
1.0
290
     0
  0
SCALE
  5
55
102
{ACAD_REACTORS
330
47
102
}
330
47
100
AcDbScale
 70
     0
300
4:1
140
4.0
141
1.0
290
     0
  0
SCALE
  5
56
102
{ACAD_REACTORS
330
47
102
}
330
47
100
AcDbScale
 70
     0
300
8:1
140
8.0
141
1.0
290
     0
  0
SCALE
  5
57
102
{ACAD_REACTORS
330
47
102
}
330
47
100
AcDbScale
 70
     0
300
10:1
140
10.0
141
1.0
290
     0
  0
SCALE
  5
58
102
{ACAD_REACTORS
330
47
102
}
330
47
100
AcDbScale
 70
     0
300
100:1
140
100.0
141
1.0
290
     0
  0
SCALE
  5
59
102
{ACAD_REACTORS
330
47
102
}
330
47
100
AcDbScale
 70
     0
300
1/128" = 1'-0"
140
0.0078125
141
12.0
290
     0
  0
SCALE
  5
5A
102
{ACAD_REACTORS
330
47
102
}
330
47
100
AcDbScale
 70
     0
300
1/64" = 1'-0"
140
0.015625
141
12.0
290
     0
  0
SCALE
  5
5B
102
{ACAD_REACTORS
330
47
102
}
330
47
100
AcDbScale
 70
     0
300
1/32" = 1'-0"
140
0.03125
141
12.0
290
     0
  0
SCALE
  5
5C
102
{ACAD_REACTORS
330
47
102
}
330
47
100
AcDbScale
 70
     0
300
1/16" = 1'-0"
140
0.0625
141
12.0
290
     0
  0
SCALE
  5
5D
102
{ACAD_REACTORS
330
47
102
}
330
47
100
AcDbScale
 70
     0
300
3/32" = 1'-0"
140
0.09375
141
12.0
290
     0
  0
SCALE
  5
5E
102
{ACAD_REACTORS
330
47
102
}
330
47
100
AcDbScale
 70
     0
300
1/8" = 1'-0"
140
0.125
141
12.0
290
     0
  0
SCALE
  5
5F
102
{ACAD_REACTORS
330
47
102
}
330
47
100
AcDbScale
 70
     0
300
3/16" = 1'-0"
140
0.1875
141
12.0
290
     0
  0
SCALE
  5
60
102
{ACAD_REACTORS
330
47
102
}
330
47
100
AcDbScale
 70
     0
300
1/4" = 1'-0"
140
0.25
141
12.0
290
     0
  0
SCALE
  5
61
102
{ACAD_REACTORS
330
47
102
}
330
47
100
AcDbScale
 70
     0
300
3/8" = 1'-0"
140
0.375
141
12.0
290
     0
  0
SCALE
  5
62
102
{ACAD_REACTORS
330
47
102
}
330
47
100
AcDbScale
 70
     0
300
1/2" = 1'-0"
140
0.5
141
12.0
290
     0
  0
SCALE
  5
63
102
{ACAD_REACTORS
330
47
102
}
330
47
100
AcDbScale
 70
     0
300
3/4" = 1'-0"
140
0.75
141
12.0
290
     0
  0
SCALE
  5
64
102
{ACAD_REACTORS
330
47
102
}
330
47
100
AcDbScale
 70
     0
300
1" = 1'-0"
140
1.0
141
12.0
290
     0
  0
SCALE
  5
65
102
{ACAD_REACTORS
330
47
102
}
330
47
100
AcDbScale
 70
     0
300
1-1/2" = 1'-0"
140
1.5
141
12.0
290
     0
  0
SCALE
  5
66
102
{ACAD_REACTORS
330
47
102
}
330
47
100
AcDbScale
 70
     0
300
3" = 1'-0"
140
3.0
141
12.0
290
     0
  0
SCALE
  5
67
102
{ACAD_REACTORS
330
47
102
}
330
47
100
AcDbScale
 70
     0
300
6" = 1'-0"
140
6.0
141
12.0
290
     0
  0
SCALE
  5
68
102
{ACAD_REACTORS
330
47
102
}
330
47
100
AcDbScale
 70
     0
300
1'-0" = 1'-0"
140
12.0
141
12.0
290
     0
  0
ENDSEC
  0
EOF
