  0
SECTION
  2
HEADER
  9
$ACADVER
  1
AC1015
  9
$ACADMAINTVER
 70
     6
  9
$DWGCODEPAGE
  3
ANSI_949
  9
$INSBASE
 10
0.0
 20
0.0
 30
0.0
  9
$EXTMIN
 10
-89.72500000000008
 20
-49.97180738881175
 30
0.0
  9
$EXTMAX
 10
100.969125032955
 20
50.75856831694522
 30
0.0
  9
$LIMMIN
 10
0.0
 20
0.0
  9
$LIMMAX
 10
420.0
 20
297.0
  9
$ORTHOMODE
 70
     1
  9
$REGENMODE
 70
     1
  9
$FILLMODE
 70
     1
  9
$QTEXTMODE
 70
     0
  9
$MIRRTEXT
 70
     1
  9
$LTSCALE
 40
1.0
  9
$ATTMODE
 70
     1
  9
$TEXTSIZE
 40
3.5
  9
$TRACEWID
 40
1.0
  9
$TEXTSTYLE
  7
Standard
  9
$CLAYER
  8
0
  9
$CELTYPE
  6
ByLayer
  9
$CECOLOR
 62
   256
  9
$CELTSCALE
 40
1.0
  9
$DISPSILH
 70
     0
  9
$DIMSCALE
 40
1.0
  9
$DIMASZ
 40
3.302
  9
$DIMEXO
 40
1.0
  9
$DIMDLI
 40
3.75
  9
$DIMRND
 40
0.0
  9
$DIMDLE
 40
0.0
  9
$DIMEXE
 40
1.0
  9
$DIMTP
 40
0.0
  9
$DIMTM
 40
0.0
  9
$DIMTXT
 40
3.5
  9
$DIMCEN
 40
2.5
  9
$DIMTSZ
 40
0.0
  9
$DIMTOL
 70
     0
  9
$DIMLIM
 70
     0
  9
$DIMTIH
 70
     1
  9
$DIMTOH
 70
     1
  9
$DIMSE1
 70
     0
  9
$DIMSE2
 70
     0
  9
$DIMTAD
 70
     1
  9
$DIMZIN
 70
     0
  9
$DIMBLK
  1

  9
$DIMASO
 70
     1
  9
$DIMSHO
 70
     1
  9
$DIMPOST
  1

  9
$DIMAPOST
  1

  9
$DIMALT
 70
     0
  9
$DIMALTD
 70
     3
  9
$DIMALTF
 40
0.0393700787401575
  9
$DIMLFAC
 40
1.0
  9
$DIMTOFL
 70
     1
  9
$DIMTVP
 40
0.0
  9
$DIMTIX
 70
     0
  9
$DIMSOXD
 70
     0
  9
$DIMSAH
 70
     0
  9
$DIMBLK1
  1

  9
$DIMBLK2
  1

  9
$DIMSTYLE
  2
ISO-25
  9
$DIMCLRD
 70
     0
  9
$DIMCLRE
 70
     0
  9
$DIMCLRT
 70
     0
  9
$DIMTFAC
 40
1.0
  9
$DIMGAP
 40
1.524
  9
$DIMJUST
 70
     0
  9
$DIMSD1
 70
     0
  9
$DIMSD2
 70
     0
  9
$DIMTOLJ
 70
     0
  9
$DIMTZIN
 70
     0
  9
$DIMALTZ
 70
     0
  9
$DIMALTTZ
 70
     0
  9
$DIMUPT
 70
     0
  9
$DIMDEC
 70
     2
  9
$DIMTDEC
 70
     2
  9
$DIMALTU
 70
     2
  9
$DIMALTTD
 70
     3
  9
$DIMTXSTY
  7
Standard
  9
$DIMAUNIT
 70
     0
  9
$DIMADEC
 70
     2
  9
$DIMALTRND
 40
0.0
  9
$DIMAZIN
 70
     0
  9
$DIMDSEP
 70
    44
  9
$DIMATFIT
 70
     3
  9
$DIMFRAC
 70
     0
  9
$DIMLDRBLK
  1

  9
$DIMLUNIT
 70
     2
  9
$DIMLWD
 70
    -2
  9
$DIMLWE
 70
    -2
  9
$DIMTMOVE
 70
     0
  9
$LUNITS
 70
     2
  9
$LUPREC
 70
     2
  9
$SKETCHINC
 40
1.0
  9
$FILLETRAD
 40
10.0
  9
$AUNITS
 70
     0
  9
$AUPREC
 70
     2
  9
$MENU
  1
.
  9
$ELEVATION
 40
0.0
  9
$PELEVATION
 40
0.0
  9
$THICKNESS
 40
0.0
  9
$LIMCHECK
 70
     0
  9
$CHAMFERA
 40
0.0
  9
$CHAMFERB
 40
0.0
  9
$CHAMFERC
 40
0.0
  9
$CHAMFERD
 40
0.0
  9
$SKPOLY
 70
     0
  9
$TDCREATE
 40
2458313.401182847
  9
$TDUCREATE
 40
2458313.026182847
  9
$TDUPDATE
 40
2458324.473773542
  9
$TDUUPDATE
 40
2458324.098773542
  9
$TDINDWG
 40
0.0018777662
  9
$TDUSRTIMER
 40
0.0018777546
  9
$USRTIMER
 70
     1
  9
$ANGBASE
 50
0.0
  9
$ANGDIR
 70
     0
  9
$PDMODE
 70
     0
  9
$PDSIZE
 40
-1.0
  9
$PLINEWID
 40
0.0
  9
$SPLFRAME
 70
     0
  9
$SPLINETYPE
 70
     6
  9
$SPLINESEGS
 70
     8
  9
$HANDSEED
  5
22B
  9
$SURFTAB1
 70
     6
  9
$SURFTAB2
 70
     6
  9
$SURFTYPE
 70
     6
  9
$SURFU
 70
     6
  9
$SURFV
 70
     6
  9
$UCSBASE
  2

  9
$UCSNAME
  2

  9
$UCSORG
 10
0.0
 20
0.0
 30
0.0
  9
$UCSXDIR
 10
1.0
 20
0.0
 30
0.0
  9
$UCSYDIR
 10
0.0
 20
1.0
 30
0.0
  9
$UCSORTHOREF
  2

  9
$UCSORTHOVIEW
 70
     0
  9
$UCSORGTOP
 10
0.0
 20
0.0
 30
0.0
  9
$UCSORGBOTTOM
 10
0.0
 20
0.0
 30
0.0
  9
$UCSORGLEFT
 10
0.0
 20
0.0
 30
0.0
  9
$UCSORGRIGHT
 10
0.0
 20
0.0
 30
0.0
  9
$UCSORGFRONT
 10
0.0
 20
0.0
 30
0.0
  9
$UCSORGBACK
 10
0.0
 20
0.0
 30
0.0
  9
$PUCSBASE
  2

  9
$PUCSNAME
  2

  9
$PUCSORG
 10
0.0
 20
0.0
 30
0.0
  9
$PUCSXDIR
 10
1.0
 20
0.0
 30
0.0
  9
$PUCSYDIR
 10
0.0
 20
1.0
 30
0.0
  9
$PUCSORTHOREF
  2

  9
$PUCSORTHOVIEW
 70
     0
  9
$PUCSORGTOP
 10
0.0
 20
0.0
 30
0.0
  9
$PUCSORGBOTTOM
 10
0.0
 20
0.0
 30
0.0
  9
$PUCSORGLEFT
 10
0.0
 20
0.0
 30
0.0
  9
$PUCSORGRIGHT
 10
0.0
 20
0.0
 30
0.0
  9
$PUCSORGFRONT
 10
0.0
 20
0.0
 30
0.0
  9
$PUCSORGBACK
 10
0.0
 20
0.0
 30
0.0
  9
$USERI1
 70
     0
  9
$USERI2
 70
     0
  9
$USERI3
 70
     0
  9
$USERI4
 70
     0
  9
$USERI5
 70
     0
  9
$USERR1
 40
0.0
  9
$USERR2
 40
0.0
  9
$USERR3
 40
0.0
  9
$USERR4
 40
0.0
  9
$USERR5
 40
0.0
  9
$WORLDVIEW
 70
     1
  9
$SHADEDGE
 70
     3
  9
$SHADEDIF
 70
    70
  9
$TILEMODE
 70
     1
  9
$MAXACTVP
 70
    64
  9
$PINSBASE
 10
0.0
 20
0.0
 30
0.0
  9
$PLIMCHECK
 70
     0
  9
$PEXTMIN
 10
1.000000000000000E+20
 20
1.000000000000000E+20
 30
1.000000000000000E+20
  9
$PEXTMAX
 10
-1.000000000000000E+20
 20
-1.000000000000000E+20
 30
-1.000000000000000E+20
  9
$PLIMMIN
 10
0.0
 20
0.0
  9
$PLIMMAX
 10
0.0
 20
0.0
  9
$UNITMODE
 70
     0
  9
$VISRETAIN
 70
     1
  9
$PLINEGEN
 70
     0
  9
$PSLTSCALE
 70
     1
  9
$TREEDEPTH
 70
  3020
  9
$CMLSTYLE
  2
Standard
  9
$CMLJUST
 70
     0
  9
$CMLSCALE
 40
20.0
  9
$PROXYGRAPHICS
 70
     1
  9
$MEASUREMENT
 70
     1
  9
$CELWEIGHT
370
    -1
  9
$ENDCAPS
280
     0
  9
$JOINSTYLE
280
     0
  9
$LWDISPLAY
290
     1
  9
$INSUNITS
 70
     4
  9
$HYPERLINKBASE
  1

  9
$STYLESHEET
  1

  9
$XEDIT
290
     1
  9
$CEPSNTYPE
380
     0
  9
$PSTYLEMODE
290
     1
  9
$FINGERPRINTGUID
  2
{F9B6DDE5-1B4D-4489-9F25-9D2836548685}
  9
$VERSIONGUID
  2
{FAEB1C32-E019-11D5-929B-00C0DF256EC4}
  9
$EXTNAMES
290
     1
  9
$PSVPSCALE
 40
0.0
  9
$OLESTARTUP
290
     0
  0
ENDSEC
  0
SECTION
  2
CLASSES
  0
CLASS
  1
ACDBDICTIONARYWDFLT
  2
AcDbDictionaryWithDefault
  3
ObjectDBX Classes
 90
        0
280
     0
281
     0
  0
CLASS
  1
VISUALSTYLE
  2
AcDbVisualStyle
  3
ObjectDBX Classes
 90
     4095
280
     0
281
     0
  0
CLASS
  1
MATERIAL
  2
AcDbMaterial
  3
ObjectDBX Classes
 90
     1153
280
     0
281
     0
  0
CLASS
  1
SCALE
  2
AcDbScale
  3
ObjectDBX Classes
 90
     1153
280
     0
281
     0
  0
CLASS
  1
SUN
  2
AcDbSun
  3
SCENEOE
 90
     1153
280
     0
281
     0
  0
CLASS
  1
ACDBPLACEHOLDER
  2
AcDbPlaceHolder
  3
ObjectDBX Classes
 90
        0
280
     0
281
     0
  0
CLASS
  1
LAYOUT
  2
AcDbLayout
  3
ObjectDBX Classes
 90
        0
280
     0
281
     0
  0
CLASS
  1
TABLESTYLE
  2
AcDbTableStyle
  3
ObjectDBX Classes
 90
     4095
280
     0
281
     0
  0
CLASS
  1
MLEADERSTYLE
  2
AcDbMLeaderStyle
  3
ACDB_MLEADERSTYLE_CLASS
 90
     4095
280
     0
281
     0
  0
CLASS
  1
DICTIONARYVAR
  2
AcDbDictionaryVar
  3
ObjectDBX Classes
 90
        0
280
     0
281
     0
  0
ENDSEC
  0
SECTION
  2
TABLES
  0
TABLE
  2
VPORT
  5
8
330
0
100
AcDbSymbolTable
 70
     1
  0
VPORT
  5
29
330
8
100
AcDbSymbolTableRecord
100
AcDbViewportTableRecord
  2
*Active
 70
     0
 10
0.0
 20
0.0
 11
1.0
 21
1.0
 12
5.622062516477484
 22
0.3933804640667233
 13
0.0
 23
0.0
 14
10.0
 24
10.0
 15
10.0
 25
10.0
 16
0.0
 26
0.0
 36
1.0
 17
0.0
 27
0.0
 37
0.0
 40
109.1048227688551
 41
1.782762691853601
 42
50.0
 43
0.0
 44
0.0
 50
0.0
 51
0.0
 71
    16
 72
  2000
 73
     1
 74
     3
 75
     0
 76
     0
 77
     0
 78
     0
281
     0
 65
     1
110
0.0
120
0.0
130
0.0
111
1.0
121
0.0
131
0.0
112
0.0
122
1.0
132
0.0
 79
     0
146
0.0
  0
ENDTAB
  0
TABLE
  2
LTYPE
  5
5
330
0
100
AcDbSymbolTable
 70
     6
  0
LTYPE
  5
14
330
5
100
AcDbSymbolTableRecord
100
AcDbLinetypeTableRecord
  2
ByBlock
 70
     0
  3

 72
    65
 73
     0
 40
0.0
  0
LTYPE
  5
15
330
5
100
AcDbSymbolTableRecord
100
AcDbLinetypeTableRecord
  2
ByLayer
 70
     0
  3

 72
    65
 73
     0
 40
0.0
  0
LTYPE
  5
16
330
5
100
AcDbSymbolTableRecord
100
AcDbLinetypeTableRecord
  2
Continuous
 70
     0
  3
Solid line
 72
    65
 73
     0
 40
0.0
  0
LTYPE
  5
6A
330
5
100
AcDbSymbolTableRecord
100
AcDbLinetypeTableRecord
  2
HIDDEN
 70
     0
  3
Hidden __ __ __ __ __ __ __ __ __ __ __ __ __ __
 72
    65
 73
     2
 40
1.905
 49
1.27
 74
     0
 49
-0.635
 74
     0
  0
LTYPE
  5
6B
330
5
100
AcDbSymbolTableRecord
100
AcDbLinetypeTableRecord
  2
PHANTOM
 70
     0
  3
Phantom ______  __  __  ______  __  __  ______
 72
    65
 73
     6
 40
12.7
 49
6.35
 74
     0
 49
-1.27
 74
     0
 49
1.27
 74
     0
 49
-1.27
 74
     0
 49
1.27
 74
     0
 49
-1.27
 74
     0
  0
LTYPE
  5
6C
330
5
100
AcDbSymbolTableRecord
100
AcDbLinetypeTableRecord
  2
CENTER
 70
     0
  3
Center ____ _ ____ _ ____ _ ____ _ ____ _ ____
 72
    65
 73
     4
 40
10.16
 49
6.35
 74
     0
 49
-1.27
 74
     0
 49
1.27
 74
     0
 49
-1.27
 74
     0
  0
LTYPE
  5
6D
330
5
100
AcDbSymbolTableRecord
100
AcDbLinetypeTableRecord
  2
CENTERX2
 70
     0
  3
Center (2x) ________  __  ________  __  _____
 72
    65
 73
     4
 40
20.32
 49
12.7
 74
     0
 49
-2.54
 74
     0
 49
2.54
 74
     0
 49
-2.54
 74
     0
  0
LTYPE
  5
6E
330
5
100
AcDbSymbolTableRecord
100
AcDbLinetypeTableRecord
  2
DOT2
 70
     0
  3
Dot (.5x) ........................................
 72
    65
 73
     2
 40
0.635
 49
0.0
 74
     0
 49
-0.635
 74
     0
  0
ENDTAB
  0
TABLE
  2
LAYER
  5
2
102
{ACAD_XDICTIONARY
360
192
102
}
330
0
100
AcDbSymbolTable
 70
    18
  0
LAYER
  5
10
330
2
100
AcDbSymbolTableRecord
100
AcDbLayerTableRecord
  2
0
 70
     0
 62
     7
  6
Continuous
370
    -3
390
F
  0
LAYER
  5
6F
330
2
100
AcDbSymbolTableRecord
100
AcDbLayerTableRecord
  2
FORMAT
 70
     0
 62
     2
  6
Continuous
370
    -3
390
F
  0
LAYER
  5
70
330
2
100
AcDbSymbolTableRecord
100
AcDbLayerTableRecord
  2
외형선
 70
     0
 62
     4
  6
Continuous
370
    30
390
F
  0
LAYER
  5
71
330
2
100
AcDbSymbolTableRecord
100
AcDbLayerTableRecord
  2
숨은선
 70
     0
 62
     2
  6
HIDDEN
370
    15
390
F
  0
LAYER
  5
72
330
2
100
AcDbSymbolTableRecord
100
AcDbLayerTableRecord
  2
중심선
 70
     0
 62
     1
  6
CENTERX2
370
    -3
390
F
  0
LAYER
  5
73
330
2
100
AcDbSymbolTableRecord
100
AcDbLayerTableRecord
  2
파단선
 70
     0
 62
     4
  6
Continuous
370
    -3
390
F
  0
LAYER
  5
74
330
2
100
AcDbSymbolTableRecord
100
AcDbLayerTableRecord
  2
해칭선
 70
     0
 62
   100
  6
Continuous
370
    -3
390
F
  0
LAYER
  5
75
330
2
100
AcDbSymbolTableRecord
100
AcDbLayerTableRecord
  2
가는실선
 70
     0
 62
     4
  6
Continuous
370
    -3
390
F
  0
LAYER
  5
76
330
2
100
AcDbSymbolTableRecord
100
AcDbLayerTableRecord
  2
치수_보조선
 70
     0
 62
     4
  6
Continuous
370
    -3
390
F
  0
LAYER
  5
77
330
2
100
AcDbSymbolTableRecord
100
AcDbLayerTableRecord
  2
치수문자_일반주서
 70
     0
 62
     7
  6
Continuous
370
    15
390
F
  0
LAYER
  5
78
330
2
100
AcDbSymbolTableRecord
100
AcDbLayerTableRecord
  2
개별주서
 70
     0
 62
   100
  6
Continuous
370
    30
390
F
  0
LAYER
  5
79
330
2
100
AcDbSymbolTableRecord
100
AcDbLayerTableRecord
  2
중간선
 70
     0
 62
     2
  6
Continuous
370
    15
390
F
  0
LAYER
  5
7A
330
2
100
AcDbSymbolTableRecord
100
AcDbLayerTableRecord
  2
윤곽선
 70
     0
 62
     3
  6
Continuous
370
    40
390
F
  0
LAYER
  5
7B
330
2
100
AcDbSymbolTableRecord
100
AcDbLayerTableRecord
  2
중심마크
 70
     0
 62
   100
  6
Continuous
370
    30
390
F
  0
LAYER
  5
7C
330
2
100
AcDbSymbolTableRecord
100
AcDbLayerTableRecord
  2
가상선
 70
     0
 62
     4
  6
PHANTOM
370
    -3
390
F
  0
LAYER
  5
7D
330
2
100
AcDbSymbolTableRecord
100
AcDbLayerTableRecord
  2
특수지정선
 70
     0
 62
     5
  6
CENTERX2
370
    60
390
F
  0
LAYER
  5
7E
330
2
100
AcDbSymbolTableRecord
100
AcDbLayerTableRecord
  2
참조1
 70
     0
 62
    -4
  6
Continuous
370
    -3
390
F
  0
LAYER
  5
15A
330
2
100
AcDbSymbolTableRecord
100
AcDbLayerTableRecord
  2
Defpoints
 70
     0
 62
     7
  6
Continuous
290
     0
370
    -3
390
F
  0
ENDTAB
  0
TABLE
  2
STYLE
  5
3
330
0
100
AcDbSymbolTable
 70
     2
  0
STYLE
  5
11
330
3
100
AcDbSymbolTableRecord
100
AcDbTextStyleTableRecord
  2
Standard
 70
     0
 40
0.0
 41
1.0
 50
0.0
 71
     0
 42
3.5
  3
txt
  4

  0
STYLE
  5
94
330
3
100
AcDbSymbolTableRecord
100
AcDbTextStyleTableRecord
  2
SLDTEXTSTYLE0
 70
     0
 40
0.0
 41
0.75
 50
0.0
 71
     0
 42
3.5
  3
TXT
  4

  0
ENDTAB
  0
TABLE
  2
VIEW
  5
6
330
0
100
AcDbSymbolTable
 70
     0
  0
ENDTAB
  0
TABLE
  2
UCS
  5
7
330
0
100
AcDbSymbolTable
 70
     0
  0
ENDTAB
  0
TABLE
  2
APPID
  5
9
330
0
100
AcDbSymbolTable
 70
     4
  0
APPID
  5
12
330
9
100
AcDbSymbolTableRecord
100
AcDbRegAppTableRecord
  2
ACAD
 70
     0
  0
APPID
  5
162
330
9
100
AcDbSymbolTableRecord
100
AcDbRegAppTableRecord
  2
PE_URL
 70
     0
  0
APPID
  5
229
330
9
100
AcDbSymbolTableRecord
100
AcDbRegAppTableRecord
  2
ACAD_DSTYLE_DIMFLIPARROW_SYMBOL
 70
     0
  0
APPID
  5
22A
330
9
100
AcDbSymbolTableRecord
100
AcDbRegAppTableRecord
  2
ACAD_DSTYLE_DIMFLIPARROW_WHICH_SYMBOL
 70
     0
  0
ENDTAB
  0
TABLE
  2
DIMSTYLE
  5
A
330
0
100
AcDbSymbolTable
 70
     4
100
AcDbDimStyleTable
  0
DIMSTYLE
105
27
330
A
100
AcDbSymbolTableRecord
100
AcDbDimStyleTableRecord
  2
ISO-25
 70
     0
 41
2.5
 42
0.625
 43
3.75
 44
1.25
 73
     0
 74
     0
 77
     1
 78
     8
140
2.5
141
2.5
143
0.03937007874016
147
0.625
171
     3
172
     1
178
     0
271
     2
272
     2
274
     3
278
    44
283
     0
284
     8
340
11
  0
DIMSTYLE
105
D9
330
A
100
AcDbSymbolTableRecord
100
AcDbDimStyleTableRecord
  2
SLDDIMSTYLE0
 70
     0
 41
3.302
 44
0.0
 45
0.000000001
 73
     0
 74
     0
 77
     1
 78
    12
 79
     3
140
3.5
143
0.0393700787401575
147
0.875
148
0.000000001
170
     1
172
     1
173
     1
178
     0
271
     2
272
     2
276
     2
284
    12
289
     0
340
94
  0
DIMSTYLE
105
EE
102
{ACAD_REACTORS
330
ED
330
101
330
181
330
115
330
D8
102
}
330
A
100
AcDbSymbolTableRecord
100
AcDbDimStyleTableRecord
  2
SLDDIMSTYLE1
 70
     0
 41
3.302
 44
0.0
 45
0.000000001
 73
     0
 74
     0
 77
     1
 78
    12
 79
     3
140
3.5
143
0.0393700787401575
147
0.875
148
0.000000001
170
     1
173
     1
178
     0
271
     2
272
     2
276
     2
284
    12
340
94
  0
DIMSTYLE
105
116
330
A
100
AcDbSymbolTableRecord
100
AcDbDimStyleTableRecord
  2
SLDDIMSTYLE2
 70
     0
 41
3.302
 44
0.0
 45
0.000000001
 73
     0
 74
     0
 77
     1
 78
     4
 79
     1
140
3.5
143
0.0393700787401575
147
0.875
148
0.000000001
170
     1
173
     1
178
     0
271
     2
272
     2
276
     2
284
    12
340
94
  0
ENDTAB
  0
TABLE
  2
BLOCK_RECORD
  5
1
330
0
100
AcDbSymbolTable
 70
    10
  0
BLOCK_RECORD
  5
1F
330
1
100
AcDbSymbolTableRecord
100
AcDbBlockTableRecord
  2
*Model_Space
340
22
  0
BLOCK_RECORD
  5
1B
330
1
100
AcDbSymbolTableRecord
100
AcDbBlockTableRecord
  2
*Paper_Space
340
1E
  0
BLOCK_RECORD
  5
23
330
1
100
AcDbSymbolTableRecord
100
AcDbBlockTableRecord
  2
*Paper_Space0
340
26
  0
BLOCK_RECORD
  5
7F
330
1
100
AcDbSymbolTableRecord
100
AcDbBlockTableRecord
  2
블럭10
340
0
102
{BLKREFS
331
D1
102
}
  0
BLOCK_RECORD
  5
DA
330
1
100
AcDbSymbolTableRecord
100
AcDbBlockTableRecord
  2
_D
340
0
  0
BLOCK_RECORD
  5
EF
330
1
100
AcDbSymbolTableRecord
100
AcDbBlockTableRecord
  2
_D_1
340
0
  0
BLOCK_RECORD
  5
102
330
1
100
AcDbSymbolTableRecord
100
AcDbBlockTableRecord
  2
_D_2
340
0
  0
BLOCK_RECORD
  5
117
330
1
100
AcDbSymbolTableRecord
100
AcDbBlockTableRecord
  2
_D_3
340
0
  0
BLOCK_RECORD
  5
130
330
1
100
AcDbSymbolTableRecord
100
AcDbBlockTableRecord
  2
SW_DOWELSYMBOL_0
340
0
102
{BLKREFS
331
136
102
}
  0
BLOCK_RECORD
  5
196
330
1
100
AcDbSymbolTableRecord
100
AcDbBlockTableRecord
  2
*D8
340
0
  0
BLOCK_RECORD
  5
1A8
330
1
100
AcDbSymbolTableRecord
100
AcDbBlockTableRecord
  2
*D9
340
0
  0
ENDTAB
  0
ENDSEC
  0
SECTION
  2
BLOCKS
  0
BLOCK
  5
20
330
1F
100
AcDbEntity
  8
0
100
AcDbBlockBegin
  2
*Model_Space
 70
     0
 10
0.0
 20
0.0
 30
0.0
  3
*Model_Space
  1

  0
ENDBLK
  5
21
330
1F
100
AcDbEntity
  8
0
100
AcDbBlockEnd
  0
BLOCK
  5
1C
330
1B
100
AcDbEntity
 67
     1
  8
0
100
AcDbBlockBegin
  2
*Paper_Space
 70
     0
 10
0.0
 20
0.0
 30
0.0
  3
*Paper_Space
  1

  0
ENDBLK
  5
1D
330
1B
100
AcDbEntity
 67
     1
  8
0
100
AcDbBlockEnd
  0
BLOCK
  5
24
330
23
100
AcDbEntity
  8
0
100
AcDbBlockBegin
  2
*Paper_Space0
 70
     0
 10
0.0
 20
0.0
 30
0.0
  3
*Paper_Space0
  1

  0
ENDBLK
  5
25
330
23
100
AcDbEntity
  8
0
100
AcDbBlockEnd
  0
BLOCK
  5
80
330
7F
100
AcDbEntity
  8
0
100
AcDbBlockBegin
  2
블럭10
 70
     2
 10
0.0
 20
0.0
 30
0.0
  3
블럭10
  1

  0
ELLIPSE
  5
82
330
7F
100
AcDbEntity
  8
중심선
100
AcDbEllipse
 10
20.54032771741204
 20
12.0471743016438
 30
0.0
 11
6.600054785286829
 21
-1.261213355974178E-13
 31
0.0
210
0.0
220
0.0
230
1.0
 40
0.636358354079598
 41
0.9219305317359503
 42
6.513795318482858
  0
ELLIPSE
  5
83
330
7F
100
AcDbEntity
  8
중심선
100
AcDbEllipse
 10
20.54032771746488
 20
12.04717430159265
 30
0.0
 11
3.960054785062283
 21
1.540847449632565E-10
 31
0.0
210
0.0
220
0.0
230
1.0
 40
0.3939339440162632
 41
1.131841032648279
 42
5.62031148352944
  0
LINE
  5
84
330
7F
100
AcDbEntity
  8
중심선
100
AcDbLine
 10
2.268634060543552
 20
16.24717430164393
 30
0.0
 11
5.714909304380834
 21
16.24717430164393
 31
0.0
  0
LINE
  5
85
330
7F
100
AcDbEntity
  8
중심선
100
AcDbLine
 10
5.245725140726316
 20
7.84717430164391
 30
0.0
 11
8.692000384563599
 21
7.84717430164391
 31
0.0
  0
LINE
  5
86
330
7F
100
AcDbEntity
  8
중심선
100
AcDbLine
 10
15.74043728645272
 20
16.24717430164393
 30
0.0
 11
8.692000384563599
 21
7.84717430164391
 31
0.0
  0
LINE
  5
87
330
7F
100
AcDbEntity
  8
중심선
100
AcDbLine
 10
0.1404042013395286
 20
13.71084872107135
 30
0.0
 11
3.58671253028996
 21
13.71088815037384
 31
0.0
  0
LINE
  5
88
330
7F
100
AcDbEntity
  8
중심선
100
AcDbLine
 10
2.750260043222114
 20
10.84717430164391
 30
0.0
 11
6.196535287059397
 21
10.84717430164391
 31
0.0
  0
LINE
  5
89
330
7F
100
AcDbEntity
  8
중심선
100
AcDbLine
 10
12.29416204261559
 20
16.24717430164393
 30
0.0
 11
5.245725140726316
 21
7.84717430164391
 31
0.0
  0
LINE
  5
8A
330
7F
100
AcDbEntity
  8
중심선
100
AcDbLine
 10
10.72767329541681
 20
16.24717430164393
 30
0.0
 11
6.196535287059397
 21
10.84717430164391
 31
0.0
  0
LINE
  5
8B
330
7F
100
AcDbEntity
  8
중심선
100
AcDbLine
 10
7.28139805157953
 20
16.24717430164393
 30
0.0
 11
2.750260043222114
 21
10.84717430164391
 31
0.0
  0
LINE
  5
8C
330
7F
100
AcDbEntity
  8
중심선
100
AcDbLine
 10
5.714909304380834
 20
16.24717430164393
 30
0.0
 11
3.58671253028996
 21
13.71088815037384
 31
0.0
  0
LINE
  5
8D
330
7F
100
AcDbEntity
  8
중심선
100
AcDbLine
 10
2.268634060543552
 20
16.24717430164393
 30
0.0
 11
0.1404042013395286
 21
13.71084872107135
 31
0.0
  0
LINE
  5
8E
330
7F
100
AcDbEntity
  8
중심선
100
AcDbLine
 10
7.28139805157953
 20
16.24717430164393
 30
0.0
 11
10.72767329541681
 21
16.24717430164393
 31
0.0
  0
LINE
  5
8F
330
7F
100
AcDbEntity
  8
중심선
100
AcDbLine
 10
12.29416204261559
 20
16.24717430164393
 30
0.0
 11
15.74043728645272
 21
16.24717430164393
 31
0.0
  0
LINE
  5
90
330
7F
100
AcDbEntity
  8
중심선
100
AcDbLine
 10
19.22036997980202
 20
11.08717430171403
 30
0.0
 11
23.66174974927406
 21
11.08717430171406
 31
0.0
  0
LINE
  5
91
330
7F
100
AcDbEntity
  8
중심선
100
AcDbLine
 10
19.22039502424796
 20
13.00717430171391
 30
0.0
 11
19.22036997980202
 21
11.08717430171403
 31
0.0
  0
LINE
  5
92
330
7F
100
AcDbEntity
  8
중심선
100
AcDbLine
 10
19.22039502424796
 20
13.00717430171391
 30
0.0
 11
26.96566020931264
 21
13.00717430171391
 31
0.0
  0
LINE
  5
93
330
7F
100
AcDbEntity
  8
중심선
100
AcDbLine
 10
22.22332737316547
 20
13.45928029700563
 30
0.0
 11
24.52862924686651
 21
15.39360700705356
 31
0.0
  0
ATTDEF
  5
95
330
7F
100
AcDbEntity
  8
FORMAT
 62
     2
100
AcDbText
 10
4.408487351596664
 20
2.075366912832191
 30
0.0
 40
4.233333333333333
  1
E1050054
 41
0.75
  7
SLDTEXTSTYLE0
 11
4.408487351596664
 21
-0.0412997538344756
 31
0.0
100
AcDbAttributeDefinition
  3

  2
AUTOATTR0
 70
     0
 74
     1
  0
ENDBLK
  5
81
330
7F
100
AcDbEntity
  8
0
100
AcDbBlockEnd
  0
BLOCK
  5
DB
330
DA
100
AcDbEntity
  8
0
100
AcDbBlockBegin
  2
_D
 70
     0
 10
0.0
 20
0.0
 30
0.0
  3
_D
  1

  0
LINE
  5
DD
330
DA
100
AcDbEntity
  8
치수문자_일반주서
 62
     0
370
    -2
100
AcDbLine
 10
-27.17511054365968
 20
11.11249999999998
 30
0.0
 11
-84.85
 21
11.11249999999976
 31
0.0
  0
LINE
  5
DE
330
DA
100
AcDbEntity
  8
치수문자_일반주서
 62
     0
370
    -2
100
AcDbLine
 10
-27.17511054365969
 20
-11.1125
 30
0.0
 11
-84.84999999999992
 21
-11.11250000000022
 31
0.0
  0
LINE
  5
DF
330
DA
100
AcDbEntity
  8
치수문자_일반주서
 62
     0
370
    -2
100
AcDbLine
 10
-84.85
 20
11.11249999999976
 30
0.0
 11
-84.85000000000011
 21
47.16449999999993
 31
0.0
  0
LINE
  5
E0
330
DA
100
AcDbEntity
  8
치수문자_일반주서
 62
     0
370
    -2
100
AcDbLine
 10
-84.85
 20
11.11249999999976
 30
0.0
 11
-84.84999999999992
 21
-11.11250000000022
 31
0.0
  0
LINE
  5
E1
330
DA
100
AcDbEntity
  8
치수문자_일반주서
 62
     0
370
    -2
100
AcDbLine
 10
-84.85000000000001
 20
14.41449999999976
 30
0.0
 11
-84.85000000000002
 21
17.71649999999976
 31
0.0
  0
LINE
  5
E2
330
DA
100
AcDbEntity
  8
치수문자_일반주서
 62
     0
370
    -2
100
AcDbLine
 10
-84.84999999999991
 20
-14.41450000000022
 30
0.0
 11
-84.8499999999999
 21
-17.71650000000022
 31
0.0
  0
SOLID
  5
E3
330
DA
100
AcDbEntity
  8
치수문자_일반주서
 62
     0
100
AcDbTrace
 10
-85.40033333333334
 20
14.41449999999976
 30
0.0
 11
-84.29966666666668
 21
14.41449999999976
 31
0.0
 12
-84.85
 22
11.11249999999976
 32
0.0
 13
-84.85
 23
11.11249999999976
 33
0.0
  0
SOLID
  5
E4
330
DA
100
AcDbEntity
  8
치수문자_일반주서
 62
     0
100
AcDbTrace
 10
-84.29966666666658
 20
-14.41450000000022
 30
0.0
 11
-85.40033333333324
 21
-14.41450000000023
 31
0.0
 12
-84.84999999999992
 22
-11.11250000000022
 32
0.0
 13
-84.84999999999992
 23
-11.11250000000022
 33
0.0
  0
MTEXT
  5
E5
330
DA
100
AcDbEntity
  8
치수문자_일반주서
 62
     0
100
AcDbMText
 10
-89.72500000000005
 20
30.78949999999992
 30
0.0
 40
4.0
 41
0.0
 71
     2
 72
     1
  1
\A1;%%c22.23 [7/8]
  7
SLDTEXTSTYLE0
 11
-3.197042680585380E-15
 21
1.0
 31
0.0
 73
     1
 44
1.0
  0
POINT
  5
1BF
330
DA
100
AcDbEntity
  8
Defpoints
 62
     0
100
AcDbPoint
 10
-27.11261054365968
 20
11.11249999999998
 30
0.0
  0
POINT
  5
1C0
330
DA
100
AcDbEntity
  8
Defpoints
 62
     0
100
AcDbPoint
 10
-27.11261054365969
 20
-11.1125
 30
0.0
  0
POINT
  5
1C1
330
DA
100
AcDbEntity
  8
Defpoints
 62
     0
100
AcDbPoint
 10
-84.84999999999992
 20
-11.11250000000022
 30
0.0
  0
ENDBLK
  5
DC
330
DA
100
AcDbEntity
  8
0
100
AcDbBlockEnd
  0
BLOCK
  5
F0
330
EF
100
AcDbEntity
  8
0
100
AcDbBlockBegin
  2
_D_1
 70
     0
 10
0.0
 20
0.0
 30
0.0
  3
_D_1
  1

  0
LINE
  5
F2
330
EF
100
AcDbEntity
  8
치수문자_일반주서
 62
     0
370
    -2
100
AcDbLine
 10
69.91250000000004
 20
-10.70656831694516
 30
0.0
 11
84.85000000000008
 21
-10.7065683169451
 31
0.0
  0
LINE
  5
F3
330
EF
100
AcDbEntity
  8
치수문자_일반주서
 62
     0
370
    -2
100
AcDbLine
 10
69.91250000000004
 20
10.70656831694515
 30
0.0
 11
84.85000000000001
 21
10.70656831694521
 31
0.0
  0
LINE
  5
F4
330
EF
100
AcDbEntity
  8
치수문자_일반주서
 62
     0
370
    -2
100
AcDbLine
 10
84.85000000000001
 20
10.70656831694521
 30
0.0
 11
84.84999999999988
 21
50.7585683169452
 31
0.0
  0
LINE
  5
F5
330
EF
100
AcDbEntity
  8
치수문자_일반주서
 62
     0
370
    -2
100
AcDbLine
 10
84.85000000000008
 20
-10.7065683169451
 30
0.0
 11
84.85000000000001
 21
10.70656831694521
 31
0.0
  0
LINE
  5
F6
330
EF
100
AcDbEntity
  8
치수문자_일반주서
 62
     0
370
    -2
100
AcDbLine
 10
84.8500000000001
 20
-14.0085683169451
 30
0.0
 11
84.85000000000011
 21
-17.3105683169451
 31
0.0
  0
LINE
  5
F7
330
EF
100
AcDbEntity
  8
치수문자_일반주서
 62
     0
370
    -2
100
AcDbLine
 10
84.85
 20
14.0085683169452
 30
0.0
 11
84.84999999999998
 21
17.3105683169452
 31
0.0
  0
SOLID
  5
F8
330
EF
100
AcDbEntity
  8
치수문자_일반주서
 62
     0
100
AcDbTrace
 10
85.40033333333342
 20
-14.0085683169451
 30
0.0
 11
84.29966666666677
 21
-14.0085683169451
 31
0.0
 12
84.85000000000008
 22
-10.7065683169451
 32
0.0
 13
84.85000000000008
 23
-10.7065683169451
 33
0.0
  0
SOLID
  5
F9
330
EF
100
AcDbEntity
  8
치수문자_일반주서
 62
     0
100
AcDbTrace
 10
84.29966666666667
 20
14.0085683169452
 30
0.0
 11
85.40033333333332
 21
14.00856831694521
 31
0.0
 12
84.85000000000001
 22
10.70656831694521
 32
0.0
 13
84.85000000000001
 23
10.70656831694521
 33
0.0
  0
MTEXT
  5
FA
330
EF
100
AcDbEntity
  8
치수문자_일반주서
 62
     0
100
AcDbMText
 10
79.97499999999994
 20
32.38356831694519
 30
0.0
 40
4.0
 41
0.0
 71
     2
 72
     1
  1
\A1;%%c21.41 [27/32]
  7
SLDTEXTSTYLE0
 11
-3.318256208366657E-15
 21
1.0
 31
0.0
 73
     1
 44
1.0
  0
POINT
  5
FB
330
EF
100
AcDbEntity
  8
Defpoints
 62
     0
100
AcDbPoint
 10
69.85000000000004
 20
-10.70656831694516
 30
0.0
  0
POINT
  5
1C2
330
EF
100
AcDbEntity
  8
Defpoints
 62
     0
100
AcDbPoint
 10
69.85000000000004
 20
10.70656831694515
 30
0.0
  0
POINT
  5
1C3
330
EF
100
AcDbEntity
  8
Defpoints
 62
     0
100
AcDbPoint
 10
84.85000000000001
 20
10.70656831694521
 30
0.0
  0
ENDBLK
  5
F1
330
EF
100
AcDbEntity
  8
0
100
AcDbBlockEnd
  0
BLOCK
  5
103
330
102
100
AcDbEntity
  8
0
100
AcDbBlockBegin
  2
_D_2
 70
     0
 10
0.0
 20
0.0
 30
0.0
  3
_D_2
  1

  0
LINE
  5
105
330
102
100
AcDbEntity
  8
치수문자_일반주서
 62
     0
370
    -2
100
AcDbLine
 10
69.85000000000004
 20
10.76906831694515
 30
0.0
 11
69.85000000000004
 21
27.10367905054913
 31
0.0
  0
LINE
  5
106
330
102
100
AcDbEntity
  8
치수문자_일반주서
 62
     0
370
    -2
100
AcDbLine
 10
30.16250000000002
 20
8.473281036907993
 30
0.0
 11
30.16250000000002
 21
27.10367905054913
 31
0.0
  0
LINE
  5
107
330
102
100
AcDbEntity
  8
치수문자_일반주서
 62
     0
370
    -2
100
AcDbLine
 10
66.54800000000003
 20
27.10367905054913
 30
0.0
 11
33.46450000000002
 21
27.10367905054913
 31
0.0
  0
SOLID
  5
108
330
102
100
AcDbEntity
  8
치수문자_일반주서
 62
     0
100
AcDbTrace
 10
66.54800000000003
 20
26.5533457172158
 30
0.0
 11
66.54800000000003
 21
27.65401238388247
 31
0.0
 12
69.85000000000004
 22
27.10367905054913
 32
0.0
 13
69.85000000000004
 23
27.10367905054913
 33
0.0
  0
SOLID
  5
109
330
102
100
AcDbEntity
  8
치수문자_일반주서
 62
     0
100
AcDbTrace
 10
33.46450000000002
 20
27.65401238388247
 30
0.0
 11
33.46450000000002
 21
26.5533457172158
 31
0.0
 12
30.16250000000002
 22
27.10367905054913
 32
0.0
 13
30.16250000000002
 23
27.10367905054913
 33
0.0
  0
MTEXT
  5
10A
330
102
100
AcDbEntity
  8
치수문자_일반주서
 62
     0
100
AcDbMText
 10
50.00625000000007
 20
31.97867905054913
 30
0.0
 40
4.0
 41
0.0
 71
     2
 72
     1
  1
\A1;39.69 [1 9/16]
  7
SLDTEXTSTYLE0
 73
     1
 44
1.0
  0
POINT
  5
10B
330
102
100
AcDbEntity
  8
Defpoints
 62
     0
100
AcDbPoint
 10
69.85000000000004
 20
10.70656831694515
 30
0.0
  0
POINT
  5
10C
330
102
100
AcDbEntity
  8
Defpoints
 62
     0
100
AcDbPoint
 10
30.16250000000002
 20
8.410781036907993
 30
0.0
  0
POINT
  5
10D
330
102
100
AcDbEntity
  8
Defpoints
 62
     0
100
AcDbPoint
 10
30.16250000000002
 20
27.10367905054913
 30
0.0
  0
ENDBLK
  5
104
330
102
100
AcDbEntity
  8
0
100
AcDbBlockEnd
  0
BLOCK
  5
118
330
117
100
AcDbEntity
  8
0
100
AcDbBlockBegin
  2
_D_3
 70
     0
 10
0.0
 20
0.0
 30
0.0
  3
_D_3
  1

  0
LINE
  5
11A
330
117
100
AcDbEntity
  8
치수문자_일반주서
 62
     0
370
    -2
100
AcDbLine
 10
-69.85000000000002
 20
10.76906831694514
 30
0.0
 11
-69.85000000000001
 21
42.10367905054913
 31
0.0
  0
LINE
  5
11B
330
117
100
AcDbEntity
  8
치수문자_일반주서
 62
     0
370
    -2
100
AcDbLine
 10
69.85000000000004
 20
10.76906831694515
 30
0.0
 11
69.85000000000005
 21
42.10367905054913
 31
0.0
  0
LINE
  5
11C
330
117
100
AcDbEntity
  8
치수문자_일반주서
 62
     0
370
    -2
100
AcDbLine
 10
-66.548
 20
42.10367905054913
 30
0.0
 11
66.54800000000006
 21
42.10367905054913
 31
0.0
  0
SOLID
  5
11D
330
117
100
AcDbEntity
  8
치수문자_일반주서
 62
     0
100
AcDbTrace
 10
-66.548
 20
42.65401238388247
 30
0.0
 11
-66.548
 21
41.5533457172158
 31
0.0
 12
-69.85000000000001
 22
42.10367905054913
 32
0.0
 13
-69.85000000000001
 23
42.10367905054913
 33
0.0
  0
SOLID
  5
11E
330
117
100
AcDbEntity
  8
치수문자_일반주서
 62
     0
100
AcDbTrace
 10
66.54800000000006
 20
41.5533457172158
 30
0.0
 11
66.54800000000006
 21
42.65401238388247
 31
0.0
 12
69.85000000000005
 22
42.10367905054913
 32
0.0
 13
69.85000000000005
 23
42.10367905054913
 33
0.0
  0
MTEXT
  5
11F
330
117
100
AcDbEntity
  8
치수문자_일반주서
 62
     0
100
AcDbMText
 10
0.0000000000000284
 20
46.97867905054913
 30
0.0
 40
4.0
 41
0.0
 71
     2
 72
     1
  1
\A1;139.7 [5 1/2]
  7
SLDTEXTSTYLE0
 73
     1
 44
1.0
  0
POINT
  5
120
330
117
100
AcDbEntity
  8
Defpoints
 62
     0
100
AcDbPoint
 10
-69.85000000000002
 20
10.70656831694514
 30
0.0
  0
POINT
  5
121
330
117
100
AcDbEntity
  8
Defpoints
 62
     0
100
AcDbPoint
 10
69.85000000000004
 20
10.70656831694515
 30
0.0
  0
POINT
  5
122
330
117
100
AcDbEntity
  8
Defpoints
 62
     0
100
AcDbPoint
 10
69.85000000000004
 20
42.10367905054913
 30
0.0
  0
ENDBLK
  5
119
330
117
100
AcDbEntity
  8
0
100
AcDbBlockEnd
  0
BLOCK
  5
131
330
130
100
AcDbEntity
  8
0
100
AcDbBlockBegin
  2
SW_DOWELSYMBOL_0
 70
     0
 10
0.0
 20
0.0
 30
0.0
  3
SW_DOWELSYMBOL_0
  1

  0
CIRCLE
  5
133
330
130
100
AcDbEntity
  8
해칭선
 62
     0
100
AcDbCircle
 10
0.0
 20
0.0
 30
0.0
 40
3.000000000000001
  0
HATCH
  5
134
330
130
100
AcDbEntity
  8
0
  6
Continuous
 62
     0
370
     0
100
AcDbHatch
 10
0.0
 20
0.0
 30
0.0
210
0.0
220
0.0
230
1.0
  2
SOLID
 70
     1
 71
     0
 91
        1
 92
        0
 93
        3
 72
     2
 10
0.0
 20
0.0
 40
3.000000000000001
 50
0.0
 51
90.0
 73
     1
 72
     1
 10
0.0
 20
3.000000000000001
 11
0.0
 21
0.0
 72
     1
 10
0.0
 20
0.0
 11
3.000000000000001
 21
0.0
 97
        0
 75
     0
 76
     1
 98
        1
 10
0.0
 20
0.0
  0
HATCH
  5
135
330
130
100
AcDbEntity
  8
0
  6
Continuous
 62
     0
370
     0
100
AcDbHatch
 10
0.0
 20
0.0
 30
0.0
210
0.0
220
0.0
230
1.0
  2
SOLID
 70
     1
 71
     0
 91
        1
 92
        0
 93
        3
 72
     2
 10
0.0
 20
0.0
 40
3.000000000000001
 50
180.0
 51
270.0000000000008
 73
     1
 72
     1
 10
0.0
 20
-3.000000000000001
 11
0.0
 21
0.0
 72
     1
 10
0.0
 20
0.0
 11
-3.000000000000001
 21
0.0
 97
        0
 75
     0
 76
     1
 98
        1
 10
0.0
 20
0.0
  0
ENDBLK
  5
132
330
130
100
AcDbEntity
  8
0
100
AcDbBlockEnd
  0
BLOCK
  5
197
330
196
100
AcDbEntity
  8
0
100
AcDbBlockBegin
  2
*D8
 70
     1
 10
0.0
 20
0.0
 30
0.0
  3
*D8
  1

  0
LINE
  5
199
330
196
100
AcDbEntity
  8
치수문자_일반주서
 62
     0
370
    -2
100
AcDbLine
 10
77.54620000000017
 20
7.699178019198558
 30
0.0
 11
77.54620000000017
 21
23.83568883684194
 31
0.0
  0
LINE
  5
19A
330
196
100
AcDbEntity
  8
치수문자_일반주서
 62
     0
370
    -2
100
AcDbLine
 10
37.85870000000016
 20
6.438861833078366
 30
0.0
 11
37.85870000000016
 21
23.83568883684194
 31
0.0
  0
LINE
  5
19B
330
196
100
AcDbEntity
  8
치수문자_일반주서
 62
     0
370
    -2
100
AcDbLine
 10
74.24420000000018
 20
23.83568883684194
 30
0.0
 11
41.16070000000016
 21
23.83568883684194
 31
0.0
  0
SOLID
  5
19C
330
196
100
AcDbEntity
  8
치수문자_일반주서
 62
     0
100
AcDbTrace
 10
74.24420000000018
 20
23.28535550350861
 30
0.0
 11
74.24420000000018
 21
24.38602217017528
 31
0.0
 12
77.54620000000017
 22
23.83568883684194
 32
0.0
 13
77.54620000000017
 23
23.83568883684194
 33
0.0
  0
SOLID
  5
19D
330
196
100
AcDbEntity
  8
치수문자_일반주서
 62
     0
100
AcDbTrace
 10
41.16070000000016
 20
24.38602217017528
 30
0.0
 11
41.16070000000016
 21
23.28535550350861
 31
0.0
 12
37.85870000000016
 22
23.83568883684194
 32
0.0
 13
37.85870000000016
 23
23.83568883684194
 33
0.0
  0
MTEXT
  5
19E
330
196
100
AcDbEntity
  8
치수문자_일반주서
 62
     0
100
AcDbMText
 10
57.70245000000016
 20
28.71068883684194
 30
0.0
 40
4.0
 41
0.0
 71
     2
 72
     1
  1
\A1;39.69 [1 9/16]
  7
SLDTEXTSTYLE0
 73
     1
 44
1.0
  0
POINT
  5
19F
330
196
100
AcDbEntity
  8
Defpoints
 62
     0
100
AcDbPoint
 10
77.54620000000017
 20
7.636678019198558
 30
0.0
  0
POINT
  5
1A0
330
196
100
AcDbEntity
  8
Defpoints
 62
     0
100
AcDbPoint
 10
37.85870000000016
 20
6.376361833078366
 30
0.0
  0
POINT
  5
1A1
330
196
100
AcDbEntity
  8
Defpoints
 62
     0
100
AcDbPoint
 10
37.85870000000016
 20
23.83568883684194
 30
0.0
  0
ENDBLK
  5
198
330
196
100
AcDbEntity
  8
0
100
AcDbBlockEnd
  0
BLOCK
  5
1A9
330
1A8
100
AcDbEntity
  8
0
100
AcDbBlockBegin
  2
*D9
 70
     1
 10
0.0
 20
0.0
 30
0.0
  3
*D9
  1

  0
LINE
  5
1AB
330
1A8
100
AcDbEntity
  8
치수문자_일반주서
 62
     0
370
    -2
100
AcDbLine
 10
130.4009761733437
 20
-25.65767401170087
 30
0.0
 11
130.4009761733437
 21
-9.52116319405749
 31
0.0
  0
LINE
  5
1AC
330
1A8
100
AcDbEntity
  8
치수문자_일반주서
 62
     0
370
    -2
100
AcDbLine
 10
90.71347617334371
 20
-26.91799019782107
 30
0.0
 11
90.71347617334371
 21
-9.52116319405749
 31
0.0
  0
LINE
  5
1AD
330
1A8
100
AcDbEntity
  8
치수문자_일반주서
 62
     0
370
    -2
100
AcDbLine
 10
127.0989761733437
 20
-9.52116319405749
 30
0.0
 11
94.0154761733437
 21
-9.52116319405749
 31
0.0
  0
SOLID
  5
1AE
330
1A8
100
AcDbEntity
  8
치수문자_일반주서
 62
     0
100
AcDbTrace
 10
127.0989761733437
 20
-10.07149652739082
 30
0.0
 11
127.0989761733437
 21
-8.970829860724157
 31
0.0
 12
130.4009761733437
 22
-9.52116319405749
 32
0.0
 13
130.4009761733437
 23
-9.52116319405749
 33
0.0
  0
SOLID
  5
1AF
330
1A8
100
AcDbEntity
  8
치수문자_일반주서
 62
     0
100
AcDbTrace
 10
94.0154761733437
 20
-8.970829860724157
 30
0.0
 11
94.0154761733437
 21
-10.07149652739082
 31
0.0
 12
90.71347617334371
 22
-9.52116319405749
 32
0.0
 13
90.71347617334371
 23
-9.52116319405749
 33
0.0
  0
MTEXT
  5
1B0
330
1A8
100
AcDbEntity
  8
치수문자_일반주서
 62
     0
100
AcDbMText
 10
110.5572261733437
 20
-4.64616319405749
 30
0.0
 40
4.0
 41
0.0
 71
     2
 72
     1
  1
\A1;39.69 [1 9/16]
  7
SLDTEXTSTYLE0
 73
     1
 44
1.0
  0
POINT
  5
1B1
330
1A8
100
AcDbEntity
  8
Defpoints
 62
     0
100
AcDbPoint
 10
130.4009761733437
 20
-25.72017401170087
 30
0.0
  0
POINT
  5
1B2
330
1A8
100
AcDbEntity
  8
Defpoints
 62
     0
100
AcDbPoint
 10
90.71347617334371
 20
-26.98049019782107
 30
0.0
  0
POINT
  5
1B3
330
1A8
100
AcDbEntity
  8
Defpoints
 62
     0
100
AcDbPoint
 10
90.71347617334371
 20
-9.52116319405749
 30
0.0
  0
ENDBLK
  5
1AA
330
1A8
100
AcDbEntity
  8
0
100
AcDbBlockEnd
  0
ENDSEC
  0
SECTION
  2
ENTITIES
  0
LINE
  5
96
330
1F
100
AcDbEntity
  8
외형선
  6
Continuous
370
    15
100
AcDbLine
 10
27.11261054365969
 20
11.11249999999999
 30
0.0
 11
7.696199999999983
 21
11.11249999999999
 31
0.0
  0
LINE
  5
97
330
1F
100
AcDbEntity
  8
외형선
  6
Continuous
370
    15
100
AcDbLine
 10
-27.1126105436597
 20
-11.1125
 30
0.0
 11
27.11261054365968
 21
-11.1125
 31
0.0
  0
SPLINE
  5
9A
330
1F
100
AcDbEntity
  8
외형선
  6
Continuous
370
    15
100
AcDbSpline
210
0.0
220
0.0
230
1.0
 70
     8
 71
     3
 72
     9
 73
     5
 74
     0
 42
0.000000001
 43
0.00000001
 40
0.0
 40
0.0
 40
0.0
 40
0.0
 40
0.4708826892721328
 40
1.0
 40
1.0
 40
1.0
 40
1.0
 10
27.11265281271572
 20
-8.543540175246148
 30
0.0
 10
27.58843943012627
 20
-8.51754745873144
 30
0.0
 10
28.59885376102044
 20
-8.462347475578769
 30
0.0
 10
29.62143471541123
 20
-8.428624412852821
 30
0.0
 10
30.16250000000002
 20
-8.410780956593761
 30
0.0
  0
LINE
  5
9B
330
1F
100
AcDbEntity
  8
외형선
  6
Continuous
370
    15
100
AcDbLine
 10
30.16250000000002
 20
8.410780956593749
 30
0.0
 11
29.86958413403617
 21
8.421338261461214
 31
0.0
  0
SPLINE
  5
9C
330
1F
100
AcDbEntity
  8
0
  6
Continuous
 62
     1
370
    15
100
AcDbSpline
210
0.0
220
0.0
230
1.0
 70
     8
 71
     3
 72
    10
 73
     6
 74
     0
 42
0.000000001
 43
0.00000001
 40
0.0
 40
0.0
 40
0.0
 40
0.0
 40
0.3857854923998991
 40
0.5697660359031369
 40
1.0
 40
1.0
 40
1.0
 40
1.0
 10
42.08791603131105
 20
2.745867648550443
 30
0.0
 10
41.70062326504088
 20
2.929871268568962
 30
0.0
 10
41.12863113853818
 20
3.201625948916311
 30
0.0
 10
40.15423634389284
 20
3.68995841456702
 30
0.0
 10
39.54369024649921
 20
4.009104980062978
 30
0.0
 10
39.11602586460131
 20
4.232655043277413
 30
0.0
1001
PE_URL
1000

  0
SPLINE
  5
9D
330
1F
100
AcDbEntity
  8
0
  6
Continuous
 62
     1
370
    15
100
AcDbSpline
210
0.0
220
0.0
230
1.0
 70
     8
 71
     3
 72
    20
 73
    16
 74
     0
 42
0.000000001
 43
0.00000001
 40
0.0
 40
0.0
 40
0.0
 40
0.0
 40
0.0585000909246181
 40
0.1151748845861824
 40
0.1745479817368308
 40
0.2589963469437623
 40
0.3545261067657862
 40
0.4398984711115731
 40
0.5128688730435073
 40
0.5778230823992214
 40
0.6373907511459718
 40
0.6946458897788423
 40
0.7607243676525135
 40
0.8621168998300438
 40
1.0
 40
1.0
 40
1.0
 40
1.0
 10
38.54546975516423
 20
8.515050338782723
 30
0.0
 10
38.44891189635121
 20
8.508600825090795
 30
0.0
 10
38.25880893977616
 20
8.495903032944423
 30
0.0
 10
37.83326194376095
 20
8.463876985855572
 30
0.0
 10
37.27340020150498
 20
8.433529536002167
 30
0.0
 10
36.56253325552807
 20
8.411920496706989
 30
0.0
 10
35.79250859523343
 20
8.399315558643703
 30
0.0
 10
35.04956693816165
 20
8.385978105624764
 30
0.0
 10
34.39474133555098
 20
8.37639785086697
 30
0.0
 10
33.8148718598666
 20
8.370183072988848
 30
0.0
 10
33.28413744717634
 20
8.367480828636747
 30
0.0
 10
32.76029000280639
 20
8.368046403875569
 30
0.0
 10
32.12757379143059
 20
8.372167887671358
 30
0.0
 10
31.24889092713496
 20
8.382858546790349
 30
0.0
 10
30.55966685871235
 20
8.400573019508753
 30
0.0
 10
30.16250000000002
 20
8.410781022690381
 30
0.0
1001
PE_URL
1000

  0
SPLINE
  5
9E
330
1F
100
AcDbEntity
  8
0
  6
Continuous
 62
     1
370
    15
100
AcDbSpline
210
0.0
220
0.0
230
1.0
 70
     8
 71
     3
 72
    32
 73
    28
 74
     0
 42
0.000000001
 43
0.00000001
 40
0.0
 40
0.0
 40
0.0
 40
0.0
 40
0.0372894584153827
 40
0.0698416137032725
 40
0.1008661660290358
 40
0.134282013450478
 40
0.1844182624120343
 40
0.2292280631786472
 40
0.2678484490045189
 40
0.3013367504742608
 40
0.3310883915005275
 40
0.3658981595333635
 40
0.4091017286485756
 40
0.4453130039621803
 40
0.4744983917311459
 40
0.5271815423485533
 40
0.5823151365746302
 40
0.6370996638829214
 40
0.6968011392891186
 40
0.744818604416979
 40
0.7912758008121787
 40
0.835079689882069
 40
0.8547555103856225
 40
0.8751863596071577
 40
0.9052678238109839
 40
0.946930298055944
 40
1.0
 40
1.0
 40
1.0
 40
1.0
 10
65.86902028121398
 20
7.328982562067555
 30
0.0
 10
65.76473459826153
 20
7.316837749931011
 30
0.0
 10
65.56941182627563
 20
7.294091018983863
 30
0.0
 10
65.09442678719057
 20
7.228173797473267
 30
0.0
 10
64.49996526260523
 20
7.173640986160297
 30
0.0
 10
63.72941183071922
 20
7.138320504539884
 30
0.0
 10
62.9008836786746
 20
7.120922599096931
 30
0.0
 10
62.01881845190075
 20
7.09278936893911
 30
0.0
 10
61.24436399272036
 20
7.071926658158863
 30
0.0
 10
60.57475616609125
 20
7.058828523434876
 30
0.0
 10
59.95125822595064
 20
7.052223810483107
 30
0.0
 10
59.26707168623521
 20
7.050650333434752
 30
0.0
 10
58.53395131118893
 20
7.056472343888172
 30
0.0
 10
57.83807500503639
 20
7.069297386579655
 30
0.0
 10
57.08099878111982
 20
7.089771519871985
 30
0.0
 10
56.20275384112725
 20
7.123068306027005
 30
0.0
 10
55.16794954554492
 20
7.176713682275012
 30
0.0
 10
54.10104215695328
 20
7.246196974761824
 30
0.0
 10
53.05198441602934
 20
7.330667835279733
 30
0.0
 10
52.04819695990523
 20
7.424925501853163
 30
0.0
 10
51.14496348453338
 20
7.519747673744892
 30
0.0
 10
50.42005796256014
 20
7.602109690725056
 30
0.0
 10
49.88330983718392
 20
7.669017651303212
 30
0.0
 10
49.45495738195886
 20
7.725231849178248
 30
0.0
 10
48.87647944178301
 20
7.803108649114194
 30
0.0
 10
48.08878018207057
 20
7.914423686392557
 30
0.0
 10
47.48635611618957
 20
8.007468578392944
 30
0.0
 10
47.14887346872623
 20
8.059593050610545
 30
0.0
1001
PE_URL
1000

  0
SPLINE
  5
9F
330
1F
100
AcDbEntity
  8
0
  6
Continuous
 62
     1
370
    15
100
AcDbSpline
210
0.0
220
0.0
230
1.0
 70
     8
 71
     3
 72
    18
 73
    14
 74
     0
 42
0.000000001
 43
0.00000001
 40
0.0
 40
0.0
 40
0.0
 40
0.0
 40
0.1239098364710699
 40
0.2264173141828041
 40
0.3124245389980981
 40
0.3839616559269708
 40
0.4525122735086426
 40
0.5280553001466357
 40
0.6088655451563322
 40
0.6920931899532133
 40
0.8078571083307917
 40
0.9461213174389628
 40
1.0
 40
1.0
 40
1.0
 40
1.0
 10
47.14887346872623
 20
-8.059593050610559
 30
0.0
 10
47.45371508486804
 20
-8.011426010704284
 30
0.0
 10
48.01074446965045
 20
-7.923411595397867
 30
0.0
 10
48.87071283258328
 20
-7.802782685523381
 30
0.0
 10
49.59587083492707
 20
-7.707494853015906
 30
0.0
 10
50.17299631793834
 20
-7.634382267836591
 30
0.0
 10
50.7169503639448
 20
-7.567037564736976
 30
0.0
 10
51.3457790267342
 20
-7.498428867884551
 30
0.0
 10
52.00229549052516
 20
-7.430377022473914
 30
0.0
 10
52.76584167405892
 20
-7.356893359631191
 30
0.0
 10
53.66103329201811
 20
-7.281226590951457
 30
0.0
 10
54.4836423672601
 20
-7.218762174913473
 30
0.0
 10
54.99833733599979
 20
-7.190876722034248
 30
0.0
 10
55.14266266906613
 20
-7.183057377531317
 30
0.0
1001
PE_URL
1000

  0
SPLINE
  5
A0
330
1F
100
AcDbEntity
  8
0
  6
Continuous
 62
     1
370
    15
100
AcDbSpline
210
0.0
220
0.0
230
1.0
 70
     8
 71
     3
 72
    19
 73
    15
 74
     0
 42
0.000000001
 43
0.00000001
 40
0.0
 40
0.0
 40
0.0
 40
0.0
 40
0.1381278403600485
 40
0.2454721329605939
 40
0.3220611736248341
 40
0.378070719621688
 40
0.4351160785015046
 40
0.4942189037811303
 40
0.5587148055278286
 40
0.6484869600440772
 40
0.7544483056867908
 40
0.8706292840012139
 40
0.9468056701881121
 40
1.0
 40
1.0
 40
1.0
 40
1.0
 10
30.16250000000001
 20
-8.410781022690387
 30
0.0
 10
30.50966717433862
 20
-8.401731472800213
 30
0.0
 10
31.12663089835445
 20
-8.385649180424663
 30
0.0
 10
31.93314678117637
 20
-8.37420640184701
 30
0.0
 10
32.52956332102917
 20
-8.369362761750716
 30
0.0
 10
32.99485945116791
 20
-8.367537426157265
 30
0.0
 10
33.42951493808991
 20
-8.368049892776947
 30
0.0
 10
33.88960081125551
 20
-8.370946342882828
 30
0.0
 10
34.43590234558765
 20
-8.376941494463315
 30
0.0
 10
35.10127841347453
 20
-8.386801966513465
 30
0.0
 10
35.89661386000257
 20
-8.401119789069504
 30
0.0
 10
36.6519703369668
 20
-8.414065413319943
 30
0.0
 10
37.28942008826836
 20
-8.434509064114401
 30
0.0
 10
37.59638138657309
 20
-8.452201044137421
 30
0.0
 10
37.72259697110816
 20
-8.459475588558886
 30
0.0
1001
PE_URL
1000

  0
SPLINE
  5
A1
330
1F
100
AcDbEntity
  8
0
  6
Continuous
 62
     1
370
    15
100
AcDbSpline
210
0.0
220
0.0
230
1.0
 70
     8
 71
     3
 72
     9
 73
     5
 74
     0
 42
0.000000001
 43
0.00000001
 40
0.0
 40
0.0
 40
0.0
 40
0.0
 40
0.4303548036846903
 40
0.9999999999999999
 40
0.9999999999999999
 40
0.9999999999999999
 40
0.9999999999999999
 10
37.91862873526203
 20
-8.471484671238697
 30
0.0
 10
38.02875961921724
 20
-8.479246280280483
 30
0.0
 10
38.28466679862427
 20
-8.49728165243232
 30
0.0
 10
38.45082088054812
 20
-8.508601845296369
 30
0.0
 10
38.54546975516423
 20
-8.515050338782734
 30
0.0
1001
PE_URL
1000

  0
SPLINE
  5
A2
330
1F
100
AcDbEntity
  8
외형선
  6
Continuous
370
    15
100
AcDbSpline
210
0.0
220
0.0
230
1.0
 70
     8
 71
     3
 72
     8
 73
     4
 74
     0
 42
0.000000001
 43
0.00000001
 40
0.0
 40
0.0
 40
0.0
 40
0.0
 40
1.0
 40
1.0
 40
1.0
 40
1.0
 10
27.68134233574613
 20
9.386708471612831
 30
0.0
 10
27.49212626685891
 20
9.447484377068228
 30
0.0
 10
27.30254327004403
 20
9.506829100776862
 30
0.0
 10
27.11272628019037
 20
9.564696125690253
 30
0.0
  0
LINE
  5
A3
330
1F
100
AcDbEntity
  8
외형선
  6
Continuous
370
    15
100
AcDbLine
 10
27.68134233574613
 20
9.386708471612762
 30
0.0
 11
27.68134233574613
 21
7.408220705132806
 31
0.0
  0
SPLINE
  5
A4
330
1F
100
AcDbEntity
  8
외형선
  6
Continuous
370
    15
100
AcDbSpline
210
0.0
220
0.0
230
1.0
 70
     8
 71
     3
 72
     8
 73
     4
 74
     0
 42
0.000000001
 43
0.00000001
 40
0.0
 40
0.0
 40
0.0
 40
0.0
 40
1.0
 40
1.0
 40
1.0
 40
1.0
 10
27.68134233574614
 20
7.408220705132805
 30
0.0
 10
27.49208781015758
 20
7.492872814959746
 30
0.0
 10
27.30246620742997
 20
7.576418630961958
 30
0.0
 10
27.11261054365977
 20
7.658795523878575
 30
0.0
  0
LINE
  5
A5
330
1F
100
AcDbEntity
  8
외형선
  6
Continuous
370
    15
100
AcDbLine
 10
27.11261054365969
 20
-11.1125
 30
0.0
 11
27.11261054365977
 21
7.658898513844287
 31
0.0
  0
SPLINE
  5
A6
330
1F
100
AcDbEntity
  8
외형선
  6
Continuous
370
    15
100
AcDbSpline
210
0.0
220
0.0
230
1.0
 70
     8
 71
     3
 72
     8
 73
     4
 74
     0
 42
0.000000001
 43
0.00000001
 40
0.0
 40
0.0
 40
0.0
 40
0.0
 40
1.0
 40
1.0
 40
1.0
 40
1.0
 10
27.68134233574613
 20
-9.386708471612842
 30
0.0
 10
27.49212626685891
 20
-9.447484377068239
 30
0.0
 10
27.30254327004403
 20
-9.506829100776873
 30
0.0
 10
27.11272628019037
 20
-9.564696125690263
 30
0.0
  0
LINE
  5
A7
330
1F
100
AcDbEntity
  8
외형선
  6
Continuous
370
    15
100
AcDbLine
 10
27.11261054365973
 20
9.564844569943173
 30
0.0
 11
27.11261054365969
 21
11.11249999999999
 31
0.0
  0
SPLINE
  5
AA
330
1F
100
AcDbEntity
  8
외형선
  6
Continuous
370
    15
100
AcDbSpline
210
0.0
220
0.0
230
1.0
 70
    24
 71
     3
 72
    10
 73
     6
 74
     0
 42
0.000000001
 43
0.00000001
 40
0.0
 40
0.0
 40
0.0
 40
0.0
 40
0.5
 40
0.5
 40
1.0
 40
1.0
 40
1.0
 40
1.0
 10
30.16250000000002
 20
6.127178616282027
 30
0.0
 10
30.16250000000002
 20
5.954462551013813
 30
0.0
 10
30.16250000000002
 20
5.671553139307256
 30
0.0
 10
30.16250000000002
 20
4.942154570933945
 30
0.0
 10
30.16250000000002
 20
4.498238909498369
 30
0.0
 10
30.16250000000002
 20
4.032448600680373
 30
0.0
  0
SPLINE
  5
AB
330
1F
100
AcDbEntity
  8
외형선
  6
Continuous
370
    15
100
AcDbSpline
210
0.0
220
0.0
230
1.0
 70
     8
 71
     3
 72
    10
 73
     6
 74
     0
 42
0.000000001
 43
0.00000001
 40
0.0
 40
0.0
 40
0.0
 40
0.0
 40
0.5
 40
0.5
 40
1.0
 40
1.0
 40
1.0
 40
1.0
 10
30.16249999999992
 20
4.032448600680409
 30
0.0
 10
29.6539316214904
 20
4.205699466033172
 30
0.0
 10
29.14400492504452
 20
4.37455803220978
 30
0.0
 10
28.12659409300166
 20
4.701779530899315
 30
0.0
 10
27.62082992299759
 20
4.859975403822698
 30
0.0
 10
27.11263843207059
 20
5.012785237941257
 30
0.0
  0
SPLINE
  5
AC
330
1F
100
AcDbEntity
  8
외형선
  6
Continuous
370
    15
100
AcDbSpline
210
0.0
220
0.0
230
1.0
 70
     8
 71
     3
 72
     8
 73
     4
 74
     0
 42
0.000000001
 43
0.00000001
 40
0.0
 40
0.0
 40
0.0
 40
0.0
 40
1.0
 40
1.0
 40
1.0
 40
1.0
 10
27.68134233574613
 20
7.408220705132806
 30
0.0
 10
28.17530032538668
 20
7.138106629689923
 30
0.0
 10
28.66895336126162
 20
6.86569165148258
 30
0.0
 10
29.16249999999987
 20
6.591251142567649
 30
0.0
  0
SPLINE
  5
AD
330
1F
100
AcDbEntity
  8
외형선
  6
Continuous
370
    15
100
AcDbSpline
210
0.0
220
0.0
230
1.0
 70
     8
 71
     3
 72
     8
 73
     4
 74
     0
 42
0.000000001
 43
0.00000001
 40
0.0
 40
0.0
 40
0.0
 40
0.0
 40
1.0
 40
1.0
 40
1.0
 40
1.0
 10
30.16250000000002
 20
6.127178616282029
 30
0.0
 10
29.82950762985255
 20
6.284849606421338
 30
0.0
 10
29.49593296765885
 20
6.439653825949544
 30
0.0
 10
29.16250000000002
 20
6.591251142567563
 30
0.0
  0
LINE
  5
AE
330
1F
100
AcDbEntity
  8
외형선
  6
Continuous
370
    15
100
AcDbLine
 10
29.16250000000002
 20
8.668249361301463
 30
0.0
 11
29.16250000000002
 21
6.591251142567563
 31
0.0
  0
SPLINE
  5
AF
330
1F
100
AcDbEntity
  8
외형선
  6
Continuous
370
    15
100
AcDbSpline
210
0.0
220
0.0
230
1.0
 70
     8
 71
     3
 72
     8
 73
     4
 74
     0
 42
0.000000001
 43
0.00000001
 40
0.0
 40
0.0
 40
0.0
 40
0.0
 40
1.0
 40
1.0
 40
1.0
 40
1.0
 10
30.16249999999998
 20
8.316781272234284
 30
0.0
 10
29.82950762985253
 20
8.437969267168668
 30
0.0
 10
29.49593296765885
 20
8.555211946288276
 30
0.0
 10
29.16250000000002
 20
8.668249361301466
 30
0.0
  0
LINE
  5
B0
330
1F
100
AcDbEntity
  8
외형선
  6
Continuous
370
    15
100
AcDbLine
 10
30.16250000000002
 20
8.316781272234266
 30
0.0
 11
30.16250000000002
 21
6.127178616282032
 31
0.0
  0
SPLINE
  5
B1
330
1F
100
AcDbEntity
  8
외형선
  6
Continuous
370
    15
100
AcDbSpline
210
0.0
220
0.0
230
1.0
 70
     8
 71
     3
 72
     8
 73
     4
 74
     0
 42
0.000000001
 43
0.00000001
 40
0.0
 40
0.0
 40
0.0
 40
0.0
 40
1.0
 40
1.0
 40
1.0
 40
1.0
 10
29.16250000000002
 20
8.668249361301472
 30
0.0
 10
28.66735066410509
 20
8.909898928110454
 30
0.0
 10
28.17369110071493
 20
9.149551856871566
 30
0.0
 10
27.68134233574611
 20
9.386708471612845
 30
0.0
  0
SPLINE
  5
B2
330
1F
100
AcDbEntity
  8
외형선
  6
Continuous
370
    15
100
AcDbSpline
210
0.0
220
0.0
230
1.0
 70
     8
 71
     3
 72
    10
 73
     6
 74
     0
 42
0.000000001
 43
0.00000001
 40
0.0
 40
0.0
 40
0.0
 40
0.0
 40
0.5
 40
0.5
 40
1.0
 40
1.0
 40
1.0
 40
1.0
 10
30.16249999999994
 20
-7.228372366476657
 30
0.0
 10
29.65393402004219
 20
-7.10213568139677
 30
0.0
 10
29.14400973495544
 20
-6.967637682956314
 30
0.0
 10
28.12660367827939
 20
-6.683475582527883
 30
0.0
 10
27.6208418752456
 20
-6.533998642342272
 30
0.0
 10
27.11265281271572
 20
-6.377111202113489
 30
0.0
  0
SPLINE
  5
B3
330
1F
100
AcDbEntity
  8
외형선
  6
Continuous
370
    15
100
AcDbSpline
210
0.0
220
0.0
230
1.0
 70
    24
 71
     3
 72
    14
 73
    10
 74
     0
 42
0.000000001
 43
0.00000001
 40
0.0
 40
0.0
 40
0.0
 40
0.0
 40
0.2499999999999999
 40
0.2499999999999999
 40
0.4999999999999999
 40
0.4999999999999999
 40
0.7499999999999999
 40
0.7499999999999999
 40
1.0
 40
1.0
 40
1.0
 40
1.0
 10
30.16250000000002
 20
4.032448600680373
 30
0.0
 10
30.16250000000002
 20
3.141753946810921
 30
0.0
 10
30.16250000000002
 20
2.182227593876868
 30
0.0
 10
30.16250000000002
 20
0.2017478996703885
 30
0.0
 10
30.16250000000002
 20
-0.8183621019003585
 30
0.0
 10
30.16250000000002
 20
-2.819734649733125
 30
0.0
 10
30.16250000000002
 20
-3.799930781027836
 30
0.0
 10
30.16250000000002
 20
-5.628325733053209
 30
0.0
 10
30.16250000000002
 20
-6.475894825308693
 30
0.0
 10
30.16250000000002
 20
-7.228372366476672
 30
0.0
  0
SPLINE
  5
B4
330
1F
100
AcDbEntity
  8
외형선
  6
Continuous
370
    15
100
AcDbSpline
210
0.0
220
0.0
230
1.0
 70
    24
 71
     3
 72
    11
 73
     7
 74
     0
 42
0.000000001
 43
0.00000001
 40
0.0
 40
0.0
 40
0.0
 40
0.0
 40
0.2510470417514333
 40
0.5020940835028666
 40
0.8696325119180328
 40
0.9999999999999999
 40
0.9999999999999999
 40
0.9999999999999999
 40
0.9999999999999999
 10
30.16250000000002
 20
-7.228372366476678
 30
0.0
 10
30.16250000000002
 20
-7.410397601451495
 30
0.0
 10
30.16250000000002
 20
-7.774448071401133
 30
0.0
 10
30.16250000000002
 20
-8.184862721294271
 30
0.0
 10
30.16250000000002
 20
-8.424112239923913
 30
0.0
 10
30.16250000000002
 20
-8.38268397427859
 30
0.0
 10
30.16250000000002
 20
-8.371836746421229
 30
0.0
  0
SPLINE
  5
B5
330
1F
100
AcDbEntity
  8
외형선
  6
Continuous
370
    15
100
AcDbSpline
210
0.0
220
0.0
230
1.0
 70
     8
 71
     3
 72
     9
 73
     5
 74
     0
 42
0.000000001
 43
0.00000001
 40
0.0
 40
0.0
 40
0.0
 40
0.0
 40
0.3769556085293277
 40
1.0
 40
1.0
 40
1.0
 40
1.0
 10
29.86892757118515
 20
-8.421572623074637
 30
0.0
 10
29.7801707690531
 20
-8.453463027274415
 30
0.0
 10
29.54471386080249
 20
-8.538062920413557
 30
0.0
 10
29.30922192798102
 20
-8.618274183624886
 30
0.0
 10
29.16250000000002
 20
-8.668249361301479
 30
0.0
  0
SPLINE
  5
B6
330
1F
100
AcDbEntity
  8
외형선
  6
Continuous
370
    15
100
AcDbSpline
210
0.0
220
0.0
230
1.0
 70
     8
 71
     3
 72
     8
 73
     4
 74
     0
 42
0.000000001
 43
0.00000001
 40
0.0
 40
0.0
 40
0.0
 40
0.0
 40
1.0
 40
1.0
 40
1.0
 40
1.0
 10
29.16250000000002
 20
-8.668249361301484
 30
0.0
 10
28.66735066410509
 20
-8.909898928110465
 30
0.0
 10
28.17369110071493
 20
-9.149551856871579
 30
0.0
 10
27.68134233574611
 20
-9.386708471612856
 30
0.0
  0
SPLINE
  5
B7
330
1F
100
AcDbEntity
  8
0
  6
Continuous
 62
     1
370
    15
100
AcDbSpline
210
0.0
220
0.0
230
1.0
 70
     8
 71
     3
 72
    52
 73
    48
 74
     0
 42
0.000000001
 43
0.00000001
 40
0.0
 40
0.0
 40
0.0
 40
0.0
 40
0.0625000000000005
 40
0.0625000000000005
 40
0.0937500000000005
 40
0.0937500000000005
 40
0.1250000000000006
 40
0.1250000000000006
 40
0.1875000000000007
 40
0.1875000000000007
 40
0.2500000000000007
 40
0.2500000000000007
 40
0.3125000000000007
 40
0.3125000000000007
 40
0.3437500000000007
 40
0.3437500000000007
 40
0.3750000000000007
 40
0.3750000000000007
 40
0.4375000000000006
 40
0.4375000000000006
 40
0.4687500000000005
 40
0.4687500000000005
 40
0.5000000000000004
 40
0.5000000000000004
 40
0.5625000000000002
 40
0.5625000000000002
 40
0.5937500000000002
 40
0.5937500000000002
 40
0.6250000000000001
 40
0.6250000000000001
 40
0.6874999999999999
 40
0.6874999999999999
 40
0.71875
 40
0.71875
 40
0.75
 40
0.75
 40
0.8124999999999999
 40
0.8124999999999999
 40
0.8749999999999999
 40
0.8749999999999999
 40
0.9062499999999999
 40
0.9062499999999999
 40
0.9374999999999999
 40
0.9374999999999999
 40
0.96875
 40
0.96875
 40
1.0
 40
1.0
 40
1.0
 40
1.0
 10
69.85000000000002
 20
-10.70656831694515
 30
0.0
 10
69.02629944510036
 20
-10.68697029739216
 30
0.0
 10
68.19536825756157
 20
-10.63537987784048
 30
0.0
 10
66.95473933336478
 20
-10.51084371741207
 30
0.0
 10
66.543329526637
 20
-10.46156080816185
 30
0.0
 10
65.7172422734853
 20
-10.3473924201959
 30
0.0
 10
65.30292660096754
 20
-10.28250211033414
 30
0.0
 10
64.0603200945351
 20
-10.06499993166054
 30
0.0
 10
63.23706783688006
 20
-9.889898422710555
 30
0.0
 10
61.58177840781921
 20
-9.481328950410985
 30
0.0
 10
60.75328641032092
 20
-9.248046390155077
 30
0.0
 10
59.10365956327573
 20
-8.728675920070678
 30
0.0
 10
58.27252164685687
 20
-8.441496248755866
 30
0.0
 10
57.0329554842141
 20
-7.975158690090438
 30
0.0
 10
56.62163749763625
 20
-7.813908909463999
 30
0.0
 10
55.79478818864358
 20
-7.479479220046352
 30
0.0
 10
55.3803187818602
 20
-7.306426136830751
 30
0.0
 10
54.1379380860916
 20
-6.771462346489243
 30
0.0
 10
53.3150625035759
 20
-6.394375933537632
 30
0.0
 10
52.07298240504645
 20
-5.800731854350627
 30
0.0
 10
51.65844922785284
 20
-5.598296155020996
 30
0.0
 10
50.83114585885038
 20
-5.185679489350139
 30
0.0
 10
50.41957844769723
 20
-4.97570915193727
 30
0.0
 10
49.18091156611814
 20
-4.334507516093666
 30
0.0
 10
48.34971911189459
 20
-3.891884303182097
 30
0.0
 10
47.11143968260684
 20
-3.21407832828178
 30
0.0
 10
46.69970096175474
 20
-2.985774496724681
 30
0.0
 10
45.87223919652231
 20
-2.524327799904301
 30
0.0
 10
45.45769148726349
 20
-2.291399023117231
 30
0.0
 10
44.21576227605824
 20
-1.588333220798189
 30
0.0
 10
43.3928244846861
 20
-1.114447408930013
 30
0.0
 10
42.15035685131008
 20
-0.399223893640721
 30
0.0
 10
41.73592336598618
 20
-0.1602874509922414
 30
0.0
 10
40.90927490159427
 20
0.3170420102844897
 30
0.0
 10
40.49798294378155
 20
0.5552575467519552
 30
0.0
 10
39.25809274485977
 20
1.269290379333074
 30
0.0
 10
38.42699797733783
 20
1.743796760060625
 30
0.0
 10
36.77797197638291
 20
2.677143400101156
 30
0.0
 10
35.94883271224506
 20
3.13809688928573
 30
0.0
 10
34.70758038614814
 20
3.813009835413501
 30
0.0
 10
34.29578959849634
 20
4.034956616553162
 30
0.0
 10
33.47034012906711
 20
4.472862144853226
 30
0.0
 10
33.05618095031465
 20
4.688902390588669
 30
0.0
 10
32.22776132253325
 20
5.113687852102068
 30
0.0
 10
31.81350293905046
 20
5.322432006132042
 30
0.0
 10
30.98765885751055
 20
5.731250256034234
 30
0.0
 10
30.57612978291391
 20
5.931326028445683
 30
0.0
 10
30.16249999999998
 20
6.127178616282052
 30
0.0
1001
PE_URL
1000

  0
SPLINE
  5
B8
330
1F
100
AcDbEntity
  8
0
  6
Continuous
 62
     1
370
    15
100
AcDbSpline
210
0.0
220
0.0
230
1.0
 70
     8
 71
     3
 72
    11
 73
     7
 74
     0
 42
0.000000001
 43
0.00000001
 40
0.0
 40
0.0
 40
0.0
 40
0.0
 40
0.1427397537334241
 40
0.4154733442059741
 40
0.7076951634568187
 40
1.0
 40
1.0
 40
1.0
 40
1.0
 10
43.220325985426
 20
-1.012774891495601
 30
0.0
 10
42.59903356274166
 20
-0.7647289731323563
 30
0.0
 10
40.79063447397364
 20
-0.0427404273801744
 30
0.0
 10
37.7103505892543
 20
1.208114427129901
 30
0.0
 10
33.97910516149341
 20
2.682158321950068
 30
0.0
 10
31.43482217094133
 20
3.582309226513918
 30
0.0
 10
30.16250000000002
 20
4.032448600680373
 30
0.0
1001
PE_URL
1000

  0
SPLINE
  5
B9
330
1F
100
AcDbEntity
  8
외형선
  6
Continuous
370
    15
100
AcDbSpline
210
0.0
220
0.0
230
1.0
 70
    24
 71
     3
 72
    10
 73
     6
 74
     0
 42
0.000000001
 43
0.00000001
 40
0.0
 40
0.0
 40
0.0
 40
0.0
 40
0.5
 40
0.5
 40
1.0
 40
1.0
 40
1.0
 40
1.0
 10
30.16250000000002
 20
6.127178616282029
 30
0.0
 10
30.16250000000002
 20
5.954462551013816
 30
0.0
 10
30.16250000000002
 20
5.671553139307259
 30
0.0
 10
30.16250000000002
 20
4.942154570933947
 30
0.0
 10
30.16250000000002
 20
4.498238909498371
 30
0.0
 10
30.16250000000002
 20
4.032448600680373
 30
0.0
  0
SPLINE
  5
BA
330
1F
100
AcDbEntity
  8
0
  6
Continuous
 62
     1
370
    15
100
AcDbSpline
210
0.0
220
0.0
230
1.0
 70
     8
 71
     3
 72
    52
 73
    48
 74
     0
 42
0.000000001
 43
0.00000001
 40
0.0
 40
0.0
 40
0.0
 40
0.0
 40
0.0624999999999999
 40
0.0624999999999999
 40
0.0937499999999999
 40
0.0937499999999999
 40
0.1249999999999999
 40
0.1249999999999999
 40
0.1874999999999999
 40
0.1874999999999999
 40
0.2499999999999999
 40
0.2499999999999999
 40
0.3124999999999998
 40
0.3124999999999998
 40
0.3437499999999998
 40
0.3437499999999998
 40
0.3749999999999999
 40
0.3749999999999999
 40
0.4374999999999998
 40
0.4374999999999998
 40
0.4687499999999997
 40
0.4687499999999997
 40
0.4999999999999997
 40
0.4999999999999997
 40
0.5624999999999996
 40
0.5624999999999996
 40
0.5937499999999994
 40
0.5937499999999994
 40
0.6249999999999994
 40
0.6249999999999994
 40
0.6874999999999994
 40
0.6874999999999994
 40
0.7187499999999996
 40
0.7187499999999996
 40
0.7499999999999997
 40
0.7499999999999997
 40
0.8124999999999997
 40
0.8124999999999997
 40
0.8749999999999998
 40
0.8749999999999998
 40
0.9062499999999999
 40
0.9062499999999999
 40
0.9374999999999999
 40
0.9374999999999999
 40
0.96875
 40
0.96875
 40
1.0
 40
1.0
 40
1.0
 40
1.0
 10
69.85000000000002
 20
-10.16849450186308
 30
0.0
 10
69.0262994451003
 20
-10.01809403597595
 30
0.0
 10
68.19536825756143
 20
-9.836925082706507
 30
0.0
 10
66.95473933336453
 20
-9.522462230496998
 30
0.0
 10
66.54332952663674
 20
-9.410666782248759
 30
0.0
 10
65.71724227348496
 20
-9.172963116476307
 30
0.0
 10
65.30292660096717
 20
-9.04707033684427
 30
0.0
 10
64.06032009453463
 20
-8.64947627066454
 30
0.0
 10
63.23706783687952
 20
-8.358420068737134
 30
0.0
 10
61.58177840781856
 20
-7.727324608565414
 30
0.0
 10
60.75328641032021
 20
-7.387649404520293
 30
0.0
 10
59.10365956327489
 20
-6.667478184319733
 30
0.0
 10
58.27252164685596
 20
-6.285496783299691
 30
0.0
 10
57.0329554842131
 20
-5.687269050528662
 30
0.0
 10
56.62163749763521
 20
-5.48378865790481
 30
0.0
 10
55.79478818864246
 20
-5.068282615577928
 30
0.0
 10
55.38031878185906
 20
-4.856423604838438
 30
0.0
 10
54.13793808609036
 20
-4.210637750918957
 30
0.0
 10
53.31506250357458
 20
-3.767232107213203
 30
0.0
 10
52.07298240504502
 20
-3.085914660162688
 30
0.0
 10
51.6584492278514
 20
-2.856245580884625
 30
0.0
 10
50.83114585884888
 20
-2.393323014540591
 30
0.0
 10
50.41957844769572
 20
-2.160299266687332
 30
0.0
 10
49.18091156611651
 20
-1.456188741617485
 30
0.0
 10
48.34971911189287
 20
-0.9800096708560975
 30
0.0
 10
47.11143968260505
 20
-0.2651124044825486
 30
0.0
 10
46.69970096175292
 20
-0.0266355148197759
 30
0.0
 10
45.8722391965204
 20
0.4507696331866498
 30
0.0
 10
45.45769148726154
 20
0.6894710047386208
 30
0.0
 10
44.21576227605622
 20
1.40317276592851
 30
0.0
 10
43.39282448468401
 20
1.875253810697977
 30
0.0
 10
42.15035685130788
 20
2.574434130767594
 30
0.0
 10
41.73592336598396
 20
2.80579940117461
 30
0.0
 10
40.90927490159197
 20
3.263599206330412
 30
0.0
 10
40.49798294377924
 20
3.489869942191457
 30
0.0
 10
39.25809274485734
 20
4.16149209976906
 30
0.0
 10
38.42699797733535
 20
4.598942467676021
 30
0.0
 10
36.77797197638034
 20
5.441643917415403
 30
0.0
 10
35.94883271224238
 20
5.848814637416194
 30
0.0
 10
34.70758038614536
 20
6.431239894324037
 30
0.0
 10
34.29578959849356
 20
6.620435867055408
 30
0.0
 10
33.47034012906425
 20
6.988999451255797
 30
0.0
 10
33.05618095031175
 20
7.168430139055061
 30
0.0
 10
32.22776132253028
 20
7.516350937530129
 30
0.0
 10
31.81350293904746
 20
7.684840176819247
 30
0.0
 10
30.98765885750749
 20
8.009783871129896
 30
0.0
 10
30.57612978291082
 20
8.166246399576691
 30
0.0
 10
30.16249999999686
 20
8.316781272235424
 30
0.0
1001
PE_URL
1000

  0
SPLINE
  5
BB
330
1F
100
AcDbEntity
  8
0
  6
Continuous
 62
     1
370
    15
100
AcDbSpline
210
0.0
220
0.0
230
1.0
 70
     8
 71
     3
 72
    15
 73
    11
 74
     0
 42
0.000000001
 43
0.00000001
 40
0.0
 40
0.0
 40
0.0
 40
0.0
 40
0.1279540866264861
 40
0.2559265069557049
 40
0.3839127319549931
 40
0.5119082123030572
 40
0.6399083850567253
 40
0.7679086803606797
 40
0.8959045281790263
 40
1.0
 40
1.0
 40
1.0
 40
1.0
 10
69.85000000000002
 20
-8.45433092037067
 30
0.0
 10
68.66312135322775
 20
-8.207526265991628
 30
0.0
 10
66.28919399961819
 20
-7.713881594211651
 30
0.0
 10
62.72798883854271
 20
-6.607161557408806
 30
0.0
 10
59.16634939242424
 20
-5.280078281858373
 30
0.0
 10
55.6044125382528
 20
-3.753349189365625
 30
0.0
 10
52.04232584959628
 20
-2.089644588496336
 30
0.0
 10
48.48023661088955
 20
-0.351620631626243
 30
0.0
 10
45.13990809735104
 20
1.300135294766264
 30
0.0
 10
42.986984340413
 20
2.314862960839034
 30
0.0
 10
42.02137470614781
 20
2.769979314754345
 30
0.0
1001
PE_URL
1000

  0
LINE
  5
BC
330
1F
100
AcDbEntity
  8
0
  6
Continuous
 62
     1
370
    15
100
AcDbLine
 10
69.85000000000002
 20
-10.16849450186309
 30
0.0
 11
69.85000000000002
 21
-8.45433092037067
 31
0.0
1001
PE_URL
1000

  0
LINE
  5
BD
330
1F
100
AcDbEntity
  8
0
  6
Continuous
 62
     1
370
    15
100
AcDbLine
 10
69.85000000000004
 20
-10.70656831694516
 30
0.0
 11
69.85000000000002
 21
-10.16849450186308
 31
0.0
1001
PE_URL
1000

  0
SPLINE
  5
BE
330
1F
100
AcDbEntity
  8
0
  6
Continuous
 62
     1
370
    15
100
AcDbSpline
210
0.0
220
0.0
230
1.0
 70
     8
 71
     3
 72
    10
 73
     6
 74
     0
 42
0.000000001
 43
0.00000001
 40
0.0
 40
0.0
 40
0.0
 40
0.0
 40
0.5
 40
0.5
 40
1.0
 40
1.0
 40
1.0
 40
1.0
 10
69.85000000000002
 20
-2.863675193548912
 30
0.0
 10
68.9927963551944
 20
-2.189772369265825
 30
0.0
 10
68.1474931395881
 20
-1.495874080764899
 30
0.0
 10
66.48033253361942
 20
-0.0686831128657337
 30
0.0
 10
65.65844569620282
 20
0.6645600886935261
 30
0.0
 10
64.85000000000004
 20
1.420387505803878
 30
0.0
1001
PE_URL
1000

  0
LINE
  5
BF
330
1F
100
AcDbEntity
  8
0
  6
Continuous
 62
     1
370
    15
100
AcDbLine
 10
64.85000000000002
 20
2.937719435296586
 30
0.0
 11
69.85000000000002
 21
0.0
 31
0.0
1001
PE_URL
1000

  0
LINE
  5
C0
330
1F
100
AcDbEntity
  8
0
  6
Continuous
 62
     1
370
    15
100
AcDbLine
 10
69.85000000000002
 20
0.0
 30
0.0
 11
69.85000000000002
 21
-2.863675193548914
 31
0.0
1001
PE_URL
1000

  0
SPLINE
  5
C1
330
1F
100
AcDbEntity
  8
0
  6
Continuous
 62
     1
370
    15
100
AcDbSpline
210
0.0
220
0.0
230
1.0
 70
     8
 71
     3
 72
    15
 73
    11
 74
     0
 42
0.000000001
 43
0.00000001
 40
0.0
 40
0.0
 40
0.0
 40
0.0
 40
0.1080397870836553
 40
0.216085487336368
 40
0.3514903140298392
 40
0.4869001739972226
 40
0.6223101649611023
 40
0.7577153844505221
 40
0.8931109370422332
 40
1.0
 40
1.0
 40
1.0
 40
1.0
 10
64.85000000000608
 20
2.281489301187314
 30
0.0
 10
63.90275811830814
 20
2.698130061050336
 30
0.0
 10
62.00822251103572
 20
3.531434384109446
 30
0.0
 10
58.92664383954187
 20
4.781823773791304
 30
0.0
 10
55.60434822372144
 20
5.989624986742109
 30
0.0
 10
52.04230587850052
 20
7.062621612369857
 30
0.0
 10
48.48019664049307
 20
7.879284264801207
 30
0.0
 10
44.91824819447696
 20
8.396951160836773
 30
0.0
 10
41.60641226822317
 20
8.625040898147954
 30
0.0
 10
39.48194159497508
 20
8.530568317347946
 30
0.0
 10
38.54468571915422
 20
8.48888970884854
 30
0.0
1001
PE_URL
1000

  0
SPLINE
  5
C2
330
1F
100
AcDbEntity
  8
0
  6
Continuous
 62
     1
370
    15
100
AcDbSpline
210
0.0
220
0.0
230
1.0
 70
    24
 71
     3
 72
     8
 73
     4
 74
     0
 42
0.000000001
 43
0.00000001
 40
0.0
 40
0.0
 40
0.0
 40
0.0
 40
1.0
 40
1.0
 40
1.0
 40
1.0
 10
64.85000000000002
 20
1.420387505789847
 30
0.0
 10
64.85000000000002
 20
1.710607453984829
 30
0.0
 10
64.85000000000002
 20
1.997995667827977
 30
0.0
 10
64.85000000000002
 20
2.281489301190005
 30
0.0
1001
PE_URL
1000

  0
SPLINE
  5
C3
330
1F
100
AcDbEntity
  8
0
  6
Continuous
 62
     1
370
    15
100
AcDbSpline
210
0.0
220
0.0
230
1.0
 70
    24
 71
     3
 72
    10
 73
     6
 74
     0
 42
0.000000001
 43
0.00000001
 40
0.0
 40
0.0
 40
0.0
 40
0.0
 40
0.5
 40
0.5
 40
1.0
 40
1.0
 40
1.0
 40
1.0
 10
69.85000000000002
 20
-8.454330920370667
 30
0.0
 10
69.85000000000002
 20
-7.806240540293899
 30
0.0
 10
69.85000000000002
 20
-6.987353494735255
 30
0.0
 10
69.85000000000001
 20
-5.083519922899008
 30
0.0
 10
69.85000000000002
 20
-4.000222569446694
 30
0.0
 10
69.85000000000002
 20
-2.863675193549256
 30
0.0
1001
PE_URL
1000

  0
SPLINE
  5
C4
330
1F
100
AcDbEntity
  8
0
  6
Continuous
 62
     1
370
    15
100
AcDbSpline
210
0.0
220
0.0
230
1.0
 70
    24
 71
     3
 72
    10
 73
     6
 74
     0
 42
0.000000001
 43
0.00000001
 40
0.0
 40
0.0
 40
0.0
 40
0.0
 40
0.5
 40
0.5
 40
1.0
 40
1.0
 40
1.0
 40
1.0
 10
64.85000000000002
 20
2.281489301190006
 30
0.0
 10
64.85000000000002
 20
2.994980288409167
 30
0.0
 10
64.85000000000002
 20
3.672456924886829
 30
0.0
 10
64.85000000000002
 20
4.886984550676199
 30
0.0
 10
64.85000000000002
 20
5.423384483464894
 30
0.0
 10
64.85000000000002
 20
5.862107886644536
 30
0.0
1001
PE_URL
1000

  0
SPLINE
  5
C5
330
1F
100
AcDbEntity
  8
0
  6
Continuous
 62
     1
370
    15
100
AcDbSpline
210
0.0
220
0.0
230
1.0
 70
     8
 71
     3
 72
     9
 73
     5
 74
     0
 42
0.000000001
 43
0.00000001
 40
0.0
 40
0.0
 40
0.0
 40
0.0
 40
0.8943268747495706
 40
1.0
 40
1.0
 40
1.0
 40
1.0
 10
69.85000000000002
 20
7.500937499999994
 30
0.0
 10
68.66312146967304
 20
7.4953308046164
 30
0.0
 10
67.33600208655118
 20
7.489061625480797
 30
0.0
 10
66.00885207493559
 20
7.331711194189946
 30
0.0
 10
65.86860798553204
 20
7.31508348235594
 30
0.0
1001
PE_URL
1000

  0
SPLINE
  5
C6
330
1F
100
AcDbEntity
  8
0
  6
Continuous
 62
     1
370
    15
100
AcDbSpline
210
0.0
220
0.0
230
1.0
 70
     8
 71
     3
 72
     8
 73
     4
 74
     0
 42
0.000000001
 43
0.00000001
 40
0.0
 40
0.0
 40
0.0
 40
0.0
 40
1.0
 40
1.0
 40
1.0
 40
1.0
 10
69.85000000000002
 20
7.500937499999998
 30
0.0
 10
68.16676482530988
 20
7.044586781215813
 30
0.0
 10
66.4973402731358
 20
6.504249742118306
 30
0.0
 10
64.85000000000002
 20
5.862107886644534
 30
0.0
1001
PE_URL
1000

  0
SPLINE
  5
C7
330
1F
100
AcDbEntity
  8
0
  6
Continuous
 62
     1
370
    15
100
AcDbSpline
210
0.0
220
0.0
230
1.0
 70
     8
 71
     3
 72
    12
 73
     8
 74
     0
 42
0.000000001
 43
0.00000001
 40
0.0
 40
0.0
 40
0.0
 40
0.0
 40
0.1318994330390644
 40
0.3414401321783134
 40
0.5509583164756272
 40
0.7754481012222108
 40
1.0
 40
1.0
 40
1.0
 40
1.0
 10
47.16017256740366
 20
-8.022942687888401
 30
0.0
 10
46.4128364103084
 20
-8.143048788541257
 30
0.0
 10
44.47825223218943
 20
-8.453960230216575
 30
0.0
 10
41.35658009077837
 20
-8.612971338899754
 30
0.0
 10
37.71035613943631
 20
-8.516671102083805
 30
0.0
 10
33.97912776422648
 20
-8.086983428764185
 30
0.0
 10
31.43482656887257
 20
-7.514602445583616
 30
0.0
 10
30.16250000000002
 20
-7.228372366476676
 30
0.0
1001
PE_URL
1000

  0
SPLINE
  5
C8
330
1F
100
AcDbEntity
  8
외형선
  6
Continuous
370
    15
100
AcDbSpline
210
0.0
220
0.0
230
1.0
 70
    24
 71
     3
 72
    14
 73
    10
 74
     0
 42
0.000000001
 43
0.00000001
 40
0.0
 40
0.0
 40
0.0
 40
0.0
 40
0.2499999999999999
 40
0.2499999999999999
 40
0.4999999999999999
 40
0.4999999999999999
 40
0.7499999999999999
 40
0.7499999999999999
 40
1.0
 40
1.0
 40
1.0
 40
1.0
 10
30.16250000000002
 20
4.032448600680373
 30
0.0
 10
30.16250000000002
 20
3.141753946810921
 30
0.0
 10
30.16250000000002
 20
2.182227593876868
 30
0.0
 10
30.16250000000002
 20
0.2017478996703885
 30
0.0
 10
30.16250000000002
 20
-0.8183621019003585
 30
0.0
 10
30.16250000000002
 20
-2.819734649733125
 30
0.0
 10
30.16250000000002
 20
-3.799930781027836
 30
0.0
 10
30.16250000000002
 20
-5.628325733053209
 30
0.0
 10
30.16250000000002
 20
-6.475894825308693
 30
0.0
 10
30.16250000000002
 20
-7.228372366476672
 30
0.0
  0
SPLINE
  5
C9
330
1F
100
AcDbEntity
  8
외형선
  6
Continuous
370
    15
100
AcDbSpline
210
0.0
220
0.0
230
1.0
 70
    24
 71
     3
 72
    11
 73
     7
 74
     0
 42
0.000000001
 43
0.00000001
 40
0.0
 40
0.0
 40
0.0
 40
0.0
 40
0.2513266186822054
 40
0.5026532373644106
 40
0.8706009725972969
 40
1.0
 40
1.0
 40
1.0
 40
1.0
 10
30.16250000000002
 20
-7.228372366476678
 30
0.0
 10
30.16250000000002
 20
-7.410400967440278
 30
0.0
 10
30.16250000000002
 20
-7.774458169367482
 30
0.0
 10
30.16250000000002
 20
-8.18481451996221
 30
0.0
 10
30.16250000000002
 20
-8.423955029568889
 30
0.0
 10
30.16250000000002
 20
-8.382724458237147
 30
0.0
 10
30.16250000000002
 20
-8.371997142347299
 30
0.0
  0
LINE
  5
CA
330
1F
100
AcDbEntity
  8
0
  6
Continuous
 62
     1
370
    15
100
AcDbLine
 10
69.85000000000002
 20
0.0
 30
0.0
 11
69.85000000000002
 21
7.500937499999998
 31
0.0
1001
PE_URL
1000

  0
SPLINE
  5
CB
330
1F
100
AcDbEntity
  8
0
  6
Continuous
 62
     1
370
    15
100
AcDbSpline
210
0.0
220
0.0
230
1.0
 70
     8
 71
     3
 72
    12
 73
     8
 74
     0
 42
0.000000001
 43
0.00000001
 40
0.0
 40
0.0
 40
0.0
 40
0.0
 40
0.0504724673991049
 40
0.2878787734924056
 40
0.525271456371115
 40
0.7626465239592263
 40
1.0
 40
1.0
 40
1.0
 40
1.0
 10
55.13801741652183
 20
7.180980064864784
 30
0.0
 10
55.38554097979793
 20
7.293067259873077
 30
0.0
 10
56.797336033187
 20
7.932376687090892
 30
0.0
 10
59.37331073986321
 20
8.850091652178659
 30
0.0
 10
62.86583727580251
 20
9.852280867000012
 30
0.0
 10
66.3580563222678
 20
10.5130523426601
 30
0.0
 10
68.6860540679951
 20
10.64206494809547
 30
0.0
 10
69.85000000000002
 20
10.70656831694514
 30
0.0
1001
PE_URL
1000

  0
SPLINE
  5
CC
330
1F
100
AcDbEntity
  8
0
  6
Continuous
 62
     1
370
    15
100
AcDbSpline
210
0.0
220
0.0
230
1.0
 70
    24
 71
     3
 72
    10
 73
     6
 74
     0
 42
0.000000001
 43
0.00000001
 40
0.0
 40
0.0
 40
0.0
 40
0.0
 40
0.5
 40
0.5
 40
1.0
 40
1.0
 40
1.0
 40
1.0
 10
69.85000000000002
 20
7.500937499999994
 30
0.0
 10
69.85000000000002
 20
7.955625651850865
 30
0.0
 10
69.85000000000002
 20
8.484015392954197
 30
0.0
 10
69.85000000000002
 20
9.592575646671163
 30
0.0
 10
69.85000000000002
 20
10.16991503551015
 30
0.0
 10
69.85000000000002
 20
10.70656831694515
 30
0.0
1001
PE_URL
1000

  0
LINE
  5
CD
330
1F
100
AcDbEntity
  8
중심선
 62
     1
100
AcDbLine
 10
-72.85
 20
-0.0000000000000089
 30
0.0
 11
72.85
 21
0.0000000000000089
 31
0.0
  0
LINE
  5
CE
330
1F
100
AcDbEntity
  8
참조1
100
AcDbLine
 10
0.0
 20
-0.0000000000000094
 30
0.0
 11
0.0000000000000071
 21
-40.00000000000001
 31
0.0
  0
LINE
  5
CF
330
1F
100
AcDbEntity
  8
참조1
100
AcDbLine
 10
0.0000000000000071
 20
-40.00000000000001
 30
0.0
 11
-9.703215596699206
 21
-40.0
 31
0.0
  0
CIRCLE
  5
D0
330
1F
100
AcDbEntity
  8
해칭선
100
AcDbCircle
 10
0.0
 20
0.0
 30
0.0
 40
3.000000000000001
  0
INSERT
  5
D1
330
1F
100
AcDbEntity
  8
0
  6
Continuous
 62
     7
100
AcDbBlockReference
 66
     1
  2
블럭10
 10
-13.94027293212521
 20
-52.04717430164393
 30
0.0
  0
ATTRIB
  5
D2
330
D1
100
AcDbEntity
  8
FORMAT
 62
     2
100
AcDbText
 10
-23.12156822086649
 20
-49.97180738881175
 30
0.0
 40
4.233333333333333
  1
E1050054 [ 2 FLUTE ]
 41
0.75
  7
SLDTEXTSTYLE0
 11
-23.12156822086649
 21
-52.08847405547841
 31
0.0
100
AcDbAttribute
  2
AUTOATTR0
 70
     0
 74
     1
  0
SEQEND
  5
D3
330
D1
100
AcDbEntity
  8
0
  6
Continuous
 62
     7
  0
HATCH
  5
D4
330
1F
100
AcDbEntity
  8
중심선
100
AcDbHatch
 10
0.0
 20
0.0
 30
0.0
210
0.0
220
0.0
230
1.0
  2
SOLID
 70
     1
 71
     0
 91
        1
 92
        0
 93
        4
 72
     1
 10
-8.225363627744372
 20
-35.8
 11
-11.67163887158165
 21
-35.8
 72
     1
 10
-11.67163887158165
 20
-35.8
 11
-13.79986873078568
 21
-38.3363255805726
 72
     1
 10
-13.79986873078568
 20
-38.3363255805726
 11
-10.35356040183525
 21
-38.33628615127011
 72
     1
 10
-10.35356040183525
 20
-38.33628615127011
 11
-8.225363627744372
 21
-35.8
 97
        0
 75
     0
 76
     1
 98
        1
 10
19.75671167873053
 20
-0.0010749287238986
  0
HATCH
  5
D5
330
1F
100
AcDbEntity
  8
중심선
100
AcDbHatch
 10
0.0
 20
0.0
 30
0.0
210
0.0
220
0.0
230
1.0
  2
SOLID
 70
     1
 71
     0
 91
        1
 92
        0
 93
        4
 72
     1
 10
-3.212599636708418
 20
-35.79999999999998
 11
-6.658874880545675
 21
-35.8
 72
     1
 10
-6.658874880545675
 20
-35.8
 11
-11.19001288890309
 21
-41.20000000000002
 72
     1
 10
-11.19001288890309
 20
-41.20000000000002
 11
-7.743737645065806
 21
-41.20000000000002
 72
     1
 10
-7.743737645065806
 20
-41.20000000000002
 11
-3.212599636708418
 21
-35.79999999999998
 97
        0
 75
     0
 76
     1
 98
        1
 10
19.75671167873053
 20
-0.0010749287238986
  0
HATCH
  5
D6
330
1F
100
AcDbEntity
  8
중심선
100
AcDbHatch
 10
0.0
 20
0.0
 30
0.0
210
0.0
220
0.0
230
1.0
  2
SOLID
 70
     1
 71
     0
 91
        1
 92
        0
 93
        4
 72
     1
 10
1.80016435432745
 20
-35.80000000000003
 11
-1.646110889509639
 21
-35.8
 72
     1
 10
-1.646110889509639
 20
-35.8
 11
-8.69454779139889
 21
-44.20000000000002
 72
     1
 10
-8.69454779139889
 20
-44.20000000000002
 11
-5.248272547561605
 21
-44.20000000000002
 72
     1
 10
-5.248272547561605
 20
-44.20000000000002
 11
1.80016435432745
 21
-35.80000000000003
 97
        0
 75
     0
 76
     1
 98
        1
 10
19.75671167873053
 20
-0.0010749287238986
  0
HATCH
  5
D7
330
1F
100
AcDbEntity
  8
중심선
100
AcDbHatch
 10
0.0
 20
0.0
 30
0.0
210
0.0
220
0.0
230
1.0
  2
SOLID
 70
     1
 71
     0
 91
        1
 92
        0
 93
        6
 72
     3
 10
6.600054785339676
 20
-40.00000000005127
 11
3.960054785062283
 21
1.540882976769353E-10
 40
0.3939339440162628
 50
17.09539180608437
 51
320.0019657685082
 73
     0
 72
     1
 10
8.283054441040242
 20
-38.58789400463833
 11
10.58835631474131
 21
-36.65356729459038
 72
     3
 10
6.600054785286829
 20
-40.00000000000015
 11
6.600054785286829
 21
-1.278976924368180E-13
 40
0.636358354079598
 50
39.99873849337411
 51
368.4976242363725
 73
     1
 72
     1
 10
13.02538727718744
 20
-39.03999999993002
 11
5.280122092122751
 21
-39.03999999993002
 72
     1
 10
5.280122092122751
 20
-39.03999999993002
 11
5.280097047676817
 21
-40.95999999992991
 72
     1
 10
5.280097047676817
 20
-40.95999999992991
 11
9.721476817148854
 21
-40.95999999992988
 97
        0
 75
     0
 76
     1
 98
        1
 10
19.75671167873053
 20
-0.0010749287238986
  0
DIMENSION
  5
D8
330
1F
100
AcDbEntity
  8
치수문자_일반주서
100
AcDbDimension
  2
_D
 10
-84.84999999999992
 20
-11.11250000000022
 30
0.0
 11
-84.85000000000005
 21
30.78949999999993
 31
0.0
 70
   160
  1
%%c<>
 71
     2
 42
22.22499999999999
 52
-270.0
  3
SLDDIMSTYLE1
100
AcDbAlignedDimension
 13
-27.11261054365968
 23
11.11249999999998
 33
0.0
 14
-27.11261054365969
 24
-11.1125
 34
0.0
 50
90.0000000000002
100
AcDbRotatedDimension
1001
PE_URL
1000

1001
ACAD
1000
DSTYLE
1002
{
1070
   171
1070
     8
1070
   273
1070
     7
1070
   140
1040
4.0
1002
}
1001
ACAD_DSTYLE_DIMFLIPARROW_SYMBOL
1070
   385
1070
     0
1001
ACAD_DSTYLE_DIMFLIPARROW_WHICH_SYMBOL
1070
   386
1070
     3
  0
DIMENSION
  5
ED
330
1F
100
AcDbEntity
  8
치수문자_일반주서
100
AcDbDimension
  2
_D_1
 10
84.85000000000001
 20
10.70656831694521
 30
0.0
 11
84.84999999999994
 21
32.3835683169452
 31
0.0
 70
   160
  1
%%c<>
 71
     2
 42
21.41313663389031
 52
-270.0
  3
SLDDIMSTYLE1
100
AcDbAlignedDimension
 13
69.85000000000004
 23
-10.70656831694516
 33
0.0
 14
69.85000000000004
 24
10.70656831694515
 34
0.0
 50
90.0000000000002
100
AcDbRotatedDimension
1001
PE_URL
1000

1001
ACAD
1000
DSTYLE
1002
{
1070
   171
1070
     8
1070
   273
1070
     7
1070
   140
1040
4.0
1002
}
1001
ACAD_DSTYLE_DIMFLIPARROW_SYMBOL
1070
   385
1070
     0
1001
ACAD_DSTYLE_DIMFLIPARROW_WHICH_SYMBOL
1070
   386
1070
     3
  0
DIMENSION
  5
101
330
1F
100
AcDbEntity
  8
치수문자_일반주서
100
AcDbDimension
  2
_D_2
 10
30.16250000000002
 20
27.10367905054913
 30
0.0
 11
50.00625000000007
 21
27.10367905054913
 31
0.0
 70
   160
  1
<>
 71
     2
 42
39.68750000000001
  3
SLDDIMSTYLE1
100
AcDbAlignedDimension
 13
69.85000000000004
 23
10.70656831694515
 33
0.0
 14
30.16250000000002
 24
8.410781036907993
 34
0.0
 50
0.0000000000000103
100
AcDbRotatedDimension
1001
PE_URL
1000

1001
ACAD
1000
DSTYLE
1002
{
1070
   171
1070
     8
1070
   273
1070
     7
1070
   140
1040
4.0
1002
}
  0
DIMENSION
  5
115
330
1F
100
AcDbEntity
  8
치수문자_일반주서
100
AcDbDimension
  2
_D_3
 10
69.85000000000005
 20
42.10367905054913
 30
0.0
 11
0.0000000000000284
 21
42.10367905054913
 31
0.0
 70
   160
  1
<>
 71
     2
 42
139.7
  3
SLDDIMSTYLE1
100
AcDbAlignedDimension
 13
-69.85000000000002
 23
10.70656831694514
 33
0.0
 14
69.85000000000004
 24
10.70656831694515
 34
0.0
 50
-0.0000000000000058
100
AcDbRotatedDimension
1001
PE_URL
1000

1001
ACAD
1000
DSTYLE
1002
{
1070
   171
1070
     8
1070
   273
1070
     7
1070
   140
1040
4.0
1002
}
  0
LINE
  5
129
330
1F
100
AcDbEntity
  8
참조1
100
AcDbLine
 10
88.26912503295506
 20
7.439999999999997
 30
0.0
 11
88.26912503295506
 21
-7.440000000000007
 31
0.0
  0
LINE
  5
12A
330
1F
100
AcDbEntity
  8
참조1
100
AcDbLine
 10
100.9691250329551
 20
5.439999999999997
 30
0.0
 11
88.26912503295506
 21
5.439999999999997
 31
0.0
  0
SOLID
  5
12B
330
1F
100
AcDbEntity
  8
참조1
100
AcDbTrace
 10
88.26912503295506
 20
5.439999999999997
 30
0.0
 11
94.61912503295505
 21
4.423999999999997
 31
0.0
 12
94.61912503295505
 22
6.455999999999997
 32
0.0
 13
94.61912503295505
 23
6.455999999999997
 33
0.0
  0
LINE
  5
12C
330
1F
100
AcDbEntity
  8
참조1
100
AcDbLine
 10
100.9691250329551
 20
-5.440000000000007
 30
0.0
 11
88.26912503295506
 21
-5.440000000000007
 31
0.0
  0
SOLID
  5
12D
330
1F
100
AcDbEntity
  8
참조1
100
AcDbTrace
 10
88.26912503295506
 20
-5.440000000000007
 30
0.0
 11
94.61912503295505
 21
-6.456000000000008
 31
0.0
 12
94.61912503295505
 22
-4.424000000000007
 32
0.0
 13
94.61912503295505
 23
-4.424000000000007
 33
0.0
  0
MTEXT
  5
12E
330
1F
100
AcDbEntity
  8
참조1
100
AcDbMText
 10
97.65347516558106
 20
11.01029177718832
 30
0.0
 40
3.5
 41
0.0
 71
     1
 72
     1
  1
A
  7
SLDTEXTSTYLE0
 73
     1
 44
1.0
  0
MTEXT
  5
12F
330
1F
100
AcDbEntity
  8
참조1
100
AcDbMText
 10
97.65347516558106
 20
0.1302917771883207
 30
0.0
 40
3.5
 41
0.0
 71
     1
 72
     1
  1
A
  7
SLDTEXTSTYLE0
 73
     1
 44
1.0
  0
INSERT
  5
136
330
1F
100
AcDbEntity
  8
해칭선
100
AcDbBlockReference
  2
SW_DOWELSYMBOL_0
 10
0.0
 20
0.0
 30
0.0
  0
LINE
  5
1A5
330
1F
100
AcDbEntity
  8
외형선
  6
Continuous
370
    15
100
AcDbLine
 10
-5.791200000000003
 20
9.207499999999968
 30
0.0
 11
5.791200000000003
 21
9.207499999999968
 31
0.0
1001
PE_URL
1000

  0
LINE
  5
1A6
330
1F
100
AcDbEntity
  8
외형선
  6
Continuous
370
    15
100
AcDbLine
 10
-5.791200000000003
 20
9.207499999999953
 30
0.0
 11
-7.696200000000147
 21
11.11249999999999
 31
0.0
1001
PE_URL
1000

  0
LINE
  5
1A7
330
1F
100
AcDbEntity
  8
외형선
  6
Continuous
370
    15
100
AcDbLine
 10
5.791200000000003
 20
9.207499999999953
 30
0.0
 11
7.696199999999976
 21
11.11249999999999
 31
0.0
1001
PE_URL
1000

  0
SPLINE
  5
1F5
330
1F
100
AcDbEntity
  8
외형선
  6
Continuous
370
    15
100
AcDbSpline
210
0.0
220
0.0
230
1.0
 70
     8
 71
     3
 72
     9
 73
     5
 74
     0
 42
0.000000001
 43
0.00000001
 40
0.0
 40
0.0
 40
0.0
 40
0.0
 40
0.4708826892721328
 40
1.0
 40
1.0
 40
1.0
 40
1.0
 10
-27.11265281271572
 20
8.543540175246132
 30
0.0
 10
-27.58843943012627
 20
8.517547458731428
 30
0.0
 10
-28.59885376102044
 20
8.462347475578753
 30
0.0
 10
-29.62143471541123
 20
8.428624412852805
 30
0.0
 10
-30.16250000000002
 20
8.410780956593747
 30
0.0
  0
LINE
  5
1F6
330
1F
100
AcDbEntity
  8
외형선
  6
Continuous
370
    15
100
AcDbLine
 10
-30.16250000000003
 20
-8.410780956593761
 30
0.0
 11
-29.86958413403617
 21
-8.42133826146123
 31
0.0
  0
SPLINE
  5
1F7
330
1F
100
AcDbEntity
  8
0
  6
Continuous
 62
     1
370
    15
100
AcDbSpline
210
0.0
220
0.0
230
1.0
 70
     8
 71
     3
 72
    10
 73
     6
 74
     0
 42
0.000000001
 43
0.00000001
 40
0.0
 40
0.0
 40
0.0
 40
0.0
 40
0.3857854923998991
 40
0.5697660359031369
 40
1.0
 40
1.0
 40
1.0
 40
1.0
 10
-42.08791603131105
 20
-2.745867648550458
 30
0.0
 10
-41.70062326504089
 20
-2.929871268568977
 30
0.0
 10
-41.12863113853818
 20
-3.201625948916327
 30
0.0
 10
-40.15423634389285
 20
-3.689958414567034
 30
0.0
 10
-39.54369024649921
 20
-4.009104980062993
 30
0.0
 10
-39.11602586460131
 20
-4.232655043277425
 30
0.0
1001
PE_URL
1000

  0
SPLINE
  5
1F8
330
1F
100
AcDbEntity
  8
0
  6
Continuous
 62
     1
370
    15
100
AcDbSpline
210
0.0
220
0.0
230
1.0
 70
     8
 71
     3
 72
    20
 73
    16
 74
     0
 42
0.000000001
 43
0.00000001
 40
0.0
 40
0.0
 40
0.0
 40
0.0
 40
0.0585000909246181
 40
0.1151748845861824
 40
0.1745479817368308
 40
0.2589963469437623
 40
0.3545261067657862
 40
0.4398984711115731
 40
0.5128688730435073
 40
0.5778230823992214
 40
0.6373907511459718
 40
0.6946458897788423
 40
0.7607243676525135
 40
0.8621168998300438
 40
1.0
 40
1.0
 40
1.0
 40
1.0
 10
-38.54546975516423
 20
-8.515050338782736
 30
0.0
 10
-38.44891189635121
 20
-8.50860082509081
 30
0.0
 10
-38.25880893977616
 20
-8.495903032944433
 30
0.0
 10
-37.83326194376095
 20
-8.463876985855585
 30
0.0
 10
-37.27340020150498
 20
-8.433529536002176
 30
0.0
 10
-36.56253325552807
 20
-8.411920496707005
 30
0.0
 10
-35.79250859523343
 20
-8.399315558643714
 30
0.0
 10
-35.04956693816165
 20
-8.38597810562478
 30
0.0
 10
-34.39474133555099
 20
-8.376397850866987
 30
0.0
 10
-33.8148718598666
 20
-8.370183072988858
 30
0.0
 10
-33.28413744717635
 20
-8.367480828636765
 30
0.0
 10
-32.76029000280639
 20
-8.368046403875582
 30
0.0
 10
-32.12757379143059
 20
-8.372167887671374
 30
0.0
 10
-31.24889092713496
 20
-8.382858546790366
 30
0.0
 10
-30.55966685871236
 20
-8.40057301950877
 30
0.0
 10
-30.16250000000002
 20
-8.410781022690394
 30
0.0
1001
PE_URL
1000

  0
SPLINE
  5
1F9
330
1F
100
AcDbEntity
  8
0
  6
Continuous
 62
     1
370
    15
100
AcDbSpline
210
0.0
220
0.0
230
1.0
 70
     8
 71
     3
 72
    32
 73
    28
 74
     0
 42
0.000000001
 43
0.00000001
 40
0.0
 40
0.0
 40
0.0
 40
0.0
 40
0.0372894584153827
 40
0.0698416137032725
 40
0.1008661660290358
 40
0.134282013450478
 40
0.1844182624120343
 40
0.2292280631786472
 40
0.2678484490045189
 40
0.3013367504742608
 40
0.3310883915005275
 40
0.3658981595333635
 40
0.4091017286485756
 40
0.4453130039621803
 40
0.4744983917311459
 40
0.5271815423485533
 40
0.5823151365746302
 40
0.6370996638829214
 40
0.6968011392891186
 40
0.744818604416979
 40
0.7912758008121787
 40
0.835079689882069
 40
0.8547555103856225
 40
0.8751863596071577
 40
0.9052678238109839
 40
0.946930298055944
 40
1.0
 40
1.0
 40
1.0
 40
1.0
 10
-65.86902028121398
 20
-7.328982562067559
 30
0.0
 10
-65.76473459826153
 20
-7.316837749931018
 30
0.0
 10
-65.56941182627563
 20
-7.29409101898387
 30
0.0
 10
-65.09442678719057
 20
-7.228173797473275
 30
0.0
 10
-64.49996526260523
 20
-7.173640986160301
 30
0.0
 10
-63.72941183071922
 20
-7.138320504539891
 30
0.0
 10
-62.9008836786746
 20
-7.120922599096936
 30
0.0
 10
-62.01881845190076
 20
-7.092789368939115
 30
0.0
 10
-61.24436399272037
 20
-7.071926658158873
 30
0.0
 10
-60.57475616609125
 20
-7.058828523434883
 30
0.0
 10
-59.95125822595064
 20
-7.052223810483113
 30
0.0
 10
-59.26707168623521
 20
-7.05065033343476
 30
0.0
 10
-58.53395131118893
 20
-7.056472343888181
 30
0.0
 10
-57.83807500503639
 20
-7.069297386579663
 30
0.0
 10
-57.08099878111982
 20
-7.089771519871995
 30
0.0
 10
-56.20275384112725
 20
-7.123068306027015
 30
0.0
 10
-55.16794954554493
 20
-7.176713682275022
 30
0.0
 10
-54.10104215695328
 20
-7.246196974761837
 30
0.0
 10
-53.05198441602934
 20
-7.330667835279741
 30
0.0
 10
-52.04819695990523
 20
-7.424925501853174
 30
0.0
 10
-51.14496348453339
 20
-7.519747673744902
 30
0.0
 10
-50.42005796256014
 20
-7.602109690725065
 30
0.0
 10
-49.88330983718392
 20
-7.669017651303221
 30
0.0
 10
-49.45495738195886
 20
-7.725231849178257
 30
0.0
 10
-48.87647944178302
 20
-7.803108649114201
 30
0.0
 10
-48.08878018207058
 20
-7.914423686392567
 30
0.0
 10
-47.48635611618957
 20
-8.007468578392952
 30
0.0
 10
-47.14887346872624
 20
-8.059593050610552
 30
0.0
1001
PE_URL
1000

  0
SPLINE
  5
1FA
330
1F
100
AcDbEntity
  8
0
  6
Continuous
 62
     1
370
    15
100
AcDbSpline
210
0.0
220
0.0
230
1.0
 70
     8
 71
     3
 72
    18
 73
    14
 74
     0
 42
0.000000001
 43
0.00000001
 40
0.0
 40
0.0
 40
0.0
 40
0.0
 40
0.1239098364710699
 40
0.2264173141828041
 40
0.3124245389980981
 40
0.3839616559269708
 40
0.4525122735086426
 40
0.5280553001466357
 40
0.6088655451563322
 40
0.6920931899532133
 40
0.8078571083307917
 40
0.9461213174389628
 40
1.0
 40
1.0
 40
1.0
 40
1.0
 10
-47.14887346872624
 20
8.059593050610545
 30
0.0
 10
-47.45371508486804
 20
8.01142601070427
 30
0.0
 10
-48.01074446965045
 20
7.923411595397852
 30
0.0
 10
-48.87071283258328
 20
7.802782685523368
 30
0.0
 10
-49.59587083492707
 20
7.707494853015891
 30
0.0
 10
-50.17299631793834
 20
7.634382267836578
 30
0.0
 10
-50.7169503639448
 20
7.567037564736964
 30
0.0
 10
-51.34577902673421
 20
7.498428867884538
 30
0.0
 10
-52.00229549052517
 20
7.430377022473902
 30
0.0
 10
-52.76584167405892
 20
7.356893359631179
 30
0.0
 10
-53.66103329201812
 20
7.281226590951444
 30
0.0
 10
-54.4836423672601
 20
7.218762174913461
 30
0.0
 10
-54.99833733599979
 20
7.190876722034236
 30
0.0
 10
-55.14266266906613
 20
7.183057377531306
 30
0.0
1001
PE_URL
1000

  0
SPLINE
  5
1FB
330
1F
100
AcDbEntity
  8
0
  6
Continuous
 62
     1
370
    15
100
AcDbSpline
210
0.0
220
0.0
230
1.0
 70
     8
 71
     3
 72
    19
 73
    15
 74
     0
 42
0.000000001
 43
0.00000001
 40
0.0
 40
0.0
 40
0.0
 40
0.0
 40
0.1381278403600485
 40
0.2454721329605939
 40
0.3220611736248341
 40
0.378070719621688
 40
0.4351160785015046
 40
0.4942189037811303
 40
0.5587148055278286
 40
0.6484869600440772
 40
0.7544483056867908
 40
0.8706292840012139
 40
0.9468056701881121
 40
1.0
 40
1.0
 40
1.0
 40
1.0
 10
-30.16250000000001
 20
8.410781022690372
 30
0.0
 10
-30.50966717433862
 20
8.4017314728002
 30
0.0
 10
-31.12663089835445
 20
8.38564918042465
 30
0.0
 10
-31.93314678117637
 20
8.374206401846997
 30
0.0
 10
-32.52956332102917
 20
8.3693627617507
 30
0.0
 10
-32.99485945116791
 20
8.367537426157249
 30
0.0
 10
-33.42951493808991
 20
8.36804989277693
 30
0.0
 10
-33.88960081125551
 20
8.370946342882814
 30
0.0
 10
-34.43590234558765
 20
8.376941494463303
 30
0.0
 10
-35.10127841347453
 20
8.386801966513453
 30
0.0
 10
-35.89661386000257
 20
8.401119789069487
 30
0.0
 10
-36.6519703369668
 20
8.414065413319928
 30
0.0
 10
-37.28942008826836
 20
8.434509064114383
 30
0.0
 10
-37.59638138657309
 20
8.452201044137407
 30
0.0
 10
-37.72259697110816
 20
8.45947558855887
 30
0.0
1001
PE_URL
1000

  0
SPLINE
  5
1FC
330
1F
100
AcDbEntity
  8
0
  6
Continuous
 62
     1
370
    15
100
AcDbSpline
210
0.0
220
0.0
230
1.0
 70
     8
 71
     3
 72
     9
 73
     5
 74
     0
 42
0.000000001
 43
0.00000001
 40
0.0
 40
0.0
 40
0.0
 40
0.0
 40
0.4303548036846903
 40
0.9999999999999999
 40
0.9999999999999999
 40
0.9999999999999999
 40
0.9999999999999999
 10
-37.91862873526203
 20
8.47148467123868
 30
0.0
 10
-38.02875961921724
 20
8.479246280280467
 30
0.0
 10
-38.28466679862427
 20
8.497281652432303
 30
0.0
 10
-38.45082088054812
 20
8.50860184529635
 30
0.0
 10
-38.54546975516423
 20
8.515050338782718
 30
0.0
1001
PE_URL
1000

  0
SPLINE
  5
1FD
330
1F
100
AcDbEntity
  8
외형선
  6
Continuous
370
    15
100
AcDbSpline
210
0.0
220
0.0
230
1.0
 70
     8
 71
     3
 72
     8
 73
     4
 74
     0
 42
0.000000001
 43
0.00000001
 40
0.0
 40
0.0
 40
0.0
 40
0.0
 40
1.0
 40
1.0
 40
1.0
 40
1.0
 10
-27.68134233574613
 20
-9.386708471612842
 30
0.0
 10
-27.49212626685891
 20
-9.447484377068243
 30
0.0
 10
-27.30254327004403
 20
-9.506829100776876
 30
0.0
 10
-27.11272628019037
 20
-9.564696125690269
 30
0.0
  0
LINE
  5
1FE
330
1F
100
AcDbEntity
  8
외형선
  6
Continuous
370
    15
100
AcDbLine
 10
-27.68134233574613
 20
-9.386708471612778
 30
0.0
 11
-27.68134233574613
 21
-7.40822070513282
 31
0.0
  0
SPLINE
  5
1FF
330
1F
100
AcDbEntity
  8
외형선
  6
Continuous
370
    15
100
AcDbSpline
210
0.0
220
0.0
230
1.0
 70
     8
 71
     3
 72
     8
 73
     4
 74
     0
 42
0.000000001
 43
0.00000001
 40
0.0
 40
0.0
 40
0.0
 40
0.0
 40
1.0
 40
1.0
 40
1.0
 40
1.0
 10
-27.68134233574614
 20
-7.40822070513282
 30
0.0
 10
-27.49208781015758
 20
-7.49287281495976
 30
0.0
 10
-27.30246620742997
 20
-7.576418630961975
 30
0.0
 10
-27.11261054365977
 20
-7.658795523878588
 30
0.0
  0
LINE
  5
200
330
1F
100
AcDbEntity
  8
외형선
  6
Continuous
370
    15
100
AcDbLine
 10
-27.11261054365969
 20
11.11249999999998
 30
0.0
 11
-27.11261054365977
 21
-7.658898513844299
 31
0.0
  0
SPLINE
  5
201
330
1F
100
AcDbEntity
  8
외형선
  6
Continuous
370
    15
100
AcDbSpline
210
0.0
220
0.0
230
1.0
 70
     8
 71
     3
 72
     8
 73
     4
 74
     0
 42
0.000000001
 43
0.00000001
 40
0.0
 40
0.0
 40
0.0
 40
0.0
 40
1.0
 40
1.0
 40
1.0
 40
1.0
 10
-27.68134233574613
 20
9.386708471612828
 30
0.0
 10
-27.49212626685891
 20
9.447484377068225
 30
0.0
 10
-27.30254327004403
 20
9.506829100776859
 30
0.0
 10
-27.11272628019037
 20
9.564696125690247
 30
0.0
  0
LINE
  5
202
330
1F
100
AcDbEntity
  8
외형선
  6
Continuous
370
    15
100
AcDbLine
 10
-27.11261054365974
 20
-9.56484456994319
 30
0.0
 11
-27.11261054365969
 21
-11.1125
 31
0.0
  0
SPLINE
  5
203
330
1F
100
AcDbEntity
  8
외형선
  6
Continuous
370
    15
100
AcDbSpline
210
0.0
220
0.0
230
1.0
 70
    24
 71
     3
 72
    10
 73
     6
 74
     0
 42
0.000000001
 43
0.00000001
 40
0.0
 40
0.0
 40
0.0
 40
0.0
 40
0.5
 40
0.5
 40
1.0
 40
1.0
 40
1.0
 40
1.0
 10
-30.16250000000002
 20
-6.127178616282045
 30
0.0
 10
-30.16250000000003
 20
-5.954462551013826
 30
0.0
 10
-30.16250000000003
 20
-5.671553139307271
 30
0.0
 10
-30.16250000000002
 20
-4.942154570933958
 30
0.0
 10
-30.16250000000002
 20
-4.498238909498383
 30
0.0
 10
-30.16250000000002
 20
-4.032448600680386
 30
0.0
  0
SPLINE
  5
204
330
1F
100
AcDbEntity
  8
외형선
  6
Continuous
370
    15
100
AcDbSpline
210
0.0
220
0.0
230
1.0
 70
     8
 71
     3
 72
    10
 73
     6
 74
     0
 42
0.000000001
 43
0.00000001
 40
0.0
 40
0.0
 40
0.0
 40
0.0
 40
0.5
 40
0.5
 40
1.0
 40
1.0
 40
1.0
 40
1.0
 10
-30.16249999999992
 20
-4.032448600680425
 30
0.0
 10
-29.6539316214904
 20
-4.205699466033188
 30
0.0
 10
-29.14400492504452
 20
-4.374558032209798
 30
0.0
 10
-28.12659409300166
 20
-4.70177953089933
 30
0.0
 10
-27.6208299229976
 20
-4.859975403822716
 30
0.0
 10
-27.11263843207059
 20
-5.012785237941273
 30
0.0
  0
SPLINE
  5
205
330
1F
100
AcDbEntity
  8
외형선
  6
Continuous
370
    15
100
AcDbSpline
210
0.0
220
0.0
230
1.0
 70
     8
 71
     3
 72
     8
 73
     4
 74
     0
 42
0.000000001
 43
0.00000001
 40
0.0
 40
0.0
 40
0.0
 40
0.0
 40
1.0
 40
1.0
 40
1.0
 40
1.0
 10
-27.68134233574613
 20
-7.40822070513282
 30
0.0
 10
-28.17530032538669
 20
-7.138106629689936
 30
0.0
 10
-28.66895336126162
 20
-6.865691651482592
 30
0.0
 10
-29.16249999999988
 20
-6.591251142567664
 30
0.0
  0
SPLINE
  5
206
330
1F
100
AcDbEntity
  8
외형선
  6
Continuous
370
    15
100
AcDbSpline
210
0.0
220
0.0
230
1.0
 70
     8
 71
     3
 72
     8
 73
     4
 74
     0
 42
0.000000001
 43
0.00000001
 40
0.0
 40
0.0
 40
0.0
 40
0.0
 40
1.0
 40
1.0
 40
1.0
 40
1.0
 10
-30.16250000000002
 20
-6.127178616282045
 30
0.0
 10
-29.82950762985255
 20
-6.284849606421353
 30
0.0
 10
-29.49593296765886
 20
-6.439653825949556
 30
0.0
 10
-29.16250000000002
 20
-6.591251142567579
 30
0.0
  0
LINE
  5
207
330
1F
100
AcDbEntity
  8
외형선
  6
Continuous
370
    15
100
AcDbLine
 10
-29.16250000000003
 20
-8.668249361301477
 30
0.0
 11
-29.16250000000002
 21
-6.591251142567579
 31
0.0
  0
SPLINE
  5
208
330
1F
100
AcDbEntity
  8
외형선
  6
Continuous
370
    15
100
AcDbSpline
210
0.0
220
0.0
230
1.0
 70
     8
 71
     3
 72
     8
 73
     4
 74
     0
 42
0.000000001
 43
0.00000001
 40
0.0
 40
0.0
 40
0.0
 40
0.0
 40
1.0
 40
1.0
 40
1.0
 40
1.0
 10
-30.16249999999999
 20
-8.316781272234302
 30
0.0
 10
-29.82950762985254
 20
-8.437969267168683
 30
0.0
 10
-29.49593296765885
 20
-8.555211946288289
 30
0.0
 10
-29.16250000000003
 20
-8.668249361301484
 30
0.0
  0
LINE
  5
209
330
1F
100
AcDbEntity
  8
외형선
  6
Continuous
370
    15
100
AcDbLine
 10
-30.16250000000002
 20
-8.31678127223428
 30
0.0
 11
-30.16250000000002
 21
-6.127178616282045
 31
0.0
  0
SPLINE
  5
20A
330
1F
100
AcDbEntity
  8
외형선
  6
Continuous
370
    15
100
AcDbSpline
210
0.0
220
0.0
230
1.0
 70
     8
 71
     3
 72
     8
 73
     4
 74
     0
 42
0.000000001
 43
0.00000001
 40
0.0
 40
0.0
 40
0.0
 40
0.0
 40
1.0
 40
1.0
 40
1.0
 40
1.0
 10
-29.16250000000003
 20
-8.668249361301484
 30
0.0
 10
-28.66735066410509
 20
-8.909898928110472
 30
0.0
 10
-28.17369110071494
 20
-9.149551856871582
 30
0.0
 10
-27.68134233574611
 20
-9.386708471612856
 30
0.0
  0
SPLINE
  5
20B
330
1F
100
AcDbEntity
  8
외형선
  6
Continuous
370
    15
100
AcDbSpline
210
0.0
220
0.0
230
1.0
 70
     8
 71
     3
 72
    10
 73
     6
 74
     0
 42
0.000000001
 43
0.00000001
 40
0.0
 40
0.0
 40
0.0
 40
0.0
 40
0.5
 40
0.5
 40
1.0
 40
1.0
 40
1.0
 40
1.0
 10
-30.16249999999995
 20
7.228372366476641
 30
0.0
 10
-29.6539340200422
 20
7.102135681396756
 30
0.0
 10
-29.14400973495544
 20
6.967637682956298
 30
0.0
 10
-28.1266036782794
 20
6.683475582527869
 30
0.0
 10
-27.62084187524561
 20
6.533998642342258
 30
0.0
 10
-27.11265281271572
 20
6.377111202113475
 30
0.0
  0
SPLINE
  5
20C
330
1F
100
AcDbEntity
  8
외형선
  6
Continuous
370
    15
100
AcDbSpline
210
0.0
220
0.0
230
1.0
 70
    24
 71
     3
 72
    14
 73
    10
 74
     0
 42
0.000000001
 43
0.00000001
 40
0.0
 40
0.0
 40
0.0
 40
0.0
 40
0.2499999999999999
 40
0.2499999999999999
 40
0.4999999999999999
 40
0.4999999999999999
 40
0.7499999999999999
 40
0.7499999999999999
 40
1.0
 40
1.0
 40
1.0
 40
1.0
 10
-30.16250000000003
 20
-4.032448600680386
 30
0.0
 10
-30.16250000000003
 20
-3.141753946810937
 30
0.0
 10
-30.16250000000003
 20
-2.182227593876881
 30
0.0
 10
-30.16250000000003
 20
-0.2017478996704014
 30
0.0
 10
-30.16250000000003
 20
0.8183621019003446
 30
0.0
 10
-30.16250000000003
 20
2.81973464973311
 30
0.0
 10
-30.16250000000003
 20
3.799930781027822
 30
0.0
 10
-30.16250000000003
 20
5.628325733053195
 30
0.0
 10
-30.16250000000003
 20
6.475894825308679
 30
0.0
 10
-30.16250000000003
 20
7.228372366476659
 30
0.0
  0
SPLINE
  5
20D
330
1F
100
AcDbEntity
  8
외형선
  6
Continuous
370
    15
100
AcDbSpline
210
0.0
220
0.0
230
1.0
 70
    24
 71
     3
 72
    11
 73
     7
 74
     0
 42
0.000000001
 43
0.00000001
 40
0.0
 40
0.0
 40
0.0
 40
0.0
 40
0.2510470417514333
 40
0.5020940835028666
 40
0.8696325119180328
 40
0.9999999999999999
 40
0.9999999999999999
 40
0.9999999999999999
 40
0.9999999999999999
 10
-30.16250000000003
 20
7.228372366476663
 30
0.0
 10
-30.16250000000003
 20
7.410397601451482
 30
0.0
 10
-30.16250000000003
 20
7.774448071401117
 30
0.0
 10
-30.16250000000002
 20
8.184862721294259
 30
0.0
 10
-30.16250000000002
 20
8.4241122399239
 30
0.0
 10
-30.16250000000002
 20
8.382683974278578
 30
0.0
 10
-30.16250000000002
 20
8.371836746421216
 30
0.0
  0
SPLINE
  5
20E
330
1F
100
AcDbEntity
  8
외형선
  6
Continuous
370
    15
100
AcDbSpline
210
0.0
220
0.0
230
1.0
 70
     8
 71
     3
 72
     9
 73
     5
 74
     0
 42
0.000000001
 43
0.00000001
 40
0.0
 40
0.0
 40
0.0
 40
0.0
 40
0.3769556085293277
 40
1.0
 40
1.0
 40
1.0
 40
1.0
 10
-29.86892757118515
 20
8.421572623074624
 30
0.0
 10
-29.7801707690531
 20
8.453463027274402
 30
0.0
 10
-29.54471386080249
 20
8.538062920413545
 30
0.0
 10
-29.30922192798102
 20
8.61827418362487
 30
0.0
 10
-29.16250000000002
 20
8.668249361301463
 30
0.0
  0
SPLINE
  5
20F
330
1F
100
AcDbEntity
  8
외형선
  6
Continuous
370
    15
100
AcDbSpline
210
0.0
220
0.0
230
1.0
 70
     8
 71
     3
 72
     8
 73
     4
 74
     0
 42
0.000000001
 43
0.00000001
 40
0.0
 40
0.0
 40
0.0
 40
0.0
 40
1.0
 40
1.0
 40
1.0
 40
1.0
 10
-29.16250000000002
 20
8.66824936130147
 30
0.0
 10
-28.66735066410509
 20
8.90989892811045
 30
0.0
 10
-28.17369110071493
 20
9.149551856871565
 30
0.0
 10
-27.68134233574611
 20
9.386708471612842
 30
0.0
  0
SPLINE
  5
210
330
1F
100
AcDbEntity
  8
0
  6
Continuous
 62
     1
370
    15
100
AcDbSpline
210
0.0
220
0.0
230
1.0
 70
     8
 71
     3
 72
    52
 73
    48
 74
     0
 42
0.000000001
 43
0.00000001
 40
0.0
 40
0.0
 40
0.0
 40
0.0
 40
0.0625000000000005
 40
0.0625000000000005
 40
0.0937500000000005
 40
0.0937500000000005
 40
0.1250000000000006
 40
0.1250000000000006
 40
0.1875000000000007
 40
0.1875000000000007
 40
0.2500000000000007
 40
0.2500000000000007
 40
0.3125000000000007
 40
0.3125000000000007
 40
0.3437500000000007
 40
0.3437500000000007
 40
0.3750000000000007
 40
0.3750000000000007
 40
0.4375000000000006
 40
0.4375000000000006
 40
0.4687500000000005
 40
0.4687500000000005
 40
0.5000000000000004
 40
0.5000000000000004
 40
0.5625000000000002
 40
0.5625000000000002
 40
0.5937500000000002
 40
0.5937500000000002
 40
0.6250000000000001
 40
0.6250000000000001
 40
0.6874999999999999
 40
0.6874999999999999
 40
0.71875
 40
0.71875
 40
0.75
 40
0.75
 40
0.8124999999999999
 40
0.8124999999999999
 40
0.8749999999999999
 40
0.8749999999999999
 40
0.9062499999999999
 40
0.9062499999999999
 40
0.9374999999999999
 40
0.9374999999999999
 40
0.96875
 40
0.96875
 40
1.0
 40
1.0
 40
1.0
 40
1.0
 10
-69.85000000000002
 20
10.70656831694514
 30
0.0
 10
-69.02629944510036
 20
10.68697029739215
 30
0.0
 10
-68.19536825756157
 20
10.63537987784047
 30
0.0
 10
-66.95473933336478
 20
10.51084371741205
 30
0.0
 10
-66.543329526637
 20
10.46156080816184
 30
0.0
 10
-65.7172422734853
 20
10.34739242019588
 30
0.0
 10
-65.30292660096754
 20
10.28250211033413
 30
0.0
 10
-64.0603200945351
 20
10.06499993166053
 30
0.0
 10
-63.23706783688006
 20
9.889898422710544
 30
0.0
 10
-61.58177840781921
 20
9.481328950410973
 30
0.0
 10
-60.75328641032092
 20
9.248046390155064
 30
0.0
 10
-59.10365956327574
 20
8.728675920070668
 30
0.0
 10
-58.27252164685687
 20
8.441496248755854
 30
0.0
 10
-57.0329554842141
 20
7.975158690090428
 30
0.0
 10
-56.62163749763626
 20
7.813908909463986
 30
0.0
 10
-55.79478818864358
 20
7.47947922004634
 30
0.0
 10
-55.38031878186021
 20
7.306426136830741
 30
0.0
 10
-54.13793808609161
 20
6.77146234648923
 30
0.0
 10
-53.3150625035759
 20
6.394375933537621
 30
0.0
 10
-52.07298240504645
 20
5.800731854350612
 30
0.0
 10
-51.65844922785284
 20
5.598296155020982
 30
0.0
 10
-50.83114585885038
 20
5.185679489350125
 30
0.0
 10
-50.41957844769723
 20
4.975709151937256
 30
0.0
 10
-49.18091156611814
 20
4.334507516093652
 30
0.0
 10
-48.34971911189459
 20
3.891884303182085
 30
0.0
 10
-47.11143968260684
 20
3.214078328281765
 30
0.0
 10
-46.69970096175474
 20
2.985774496724666
 30
0.0
 10
-45.87223919652232
 20
2.524327799904288
 30
0.0
 10
-45.45769148726349
 20
2.291399023117215
 30
0.0
 10
-44.21576227605824
 20
1.588333220798173
 30
0.0
 10
-43.3928244846861
 20
1.114447408929998
 30
0.0
 10
-42.15035685131008
 20
0.3992238936407055
 30
0.0
 10
-41.73592336598618
 20
0.1602874509922252
 30
0.0
 10
-40.90927490159427
 20
-0.3170420102845064
 30
0.0
 10
-40.49798294378155
 20
-0.5552575467519709
 30
0.0
 10
-39.25809274485977
 20
-1.269290379333089
 30
0.0
 10
-38.42699797733783
 20
-1.74379676006064
 30
0.0
 10
-36.77797197638291
 20
-2.677143400101173
 30
0.0
 10
-35.94883271224506
 20
-3.138096889285748
 30
0.0
 10
-34.70758038614814
 20
-3.813009835413514
 30
0.0
 10
-34.29578959849634
 20
-4.034956616553174
 30
0.0
 10
-33.47034012906711
 20
-4.472862144853238
 30
0.0
 10
-33.05618095031465
 20
-4.68890239058868
 30
0.0
 10
-32.22776132253325
 20
-5.113687852102082
 30
0.0
 10
-31.81350293905047
 20
-5.322432006132054
 30
0.0
 10
-30.98765885751055
 20
-5.731250256034251
 30
0.0
 10
-30.57612978291392
 20
-5.931326028445696
 30
0.0
 10
-30.16249999999998
 20
-6.127178616282066
 30
0.0
1001
PE_URL
1000

  0
SPLINE
  5
211
330
1F
100
AcDbEntity
  8
0
  6
Continuous
 62
     1
370
    15
100
AcDbSpline
210
0.0
220
0.0
230
1.0
 70
     8
 71
     3
 72
    11
 73
     7
 74
     0
 42
0.000000001
 43
0.00000001
 40
0.0
 40
0.0
 40
0.0
 40
0.0
 40
0.1427397537334241
 40
0.4154733442059741
 40
0.7076951634568187
 40
1.0
 40
1.0
 40
1.0
 40
1.0
 10
-43.220325985426
 20
1.012774891495585
 30
0.0
 10
-42.59903356274167
 20
0.7647289731323426
 30
0.0
 10
-40.79063447397364
 20
0.0427404273801599
 30
0.0
 10
-37.7103505892543
 20
-1.208114427129917
 30
0.0
 10
-33.97910516149341
 20
-2.682158321950084
 30
0.0
 10
-31.43482217094134
 20
-3.582309226513932
 30
0.0
 10
-30.16250000000003
 20
-4.032448600680386
 30
0.0
1001
PE_URL
1000

  0
SPLINE
  5
212
330
1F
100
AcDbEntity
  8
외형선
  6
Continuous
370
    15
100
AcDbSpline
210
0.0
220
0.0
230
1.0
 70
    24
 71
     3
 72
    10
 73
     6
 74
     0
 42
0.000000001
 43
0.00000001
 40
0.0
 40
0.0
 40
0.0
 40
0.0
 40
0.5
 40
0.5
 40
1.0
 40
1.0
 40
1.0
 40
1.0
 10
-30.16250000000002
 20
-6.127178616282045
 30
0.0
 10
-30.16250000000003
 20
-5.954462551013833
 30
0.0
 10
-30.16250000000003
 20
-5.671553139307271
 30
0.0
 10
-30.16250000000002
 20
-4.942154570933958
 30
0.0
 10
-30.16250000000002
 20
-4.498238909498383
 30
0.0
 10
-30.16250000000002
 20
-4.032448600680386
 30
0.0
  0
SPLINE
  5
213
330
1F
100
AcDbEntity
  8
0
  6
Continuous
 62
     1
370
    15
100
AcDbSpline
210
0.0
220
0.0
230
1.0
 70
     8
 71
     3
 72
    52
 73
    48
 74
     0
 42
0.000000001
 43
0.00000001
 40
0.0
 40
0.0
 40
0.0
 40
0.0
 40
0.0624999999999999
 40
0.0624999999999999
 40
0.0937499999999999
 40
0.0937499999999999
 40
0.1249999999999999
 40
0.1249999999999999
 40
0.1874999999999999
 40
0.1874999999999999
 40
0.2499999999999999
 40
0.2499999999999999
 40
0.3124999999999998
 40
0.3124999999999998
 40
0.3437499999999998
 40
0.3437499999999998
 40
0.3749999999999999
 40
0.3749999999999999
 40
0.4374999999999998
 40
0.4374999999999998
 40
0.4687499999999997
 40
0.4687499999999997
 40
0.4999999999999997
 40
0.4999999999999997
 40
0.5624999999999996
 40
0.5624999999999996
 40
0.5937499999999994
 40
0.5937499999999994
 40
0.6249999999999994
 40
0.6249999999999994
 40
0.6874999999999994
 40
0.6874999999999994
 40
0.7187499999999996
 40
0.7187499999999996
 40
0.7499999999999997
 40
0.7499999999999997
 40
0.8124999999999997
 40
0.8124999999999997
 40
0.8749999999999998
 40
0.8749999999999998
 40
0.9062499999999999
 40
0.9062499999999999
 40
0.9374999999999999
 40
0.9374999999999999
 40
0.96875
 40
0.96875
 40
1.0
 40
1.0
 40
1.0
 40
1.0
 10
-69.85000000000002
 20
10.16849450186307
 30
0.0
 10
-69.0262994451003
 20
10.01809403597595
 30
0.0
 10
-68.19536825756143
 20
9.836925082706497
 30
0.0
 10
-66.95473933336453
 20
9.522462230496988
 30
0.0
 10
-66.54332952663674
 20
9.41066678224875
 30
0.0
 10
-65.71724227348496
 20
9.172963116476296
 30
0.0
 10
-65.30292660096717
 20
9.04707033684426
 30
0.0
 10
-64.06032009453463
 20
8.649476270664529
 30
0.0
 10
-63.23706783687952
 20
8.358420068737122
 30
0.0
 10
-61.58177840781856
 20
7.727324608565404
 30
0.0
 10
-60.75328641032021
 20
7.387649404520282
 30
0.0
 10
-59.10365956327489
 20
6.667478184319723
 30
0.0
 10
-58.27252164685596
 20
6.285496783299681
 30
0.0
 10
-57.0329554842131
 20
5.687269050528652
 30
0.0
 10
-56.62163749763522
 20
5.4837886579048
 30
0.0
 10
-55.79478818864246
 20
5.068282615577917
 30
0.0
 10
-55.38031878185906
 20
4.856423604838426
 30
0.0
 10
-54.13793808609036
 20
4.210637750918945
 30
0.0
 10
-53.31506250357458
 20
3.767232107213189
 30
0.0
 10
-52.07298240504502
 20
3.085914660162675
 30
0.0
 10
-51.65844922785141
 20
2.856245580884611
 30
0.0
 10
-50.83114585884888
 20
2.393323014540577
 30
0.0
 10
-50.41957844769573
 20
2.160299266687318
 30
0.0
 10
-49.18091156611651
 20
1.456188741617471
 30
0.0
 10
-48.34971911189288
 20
0.9800096708560844
 30
0.0
 10
-47.11143968260505
 20
0.265112404482533
 30
0.0
 10
-46.69970096175292
 20
0.0266355148197626
 30
0.0
 10
-45.87223919652041
 20
-0.4507696331866633
 30
0.0
 10
-45.45769148726154
 20
-0.6894710047386354
 30
0.0
 10
-44.21576227605622
 20
-1.403172765928524
 30
0.0
 10
-43.39282448468401
 20
-1.875253810697991
 30
0.0
 10
-42.15035685130789
 20
-2.57443413076761
 30
0.0
 10
-41.73592336598396
 20
-2.805799401174625
 30
0.0
 10
-40.90927490159197
 20
-3.263599206330429
 30
0.0
 10
-40.49798294377925
 20
-3.489869942191472
 30
0.0
 10
-39.25809274485734
 20
-4.161492099769074
 30
0.0
 10
-38.42699797733535
 20
-4.598942467676032
 30
0.0
 10
-36.77797197638034
 20
-5.441643917415419
 30
0.0
 10
-35.94883271224238
 20
-5.848814637416204
 30
0.0
 10
-34.70758038614537
 20
-6.431239894324051
 30
0.0
 10
-34.29578959849356
 20
-6.62043586705542
 30
0.0
 10
-33.47034012906425
 20
-6.988999451255808
 30
0.0
 10
-33.05618095031176
 20
-7.168430139055076
 30
0.0
 10
-32.22776132253028
 20
-7.516350937530142
 30
0.0
 10
-31.81350293904746
 20
-7.684840176819257
 30
0.0
 10
-30.98765885750749
 20
-8.009783871129912
 30
0.0
 10
-30.57612978291082
 20
-8.166246399576707
 30
0.0
 10
-30.16249999999686
 20
-8.316781272235438
 30
0.0
1001
PE_URL
1000

  0
SPLINE
  5
214
330
1F
100
AcDbEntity
  8
0
  6
Continuous
 62
     1
370
    15
100
AcDbSpline
210
0.0
220
0.0
230
1.0
 70
     8
 71
     3
 72
    15
 73
    11
 74
     0
 42
0.000000001
 43
0.00000001
 40
0.0
 40
0.0
 40
0.0
 40
0.0
 40
0.1279540866264861
 40
0.2559265069557049
 40
0.3839127319549931
 40
0.5119082123030572
 40
0.6399083850567253
 40
0.7679086803606797
 40
0.8959045281790263
 40
1.0
 40
1.0
 40
1.0
 40
1.0
 10
-69.85000000000002
 20
8.454330920370662
 30
0.0
 10
-68.66312135322775
 20
8.207526265991621
 30
0.0
 10
-66.28919399961819
 20
7.713881594211642
 30
0.0
 10
-62.72798883854271
 20
6.607161557408794
 30
0.0
 10
-59.16634939242424
 20
5.280078281858362
 30
0.0
 10
-55.6044125382528
 20
3.753349189365611
 30
0.0
 10
-52.04232584959628
 20
2.089644588496324
 30
0.0
 10
-48.48023661088955
 20
0.3516206316262291
 30
0.0
 10
-45.13990809735104
 20
-1.300135294766278
 30
0.0
 10
-42.986984340413
 20
-2.314862960839047
 30
0.0
 10
-42.02137470614781
 20
-2.769979314754359
 30
0.0
1001
PE_URL
1000

  0
LINE
  5
215
330
1F
100
AcDbEntity
  8
0
  6
Continuous
 62
     1
370
    15
100
AcDbLine
 10
-69.85000000000002
 20
10.16849450186308
 30
0.0
 11
-69.85000000000002
 21
8.454330920370662
 31
0.0
1001
PE_URL
1000

  0
LINE
  5
216
330
1F
100
AcDbEntity
  8
0
  6
Continuous
 62
     1
370
    15
100
AcDbLine
 10
-69.85000000000004
 20
10.70656831694515
 30
0.0
 11
-69.85000000000002
 21
10.16849450186308
 31
0.0
1001
PE_URL
1000

  0
SPLINE
  5
217
330
1F
100
AcDbEntity
  8
0
  6
Continuous
 62
     1
370
    15
100
AcDbSpline
210
0.0
220
0.0
230
1.0
 70
     8
 71
     3
 72
    10
 73
     6
 74
     0
 42
0.000000001
 43
0.00000001
 40
0.0
 40
0.0
 40
0.0
 40
0.0
 40
0.5
 40
0.5
 40
1.0
 40
1.0
 40
1.0
 40
1.0
 10
-69.85000000000002
 20
2.863675193548904
 30
0.0
 10
-68.9927963551944
 20
2.189772369265814
 30
0.0
 10
-68.1474931395881
 20
1.495874080764889
 30
0.0
 10
-66.48033253361942
 20
0.0686831128657239
 30
0.0
 10
-65.65844569620282
 20
-0.6645600886935377
 30
0.0
 10
-64.85000000000004
 20
-1.420387505803888
 30
0.0
1001
PE_URL
1000

  0
LINE
  5
218
330
1F
100
AcDbEntity
  8
0
  6
Continuous
 62
     1
370
    15
100
AcDbLine
 10
-64.85000000000002
 20
-2.937719435296597
 30
0.0
 11
-69.85000000000002
 21
-0.0000000000000107
 31
0.0
1001
PE_URL
1000

  0
LINE
  5
219
330
1F
100
AcDbEntity
  8
0
  6
Continuous
 62
     1
370
    15
100
AcDbLine
 10
-69.85000000000002
 20
-0.0000000000000107
 30
0.0
 11
-69.85000000000002
 21
2.863675193548904
 31
0.0
1001
PE_URL
1000

  0
SPLINE
  5
21A
330
1F
100
AcDbEntity
  8
0
  6
Continuous
 62
     1
370
    15
100
AcDbSpline
210
0.0
220
0.0
230
1.0
 70
     8
 71
     3
 72
    15
 73
    11
 74
     0
 42
0.000000001
 43
0.00000001
 40
0.0
 40
0.0
 40
0.0
 40
0.0
 40
0.1080397870836553
 40
0.216085487336368
 40
0.3514903140298392
 40
0.4869001739972226
 40
0.6223101649611023
 40
0.7577153844505221
 40
0.8931109370422332
 40
1.0
 40
1.0
 40
1.0
 40
1.0
 10
-64.85000000000608
 20
-2.281489301187325
 30
0.0
 10
-63.90275811830814
 20
-2.698130061050346
 30
0.0
 10
-62.00822251103573
 20
-3.531434384109456
 30
0.0
 10
-58.92664383954187
 20
-4.781823773791309
 30
0.0
 10
-55.60434822372144
 20
-5.989624986742115
 30
0.0
 10
-52.04230587850053
 20
-7.062621612369867
 30
0.0
 10
-48.48019664049308
 20
-7.879284264801221
 30
0.0
 10
-44.91824819447696
 20
-8.396951160836785
 30
0.0
 10
-41.60641226822318
 20
-8.625040898147965
 30
0.0
 10
-39.48194159497508
 20
-8.530568317347957
 30
0.0
 10
-38.54468571915422
 20
-8.488889708848554
 30
0.0
1001
PE_URL
1000

  0
SPLINE
  5
21B
330
1F
100
AcDbEntity
  8
0
  6
Continuous
 62
     1
370
    15
100
AcDbSpline
210
0.0
220
0.0
230
1.0
 70
    24
 71
     3
 72
     8
 73
     4
 74
     0
 42
0.000000001
 43
0.00000001
 40
0.0
 40
0.0
 40
0.0
 40
0.0
 40
1.0
 40
1.0
 40
1.0
 40
1.0
 10
-64.85000000000002
 20
-1.420387505789858
 30
0.0
 10
-64.85000000000002
 20
-1.710607453984839
 30
0.0
 10
-64.85000000000002
 20
-1.997995667827986
 30
0.0
 10
-64.85000000000002
 20
-2.281489301190017
 30
0.0
1001
PE_URL
1000

  0
SPLINE
  5
21C
330
1F
100
AcDbEntity
  8
0
  6
Continuous
 62
     1
370
    15
100
AcDbSpline
210
0.0
220
0.0
230
1.0
 70
    24
 71
     3
 72
    10
 73
     6
 74
     0
 42
0.000000001
 43
0.00000001
 40
0.0
 40
0.0
 40
0.0
 40
0.0
 40
0.5
 40
0.5
 40
1.0
 40
1.0
 40
1.0
 40
1.0
 10
-69.85000000000002
 20
8.454330920370658
 30
0.0
 10
-69.85000000000002
 20
7.806240540293889
 30
0.0
 10
-69.85000000000002
 20
6.987353494735245
 30
0.0
 10
-69.85000000000001
 20
5.083519922898997
 30
0.0
 10
-69.85000000000002
 20
4.000222569446684
 30
0.0
 10
-69.85000000000002
 20
2.863675193549248
 30
0.0
1001
PE_URL
1000

  0
SPLINE
  5
21D
330
1F
100
AcDbEntity
  8
0
  6
Continuous
 62
     1
370
    15
100
AcDbSpline
210
0.0
220
0.0
230
1.0
 70
    24
 71
     3
 72
    10
 73
     6
 74
     0
 42
0.000000001
 43
0.00000001
 40
0.0
 40
0.0
 40
0.0
 40
0.0
 40
0.5
 40
0.5
 40
1.0
 40
1.0
 40
1.0
 40
1.0
 10
-64.85000000000002
 20
-2.281489301190017
 30
0.0
 10
-64.85000000000002
 20
-2.994980288409177
 30
0.0
 10
-64.85000000000002
 20
-3.672456924886838
 30
0.0
 10
-64.85000000000002
 20
-4.886984550676203
 30
0.0
 10
-64.85000000000002
 20
-5.423384483464901
 30
0.0
 10
-64.85000000000002
 20
-5.862107886644544
 30
0.0
1001
PE_URL
1000

  0
SPLINE
  5
21E
330
1F
100
AcDbEntity
  8
0
  6
Continuous
 62
     1
370
    15
100
AcDbSpline
210
0.0
220
0.0
230
1.0
 70
     8
 71
     3
 72
     9
 73
     5
 74
     0
 42
0.000000001
 43
0.00000001
 40
0.0
 40
0.0
 40
0.0
 40
0.0
 40
0.8943268747495706
 40
1.0
 40
1.0
 40
1.0
 40
1.0
 10
-69.85000000000002
 20
-7.500937499999999
 30
0.0
 10
-68.66312146967304
 20
-7.495330804616408
 30
0.0
 10
-67.33600208655118
 20
-7.489061625480801
 30
0.0
 10
-66.00885207493559
 20
-7.33171119418995
 30
0.0
 10
-65.86860798553204
 20
-7.315083482355945
 30
0.0
1001
PE_URL
1000

  0
SPLINE
  5
21F
330
1F
100
AcDbEntity
  8
0
  6
Continuous
 62
     1
370
    15
100
AcDbSpline
210
0.0
220
0.0
230
1.0
 70
     8
 71
     3
 72
     8
 73
     4
 74
     0
 42
0.000000001
 43
0.00000001
 40
0.0
 40
0.0
 40
0.0
 40
0.0
 40
1.0
 40
1.0
 40
1.0
 40
1.0
 10
-69.85000000000002
 20
-7.500937500000006
 30
0.0
 10
-68.16676482530988
 20
-7.04458678121582
 30
0.0
 10
-66.4973402731358
 20
-6.504249742118311
 30
0.0
 10
-64.85000000000002
 20
-5.862107886644537
 30
0.0
1001
PE_URL
1000

  0
SPLINE
  5
220
330
1F
100
AcDbEntity
  8
0
  6
Continuous
 62
     1
370
    15
100
AcDbSpline
210
0.0
220
0.0
230
1.0
 70
     8
 71
     3
 72
    12
 73
     8
 74
     0
 42
0.000000001
 43
0.00000001
 40
0.0
 40
0.0
 40
0.0
 40
0.0
 40
0.1318994330390644
 40
0.3414401321783134
 40
0.5509583164756272
 40
0.7754481012222108
 40
1.0
 40
1.0
 40
1.0
 40
1.0
 10
-47.16017256740366
 20
8.022942687888385
 30
0.0
 10
-46.4128364103084
 20
8.143048788541243
 30
0.0
 10
-44.47825223218943
 20
8.453960230216563
 30
0.0
 10
-41.35658009077838
 20
8.612971338899737
 30
0.0
 10
-37.71035613943631
 20
8.516671102083787
 30
0.0
 10
-33.97912776422649
 20
8.08698342876417
 30
0.0
 10
-31.43482656887257
 20
7.514602445583602
 30
0.0
 10
-30.16250000000002
 20
7.228372366476663
 30
0.0
1001
PE_URL
1000

  0
SPLINE
  5
221
330
1F
100
AcDbEntity
  8
외형선
  6
Continuous
370
    15
100
AcDbSpline
210
0.0
220
0.0
230
1.0
 70
    24
 71
     3
 72
    14
 73
    10
 74
     0
 42
0.000000001
 43
0.00000001
 40
0.0
 40
0.0
 40
0.0
 40
0.0
 40
0.2499999999999999
 40
0.2499999999999999
 40
0.4999999999999999
 40
0.4999999999999999
 40
0.7499999999999999
 40
0.7499999999999999
 40
1.0
 40
1.0
 40
1.0
 40
1.0
 10
-30.16250000000003
 20
-4.032448600680386
 30
0.0
 10
-30.16250000000003
 20
-3.141753946810937
 30
0.0
 10
-30.16250000000003
 20
-2.182227593876881
 30
0.0
 10
-30.16250000000003
 20
-0.2017478996704014
 30
0.0
 10
-30.16250000000003
 20
0.8183621019003446
 30
0.0
 10
-30.16250000000003
 20
2.81973464973311
 30
0.0
 10
-30.16250000000003
 20
3.799930781027822
 30
0.0
 10
-30.16250000000003
 20
5.628325733053195
 30
0.0
 10
-30.16250000000003
 20
6.475894825308679
 30
0.0
 10
-30.16250000000003
 20
7.228372366476659
 30
0.0
  0
SPLINE
  5
222
330
1F
100
AcDbEntity
  8
외형선
  6
Continuous
370
    15
100
AcDbSpline
210
0.0
220
0.0
230
1.0
 70
    24
 71
     3
 72
    11
 73
     7
 74
     0
 42
0.000000001
 43
0.00000001
 40
0.0
 40
0.0
 40
0.0
 40
0.0
 40
0.2513266186822054
 40
0.5026532373644106
 40
0.8706009725972969
 40
1.0
 40
1.0
 40
1.0
 40
1.0
 10
-30.16250000000003
 20
7.228372366476663
 30
0.0
 10
-30.16250000000003
 20
7.410400967440264
 30
0.0
 10
-30.16250000000003
 20
7.774458169367467
 30
0.0
 10
-30.16250000000002
 20
8.184814519962195
 30
0.0
 10
-30.16250000000002
 20
8.423955029568873
 30
0.0
 10
-30.16250000000002
 20
8.382724458237135
 30
0.0
 10
-30.16250000000002
 20
8.371997142347283
 30
0.0
  0
LINE
  5
223
330
1F
100
AcDbEntity
  8
0
  6
Continuous
 62
     1
370
    15
100
AcDbLine
 10
-69.85000000000002
 20
-0.0000000000000107
 30
0.0
 11
-69.85000000000002
 21
-7.500937500000006
 31
0.0
1001
PE_URL
1000

  0
SPLINE
  5
224
330
1F
100
AcDbEntity
  8
0
  6
Continuous
 62
     1
370
    15
100
AcDbSpline
210
0.0
220
0.0
230
1.0
 70
     8
 71
     3
 72
    12
 73
     8
 74
     0
 42
0.000000001
 43
0.00000001
 40
0.0
 40
0.0
 40
0.0
 40
0.0
 40
0.0504724673991049
 40
0.2878787734924056
 40
0.525271456371115
 40
0.7626465239592263
 40
1.0
 40
1.0
 40
1.0
 40
1.0
 10
-55.13801741652183
 20
-7.180980064864791
 30
0.0
 10
-55.38554097979794
 20
-7.293067259873084
 30
0.0
 10
-56.79733603318701
 20
-7.932376687090901
 30
0.0
 10
-59.37331073986321
 20
-8.85009165217867
 30
0.0
 10
-62.86583727580251
 20
-9.852280867000019
 30
0.0
 10
-66.3580563222678
 20
-10.51305234266011
 30
0.0
 10
-68.6860540679951
 20
-10.64206494809547
 30
0.0
 10
-69.85000000000002
 20
-10.70656831694514
 30
0.0
1001
PE_URL
1000

  0
SPLINE
  5
225
330
1F
100
AcDbEntity
  8
0
  6
Continuous
 62
     1
370
    15
100
AcDbSpline
210
0.0
220
0.0
230
1.0
 70
    24
 71
     3
 72
    10
 73
     6
 74
     0
 42
0.000000001
 43
0.00000001
 40
0.0
 40
0.0
 40
0.0
 40
0.0
 40
0.5
 40
0.5
 40
1.0
 40
1.0
 40
1.0
 40
1.0
 10
-69.85000000000002
 20
-7.500937499999999
 30
0.0
 10
-69.85000000000002
 20
-7.955625651850873
 30
0.0
 10
-69.85000000000002
 20
-8.484015392954198
 30
0.0
 10
-69.85000000000002
 20
-9.592575646671172
 30
0.0
 10
-69.85000000000002
 20
-10.16991503551015
 30
0.0
 10
-69.85000000000002
 20
-10.70656831694516
 30
0.0
1001
PE_URL
1000

  0
LINE
  5
226
330
1F
100
AcDbEntity
  8
외형선
  6
Continuous
370
    15
100
AcDbLine
 10
-7.69620000000015
 20
11.11249999999999
 30
0.0
 11
-27.11261054365969
 21
11.11249999999998
 31
0.0
  0
ENDSEC
  0
SECTION
  2
OBJECTS
  0
DICTIONARY
  5
C
330
0
100
AcDbDictionary
281
     1
  3
ACAD_DETAILVIEWSTYLE
350
1B9
  3
ACAD_GROUP
350
D
  3
ACAD_LAYOUT
350
1A
  3
ACAD_MLINESTYLE
350
17
  3
ACAD_PLOTSETTINGS
350
19
  3
ACAD_PLOTSTYLENAME
350
E
  3
ACAD_SCALELIST
350
47
  3
ACAD_SECTIONVIEWSTYLE
350
1BA
  3
AcDbVariableDictionary
350
1B4
  3
APPDATA
350
158
  3
DWGPROPS
350
228
  0
DICTIONARY
  5
192
330
2
100
AcDbDictionary
280
     1
281
     1
  3
ACAD_LAYERSTATES
360
193
  0
DICTIONARY
  5
1B9
102
{ACAD_REACTORS
330
C
102
}
330
C
100
AcDbDictionary
281
     1
  0
DICTIONARY
  5
D
102
{ACAD_REACTORS
330
C
102
}
330
C
100
AcDbDictionary
281
     1
  0
DICTIONARY
  5
1A
102
{ACAD_REACTORS
330
C
102
}
330
C
100
AcDbDictionary
281
     1
  3
Layout1
350
1E
  3
Layout2
350
26
  3
Model
350
22
  0
DICTIONARY
  5
17
102
{ACAD_REACTORS
330
C
102
}
330
C
100
AcDbDictionary
281
     1
  3
Standard
350
18
  0
DICTIONARY
  5
19
102
{ACAD_REACTORS
330
C
102
}
330
C
100
AcDbDictionary
281
     1
  0
ACDBDICTIONARYWDFLT
  5
E
102
{ACAD_REACTORS
330
C
102
}
330
C
100
AcDbDictionary
281
     1
  3
Normal
350
F
100
AcDbDictionaryWithDefault
340
F
  0
DICTIONARY
  5
47
102
{ACAD_REACTORS
330
C
102
}
330
C
100
AcDbDictionary
281
     1
  3
A0
350
48
  3
A1
350
49
  3
A2
350
4A
  3
A3
350
4B
  3
A4
350
4C
  3
A5
350
4D
  3
A6
350
4E
  3
A7
350
4F
  3
A8
350
50
  3
A9
350
51
  3
B0
350
52
  3
B1
350
53
  3
B2
350
54
  3
B3
350
55
  3
B4
350
56
  3
B5
350
57
  3
B6
350
58
  3
B7
350
59
  3
B8
350
5A
  3
B9
350
5B
  3
C0
350
5C
  3
C1
350
5D
  3
C2
350
5E
  3
C3
350
5F
  3
C4
350
60
  3
C5
350
61
  3
C6
350
62
  3
C7
350
63
  3
C8
350
64
  3
C9
350
65
  3
D0
350
66
  3
D1
350
67
  3
D2
350
68
  0
DICTIONARY
  5
1BA
102
{ACAD_REACTORS
330
C
102
}
330
C
100
AcDbDictionary
281
     1
  0
DICTIONARY
  5
1B4
102
{ACAD_REACTORS
330
C
102
}
330
C
100
AcDbDictionary
281
     1
  0
DICTIONARY
  5
158
102
{ACAD_REACTORS
330
C
102
}
330
C
100
AcDbDictionary
281
     1
  0
XRECORD
  5
228
102
{ACAD_REACTORS
330
C
102
}
330
C
100
AcDbXrecord
280
     1
  1
DWGPROPS COOKIE
  2

  3

  4

  6

  7

  8
120170442
  9

300
=
301
=
302
=
303
=
304
=
305
=
306
=
307
=
308
=
309
=
 40
0.0
 41
2458313.026182847
 42
2458324.098773542
  1

 90
        0
  0
DICTIONARY
  5
193
102
{ACAD_REACTORS
330
192
102
}
330
192
100
AcDbDictionary
281
     1
  0
LAYOUT
  5
1E
102
{ACAD_REACTORS
330
1A
102
}
330
1A
100
AcDbPlotSettings
  1

  2
none_device
  4

  6

 40
0.0
 41
0.0
 42
0.0
 43
0.0
 44
0.0
 45
0.0
 46
0.0
 47
0.0
 48
0.0
 49
0.0
140
0.0
141
0.0
142
1.0
143
1.0
 70
   688
 72
     1
 73
     0
 74
     5
  7

 75
    16
147
1.0
148
0.0
149
0.0
100
AcDbLayout
  1
Layout1
 70
     1
 71
     1
 10
0.0
 20
0.0
 11
420.0
 21
297.0
 12
0.0
 22
0.0
 32
0.0
 14
1.000000000000000E+20
 24
1.000000000000000E+20
 34
1.000000000000000E+20
 15
-1.000000000000000E+20
 25
-1.000000000000000E+20
 35
-1.000000000000000E+20
146
0.0
 13
0.0
 23
0.0
 33
0.0
 16
1.0
 26
0.0
 36
0.0
 17
0.0
 27
1.0
 37
0.0
 76
     0
330
1B
  0
LAYOUT
  5
26
102
{ACAD_REACTORS
330
1A
102
}
330
1A
100
AcDbPlotSettings
  1

  2
none_device
  4

  6

 40
0.0
 41
0.0
 42
0.0
 43
0.0
 44
0.0
 45
0.0
 46
0.0
 47
0.0
 48
0.0
 49
0.0
140
0.0
141
0.0
142
1.0
143
1.0
 70
   688
 72
     1
 73
     0
 74
     5
  7

 75
    16
147
1.0
148
0.0
149
0.0
100
AcDbLayout
  1
Layout2
 70
     1
 71
     2
 10
0.0
 20
0.0
 11
0.0
 21
0.0
 12
0.0
 22
0.0
 32
0.0
 14
0.0
 24
0.0
 34
0.0
 15
0.0
 25
0.0
 35
0.0
146
0.0
 13
0.0
 23
0.0
 33
0.0
 16
1.0
 26
0.0
 36
0.0
 17
0.0
 27
1.0
 37
0.0
 76
     0
330
23
  0
LAYOUT
  5
22
102
{ACAD_REACTORS
330
1A
102
}
330
1A
100
AcDbPlotSettings
  1

  2
none_device
  4
ANSI_A_(11.00_x_8.50_Inches)
  6

 40
6.35
 41
19.05
 42
6.35000508
 43
19.05000254
 44
279.4
 45
215.9
 46
51.66973992666185
 47
31.11740979173549
 48
0.0
 49
0.0
140
0.0
141
0.0
142
0.0197575987143405
143
1.0
 70
  1696
 72
     0
 73
     0
 74
     0
  7

 75
     0
147
0.0235690232323232
148
0.0
149
0.0
100
AcDbLayout
  1
Model
 70
     1
 71
     0
 10
0.0
 20
0.0
 11
420.0
 21
297.0
 12
0.0
 22
0.0
 32
0.0
 14
-89.72500000000008
 24
-49.97180738881175
 34
0.0
 15
100.969125032955
 25
50.75856831694522
 35
0.0
146
0.0
 13
0.0
 23
0.0
 33
0.0
 16
1.0
 26
0.0
 36
0.0
 17
0.0
 27
1.0
 37
0.0
 76
     0
330
1F
331
29
  0
MLINESTYLE
  5
18
102
{ACAD_REACTORS
330
17
102
}
330
17
100
AcDbMlineStyle
  2
Standard
 70
     0
  3

 62
   256
 51
90.0
 52
90.0
 71
     2
 49
0.5
 62
   256
  6
BYLAYER
 49
-0.5
 62
   256
  6
BYLAYER
  0
ACDBPLACEHOLDER
  5
F
102
{ACAD_REACTORS
330
E
102
}
330
E
  0
SCALE
  5
48
102
{ACAD_REACTORS
330
47
102
}
330
47
100
AcDbScale
 70
     0
300
1:1
140
1.0
141
1.0
290
     1
  0
SCALE
  5
49
102
{ACAD_REACTORS
330
47
102
}
330
47
100
AcDbScale
 70
     0
300
1:2
140
1.0
141
2.0
290
     0
  0
SCALE
  5
4A
102
{ACAD_REACTORS
330
47
102
}
330
47
100
AcDbScale
 70
     0
300
1:4
140
1.0
141
4.0
290
     0
  0
SCALE
  5
4B
102
{ACAD_REACTORS
330
47
102
}
330
47
100
AcDbScale
 70
     0
300
1:5
140
1.0
141
5.0
290
     0
  0
SCALE
  5
4C
102
{ACAD_REACTORS
330
47
102
}
330
47
100
AcDbScale
 70
     0
300
1:8
140
1.0
141
8.0
290
     0
  0
SCALE
  5
4D
102
{ACAD_REACTORS
330
47
102
}
330
47
100
AcDbScale
 70
     0
300
1:10
140
1.0
141
10.0
290
     0
  0
SCALE
  5
4E
102
{ACAD_REACTORS
330
47
102
}
330
47
100
AcDbScale
 70
     0
300
1:16
140
1.0
141
16.0
290
     0
  0
SCALE
  5
4F
102
{ACAD_REACTORS
330
47
102
}
330
47
100
AcDbScale
 70
     0
300
1:20
140
1.0
141
20.0
290
     0
  0
SCALE
  5
50
102
{ACAD_REACTORS
330
47
102
}
330
47
100
AcDbScale
 70
     0
300
1:30
140
1.0
141
30.0
290
     0
  0
SCALE
  5
51
102
{ACAD_REACTORS
330
47
102
}
330
47
100
AcDbScale
 70
     0
300
1:40
140
1.0
141
40.0
290
     0
  0
SCALE
  5
52
102
{ACAD_REACTORS
330
47
102
}
330
47
100
AcDbScale
 70
     0
300
1:50
140
1.0
141
50.0
290
     0
  0
SCALE
  5
53
102
{ACAD_REACTORS
330
47
102
}
330
47
100
AcDbScale
 70
     0
300
1:100
140
1.0
141
100.0
290
     0
  0
SCALE
  5
54
102
{ACAD_REACTORS
330
47
102
}
330
47
100
AcDbScale
 70
     0
300
2:1
140
2.0
141
1.0
290
     0
  0
SCALE
  5
55
102
{ACAD_REACTORS
330
47
102
}
330
47
100
AcDbScale
 70
     0
300
4:1
140
4.0
141
1.0
290
     0
  0
SCALE
  5
56
102
{ACAD_REACTORS
330
47
102
}
330
47
100
AcDbScale
 70
     0
300
8:1
140
8.0
141
1.0
290
     0
  0
SCALE
  5
57
102
{ACAD_REACTORS
330
47
102
}
330
47
100
AcDbScale
 70
     0
300
10:1
140
10.0
141
1.0
290
     0
  0
SCALE
  5
58
102
{ACAD_REACTORS
330
47
102
}
330
47
100
AcDbScale
 70
     0
300
100:1
140
100.0
141
1.0
290
     0
  0
SCALE
  5
59
102
{ACAD_REACTORS
330
47
102
}
330
47
100
AcDbScale
 70
     0
300
1/128" = 1'-0"
140
0.0078125
141
12.0
290
     0
  0
SCALE
  5
5A
102
{ACAD_REACTORS
330
47
102
}
330
47
100
AcDbScale
 70
     0
300
1/64" = 1'-0"
140
0.015625
141
12.0
290
     0
  0
SCALE
  5
5B
102
{ACAD_REACTORS
330
47
102
}
330
47
100
AcDbScale
 70
     0
300
1/32" = 1'-0"
140
0.03125
141
12.0
290
     0
  0
SCALE
  5
5C
102
{ACAD_REACTORS
330
47
102
}
330
47
100
AcDbScale
 70
     0
300
1/16" = 1'-0"
140
0.0625
141
12.0
290
     0
  0
SCALE
  5
5D
102
{ACAD_REACTORS
330
47
102
}
330
47
100
AcDbScale
 70
     0
300
3/32" = 1'-0"
140
0.09375
141
12.0
290
     0
  0
SCALE
  5
5E
102
{ACAD_REACTORS
330
47
102
}
330
47
100
AcDbScale
 70
     0
300
1/8" = 1'-0"
140
0.125
141
12.0
290
     0
  0
SCALE
  5
5F
102
{ACAD_REACTORS
330
47
102
}
330
47
100
AcDbScale
 70
     0
300
3/16" = 1'-0"
140
0.1875
141
12.0
290
     0
  0
SCALE
  5
60
102
{ACAD_REACTORS
330
47
102
}
330
47
100
AcDbScale
 70
     0
300
1/4" = 1'-0"
140
0.25
141
12.0
290
     0
  0
SCALE
  5
61
102
{ACAD_REACTORS
330
47
102
}
330
47
100
AcDbScale
 70
     0
300
3/8" = 1'-0"
140
0.375
141
12.0
290
     0
  0
SCALE
  5
62
102
{ACAD_REACTORS
330
47
102
}
330
47
100
AcDbScale
 70
     0
300
1/2" = 1'-0"
140
0.5
141
12.0
290
     0
  0
SCALE
  5
63
102
{ACAD_REACTORS
330
47
102
}
330
47
100
AcDbScale
 70
     0
300
3/4" = 1'-0"
140
0.75
141
12.0
290
     0
  0
SCALE
  5
64
102
{ACAD_REACTORS
330
47
102
}
330
47
100
AcDbScale
 70
     0
300
1" = 1'-0"
140
1.0
141
12.0
290
     0
  0
SCALE
  5
65
102
{ACAD_REACTORS
330
47
102
}
330
47
100
AcDbScale
 70
     0
300
1-1/2" = 1'-0"
140
1.5
141
12.0
290
     0
  0
SCALE
  5
66
102
{ACAD_REACTORS
330
47
102
}
330
47
100
AcDbScale
 70
     0
300
3" = 1'-0"
140
3.0
141
12.0
290
     0
  0
SCALE
  5
67
102
{ACAD_REACTORS
330
47
102
}
330
47
100
AcDbScale
 70
     0
300
6" = 1'-0"
140
6.0
141
12.0
290
     0
  0
SCALE
  5
68
102
{ACAD_REACTORS
330
47
102
}
330
47
100
AcDbScale
 70
     0
300
1'-0" = 1'-0"
140
12.0
141
12.0
290
     0
  0
ENDSEC
  0
EOF
