  0
SECTION
  2
HEADER
  9
$ACADVER
  1
AC1015
  9
$ACADMAINTVER
 70
     6
  9
$DWGCODEPAGE
  3
ANSI_949
  9
$INSBASE
 10
0.0
 20
0.0
 30
0.0
  9
$EXTMIN
 10
-83.37500000000011
 20
-49.97180738881175
 30
0.0
  9
$EXTMAX
 10
114.8689204898174
 20
51.68133091317975
 30
0.0
  9
$LIMMIN
 10
0.0
 20
0.0
  9
$LIMMAX
 10
420.0
 20
297.0
  9
$ORTHOMODE
 70
     1
  9
$REGENMODE
 70
     1
  9
$FILLMODE
 70
     1
  9
$QTEXTMODE
 70
     0
  9
$MIRRTEXT
 70
     1
  9
$LTSCALE
 40
1.0
  9
$ATTMODE
 70
     1
  9
$TEXTSIZE
 40
3.5
  9
$TRACEWID
 40
1.0
  9
$TEXTSTYLE
  7
Standard
  9
$CLAYER
  8
0
  9
$CELTYPE
  6
ByLayer
  9
$CECOLOR
 62
   256
  9
$CELTSCALE
 40
1.0
  9
$DISPSILH
 70
     0
  9
$DIMSCALE
 40
1.0
  9
$DIMASZ
 40
3.302
  9
$DIMEXO
 40
1.0
  9
$DIMDLI
 40
3.75
  9
$DIMRND
 40
0.0
  9
$DIMDLE
 40
0.0
  9
$DIMEXE
 40
1.0
  9
$DIMTP
 40
0.0
  9
$DIMTM
 40
0.0
  9
$DIMTXT
 40
3.5
  9
$DIMCEN
 40
2.5
  9
$DIMTSZ
 40
0.0
  9
$DIMTOL
 70
     0
  9
$DIMLIM
 70
     0
  9
$DIMTIH
 70
     1
  9
$DIMTOH
 70
     1
  9
$DIMSE1
 70
     0
  9
$DIMSE2
 70
     0
  9
$DIMTAD
 70
     1
  9
$DIMZIN
 70
     0
  9
$DIMBLK
  1

  9
$DIMASO
 70
     1
  9
$DIMSHO
 70
     1
  9
$DIMPOST
  1

  9
$DIMAPOST
  1

  9
$DIMALT
 70
     0
  9
$DIMALTD
 70
     3
  9
$DIMALTF
 40
0.0393700787401575
  9
$DIMLFAC
 40
1.0
  9
$DIMTOFL
 70
     1
  9
$DIMTVP
 40
0.0
  9
$DIMTIX
 70
     0
  9
$DIMSOXD
 70
     0
  9
$DIMSAH
 70
     0
  9
$DIMBLK1
  1

  9
$DIMBLK2
  1

  9
$DIMSTYLE
  2
ISO-25
  9
$DIMCLRD
 70
     0
  9
$DIMCLRE
 70
     0
  9
$DIMCLRT
 70
     0
  9
$DIMTFAC
 40
1.0
  9
$DIMGAP
 40
1.524
  9
$DIMJUST
 70
     0
  9
$DIMSD1
 70
     0
  9
$DIMSD2
 70
     0
  9
$DIMTOLJ
 70
     0
  9
$DIMTZIN
 70
     0
  9
$DIMALTZ
 70
     0
  9
$DIMALTTZ
 70
     0
  9
$DIMUPT
 70
     0
  9
$DIMDEC
 70
     2
  9
$DIMTDEC
 70
     2
  9
$DIMALTU
 70
     2
  9
$DIMALTTD
 70
     3
  9
$DIMTXSTY
  7
Standard
  9
$DIMAUNIT
 70
     0
  9
$DIMADEC
 70
     2
  9
$DIMALTRND
 40
0.0
  9
$DIMAZIN
 70
     0
  9
$DIMDSEP
 70
    44
  9
$DIMATFIT
 70
     3
  9
$DIMFRAC
 70
     0
  9
$DIMLDRBLK
  1

  9
$DIMLUNIT
 70
     2
  9
$DIMLWD
 70
    -2
  9
$DIMLWE
 70
    -2
  9
$DIMTMOVE
 70
     0
  9
$LUNITS
 70
     2
  9
$LUPREC
 70
     2
  9
$SKETCHINC
 40
1.0
  9
$FILLETRAD
 40
10.0
  9
$AUNITS
 70
     0
  9
$AUPREC
 70
     2
  9
$MENU
  1
.
  9
$ELEVATION
 40
0.0
  9
$PELEVATION
 40
0.0
  9
$THICKNESS
 40
0.0
  9
$LIMCHECK
 70
     0
  9
$CHAMFERA
 40
0.0
  9
$CHAMFERB
 40
0.0
  9
$CHAMFERC
 40
0.0
  9
$CHAMFERD
 40
0.0
  9
$SKPOLY
 70
     0
  9
$TDCREATE
 40
2458313.399912095
  9
$TDUCREATE
 40
2458313.024912095
  9
$TDUPDATE
 40
2458324.465284595
  9
$TDUUPDATE
 40
2458324.090284595
  9
$TDINDWG
 40
0.0004577778
  9
$TDUSRTIMER
 40
0.0000546412
  9
$USRTIMER
 70
     1
  9
$ANGBASE
 50
0.0
  9
$ANGDIR
 70
     0
  9
$PDMODE
 70
     0
  9
$PDSIZE
 40
-1.0
  9
$PLINEWID
 40
0.0
  9
$SPLFRAME
 70
     0
  9
$SPLINETYPE
 70
     6
  9
$SPLINESEGS
 70
     8
  9
$HANDSEED
  5
2BD
  9
$SURFTAB1
 70
     6
  9
$SURFTAB2
 70
     6
  9
$SURFTYPE
 70
     6
  9
$SURFU
 70
     6
  9
$SURFV
 70
     6
  9
$UCSBASE
  2

  9
$UCSNAME
  2

  9
$UCSORG
 10
0.0
 20
0.0
 30
0.0
  9
$UCSXDIR
 10
1.0
 20
0.0
 30
0.0
  9
$UCSYDIR
 10
0.0
 20
1.0
 30
0.0
  9
$UCSORTHOREF
  2

  9
$UCSORTHOVIEW
 70
     0
  9
$UCSORGTOP
 10
0.0
 20
0.0
 30
0.0
  9
$UCSORGBOTTOM
 10
0.0
 20
0.0
 30
0.0
  9
$UCSORGLEFT
 10
0.0
 20
0.0
 30
0.0
  9
$UCSORGRIGHT
 10
0.0
 20
0.0
 30
0.0
  9
$UCSORGFRONT
 10
0.0
 20
0.0
 30
0.0
  9
$UCSORGBACK
 10
0.0
 20
0.0
 30
0.0
  9
$PUCSBASE
  2

  9
$PUCSNAME
  2

  9
$PUCSORG
 10
0.0
 20
0.0
 30
0.0
  9
$PUCSXDIR
 10
1.0
 20
0.0
 30
0.0
  9
$PUCSYDIR
 10
0.0
 20
1.0
 30
0.0
  9
$PUCSORTHOREF
  2

  9
$PUCSORTHOVIEW
 70
     0
  9
$PUCSORGTOP
 10
0.0
 20
0.0
 30
0.0
  9
$PUCSORGBOTTOM
 10
0.0
 20
0.0
 30
0.0
  9
$PUCSORGLEFT
 10
0.0
 20
0.0
 30
0.0
  9
$PUCSORGRIGHT
 10
0.0
 20
0.0
 30
0.0
  9
$PUCSORGFRONT
 10
0.0
 20
0.0
 30
0.0
  9
$PUCSORGBACK
 10
0.0
 20
0.0
 30
0.0
  9
$USERI1
 70
     0
  9
$USERI2
 70
     0
  9
$USERI3
 70
     0
  9
$USERI4
 70
     0
  9
$USERI5
 70
     0
  9
$USERR1
 40
0.0
  9
$USERR2
 40
0.0
  9
$USERR3
 40
0.0
  9
$USERR4
 40
0.0
  9
$USERR5
 40
0.0
  9
$WORLDVIEW
 70
     1
  9
$SHADEDGE
 70
     3
  9
$SHADEDIF
 70
    70
  9
$TILEMODE
 70
     1
  9
$MAXACTVP
 70
    64
  9
$PINSBASE
 10
0.0
 20
0.0
 30
0.0
  9
$PLIMCHECK
 70
     0
  9
$PEXTMIN
 10
1.000000000000000E+20
 20
1.000000000000000E+20
 30
1.000000000000000E+20
  9
$PEXTMAX
 10
-1.000000000000000E+20
 20
-1.000000000000000E+20
 30
-1.000000000000000E+20
  9
$PLIMMIN
 10
0.0
 20
0.0
  9
$PLIMMAX
 10
0.0
 20
0.0
  9
$UNITMODE
 70
     0
  9
$VISRETAIN
 70
     1
  9
$PLINEGEN
 70
     0
  9
$PSLTSCALE
 70
     1
  9
$TREEDEPTH
 70
  3020
  9
$CMLSTYLE
  2
Standard
  9
$CMLJUST
 70
     0
  9
$CMLSCALE
 40
20.0
  9
$PROXYGRAPHICS
 70
     1
  9
$MEASUREMENT
 70
     1
  9
$CELWEIGHT
370
    -1
  9
$ENDCAPS
280
     0
  9
$JOINSTYLE
280
     0
  9
$LWDISPLAY
290
     1
  9
$INSUNITS
 70
     4
  9
$HYPERLINKBASE
  1

  9
$STYLESHEET
  1

  9
$XEDIT
290
     1
  9
$CEPSNTYPE
380
     0
  9
$PSTYLEMODE
290
     1
  9
$FINGERPRINTGUID
  2
{55845A9C-9E39-486C-B67A-5905E0718F4A}
  9
$VERSIONGUID
  2
{FAEB1C32-E019-11D5-929B-00C0DF256EC4}
  9
$EXTNAMES
290
     1
  9
$PSVPSCALE
 40
0.0
  9
$OLESTARTUP
290
     0
  0
ENDSEC
  0
SECTION
  2
CLASSES
  0
CLASS
  1
ACDBDICTIONARYWDFLT
  2
AcDbDictionaryWithDefault
  3
ObjectDBX Classes
 90
        0
280
     0
281
     0
  0
CLASS
  1
VISUALSTYLE
  2
AcDbVisualStyle
  3
ObjectDBX Classes
 90
     4095
280
     0
281
     0
  0
CLASS
  1
MATERIAL
  2
AcDbMaterial
  3
ObjectDBX Classes
 90
     1153
280
     0
281
     0
  0
CLASS
  1
SCALE
  2
AcDbScale
  3
ObjectDBX Classes
 90
     1153
280
     0
281
     0
  0
CLASS
  1
SUN
  2
AcDbSun
  3
SCENEOE
 90
     1153
280
     0
281
     0
  0
CLASS
  1
ACDBPLACEHOLDER
  2
AcDbPlaceHolder
  3
ObjectDBX Classes
 90
        0
280
     0
281
     0
  0
CLASS
  1
LAYOUT
  2
AcDbLayout
  3
ObjectDBX Classes
 90
        0
280
     0
281
     0
  0
CLASS
  1
TABLESTYLE
  2
AcDbTableStyle
  3
ObjectDBX Classes
 90
     4095
280
     0
281
     0
  0
CLASS
  1
MLEADERSTYLE
  2
AcDbMLeaderStyle
  3
ACDB_MLEADERSTYLE_CLASS
 90
     4095
280
     0
281
     0
  0
CLASS
  1
DICTIONARYVAR
  2
AcDbDictionaryVar
  3
ObjectDBX Classes
 90
        0
280
     0
281
     0
  0
ENDSEC
  0
SECTION
  2
TABLES
  0
TABLE
  2
VPORT
  5
8
330
0
100
AcDbSymbolTable
 70
     1
  0
VPORT
  5
29
330
8
100
AcDbSymbolTableRecord
100
AcDbViewportTableRecord
  2
*Active
 70
     0
 10
0.0
 20
0.0
 11
1.0
 21
1.0
 12
15.74696024490865
 22
0.8547617621840047
 13
0.0
 23
0.0
 14
10.0
 24
10.0
 15
10.0
 25
10.0
 16
0.0
 26
0.0
 36
1.0
 17
0.0
 27
0.0
 37
0.0
 40
113.4244057403794
 41
1.782762691853601
 42
50.0
 43
0.0
 44
0.0
 50
0.0
 51
0.0
 71
    16
 72
  2000
 73
     1
 74
     3
 75
     0
 76
     0
 77
     0
 78
     0
281
     0
 65
     1
110
0.0
120
0.0
130
0.0
111
1.0
121
0.0
131
0.0
112
0.0
122
1.0
132
0.0
 79
     0
146
0.0
  0
ENDTAB
  0
TABLE
  2
LTYPE
  5
5
330
0
100
AcDbSymbolTable
 70
     6
  0
LTYPE
  5
14
330
5
100
AcDbSymbolTableRecord
100
AcDbLinetypeTableRecord
  2
ByBlock
 70
     0
  3

 72
    65
 73
     0
 40
0.0
  0
LTYPE
  5
15
330
5
100
AcDbSymbolTableRecord
100
AcDbLinetypeTableRecord
  2
ByLayer
 70
     0
  3

 72
    65
 73
     0
 40
0.0
  0
LTYPE
  5
16
330
5
100
AcDbSymbolTableRecord
100
AcDbLinetypeTableRecord
  2
Continuous
 70
     0
  3
Solid line
 72
    65
 73
     0
 40
0.0
  0
LTYPE
  5
6A
330
5
100
AcDbSymbolTableRecord
100
AcDbLinetypeTableRecord
  2
HIDDEN
 70
     0
  3
Hidden __ __ __ __ __ __ __ __ __ __ __ __ __ __
 72
    65
 73
     2
 40
1.905
 49
1.27
 74
     0
 49
-0.635
 74
     0
  0
LTYPE
  5
6B
330
5
100
AcDbSymbolTableRecord
100
AcDbLinetypeTableRecord
  2
PHANTOM
 70
     0
  3
Phantom ______  __  __  ______  __  __  ______
 72
    65
 73
     6
 40
12.7
 49
6.35
 74
     0
 49
-1.27
 74
     0
 49
1.27
 74
     0
 49
-1.27
 74
     0
 49
1.27
 74
     0
 49
-1.27
 74
     0
  0
LTYPE
  5
6C
330
5
100
AcDbSymbolTableRecord
100
AcDbLinetypeTableRecord
  2
CENTER
 70
     0
  3
Center ____ _ ____ _ ____ _ ____ _ ____ _ ____
 72
    65
 73
     4
 40
10.16
 49
6.35
 74
     0
 49
-1.27
 74
     0
 49
1.27
 74
     0
 49
-1.27
 74
     0
  0
LTYPE
  5
6D
330
5
100
AcDbSymbolTableRecord
100
AcDbLinetypeTableRecord
  2
CENTERX2
 70
     0
  3
Center (2x) ________  __  ________  __  _____
 72
    65
 73
     4
 40
20.32
 49
12.7
 74
     0
 49
-2.54
 74
     0
 49
2.54
 74
     0
 49
-2.54
 74
     0
  0
LTYPE
  5
6E
330
5
100
AcDbSymbolTableRecord
100
AcDbLinetypeTableRecord
  2
DOT2
 70
     0
  3
Dot (.5x) ........................................
 72
    65
 73
     2
 40
0.635
 49
0.0
 74
     0
 49
-0.635
 74
     0
  0
ENDTAB
  0
TABLE
  2
LAYER
  5
2
102
{ACAD_XDICTIONARY
360
18D
102
}
330
0
100
AcDbSymbolTable
 70
    18
  0
LAYER
  5
10
330
2
100
AcDbSymbolTableRecord
100
AcDbLayerTableRecord
  2
0
 70
     0
 62
     7
  6
Continuous
370
    -3
390
F
  0
LAYER
  5
6F
330
2
100
AcDbSymbolTableRecord
100
AcDbLayerTableRecord
  2
FORMAT
 70
     0
 62
     2
  6
Continuous
370
    -3
390
F
  0
LAYER
  5
70
330
2
100
AcDbSymbolTableRecord
100
AcDbLayerTableRecord
  2
외형선
 70
     0
 62
     4
  6
Continuous
370
    30
390
F
  0
LAYER
  5
71
330
2
100
AcDbSymbolTableRecord
100
AcDbLayerTableRecord
  2
숨은선
 70
     0
 62
     2
  6
HIDDEN
370
    15
390
F
  0
LAYER
  5
72
330
2
100
AcDbSymbolTableRecord
100
AcDbLayerTableRecord
  2
중심선
 70
     0
 62
     1
  6
CENTERX2
370
    -3
390
F
  0
LAYER
  5
73
330
2
100
AcDbSymbolTableRecord
100
AcDbLayerTableRecord
  2
파단선
 70
     0
 62
     4
  6
Continuous
370
    -3
390
F
  0
LAYER
  5
74
330
2
100
AcDbSymbolTableRecord
100
AcDbLayerTableRecord
  2
해칭선
 70
     0
 62
   100
  6
Continuous
370
    -3
390
F
  0
LAYER
  5
75
330
2
100
AcDbSymbolTableRecord
100
AcDbLayerTableRecord
  2
가는실선
 70
     0
 62
     4
  6
Continuous
370
    -3
390
F
  0
LAYER
  5
76
330
2
100
AcDbSymbolTableRecord
100
AcDbLayerTableRecord
  2
치수_보조선
 70
     0
 62
     4
  6
Continuous
370
    -3
390
F
  0
LAYER
  5
77
330
2
100
AcDbSymbolTableRecord
100
AcDbLayerTableRecord
  2
치수문자_일반주서
 70
     0
 62
     7
  6
Continuous
370
    15
390
F
  0
LAYER
  5
78
330
2
100
AcDbSymbolTableRecord
100
AcDbLayerTableRecord
  2
개별주서
 70
     0
 62
   100
  6
Continuous
370
    30
390
F
  0
LAYER
  5
79
330
2
100
AcDbSymbolTableRecord
100
AcDbLayerTableRecord
  2
중간선
 70
     0
 62
     2
  6
Continuous
370
    15
390
F
  0
LAYER
  5
7A
330
2
100
AcDbSymbolTableRecord
100
AcDbLayerTableRecord
  2
윤곽선
 70
     0
 62
     3
  6
Continuous
370
    40
390
F
  0
LAYER
  5
7B
330
2
100
AcDbSymbolTableRecord
100
AcDbLayerTableRecord
  2
중심마크
 70
     0
 62
   100
  6
Continuous
370
    30
390
F
  0
LAYER
  5
7C
330
2
100
AcDbSymbolTableRecord
100
AcDbLayerTableRecord
  2
가상선
 70
     0
 62
     4
  6
PHANTOM
370
    -3
390
F
  0
LAYER
  5
7D
330
2
100
AcDbSymbolTableRecord
100
AcDbLayerTableRecord
  2
특수지정선
 70
     0
 62
     5
  6
CENTERX2
370
    60
390
F
  0
LAYER
  5
7E
330
2
100
AcDbSymbolTableRecord
100
AcDbLayerTableRecord
  2
참조1
 70
     0
 62
    -4
  6
Continuous
370
    -3
390
F
  0
LAYER
  5
159
330
2
100
AcDbSymbolTableRecord
100
AcDbLayerTableRecord
  2
Defpoints
 70
     0
 62
     7
  6
Continuous
290
     0
370
    -3
390
F
  0
ENDTAB
  0
TABLE
  2
STYLE
  5
3
330
0
100
AcDbSymbolTable
 70
     2
  0
STYLE
  5
11
330
3
100
AcDbSymbolTableRecord
100
AcDbTextStyleTableRecord
  2
Standard
 70
     0
 40
0.0
 41
1.0
 50
0.0
 71
     0
 42
3.5
  3
txt
  4

  0
STYLE
  5
94
330
3
100
AcDbSymbolTableRecord
100
AcDbTextStyleTableRecord
  2
SLDTEXTSTYLE0
 70
     0
 40
0.0
 41
0.75
 50
0.0
 71
     0
 42
3.5
  3
TXT
  4

  0
ENDTAB
  0
TABLE
  2
VIEW
  5
6
330
0
100
AcDbSymbolTable
 70
     0
  0
ENDTAB
  0
TABLE
  2
UCS
  5
7
330
0
100
AcDbSymbolTable
 70
     0
  0
ENDTAB
  0
TABLE
  2
APPID
  5
9
330
0
100
AcDbSymbolTable
 70
     2
  0
APPID
  5
12
330
9
100
AcDbSymbolTableRecord
100
AcDbRegAppTableRecord
  2
ACAD
 70
     0
  0
APPID
  5
160
330
9
100
AcDbSymbolTableRecord
100
AcDbRegAppTableRecord
  2
PE_URL
 70
     0
  0
ENDTAB
  0
TABLE
  2
DIMSTYLE
  5
A
330
0
100
AcDbSymbolTable
 70
     4
100
AcDbDimStyleTable
  0
DIMSTYLE
105
27
330
A
100
AcDbSymbolTableRecord
100
AcDbDimStyleTableRecord
  2
ISO-25
 70
     0
 41
2.5
 42
0.625
 43
3.75
 44
1.25
 73
     0
 74
     0
 77
     1
 78
     8
140
2.5
141
2.5
143
0.03937007874016
147
0.625
171
     3
172
     1
178
     0
271
     2
272
     2
274
     3
278
    44
283
     0
284
     8
340
11
  0
DIMSTYLE
105
D9
102
{ACAD_REACTORS
330
D8
330
115
330
101
330
ED
102
}
330
A
100
AcDbSymbolTableRecord
100
AcDbDimStyleTableRecord
  2
SLDDIMSTYLE0
 70
     0
 41
3.302
 44
0.0
 45
0.000000001
 73
     0
 74
     0
 77
     1
 78
    12
 79
     3
140
3.5
143
0.0393700787401575
147
0.875
148
0.000000001
170
     1
172
     1
173
     1
178
     0
271
     2
272
     2
276
     2
284
    12
289
     0
340
94
  0
DIMSTYLE
105
EE
330
A
100
AcDbSymbolTableRecord
100
AcDbDimStyleTableRecord
  2
SLDDIMSTYLE1
 70
     0
 41
3.302
 44
0.0
 45
0.000000001
 73
     0
 74
     0
 77
     1
 78
    12
 79
     3
140
3.5
143
0.0393700787401575
147
0.875
148
0.000000001
170
     1
173
     1
178
     0
271
     2
272
     2
276
     2
284
    12
340
94
  0
DIMSTYLE
105
1B8
102
{ACAD_REACTORS
102
}
330
A
100
AcDbSymbolTableRecord
100
AcDbDimStyleTableRecord
  2
SLDDIMSTYLE2
 70
     0
 41
3.302
 44
0.0
 45
0.000000001
 73
     0
 74
     0
 77
     1
 78
    12
 79
     3
140
3.5
147
0.875
172
     1
173
     1
178
     0
271
     2
272
     2
276
     2
284
    12
289
     0
340
94
  0
ENDTAB
  0
TABLE
  2
BLOCK_RECORD
  5
1
330
0
100
AcDbSymbolTable
 70
    11
  0
BLOCK_RECORD
  5
1F
330
1
100
AcDbSymbolTableRecord
100
AcDbBlockTableRecord
  2
*Model_Space
340
22
  0
BLOCK_RECORD
  5
1B
330
1
100
AcDbSymbolTableRecord
100
AcDbBlockTableRecord
  2
*Paper_Space
340
1E
  0
BLOCK_RECORD
  5
23
330
1
100
AcDbSymbolTableRecord
100
AcDbBlockTableRecord
  2
*Paper_Space0
340
26
  0
BLOCK_RECORD
  5
7F
330
1
100
AcDbSymbolTableRecord
100
AcDbBlockTableRecord
  2
블럭10
340
0
102
{BLKREFS
331
D1
102
}
  0
BLOCK_RECORD
  5
DA
330
1
100
AcDbSymbolTableRecord
100
AcDbBlockTableRecord
  2
_D
340
0
  0
BLOCK_RECORD
  5
EF
330
1
100
AcDbSymbolTableRecord
100
AcDbBlockTableRecord
  2
_D_1
340
0
  0
BLOCK_RECORD
  5
102
330
1
100
AcDbSymbolTableRecord
100
AcDbBlockTableRecord
  2
_D_2
340
0
  0
BLOCK_RECORD
  5
116
330
1
100
AcDbSymbolTableRecord
100
AcDbBlockTableRecord
  2
_D_3
340
0
  0
BLOCK_RECORD
  5
12F
330
1
100
AcDbSymbolTableRecord
100
AcDbBlockTableRecord
  2
SW_DOWELSYMBOL_0
340
0
102
{BLKREFS
331
135
102
}
  0
BLOCK_RECORD
  5
191
330
1
100
AcDbSymbolTableRecord
100
AcDbBlockTableRecord
  2
*D7
340
0
  0
BLOCK_RECORD
  5
1A0
330
1
100
AcDbSymbolTableRecord
100
AcDbBlockTableRecord
  2
*D8
340
0
  0
BLOCK_RECORD
  5
1E7
330
1
100
AcDbSymbolTableRecord
100
AcDbBlockTableRecord
  2
*D9
340
0
  0
BLOCK_RECORD
  5
1F5
330
1
100
AcDbSymbolTableRecord
100
AcDbBlockTableRecord
  2
*D10
340
0
  0
ENDTAB
  0
ENDSEC
  0
SECTION
  2
BLOCKS
  0
BLOCK
  5
20
330
1F
100
AcDbEntity
  8
0
100
AcDbBlockBegin
  2
*Model_Space
 70
     0
 10
0.0
 20
0.0
 30
0.0
  3
*Model_Space
  1

  0
ENDBLK
  5
21
330
1F
100
AcDbEntity
  8
0
100
AcDbBlockEnd
  0
BLOCK
  5
1C
330
1B
100
AcDbEntity
 67
     1
  8
0
100
AcDbBlockBegin
  2
*Paper_Space
 70
     0
 10
0.0
 20
0.0
 30
0.0
  3
*Paper_Space
  1

  0
ENDBLK
  5
1D
330
1B
100
AcDbEntity
 67
     1
  8
0
100
AcDbBlockEnd
  0
BLOCK
  5
24
330
23
100
AcDbEntity
  8
0
100
AcDbBlockBegin
  2
*Paper_Space0
 70
     0
 10
0.0
 20
0.0
 30
0.0
  3
*Paper_Space0
  1

  0
ENDBLK
  5
25
330
23
100
AcDbEntity
  8
0
100
AcDbBlockEnd
  0
BLOCK
  5
80
330
7F
100
AcDbEntity
  8
0
100
AcDbBlockBegin
  2
블럭10
 70
     2
 10
0.0
 20
0.0
 30
0.0
  3
블럭10
  1

  0
ELLIPSE
  5
82
330
7F
100
AcDbEntity
  8
중심선
100
AcDbEllipse
 10
20.54032771741204
 20
12.0471743016438
 30
0.0
 11
6.600054785286829
 21
-1.261213355974178E-13
 31
0.0
210
0.0
220
0.0
230
1.0
 40
0.636358354079598
 41
0.9219305317359503
 42
6.513795318482858
  0
ELLIPSE
  5
83
330
7F
100
AcDbEntity
  8
중심선
100
AcDbEllipse
 10
20.54032771746488
 20
12.04717430159265
 30
0.0
 11
3.960054785062283
 21
1.540847449632565E-10
 31
0.0
210
0.0
220
0.0
230
1.0
 40
0.3939339440162632
 41
1.131841032648279
 42
5.62031148352944
  0
LINE
  5
84
330
7F
100
AcDbEntity
  8
중심선
100
AcDbLine
 10
2.268634060543552
 20
16.24717430164393
 30
0.0
 11
5.714909304380834
 21
16.24717430164393
 31
0.0
  0
LINE
  5
85
330
7F
100
AcDbEntity
  8
중심선
100
AcDbLine
 10
5.245725140726316
 20
7.84717430164391
 30
0.0
 11
8.692000384563599
 21
7.84717430164391
 31
0.0
  0
LINE
  5
86
330
7F
100
AcDbEntity
  8
중심선
100
AcDbLine
 10
15.74043728645272
 20
16.24717430164393
 30
0.0
 11
8.692000384563599
 21
7.84717430164391
 31
0.0
  0
LINE
  5
87
330
7F
100
AcDbEntity
  8
중심선
100
AcDbLine
 10
0.1404042013395286
 20
13.71084872107135
 30
0.0
 11
3.58671253028996
 21
13.71088815037384
 31
0.0
  0
LINE
  5
88
330
7F
100
AcDbEntity
  8
중심선
100
AcDbLine
 10
2.750260043222114
 20
10.84717430164391
 30
0.0
 11
6.196535287059397
 21
10.84717430164391
 31
0.0
  0
LINE
  5
89
330
7F
100
AcDbEntity
  8
중심선
100
AcDbLine
 10
12.29416204261559
 20
16.24717430164393
 30
0.0
 11
5.245725140726316
 21
7.84717430164391
 31
0.0
  0
LINE
  5
8A
330
7F
100
AcDbEntity
  8
중심선
100
AcDbLine
 10
10.72767329541681
 20
16.24717430164393
 30
0.0
 11
6.196535287059397
 21
10.84717430164391
 31
0.0
  0
LINE
  5
8B
330
7F
100
AcDbEntity
  8
중심선
100
AcDbLine
 10
7.28139805157953
 20
16.24717430164393
 30
0.0
 11
2.750260043222114
 21
10.84717430164391
 31
0.0
  0
LINE
  5
8C
330
7F
100
AcDbEntity
  8
중심선
100
AcDbLine
 10
5.714909304380834
 20
16.24717430164393
 30
0.0
 11
3.58671253028996
 21
13.71088815037384
 31
0.0
  0
LINE
  5
8D
330
7F
100
AcDbEntity
  8
중심선
100
AcDbLine
 10
2.268634060543552
 20
16.24717430164393
 30
0.0
 11
0.1404042013395286
 21
13.71084872107135
 31
0.0
  0
LINE
  5
8E
330
7F
100
AcDbEntity
  8
중심선
100
AcDbLine
 10
7.28139805157953
 20
16.24717430164393
 30
0.0
 11
10.72767329541681
 21
16.24717430164393
 31
0.0
  0
LINE
  5
8F
330
7F
100
AcDbEntity
  8
중심선
100
AcDbLine
 10
12.29416204261559
 20
16.24717430164393
 30
0.0
 11
15.74043728645272
 21
16.24717430164393
 31
0.0
  0
LINE
  5
90
330
7F
100
AcDbEntity
  8
중심선
100
AcDbLine
 10
19.22036997980202
 20
11.08717430171403
 30
0.0
 11
23.66174974927406
 21
11.08717430171406
 31
0.0
  0
LINE
  5
91
330
7F
100
AcDbEntity
  8
중심선
100
AcDbLine
 10
19.22039502424796
 20
13.00717430171391
 30
0.0
 11
19.22036997980202
 21
11.08717430171403
 31
0.0
  0
LINE
  5
92
330
7F
100
AcDbEntity
  8
중심선
100
AcDbLine
 10
19.22039502424796
 20
13.00717430171391
 30
0.0
 11
26.96566020931264
 21
13.00717430171391
 31
0.0
  0
LINE
  5
93
330
7F
100
AcDbEntity
  8
중심선
100
AcDbLine
 10
22.22332737316547
 20
13.45928029700563
 30
0.0
 11
24.52862924686651
 21
15.39360700705356
 31
0.0
  0
ATTDEF
  5
95
330
7F
100
AcDbEntity
  8
FORMAT
 62
     2
100
AcDbText
 10
4.408487351596664
 20
2.075366912832191
 30
0.0
 40
4.233333333333333
  1
E1050042
 41
0.75
  7
SLDTEXTSTYLE0
 11
4.408487351596664
 21
-0.0412997538344756
 31
0.0
100
AcDbAttributeDefinition
  3

  2
AUTOATTR0
 70
     0
 74
     1
  0
ENDBLK
  5
81
330
7F
100
AcDbEntity
  8
0
100
AcDbBlockEnd
  0
BLOCK
  5
DB
330
DA
100
AcDbEntity
  8
0
100
AcDbBlockBegin
  2
_D
 70
     0
 10
0.0
 20
0.0
 30
0.0
  3
_D
  1

  0
LINE
  5
DD
330
DA
100
AcDbEntity
  8
치수문자_일반주서
 62
     0
370
    -2
100
AcDbLine
 10
-24.78152700723834
 20
9.524999999999991
 30
0.0
 11
-78.49999999999996
 21
9.524999999999785
 31
0.0
  0
LINE
  5
DE
330
DA
100
AcDbEntity
  8
치수문자_일반주서
 62
     0
370
    -2
100
AcDbLine
 10
-24.78152700723834
 20
-9.525000000000013
 30
0.0
 11
-78.49999999999989
 21
-9.525000000000222
 31
0.0
  0
LINE
  5
DF
330
DA
100
AcDbEntity
  8
치수문자_일반주서
 62
     0
370
    -2
100
AcDbLine
 10
-78.49999999999996
 20
9.524999999999785
 30
0.0
 11
-78.5000000000001
 21
47.37899999999993
 31
0.0
  0
LINE
  5
E0
330
DA
100
AcDbEntity
  8
치수문자_일반주서
 62
     0
370
    -2
100
AcDbLine
 10
-78.49999999999996
 20
9.524999999999785
 30
0.0
 11
-78.49999999999989
 21
-9.525000000000222
 31
0.0
  0
LINE
  5
E1
330
DA
100
AcDbEntity
  8
치수문자_일반주서
 62
     0
370
    -2
100
AcDbLine
 10
-78.49999999999997
 20
12.82699999999979
 30
0.0
 11
-78.49999999999999
 21
16.12899999999978
 31
0.0
  0
LINE
  5
E2
330
DA
100
AcDbEntity
  8
치수문자_일반주서
 62
     0
370
    -2
100
AcDbLine
 10
-78.49999999999987
 20
-12.82700000000022
 30
0.0
 11
-78.49999999999986
 21
-16.12900000000022
 31
0.0
  0
SOLID
  5
E3
330
DA
100
AcDbEntity
  8
치수문자_일반주서
 62
     0
100
AcDbTrace
 10
-79.0503333333333
 20
12.82699999999978
 30
0.0
 11
-77.94966666666664
 21
12.82699999999979
 31
0.0
 12
-78.49999999999996
 22
9.524999999999785
 32
0.0
 13
-78.49999999999996
 23
9.524999999999785
 33
0.0
  0
SOLID
  5
E4
330
DA
100
AcDbEntity
  8
치수문자_일반주서
 62
     0
100
AcDbTrace
 10
-77.94966666666654
 20
-12.82700000000022
 30
0.0
 11
-79.0503333333332
 21
-12.82700000000022
 31
0.0
 12
-78.49999999999989
 22
-9.525000000000222
 32
0.0
 13
-78.49999999999989
 23
-9.525000000000222
 33
0.0
  0
MTEXT
  5
E5
330
DA
100
AcDbEntity
  8
치수문자_일반주서
 62
     0
100
AcDbMText
 10
-83.37500000000004
 20
31.75399999999992
 30
0.0
 40
4.0
 41
0.0
 71
     2
 72
     1
  1
\A1;%%c19.05 [3/4]
  7
SLDTEXTSTYLE0
 11
-3.729883127349607E-15
 21
1.0
 31
0.0
 73
     1
 44
1.0
  0
POINT
  5
1B0
330
DA
100
AcDbEntity
  8
Defpoints
 62
     0
100
AcDbPoint
 10
-24.71902700723834
 20
9.524999999999991
 30
0.0
  0
POINT
  5
1B1
330
DA
100
AcDbEntity
  8
Defpoints
 62
     0
100
AcDbPoint
 10
-24.71902700723834
 20
-9.525000000000013
 30
0.0
  0
POINT
  5
1B2
330
DA
100
AcDbEntity
  8
Defpoints
 62
     0
100
AcDbPoint
 10
-78.49999999999989
 20
-9.525000000000214
 30
0.0
  0
ENDBLK
  5
DC
330
DA
100
AcDbEntity
  8
0
100
AcDbBlockEnd
  0
BLOCK
  5
F0
330
EF
100
AcDbEntity
  8
0
100
AcDbBlockBegin
  2
_D_1
 70
     0
 10
0.0
 20
0.0
 30
0.0
  3
_D_1
  1

  0
LINE
  5
F2
330
EF
100
AcDbEntity
  8
치수문자_일반주서
 62
     0
370
    -2
100
AcDbLine
 10
63.56250000000003
 20
-8.32733091317957
 30
0.0
 11
114.3185871564841
 21
-8.327330913179374
 31
0.0
  0
LINE
  5
F3
330
EF
100
AcDbEntity
  8
치수문자_일반주서
 62
     0
370
    -2
100
AcDbLine
 10
63.56250000000003
 20
8.327330913179559
 30
0.0
 11
114.318587156484
 21
8.327330913179747
 31
0.0
  0
LINE
  5
F4
330
EF
100
AcDbEntity
  8
치수문자_일반주서
 62
     0
370
    -2
100
AcDbLine
 10
114.318587156484
 20
8.327330913179747
 30
0.0
 11
114.3185871564839
 21
51.68133091317975
 31
0.0
  0
LINE
  5
F5
330
EF
100
AcDbEntity
  8
치수문자_일반주서
 62
     0
370
    -2
100
AcDbLine
 10
114.3185871564841
 20
-8.327330913179374
 30
0.0
 11
114.318587156484
 21
8.327330913179747
 31
0.0
  0
LINE
  5
F6
330
EF
100
AcDbEntity
  8
치수문자_일반주서
 62
     0
370
    -2
100
AcDbLine
 10
114.3185871564841
 20
-11.62933091317937
 30
0.0
 11
114.3185871564841
 21
-14.93133091317937
 31
0.0
  0
LINE
  5
F7
330
EF
100
AcDbEntity
  8
치수문자_일반주서
 62
     0
370
    -2
100
AcDbLine
 10
114.318587156484
 20
11.62933091317975
 30
0.0
 11
114.318587156484
 21
14.93133091317975
 31
0.0
  0
SOLID
  5
F8
330
EF
100
AcDbEntity
  8
치수문자_일반주서
 62
     0
100
AcDbTrace
 10
114.8689204898174
 20
-11.62933091317937
 30
0.0
 11
113.7682538231507
 21
-11.62933091317938
 31
0.0
 12
114.3185871564841
 22
-8.327330913179374
 32
0.0
 13
114.3185871564841
 23
-8.327330913179374
 33
0.0
  0
SOLID
  5
F9
330
EF
100
AcDbEntity
  8
치수문자_일반주서
 62
     0
100
AcDbTrace
 10
113.7682538231507
 20
11.62933091317974
 30
0.0
 11
114.8689204898173
 21
11.62933091317975
 31
0.0
 12
114.318587156484
 22
8.327330913179747
 32
0.0
 13
114.318587156484
 23
8.327330913179747
 33
0.0
  0
MTEXT
  5
FA
330
EF
100
AcDbEntity
  8
치수문자_일반주서
 62
     0
100
AcDbMText
 10
109.4435871564839
 20
33.30633091317974
 30
0.0
 40
4.0
 41
0.0
 71
     2
 72
     1
  1
\A1;%%c16.65 [21/32]
  7
SLDTEXTSTYLE0
 11
-3.413063528605705E-15
 21
1.0
 31
0.0
 73
     1
 44
1.0
  0
POINT
  5
FB
330
EF
100
AcDbEntity
  8
Defpoints
 62
     0
100
AcDbPoint
 10
63.50000000000003
 20
-8.32733091317957
 30
0.0
  0
POINT
  5
FC
330
EF
100
AcDbEntity
  8
Defpoints
 62
     0
100
AcDbPoint
 10
63.50000000000003
 20
8.327330913179559
 30
0.0
  0
POINT
  5
FD
330
EF
100
AcDbEntity
  8
Defpoints
 62
     0
100
AcDbPoint
 10
114.318587156484
 20
8.327330913179749
 30
0.0
  0
ENDBLK
  5
F1
330
EF
100
AcDbEntity
  8
0
100
AcDbBlockEnd
  0
BLOCK
  5
103
330
102
100
AcDbEntity
  8
0
100
AcDbBlockBegin
  2
_D_2
 70
     0
 10
0.0
 20
0.0
 30
0.0
  3
_D_2
  1

  0
LINE
  5
105
330
102
100
AcDbEntity
  8
치수문자_일반주서
 62
     0
370
    -2
100
AcDbLine
 10
63.50000000000003
 20
8.389830913179559
 30
0.0
 11
63.50000000000003
 21
24.52499999999998
 31
0.0
  0
LINE
  5
106
330
102
100
AcDbEntity
  8
치수문자_일반주서
 62
     0
370
    -2
100
AcDbLine
 10
30.16250000000002
 20
7.330917307797761
 30
0.0
 11
30.16250000000002
 21
24.52499999999998
 31
0.0
  0
LINE
  5
107
330
102
100
AcDbEntity
  8
치수문자_일반주서
 62
     0
370
    -2
100
AcDbLine
 10
63.50000000000003
 20
24.52499999999998
 30
0.0
 11
106.854
 21
24.52499999999998
 31
0.0
  0
LINE
  5
108
330
102
100
AcDbEntity
  8
치수문자_일반주서
 62
     0
370
    -2
100
AcDbLine
 10
63.50000000000003
 20
24.52499999999998
 30
0.0
 11
30.16250000000002
 21
24.52499999999998
 31
0.0
  0
LINE
  5
109
330
102
100
AcDbEntity
  8
치수문자_일반주서
 62
     0
370
    -2
100
AcDbLine
 10
66.80200000000002
 20
24.52499999999998
 30
0.0
 11
70.10400000000001
 21
24.52499999999998
 31
0.0
  0
LINE
  5
10A
330
102
100
AcDbEntity
  8
치수문자_일반주서
 62
     0
370
    -2
100
AcDbLine
 10
26.86050000000002
 20
24.52499999999998
 30
0.0
 11
23.55850000000002
 21
24.52499999999998
 31
0.0
  0
SOLID
  5
10B
330
102
100
AcDbEntity
  8
치수문자_일반주서
 62
     0
100
AcDbTrace
 10
66.80200000000002
 20
25.07533333333331
 30
0.0
 11
66.80200000000002
 21
23.97466666666664
 31
0.0
 12
63.50000000000003
 22
24.52499999999998
 32
0.0
 13
63.50000000000003
 23
24.52499999999998
 33
0.0
  0
SOLID
  5
10C
330
102
100
AcDbEntity
  8
치수문자_일반주서
 62
     0
100
AcDbTrace
 10
26.86050000000002
 20
23.97466666666664
 30
0.0
 11
26.86050000000002
 21
25.07533333333331
 31
0.0
 12
30.16250000000002
 22
24.52499999999998
 32
0.0
 13
30.16250000000002
 23
24.52499999999998
 33
0.0
  0
MTEXT
  5
10D
330
102
100
AcDbEntity
  8
치수문자_일반주서
 62
     0
100
AcDbMText
 10
88.47900000000003
 20
29.39999999999998
 30
0.0
 40
4.0
 41
0.0
 71
     2
 72
     1
  1
\A1;33.34 [1 5/16]
  7
SLDTEXTSTYLE0
 73
     1
 44
1.0
  0
POINT
  5
208
330
102
100
AcDbEntity
  8
Defpoints
 62
     0
100
AcDbPoint
 10
63.50000000000003
 20
8.327330913179559
 30
0.0
  0
POINT
  5
209
330
102
100
AcDbEntity
  8
Defpoints
 62
     0
100
AcDbPoint
 10
30.16250000000002
 20
7.268417307797761
 30
0.0
  0
POINT
  5
20A
330
102
100
AcDbEntity
  8
Defpoints
 62
     0
100
AcDbPoint
 10
30.16250000000002
 20
24.52499999999998
 30
0.0
  0
ENDBLK
  5
104
330
102
100
AcDbEntity
  8
0
100
AcDbBlockEnd
  0
BLOCK
  5
117
330
116
100
AcDbEntity
  8
0
100
AcDbBlockBegin
  2
_D_3
 70
     0
 10
0.0
 20
0.0
 30
0.0
  3
_D_3
  1

  0
LINE
  5
119
330
116
100
AcDbEntity
  8
치수문자_일반주서
 62
     0
370
    -2
100
AcDbLine
 10
-63.50000000000004
 20
8.389830913179548
 30
0.0
 11
-63.50000000000004
 21
39.52499999999998
 31
0.0
  0
LINE
  5
11A
330
116
100
AcDbEntity
  8
치수문자_일반주서
 62
     0
370
    -2
100
AcDbLine
 10
63.50000000000003
 20
8.389830913179559
 30
0.0
 11
63.50000000000003
 21
39.52499999999998
 31
0.0
  0
LINE
  5
11B
330
116
100
AcDbEntity
  8
치수문자_일반주서
 62
     0
370
    -2
100
AcDbLine
 10
-60.19800000000004
 20
39.52499999999998
 30
0.0
 11
60.19800000000003
 21
39.52499999999998
 31
0.0
  0
SOLID
  5
11C
330
116
100
AcDbEntity
  8
치수문자_일반주서
 62
     0
100
AcDbTrace
 10
-60.19800000000004
 20
40.07533333333331
 30
0.0
 11
-60.19800000000004
 21
38.97466666666664
 31
0.0
 12
-63.50000000000004
 22
39.52499999999998
 32
0.0
 13
-63.50000000000004
 23
39.52499999999998
 33
0.0
  0
SOLID
  5
11D
330
116
100
AcDbEntity
  8
치수문자_일반주서
 62
     0
100
AcDbTrace
 10
60.19800000000003
 20
38.97466666666664
 30
0.0
 11
60.19800000000003
 21
40.07533333333331
 31
0.0
 12
63.50000000000003
 22
39.52499999999998
 32
0.0
 13
63.50000000000003
 23
39.52499999999998
 33
0.0
  0
MTEXT
  5
11E
330
116
100
AcDbEntity
  8
치수문자_일반주서
 62
     0
100
AcDbMText
 10
0.0000000000000142
 20
44.39999999999998
 30
0.0
 40
4.0
 41
0.0
 71
     2
 72
     1
  1
\A1;127 [5]
  7
SLDTEXTSTYLE0
 73
     1
 44
1.0
  0
POINT
  5
11F
330
116
100
AcDbEntity
  8
Defpoints
 62
     0
100
AcDbPoint
 10
-63.50000000000004
 20
8.327330913179548
 30
0.0
  0
POINT
  5
120
330
116
100
AcDbEntity
  8
Defpoints
 62
     0
100
AcDbPoint
 10
63.50000000000003
 20
8.327330913179559
 30
0.0
  0
POINT
  5
121
330
116
100
AcDbEntity
  8
Defpoints
 62
     0
100
AcDbPoint
 10
63.50000000000003
 20
39.52499999999998
 30
0.0
  0
ENDBLK
  5
118
330
116
100
AcDbEntity
  8
0
100
AcDbBlockEnd
  0
BLOCK
  5
130
330
12F
100
AcDbEntity
  8
0
100
AcDbBlockBegin
  2
SW_DOWELSYMBOL_0
 70
     0
 10
0.0
 20
0.0
 30
0.0
  3
SW_DOWELSYMBOL_0
  1

  0
CIRCLE
  5
132
330
12F
100
AcDbEntity
  8
해칭선
 62
     0
100
AcDbCircle
 10
0.0
 20
0.0
 30
0.0
 40
3.000000000000001
  0
HATCH
  5
133
330
12F
100
AcDbEntity
  8
0
  6
Continuous
 62
     0
370
     0
100
AcDbHatch
 10
0.0
 20
0.0
 30
0.0
210
0.0
220
0.0
230
1.0
  2
SOLID
 70
     1
 71
     0
 91
        1
 92
        0
 93
        3
 72
     2
 10
0.0
 20
0.0
 40
3.000000000000001
 50
0.0
 51
90.0
 73
     1
 72
     1
 10
0.0
 20
3.000000000000001
 11
0.0
 21
0.0
 72
     1
 10
0.0
 20
0.0
 11
3.000000000000001
 21
0.0
 97
        0
 75
     0
 76
     1
 98
        1
 10
0.0
 20
0.0
  0
HATCH
  5
134
330
12F
100
AcDbEntity
  8
0
  6
Continuous
 62
     0
370
     0
100
AcDbHatch
 10
0.0
 20
0.0
 30
0.0
210
0.0
220
0.0
230
1.0
  2
SOLID
 70
     1
 71
     0
 91
        1
 92
        0
 93
        3
 72
     2
 10
0.0
 20
0.0
 40
3.000000000000001
 50
180.0
 51
270.0000000000007
 73
     1
 72
     1
 10
0.0
 20
-3.000000000000001
 11
0.0
 21
0.0
 72
     1
 10
0.0
 20
0.0
 11
-3.000000000000001
 21
0.0
 97
        0
 75
     0
 76
     1
 98
        1
 10
0.0
 20
0.0
  0
ENDBLK
  5
131
330
12F
100
AcDbEntity
  8
0
100
AcDbBlockEnd
  0
BLOCK
  5
192
330
191
100
AcDbEntity
  8
0
100
AcDbBlockBegin
  2
*D7
 70
     1
 10
0.0
 20
0.0
 30
0.0
  3
*D7
  1

  0
LINE
  5
194
330
191
100
AcDbEntity
  8
치수문자_일반주서
 62
     0
370
    -2
100
AcDbLine
 10
28.575
 20
4.916654502396817
 30
0.0
 11
28.575
 21
21.05048185839431
 31
0.0
  0
LINE
  5
195
330
191
100
AcDbEntity
  8
치수문자_일반주서
 62
     0
370
    -2
100
AcDbLine
 10
0.0
 20
4.452342659504531
 30
0.0
 11
0.0
 21
21.05048185839431
 31
0.0
  0
LINE
  5
196
330
191
100
AcDbEntity
  8
치수문자_일반주서
 62
     0
370
    -2
100
AcDbLine
 10
25.273
 20
21.05048185839431
 30
0.0
 11
3.302
 21
21.05048185839431
 31
0.0
  0
SOLID
  5
197
330
191
100
AcDbEntity
  8
치수문자_일반주서
 62
     0
100
AcDbTrace
 10
25.273
 20
20.50014852506097
 30
0.0
 11
25.273
 21
21.60081519172764
 31
0.0
 12
28.575
 22
21.05048185839431
 32
0.0
 13
28.575
 23
21.05048185839431
 33
0.0
  0
SOLID
  5
198
330
191
100
AcDbEntity
  8
치수문자_일반주서
 62
     0
100
AcDbTrace
 10
3.302
 20
21.60081519172764
 30
0.0
 11
3.302
 21
20.50014852506097
 31
0.0
 12
0.0
 22
21.05048185839431
 32
0.0
 13
0.0
 23
21.05048185839431
 33
0.0
  0
MTEXT
  5
199
330
191
100
AcDbEntity
  8
치수문자_일반주서
 62
     0
100
AcDbMText
 10
14.2875
 20
25.42548185839431
 30
0.0
 40
3.5
 41
0.0
 71
     2
 72
     1
  1
\A1;28.58 [1 1/8]
  7
SLDTEXTSTYLE0
 73
     1
 44
1.0
  0
POINT
  5
19A
330
191
100
AcDbEntity
  8
Defpoints
 62
     0
100
AcDbPoint
 10
28.575
 20
4.854154502396817
 30
0.0
  0
POINT
  5
19B
330
191
100
AcDbEntity
  8
Defpoints
 62
     0
100
AcDbPoint
 10
0.0
 20
4.389842659504531
 30
0.0
  0
POINT
  5
19C
330
191
100
AcDbEntity
  8
Defpoints
 62
     0
100
AcDbPoint
 10
0.0
 20
21.05048185839431
 30
0.0
  0
ENDBLK
  5
193
330
191
100
AcDbEntity
  8
0
100
AcDbBlockEnd
  0
BLOCK
  5
1A1
330
1A0
100
AcDbEntity
  8
0
100
AcDbBlockBegin
  2
*D8
 70
     1
 10
0.0
 20
0.0
 30
0.0
  3
*D8
  1

  0
LINE
  5
1A3
330
1A0
100
AcDbEntity
  8
치수문자_일반주서
 62
     0
370
    -2
100
AcDbLine
 10
126.1238066036333
 20
-17.07773631963611
 30
0.0
 11
126.1238066036333
 21
-0.94390896363862
 31
0.0
  0
LINE
  5
1A4
330
1A0
100
AcDbEntity
  8
치수문자_일반주서
 62
     0
370
    -2
100
AcDbLine
 10
97.54880660363332
 20
-17.5420481625284
 30
0.0
 11
97.54880660363332
 21
-0.94390896363862
 31
0.0
  0
LINE
  5
1A5
330
1A0
100
AcDbEntity
  8
치수문자_일반주서
 62
     0
370
    -2
100
AcDbLine
 10
122.8218066036333
 20
-0.94390896363862
 30
0.0
 11
100.8508066036333
 21
-0.94390896363862
 31
0.0
  0
SOLID
  5
1A6
330
1A0
100
AcDbEntity
  8
치수문자_일반주서
 62
     0
100
AcDbTrace
 10
122.8218066036333
 20
-1.494242296971953
 30
0.0
 11
122.8218066036333
 21
-0.3935756303052867
 31
0.0
 12
126.1238066036333
 22
-0.94390896363862
 32
0.0
 13
126.1238066036333
 23
-0.94390896363862
 33
0.0
  0
SOLID
  5
1A7
330
1A0
100
AcDbEntity
  8
치수문자_일반주서
 62
     0
100
AcDbTrace
 10
100.8508066036333
 20
-0.3935756303052867
 30
0.0
 11
100.8508066036333
 21
-1.494242296971953
 31
0.0
 12
97.54880660363332
 22
-0.94390896363862
 32
0.0
 13
97.54880660363332
 23
-0.94390896363862
 33
0.0
  0
MTEXT
  5
1A8
330
1A0
100
AcDbEntity
  8
치수문자_일반주서
 62
     0
100
AcDbMText
 10
111.8363066036333
 20
3.43109103636138
 30
0.0
 40
3.5
 41
0.0
 71
     2
 72
     1
  1
\A1;28.58 [1 1/8]
  7
SLDTEXTSTYLE0
 73
     1
 44
1.0
  0
POINT
  5
1A9
330
1A0
100
AcDbEntity
  8
Defpoints
 62
     0
100
AcDbPoint
 10
126.1238066036333
 20
-17.14023631963611
 30
0.0
  0
POINT
  5
1AA
330
1A0
100
AcDbEntity
  8
Defpoints
 62
     0
100
AcDbPoint
 10
97.54880660363332
 20
-17.6045481625284
 30
0.0
  0
POINT
  5
1AB
330
1A0
100
AcDbEntity
  8
Defpoints
 62
     0
100
AcDbPoint
 10
97.54880660363332
 20
-0.94390896363862
 30
0.0
  0
ENDBLK
  5
1A2
330
1A0
100
AcDbEntity
  8
0
100
AcDbBlockEnd
  0
BLOCK
  5
1E8
330
1E7
100
AcDbEntity
  8
0
100
AcDbBlockBegin
  2
*D9
 70
     1
 10
0.0
 20
0.0
 30
0.0
  3
*D9
  1

  0
LINE
  5
1EA
330
1E7
100
AcDbEntity
  8
치수문자_일반주서
 62
     0
370
    -2
100
AcDbLine
 10
0.0
 20
0.0625000000000001
 30
0.0
 11
0.0
 21
31.64047088264928
 31
0.0
  0
LINE
  5
1EB
330
1E7
100
AcDbEntity
  8
치수문자_일반주서
 62
     0
370
    -2
100
AcDbLine
 10
38.00011895067188
 20
10.47787127993619
 30
0.0
 11
38.00011895067188
 21
31.64047088264928
 31
0.0
  0
LINE
  5
1EC
330
1E7
100
AcDbEntity
  8
치수문자_일반주서
 62
     0
370
    -2
100
AcDbLine
 10
4.0
 20
31.64047088264928
 30
0.0
 11
34.00011895067188
 21
31.64047088264928
 31
0.0
  0
SOLID
  5
1ED
330
1E7
100
AcDbEntity
  8
치수문자_일반주서
 62
     0
100
AcDbTrace
 10
4.0
 20
32.30713754931594
 30
0.0
 11
4.0
 21
30.97380421598261
 31
0.0
 12
0.0
 22
31.64047088264928
 32
0.0
 13
0.0
 23
31.64047088264928
 33
0.0
  0
SOLID
  5
1EE
330
1E7
100
AcDbEntity
  8
치수문자_일반주서
 62
     0
100
AcDbTrace
 10
34.00011895067188
 20
30.97380421598261
 30
0.0
 11
34.00011895067188
 21
32.30713754931594
 31
0.0
 12
38.00011895067188
 22
31.64047088264928
 32
0.0
 13
38.00011895067188
 23
31.64047088264928
 33
0.0
  0
MTEXT
  5
1EF
330
1E7
100
AcDbEntity
  8
치수문자_일반주서
 62
     0
100
AcDbMText
 10
19.06814435762387
 20
36.51547088264928
 30
0.0
 40
4.0
 41
0.0
 71
     2
 72
     1
  1
\A1;38
  7
SLDTEXTSTYLE0
 73
     1
 44
1.0
  0
POINT
  5
1F0
330
1E7
100
AcDbEntity
  8
Defpoints
 62
     0
100
AcDbPoint
 10
0.0
 20
0.0000000000000001
 30
0.0
  0
POINT
  5
1F1
330
1E7
100
AcDbEntity
  8
Defpoints
 62
     0
100
AcDbPoint
 10
38.00011895067188
 20
10.41537127993619
 30
0.0
  0
POINT
  5
1F2
330
1E7
100
AcDbEntity
  8
Defpoints
 62
     0
100
AcDbPoint
 10
38.00011895067188
 20
31.64047088264928
 30
0.0
  0
ENDBLK
  5
1E9
330
1E7
100
AcDbEntity
  8
0
100
AcDbBlockEnd
  0
BLOCK
  5
1F6
330
1F5
100
AcDbEntity
  8
0
100
AcDbBlockBegin
  2
*D10
 70
     1
 10
0.0
 20
0.0
 30
0.0
  3
*D10
  1

  0
LINE
  5
1F8
330
1F5
100
AcDbEntity
  8
치수문자_일반주서
 62
     0
370
    -2
100
AcDbLine
 10
104.5728925760354
 20
-19.53705619341499
 30
0.0
 11
104.5728925760354
 21
12.04091468923428
 31
0.0
  0
LINE
  5
1F9
330
1F5
100
AcDbEntity
  8
치수문자_일반주서
 62
     0
370
    -2
100
AcDbLine
 10
142.5730115267073
 20
-9.121684913478807
 30
0.0
 11
142.5730115267073
 21
12.04091468923428
 31
0.0
  0
LINE
  5
1FA
330
1F5
100
AcDbEntity
  8
치수문자_일반주서
 62
     0
370
    -2
100
AcDbLine
 10
108.5728925760354
 20
12.04091468923428
 30
0.0
 11
138.5730115267073
 21
12.04091468923428
 31
0.0
  0
SOLID
  5
1FB
330
1F5
100
AcDbEntity
  8
치수문자_일반주서
 62
     0
100
AcDbTrace
 10
108.5728925760354
 20
12.70758135590095
 30
0.0
 11
108.5728925760354
 21
11.37424802256762
 31
0.0
 12
104.5728925760354
 22
12.04091468923428
 32
0.0
 13
104.5728925760354
 23
12.04091468923428
 33
0.0
  0
SOLID
  5
1FC
330
1F5
100
AcDbEntity
  8
치수문자_일반주서
 62
     0
100
AcDbTrace
 10
138.5730115267073
 20
11.37424802256762
 30
0.0
 11
138.5730115267073
 21
12.70758135590095
 31
0.0
 12
142.5730115267073
 22
12.04091468923428
 32
0.0
 13
142.5730115267073
 23
12.04091468923428
 33
0.0
  0
MTEXT
  5
1FD
330
1F5
100
AcDbEntity
  8
치수문자_일반주서
 62
     0
100
AcDbMText
 10
123.6410369336593
 20
16.91591468923428
 30
0.0
 40
4.0
 41
0.0
 71
     2
 72
     1
  1
\A1;38
  7
SLDTEXTSTYLE0
 73
     1
 44
1.0
  0
POINT
  5
1FE
330
1F5
100
AcDbEntity
  8
Defpoints
 62
     0
100
AcDbPoint
 10
104.5728925760354
 20
-19.59955619341499
 30
0.0
  0
POINT
  5
1FF
330
1F5
100
AcDbEntity
  8
Defpoints
 62
     0
100
AcDbPoint
 10
142.5730115267073
 20
-9.184184913478807
 30
0.0
  0
POINT
  5
200
330
1F5
100
AcDbEntity
  8
Defpoints
 62
     0
100
AcDbPoint
 10
142.5730115267073
 20
12.04091468923428
 30
0.0
  0
ENDBLK
  5
1F7
330
1F5
100
AcDbEntity
  8
0
100
AcDbBlockEnd
  0
ENDSEC
  0
SECTION
  2
ENTITIES
  0
LINE
  5
96
330
1F
100
AcDbEntity
  8
외형선
  6
Continuous
370
    15
100
AcDbLine
 10
24.71902700723833
 20
9.524999999999993
 30
0.0
 11
7.696199999999973
 21
9.524999999999991
 31
0.0
  0
LINE
  5
97
330
1F
100
AcDbEntity
  8
외형선
  6
Continuous
370
    15
100
AcDbLine
 10
-24.71902700723834
 20
-9.525000000000007
 30
0.0
 11
24.71902700723834
 21
-9.525000000000004
 31
0.0
  0
LINE
  5
98
330
1F
100
AcDbEntity
  8
외형선
  6
Continuous
370
    15
100
AcDbLine
 10
24.71902700723834
 20
-9.525000000000007
 30
0.0
 11
27.1123823810663
 21
-8.883702360382113
 31
0.0
  0
LINE
  5
99
330
1F
100
AcDbEntity
  8
외형선
  6
Continuous
370
    15
100
AcDbLine
 10
27.1123823810663
 20
8.883702360382102
 30
0.0
 11
24.71902700723833
 21
9.524999999999997
 31
0.0
  0
SPLINE
  5
9C
330
1F
100
AcDbEntity
  8
외형선
  6
Continuous
370
    15
100
AcDbSpline
210
0.0
220
0.0
230
1.0
 70
     8
 71
     3
 72
     9
 73
     5
 74
     0
 42
0.000000001
 43
0.00000001
 40
0.0
 40
0.0
 40
0.0
 40
0.0
 40
0.5477055749254249
 40
0.9999999999999999
 40
0.9999999999999999
 40
0.9999999999999999
 40
0.9999999999999999
 10
27.11233741435153
 20
-6.882037713380591
 30
0.0
 10
27.67146179703717
 20
-6.833690180178814
 30
0.0
 10
28.69231023876022
 20
-6.745417328093349
 30
0.0
 10
29.70463235186363
 20
-6.680449953555733
 30
0.0
 10
30.16250000000002
 20
-6.651065572240639
 30
0.0
  0
SPLINE
  5
9D
330
1F
100
AcDbEntity
  8
0
  6
Continuous
 62
     1
370
    15
100
AcDbSpline
210
0.0
220
0.0
230
1.0
 70
     8
 71
     3
 72
     9
 73
     5
 74
     0
 42
0.000000001
 43
0.00000001
 40
0.0
 40
0.0
 40
0.0
 40
0.0
 40
0.4618101838260205
 40
1.0
 40
1.0
 40
1.0
 40
1.0
 10
41.90691028588727
 20
2.135707664637382
 30
0.0
 10
41.55159974669077
 20
2.304949786529049
 30
0.0
 10
40.78221320728446
 20
2.671425294906808
 30
0.0
 10
40.01108143788657
 20
3.07490896255872
 30
0.0
 10
39.59606617266842
 20
3.292059763481505
 30
0.0
1001
PE_URL
1000

  0
SPLINE
  5
9E
330
1F
100
AcDbEntity
  8
0
  6
Continuous
 62
     1
370
    15
100
AcDbSpline
210
0.0
220
0.0
230
1.0
 70
     8
 71
     3
 72
    18
 73
    14
 74
     0
 42
0.000000001
 43
0.00000001
 40
0.0
 40
0.0
 40
0.0
 40
0.0
 40
0.1178480173239483
 40
0.2113859908024997
 40
0.2832609613988005
 40
0.3605693757928692
 40
0.4520724249313223
 40
0.5485833390824251
 40
0.640958231036232
 40
0.7547042762209696
 40
0.8572911236327152
 40
0.9532167343816137
 40
0.9999999999999999
 40
0.9999999999999999
 40
0.9999999999999999
 40
0.9999999999999999
 10
39.15197267085091
 20
6.622809980520278
 30
0.0
 10
38.88625296716918
 20
6.609342610908691
 30
0.0
 10
38.4096270203439
 20
6.585185961238263
 30
0.0
 10
37.76613558752898
 20
6.559760182693279
 30
0.0
 10
37.20618483270817
 20
6.541718407149762
 30
0.0
 10
36.65256894887868
 20
6.527392932237911
 30
0.0
 10
36.04678096649528
 20
6.516111948299493
 30
0.0
 10
35.40382153219426
 20
6.509365835214138
 30
0.0
 10
34.70364363759563
 20
6.507697967264706
 30
0.0
 10
33.98190006800519
 20
6.510336388911246
 30
0.0
 10
33.28302472460521
 20
6.524043789850715
 30
0.0
 10
32.75714483180017
 20
6.537505111573107
 30
0.0
 10
32.43209228887189
 20
6.547862892683585
 30
0.0
 10
32.3255325580209
 20
6.551258412550629
 30
0.0
1001
PE_URL
1000

  0
SPLINE
  5
9F
330
1F
100
AcDbEntity
  8
0
  6
Continuous
 62
     1
370
    15
100
AcDbSpline
210
0.0
220
0.0
230
1.0
 70
     8
 71
     3
 72
    27
 73
    23
 74
     0
 42
0.000000001
 43
0.00000001
 40
0.0
 40
0.0
 40
0.0
 40
0.0
 40
0.0660649185158593
 40
0.1161607285526869
 40
0.1500512103776668
 40
0.1806724625223687
 40
0.2193863119978743
 40
0.2652009600995986
 40
0.3078257245667231
 40
0.3716582029716756
 40
0.4256186365996247
 40
0.4793761179438283
 40
0.532942482636802
 40
0.592769678263707
 40
0.656695012383086
 40
0.7105372697381656
 40
0.7403873230998883
 40
0.7678494102513395
 40
0.7956745393478704
 40
0.8419700286826803
 40
0.9102246851806621
 40
1.0
 40
1.0
 40
1.0
 40
1.0
 10
60.40365182031984
 20
5.70031613235306
 30
0.0
 10
60.08424410023161
 20
5.674271652582154
 30
0.0
 10
59.52263539315519
 20
5.62847812383909
 30
0.0
 10
58.79686096564651
 20
5.582850331686728
 30
0.0
 10
58.23844389247428
 20
5.553055805574863
 30
0.0
 10
57.73361153032441
 20
5.530297953439336
 30
0.0
 10
57.1736031403124
 20
5.510024990593261
 30
0.0
 10
56.55636773487434
 20
5.494413588997529
 30
0.0
 10
55.81754107668495
 20
5.484074328301883
 30
0.0
 10
55.03947193607392
 20
5.483803219662784
 30
0.0
 10
54.20713115038263
 20
5.496178817338667
 30
0.0
 10
53.42383273820321
 20
5.518587772210029
 30
0.0
 10
52.61304817638893
 20
5.552813881286665
 30
0.0
 10
51.74922517658679
 20
5.601923068355658
 30
0.0
 10
50.87926145994567
 20
5.664515752952203
 30
0.0
 10
50.16305070307367
 20
5.726543149694118
 30
0.0
 10
49.6321734330291
 20
5.777916317351931
 30
0.0
 10
49.22431784079706
 20
5.820163659622644
 30
0.0
 10
48.73669449243165
 20
5.873635177793531
 30
0.0
 10
48.04608200908932
 20
5.955261045446666
 30
0.0
 10
47.05295448678599
 20
6.084238424129132
 30
0.0
 10
46.28225924504501
 20
6.201787129374963
 30
0.0
 10
45.84443465151817
 20
6.268565424226765
 30
0.0
1001
PE_URL
1000

  0
SPLINE
  5
A0
330
1F
100
AcDbEntity
  8
0
  6
Continuous
 62
     1
370
    15
100
AcDbSpline
210
0.0
220
0.0
230
1.0
 70
     8
 71
     3
 72
    17
 73
    13
 74
     0
 42
0.000000001
 43
0.00000001
 40
0.0
 40
0.0
 40
0.0
 40
0.0
 40
0.1482881912451174
 40
0.2637553742908515
 40
0.3461002839070445
 40
0.4218892081164181
 40
0.514796340555816
 40
0.622212593131691
 40
0.7206788685551188
 40
0.8313552578070399
 40
0.9269076760266496
 40
1.0
 40
1.0
 40
1.0
 40
1.0
 10
45.84443465151817
 20
-6.268565424226773
 30
0.0
 10
46.14877556089979
 20
-6.221667984432242
 30
0.0
 10
46.69009682048195
 20
-6.138253036266593
 30
0.0
 10
47.40178182116915
 20
-6.039601910676216
 30
0.0
 10
47.96988047373895
 20
-5.965901463624775
 30
0.0
 10
48.49330883700749
 20
-5.902018126430092
 30
0.0
 10
49.06532150037695
 20
-5.836742102779785
 30
0.0
 10
49.68220820653142
 20
-5.772263517462858
 30
0.0
 10
50.33568877519114
 20
-5.711001453098548
 30
0.0
 10
50.964915553548
 20
-5.658990761234993
 30
0.0
 10
51.54105401034001
 20
-5.61691573771722
 30
0.0
 10
51.88749001873678
 20
-5.595828242478387
 30
0.0
 10
52.03763886199452
 20
-5.586688710384229
 30
0.0
1001
PE_URL
1000

  0
SPLINE
  5
A1
330
1F
100
AcDbEntity
  8
0
  6
Continuous
 62
     1
370
    15
100
AcDbSpline
210
0.0
220
0.0
230
1.0
 70
     8
 71
     3
 72
    21
 73
    17
 74
     0
 42
0.000000001
 43
0.00000001
 40
0.0
 40
0.0
 40
0.0
 40
0.0
 40
0.1037485852005533
 40
0.182627649568302
 40
0.236493950409337
 40
0.2786312236502641
 40
0.3219957137031713
 40
0.381135530443818
 40
0.4442795530027354
 40
0.5130056015490906
 40
0.5951720296505044
 40
0.680882938016097
 40
0.7567587958362494
 40
0.819692953352325
 40
0.8973387254198166
 40
1.0
 40
1.0
 40
1.0
 40
1.0
 10
30.16250000000002
 20
-6.651065572240639
 30
0.0
 10
30.47433475590636
 20
-6.633540241861069
 30
0.0
 10
31.02325451625578
 20
-6.60269056917453
 30
0.0
 10
31.73325655524999
 20
-6.572116888623204
 30
0.0
 10
32.25947401080004
 20
-6.552952177996096
 30
0.0
 10
32.67545926404376
 20
-6.540124827932513
 30
0.0
 10
33.09519241495732
 20
-6.529110074511684
 30
0.0
 10
33.56017540101497
 20
-6.51778760425921
 30
0.0
 10
34.1391294644983
 20
-6.509683170209597
 30
0.0
 10
34.79338971666478
 20
-6.507704093745254
 30
0.0
 10
35.51493946013501
 20
-6.509819926188278
 30
0.0
 10
36.24771364569192
 20
-6.519039929207158
 30
0.0
 10
36.92411850008241
 20
-6.533757151641771
 30
0.0
 10
37.58256177087377
 20
-6.553186960861007
 30
0.0
 10
38.3124373170723
 20
-6.580537268526883
 30
0.0
 10
38.84738815375709
 20
-6.607473385687434
 30
0.0
 10
39.15197267085091
 20
-6.622809980520286
 30
0.0
1001
PE_URL
1000

  0
LINE
  5
A2
330
1F
100
AcDbEntity
  8
외형선
  6
Continuous
370
    15
100
AcDbLine
 10
24.71902700723833
 20
9.524999999999997
 30
0.0
 11
24.71902700723834
 21
-9.525000000000004
 31
0.0
  0
SPLINE
  5
A4
330
1F
100
AcDbEntity
  8
외형선
  6
Continuous
370
    15
100
AcDbSpline
210
0.0
220
0.0
230
1.0
 70
     8
 71
     3
 72
     8
 73
     4
 74
     0
 42
0.000000001
 43
0.00000001
 40
0.0
 40
0.0
 40
0.0
 40
0.0
 40
1.0
 40
1.0
 40
1.0
 40
1.0
 10
29.16250000000002
 20
7.533660871190037
 30
0.0
 10
28.47613699230697
 20
7.835776906501867
 30
0.0
 10
27.79273020840102
 20
8.127421272578541
 30
0.0
 10
27.11225926710648
 20
8.406966469076226
 30
0.0
  0
LINE
  5
A5
330
1F
100
AcDbEntity
  8
외형선
  6
Continuous
370
    15
100
AcDbLine
 10
29.16250000000002
 20
7.533660871189565
 30
0.0
 11
29.16250000000002
 21
6.256194198611223
 31
0.0
  0
SPLINE
  5
A6
330
1F
100
AcDbEntity
  8
외형선
  6
Continuous
370
    15
100
AcDbSpline
210
0.0
220
0.0
230
1.0
 70
     8
 71
     3
 72
     8
 73
     4
 74
     0
 42
0.000000001
 43
0.00000001
 40
0.0
 40
0.0
 40
0.0
 40
0.0
 40
1.0
 40
1.0
 40
1.0
 40
1.0
 10
27.1123823810663
 20
7.309786094230706
 30
0.0
 10
27.79697117206582
 20
6.968855526099301
 30
0.0
 10
28.48027963798634
 20
6.617723567980756
 30
0.0
 10
29.16250000000002
 20
6.256194198611223
 30
0.0
  0
LINE
  5
A7
330
1F
100
AcDbEntity
  8
외형선
  6
Continuous
370
    15
100
AcDbLine
 10
27.1123823810663
 20
-8.883702360382113
 30
0.0
 11
27.1123823810663
 21
7.309857146841392
 31
0.0
  0
SPLINE
  5
A8
330
1F
100
AcDbEntity
  8
외형선
  6
Continuous
370
    15
100
AcDbSpline
210
0.0
220
0.0
230
1.0
 70
     8
 71
     3
 72
     8
 73
     4
 74
     0
 42
0.000000001
 43
0.00000001
 40
0.0
 40
0.0
 40
0.0
 40
0.0
 40
1.0
 40
1.0
 40
1.0
 40
1.0
 10
29.16250000000002
 20
-7.533660871190044
 30
0.0
 10
28.47613699230697
 20
-7.835776906501875
 30
0.0
 10
27.79273020840102
 20
-8.127421272578552
 30
0.0
 10
27.11225926710648
 20
-8.406966469076236
 30
0.0
  0
LINE
  5
A9
330
1F
100
AcDbEntity
  8
외형선
  6
Continuous
370
    15
100
AcDbLine
 10
27.1123823810663
 20
8.406969681738943
 30
0.0
 11
27.1123823810663
 21
8.883702360382102
 31
0.0
  0
SPLINE
  5
AB
330
1F
100
AcDbEntity
  8
외형선
  6
Continuous
370
    15
100
AcDbSpline
210
0.0
220
0.0
230
1.0
 70
    24
 71
     3
 72
    10
 73
     6
 74
     0
 42
0.000000001
 43
0.00000001
 40
0.0
 40
0.0
 40
0.0
 40
0.0
 40
0.5
 40
0.5
 40
1.0
 40
1.0
 40
1.0
 40
1.0
 10
30.16250000000002
 20
5.859390102354196
 30
0.0
 10
30.16250000000002
 20
5.65736684871215
 30
0.0
 10
30.16250000000002
 20
5.373798737777768
 30
0.0
 10
30.16250000000002
 20
4.702326711790828
 30
0.0
 10
30.16250000000002
 20
4.316622403104566
 30
0.0
 10
30.16250000000002
 20
3.927564163839673
 30
0.0
  0
SPLINE
  5
AC
330
1F
100
AcDbEntity
  8
외형선
  6
Continuous
370
    15
100
AcDbSpline
210
0.0
220
0.0
230
1.0
 70
     8
 71
     3
 72
    10
 73
     6
 74
     0
 42
0.000000001
 43
0.00000001
 40
0.0
 40
0.0
 40
0.0
 40
0.0
 40
0.5
 40
0.5
 40
1.0
 40
1.0
 40
1.0
 40
1.0
 10
30.16250000000002
 20
3.92756416383967
 30
0.0
 10
29.65391410892879
 20
4.079508417733287
 30
0.0
 10
29.14885247332187
 20
4.223810698195143
 30
0.0
 10
28.13085703331432
 20
4.496920700413925
 30
0.0
 10
27.62026806176569
 20
4.625476257380246
 30
0.0
 10
27.11235271182664
 20
4.744976368951447
 30
0.0
  0
SPLINE
  5
AD
330
1F
100
AcDbEntity
  8
외형선
  6
Continuous
370
    15
100
AcDbSpline
210
0.0
220
0.0
230
1.0
 70
     8
 71
     3
 72
     8
 73
     4
 74
     0
 42
0.000000001
 43
0.00000001
 40
0.0
 40
0.0
 40
0.0
 40
0.0
 40
1.0
 40
1.0
 40
1.0
 40
1.0
 10
29.16250000000002
 20
6.256194198611227
 30
0.0
 10
29.49599379678237
 20
6.128821085705481
 30
0.0
 10
29.82823204083821
 20
5.996595277934143
 30
0.0
 10
30.16250000000002
 20
5.859390102354196
 30
0.0
  0
SPLINE
  5
AE
330
1F
100
AcDbEntity
  8
외형선
  6
Continuous
370
    15
100
AcDbSpline
210
0.0
220
0.0
230
1.0
 70
    24
 71
     3
 72
    14
 73
    10
 74
     0
 42
0.000000001
 43
0.00000001
 40
0.0
 40
0.0
 40
0.0
 40
0.0
 40
0.25
 40
0.25
 40
0.5
 40
0.5
 40
0.75
 40
0.75
 40
1.0
 40
1.0
 40
1.0
 40
1.0
 10
30.16250000000002
 20
3.927564163839671
 30
0.0
 10
30.16250000000002
 20
3.288331323127914
 30
0.0
 10
30.16250000000002
 20
2.58329078667102
 30
0.0
 10
30.16250000000002
 20
1.09298519293909
 30
0.0
 10
30.16250000000002
 20
0.3082886299263197
 30
0.0
 10
30.16250000000002
 20
-1.266005003423186
 30
0.0
 10
30.16250000000002
 20
-2.054763224293657
 30
0.0
 10
30.16250000000002
 20
-3.560545046811327
 30
0.0
 10
30.16250000000002
 20
-4.276978416997872
 30
0.0
 10
30.16250000000002
 20
-4.930276308730493
 30
0.0
  0
SPLINE
  5
AF
330
1F
100
AcDbEntity
  8
외형선
  6
Continuous
370
    15
100
AcDbSpline
210
0.0
220
0.0
230
1.0
 70
     8
 71
     3
 72
    10
 73
     6
 74
     0
 42
0.000000001
 43
0.00000001
 40
0.0
 40
0.0
 40
0.0
 40
0.0
 40
0.5
 40
0.5
 40
1.0
 40
1.0
 40
1.0
 40
1.0
 10
30.16250000000002
 20
-4.930276308730495
 30
0.0
 10
29.65391155598356
 20
-4.77217976178728
 30
0.0
 10
29.14884737927731
 20
-4.605294937583118
 30
0.0
 10
28.13084679728372
 20
-4.254163794191363
 30
0.0
 10
27.62025526027658
 20
-4.070146057472063
 30
0.0
 10
27.11233741435153
 20
-3.879229943613531
 30
0.0
  0
SPLINE
  5
B0
330
1F
100
AcDbEntity
  8
외형선
  6
Continuous
370
    15
100
AcDbSpline
210
0.0
220
0.0
230
1.0
 70
     8
 71
     3
 72
     8
 73
     4
 74
     0
 42
0.000000001
 43
0.00000001
 40
0.0
 40
0.0
 40
0.0
 40
0.0
 40
1.0
 40
1.0
 40
1.0
 40
1.0
 10
30.16250000000549
 20
7.268417307796217
 30
0.0
 10
29.82823204084184
 20
7.362824821043487
 30
0.0
 10
29.49599379678419
 20
7.451209038383948
 30
0.0
 10
29.16250000000002
 20
7.533660871189568
 30
0.0
  0
LINE
  5
B1
330
1F
100
AcDbEntity
  8
외형선
  6
Continuous
370
    15
100
AcDbLine
 10
30.16250000000002
 20
7.268417307797761
 30
0.0
 11
30.16250000000002
 21
5.859390102354192
 31
0.0
  0
SPLINE
  5
B2
330
1F
100
AcDbEntity
  8
외형선
  6
Continuous
370
    15
100
AcDbSpline
210
0.0
220
0.0
230
1.0
 70
    24
 71
     3
 72
    12
 73
     8
 74
     0
 42
0.000000001
 43
0.00000001
 40
0.0
 40
0.0
 40
0.0
 40
0.0
 40
0.1811889210188047
 40
0.3647370349438443
 40
0.6314507071444497
 40
0.9058990939073398
 40
1.0
 40
1.0
 40
1.0
 40
1.0
 10
30.16250000000002
 20
-4.930276308730496
 30
0.0
 10
30.16250000000002
 20
-5.122192713457673
 30
0.0
 10
30.16250000000002
 20
-5.508524394355581
 30
0.0
 10
30.16250000000002
 20
-6.031133075747031
 30
0.0
 10
30.16250000000002
 20
-6.448211531792983
 30
0.0
 10
30.16250000000002
 20
-6.656940156593762
 30
0.0
 10
30.16250000000002
 20
-6.632681875339777
 30
0.0
 10
30.16250000000002
 20
-6.626488060046948
 30
0.0
  0
SPLINE
  5
B3
330
1F
100
AcDbEntity
  8
외형선
  6
Continuous
370
    15
100
AcDbSpline
210
0.0
220
0.0
230
1.0
 70
     8
 71
     3
 72
     8
 73
     4
 74
     0
 42
0.000000001
 43
0.00000001
 40
0.0
 40
0.0
 40
0.0
 40
0.0
 40
1.0
 40
1.0
 40
1.0
 40
1.0
 10
30.16250000000549
 20
-7.268417307796226
 30
0.0
 10
29.82823204084184
 20
-7.362824821043497
 30
0.0
 10
29.49599379678419
 20
-7.451209038383955
 30
0.0
 10
29.16250000000002
 20
-7.533660871189576
 30
0.0
  0
SPLINE
  5
B4
330
1F
100
AcDbEntity
  8
외형선
  6
Continuous
370
    15
100
AcDbSpline
210
0.0
220
0.0
230
1.0
 70
    24
 71
     3
 72
    10
 73
     6
 74
     0
 42
0.000000001
 43
0.00000001
 40
0.0
 40
0.0
 40
0.0
 40
0.0
 40
0.1008977133264738
 40
0.7686465082921463
 40
1.0
 40
1.0
 40
1.0
 40
1.0
 10
30.16250000000002
 20
-6.715185089768386
 30
0.0
 10
30.16250000000002
 20
-6.735401192421391
 30
0.0
 10
30.16250000000002
 20
-6.889409010866461
 30
0.0
 10
30.16250000000002
 20
-7.07100097805539
 30
0.0
 10
30.16250000000002
 20
-7.228015057584078
 30
0.0
 10
30.16250000000002
 20
-7.268417307789286
 30
0.0
  0
SPLINE
  5
B5
330
1F
100
AcDbEntity
  8
0
  6
Continuous
 62
     1
370
    15
100
AcDbSpline
210
0.0
220
0.0
230
1.0
 70
     8
 71
     3
 72
    50
 73
    46
 74
     0
 42
0.000000001
 43
0.00000001
 40
0.0
 40
0.0
 40
0.0
 40
0.0
 40
0.0625000000000009
 40
0.0625000000000009
 40
0.0937500000000012
 40
0.0937500000000012
 40
0.1250000000000012
 40
0.1250000000000012
 40
0.1562500000000012
 40
0.1562500000000012
 40
0.1875000000000012
 40
0.1875000000000012
 40
0.2500000000000016
 40
0.2500000000000016
 40
0.3125000000000018
 40
0.3125000000000018
 40
0.3750000000000021
 40
0.3750000000000021
 40
0.4062500000000021
 40
0.4062500000000021
 40
0.4375000000000022
 40
0.4375000000000022
 40
0.500000000000002
 40
0.500000000000002
 40
0.5312500000000019
 40
0.5312500000000019
 40
0.5625000000000018
 40
0.5625000000000018
 40
0.6250000000000016
 40
0.6250000000000016
 40
0.6562500000000013
 40
0.6562500000000013
 40
0.6875000000000011
 40
0.6875000000000011
 40
0.750000000000001
 40
0.750000000000001
 40
0.7812500000000009
 40
0.7812500000000009
 40
0.8125000000000008
 40
0.8125000000000008
 40
0.8750000000000006
 40
0.8750000000000006
 40
0.9375000000000002
 40
0.9375000000000002
 40
1.0
 40
1.0
 40
1.0
 40
1.0
 10
63.50000000000002
 20
-7.908829057004619
 30
0.0
 10
62.80884002652884
 20
-7.782543866687996
 30
0.0
 10
62.11030258196582
 20
-7.62829770263638
 30
0.0
 10
61.0677018575196
 20
-7.358358082167316
 30
0.0
 10
60.72223311058968
 20
-7.262098017200746
 30
0.0
 10
60.02922862214661
 20
-7.056982931241519
 30
0.0
 10
59.6812594330795
 20
-6.948067241139515
 30
0.0
 10
58.98509704378735
 20
-6.718314105286455
 30
0.0
 10
58.63690620484224
 20
-6.597477425802758
 30
0.0
 10
57.94302086419466
 20
-6.344864954493612
 30
0.0
 10
57.59799214783026
 20
-6.213189449293516
 30
0.0
 10
56.55634579670544
 20
-5.801513079496674
 30
0.0
 10
55.8575582373753
 20
-5.505290812633356
 30
0.0
 10
54.47299094255054
 20
-4.878633825965744
 30
0.0
 10
53.77694564678831
 20
-4.546696407399494
 30
0.0
 10
52.38582468446355
 20
-3.853684239988597
 30
0.0
 10
51.69553593292957
 20
-3.49348135246065
 30
0.0
 10
50.65150785403681
 20
-2.93539369935581
 30
0.0
 10
50.30316727494173
 20
-2.746588957471711
 30
0.0
 10
49.60854318888988
 20
-2.364912819704514
 30
0.0
 10
49.26344254261095
 20
-2.172265816179863
 30
0.0
 10
48.22296428595588
 20
-1.588223150485223
 30
0.0
 10
47.52407208050558
 20
-1.190992814830283
 30
0.0
 10
46.48417261492051
 20
-0.5926123545161349
 30
0.0
 10
46.13887921155501
 20
-0.3927231101253344
 30
0.0
 10
45.4439764142065
 20
0.008219160583308
 30
0.0
 10
45.09559291950942
 20
0.2090364994221344
 30
0.0
 10
44.05172708477158
 20
0.8101739375155751
 30
0.0
 10
43.36153517406093
 20
1.208413464186936
 30
0.0
 10
42.31793795703386
 20
1.799001733977326
 30
0.0
 10
41.96951965083184
 20
1.994574356450294
 30
0.0
 10
41.27429943265028
 20
2.38161404512509
 30
0.0
 10
40.92861494518401
 20
2.572877934290567
 30
0.0
 10
39.8895177036173
 20
3.139868848920878
 30
0.0
 10
39.19066639367787
 20
3.509345985295085
 30
0.0
 10
38.14950545798924
 20
4.042136246357792
 30
0.0
 10
37.80450825080144
 20
4.216036889175967
 30
0.0
 10
37.11028178461356
 20
4.556934706000836
 30
0.0
 10
36.76201649499042
 20
4.723760639059816
 30
0.0
 10
35.71784079251103
 20
5.211382812954303
 30
0.0
 10
35.02730359348202
 20
5.518629955916297
 30
0.0
 10
33.63670186737861
 20
6.094150633324491
 30
0.0
 10
32.93930991414651
 20
6.361932981519089
 30
0.0
 10
31.5559709129555
 20
6.850215683222967
 30
0.0
 10
30.85730601163431
 20
7.072182802068435
 30
0.0
 10
30.1625000000031
 20
7.268417307796895
 30
0.0
1001
PE_URL
1000

  0
SPLINE
  5
B6
330
1F
100
AcDbEntity
  8
0
  6
Continuous
 62
     1
370
    15
100
AcDbSpline
210
0.0
220
0.0
230
1.0
 70
     8
 71
     3
 72
    15
 73
    11
 74
     0
 42
0.000000001
 43
0.00000001
 40
0.0
 40
0.0
 40
0.0
 40
0.0
 40
0.140030878264703
 40
0.2800755410227172
 40
0.420131772390284
 40
0.5601973459284695
 40
0.7002700266606571
 40
0.8403475731067379
 40
0.9804277393300456
 40
1.0
 40
1.0
 40
1.0
 40
1.0
 10
63.50000000000003
 20
-6.575590715843854
 30
0.0
 10
62.48952179280263
 20
-6.363030397244565
 30
0.0
 10
60.46846590798918
 20
-5.937888835830374
 30
0.0
 10
57.43669080425265
 20
-4.961804088749702
 30
0.0
 10
54.40463183169953
 20
-3.788132532471617
 30
0.0
 10
51.37233965932327
 20
-2.443101541256262
 30
0.0
 10
48.33987104286961
 20
-0.9893089379675867
 30
0.0
 10
45.30728154268446
 20
0.4978563794667889
 30
0.0
 10
43.14427605201868
 20
1.57093323865965
 30
0.0
 10
41.99214227724406
 20
2.091680046500151
 30
0.0
 10
41.85089880850792
 20
2.155519929578879
 30
0.0
1001
PE_URL
1000

  0
LINE
  5
B7
330
1F
100
AcDbEntity
  8
0
  6
Continuous
 62
     1
370
    15
100
AcDbLine
 10
63.50000000000003
 20
-7.908829057004624
 30
0.0
 11
63.50000000000003
 21
-6.575590715843854
 31
0.0
1001
PE_URL
1000

  0
SPLINE
  5
B8
330
1F
100
AcDbEntity
  8
0
  6
Continuous
 62
     1
370
    15
100
AcDbSpline
210
0.0
220
0.0
230
1.0
 70
     8
 71
     3
 72
    50
 73
    46
 74
     0
 42
0.000000001
 43
0.00000001
 40
0.0
 40
0.0
 40
0.0
 40
0.0
 40
0.0625000000000002
 40
0.0625000000000002
 40
0.1250000000000003
 40
0.1250000000000003
 40
0.1875000000000006
 40
0.1875000000000006
 40
0.2187500000000006
 40
0.2187500000000006
 40
0.2500000000000006
 40
0.2500000000000006
 40
0.3125000000000009
 40
0.3125000000000009
 40
0.3437500000000009
 40
0.3437500000000009
 40
0.3750000000000009
 40
0.3750000000000009
 40
0.4375000000000011
 40
0.4375000000000011
 40
0.4687500000000011
 40
0.4687500000000011
 40
0.5000000000000011
 40
0.5000000000000011
 40
0.5625000000000011
 40
0.5625000000000011
 40
0.5937500000000009
 40
0.5937500000000009
 40
0.6250000000000008
 40
0.6250000000000008
 40
0.6875000000000006
 40
0.6875000000000006
 40
0.7500000000000003
 40
0.7500000000000003
 40
0.8125000000000001
 40
0.8125000000000001
 40
0.8437499999999999
 40
0.8437499999999999
 40
0.8749999999999997
 40
0.8749999999999997
 40
0.9062499999999997
 40
0.9062499999999997
 40
0.9375
 40
0.9375
 40
1.0
 40
1.0
 40
1.0
 40
1.0
 10
30.16250000000002
 20
5.859390102354197
 30
0.0
 10
30.85730601163129
 20
5.574196806954549
 30
0.0
 10
31.55597091295255
 20
5.268027268721411
 30
0.0
 10
32.93930991414372
 20
4.623421912268578
 30
0.0
 10
33.63670186737586
 20
4.2830370169075
 30
0.0
 10
35.0273035934794
 20
3.575540044381436
 30
0.0
 10
35.71784079250847
 20
3.208967252495018
 30
0.0
 10
36.76201649498795
 20
2.642847291077108
 30
0.0
 10
37.11028178461113
 20
2.451638879307688
 30
0.0
 10
37.80450825079907
 20
2.065723514936866
 30
0.0
 10
38.1495054579869
 20
1.871202099110693
 30
0.0
 10
39.19066639367561
 20
1.282125405470579
 30
0.0
 10
39.88951770361511
 20
0.8826784900152667
 30
0.0
 10
40.92861494518195
 20
0.282740577366549
 30
0.0
 10
41.27429943264823
 20
0.0824739981092566
 30
0.0
 10
41.96951965082986
 20
-0.3185957737664738
 30
0.0
 10
42.3179379570319
 20
-0.5191831630667557
 30
0.0
 10
43.36153517405909
 20
-1.118751720940571
 30
0.0
 10
44.05172708476979
 20
-1.514908724737168
 30
0.0
 10
45.09559291950772
 20
-2.100830855937383
 30
0.0
 10
45.44397641420485
 20
-2.294559681330646
 30
0.0
 10
46.13887921155342
 20
-2.677352599111341
 30
0.0
 10
46.48417261491896
 20
-2.866197888343692
 30
0.0
 10
47.5240720805041
 20
-3.425527454443691
 30
0.0
 10
48.22296428595446
 20
-3.788773840569938
 30
0.0
 10
49.26344254260962
 20
-4.310701722878982
 30
0.0
 10
49.6085431888886
 20
-4.480809409841496
 30
0.0
 10
50.30316727494051
 20
-4.813679693589496
 30
0.0
 10
50.65150785403561
 20
-4.97623947523842
 30
0.0
 10
51.69553593292847
 20
-5.45036287987766
 30
0.0
 10
52.38582468446253
 20
-5.747757070918007
 30
0.0
 10
53.7769456467874
 20
-6.302140601681989
 30
0.0
 10
54.47299094254974
 20
-6.558387480527595
 30
0.0
 10
55.8575582373746
 20
-7.022844453863226
 30
0.0
 10
56.5563457967048
 20
-7.232146719020917
 30
0.0
 10
57.59799214782972
 20
-7.506716290474413
 30
0.0
 10
57.94302086419414
 20
-7.591625640717909
 30
0.0
 10
58.6369062048418
 20
-7.748454449522974
 30
0.0
 10
58.98509704378694
 20
-7.820300573502098
 30
0.0
 10
59.68125943307916
 20
-7.950251190829118
 30
0.0
 10
60.0292286221463
 20
-8.008355258461414
 30
0.0
 10
60.72223311058944
 20
-8.110430470870213
 30
0.0
 10
61.06770185751938
 20
-8.154442927998359
 30
0.0
 10
62.1103025819657
 20
-8.265391565820616
 30
0.0
 10
62.80884002652881
 20
-8.31087524853464
 30
0.0
 10
63.50000000000004
 20
-8.327330913179564
 30
0.0
1001
PE_URL
1000

  0
SPLINE
  5
B9
330
1F
100
AcDbEntity
  8
0
  6
Continuous
 62
     1
370
    15
100
AcDbSpline
210
0.0
220
0.0
230
1.0
 70
     8
 71
     3
 72
    12
 73
     8
 74
     0
 42
0.000000001
 43
0.00000001
 40
0.0
 40
0.0
 40
0.0
 40
0.0
 40
0.0403409235853589
 40
0.2806210265579758
 40
0.5208977786592865
 40
0.7604539853820848
 40
1.0
 40
1.0
 40
1.0
 40
1.0
 10
42.78384267379379
 20
-0.7860633129525897
 30
0.0
 10
42.61412309003856
 20
-0.7191803691297243
 30
0.0
 10
41.43351343642949
 20
-0.2539267584859731
 30
0.0
 10
39.24202636136329
 20
0.6461615123431613
 30
0.0
 10
36.21241660051752
 20
1.842963441410818
 30
0.0
 10
33.18591347540102
 20
2.974332064889731
 30
0.0
 10
31.17029019878665
 20
3.609824637206402
 30
0.0
 10
30.16250000000002
 20
3.927564163839671
 30
0.0
1001
PE_URL
1000

  0
SPLINE
  5
BA
330
1F
100
AcDbEntity
  8
외형선
  6
Continuous
370
    15
100
AcDbSpline
210
0.0
220
0.0
230
1.0
 70
    24
 71
     3
 72
    10
 73
     6
 74
     0
 42
0.000000001
 43
0.00000001
 40
0.0
 40
0.0
 40
0.0
 40
0.0
 40
0.5
 40
0.5
 40
1.0
 40
1.0
 40
1.0
 40
1.0
 10
30.16250000000002
 20
5.859390102354194
 30
0.0
 10
30.16250000000002
 20
5.657366848712146
 30
0.0
 10
30.16250000000002
 20
5.373798737777762
 30
0.0
 10
30.16250000000002
 20
4.702326711790827
 30
0.0
 10
30.16250000000002
 20
4.316622403104566
 30
0.0
 10
30.16250000000002
 20
3.927564163839673
 30
0.0
  0
LINE
  5
BB
330
1F
100
AcDbEntity
  8
0
  6
Continuous
 62
     1
370
    15
100
AcDbLine
 10
63.50000000000003
 20
-8.32733091317957
 30
0.0
 11
63.50000000000003
 21
-7.908829057004622
 31
0.0
1001
PE_URL
1000

  0
SPLINE
  5
BC
330
1F
100
AcDbEntity
  8
0
  6
Continuous
 62
     1
370
    15
100
AcDbSpline
210
0.0
220
0.0
230
1.0
 70
     8
 71
     3
 72
    12
 73
     8
 74
     0
 42
0.000000001
 43
0.00000001
 40
0.0
 40
0.0
 40
0.0
 40
0.0
 40
0.4999999999999989
 40
0.4999999999999989
 40
0.7499999999999994
 40
0.7499999999999994
 40
1.0
 40
1.0
 40
1.0
 40
1.0
 10
63.50000000000003
 20
-2.227302928315821
 30
0.0
 10
62.63616407832509
 20
-1.54818445059773
 30
0.0
 10
61.78631506509758
 20
-0.8420830671044428
 30
0.0
 10
60.53295834617712
 20
0.2583853235618596
 30
0.0
 10
60.11879406479212
 20
0.6321941510008096
 30
0.0
 10
59.29852576316298
 20
1.395361294009389
 30
0.0
 10
58.89300065540692
 20
1.784314580267675
 30
0.0
 10
58.50000000000004
 20
2.174668870913305
 30
0.0
1001
PE_URL
1000

  0
LINE
  5
BD
330
1F
100
AcDbEntity
  8
0
  6
Continuous
 62
     1
370
    15
100
AcDbLine
 10
58.50000000000002
 20
2.937719435296588
 30
0.0
 11
63.50000000000003
 21
0.0
 31
0.0
1001
PE_URL
1000

  0
LINE
  5
BE
330
1F
100
AcDbEntity
  8
0
  6
Continuous
 62
     1
370
    15
100
AcDbLine
 10
63.50000000000003
 20
0.0
 30
0.0
 11
63.50000000000003
 21
-2.227302928315822
 31
0.0
1001
PE_URL
1000

  0
SPLINE
  5
BF
330
1F
100
AcDbEntity
  8
0
  6
Continuous
 62
     1
370
    15
100
AcDbSpline
210
0.0
220
0.0
230
1.0
 70
     8
 71
     3
 72
    15
 73
    11
 74
     0
 42
0.000000001
 43
0.00000001
 40
0.0
 40
0.0
 40
0.0
 40
0.0
 40
0.1058475044177025
 40
0.2117028095530486
 40
0.368415520133745
 40
0.5251362936415223
 40
0.6818625873783054
 40
0.8385918535761172
 40
0.995321541735421
 40
1.0
 40
1.0
 40
1.0
 40
1.0
 10
58.50000000000001
 20
2.26312387599809
 30
0.0
 10
57.81747273830011
 20
2.555387930229799
 30
0.0
 10
56.45236791421083
 20
3.139937577881858
 30
0.0
 10
54.07691378043473
 20
4.069905646955462
 30
0.0
 10
51.37229756665726
 20
5.003021847184112
 30
0.0
 10
48.33992100317668
 20
5.825430706851501
 30
0.0
 10
45.30731525894088
 20
6.401216446124157
 30
0.0
 10
42.27467435453666
 20
6.661674739738477
 30
0.0
 10
40.22271592648772
 20
6.725129053653941
 30
0.0
 10
39.18165143628299
 20
6.621592776750003
 30
0.0
 10
39.15147590378312
 20
6.618591750091205
 30
0.0
1001
PE_URL
1000

  0
SPLINE
  5
C0
330
1F
100
AcDbEntity
  8
0
  6
Continuous
 62
     1
370
    15
100
AcDbSpline
210
0.0
220
0.0
230
1.0
 70
    24
 71
     3
 72
     8
 73
     4
 74
     0
 42
0.000000001
 43
0.00000001
 40
0.0
 40
0.0
 40
0.0
 40
0.0
 40
1.0
 40
1.0
 40
1.0
 40
1.0
 10
58.50000000000003
 20
2.174668870913307
 30
0.0
 10
58.50000000000003
 20
2.204218856359969
 30
0.0
 10
58.50000000000002
 20
2.233704473821455
 30
0.0
 10
58.50000000000002
 20
2.263123875998091
 30
0.0
1001
PE_URL
1000

  0
SPLINE
  5
C1
330
1F
100
AcDbEntity
  8
0
  6
Continuous
 62
     1
370
    15
100
AcDbSpline
210
0.0
220
0.0
230
1.0
 70
    24
 71
     3
 72
    10
 73
     6
 74
     0
 42
0.000000001
 43
0.00000001
 40
0.0
 40
0.0
 40
0.0
 40
0.0
 40
0.5
 40
0.5
 40
1.0
 40
1.0
 40
1.0
 40
1.0
 10
63.50000000000003
 20
-6.575590715843854
 30
0.0
 10
63.50000000000004
 20
-6.071520420228589
 30
0.0
 10
63.50000000000004
 20
-5.434608273682976
 30
0.0
 10
63.50000000000002
 20
-3.953848828921451
 30
0.0
 10
63.50000000000003
 20
-3.111284220680762
 30
0.0
 10
63.50000000000003
 20
-2.227302928316088
 30
0.0
1001
PE_URL
1000

  0
SPLINE
  5
C2
330
1F
100
AcDbEntity
  8
0
  6
Continuous
 62
     1
370
    15
100
AcDbSpline
210
0.0
220
0.0
230
1.0
 70
    24
 71
     3
 72
    11
 73
     7
 74
     0
 42
0.000000001
 43
0.00000001
 40
0.0
 40
0.0
 40
0.0
 40
0.0
 40
0.2127341314949389
 40
0.4716051872477442
 40
0.7350225141806627
 40
1.0
 40
1.0
 40
1.0
 40
1.0
 10
58.50000000000002
 20
2.351733643233171
 30
0.0
 10
58.50000000000003
 20
2.494253523277357
 30
0.0
 10
58.50000000000003
 20
2.81020242269674
 30
0.0
 10
58.50000000000004
 20
3.259125378310555
 30
0.0
 10
58.50000000000001
 20
3.707147467185089
 30
0.0
 10
58.50000000000002
 20
3.970368078080178
 30
0.0
 10
58.50000000000002
 20
4.102366981187337
 30
0.0
1001
PE_URL
1000

  0
SPLINE
  5
C3
330
1F
100
AcDbEntity
  8
0
  6
Continuous
 62
     1
370
    15
100
AcDbSpline
210
0.0
220
0.0
230
1.0
 70
     8
 71
     3
 72
     9
 73
     5
 74
     0
 42
0.000000001
 43
0.00000001
 40
0.0
 40
0.0
 40
0.0
 40
0.0
 40
0.9787726683725666
 40
1.0
 40
1.0
 40
1.0
 40
1.0
 10
63.50000000000003
 20
5.834062499999995
 30
0.0
 10
62.48952638254579
 20
5.832232820431384
 30
0.0
 10
61.45713791267323
 20
5.830363459314413
 30
0.0
 10
60.42473308191103
 20
5.700393152273127
 30
0.0
 10
60.40281788219468
 20
5.697634229463841
 30
0.0
1001
PE_URL
1000

  0
SPLINE
  5
C4
330
1F
100
AcDbEntity
  8
0
  6
Continuous
 62
     1
370
    15
100
AcDbSpline
210
0.0
220
0.0
230
1.0
 70
     8
 71
     3
 72
    10
 73
     6
 74
     0
 42
0.000000001
 43
0.00000001
 40
0.0
 40
0.0
 40
0.0
 40
0.0
 40
0.5
 40
0.5
 40
1.0
 40
1.0
 40
1.0
 40
1.0
 10
63.50000000000003
 20
5.834062499999998
 30
0.0
 10
62.65518733453105
 20
5.604970395799754
 30
0.0
 10
61.81537718442297
 20
5.34806767451302
 30
0.0
 10
60.1466080176948
 20
4.774090304988127
 30
0.0
 10
59.31882322414474
 20
4.457991994527948
 30
0.0
 10
58.50000000000003
 20
4.102366981187337
 30
0.0
1001
PE_URL
1000

  0
SPLINE
  5
C5
330
1F
100
AcDbEntity
  8
0
  6
Continuous
 62
     1
370
    15
100
AcDbSpline
210
0.0
220
0.0
230
1.0
 70
     8
 71
     3
 72
    13
 73
     9
 74
     0
 42
0.000000001
 43
0.00000001
 40
0.0
 40
0.0
 40
0.0
 40
0.0
 40
0.0348297581624239
 40
0.2280984718467059
 40
0.4213677058674682
 40
0.6146343146301644
 40
0.8073211493679895
 40
1.0
 40
1.0
 40
1.0
 40
1.0
 10
45.85386561871459
 20
-6.246953041344871
 30
0.0
 10
45.67168983462126
 20
-6.281981212106192
 30
0.0
 10
44.47862906844023
 20
-6.511379078866648
 30
0.0
 10
42.27467170251506
 20
-6.667359489465406
 30
0.0
 10
39.24201597925133
 20
-6.681203172642197
 30
0.0
 10
36.2124053002337
 20
-6.373025754794101
 30
0.0
 10
33.18590598377173
 20
-5.807960241742297
 30
0.0
 10
31.17028807455975
 20
-5.222833578799311
 30
0.0
 10
30.16250000000002
 20
-4.930276308730493
 30
0.0
1001
PE_URL
1000

  0
SPLINE
  5
C6
330
1F
100
AcDbEntity
  8
외형선
  6
Continuous
370
    15
100
AcDbSpline
210
0.0
220
0.0
230
1.0
 70
    24
 71
     3
 72
    14
 73
    10
 74
     0
 42
0.000000001
 43
0.00000001
 40
0.0
 40
0.0
 40
0.0
 40
0.0
 40
0.25
 40
0.25
 40
0.5
 40
0.5
 40
0.75
 40
0.75
 40
1.0
 40
1.0
 40
1.0
 40
1.0
 10
30.16250000000002
 20
3.927564163839671
 30
0.0
 10
30.16250000000002
 20
3.288331323127914
 30
0.0
 10
30.16250000000002
 20
2.58329078667102
 30
0.0
 10
30.16250000000002
 20
1.09298519293909
 30
0.0
 10
30.16250000000002
 20
0.3082886299263197
 30
0.0
 10
30.16250000000002
 20
-1.266005003423186
 30
0.0
 10
30.16250000000002
 20
-2.054763224293657
 30
0.0
 10
30.16250000000002
 20
-3.560545046811327
 30
0.0
 10
30.16250000000002
 20
-4.276978416997872
 30
0.0
 10
30.16250000000002
 20
-4.930276308730493
 30
0.0
  0
SPLINE
  5
C7
330
1F
100
AcDbEntity
  8
외형선
  6
Continuous
370
    15
100
AcDbSpline
210
0.0
220
0.0
230
1.0
 70
    24
 71
     3
 72
    12
 73
     8
 74
     0
 42
0.000000001
 43
0.00000001
 40
0.0
 40
0.0
 40
0.0
 40
0.0
 40
0.1813524662366649
 40
0.3650662548404376
 40
0.6320206688335381
 40
0.9067167789172158
 40
1.0
 40
1.0
 40
1.0
 40
1.0
 10
30.16250000000002
 20
-4.930276308730498
 30
0.0
 10
30.16250000000002
 20
-5.122192022800129
 30
0.0
 10
30.16250000000002
 20
-5.508522313390154
 30
0.0
 10
30.16250000000002
 20
-6.031143123649525
 30
0.0
 10
30.16250000000002
 20
-6.448153651500089
 30
0.0
 10
30.16250000000002
 20
-6.656802331657616
 30
0.0
 10
30.16250000000002
 20
-6.632688267885287
 30
0.0
 10
30.16250000000002
 20
-6.626575322533307
 30
0.0
  0
LINE
  5
C8
330
1F
100
AcDbEntity
  8
0
  6
Continuous
 62
     1
370
    15
100
AcDbLine
 10
63.50000000000003
 20
0.0
 30
0.0
 11
63.50000000000003
 21
5.8340625
 31
0.0
1001
PE_URL
1000

  0
SPLINE
  5
C9
330
1F
100
AcDbEntity
  8
0
  6
Continuous
 62
     1
370
    15
100
AcDbSpline
210
0.0
220
0.0
230
1.0
 70
    24
 71
     3
 72
    10
 73
     6
 74
     0
 42
0.000000001
 43
0.00000001
 40
0.0
 40
0.0
 40
0.0
 40
0.0
 40
0.5
 40
0.5
 40
1.0
 40
1.0
 40
1.0
 40
1.0
 10
63.50000000000003
 20
5.834062499999995
 30
0.0
 10
63.50000000000004
 20
6.18770884032845
 30
0.0
 10
63.50000000000004
 20
6.598678638964375
 30
0.0
 10
63.50000000000002
 20
7.460892169633126
 30
0.0
 10
63.50000000000003
 20
7.909933916507891
 30
0.0
 10
63.50000000000003
 20
8.327330913179559
 30
0.0
1001
PE_URL
1000

  0
SPLINE
  5
CA
330
1F
100
AcDbEntity
  8
0
  6
Continuous
 62
     1
370
    15
100
AcDbSpline
210
0.0
220
0.0
230
1.0
 70
     8
 71
     3
 72
    16
 73
    12
 74
     0
 42
0.000000001
 43
0.00000001
 40
0.0
 40
0.0
 40
0.0
 40
0.0
 40
0.0201350169239044
 40
0.1251497304542417
 40
0.2305289542350761
 40
0.3253924356428985
 40
0.5155241787885211
 40
0.6108274235825053
 40
0.7078944615853011
 40
0.9024619563295023
 40
0.9999999999999999
 40
0.9999999999999999
 40
0.9999999999999999
 40
0.9999999999999999
 10
52.03972780799001
 20
5.587578440949064
 30
0.0
 10
52.11666310824013
 20
5.622660541842606
 30
0.0
 10
52.59485650261898
 20
5.840714268203421
 30
0.0
 10
53.47520327801381
 20
6.18254988480009
 30
0.0
 10
54.64185332630166
 20
6.618282816521769
 30
0.0
 10
56.13191900734316
 20
7.114242860558921
 30
0.0
 10
57.58572117891573
 20
7.518499492914851
 30
0.0
 10
59.0464774240853
 20
7.838022524902546
 30
0.0
 10
60.52507860396222
 20
8.09858133912826
 30
0.0
 10
62.01184996150743
 20
8.271945694391732
 30
0.0
 10
63.1274768785717
 20
8.313466535226958
 30
0.0
 10
63.49999999999953
 20
8.327330913179537
 30
0.0
1001
PE_URL
1000

  0
LINE
  5
CB
330
1F
100
AcDbEntity
  8
0
  6
Continuous
 62
     1
370
    15
100
AcDbLine
 10
32.32565007600634
 20
-6.551219449166426
 30
0.0
 11
30.1625000000031
 21
-7.268417307796903
 31
0.0
1001
PE_URL
1000

  0
SPLINE
  5
CC
330
1F
100
AcDbEntity
  8
외형선
  6
Continuous
370
    15
100
AcDbSpline
210
0.0
220
0.0
230
1.0
 70
    24
 71
     3
 72
    11
 73
     7
 74
     0
 42
0.000000001
 43
0.00000001
 40
0.0
 40
0.0
 40
0.0
 40
0.0
 40
0.1024915102722707
 40
0.4355924479691868
 40
0.7690815849278394
 40
0.9999999999999999
 40
0.9999999999999999
 40
0.9999999999999999
 40
0.9999999999999999
 10
30.16250000000002
 20
-6.715185089768386
 30
0.0
 10
30.16250000000002
 20
-6.735394395460605
 30
0.0
 10
30.16250000000002
 20
-6.821284640563293
 30
0.0
 10
30.16250000000002
 20
-6.96565426066091
 30
0.0
 10
30.16250000000002
 20
-7.129694685604964
 30
0.0
 10
30.16250000000002
 20
-7.228139975758818
 30
0.0
 10
30.16250000000002
 20
-7.268417307789286
 30
0.0
  0
LINE
  5
CD
330
1F
100
AcDbEntity
  8
중심선
 62
     1
100
AcDbLine
 10
-70.5
 20
-0.0000000000000097
 30
0.0
 11
70.5
 21
0.000000000000008
 31
0.0
  0
LINE
  5
CE
330
1F
100
AcDbEntity
  8
참조1
100
AcDbLine
 10
0.0
 20
-0.0000000000000086
 30
0.0
 11
0.0000000000000071
 21
-40.00000000000001
 31
0.0
  0
LINE
  5
CF
330
1F
100
AcDbEntity
  8
참조1
100
AcDbLine
 10
0.0000000000000071
 20
-40.00000000000001
 30
0.0
 11
-9.703215596699206
 21
-40.0
 31
0.0
  0
CIRCLE
  5
D0
330
1F
100
AcDbEntity
  8
해칭선
100
AcDbCircle
 10
0.0
 20
0.0
 30
0.0
 40
3.000000000000002
  0
INSERT
  5
D1
330
1F
100
AcDbEntity
  8
0
  6
Continuous
 62
     7
100
AcDbBlockReference
 66
     1
  2
블럭10
 10
-13.94027293212521
 20
-52.04717430164393
 30
0.0
  0
ATTRIB
  5
D2
330
D1
100
AcDbEntity
  8
FORMAT
 62
     2
100
AcDbText
 10
-23.12156822086649
 20
-49.97180738881174
 30
0.0
 40
4.233333333333333
  1
E1050042 [ 2 FLUTE ]
 41
0.75
  7
SLDTEXTSTYLE0
 11
-23.12156822086649
 21
-52.08847405547841
 31
0.0
100
AcDbAttribute
  2
AUTOATTR0
 70
     0
 74
     1
  0
SEQEND
  5
D3
330
D1
100
AcDbEntity
  8
0
  6
Continuous
 62
     7
  0
HATCH
  5
D4
330
1F
100
AcDbEntity
  8
중심선
100
AcDbHatch
 10
0.0
 20
0.0
 30
0.0
210
0.0
220
0.0
230
1.0
  2
SOLID
 70
     1
 71
     0
 91
        1
 92
        0
 93
        4
 72
     1
 10
-8.225363627744372
 20
-35.8
 11
-11.67163887158165
 21
-35.8
 72
     1
 10
-11.67163887158165
 20
-35.8
 11
-13.79986873078568
 21
-38.3363255805726
 72
     1
 10
-13.79986873078568
 20
-38.3363255805726
 11
-10.35356040183525
 21
-38.33628615127011
 72
     1
 10
-10.35356040183525
 20
-38.33628615127011
 11
-8.225363627744372
 21
-35.8
 97
        0
 75
     0
 76
     1
 98
        1
 10
19.75671167873053
 20
-0.0010749287238978
  0
HATCH
  5
D5
330
1F
100
AcDbEntity
  8
중심선
100
AcDbHatch
 10
0.0
 20
0.0
 30
0.0
210
0.0
220
0.0
230
1.0
  2
SOLID
 70
     1
 71
     0
 91
        1
 92
        0
 93
        4
 72
     1
 10
-3.212599636708418
 20
-35.79999999999998
 11
-6.658874880545675
 21
-35.8
 72
     1
 10
-6.658874880545675
 20
-35.8
 11
-11.19001288890309
 21
-41.20000000000002
 72
     1
 10
-11.19001288890309
 20
-41.20000000000002
 11
-7.743737645065806
 21
-41.20000000000002
 72
     1
 10
-7.743737645065806
 20
-41.20000000000002
 11
-3.212599636708418
 21
-35.79999999999998
 97
        0
 75
     0
 76
     1
 98
        1
 10
19.75671167873053
 20
-0.0010749287238978
  0
HATCH
  5
D6
330
1F
100
AcDbEntity
  8
중심선
100
AcDbHatch
 10
0.0
 20
0.0
 30
0.0
210
0.0
220
0.0
230
1.0
  2
SOLID
 70
     1
 71
     0
 91
        1
 92
        0
 93
        4
 72
     1
 10
1.80016435432745
 20
-35.80000000000003
 11
-1.646110889509639
 21
-35.8
 72
     1
 10
-1.646110889509639
 20
-35.8
 11
-8.69454779139889
 21
-44.20000000000002
 72
     1
 10
-8.69454779139889
 20
-44.20000000000002
 11
-5.248272547561605
 21
-44.20000000000002
 72
     1
 10
-5.248272547561605
 20
-44.20000000000002
 11
1.80016435432745
 21
-35.80000000000003
 97
        0
 75
     0
 76
     1
 98
        1
 10
19.75671167873053
 20
-0.0010749287238978
  0
HATCH
  5
D7
330
1F
100
AcDbEntity
  8
중심선
100
AcDbHatch
 10
0.0
 20
0.0
 30
0.0
210
0.0
220
0.0
230
1.0
  2
SOLID
 70
     1
 71
     0
 91
        1
 92
        0
 93
        6
 72
     3
 10
6.600054785339676
 20
-40.00000000005127
 11
3.960054785062283
 21
1.540882976769353E-10
 40
0.3939339440162628
 50
17.09539180608436
 51
320.0019657685082
 73
     0
 72
     1
 10
8.283054441040242
 20
-38.58789400463833
 11
10.58835631474131
 21
-36.65356729459038
 72
     3
 10
6.600054785286829
 20
-40.00000000000015
 11
6.600054785286829
 21
-1.278976924368180E-13
 40
0.636358354079598
 50
39.99873849337411
 51
368.4976242363724
 73
     1
 72
     1
 10
13.02538727718744
 20
-39.03999999993002
 11
5.280122092122751
 21
-39.03999999993002
 72
     1
 10
5.280122092122751
 20
-39.03999999993002
 11
5.280097047676817
 21
-40.95999999992991
 72
     1
 10
5.280097047676817
 20
-40.95999999992991
 11
9.721476817148854
 21
-40.95999999992988
 97
        0
 75
     0
 76
     1
 98
        1
 10
19.75671167873053
 20
-0.0010749287238978
  0
DIMENSION
  5
D8
330
1F
100
AcDbEntity
  8
치수문자_일반주서
100
AcDbDimension
  2
_D
 10
-78.49999999999989
 20
-9.525000000000222
 30
0.0
 11
-78.50000000000004
 21
31.75399999999994
 31
0.0
 70
   160
  1
%%c<>
 71
     2
 42
19.05
 52
-270.0
  3
SLDDIMSTYLE0
100
AcDbAlignedDimension
 13
-24.71902700723834
 23
9.524999999999991
 33
0.0
 14
-24.71902700723834
 24
-9.525000000000013
 34
0.0
 50
90.0000000000002
100
AcDbRotatedDimension
1001
PE_URL
1000

1001
ACAD
1000
DSTYLE
1002
{
1070
   140
1040
4.0
1070
   171
1070
     8
1070
   273
1070
     7
1002
}
  0
DIMENSION
  5
ED
330
1F
100
AcDbEntity
  8
치수문자_일반주서
100
AcDbDimension
  2
_D_1
 10
114.318587156484
 20
8.327330913179747
 30
0.0
 11
114.3185871564839
 21
33.30633091317975
 31
0.0
 70
   160
  1
%%c<>
 71
     2
 42
16.65466182635913
 52
-270.0
  3
SLDDIMSTYLE0
100
AcDbAlignedDimension
 13
63.50000000000003
 23
-8.32733091317957
 33
0.0
 14
63.50000000000003
 24
8.327330913179559
 34
0.0
 50
90.0000000000002
100
AcDbRotatedDimension
1001
PE_URL
1000

1001
ACAD
1000
DSTYLE
1002
{
1070
   171
1070
     8
1070
   273
1070
     7
1070
   140
1040
4.0
1002
}
  0
DIMENSION
  5
101
330
1F
100
AcDbEntity
  8
치수문자_일반주서
100
AcDbDimension
  2
_D_2
 10
30.16250000000002
 20
24.52499999999998
 30
0.0
 11
88.47900000000003
 21
24.52499999999998
 31
0.0
 70
   160
  1
<>
 71
     2
 42
33.33750000000001
  3
SLDDIMSTYLE0
100
AcDbAlignedDimension
 13
63.50000000000003
 23
8.327330913179559
 33
0.0
 14
30.16250000000002
 24
7.268417307797761
 34
0.0
100
AcDbRotatedDimension
1001
PE_URL
1000

1001
ACAD
1000
DSTYLE
1002
{
1070
   171
1070
     8
1070
   273
1070
     7
1070
   140
1040
4.0
1002
}
  0
DIMENSION
  5
115
330
1F
100
AcDbEntity
  8
치수문자_일반주서
100
AcDbDimension
  2
_D_3
 10
63.50000000000003
 20
39.52499999999998
 30
0.0
 11
0.0000000000000142
 21
39.52499999999998
 31
0.0
 70
   160
  1
<>
 71
     2
 42
127.0000000000001
  3
SLDDIMSTYLE0
100
AcDbAlignedDimension
 13
-63.50000000000004
 23
8.327330913179548
 33
0.0
 14
63.50000000000003
 24
8.327330913179559
 34
0.0
 50
-0.0000000000000064
100
AcDbRotatedDimension
1001
PE_URL
1000

1001
ACAD
1000
DSTYLE
1002
{
1070
   171
1070
     8
1070
   273
1070
     7
1070
   140
1040
4.0
1002
}
  0
LINE
  5
128
330
1F
100
AcDbEntity
  8
참조1
100
AcDbLine
 10
88.26912503295506
 20
7.439999999999998
 30
0.0
 11
88.26912503295506
 21
-7.440000000000007
 31
0.0
  0
LINE
  5
129
330
1F
100
AcDbEntity
  8
참조1
100
AcDbLine
 10
100.9691250329551
 20
5.439999999999998
 30
0.0
 11
88.26912503295506
 21
5.439999999999998
 31
0.0
  0
SOLID
  5
12A
330
1F
100
AcDbEntity
  8
참조1
100
AcDbTrace
 10
88.26912503295506
 20
5.439999999999998
 30
0.0
 11
94.61912503295505
 21
4.423999999999998
 31
0.0
 12
94.61912503295505
 22
6.455999999999998
 32
0.0
 13
94.61912503295505
 23
6.455999999999998
 33
0.0
  0
LINE
  5
12B
330
1F
100
AcDbEntity
  8
참조1
100
AcDbLine
 10
100.9691250329551
 20
-5.440000000000007
 30
0.0
 11
88.26912503295506
 21
-5.440000000000007
 31
0.0
  0
SOLID
  5
12C
330
1F
100
AcDbEntity
  8
참조1
100
AcDbTrace
 10
88.26912503295506
 20
-5.440000000000007
 30
0.0
 11
94.61912503295505
 21
-6.456000000000007
 31
0.0
 12
94.61912503295505
 22
-4.424000000000007
 32
0.0
 13
94.61912503295505
 23
-4.424000000000007
 33
0.0
  0
MTEXT
  5
12D
330
1F
100
AcDbEntity
  8
참조1
100
AcDbMText
 10
97.65347516558106
 20
11.01029177718832
 30
0.0
 40
3.5
 41
0.0
 71
     1
 72
     1
  1
A
  7
SLDTEXTSTYLE0
 73
     1
 44
1.0
  0
MTEXT
  5
12E
330
1F
100
AcDbEntity
  8
참조1
100
AcDbMText
 10
97.65347516558106
 20
0.1302917771883214
 30
0.0
 40
3.5
 41
0.0
 71
     1
 72
     1
  1
A
  7
SLDTEXTSTYLE0
 73
     1
 44
1.0
  0
INSERT
  5
135
330
1F
100
AcDbEntity
  8
해칭선
100
AcDbBlockReference
  2
SW_DOWELSYMBOL_0
 10
0.0
 20
0.0
 30
0.0
  0
LINE
  5
23C
330
1F
100
AcDbEntity
  8
외형선
  6
Continuous
370
    15
100
AcDbLine
 10
-24.71902700723834
 20
9.524999999999991
 30
0.0
 11
-27.11238238106631
 21
8.883702360382099
 31
0.0
  0
LINE
  5
23D
330
1F
100
AcDbEntity
  8
외형선
  6
Continuous
370
    15
100
AcDbLine
 10
-27.1123823810663
 20
-8.883702360382117
 30
0.0
 11
-24.71902700723833
 21
-9.525000000000013
 31
0.0
  0
SPLINE
  5
23E
330
1F
100
AcDbEntity
  8
외형선
  6
Continuous
370
    15
100
AcDbSpline
210
0.0
220
0.0
230
1.0
 70
     8
 71
     3
 72
     9
 73
     5
 74
     0
 42
0.000000001
 43
0.00000001
 40
0.0
 40
0.0
 40
0.0
 40
0.0
 40
0.5477055749254249
 40
0.9999999999999999
 40
0.9999999999999999
 40
0.9999999999999999
 40
0.9999999999999999
 10
-27.11233741435153
 20
6.882037713380576
 30
0.0
 10
-27.67146179703718
 20
6.833690180178799
 30
0.0
 10
-28.69231023876022
 20
6.745417328093335
 30
0.0
 10
-29.70463235186363
 20
6.680449953555719
 30
0.0
 10
-30.16250000000002
 20
6.651065572240626
 30
0.0
  0
SPLINE
  5
23F
330
1F
100
AcDbEntity
  8
0
  6
Continuous
 62
     1
370
    15
100
AcDbSpline
210
0.0
220
0.0
230
1.0
 70
     8
 71
     3
 72
     9
 73
     5
 74
     0
 42
0.000000001
 43
0.00000001
 40
0.0
 40
0.0
 40
0.0
 40
0.0
 40
0.4618101838260205
 40
1.0
 40
1.0
 40
1.0
 40
1.0
 10
-41.90691028588728
 20
-2.135707664637401
 30
0.0
 10
-41.55159974669077
 20
-2.304949786529068
 30
0.0
 10
-40.78221320728447
 20
-2.671425294906825
 30
0.0
 10
-40.01108143788657
 20
-3.074908962558737
 30
0.0
 10
-39.59606617266842
 20
-3.292059763481522
 30
0.0
1001
PE_URL
1000

  0
SPLINE
  5
240
330
1F
100
AcDbEntity
  8
0
  6
Continuous
 62
     1
370
    15
100
AcDbSpline
210
0.0
220
0.0
230
1.0
 70
     8
 71
     3
 72
    18
 73
    14
 74
     0
 42
0.000000001
 43
0.00000001
 40
0.0
 40
0.0
 40
0.0
 40
0.0
 40
0.1178480173239483
 40
0.2113859908024997
 40
0.2832609613988005
 40
0.3605693757928692
 40
0.4520724249313223
 40
0.5485833390824251
 40
0.640958231036232
 40
0.7547042762209696
 40
0.8572911236327152
 40
0.9532167343816137
 40
0.9999999999999999
 40
0.9999999999999999
 40
0.9999999999999999
 40
0.9999999999999999
 10
-39.15197267085091
 20
-6.622809980520294
 30
0.0
 10
-38.88625296716918
 20
-6.609342610908705
 30
0.0
 10
-38.4096270203439
 20
-6.585185961238274
 30
0.0
 10
-37.76613558752898
 20
-6.559760182693296
 30
0.0
 10
-37.20618483270817
 20
-6.54171840714978
 30
0.0
 10
-36.65256894887868
 20
-6.527392932237923
 30
0.0
 10
-36.04678096649528
 20
-6.516111948299503
 30
0.0
 10
-35.40382153219426
 20
-6.509365835214155
 30
0.0
 10
-34.70364363759563
 20
-6.507697967264718
 30
0.0
 10
-33.98190006800519
 20
-6.510336388911263
 30
0.0
 10
-33.28302472460521
 20
-6.52404378985073
 30
0.0
 10
-32.75714483180018
 20
-6.537505111573118
 30
0.0
 10
-32.43209228887189
 20
-6.547862892683597
 30
0.0
 10
-32.3255325580209
 20
-6.551258412550645
 30
0.0
1001
PE_URL
1000

  0
SPLINE
  5
241
330
1F
100
AcDbEntity
  8
0
  6
Continuous
 62
     1
370
    15
100
AcDbSpline
210
0.0
220
0.0
230
1.0
 70
     8
 71
     3
 72
    27
 73
    23
 74
     0
 42
0.000000001
 43
0.00000001
 40
0.0
 40
0.0
 40
0.0
 40
0.0
 40
0.0660649185158593
 40
0.1161607285526869
 40
0.1500512103776668
 40
0.1806724625223687
 40
0.2193863119978743
 40
0.2652009600995986
 40
0.3078257245667231
 40
0.3716582029716756
 40
0.4256186365996247
 40
0.4793761179438283
 40
0.532942482636802
 40
0.592769678263707
 40
0.656695012383086
 40
0.7105372697381656
 40
0.7403873230998883
 40
0.7678494102513395
 40
0.7956745393478704
 40
0.8419700286826803
 40
0.9102246851806621
 40
1.0
 40
1.0
 40
1.0
 40
1.0
 10
-60.40365182031985
 20
-5.700316132353073
 30
0.0
 10
-60.08424410023161
 20
-5.674271652582171
 30
0.0
 10
-59.5226353931552
 20
-5.628478123839102
 30
0.0
 10
-58.79686096564652
 20
-5.582850331686743
 30
0.0
 10
-58.23844389247428
 20
-5.553055805574882
 30
0.0
 10
-57.73361153032441
 20
-5.530297953439355
 30
0.0
 10
-57.17360314031241
 20
-5.51002499059328
 30
0.0
 10
-56.55636773487434
 20
-5.494413588997546
 30
0.0
 10
-55.81754107668495
 20
-5.484074328301901
 30
0.0
 10
-55.03947193607392
 20
-5.4838032196628
 30
0.0
 10
-54.20713115038264
 20
-5.496178817338684
 30
0.0
 10
-53.42383273820322
 20
-5.518587772210047
 30
0.0
 10
-52.61304817638893
 20
-5.552813881286681
 30
0.0
 10
-51.74922517658679
 20
-5.601923068355674
 30
0.0
 10
-50.87926145994568
 20
-5.664515752952219
 30
0.0
 10
-50.16305070307367
 20
-5.72654314969413
 30
0.0
 10
-49.6321734330291
 20
-5.777916317351945
 30
0.0
 10
-49.22431784079706
 20
-5.820163659622658
 30
0.0
 10
-48.73669449243165
 20
-5.873635177793545
 30
0.0
 10
-48.04608200908932
 20
-5.955261045446683
 30
0.0
 10
-47.05295448678599
 20
-6.084238424129147
 30
0.0
 10
-46.28225924504501
 20
-6.201787129374978
 30
0.0
 10
-45.84443465151817
 20
-6.268565424226779
 30
0.0
1001
PE_URL
1000

  0
SPLINE
  5
242
330
1F
100
AcDbEntity
  8
0
  6
Continuous
 62
     1
370
    15
100
AcDbSpline
210
0.0
220
0.0
230
1.0
 70
     8
 71
     3
 72
    17
 73
    13
 74
     0
 42
0.000000001
 43
0.00000001
 40
0.0
 40
0.0
 40
0.0
 40
0.0
 40
0.1482881912451174
 40
0.2637553742908515
 40
0.3461002839070445
 40
0.4218892081164181
 40
0.514796340555816
 40
0.622212593131691
 40
0.7206788685551188
 40
0.8313552578070399
 40
0.9269076760266496
 40
1.0
 40
1.0
 40
1.0
 40
1.0
 10
-45.84443465151817
 20
6.268565424226754
 30
0.0
 10
-46.14877556089979
 20
6.221667984432223
 30
0.0
 10
-46.69009682048195
 20
6.138253036266576
 30
0.0
 10
-47.40178182116915
 20
6.0396019106762
 30
0.0
 10
-47.96988047373895
 20
5.965901463624757
 30
0.0
 10
-48.49330883700749
 20
5.902018126430075
 30
0.0
 10
-49.06532150037695
 20
5.836742102779766
 30
0.0
 10
-49.68220820653143
 20
5.772263517462839
 30
0.0
 10
-50.33568877519114
 20
5.711001453098529
 30
0.0
 10
-50.964915553548
 20
5.658990761234975
 30
0.0
 10
-51.54105401034001
 20
5.616915737717203
 30
0.0
 10
-51.88749001873678
 20
5.595828242478369
 30
0.0
 10
-52.03763886199452
 20
5.586688710384212
 30
0.0
1001
PE_URL
1000

  0
SPLINE
  5
243
330
1F
100
AcDbEntity
  8
0
  6
Continuous
 62
     1
370
    15
100
AcDbSpline
210
0.0
220
0.0
230
1.0
 70
     8
 71
     3
 72
    21
 73
    17
 74
     0
 42
0.000000001
 43
0.00000001
 40
0.0
 40
0.0
 40
0.0
 40
0.0
 40
0.1037485852005533
 40
0.182627649568302
 40
0.236493950409337
 40
0.2786312236502641
 40
0.3219957137031713
 40
0.381135530443818
 40
0.4442795530027354
 40
0.5130056015490906
 40
0.5951720296505044
 40
0.680882938016097
 40
0.7567587958362494
 40
0.819692953352325
 40
0.8973387254198166
 40
1.0
 40
1.0
 40
1.0
 40
1.0
 10
-30.16250000000002
 20
6.651065572240626
 30
0.0
 10
-30.47433475590636
 20
6.633540241861056
 30
0.0
 10
-31.02325451625578
 20
6.602690569174516
 30
0.0
 10
-31.73325655524999
 20
6.572116888623189
 30
0.0
 10
-32.25947401080005
 20
6.552952177996083
 30
0.0
 10
-32.67545926404377
 20
6.540124827932498
 30
0.0
 10
-33.09519241495732
 20
6.529110074511671
 30
0.0
 10
-33.56017540101497
 20
6.517787604259198
 30
0.0
 10
-34.1391294644983
 20
6.509683170209584
 30
0.0
 10
-34.79338971666478
 20
6.50770409374524
 30
0.0
 10
-35.51493946013501
 20
6.509819926188261
 30
0.0
 10
-36.24771364569192
 20
6.519039929207139
 30
0.0
 10
-36.92411850008241
 20
6.533757151641755
 30
0.0
 10
-37.58256177087378
 20
6.553186960860987
 30
0.0
 10
-38.31243731707231
 20
6.580537268526864
 30
0.0
 10
-38.84738815375709
 20
6.607473385687417
 30
0.0
 10
-39.15197267085091
 20
6.62280998052027
 30
0.0
1001
PE_URL
1000

  0
LINE
  5
244
330
1F
100
AcDbEntity
  8
외형선
  6
Continuous
370
    15
100
AcDbLine
 10
-24.71902700723833
 20
-9.525000000000013
 30
0.0
 11
-24.71902700723834
 21
9.524999999999991
 31
0.0
  0
SPLINE
  5
245
330
1F
100
AcDbEntity
  8
외형선
  6
Continuous
370
    15
100
AcDbSpline
210
0.0
220
0.0
230
1.0
 70
     8
 71
     3
 72
     8
 73
     4
 74
     0
 42
0.000000001
 43
0.00000001
 40
0.0
 40
0.0
 40
0.0
 40
0.0
 40
1.0
 40
1.0
 40
1.0
 40
1.0
 10
-29.16250000000003
 20
-7.533660871190051
 30
0.0
 10
-28.47613699230697
 20
-7.835776906501884
 30
0.0
 10
-27.79273020840102
 20
-8.127421272578552
 30
0.0
 10
-27.11225926710648
 20
-8.406966469076238
 30
0.0
  0
LINE
  5
246
330
1F
100
AcDbEntity
  8
외형선
  6
Continuous
370
    15
100
AcDbLine
 10
-29.16250000000003
 20
-7.533660871189582
 30
0.0
 11
-29.16250000000003
 21
-6.25619419861124
 31
0.0
  0
SPLINE
  5
247
330
1F
100
AcDbEntity
  8
외형선
  6
Continuous
370
    15
100
AcDbSpline
210
0.0
220
0.0
230
1.0
 70
     8
 71
     3
 72
     8
 73
     4
 74
     0
 42
0.000000001
 43
0.00000001
 40
0.0
 40
0.0
 40
0.0
 40
0.0
 40
1.0
 40
1.0
 40
1.0
 40
1.0
 10
-27.11238238106631
 20
-7.309786094230724
 30
0.0
 10
-27.79697117206583
 20
-6.968855526099318
 30
0.0
 10
-28.48027963798635
 20
-6.617723567980768
 30
0.0
 10
-29.16250000000003
 20
-6.25619419861124
 30
0.0
  0
LINE
  5
248
330
1F
100
AcDbEntity
  8
외형선
  6
Continuous
370
    15
100
AcDbLine
 10
-27.11238238106631
 20
8.883702360382099
 30
0.0
 11
-27.11238238106631
 21
-7.309857146841402
 31
0.0
  0
SPLINE
  5
249
330
1F
100
AcDbEntity
  8
외형선
  6
Continuous
370
    15
100
AcDbSpline
210
0.0
220
0.0
230
1.0
 70
     8
 71
     3
 72
     8
 73
     4
 74
     0
 42
0.000000001
 43
0.00000001
 40
0.0
 40
0.0
 40
0.0
 40
0.0
 40
1.0
 40
1.0
 40
1.0
 40
1.0
 10
-29.16250000000003
 20
7.53366087119003
 30
0.0
 10
-28.47613699230697
 20
7.835776906501863
 30
0.0
 10
-27.79273020840102
 20
8.127421272578538
 30
0.0
 10
-27.11225926710648
 20
8.406966469076224
 30
0.0
  0
LINE
  5
24A
330
1F
100
AcDbEntity
  8
외형선
  6
Continuous
370
    15
100
AcDbLine
 10
-27.11238238106631
 20
-8.406969681738957
 30
0.0
 11
-27.1123823810663
 21
-8.883702360382117
 31
0.0
  0
SPLINE
  5
24B
330
1F
100
AcDbEntity
  8
외형선
  6
Continuous
370
    15
100
AcDbSpline
210
0.0
220
0.0
230
1.0
 70
    24
 71
     3
 72
    10
 73
     6
 74
     0
 42
0.000000001
 43
0.00000001
 40
0.0
 40
0.0
 40
0.0
 40
0.0
 40
0.5
 40
0.5
 40
1.0
 40
1.0
 40
1.0
 40
1.0
 10
-30.16250000000003
 20
-5.859390102354212
 30
0.0
 10
-30.16250000000003
 20
-5.657366848712165
 30
0.0
 10
-30.16250000000003
 20
-5.373798737777783
 30
0.0
 10
-30.16250000000003
 20
-4.702326711790842
 30
0.0
 10
-30.16250000000002
 20
-4.316622403104581
 30
0.0
 10
-30.16250000000002
 20
-3.927564163839687
 30
0.0
  0
SPLINE
  5
24C
330
1F
100
AcDbEntity
  8
외형선
  6
Continuous
370
    15
100
AcDbSpline
210
0.0
220
0.0
230
1.0
 70
     8
 71
     3
 72
    10
 73
     6
 74
     0
 42
0.000000001
 43
0.00000001
 40
0.0
 40
0.0
 40
0.0
 40
0.0
 40
0.5
 40
0.5
 40
1.0
 40
1.0
 40
1.0
 40
1.0
 10
-30.16250000000002
 20
-3.927564163839683
 30
0.0
 10
-29.65391410892879
 20
-4.079508417733301
 30
0.0
 10
-29.14885247332188
 20
-4.223810698195159
 30
0.0
 10
-28.13085703331432
 20
-4.496920700413938
 30
0.0
 10
-27.62026806176569
 20
-4.62547625738026
 30
0.0
 10
-27.11235271182665
 20
-4.744976368951463
 30
0.0
  0
SPLINE
  5
24D
330
1F
100
AcDbEntity
  8
외형선
  6
Continuous
370
    15
100
AcDbSpline
210
0.0
220
0.0
230
1.0
 70
     8
 71
     3
 72
     8
 73
     4
 74
     0
 42
0.000000001
 43
0.00000001
 40
0.0
 40
0.0
 40
0.0
 40
0.0
 40
1.0
 40
1.0
 40
1.0
 40
1.0
 10
-29.16250000000003
 20
-6.25619419861124
 30
0.0
 10
-29.49599379678238
 20
-6.128821085705496
 30
0.0
 10
-29.82823204083821
 20
-5.996595277934155
 30
0.0
 10
-30.16250000000003
 20
-5.859390102354212
 30
0.0
  0
SPLINE
  5
24E
330
1F
100
AcDbEntity
  8
외형선
  6
Continuous
370
    15
100
AcDbSpline
210
0.0
220
0.0
230
1.0
 70
    24
 71
     3
 72
    14
 73
    10
 74
     0
 42
0.000000001
 43
0.00000001
 40
0.0
 40
0.0
 40
0.0
 40
0.0
 40
0.25
 40
0.25
 40
0.5
 40
0.5
 40
0.75
 40
0.75
 40
1.0
 40
1.0
 40
1.0
 40
1.0
 10
-30.16250000000002
 20
-3.927564163839687
 30
0.0
 10
-30.16250000000002
 20
-3.288331323127927
 30
0.0
 10
-30.16250000000002
 20
-2.583290786671036
 30
0.0
 10
-30.16250000000003
 20
-1.092985192939103
 30
0.0
 10
-30.16250000000003
 20
-0.3082886299263343
 30
0.0
 10
-30.16250000000003
 20
1.266005003423171
 30
0.0
 10
-30.16250000000003
 20
2.054763224293644
 30
0.0
 10
-30.16250000000003
 20
3.560545046811313
 30
0.0
 10
-30.16250000000002
 20
4.276978416997856
 30
0.0
 10
-30.16250000000002
 20
4.930276308730477
 30
0.0
  0
SPLINE
  5
24F
330
1F
100
AcDbEntity
  8
외형선
  6
Continuous
370
    15
100
AcDbSpline
210
0.0
220
0.0
230
1.0
 70
     8
 71
     3
 72
    10
 73
     6
 74
     0
 42
0.000000001
 43
0.00000001
 40
0.0
 40
0.0
 40
0.0
 40
0.0
 40
0.5
 40
0.5
 40
1.0
 40
1.0
 40
1.0
 40
1.0
 10
-30.16250000000002
 20
4.93027630873048
 30
0.0
 10
-29.65391155598356
 20
4.772179761787264
 30
0.0
 10
-29.14884737927732
 20
4.605294937583103
 30
0.0
 10
-28.13084679728373
 20
4.254163794191349
 30
0.0
 10
-27.62025526027659
 20
4.070146057472048
 30
0.0
 10
-27.11233741435153
 20
3.879229943613517
 30
0.0
  0
SPLINE
  5
250
330
1F
100
AcDbEntity
  8
외형선
  6
Continuous
370
    15
100
AcDbSpline
210
0.0
220
0.0
230
1.0
 70
     8
 71
     3
 72
     8
 73
     4
 74
     0
 42
0.000000001
 43
0.00000001
 40
0.0
 40
0.0
 40
0.0
 40
0.0
 40
1.0
 40
1.0
 40
1.0
 40
1.0
 10
-30.16250000000549
 20
-7.268417307796234
 30
0.0
 10
-29.82823204084184
 20
-7.362824821043503
 30
0.0
 10
-29.49599379678419
 20
-7.451209038383965
 30
0.0
 10
-29.16250000000003
 20
-7.533660871189582
 30
0.0
  0
LINE
  5
251
330
1F
100
AcDbEntity
  8
외형선
  6
Continuous
370
    15
100
AcDbLine
 10
-30.16250000000002
 20
-7.268417307797776
 30
0.0
 11
-30.16250000000002
 21
-5.859390102354205
 31
0.0
  0
SPLINE
  5
252
330
1F
100
AcDbEntity
  8
외형선
  6
Continuous
370
    15
100
AcDbSpline
210
0.0
220
0.0
230
1.0
 70
    24
 71
     3
 72
    12
 73
     8
 74
     0
 42
0.000000001
 43
0.00000001
 40
0.0
 40
0.0
 40
0.0
 40
0.0
 40
0.1811889210188047
 40
0.3647370349438443
 40
0.6314507071444497
 40
0.9058990939073398
 40
1.0
 40
1.0
 40
1.0
 40
1.0
 10
-30.16250000000002
 20
4.930276308730484
 30
0.0
 10
-30.16250000000003
 20
5.122192713457657
 30
0.0
 10
-30.16250000000003
 20
5.508524394355568
 30
0.0
 10
-30.16250000000002
 20
6.031133075747015
 30
0.0
 10
-30.16250000000003
 20
6.448211531792968
 30
0.0
 10
-30.16250000000003
 20
6.656940156593748
 30
0.0
 10
-30.16250000000003
 20
6.632681875339763
 30
0.0
 10
-30.16250000000003
 20
6.626488060046935
 30
0.0
  0
SPLINE
  5
253
330
1F
100
AcDbEntity
  8
외형선
  6
Continuous
370
    15
100
AcDbSpline
210
0.0
220
0.0
230
1.0
 70
     8
 71
     3
 72
     8
 73
     4
 74
     0
 42
0.000000001
 43
0.00000001
 40
0.0
 40
0.0
 40
0.0
 40
0.0
 40
1.0
 40
1.0
 40
1.0
 40
1.0
 10
-30.16250000000549
 20
7.268417307796213
 30
0.0
 10
-29.82823204084184
 20
7.362824821043482
 30
0.0
 10
-29.49599379678419
 20
7.45120903838394
 30
0.0
 10
-29.16250000000003
 20
7.533660871189561
 30
0.0
  0
SPLINE
  5
254
330
1F
100
AcDbEntity
  8
외형선
  6
Continuous
370
    15
100
AcDbSpline
210
0.0
220
0.0
230
1.0
 70
    24
 71
     3
 72
    10
 73
     6
 74
     0
 42
0.000000001
 43
0.00000001
 40
0.0
 40
0.0
 40
0.0
 40
0.0
 40
0.1008977133264738
 40
0.7686465082921463
 40
1.0
 40
1.0
 40
1.0
 40
1.0
 10
-30.16250000000003
 20
6.715185089768372
 30
0.0
 10
-30.16250000000003
 20
6.735401192421378
 30
0.0
 10
-30.16250000000003
 20
6.889409010866448
 30
0.0
 10
-30.16250000000003
 20
7.071000978055377
 30
0.0
 10
-30.16250000000003
 20
7.228015057584063
 30
0.0
 10
-30.16250000000003
 20
7.268417307789271
 30
0.0
  0
SPLINE
  5
255
330
1F
100
AcDbEntity
  8
0
  6
Continuous
 62
     1
370
    15
100
AcDbSpline
210
0.0
220
0.0
230
1.0
 70
     8
 71
     3
 72
    50
 73
    46
 74
     0
 42
0.000000001
 43
0.00000001
 40
0.0
 40
0.0
 40
0.0
 40
0.0
 40
0.0625000000000009
 40
0.0625000000000009
 40
0.0937500000000012
 40
0.0937500000000012
 40
0.1250000000000012
 40
0.1250000000000012
 40
0.1562500000000012
 40
0.1562500000000012
 40
0.1875000000000012
 40
0.1875000000000012
 40
0.2500000000000016
 40
0.2500000000000016
 40
0.3125000000000018
 40
0.3125000000000018
 40
0.3750000000000021
 40
0.3750000000000021
 40
0.4062500000000021
 40
0.4062500000000021
 40
0.4375000000000022
 40
0.4375000000000022
 40
0.500000000000002
 40
0.500000000000002
 40
0.5312500000000019
 40
0.5312500000000019
 40
0.5625000000000018
 40
0.5625000000000018
 40
0.6250000000000016
 40
0.6250000000000016
 40
0.6562500000000013
 40
0.6562500000000013
 40
0.6875000000000011
 40
0.6875000000000011
 40
0.750000000000001
 40
0.750000000000001
 40
0.7812500000000009
 40
0.7812500000000009
 40
0.8125000000000008
 40
0.8125000000000008
 40
0.8750000000000006
 40
0.8750000000000006
 40
0.9375000000000002
 40
0.9375000000000002
 40
1.0
 40
1.0
 40
1.0
 40
1.0
 10
-63.50000000000003
 20
7.908829057004599
 30
0.0
 10
-62.80884002652884
 20
7.782543866687977
 30
0.0
 10
-62.11030258196583
 20
7.628297702636363
 30
0.0
 10
-61.06770185751961
 20
7.3583580821673
 30
0.0
 10
-60.72223311058968
 20
7.262098017200728
 30
0.0
 10
-60.02922862214662
 20
7.056982931241503
 30
0.0
 10
-59.6812594330795
 20
6.948067241139498
 30
0.0
 10
-58.98509704378735
 20
6.718314105286439
 30
0.0
 10
-58.63690620484225
 20
6.59747742580274
 30
0.0
 10
-57.94302086419466
 20
6.344864954493595
 30
0.0
 10
-57.59799214783027
 20
6.213189449293498
 30
0.0
 10
-56.55634579670544
 20
5.801513079496655
 30
0.0
 10
-55.8575582373753
 20
5.505290812633337
 30
0.0
 10
-54.47299094255054
 20
4.878633825965725
 30
0.0
 10
-53.77694564678831
 20
4.546696407399477
 30
0.0
 10
-52.38582468446356
 20
3.853684239988578
 30
0.0
 10
-51.69553593292957
 20
3.493481352460631
 30
0.0
 10
-50.65150785403681
 20
2.935393699355792
 30
0.0
 10
-50.30316727494173
 20
2.746588957471694
 30
0.0
 10
-49.60854318888988
 20
2.364912819704497
 30
0.0
 10
-49.26344254261095
 20
2.172265816179845
 30
0.0
 10
-48.22296428595588
 20
1.588223150485206
 30
0.0
 10
-47.52407208050558
 20
1.190992814830267
 30
0.0
 10
-46.48417261492051
 20
0.5926123545161168
 30
0.0
 10
-46.13887921155501
 20
0.392723110125317
 30
0.0
 10
-45.4439764142065
 20
-0.0082191605833266
 30
0.0
 10
-45.09559291950943
 20
-0.209036499422151
 30
0.0
 10
-44.05172708477158
 20
-0.810173937515593
 30
0.0
 10
-43.36153517406093
 20
-1.208413464186954
 30
0.0
 10
-42.31793795703386
 20
-1.799001733977345
 30
0.0
 10
-41.96951965083184
 20
-1.994574356450311
 30
0.0
 10
-41.27429943265028
 20
-2.381614045125108
 30
0.0
 10
-40.92861494518401
 20
-2.572877934290585
 30
0.0
 10
-39.8895177036173
 20
-3.139868848920894
 30
0.0
 10
-39.19066639367787
 20
-3.509345985295102
 30
0.0
 10
-38.14950545798924
 20
-4.04213624635781
 30
0.0
 10
-37.80450825080145
 20
-4.216036889175985
 30
0.0
 10
-37.11028178461356
 20
-4.556934706000856
 30
0.0
 10
-36.76201649499042
 20
-4.723760639059833
 30
0.0
 10
-35.71784079251104
 20
-5.211382812954319
 30
0.0
 10
-35.02730359348202
 20
-5.51862995591631
 30
0.0
 10
-33.63670186737862
 20
-6.094150633324503
 30
0.0
 10
-32.93930991414652
 20
-6.361932981519104
 30
0.0
 10
-31.55597091295551
 20
-6.850215683222977
 30
0.0
 10
-30.85730601163432
 20
-7.072182802068447
 30
0.0
 10
-30.1625000000031
 20
-7.268417307796909
 30
0.0
1001
PE_URL
1000

  0
SPLINE
  5
256
330
1F
100
AcDbEntity
  8
0
  6
Continuous
 62
     1
370
    15
100
AcDbSpline
210
0.0
220
0.0
230
1.0
 70
     8
 71
     3
 72
    15
 73
    11
 74
     0
 42
0.000000001
 43
0.00000001
 40
0.0
 40
0.0
 40
0.0
 40
0.0
 40
0.140030878264703
 40
0.2800755410227172
 40
0.420131772390284
 40
0.5601973459284695
 40
0.7002700266606571
 40
0.8403475731067379
 40
0.9804277393300456
 40
1.0
 40
1.0
 40
1.0
 40
1.0
 10
-63.50000000000003
 20
6.575590715843834
 30
0.0
 10
-62.48952179280263
 20
6.363030397244547
 30
0.0
 10
-60.46846590798918
 20
5.937888835830357
 30
0.0
 10
-57.43669080425265
 20
4.961804088749684
 30
0.0
 10
-54.40463183169953
 20
3.7881325324716
 30
0.0
 10
-51.37233965932327
 20
2.443101541256244
 30
0.0
 10
-48.33987104286962
 20
0.9893089379675679
 30
0.0
 10
-45.30728154268446
 20
-0.4978563794668069
 30
0.0
 10
-43.14427605201868
 20
-1.570933238659666
 30
0.0
 10
-41.99214227724406
 20
-2.091680046500169
 30
0.0
 10
-41.85089880850792
 20
-2.155519929578897
 30
0.0
1001
PE_URL
1000

  0
LINE
  5
257
330
1F
100
AcDbEntity
  8
0
  6
Continuous
 62
     1
370
    15
100
AcDbLine
 10
-63.50000000000003
 20
7.908829057004606
 30
0.0
 11
-63.50000000000003
 21
6.575590715843834
 31
0.0
1001
PE_URL
1000

  0
SPLINE
  5
258
330
1F
100
AcDbEntity
  8
0
  6
Continuous
 62
     1
370
    15
100
AcDbSpline
210
0.0
220
0.0
230
1.0
 70
     8
 71
     3
 72
    50
 73
    46
 74
     0
 42
0.000000001
 43
0.00000001
 40
0.0
 40
0.0
 40
0.0
 40
0.0
 40
0.0625000000000002
 40
0.0625000000000002
 40
0.1250000000000003
 40
0.1250000000000003
 40
0.1875000000000006
 40
0.1875000000000006
 40
0.2187500000000006
 40
0.2187500000000006
 40
0.2500000000000006
 40
0.2500000000000006
 40
0.3125000000000009
 40
0.3125000000000009
 40
0.3437500000000009
 40
0.3437500000000009
 40
0.3750000000000009
 40
0.3750000000000009
 40
0.4375000000000011
 40
0.4375000000000011
 40
0.4687500000000011
 40
0.4687500000000011
 40
0.5000000000000011
 40
0.5000000000000011
 40
0.5625000000000011
 40
0.5625000000000011
 40
0.5937500000000009
 40
0.5937500000000009
 40
0.6250000000000008
 40
0.6250000000000008
 40
0.6875000000000006
 40
0.6875000000000006
 40
0.7500000000000003
 40
0.7500000000000003
 40
0.8125000000000001
 40
0.8125000000000001
 40
0.8437499999999999
 40
0.8437499999999999
 40
0.8749999999999997
 40
0.8749999999999997
 40
0.9062499999999997
 40
0.9062499999999997
 40
0.9375
 40
0.9375
 40
1.0
 40
1.0
 40
1.0
 40
1.0
 10
-30.16250000000002
 20
-5.859390102354212
 30
0.0
 10
-30.8573060116313
 20
-5.574196806954561
 30
0.0
 10
-31.55597091295255
 20
-5.268027268721426
 30
0.0
 10
-32.93930991414372
 20
-4.623421912268594
 30
0.0
 10
-33.63670186737586
 20
-4.283037016907514
 30
0.0
 10
-35.0273035934794
 20
-3.575540044381448
 30
0.0
 10
-35.71784079250847
 20
-3.208967252495036
 30
0.0
 10
-36.76201649498795
 20
-2.642847291077125
 30
0.0
 10
-37.11028178461113
 20
-2.451638879307705
 30
0.0
 10
-37.80450825079907
 20
-2.065723514936884
 30
0.0
 10
-38.1495054579869
 20
-1.871202099110711
 30
0.0
 10
-39.19066639367561
 20
-1.282125405470598
 30
0.0
 10
-39.88951770361511
 20
-0.8826784900152838
 30
0.0
 10
-40.92861494518195
 20
-0.2827405773665674
 30
0.0
 10
-41.27429943264823
 20
-0.0824739981092755
 30
0.0
 10
-41.96951965082987
 20
0.3185957737664573
 30
0.0
 10
-42.3179379570319
 20
0.5191831630667387
 30
0.0
 10
-43.36153517405909
 20
1.118751720940555
 30
0.0
 10
-44.05172708476979
 20
1.51490872473715
 30
0.0
 10
-45.09559291950772
 20
2.100830855937364
 30
0.0
 10
-45.44397641420485
 20
2.294559681330629
 30
0.0
 10
-46.13887921155342
 20
2.677352599111323
 30
0.0
 10
-46.48417261491896
 20
2.866197888343674
 30
0.0
 10
-47.5240720805041
 20
3.425527454443674
 30
0.0
 10
-48.22296428595446
 20
3.78877384056992
 30
0.0
 10
-49.26344254260962
 20
4.310701722878964
 30
0.0
 10
-49.6085431888886
 20
4.480809409841477
 30
0.0
 10
-50.30316727494051
 20
4.813679693589478
 30
0.0
 10
-50.65150785403561
 20
4.976239475238401
 30
0.0
 10
-51.69553593292848
 20
5.450362879877641
 30
0.0
 10
-52.38582468446253
 20
5.747757070917988
 30
0.0
 10
-53.77694564678741
 20
6.302140601681973
 30
0.0
 10
-54.47299094254974
 20
6.558387480527578
 30
0.0
 10
-55.8575582373746
 20
7.022844453863208
 30
0.0
 10
-56.5563457967048
 20
7.2321467190209
 30
0.0
 10
-57.59799214782973
 20
7.506716290474397
 30
0.0
 10
-57.94302086419414
 20
7.59162564071789
 30
0.0
 10
-58.63690620484181
 20
7.748454449522956
 30
0.0
 10
-58.98509704378694
 20
7.820300573502081
 30
0.0
 10
-59.68125943307916
 20
7.9502511908291
 30
0.0
 10
-60.02922862214631
 20
8.008355258461396
 30
0.0
 10
-60.72223311058944
 20
8.110430470870195
 30
0.0
 10
-61.06770185751938
 20
8.154442927998343
 30
0.0
 10
-62.1103025819657
 20
8.265391565820597
 30
0.0
 10
-62.80884002652881
 20
8.310875248534622
 30
0.0
 10
-63.50000000000004
 20
8.327330913179548
 30
0.0
1001
PE_URL
1000

  0
SPLINE
  5
259
330
1F
100
AcDbEntity
  8
0
  6
Continuous
 62
     1
370
    15
100
AcDbSpline
210
0.0
220
0.0
230
1.0
 70
     8
 71
     3
 72
    12
 73
     8
 74
     0
 42
0.000000001
 43
0.00000001
 40
0.0
 40
0.0
 40
0.0
 40
0.0
 40
0.0403409235853589
 40
0.2806210265579758
 40
0.5208977786592865
 40
0.7604539853820848
 40
1.0
 40
1.0
 40
1.0
 40
1.0
 10
-42.78384267379379
 20
0.7860633129525709
 30
0.0
 10
-42.61412309003856
 20
0.7191803691297061
 30
0.0
 10
-41.43351343642949
 20
0.2539267584859566
 30
0.0
 10
-39.24202636136329
 20
-0.6461615123431805
 30
0.0
 10
-36.21241660051753
 20
-1.842963441410838
 30
0.0
 10
-33.18591347540102
 20
-2.974332064889744
 30
0.0
 10
-31.17029019878666
 20
-3.609824637206415
 30
0.0
 10
-30.16250000000002
 20
-3.927564163839687
 30
0.0
1001
PE_URL
1000

  0
SPLINE
  5
25A
330
1F
100
AcDbEntity
  8
외형선
  6
Continuous
370
    15
100
AcDbSpline
210
0.0
220
0.0
230
1.0
 70
    24
 71
     3
 72
    10
 73
     6
 74
     0
 42
0.000000001
 43
0.00000001
 40
0.0
 40
0.0
 40
0.0
 40
0.0
 40
0.5
 40
0.5
 40
1.0
 40
1.0
 40
1.0
 40
1.0
 10
-30.16250000000003
 20
-5.859390102354205
 30
0.0
 10
-30.16250000000003
 20
-5.657366848712158
 30
0.0
 10
-30.16250000000002
 20
-5.373798737777776
 30
0.0
 10
-30.16250000000003
 20
-4.702326711790839
 30
0.0
 10
-30.16250000000002
 20
-4.316622403104581
 30
0.0
 10
-30.16250000000002
 20
-3.927564163839687
 30
0.0
  0
LINE
  5
25B
330
1F
100
AcDbEntity
  8
0
  6
Continuous
 62
     1
370
    15
100
AcDbLine
 10
-63.50000000000003
 20
8.327330913179551
 30
0.0
 11
-63.50000000000003
 21
7.908829057004606
 31
0.0
1001
PE_URL
1000

  0
SPLINE
  5
25C
330
1F
100
AcDbEntity
  8
0
  6
Continuous
 62
     1
370
    15
100
AcDbSpline
210
0.0
220
0.0
230
1.0
 70
     8
 71
     3
 72
    12
 73
     8
 74
     0
 42
0.000000001
 43
0.00000001
 40
0.0
 40
0.0
 40
0.0
 40
0.0
 40
0.4999999999999989
 40
0.4999999999999989
 40
0.7499999999999994
 40
0.7499999999999994
 40
1.0
 40
1.0
 40
1.0
 40
1.0
 10
-63.50000000000003
 20
2.227302928315805
 30
0.0
 10
-62.63616407832509
 20
1.548184450597713
 30
0.0
 10
-61.78631506509758
 20
0.8420830671044257
 30
0.0
 10
-60.53295834617713
 20
-0.2583853235618783
 30
0.0
 10
-60.11879406479213
 20
-0.632194151000828
 30
0.0
 10
-59.29852576316298
 20
-1.395361294009408
 30
0.0
 10
-58.89300065540692
 20
-1.784314580267694
 30
0.0
 10
-58.50000000000004
 20
-2.174668870913322
 30
0.0
1001
PE_URL
1000

  0
LINE
  5
25D
330
1F
100
AcDbEntity
  8
0
  6
Continuous
 62
     1
370
    15
100
AcDbLine
 10
-58.50000000000003
 20
-2.937719435296604
 30
0.0
 11
-63.50000000000003
 21
-0.0000000000000178
 31
0.0
1001
PE_URL
1000

  0
LINE
  5
25E
330
1F
100
AcDbEntity
  8
0
  6
Continuous
 62
     1
370
    15
100
AcDbLine
 10
-63.50000000000003
 20
-0.0000000000000178
 30
0.0
 11
-63.50000000000003
 21
2.227302928315805
 31
0.0
1001
PE_URL
1000

  0
SPLINE
  5
25F
330
1F
100
AcDbEntity
  8
0
  6
Continuous
 62
     1
370
    15
100
AcDbSpline
210
0.0
220
0.0
230
1.0
 70
     8
 71
     3
 72
    15
 73
    11
 74
     0
 42
0.000000001
 43
0.00000001
 40
0.0
 40
0.0
 40
0.0
 40
0.0
 40
0.1058475044177025
 40
0.2117028095530486
 40
0.368415520133745
 40
0.5251362936415223
 40
0.6818625873783054
 40
0.8385918535761172
 40
0.995321541735421
 40
1.0
 40
1.0
 40
1.0
 40
1.0
 10
-58.50000000000001
 20
-2.263123875998108
 30
0.0
 10
-57.81747273830011
 20
-2.555387930229816
 30
0.0
 10
-56.45236791421084
 20
-3.139937577881877
 30
0.0
 10
-54.07691378043474
 20
-4.06990564695548
 30
0.0
 10
-51.37229756665727
 20
-5.003021847184129
 30
0.0
 10
-48.33992100317668
 20
-5.825430706851513
 30
0.0
 10
-45.30731525894089
 20
-6.401216446124174
 30
0.0
 10
-42.27467435453666
 20
-6.661674739738494
 30
0.0
 10
-40.22271592648772
 20
-6.725129053653951
 30
0.0
 10
-39.18165143628299
 20
-6.621592776750013
 30
0.0
 10
-39.15147590378312
 20
-6.61859175009122
 30
0.0
1001
PE_URL
1000

  0
SPLINE
  5
260
330
1F
100
AcDbEntity
  8
0
  6
Continuous
 62
     1
370
    15
100
AcDbSpline
210
0.0
220
0.0
230
1.0
 70
    24
 71
     3
 72
     8
 73
     4
 74
     0
 42
0.000000001
 43
0.00000001
 40
0.0
 40
0.0
 40
0.0
 40
0.0
 40
1.0
 40
1.0
 40
1.0
 40
1.0
 10
-58.50000000000003
 20
-2.174668870913326
 30
0.0
 10
-58.50000000000003
 20
-2.204218856359986
 30
0.0
 10
-58.50000000000003
 20
-2.233704473821472
 30
0.0
 10
-58.50000000000003
 20
-2.263123875998108
 30
0.0
1001
PE_URL
1000

  0
SPLINE
  5
261
330
1F
100
AcDbEntity
  8
0
  6
Continuous
 62
     1
370
    15
100
AcDbSpline
210
0.0
220
0.0
230
1.0
 70
    24
 71
     3
 72
    10
 73
     6
 74
     0
 42
0.000000001
 43
0.00000001
 40
0.0
 40
0.0
 40
0.0
 40
0.0
 40
0.5
 40
0.5
 40
1.0
 40
1.0
 40
1.0
 40
1.0
 10
-63.50000000000003
 20
6.575590715843834
 30
0.0
 10
-63.50000000000004
 20
6.07152042022857
 30
0.0
 10
-63.50000000000004
 20
5.434608273682958
 30
0.0
 10
-63.50000000000003
 20
3.953848828921434
 30
0.0
 10
-63.50000000000003
 20
3.111284220680744
 30
0.0
 10
-63.50000000000003
 20
2.227302928316071
 30
0.0
1001
PE_URL
1000

  0
SPLINE
  5
262
330
1F
100
AcDbEntity
  8
0
  6
Continuous
 62
     1
370
    15
100
AcDbSpline
210
0.0
220
0.0
230
1.0
 70
    24
 71
     3
 72
    11
 73
     7
 74
     0
 42
0.000000001
 43
0.00000001
 40
0.0
 40
0.0
 40
0.0
 40
0.0
 40
0.2127341314949389
 40
0.4716051872477442
 40
0.7350225141806627
 40
1.0
 40
1.0
 40
1.0
 40
1.0
 10
-58.50000000000003
 20
-2.351733643233189
 30
0.0
 10
-58.50000000000003
 20
-2.494253523277376
 30
0.0
 10
-58.50000000000003
 20
-2.810202422696758
 30
0.0
 10
-58.50000000000004
 20
-3.259125378310571
 30
0.0
 10
-58.50000000000001
 20
-3.707147467185106
 30
0.0
 10
-58.50000000000003
 20
-3.970368078080195
 30
0.0
 10
-58.50000000000003
 20
-4.102366981187355
 30
0.0
1001
PE_URL
1000

  0
SPLINE
  5
263
330
1F
100
AcDbEntity
  8
0
  6
Continuous
 62
     1
370
    15
100
AcDbSpline
210
0.0
220
0.0
230
1.0
 70
     8
 71
     3
 72
     9
 73
     5
 74
     0
 42
0.000000001
 43
0.00000001
 40
0.0
 40
0.0
 40
0.0
 40
0.0
 40
0.9787726683725666
 40
1.0
 40
1.0
 40
1.0
 40
1.0
 10
-63.50000000000003
 20
-5.834062500000009
 30
0.0
 10
-62.48952638254579
 20
-5.8322328204314
 30
0.0
 10
-61.45713791267323
 20
-5.830363459314427
 30
0.0
 10
-60.42473308191103
 20
-5.700393152273143
 30
0.0
 10
-60.40281788219468
 20
-5.697634229463851
 30
0.0
1001
PE_URL
1000

  0
SPLINE
  5
264
330
1F
100
AcDbEntity
  8
0
  6
Continuous
 62
     1
370
    15
100
AcDbSpline
210
0.0
220
0.0
230
1.0
 70
     8
 71
     3
 72
    10
 73
     6
 74
     0
 42
0.000000001
 43
0.00000001
 40
0.0
 40
0.0
 40
0.0
 40
0.0
 40
0.5
 40
0.5
 40
1.0
 40
1.0
 40
1.0
 40
1.0
 10
-63.50000000000003
 20
-5.834062500000009
 30
0.0
 10
-62.65518733453105
 20
-5.604970395799768
 30
0.0
 10
-61.81537718442297
 20
-5.348067674513036
 30
0.0
 10
-60.1466080176948
 20
-4.774090304988146
 30
0.0
 10
-59.31882322414474
 20
-4.457991994527966
 30
0.0
 10
-58.50000000000003
 20
-4.102366981187355
 30
0.0
1001
PE_URL
1000

  0
SPLINE
  5
265
330
1F
100
AcDbEntity
  8
0
  6
Continuous
 62
     1
370
    15
100
AcDbSpline
210
0.0
220
0.0
230
1.0
 70
     8
 71
     3
 72
    13
 73
     9
 74
     0
 42
0.000000001
 43
0.00000001
 40
0.0
 40
0.0
 40
0.0
 40
0.0
 40
0.0348297581624239
 40
0.2280984718467059
 40
0.4213677058674682
 40
0.6146343146301644
 40
0.8073211493679895
 40
1.0
 40
1.0
 40
1.0
 40
1.0
 10
-45.85386561871459
 20
6.246953041344852
 30
0.0
 10
-45.67168983462126
 20
6.281981212106174
 30
0.0
 10
-44.47862906844023
 20
6.511379078866629
 30
0.0
 10
-42.27467170251506
 20
6.667359489465387
 30
0.0
 10
-39.24201597925133
 20
6.681203172642181
 30
0.0
 10
-36.2124053002337
 20
6.373025754794082
 30
0.0
 10
-33.18590598377173
 20
5.807960241742283
 30
0.0
 10
-31.17028807455975
 20
5.222833578799296
 30
0.0
 10
-30.16250000000002
 20
4.930276308730477
 30
0.0
1001
PE_URL
1000

  0
SPLINE
  5
266
330
1F
100
AcDbEntity
  8
외형선
  6
Continuous
370
    15
100
AcDbSpline
210
0.0
220
0.0
230
1.0
 70
    24
 71
     3
 72
    14
 73
    10
 74
     0
 42
0.000000001
 43
0.00000001
 40
0.0
 40
0.0
 40
0.0
 40
0.0
 40
0.25
 40
0.25
 40
0.5
 40
0.5
 40
0.75
 40
0.75
 40
1.0
 40
1.0
 40
1.0
 40
1.0
 10
-30.16250000000002
 20
-3.927564163839687
 30
0.0
 10
-30.16250000000002
 20
-3.288331323127927
 30
0.0
 10
-30.16250000000002
 20
-2.583290786671036
 30
0.0
 10
-30.16250000000003
 20
-1.092985192939103
 30
0.0
 10
-30.16250000000003
 20
-0.3082886299263343
 30
0.0
 10
-30.16250000000003
 20
1.266005003423171
 30
0.0
 10
-30.16250000000003
 20
2.054763224293644
 30
0.0
 10
-30.16250000000003
 20
3.560545046811313
 30
0.0
 10
-30.16250000000002
 20
4.276978416997856
 30
0.0
 10
-30.16250000000002
 20
4.930276308730477
 30
0.0
  0
SPLINE
  5
267
330
1F
100
AcDbEntity
  8
외형선
  6
Continuous
370
    15
100
AcDbSpline
210
0.0
220
0.0
230
1.0
 70
    24
 71
     3
 72
    12
 73
     8
 74
     0
 42
0.000000001
 43
0.00000001
 40
0.0
 40
0.0
 40
0.0
 40
0.0
 40
0.1813524662366649
 40
0.3650662548404376
 40
0.6320206688335381
 40
0.9067167789172158
 40
1.0
 40
1.0
 40
1.0
 40
1.0
 10
-30.16250000000003
 20
4.930276308730484
 30
0.0
 10
-30.16250000000003
 20
5.122192022800114
 30
0.0
 10
-30.16250000000002
 20
5.508522313390138
 30
0.0
 10
-30.16250000000002
 20
6.03114312364951
 30
0.0
 10
-30.16250000000002
 20
6.448153651500075
 30
0.0
 10
-30.16250000000002
 20
6.656802331657602
 30
0.0
 10
-30.16250000000003
 20
6.632688267885271
 30
0.0
 10
-30.16250000000003
 20
6.626575322533292
 30
0.0
  0
LINE
  5
268
330
1F
100
AcDbEntity
  8
0
  6
Continuous
 62
     1
370
    15
100
AcDbLine
 10
-63.50000000000003
 20
-0.0000000000000178
 30
0.0
 11
-63.50000000000003
 21
-5.834062500000016
 31
0.0
1001
PE_URL
1000

  0
SPLINE
  5
269
330
1F
100
AcDbEntity
  8
0
  6
Continuous
 62
     1
370
    15
100
AcDbSpline
210
0.0
220
0.0
230
1.0
 70
    24
 71
     3
 72
    10
 73
     6
 74
     0
 42
0.000000001
 43
0.00000001
 40
0.0
 40
0.0
 40
0.0
 40
0.0
 40
0.5
 40
0.5
 40
1.0
 40
1.0
 40
1.0
 40
1.0
 10
-63.50000000000003
 20
-5.834062500000009
 30
0.0
 10
-63.50000000000004
 20
-6.187708840328462
 30
0.0
 10
-63.50000000000004
 20
-6.598678638964387
 30
0.0
 10
-63.50000000000003
 20
-7.460892169633141
 30
0.0
 10
-63.50000000000003
 20
-7.909933916507903
 30
0.0
 10
-63.50000000000003
 20
-8.327330913179573
 30
0.0
1001
PE_URL
1000

  0
SPLINE
  5
26A
330
1F
100
AcDbEntity
  8
0
  6
Continuous
 62
     1
370
    15
100
AcDbSpline
210
0.0
220
0.0
230
1.0
 70
     8
 71
     3
 72
    16
 73
    12
 74
     0
 42
0.000000001
 43
0.00000001
 40
0.0
 40
0.0
 40
0.0
 40
0.0
 40
0.0201350169239044
 40
0.1251497304542417
 40
0.2305289542350761
 40
0.3253924356428985
 40
0.5155241787885211
 40
0.6108274235825053
 40
0.7078944615853011
 40
0.9024619563295023
 40
0.9999999999999999
 40
0.9999999999999999
 40
0.9999999999999999
 40
0.9999999999999999
 10
-52.03972780799002
 20
-5.587578440949081
 30
0.0
 10
-52.11666310824013
 20
-5.62266054184262
 30
0.0
 10
-52.59485650261898
 20
-5.840714268203435
 30
0.0
 10
-53.47520327801381
 20
-6.182549884800103
 30
0.0
 10
-54.64185332630167
 20
-6.618282816521784
 30
0.0
 10
-56.13191900734316
 20
-7.114242860558939
 30
0.0
 10
-57.58572117891573
 20
-7.518499492914863
 30
0.0
 10
-59.0464774240853
 20
-7.838022524902563
 30
0.0
 10
-60.52507860396223
 20
-8.098581339128273
 30
0.0
 10
-62.01184996150744
 20
-8.271945694391746
 30
0.0
 10
-63.1274768785717
 20
-8.313466535226972
 30
0.0
 10
-63.49999999999953
 20
-8.327330913179551
 30
0.0
1001
PE_URL
1000

  0
LINE
  5
26B
330
1F
100
AcDbEntity
  8
0
  6
Continuous
 62
     1
370
    15
100
AcDbLine
 10
-32.32565007600634
 20
6.55121944916641
 30
0.0
 11
-30.1625000000031
 21
7.268417307796888
 31
0.0
1001
PE_URL
1000

  0
SPLINE
  5
26C
330
1F
100
AcDbEntity
  8
외형선
  6
Continuous
370
    15
100
AcDbSpline
210
0.0
220
0.0
230
1.0
 70
    24
 71
     3
 72
    11
 73
     7
 74
     0
 42
0.000000001
 43
0.00000001
 40
0.0
 40
0.0
 40
0.0
 40
0.0
 40
0.1024915102722707
 40
0.4355924479691868
 40
0.7690815849278394
 40
0.9999999999999999
 40
0.9999999999999999
 40
0.9999999999999999
 40
0.9999999999999999
 10
-30.16250000000002
 20
6.715185089768372
 30
0.0
 10
-30.16250000000002
 20
6.735394395460592
 30
0.0
 10
-30.16250000000002
 20
6.821284640563277
 30
0.0
 10
-30.16250000000002
 20
6.965654260660898
 30
0.0
 10
-30.16250000000002
 20
7.129694685604949
 30
0.0
 10
-30.16250000000002
 20
7.228139975758804
 30
0.0
 10
-30.16250000000002
 20
7.268417307789271
 30
0.0
  0
LINE
  5
296
330
1F
100
AcDbEntity
  8
외형선
  6
Continuous
370
    15
100
AcDbLine
 10
-5.791200000000007
 20
7.619999999999976
 30
0.0
 11
5.7912
 21
7.619999999999976
 31
0.0
1001
PE_URL
1000

  0
LINE
  5
297
330
1F
100
AcDbEntity
  8
외형선
  6
Continuous
370
    15
100
AcDbLine
 10
-5.791200000000007
 20
7.619999999999962
 30
0.0
 11
-7.69620000000015
 21
9.524999999999991
 31
0.0
1001
PE_URL
1000

  0
LINE
  5
298
330
1F
100
AcDbEntity
  8
외형선
  6
Continuous
370
    15
100
AcDbLine
 10
5.7912
 20
7.619999999999962
 30
0.0
 11
7.696199999999973
 21
9.524999999999991
 31
0.0
1001
PE_URL
1000

  0
LINE
  5
299
330
1F
100
AcDbEntity
  8
외형선
  6
Continuous
370
    15
100
AcDbLine
 10
-7.69620000000015
 20
9.524999999999991
 30
0.0
 11
-24.71902700723834
 21
9.52499999999999
 31
0.0
  0
ENDSEC
  0
SECTION
  2
OBJECTS
  0
DICTIONARY
  5
C
330
0
100
AcDbDictionary
281
     1
  3
ACAD_DETAILVIEWSTYLE
350
206
  3
ACAD_GROUP
350
D
  3
ACAD_LAYOUT
350
1A
  3
ACAD_MLINESTYLE
350
17
  3
ACAD_PLOTSETTINGS
350
19
  3
ACAD_PLOTSTYLENAME
350
E
  3
ACAD_SCALELIST
350
47
  3
ACAD_SECTIONVIEWSTYLE
350
207
  3
AcDbVariableDictionary
350
201
  3
APPDATA
350
157
  3
DWGPROPS
350
2BC
  0
DICTIONARY
  5
18D
330
2
100
AcDbDictionary
280
     1
281
     1
  3
ACAD_LAYERSTATES
360
18E
  0
DICTIONARY
  5
206
102
{ACAD_REACTORS
330
C
102
}
330
C
100
AcDbDictionary
281
     1
  0
DICTIONARY
  5
D
102
{ACAD_REACTORS
330
C
102
}
330
C
100
AcDbDictionary
281
     1
  0
DICTIONARY
  5
1A
102
{ACAD_REACTORS
330
C
102
}
330
C
100
AcDbDictionary
281
     1
  3
Layout1
350
1E
  3
Layout2
350
26
  3
Model
350
22
  0
DICTIONARY
  5
17
102
{ACAD_REACTORS
330
C
102
}
330
C
100
AcDbDictionary
281
     1
  3
Standard
350
18
  0
DICTIONARY
  5
19
102
{ACAD_REACTORS
330
C
102
}
330
C
100
AcDbDictionary
281
     1
  0
ACDBDICTIONARYWDFLT
  5
E
102
{ACAD_REACTORS
330
C
102
}
330
C
100
AcDbDictionary
281
     1
  3
Normal
350
F
100
AcDbDictionaryWithDefault
340
F
  0
DICTIONARY
  5
47
102
{ACAD_REACTORS
330
C
102
}
330
C
100
AcDbDictionary
281
     1
  3
A0
350
48
  3
A1
350
49
  3
A2
350
4A
  3
A3
350
4B
  3
A4
350
4C
  3
A5
350
4D
  3
A6
350
4E
  3
A7
350
4F
  3
A8
350
50
  3
A9
350
51
  3
B0
350
52
  3
B1
350
53
  3
B2
350
54
  3
B3
350
55
  3
B4
350
56
  3
B5
350
57
  3
B6
350
58
  3
B7
350
59
  3
B8
350
5A
  3
B9
350
5B
  3
C0
350
5C
  3
C1
350
5D
  3
C2
350
5E
  3
C3
350
5F
  3
C4
350
60
  3
C5
350
61
  3
C6
350
62
  3
C7
350
63
  3
C8
350
64
  3
C9
350
65
  3
D0
350
66
  3
D1
350
67
  3
D2
350
68
  0
DICTIONARY
  5
207
102
{ACAD_REACTORS
330
C
102
}
330
C
100
AcDbDictionary
281
     1
  0
DICTIONARY
  5
201
102
{ACAD_REACTORS
330
C
102
}
330
C
100
AcDbDictionary
281
     1
  0
DICTIONARY
  5
157
102
{ACAD_REACTORS
330
C
102
}
330
C
100
AcDbDictionary
281
     1
  0
XRECORD
  5
2BC
102
{ACAD_REACTORS
330
C
102
}
330
C
100
AcDbXrecord
280
     1
  1
DWGPROPS COOKIE
  2

  3

  4

  6

  7

  8
120170442
  9

300
=
301
=
302
=
303
=
304
=
305
=
306
=
307
=
308
=
309
=
 40
0.0
 41
2458313.024912095
 42
2458324.090284595
  1

 90
        0
  0
DICTIONARY
  5
18E
102
{ACAD_REACTORS
330
18D
102
}
330
18D
100
AcDbDictionary
281
     1
  0
LAYOUT
  5
1E
102
{ACAD_REACTORS
330
1A
102
}
330
1A
100
AcDbPlotSettings
  1

  2
none_device
  4

  6

 40
0.0
 41
0.0
 42
0.0
 43
0.0
 44
0.0
 45
0.0
 46
0.0
 47
0.0
 48
0.0
 49
0.0
140
0.0
141
0.0
142
1.0
143
1.0
 70
   688
 72
     1
 73
     0
 74
     5
  7

 75
    16
147
1.0
148
0.0
149
0.0
100
AcDbLayout
  1
Layout1
 70
     1
 71
     1
 10
0.0
 20
0.0
 11
420.0
 21
297.0
 12
0.0
 22
0.0
 32
0.0
 14
1.000000000000000E+20
 24
1.000000000000000E+20
 34
1.000000000000000E+20
 15
-1.000000000000000E+20
 25
-1.000000000000000E+20
 35
-1.000000000000000E+20
146
0.0
 13
0.0
 23
0.0
 33
0.0
 16
1.0
 26
0.0
 36
0.0
 17
0.0
 27
1.0
 37
0.0
 76
     0
330
1B
  0
LAYOUT
  5
26
102
{ACAD_REACTORS
330
1A
102
}
330
1A
100
AcDbPlotSettings
  1

  2
none_device
  4

  6

 40
0.0
 41
0.0
 42
0.0
 43
0.0
 44
0.0
 45
0.0
 46
0.0
 47
0.0
 48
0.0
 49
0.0
140
0.0
141
0.0
142
1.0
143
1.0
 70
   688
 72
     1
 73
     0
 74
     5
  7

 75
    16
147
1.0
148
0.0
149
0.0
100
AcDbLayout
  1
Layout2
 70
     1
 71
     2
 10
0.0
 20
0.0
 11
0.0
 21
0.0
 12
0.0
 22
0.0
 32
0.0
 14
0.0
 24
0.0
 34
0.0
 15
0.0
 25
0.0
 35
0.0
146
0.0
 13
0.0
 23
0.0
 33
0.0
 16
1.0
 26
0.0
 36
0.0
 17
0.0
 27
1.0
 37
0.0
 76
     0
330
23
  0
LAYOUT
  5
22
102
{ACAD_REACTORS
330
1A
102
}
330
1A
100
AcDbPlotSettings
  1

  2
none_device
  4
ANSI_A_(11.00_x_8.50_Inches)
  6

 40
6.35
 41
19.05
 42
6.35000508
 43
19.05000254
 44
279.4
 45
215.9
 46
56.71148299683747
 47
39.75651855707364
 48
0.0
 49
0.0
140
0.0
141
0.0
142
0.0228000086557032
143
1.0
 70
  1696
 72
     0
 73
     0
 74
     0
  7

 75
     0
147
0.0235690232323232
148
0.0
149
0.0
100
AcDbLayout
  1
Model
 70
     1
 71
     0
 10
0.0
 20
0.0
 11
420.0
 21
297.0
 12
0.0
 22
0.0
 32
0.0
 14
-83.37500000000011
 24
-49.97180738881175
 34
0.0
 15
114.8689204898174
 25
51.68133091317975
 35
0.0
146
0.0
 13
0.0
 23
0.0
 33
0.0
 16
1.0
 26
0.0
 36
0.0
 17
0.0
 27
1.0
 37
0.0
 76
     0
330
1F
331
29
  0
MLINESTYLE
  5
18
102
{ACAD_REACTORS
330
17
102
}
330
17
100
AcDbMlineStyle
  2
Standard
 70
     0
  3

 62
   256
 51
90.0
 52
90.0
 71
     2
 49
0.5
 62
   256
  6
BYLAYER
 49
-0.5
 62
   256
  6
BYLAYER
  0
ACDBPLACEHOLDER
  5
F
102
{ACAD_REACTORS
330
E
102
}
330
E
  0
SCALE
  5
48
102
{ACAD_REACTORS
330
47
102
}
330
47
100
AcDbScale
 70
     0
300
1:1
140
1.0
141
1.0
290
     1
  0
SCALE
  5
49
102
{ACAD_REACTORS
330
47
102
}
330
47
100
AcDbScale
 70
     0
300
1:2
140
1.0
141
2.0
290
     0
  0
SCALE
  5
4A
102
{ACAD_REACTORS
330
47
102
}
330
47
100
AcDbScale
 70
     0
300
1:4
140
1.0
141
4.0
290
     0
  0
SCALE
  5
4B
102
{ACAD_REACTORS
330
47
102
}
330
47
100
AcDbScale
 70
     0
300
1:5
140
1.0
141
5.0
290
     0
  0
SCALE
  5
4C
102
{ACAD_REACTORS
330
47
102
}
330
47
100
AcDbScale
 70
     0
300
1:8
140
1.0
141
8.0
290
     0
  0
SCALE
  5
4D
102
{ACAD_REACTORS
330
47
102
}
330
47
100
AcDbScale
 70
     0
300
1:10
140
1.0
141
10.0
290
     0
  0
SCALE
  5
4E
102
{ACAD_REACTORS
330
47
102
}
330
47
100
AcDbScale
 70
     0
300
1:16
140
1.0
141
16.0
290
     0
  0
SCALE
  5
4F
102
{ACAD_REACTORS
330
47
102
}
330
47
100
AcDbScale
 70
     0
300
1:20
140
1.0
141
20.0
290
     0
  0
SCALE
  5
50
102
{ACAD_REACTORS
330
47
102
}
330
47
100
AcDbScale
 70
     0
300
1:30
140
1.0
141
30.0
290
     0
  0
SCALE
  5
51
102
{ACAD_REACTORS
330
47
102
}
330
47
100
AcDbScale
 70
     0
300
1:40
140
1.0
141
40.0
290
     0
  0
SCALE
  5
52
102
{ACAD_REACTORS
330
47
102
}
330
47
100
AcDbScale
 70
     0
300
1:50
140
1.0
141
50.0
290
     0
  0
SCALE
  5
53
102
{ACAD_REACTORS
330
47
102
}
330
47
100
AcDbScale
 70
     0
300
1:100
140
1.0
141
100.0
290
     0
  0
SCALE
  5
54
102
{ACAD_REACTORS
330
47
102
}
330
47
100
AcDbScale
 70
     0
300
2:1
140
2.0
141
1.0
290
     0
  0
SCALE
  5
55
102
{ACAD_REACTORS
330
47
102
}
330
47
100
AcDbScale
 70
     0
300
4:1
140
4.0
141
1.0
290
     0
  0
SCALE
  5
56
102
{ACAD_REACTORS
330
47
102
}
330
47
100
AcDbScale
 70
     0
300
8:1
140
8.0
141
1.0
290
     0
  0
SCALE
  5
57
102
{ACAD_REACTORS
330
47
102
}
330
47
100
AcDbScale
 70
     0
300
10:1
140
10.0
141
1.0
290
     0
  0
SCALE
  5
58
102
{ACAD_REACTORS
330
47
102
}
330
47
100
AcDbScale
 70
     0
300
100:1
140
100.0
141
1.0
290
     0
  0
SCALE
  5
59
102
{ACAD_REACTORS
330
47
102
}
330
47
100
AcDbScale
 70
     0
300
1/128" = 1'-0"
140
0.0078125
141
12.0
290
     0
  0
SCALE
  5
5A
102
{ACAD_REACTORS
330
47
102
}
330
47
100
AcDbScale
 70
     0
300
1/64" = 1'-0"
140
0.015625
141
12.0
290
     0
  0
SCALE
  5
5B
102
{ACAD_REACTORS
330
47
102
}
330
47
100
AcDbScale
 70
     0
300
1/32" = 1'-0"
140
0.03125
141
12.0
290
     0
  0
SCALE
  5
5C
102
{ACAD_REACTORS
330
47
102
}
330
47
100
AcDbScale
 70
     0
300
1/16" = 1'-0"
140
0.0625
141
12.0
290
     0
  0
SCALE
  5
5D
102
{ACAD_REACTORS
330
47
102
}
330
47
100
AcDbScale
 70
     0
300
3/32" = 1'-0"
140
0.09375
141
12.0
290
     0
  0
SCALE
  5
5E
102
{ACAD_REACTORS
330
47
102
}
330
47
100
AcDbScale
 70
     0
300
1/8" = 1'-0"
140
0.125
141
12.0
290
     0
  0
SCALE
  5
5F
102
{ACAD_REACTORS
330
47
102
}
330
47
100
AcDbScale
 70
     0
300
3/16" = 1'-0"
140
0.1875
141
12.0
290
     0
  0
SCALE
  5
60
102
{ACAD_REACTORS
330
47
102
}
330
47
100
AcDbScale
 70
     0
300
1/4" = 1'-0"
140
0.25
141
12.0
290
     0
  0
SCALE
  5
61
102
{ACAD_REACTORS
330
47
102
}
330
47
100
AcDbScale
 70
     0
300
3/8" = 1'-0"
140
0.375
141
12.0
290
     0
  0
SCALE
  5
62
102
{ACAD_REACTORS
330
47
102
}
330
47
100
AcDbScale
 70
     0
300
1/2" = 1'-0"
140
0.5
141
12.0
290
     0
  0
SCALE
  5
63
102
{ACAD_REACTORS
330
47
102
}
330
47
100
AcDbScale
 70
     0
300
3/4" = 1'-0"
140
0.75
141
12.0
290
     0
  0
SCALE
  5
64
102
{ACAD_REACTORS
330
47
102
}
330
47
100
AcDbScale
 70
     0
300
1" = 1'-0"
140
1.0
141
12.0
290
     0
  0
SCALE
  5
65
102
{ACAD_REACTORS
330
47
102
}
330
47
100
AcDbScale
 70
     0
300
1-1/2" = 1'-0"
140
1.5
141
12.0
290
     0
  0
SCALE
  5
66
102
{ACAD_REACTORS
330
47
102
}
330
47
100
AcDbScale
 70
     0
300
3" = 1'-0"
140
3.0
141
12.0
290
     0
  0
SCALE
  5
67
102
{ACAD_REACTORS
330
47
102
}
330
47
100
AcDbScale
 70
     0
300
6" = 1'-0"
140
6.0
141
12.0
290
     0
  0
SCALE
  5
68
102
{ACAD_REACTORS
330
47
102
}
330
47
100
AcDbScale
 70
     0
300
1'-0" = 1'-0"
140
12.0
141
12.0
290
     0
  0
ENDSEC
  0
EOF
