  0
SECTION
  2
HEADER
  9
$ACADVER
  1
AC1015
  9
$ACADMAINTVER
 70
     6
  9
$DWGCODEPAGE
  3
ANSI_949
  9
$INSBASE
 10
0.0
 20
0.0
 30
0.0
  9
$EXTMIN
 10
-76.52500000000009
 20
-49.97180738881175
 30
0.0
  9
$EXTMAX
 10
99.38162503295504
 20
46.0757517785911
 30
0.0
  9
$LIMMIN
 10
0.0
 20
0.0
  9
$LIMMAX
 10
420.0
 20
297.0
  9
$ORTHOMODE
 70
     1
  9
$REGENMODE
 70
     1
  9
$FILLMODE
 70
     1
  9
$QTEXTMODE
 70
     0
  9
$MIRRTEXT
 70
     1
  9
$LTSCALE
 40
1.0
  9
$ATTMODE
 70
     1
  9
$TEXTSIZE
 40
3.5
  9
$TRACEWID
 40
1.0
  9
$TEXTSTYLE
  7
Standard
  9
$CLAYER
  8
0
  9
$CELTYPE
  6
ByLayer
  9
$CECOLOR
 62
   256
  9
$CELTSCALE
 40
1.0
  9
$DISPSILH
 70
     0
  9
$DIMSCALE
 40
1.0
  9
$DIMASZ
 40
3.302
  9
$DIMEXO
 40
1.0
  9
$DIMDLI
 40
3.75
  9
$DIMRND
 40
0.0
  9
$DIMDLE
 40
0.0
  9
$DIMEXE
 40
1.0
  9
$DIMTP
 40
0.0
  9
$DIMTM
 40
0.0
  9
$DIMTXT
 40
3.5
  9
$DIMCEN
 40
2.5
  9
$DIMTSZ
 40
0.0
  9
$DIMTOL
 70
     0
  9
$DIMLIM
 70
     0
  9
$DIMTIH
 70
     1
  9
$DIMTOH
 70
     1
  9
$DIMSE1
 70
     0
  9
$DIMSE2
 70
     0
  9
$DIMTAD
 70
     1
  9
$DIMZIN
 70
     0
  9
$DIMBLK
  1

  9
$DIMASO
 70
     1
  9
$DIMSHO
 70
     1
  9
$DIMPOST
  1

  9
$DIMAPOST
  1

  9
$DIMALT
 70
     0
  9
$DIMALTD
 70
     3
  9
$DIMALTF
 40
0.0393700787401575
  9
$DIMLFAC
 40
1.0
  9
$DIMTOFL
 70
     1
  9
$DIMTVP
 40
0.0
  9
$DIMTIX
 70
     0
  9
$DIMSOXD
 70
     0
  9
$DIMSAH
 70
     0
  9
$DIMBLK1
  1

  9
$DIMBLK2
  1

  9
$DIMSTYLE
  2
ISO-25
  9
$DIMCLRD
 70
     0
  9
$DIMCLRE
 70
     0
  9
$DIMCLRT
 70
     0
  9
$DIMTFAC
 40
1.0
  9
$DIMGAP
 40
1.524
  9
$DIMJUST
 70
     0
  9
$DIMSD1
 70
     0
  9
$DIMSD2
 70
     0
  9
$DIMTOLJ
 70
     0
  9
$DIMTZIN
 70
     0
  9
$DIMALTZ
 70
     0
  9
$DIMALTTZ
 70
     0
  9
$DIMUPT
 70
     0
  9
$DIMDEC
 70
     2
  9
$DIMTDEC
 70
     2
  9
$DIMALTU
 70
     2
  9
$DIMALTTD
 70
     3
  9
$DIMTXSTY
  7
Standard
  9
$DIMAUNIT
 70
     0
  9
$DIMADEC
 70
     2
  9
$DIMALTRND
 40
0.0
  9
$DIMAZIN
 70
     0
  9
$DIMDSEP
 70
    44
  9
$DIMATFIT
 70
     3
  9
$DIMFRAC
 70
     0
  9
$DIMLDRBLK
  1

  9
$DIMLUNIT
 70
     2
  9
$DIMLWD
 70
    -2
  9
$DIMLWE
 70
    -2
  9
$DIMTMOVE
 70
     0
  9
$LUNITS
 70
     2
  9
$LUPREC
 70
     2
  9
$SKETCHINC
 40
1.0
  9
$FILLETRAD
 40
10.0
  9
$AUNITS
 70
     0
  9
$AUPREC
 70
     2
  9
$MENU
  1
.
  9
$ELEVATION
 40
0.0
  9
$PELEVATION
 40
0.0
  9
$THICKNESS
 40
0.0
  9
$LIMCHECK
 70
     0
  9
$CHAMFERA
 40
0.0
  9
$CHAMFERB
 40
0.0
  9
$CHAMFERC
 40
0.0
  9
$CHAMFERD
 40
0.0
  9
$SKPOLY
 70
     0
  9
$TDCREATE
 40
2458313.399488692
  9
$TDUCREATE
 40
2458313.024488692
  9
$TDUPDATE
 40
2458324.447332535
  9
$TDUUPDATE
 40
2458324.072332535
  9
$TDINDWG
 40
0.0016565046
  9
$TDUSRTIMER
 40
0.0016564931
  9
$USRTIMER
 70
     1
  9
$ANGBASE
 50
0.0
  9
$ANGDIR
 70
     0
  9
$PDMODE
 70
     0
  9
$PDSIZE
 40
-1.0
  9
$PLINEWID
 40
0.0
  9
$SPLFRAME
 70
     0
  9
$SPLINETYPE
 70
     6
  9
$SPLINESEGS
 70
     8
  9
$HANDSEED
  5
22A
  9
$SURFTAB1
 70
     6
  9
$SURFTAB2
 70
     6
  9
$SURFTYPE
 70
     6
  9
$SURFU
 70
     6
  9
$SURFV
 70
     6
  9
$UCSBASE
  2

  9
$UCSNAME
  2

  9
$UCSORG
 10
0.0
 20
0.0
 30
0.0
  9
$UCSXDIR
 10
1.0
 20
0.0
 30
0.0
  9
$UCSYDIR
 10
0.0
 20
1.0
 30
0.0
  9
$UCSORTHOREF
  2

  9
$UCSORTHOVIEW
 70
     0
  9
$UCSORGTOP
 10
0.0
 20
0.0
 30
0.0
  9
$UCSORGBOTTOM
 10
0.0
 20
0.0
 30
0.0
  9
$UCSORGLEFT
 10
0.0
 20
0.0
 30
0.0
  9
$UCSORGRIGHT
 10
0.0
 20
0.0
 30
0.0
  9
$UCSORGFRONT
 10
0.0
 20
0.0
 30
0.0
  9
$UCSORGBACK
 10
0.0
 20
0.0
 30
0.0
  9
$PUCSBASE
  2

  9
$PUCSNAME
  2

  9
$PUCSORG
 10
0.0
 20
0.0
 30
0.0
  9
$PUCSXDIR
 10
1.0
 20
0.0
 30
0.0
  9
$PUCSYDIR
 10
0.0
 20
1.0
 30
0.0
  9
$PUCSORTHOREF
  2

  9
$PUCSORTHOVIEW
 70
     0
  9
$PUCSORGTOP
 10
0.0
 20
0.0
 30
0.0
  9
$PUCSORGBOTTOM
 10
0.0
 20
0.0
 30
0.0
  9
$PUCSORGLEFT
 10
0.0
 20
0.0
 30
0.0
  9
$PUCSORGRIGHT
 10
0.0
 20
0.0
 30
0.0
  9
$PUCSORGFRONT
 10
0.0
 20
0.0
 30
0.0
  9
$PUCSORGBACK
 10
0.0
 20
0.0
 30
0.0
  9
$USERI1
 70
     0
  9
$USERI2
 70
     0
  9
$USERI3
 70
     0
  9
$USERI4
 70
     0
  9
$USERI5
 70
     0
  9
$USERR1
 40
0.0
  9
$USERR2
 40
0.0
  9
$USERR3
 40
0.0
  9
$USERR4
 40
0.0
  9
$USERR5
 40
0.0
  9
$WORLDVIEW
 70
     1
  9
$SHADEDGE
 70
     3
  9
$SHADEDIF
 70
    70
  9
$TILEMODE
 70
     1
  9
$MAXACTVP
 70
    64
  9
$PINSBASE
 10
0.0
 20
0.0
 30
0.0
  9
$PLIMCHECK
 70
     0
  9
$PEXTMIN
 10
1.000000000000000E+20
 20
1.000000000000000E+20
 30
1.000000000000000E+20
  9
$PEXTMAX
 10
-1.000000000000000E+20
 20
-1.000000000000000E+20
 30
-1.000000000000000E+20
  9
$PLIMMIN
 10
0.0
 20
0.0
  9
$PLIMMAX
 10
0.0
 20
0.0
  9
$UNITMODE
 70
     0
  9
$VISRETAIN
 70
     1
  9
$PLINEGEN
 70
     0
  9
$PSLTSCALE
 70
     1
  9
$TREEDEPTH
 70
  3020
  9
$CMLSTYLE
  2
Standard
  9
$CMLJUST
 70
     0
  9
$CMLSCALE
 40
20.0
  9
$PROXYGRAPHICS
 70
     1
  9
$MEASUREMENT
 70
     1
  9
$CELWEIGHT
370
    -1
  9
$ENDCAPS
280
     0
  9
$JOINSTYLE
280
     0
  9
$LWDISPLAY
290
     1
  9
$INSUNITS
 70
     4
  9
$HYPERLINKBASE
  1

  9
$STYLESHEET
  1

  9
$XEDIT
290
     1
  9
$CEPSNTYPE
380
     0
  9
$PSTYLEMODE
290
     1
  9
$FINGERPRINTGUID
  2
{687E0E32-2BD8-4473-9BBF-C14CEA604E3C}
  9
$VERSIONGUID
  2
{FAEB1C32-E019-11D5-929B-00C0DF256EC4}
  9
$EXTNAMES
290
     1
  9
$PSVPSCALE
 40
0.0
  9
$OLESTARTUP
290
     0
  0
ENDSEC
  0
SECTION
  2
CLASSES
  0
CLASS
  1
ACDBDICTIONARYWDFLT
  2
AcDbDictionaryWithDefault
  3
ObjectDBX Classes
 90
        0
280
     0
281
     0
  0
CLASS
  1
VISUALSTYLE
  2
AcDbVisualStyle
  3
ObjectDBX Classes
 90
     4095
280
     0
281
     0
  0
CLASS
  1
MATERIAL
  2
AcDbMaterial
  3
ObjectDBX Classes
 90
     1153
280
     0
281
     0
  0
CLASS
  1
SCALE
  2
AcDbScale
  3
ObjectDBX Classes
 90
     1153
280
     0
281
     0
  0
CLASS
  1
SUN
  2
AcDbSun
  3
SCENEOE
 90
     1153
280
     0
281
     0
  0
CLASS
  1
ACDBPLACEHOLDER
  2
AcDbPlaceHolder
  3
ObjectDBX Classes
 90
        0
280
     0
281
     0
  0
CLASS
  1
LAYOUT
  2
AcDbLayout
  3
ObjectDBX Classes
 90
        0
280
     0
281
     0
  0
CLASS
  1
TABLESTYLE
  2
AcDbTableStyle
  3
ObjectDBX Classes
 90
     4095
280
     0
281
     0
  0
CLASS
  1
MLEADERSTYLE
  2
AcDbMLeaderStyle
  3
ACDB_MLEADERSTYLE_CLASS
 90
     4095
280
     0
281
     0
  0
ENDSEC
  0
SECTION
  2
TABLES
  0
TABLE
  2
VPORT
  5
8
330
0
100
AcDbSymbolTable
 70
     1
  0
VPORT
  5
29
330
8
100
AcDbSymbolTableRecord
100
AcDbViewportTableRecord
  2
*Active
 70
     0
 10
0.0
 20
0.0
 11
1.0
 21
1.0
 12
11.42831251647748
 22
-1.948027805110335
 13
0.0
 23
0.0
 14
10.0
 24
10.0
 15
10.0
 25
10.0
 16
0.0
 26
0.0
 36
1.0
 17
0.0
 27
0.0
 37
0.0
 40
100.6442182986565
 41
1.782762691853601
 42
50.0
 43
0.0
 44
0.0
 50
0.0
 51
0.0
 71
    16
 72
  2000
 73
     1
 74
     3
 75
     0
 76
     0
 77
     0
 78
     0
281
     0
 65
     1
110
0.0
120
0.0
130
0.0
111
1.0
121
0.0
131
0.0
112
0.0
122
1.0
132
0.0
 79
     0
146
0.0
  0
ENDTAB
  0
TABLE
  2
LTYPE
  5
5
330
0
100
AcDbSymbolTable
 70
     6
  0
LTYPE
  5
14
330
5
100
AcDbSymbolTableRecord
100
AcDbLinetypeTableRecord
  2
ByBlock
 70
     0
  3

 72
    65
 73
     0
 40
0.0
  0
LTYPE
  5
15
330
5
100
AcDbSymbolTableRecord
100
AcDbLinetypeTableRecord
  2
ByLayer
 70
     0
  3

 72
    65
 73
     0
 40
0.0
  0
LTYPE
  5
16
330
5
100
AcDbSymbolTableRecord
100
AcDbLinetypeTableRecord
  2
Continuous
 70
     0
  3
Solid line
 72
    65
 73
     0
 40
0.0
  0
LTYPE
  5
6A
330
5
100
AcDbSymbolTableRecord
100
AcDbLinetypeTableRecord
  2
HIDDEN
 70
     0
  3
Hidden __ __ __ __ __ __ __ __ __ __ __ __ __ __
 72
    65
 73
     2
 40
1.905
 49
1.27
 74
     0
 49
-0.635
 74
     0
  0
LTYPE
  5
6B
330
5
100
AcDbSymbolTableRecord
100
AcDbLinetypeTableRecord
  2
PHANTOM
 70
     0
  3
Phantom ______  __  __  ______  __  __  ______
 72
    65
 73
     6
 40
12.7
 49
6.35
 74
     0
 49
-1.27
 74
     0
 49
1.27
 74
     0
 49
-1.27
 74
     0
 49
1.27
 74
     0
 49
-1.27
 74
     0
  0
LTYPE
  5
6C
330
5
100
AcDbSymbolTableRecord
100
AcDbLinetypeTableRecord
  2
CENTER
 70
     0
  3
Center ____ _ ____ _ ____ _ ____ _ ____ _ ____
 72
    65
 73
     4
 40
10.16
 49
6.35
 74
     0
 49
-1.27
 74
     0
 49
1.27
 74
     0
 49
-1.27
 74
     0
  0
LTYPE
  5
6D
330
5
100
AcDbSymbolTableRecord
100
AcDbLinetypeTableRecord
  2
CENTERX2
 70
     0
  3
Center (2x) ________  __  ________  __  _____
 72
    65
 73
     4
 40
20.32
 49
12.7
 74
     0
 49
-2.54
 74
     0
 49
2.54
 74
     0
 49
-2.54
 74
     0
  0
LTYPE
  5
6E
330
5
100
AcDbSymbolTableRecord
100
AcDbLinetypeTableRecord
  2
DOT2
 70
     0
  3
Dot (.5x) ........................................
 72
    65
 73
     2
 40
0.635
 49
0.0
 74
     0
 49
-0.635
 74
     0
  0
ENDTAB
  0
TABLE
  2
LAYER
  5
2
102
{ACAD_XDICTIONARY
360
194
102
}
330
0
100
AcDbSymbolTable
 70
    18
  0
LAYER
  5
10
330
2
100
AcDbSymbolTableRecord
100
AcDbLayerTableRecord
  2
0
 70
     0
 62
     7
  6
Continuous
370
    -3
390
F
  0
LAYER
  5
6F
330
2
100
AcDbSymbolTableRecord
100
AcDbLayerTableRecord
  2
FORMAT
 70
     0
 62
     2
  6
Continuous
370
    -3
390
F
  0
LAYER
  5
70
330
2
100
AcDbSymbolTableRecord
100
AcDbLayerTableRecord
  2
외형선
 70
     0
 62
     4
  6
Continuous
370
    30
390
F
  0
LAYER
  5
71
330
2
100
AcDbSymbolTableRecord
100
AcDbLayerTableRecord
  2
숨은선
 70
     0
 62
     2
  6
HIDDEN
370
    15
390
F
  0
LAYER
  5
72
330
2
100
AcDbSymbolTableRecord
100
AcDbLayerTableRecord
  2
중심선
 70
     0
 62
     1
  6
CENTERX2
370
    -3
390
F
  0
LAYER
  5
73
330
2
100
AcDbSymbolTableRecord
100
AcDbLayerTableRecord
  2
파단선
 70
     0
 62
     4
  6
Continuous
370
    -3
390
F
  0
LAYER
  5
74
330
2
100
AcDbSymbolTableRecord
100
AcDbLayerTableRecord
  2
해칭선
 70
     0
 62
   100
  6
Continuous
370
    -3
390
F
  0
LAYER
  5
75
330
2
100
AcDbSymbolTableRecord
100
AcDbLayerTableRecord
  2
가는실선
 70
     0
 62
     4
  6
Continuous
370
    -3
390
F
  0
LAYER
  5
76
330
2
100
AcDbSymbolTableRecord
100
AcDbLayerTableRecord
  2
치수_보조선
 70
     0
 62
     4
  6
Continuous
370
    -3
390
F
  0
LAYER
  5
77
330
2
100
AcDbSymbolTableRecord
100
AcDbLayerTableRecord
  2
치수문자_일반주서
 70
     0
 62
     7
  6
Continuous
370
    15
390
F
  0
LAYER
  5
78
330
2
100
AcDbSymbolTableRecord
100
AcDbLayerTableRecord
  2
개별주서
 70
     0
 62
   100
  6
Continuous
370
    30
390
F
  0
LAYER
  5
79
330
2
100
AcDbSymbolTableRecord
100
AcDbLayerTableRecord
  2
중간선
 70
     0
 62
     2
  6
Continuous
370
    15
390
F
  0
LAYER
  5
7A
330
2
100
AcDbSymbolTableRecord
100
AcDbLayerTableRecord
  2
윤곽선
 70
     0
 62
     3
  6
Continuous
370
    40
390
F
  0
LAYER
  5
7B
330
2
100
AcDbSymbolTableRecord
100
AcDbLayerTableRecord
  2
중심마크
 70
     0
 62
   100
  6
Continuous
370
    30
390
F
  0
LAYER
  5
7C
330
2
100
AcDbSymbolTableRecord
100
AcDbLayerTableRecord
  2
가상선
 70
     0
 62
     4
  6
PHANTOM
370
    -3
390
F
  0
LAYER
  5
7D
330
2
100
AcDbSymbolTableRecord
100
AcDbLayerTableRecord
  2
특수지정선
 70
     0
 62
     5
  6
CENTERX2
370
    60
390
F
  0
LAYER
  5
7E
330
2
100
AcDbSymbolTableRecord
100
AcDbLayerTableRecord
  2
참조1
 70
     0
 62
    -4
  6
Continuous
370
    -3
390
F
  0
LAYER
  5
15C
330
2
100
AcDbSymbolTableRecord
100
AcDbLayerTableRecord
  2
Defpoints
 70
     0
 62
     7
  6
Continuous
290
     0
370
    -3
390
F
  0
ENDTAB
  0
TABLE
  2
STYLE
  5
3
330
0
100
AcDbSymbolTable
 70
     2
  0
STYLE
  5
11
330
3
100
AcDbSymbolTableRecord
100
AcDbTextStyleTableRecord
  2
Standard
 70
     0
 40
0.0
 41
1.0
 50
0.0
 71
     0
 42
3.5
  3
txt
  4

  0
STYLE
  5
94
330
3
100
AcDbSymbolTableRecord
100
AcDbTextStyleTableRecord
  2
SLDTEXTSTYLE0
 70
     0
 40
0.0
 41
0.75
 50
0.0
 71
     0
 42
3.5
  3
TXT
  4

  0
ENDTAB
  0
TABLE
  2
VIEW
  5
6
330
0
100
AcDbSymbolTable
 70
     0
  0
ENDTAB
  0
TABLE
  2
UCS
  5
7
330
0
100
AcDbSymbolTable
 70
     0
  0
ENDTAB
  0
TABLE
  2
APPID
  5
9
330
0
100
AcDbSymbolTable
 70
     2
  0
APPID
  5
12
330
9
100
AcDbSymbolTableRecord
100
AcDbRegAppTableRecord
  2
ACAD
 70
     0
  0
APPID
  5
164
330
9
100
AcDbSymbolTableRecord
100
AcDbRegAppTableRecord
  2
PE_URL
 70
     0
  0
ENDTAB
  0
TABLE
  2
DIMSTYLE
  5
A
330
0
100
AcDbSymbolTable
 70
     4
100
AcDbDimStyleTable
  0
DIMSTYLE
105
27
330
A
100
AcDbSymbolTableRecord
100
AcDbDimStyleTableRecord
  2
ISO-25
 70
     0
 41
2.5
 42
0.625
 43
3.75
 44
1.25
 73
     0
 74
     0
 77
     1
 78
     8
140
2.5
141
2.5
143
0.03937007874016
147
0.625
171
     3
172
     1
178
     0
271
     2
272
     2
274
     3
278
    44
283
     0
284
     8
340
11
  0
DIMSTYLE
105
DB
102
{ACAD_REACTORS
330
DA
330
187
330
EF
330
103
330
117
102
}
330
A
100
AcDbSymbolTableRecord
100
AcDbDimStyleTableRecord
  2
SLDDIMSTYLE0
 70
     0
 41
3.302
 44
0.0
 45
0.000000001
 73
     0
 74
     0
 77
     1
 78
    12
 79
     3
140
3.5
143
0.0393700787401575
147
0.875
148
0.000000001
170
     1
172
     1
173
     1
178
     0
271
     2
272
     2
276
     2
284
    12
289
     0
340
94
  0
DIMSTYLE
105
F0
330
A
100
AcDbSymbolTableRecord
100
AcDbDimStyleTableRecord
  2
SLDDIMSTYLE1
 70
     0
 41
3.302
 44
0.0
 45
0.000000001
 73
     0
 74
     0
 77
     1
 78
    12
 79
     3
140
3.5
143
0.0393700787401575
147
0.875
148
0.000000001
170
     1
173
     1
178
     0
271
     2
272
     2
276
     2
284
    12
340
94
  0
DIMSTYLE
105
118
330
A
100
AcDbSymbolTableRecord
100
AcDbDimStyleTableRecord
  2
SLDDIMSTYLE2
 70
     0
 41
3.302
 44
0.0
 45
0.000000001
 73
     0
 74
     0
 77
     1
 78
     4
 79
     1
140
3.5
143
0.0393700787401575
147
0.875
148
0.000000001
170
     1
173
     1
178
     0
271
     2
272
     2
276
     2
284
    12
340
94
  0
ENDTAB
  0
TABLE
  2
BLOCK_RECORD
  5
1
330
0
100
AcDbSymbolTable
 70
    10
  0
BLOCK_RECORD
  5
1F
330
1
100
AcDbSymbolTableRecord
100
AcDbBlockTableRecord
  2
*Model_Space
340
22
  0
BLOCK_RECORD
  5
1B
330
1
100
AcDbSymbolTableRecord
100
AcDbBlockTableRecord
  2
*Paper_Space
340
1E
  0
BLOCK_RECORD
  5
23
330
1
100
AcDbSymbolTableRecord
100
AcDbBlockTableRecord
  2
*Paper_Space0
340
26
  0
BLOCK_RECORD
  5
7F
330
1
100
AcDbSymbolTableRecord
100
AcDbBlockTableRecord
  2
블럭10
340
0
102
{BLKREFS
331
D3
102
}
  0
BLOCK_RECORD
  5
DC
330
1
100
AcDbSymbolTableRecord
100
AcDbBlockTableRecord
  2
_D
340
0
  0
BLOCK_RECORD
  5
F1
330
1
100
AcDbSymbolTableRecord
100
AcDbBlockTableRecord
  2
_D_1
340
0
  0
BLOCK_RECORD
  5
104
330
1
100
AcDbSymbolTableRecord
100
AcDbBlockTableRecord
  2
_D_2
340
0
  0
BLOCK_RECORD
  5
119
330
1
100
AcDbSymbolTableRecord
100
AcDbBlockTableRecord
  2
_D_3
340
0
  0
BLOCK_RECORD
  5
132
330
1
100
AcDbSymbolTableRecord
100
AcDbBlockTableRecord
  2
SW_DOWELSYMBOL_0
340
0
102
{BLKREFS
331
138
102
}
  0
BLOCK_RECORD
  5
198
330
1
100
AcDbSymbolTableRecord
100
AcDbBlockTableRecord
  2
*D8
340
0
  0
BLOCK_RECORD
  5
1AA
330
1
100
AcDbSymbolTableRecord
100
AcDbBlockTableRecord
  2
*D9
340
0
  0
ENDTAB
  0
ENDSEC
  0
SECTION
  2
BLOCKS
  0
BLOCK
  5
20
330
1F
100
AcDbEntity
  8
0
100
AcDbBlockBegin
  2
*Model_Space
 70
     0
 10
0.0
 20
0.0
 30
0.0
  3
*Model_Space
  1

  0
ENDBLK
  5
21
330
1F
100
AcDbEntity
  8
0
100
AcDbBlockEnd
  0
BLOCK
  5
1C
330
1B
100
AcDbEntity
 67
     1
  8
0
100
AcDbBlockBegin
  2
*Paper_Space
 70
     0
 10
0.0
 20
0.0
 30
0.0
  3
*Paper_Space
  1

  0
ENDBLK
  5
1D
330
1B
100
AcDbEntity
 67
     1
  8
0
100
AcDbBlockEnd
  0
BLOCK
  5
24
330
23
100
AcDbEntity
  8
0
100
AcDbBlockBegin
  2
*Paper_Space0
 70
     0
 10
0.0
 20
0.0
 30
0.0
  3
*Paper_Space0
  1

  0
ENDBLK
  5
25
330
23
100
AcDbEntity
  8
0
100
AcDbBlockEnd
  0
BLOCK
  5
80
330
7F
100
AcDbEntity
  8
0
100
AcDbBlockBegin
  2
블럭10
 70
     2
 10
0.0
 20
0.0
 30
0.0
  3
블럭10
  1

  0
ELLIPSE
  5
82
330
7F
100
AcDbEntity
  8
중심선
100
AcDbEllipse
 10
20.54032771741204
 20
12.0471743016438
 30
0.0
 11
6.600054785286829
 21
-1.261213355974178E-13
 31
0.0
210
0.0
220
0.0
230
1.0
 40
0.636358354079598
 41
0.9219305317359503
 42
6.513795318482858
  0
ELLIPSE
  5
83
330
7F
100
AcDbEntity
  8
중심선
100
AcDbEllipse
 10
20.54032771746488
 20
12.04717430159265
 30
0.0
 11
3.960054785062283
 21
1.540847449632565E-10
 31
0.0
210
0.0
220
0.0
230
1.0
 40
0.3939339440162632
 41
1.131841032648279
 42
5.62031148352944
  0
LINE
  5
84
330
7F
100
AcDbEntity
  8
중심선
100
AcDbLine
 10
2.268634060543552
 20
16.24717430164393
 30
0.0
 11
5.714909304380834
 21
16.24717430164393
 31
0.0
  0
LINE
  5
85
330
7F
100
AcDbEntity
  8
중심선
100
AcDbLine
 10
5.245725140726316
 20
7.84717430164391
 30
0.0
 11
8.692000384563599
 21
7.84717430164391
 31
0.0
  0
LINE
  5
86
330
7F
100
AcDbEntity
  8
중심선
100
AcDbLine
 10
15.74043728645272
 20
16.24717430164393
 30
0.0
 11
8.692000384563599
 21
7.84717430164391
 31
0.0
  0
LINE
  5
87
330
7F
100
AcDbEntity
  8
중심선
100
AcDbLine
 10
0.1404042013395286
 20
13.71084872107135
 30
0.0
 11
3.58671253028996
 21
13.71088815037384
 31
0.0
  0
LINE
  5
88
330
7F
100
AcDbEntity
  8
중심선
100
AcDbLine
 10
2.750260043222114
 20
10.84717430164391
 30
0.0
 11
6.196535287059397
 21
10.84717430164391
 31
0.0
  0
LINE
  5
89
330
7F
100
AcDbEntity
  8
중심선
100
AcDbLine
 10
12.29416204261559
 20
16.24717430164393
 30
0.0
 11
5.245725140726316
 21
7.84717430164391
 31
0.0
  0
LINE
  5
8A
330
7F
100
AcDbEntity
  8
중심선
100
AcDbLine
 10
10.72767329541681
 20
16.24717430164393
 30
0.0
 11
6.196535287059397
 21
10.84717430164391
 31
0.0
  0
LINE
  5
8B
330
7F
100
AcDbEntity
  8
중심선
100
AcDbLine
 10
7.28139805157953
 20
16.24717430164393
 30
0.0
 11
2.750260043222114
 21
10.84717430164391
 31
0.0
  0
LINE
  5
8C
330
7F
100
AcDbEntity
  8
중심선
100
AcDbLine
 10
5.714909304380834
 20
16.24717430164393
 30
0.0
 11
3.58671253028996
 21
13.71088815037384
 31
0.0
  0
LINE
  5
8D
330
7F
100
AcDbEntity
  8
중심선
100
AcDbLine
 10
2.268634060543552
 20
16.24717430164393
 30
0.0
 11
0.1404042013395286
 21
13.71084872107135
 31
0.0
  0
LINE
  5
8E
330
7F
100
AcDbEntity
  8
중심선
100
AcDbLine
 10
7.28139805157953
 20
16.24717430164393
 30
0.0
 11
10.72767329541681
 21
16.24717430164393
 31
0.0
  0
LINE
  5
8F
330
7F
100
AcDbEntity
  8
중심선
100
AcDbLine
 10
12.29416204261559
 20
16.24717430164393
 30
0.0
 11
15.74043728645272
 21
16.24717430164393
 31
0.0
  0
LINE
  5
90
330
7F
100
AcDbEntity
  8
중심선
100
AcDbLine
 10
19.22036997980202
 20
11.08717430171403
 30
0.0
 11
23.66174974927406
 21
11.08717430171406
 31
0.0
  0
LINE
  5
91
330
7F
100
AcDbEntity
  8
중심선
100
AcDbLine
 10
19.22039502424796
 20
13.00717430171391
 30
0.0
 11
19.22036997980202
 21
11.08717430171403
 31
0.0
  0
LINE
  5
92
330
7F
100
AcDbEntity
  8
중심선
100
AcDbLine
 10
19.22039502424796
 20
13.00717430171391
 30
0.0
 11
26.96566020931264
 21
13.00717430171391
 31
0.0
  0
LINE
  5
93
330
7F
100
AcDbEntity
  8
중심선
100
AcDbLine
 10
22.22332737316547
 20
13.45928029700563
 30
0.0
 11
24.52862924686651
 21
15.39360700705356
 31
0.0
  0
ATTDEF
  5
95
330
7F
100
AcDbEntity
  8
FORMAT
 62
     2
100
AcDbText
 10
4.408487351596664
 20
2.075366912832191
 30
0.0
 40
4.233333333333333
  1
E1050038
 41
0.75
  7
SLDTEXTSTYLE0
 11
4.408487351596664
 21
-0.0412997538344756
 31
0.0
100
AcDbAttributeDefinition
  3

  2
AUTOATTR0
 70
     0
 74
     1
  0
ENDBLK
  5
81
330
7F
100
AcDbEntity
  8
0
100
AcDbBlockEnd
  0
BLOCK
  5
DD
330
DC
100
AcDbEntity
  8
0
100
AcDbBlockBegin
  2
_D
 70
     0
 10
0.0
 20
0.0
 30
0.0
  3
_D
  1

  0
LINE
  5
DF
330
DC
100
AcDbEntity
  8
치수문자_일반주서
 62
     0
370
    -2
100
AcDbLine
 10
-25.58758614227643
 20
7.937499999999989
 30
0.0
 11
-72.14999999999998
 21
7.937499999999815
 31
0.0
  0
LINE
  5
E0
330
DC
100
AcDbEntity
  8
치수문자_일반주서
 62
     0
370
    -2
100
AcDbLine
 10
-25.58758614227645
 20
-7.937500000000007
 30
0.0
 11
-72.14999999999992
 21
-7.937500000000185
 31
0.0
  0
LINE
  5
E1
330
DC
100
AcDbEntity
  8
치수문자_일반주서
 62
     0
370
    -2
100
AcDbLine
 10
-72.14999999999998
 20
7.937499999999815
 30
0.0
 11
-72.1500000000001
 21
42.54149999999992
 31
0.0
  0
LINE
  5
E2
330
DC
100
AcDbEntity
  8
치수문자_일반주서
 62
     0
370
    -2
100
AcDbLine
 10
-72.14999999999998
 20
7.937499999999815
 30
0.0
 11
-72.14999999999992
 21
-7.937500000000185
 31
0.0
  0
LINE
  5
E3
330
DC
100
AcDbEntity
  8
치수문자_일반주서
 62
     0
370
    -2
100
AcDbLine
 10
-72.14999999999999
 20
11.23949999999981
 30
0.0
 11
-72.15
 21
14.54149999999981
 31
0.0
  0
LINE
  5
E4
330
DC
100
AcDbEntity
  8
치수문자_일반주서
 62
     0
370
    -2
100
AcDbLine
 10
-72.1499999999999
 20
-11.23950000000018
 30
0.0
 11
-72.14999999999989
 21
-14.54150000000018
 31
0.0
  0
SOLID
  5
E5
330
DC
100
AcDbEntity
  8
치수문자_일반주서
 62
     0
100
AcDbTrace
 10
-72.70033333333332
 20
11.23949999999981
 30
0.0
 11
-71.59966666666666
 21
11.23949999999982
 31
0.0
 12
-72.14999999999998
 22
7.937499999999815
 32
0.0
 13
-72.14999999999998
 23
7.937499999999815
 33
0.0
  0
SOLID
  5
E6
330
DC
100
AcDbEntity
  8
치수문자_일반주서
 62
     0
100
AcDbTrace
 10
-71.59966666666658
 20
-11.23950000000018
 30
0.0
 11
-72.70033333333323
 21
-11.23950000000019
 31
0.0
 12
-72.14999999999992
 22
-7.937500000000185
 32
0.0
 13
-72.14999999999992
 23
-7.937500000000185
 33
0.0
  0
MTEXT
  5
E7
330
DC
100
AcDbEntity
  8
치수문자_일반주서
 62
     0
100
AcDbMText
 10
-76.52500000000005
 20
28.5414999999999
 30
0.0
 40
3.5
 41
0.0
 71
     2
 72
     1
  1
\A1;%%c15.88 [5/8]
  7
SLDTEXTSTYLE0
 11
-3.580687802255624E-15
 21
1.0
 31
0.0
 73
     1
 44
1.0
  0
POINT
  5
1BE
330
DC
100
AcDbEntity
  8
Defpoints
 62
     0
100
AcDbPoint
 10
-25.52508614227643
 20
7.937499999999989
 30
0.0
  0
POINT
  5
1BF
330
DC
100
AcDbEntity
  8
Defpoints
 62
     0
100
AcDbPoint
 10
-25.52508614227645
 20
-7.937500000000007
 30
0.0
  0
POINT
  5
1C0
330
DC
100
AcDbEntity
  8
Defpoints
 62
     0
100
AcDbPoint
 10
-72.14999999999992
 20
-7.937500000000181
 30
0.0
  0
ENDBLK
  5
DE
330
DC
100
AcDbEntity
  8
0
100
AcDbBlockEnd
  0
BLOCK
  5
F2
330
F1
100
AcDbEntity
  8
0
100
AcDbBlockBegin
  2
_D_1
 70
     0
 10
0.0
 20
0.0
 30
0.0
  3
_D_1
  1

  0
LINE
  5
F4
330
F1
100
AcDbEntity
  8
치수문자_일반주서
 62
     0
370
    -2
100
AcDbLine
 10
57.21250000000001
 20
-7.534251778591039
 30
0.0
 11
72.15000000000005
 21
-7.534251778590985
 31
0.0
  0
LINE
  5
F5
330
F1
100
AcDbEntity
  8
치수문자_일반주서
 62
     0
370
    -2
100
AcDbLine
 10
57.21250000000001
 20
7.534251778591033
 30
0.0
 11
72.14999999999999
 21
7.534251778591091
 31
0.0
  0
LINE
  5
F6
330
F1
100
AcDbEntity
  8
치수문자_일반주서
 62
     0
370
    -2
100
AcDbLine
 10
72.14999999999999
 20
7.534251778591091
 30
0.0
 11
72.14999999999985
 21
46.07575177859109
 31
0.0
  0
LINE
  5
F7
330
F1
100
AcDbEntity
  8
치수문자_일반주서
 62
     0
370
    -2
100
AcDbLine
 10
72.15000000000005
 20
-7.534251778590985
 30
0.0
 11
72.14999999999999
 21
7.534251778591091
 31
0.0
  0
LINE
  5
F8
330
F1
100
AcDbEntity
  8
치수문자_일반주서
 62
     0
370
    -2
100
AcDbLine
 10
72.15000000000006
 20
-10.83625177859098
 30
0.0
 11
72.15000000000008
 21
-14.13825177859098
 31
0.0
  0
LINE
  5
F9
330
F1
100
AcDbEntity
  8
치수문자_일반주서
 62
     0
370
    -2
100
AcDbLine
 10
72.14999999999998
 20
10.83625177859109
 30
0.0
 11
72.14999999999996
 21
14.13825177859109
 31
0.0
  0
SOLID
  5
FA
330
F1
100
AcDbEntity
  8
치수문자_일반주서
 62
     0
100
AcDbTrace
 10
72.70033333333339
 20
-10.83625177859098
 30
0.0
 11
71.59966666666674
 21
-10.83625177859099
 31
0.0
 12
72.15000000000005
 22
-7.534251778590985
 32
0.0
 13
72.15000000000005
 23
-7.534251778590985
 33
0.0
  0
SOLID
  5
FB
330
F1
100
AcDbEntity
  8
치수문자_일반주서
 62
     0
100
AcDbTrace
 10
71.59966666666665
 20
10.83625177859109
 30
0.0
 11
72.7003333333333
 21
10.83625177859109
 31
0.0
 12
72.14999999999999
 22
7.534251778591091
 32
0.0
 13
72.14999999999999
 23
7.534251778591091
 33
0.0
  0
MTEXT
  5
FC
330
F1
100
AcDbEntity
  8
치수문자_일반주서
 62
     0
100
AcDbMText
 10
67.7749999999999
 20
30.10700177859107
 30
0.0
 40
3.5
 41
0.0
 71
     2
 72
     1
  1
\A1;%%c15.07 [19/32]
  7
SLDTEXTSTYLE0
 11
-3.772333373722094E-15
 21
1.0
 31
0.0
 73
     1
 44
1.0
  0
POINT
  5
FD
330
F1
100
AcDbEntity
  8
Defpoints
 62
     0
100
AcDbPoint
 10
57.15000000000001
 20
-7.534251778591039
 30
0.0
  0
POINT
  5
1B6
330
F1
100
AcDbEntity
  8
Defpoints
 62
     0
100
AcDbPoint
 10
57.15000000000001
 20
7.534251778591033
 30
0.0
  0
POINT
  5
1B7
330
F1
100
AcDbEntity
  8
Defpoints
 62
     0
100
AcDbPoint
 10
72.14999999999999
 20
7.534251778591089
 30
0.0
  0
ENDBLK
  5
F3
330
F1
100
AcDbEntity
  8
0
100
AcDbBlockEnd
  0
BLOCK
  5
105
330
104
100
AcDbEntity
  8
0
100
AcDbBlockBegin
  2
_D_2
 70
     0
 10
0.0
 20
0.0
 30
0.0
  3
_D_2
  1

  0
LINE
  5
107
330
104
100
AcDbEntity
  8
치수문자_일반주서
 62
     0
370
    -2
100
AcDbLine
 10
57.15000000000001
 20
7.596751778591033
 30
0.0
 11
57.15000000000001
 21
22.93749999999999
 31
0.0
  0
LINE
  5
108
330
104
100
AcDbEntity
  8
치수문자_일반주서
 62
     0
370
    -2
100
AcDbLine
 10
28.575
 20
6.143298174935571
 30
0.0
 11
28.575
 21
22.93749999999999
 31
0.0
  0
LINE
  5
109
330
104
100
AcDbEntity
  8
치수문자_일반주서
 62
     0
370
    -2
100
AcDbLine
 10
53.84800000000001
 20
22.93749999999999
 30
0.0
 11
31.877
 21
22.93749999999999
 31
0.0
  0
SOLID
  5
10A
330
104
100
AcDbEntity
  8
치수문자_일반주서
 62
     0
100
AcDbTrace
 10
53.84800000000001
 20
22.38716666666666
 30
0.0
 11
53.84800000000001
 21
23.48783333333333
 31
0.0
 12
57.15000000000001
 22
22.93749999999999
 32
0.0
 13
57.15000000000001
 23
22.93749999999999
 33
0.0
  0
SOLID
  5
10B
330
104
100
AcDbEntity
  8
치수문자_일반주서
 62
     0
100
AcDbTrace
 10
31.877
 20
23.48783333333333
 30
0.0
 11
31.877
 21
22.38716666666666
 31
0.0
 12
28.575
 22
22.93749999999999
 32
0.0
 13
28.575
 23
22.93749999999999
 33
0.0
  0
MTEXT
  5
10C
330
104
100
AcDbEntity
  8
치수문자_일반주서
 62
     0
100
AcDbMText
 10
42.86250000000001
 20
27.31249999999999
 30
0.0
 40
3.5
 41
0.0
 71
     2
 72
     1
  1
\A1;28.58 [1 1/8]
  7
SLDTEXTSTYLE0
 73
     1
 44
1.0
  0
POINT
  5
10D
330
104
100
AcDbEntity
  8
Defpoints
 62
     0
100
AcDbPoint
 10
57.15000000000001
 20
7.534251778591033
 30
0.0
  0
POINT
  5
10E
330
104
100
AcDbEntity
  8
Defpoints
 62
     0
100
AcDbPoint
 10
28.575
 20
6.080798174935571
 30
0.0
  0
POINT
  5
10F
330
104
100
AcDbEntity
  8
Defpoints
 62
     0
100
AcDbPoint
 10
28.575
 20
22.93749999999999
 30
0.0
  0
ENDBLK
  5
106
330
104
100
AcDbEntity
  8
0
100
AcDbBlockEnd
  0
BLOCK
  5
11A
330
119
100
AcDbEntity
  8
0
100
AcDbBlockBegin
  2
_D_3
 70
     0
 10
0.0
 20
0.0
 30
0.0
  3
_D_3
  1

  0
LINE
  5
11C
330
119
100
AcDbEntity
  8
치수문자_일반주서
 62
     0
370
    -2
100
AcDbLine
 10
-57.15000000000003
 20
7.596751778591091
 30
0.0
 11
-57.15000000000003
 21
37.93749999999999
 31
0.0
  0
LINE
  5
11D
330
119
100
AcDbEntity
  8
치수문자_일반주서
 62
     0
370
    -2
100
AcDbLine
 10
57.15000000000001
 20
7.596751778591033
 30
0.0
 11
57.15000000000002
 21
37.93749999999999
 31
0.0
  0
LINE
  5
11E
330
119
100
AcDbEntity
  8
치수문자_일반주서
 62
     0
370
    -2
100
AcDbLine
 10
-53.84800000000003
 20
37.93749999999999
 30
0.0
 11
53.84800000000002
 21
37.93749999999999
 31
0.0
  0
SOLID
  5
11F
330
119
100
AcDbEntity
  8
치수문자_일반주서
 62
     0
100
AcDbTrace
 10
-53.84800000000003
 20
38.48783333333333
 30
0.0
 11
-53.84800000000003
 21
37.38716666666666
 31
0.0
 12
-57.15000000000003
 22
37.93749999999999
 32
0.0
 13
-57.15000000000003
 23
37.93749999999999
 33
0.0
  0
SOLID
  5
120
330
119
100
AcDbEntity
  8
치수문자_일반주서
 62
     0
100
AcDbTrace
 10
53.84800000000002
 20
37.38716666666666
 30
0.0
 11
53.84800000000002
 21
38.48783333333333
 31
0.0
 12
57.15000000000002
 22
37.93749999999999
 32
0.0
 13
57.15000000000002
 23
37.93749999999999
 33
0.0
  0
MTEXT
  5
121
330
119
100
AcDbEntity
  8
치수문자_일반주서
 62
     0
100
AcDbMText
 10
0.0000000000000142
 20
42.31249999999999
 30
0.0
 40
3.5
 41
0.0
 71
     2
 72
     1
  1
\A1;114.3 [4 1/2]
  7
SLDTEXTSTYLE0
 73
     1
 44
1.0
  0
POINT
  5
122
330
119
100
AcDbEntity
  8
Defpoints
 62
     0
100
AcDbPoint
 10
-57.15000000000003
 20
7.534251778591091
 30
0.0
  0
POINT
  5
123
330
119
100
AcDbEntity
  8
Defpoints
 62
     0
100
AcDbPoint
 10
57.15000000000001
 20
7.534251778591033
 30
0.0
  0
POINT
  5
124
330
119
100
AcDbEntity
  8
Defpoints
 62
     0
100
AcDbPoint
 10
57.15000000000001
 20
37.93749999999999
 30
0.0
  0
ENDBLK
  5
11B
330
119
100
AcDbEntity
  8
0
100
AcDbBlockEnd
  0
BLOCK
  5
133
330
132
100
AcDbEntity
  8
0
100
AcDbBlockBegin
  2
SW_DOWELSYMBOL_0
 70
     0
 10
0.0
 20
0.0
 30
0.0
  3
SW_DOWELSYMBOL_0
  1

  0
CIRCLE
  5
135
330
132
100
AcDbEntity
  8
해칭선
 62
     0
100
AcDbCircle
 10
0.0
 20
0.0
 30
0.0
 40
3.000000000000001
  0
HATCH
  5
136
330
132
100
AcDbEntity
  8
0
  6
Continuous
 62
     0
370
     0
100
AcDbHatch
 10
0.0
 20
0.0
 30
0.0
210
0.0
220
0.0
230
1.0
  2
SOLID
 70
     1
 71
     0
 91
        1
 92
        0
 93
        3
 72
     2
 10
0.0
 20
0.0
 40
3.000000000000001
 50
0.0
 51
90.0
 73
     1
 72
     1
 10
0.0
 20
3.000000000000001
 11
0.0
 21
0.0
 72
     1
 10
0.0
 20
0.0
 11
3.000000000000001
 21
0.0
 97
        0
 75
     0
 76
     1
 98
        1
 10
0.0
 20
0.0
  0
HATCH
  5
137
330
132
100
AcDbEntity
  8
0
  6
Continuous
 62
     0
370
     0
100
AcDbHatch
 10
0.0
 20
0.0
 30
0.0
210
0.0
220
0.0
230
1.0
  2
SOLID
 70
     1
 71
     0
 91
        1
 92
        0
 93
        3
 72
     2
 10
0.0
 20
0.0
 40
3.000000000000001
 50
180.0
 51
270.0000000000008
 73
     1
 72
     1
 10
0.0
 20
-3.000000000000001
 11
0.0
 21
0.0
 72
     1
 10
0.0
 20
0.0
 11
-3.000000000000001
 21
0.0
 97
        0
 75
     0
 76
     1
 98
        1
 10
0.0
 20
0.0
  0
ENDBLK
  5
134
330
132
100
AcDbEntity
  8
0
100
AcDbBlockEnd
  0
BLOCK
  5
199
330
198
100
AcDbEntity
  8
0
100
AcDbBlockBegin
  2
*D8
 70
     1
 10
0.0
 20
0.0
 30
0.0
  3
*D8
  1

  0
LINE
  5
19B
330
198
100
AcDbEntity
  8
치수문자_일반주서
 62
     0
370
    -2
100
AcDbLine
 10
63.89369999999997
 20
4.916654502396817
 30
0.0
 11
63.89369999999997
 21
21.05048185839431
 31
0.0
  0
LINE
  5
19C
330
198
100
AcDbEntity
  8
치수문자_일반주서
 62
     0
370
    -2
100
AcDbLine
 10
35.31869999999997
 20
4.452342659504531
 30
0.0
 11
35.31869999999997
 21
21.05048185839431
 31
0.0
  0
LINE
  5
19D
330
198
100
AcDbEntity
  8
치수문자_일반주서
 62
     0
370
    -2
100
AcDbLine
 10
60.59169999999997
 20
21.05048185839431
 30
0.0
 11
38.62069999999997
 21
21.05048185839431
 31
0.0
  0
SOLID
  5
19E
330
198
100
AcDbEntity
  8
치수문자_일반주서
 62
     0
100
AcDbTrace
 10
60.59169999999997
 20
20.50014852506097
 30
0.0
 11
60.59169999999997
 21
21.60081519172764
 31
0.0
 12
63.89369999999997
 22
21.05048185839431
 32
0.0
 13
63.89369999999997
 23
21.05048185839431
 33
0.0
  0
SOLID
  5
19F
330
198
100
AcDbEntity
  8
치수문자_일반주서
 62
     0
100
AcDbTrace
 10
38.62069999999997
 20
21.60081519172764
 30
0.0
 11
38.62069999999997
 21
20.50014852506097
 31
0.0
 12
35.31869999999997
 22
21.05048185839431
 32
0.0
 13
35.31869999999997
 23
21.05048185839431
 33
0.0
  0
MTEXT
  5
1A0
330
198
100
AcDbEntity
  8
치수문자_일반주서
 62
     0
100
AcDbMText
 10
49.60619999999997
 20
25.42548185839431
 30
0.0
 40
3.5
 41
0.0
 71
     2
 72
     1
  1
\A1;28.58 [1 1/8]
  7
SLDTEXTSTYLE0
 73
     1
 44
1.0
  0
POINT
  5
1A1
330
198
100
AcDbEntity
  8
Defpoints
 62
     0
100
AcDbPoint
 10
63.89369999999997
 20
4.854154502396817
 30
0.0
  0
POINT
  5
1A2
330
198
100
AcDbEntity
  8
Defpoints
 62
     0
100
AcDbPoint
 10
35.31869999999997
 20
4.389842659504531
 30
0.0
  0
POINT
  5
1A3
330
198
100
AcDbEntity
  8
Defpoints
 62
     0
100
AcDbPoint
 10
35.31869999999997
 20
21.05048185839431
 30
0.0
  0
ENDBLK
  5
19A
330
198
100
AcDbEntity
  8
0
100
AcDbBlockEnd
  0
BLOCK
  5
1AB
330
1AA
100
AcDbEntity
  8
0
100
AcDbBlockBegin
  2
*D9
 70
     1
 10
0.0
 20
0.0
 30
0.0
  3
*D9
  1

  0
LINE
  5
1AD
330
1AA
100
AcDbEntity
  8
치수문자_일반주서
 62
     0
370
    -2
100
AcDbLine
 10
114.2248052553436
 20
-24.16892188798221
 30
0.0
 11
114.2248052553436
 21
-8.035094531984726
 31
0.0
  0
LINE
  5
1AE
330
1AA
100
AcDbEntity
  8
치수문자_일반주서
 62
     0
370
    -2
100
AcDbLine
 10
85.64980525534361
 20
-24.6332337308745
 30
0.0
 11
85.64980525534361
 21
-8.035094531984726
 31
0.0
  0
LINE
  5
1AF
330
1AA
100
AcDbEntity
  8
치수문자_일반주서
 62
     0
370
    -2
100
AcDbLine
 10
110.9228052553436
 20
-8.035094531984726
 30
0.0
 11
88.9518052553436
 21
-8.035094531984726
 31
0.0
  0
SOLID
  5
1B0
330
1AA
100
AcDbEntity
  8
치수문자_일반주서
 62
     0
100
AcDbTrace
 10
110.9228052553436
 20
-8.585427865318058
 30
0.0
 11
110.9228052553436
 21
-7.484761198651392
 31
0.0
 12
114.2248052553436
 22
-8.035094531984726
 32
0.0
 13
114.2248052553436
 23
-8.035094531984726
 33
0.0
  0
SOLID
  5
1B1
330
1AA
100
AcDbEntity
  8
치수문자_일반주서
 62
     0
100
AcDbTrace
 10
88.9518052553436
 20
-7.484761198651392
 30
0.0
 11
88.9518052553436
 21
-8.585427865318058
 31
0.0
 12
85.64980525534361
 22
-8.035094531984726
 32
0.0
 13
85.64980525534361
 23
-8.035094531984726
 33
0.0
  0
MTEXT
  5
1B2
330
1AA
100
AcDbEntity
  8
치수문자_일반주서
 62
     0
100
AcDbMText
 10
99.9373052553436
 20
-3.660094531984726
 30
0.0
 40
3.5
 41
0.0
 71
     2
 72
     1
  1
\A1;28.58 [1 1/8]
  7
SLDTEXTSTYLE0
 73
     1
 44
1.0
  0
POINT
  5
1B3
330
1AA
100
AcDbEntity
  8
Defpoints
 62
     0
100
AcDbPoint
 10
114.2248052553436
 20
-24.23142188798221
 30
0.0
  0
POINT
  5
1B4
330
1AA
100
AcDbEntity
  8
Defpoints
 62
     0
100
AcDbPoint
 10
85.64980525534361
 20
-24.6957337308745
 30
0.0
  0
POINT
  5
1B5
330
1AA
100
AcDbEntity
  8
Defpoints
 62
     0
100
AcDbPoint
 10
85.64980525534361
 20
-8.035094531984726
 30
0.0
  0
ENDBLK
  5
1AC
330
1AA
100
AcDbEntity
  8
0
100
AcDbBlockEnd
  0
ENDSEC
  0
SECTION
  2
ENTITIES
  0
LINE
  5
96
330
1F
100
AcDbEntity
  8
외형선
  6
Continuous
370
    15
100
AcDbLine
 10
25.5250861422764
 20
7.937499999999994
 30
0.0
 11
6.74369999999989
 21
7.937499999999993
 31
0.0
  0
LINE
  5
97
330
1F
100
AcDbEntity
  8
외형선
  6
Continuous
370
    15
100
AcDbLine
 10
-25.52508614227645
 20
-7.937500000000003
 30
0.0
 11
25.5250861422764
 21
-7.937499999999999
 31
0.0
  0
SPLINE
  5
9A
330
1F
100
AcDbEntity
  8
외형선
  6
Continuous
370
    15
100
AcDbSpline
210
0.0
220
0.0
230
1.0
 70
     8
 71
     3
 72
     9
 73
     5
 74
     0
 42
0.000000001
 43
0.00000001
 40
0.0
 40
0.0
 40
0.0
 40
0.0
 40
0.4376136415025652
 40
1.0
 40
1.0
 40
1.0
 40
1.0
 10
25.52511909676688
 20
-6.118610546261627
 30
0.0
 10
25.96884393855738
 20
-6.0856041145419
 30
0.0
 10
26.98280876896565
 20
-6.010180433492106
 30
0.0
 10
28.00188527483426
 20
-5.965468312604296
 30
0.0
 10
28.575
 20
-5.940322825757502
 30
0.0
  0
SPLINE
  5
9B
330
1F
100
AcDbEntity
  8
0
  6
Continuous
 62
     1
370
    15
100
AcDbSpline
210
0.0
220
0.0
230
1.0
 70
     8
 71
     3
 72
    11
 73
     7
 74
     0
 42
0.000000001
 43
0.00000001
 40
0.0
 40
0.0
 40
0.0
 40
0.0
 40
0.3161037260638675
 40
0.4846633549837074
 40
0.6726064154798261
 40
1.0
 40
1.0
 40
1.0
 40
1.0
 10
37.61346965543201
 20
1.932272058550731
 30
0.0
 10
37.39302591481508
 20
2.036607995257134
 30
0.0
 10
37.05503242058157
 20
2.196580184636753
 30
0.0
 10
36.58676930150227
 20
2.429255067980866
 30
0.0
 10
36.1103327297761
 20
2.670203037095852
 30
0.0
 10
35.75093166791045
 20
2.858756569477392
 30
0.0
 10
35.52260402410234
 20
2.978544706877132
 30
0.0
1001
PE_URL
1000

  0
SPLINE
  5
9C
330
1F
100
AcDbEntity
  8
0
  6
Continuous
 62
     1
370
    15
100
AcDbSpline
210
0.0
220
0.0
230
1.0
 70
     8
 71
     3
 72
    10
 73
     6
 74
     0
 42
0.000000001
 43
0.00000001
 40
0.0
 40
0.0
 40
0.0
 40
0.0
 40
0.2245173153872269
 40
0.5080946515841183
 40
1.0
 40
1.0
 40
1.0
 40
1.0
 10
35.12104209637334
 20
5.992077350126031
 30
0.0
 10
34.65722099552244
 20
5.970052666013877
 30
0.0
 10
33.60756912244641
 20
5.920209631943591
 30
0.0
 10
31.56383401996379
 20
5.872274568532905
 30
0.0
 10
29.96738366100212
 20
5.910646720822566
 30
0.0
 10
28.95472085674386
 20
5.934987002451079
 30
0.0
1001
PE_URL
1000

  0
SPLINE
  5
9D
330
1F
100
AcDbEntity
  8
0
  6
Continuous
 62
     1
370
    15
100
AcDbSpline
210
0.0
220
0.0
230
1.0
 70
     8
 71
     3
 72
    29
 73
    25
 74
     0
 42
0.000000001
 43
0.00000001
 40
0.0
 40
0.0
 40
0.0
 40
0.0
 40
0.0634157636092873
 40
0.1134575122122576
 40
0.1508671751145401
 40
0.1882010350929899
 40
0.2297406444419891
 40
0.2726420536680095
 40
0.3090578176137757
 40
0.3496233646243786
 40
0.3898636469279089
 40
0.4364828002230224
 40
0.5005854839710197
 40
0.555574833244109
 40
0.5972369879262157
 40
0.6313872632311026
 40
0.6649130995682111
 40
0.7018038687407527
 40
0.7481339695397666
 40
0.7958254932196858
 40
0.8383961224649034
 40
0.8777141733275322
 40
0.9304521507314094
 40
1.0
 40
1.0
 40
1.0
 40
1.0
 10
54.34862262616461
 20
5.157435819159964
 30
0.0
 10
54.07453842655716
 20
5.134986195287087
 30
0.0
 10
53.58417278788504
 20
5.094821442396774
 30
0.0
 10
52.92610909174989
 20
5.052664072905948
 30
0.0
 10
52.36978563595309
 20
5.022989272091905
 30
0.0
 10
51.85328674059379
 20
5.000238200965561
 30
0.0
 10
51.31635343829031
 20
4.982028261824651
 30
0.0
 10
50.78611384593584
 20
4.969807582526418
 30
0.0
 10
50.25976586632112
 20
4.963004973794527
 30
0.0
 10
49.7449858152696
 20
4.96143069319798
 30
0.0
 10
49.18560271983387
 20
4.965564960469842
 30
0.0
 10
48.52249710295342
 20
4.97786989768265
 30
0.0
 10
47.79463869819662
 20
5.001634178935886
 30
0.0
 10
47.08878445049497
 20
5.035389316062657
 30
0.0
 10
46.51441934854644
 20
5.069969122169389
 30
0.0
 10
46.03424393800482
 20
5.103297787355256
 30
0.0
 10
45.57644842079091
 20
5.138844718253011
 30
0.0
 10
45.0651752141406
 20
5.182887002711761
 30
0.0
 10
44.48988656368969
 20
5.238292163604974
 30
0.0
 10
43.88844401536294
 20
5.303131534369439
 30
0.0
 10
43.31474604050968
 20
5.370681249173459
 30
0.0
 10
42.71468869551892
 20
5.446750674821795
 30
0.0
 10
42.00782407270141
 20
5.543537585135676
 30
0.0
 10
41.47756997073024
 20
5.625137854221808
 30
0.0
 10
41.17599755337466
 20
5.671546529446936
 30
0.0
1001
PE_URL
1000

  0
SPLINE
  5
9E
330
1F
100
AcDbEntity
  8
0
  6
Continuous
 62
     1
370
    15
100
AcDbSpline
210
0.0
220
0.0
230
1.0
 70
     8
 71
     3
 72
    17
 73
    13
 74
     0
 42
0.000000001
 43
0.00000001
 40
0.0
 40
0.0
 40
0.0
 40
0.0
 40
0.1500641782308739
 40
0.2675216305870672
 40
0.3543347199653408
 40
0.4415117149831415
 40
0.5391412742311343
 40
0.6405992919595418
 40
0.727043076698679
 40
0.823012055381485
 40
0.9167144193878133
 40
1.0
 40
1.0
 40
1.0
 40
1.0
 10
41.17599755337466
 20
-5.671546529446942
 30
0.0
 10
41.45320582720279
 20
-5.628811968308068
 30
0.0
 10
41.94738911798544
 20
-5.552628433949153
 30
0.0
 10
42.60632882287625
 20
-5.461298744477212
 30
0.0
 10
43.15831488428366
 20
-5.390141442943772
 30
0.0
 10
43.67183900287738
 20
-5.328162325406939
 30
0.0
 10
44.21006649270038
 20
-5.267861875526686
 30
0.0
 10
44.74464970711595
 20
-5.213202668645139
 30
0.0
 10
45.27571209751952
 20
-5.164155332688684
 30
0.0
 10
45.79006123617646
 20
-5.121659090940479
 30
0.0
 10
46.30009651024994
 20
-5.083869488016321
 30
0.0
 10
46.63124547313532
 20
-5.063821097466216
 30
0.0
 10
46.78707492074248
 20
-5.054386885147947
 30
0.0
1001
PE_URL
1000

  0
SPLINE
  5
9F
330
1F
100
AcDbEntity
  8
0
  6
Continuous
 62
     1
370
    15
100
AcDbSpline
210
0.0
220
0.0
230
1.0
 70
     8
 71
     3
 72
    19
 73
    15
 74
     0
 42
0.000000001
 43
0.00000001
 40
0.0
 40
0.0
 40
0.0
 40
0.0
 40
0.1259347270560653
 40
0.2205889246838352
 40
0.2838414389912624
 40
0.3357676121527183
 40
0.3892510181652913
 40
0.4441957403582479
 40
0.4999004802336781
 40
0.557629479913505
 40
0.6268464970186302
 40
0.7235435837793734
 40
0.8477688363272881
 40
0.9999999999999999
 40
0.9999999999999999
 40
0.9999999999999999
 40
0.9999999999999999
 10
28.57499999999995
 20
-5.940322825757503
 30
0.0
 10
28.85059939376563
 20
-5.930744934811196
 30
0.0
 10
29.33334291761687
 20
-5.913968175024801
 30
0.0
 10
29.95399768191174
 20
-5.900646987655718
 30
0.0
 10
30.41451466271429
 20
-5.893788457300054
 30
0.0
 10
30.77998081382884
 20
-5.890348199119571
 30
0.0
 10
31.1161237137745
 20
-5.888562873153186
 30
0.0
 10
31.45052536119258
 20
-5.88724578335176
 30
0.0
 10
31.81703175614318
 20
-5.888497510498288
 30
0.0
 10
32.22257116835583
 20
-5.893531395578639
 30
0.0
 10
32.72015474196587
 20
-5.902519461509811
 30
0.0
 10
33.36062201678789
 20
-5.917981153201556
 30
0.0
 10
34.18104158394813
 20
-5.945518910139341
 30
0.0
 10
34.78723869601582
 20
-5.975543991497535
 30
0.0
 10
35.12104209637334
 20
-5.992077350126036
 30
0.0
1001
PE_URL
1000

  0
SPLINE
  5
A0
330
1F
100
AcDbEntity
  8
외형선
  6
Continuous
370
    15
100
AcDbSpline
210
0.0
220
0.0
230
1.0
 70
     8
 71
     3
 72
     8
 73
     4
 74
     0
 42
0.000000001
 43
0.00000001
 40
0.0
 40
0.0
 40
0.0
 40
0.0
 40
1.0
 40
1.0
 40
1.0
 40
1.0
 10
26.09384233574612
 20
7.091525945234786
 30
0.0
 10
25.90467073029525
 20
7.143239689372376
 30
0.0
 10
25.71502592539033
 20
7.192758003985618
 30
0.0
 10
25.52517639494764
 20
7.240002485939427
 30
0.0
  0
LINE
  5
A1
330
1F
100
AcDbEntity
  8
외형선
  6
Continuous
370
    15
100
AcDbLine
 10
26.09384233574612
 20
7.091525945234788
 30
0.0
 11
26.09384233574612
 21
5.853784850402661
 31
0.0
  0
SPLINE
  5
A2
330
1F
100
AcDbEntity
  8
외형선
  6
Continuous
370
    15
100
AcDbSpline
210
0.0
220
0.0
230
1.0
 70
     8
 71
     3
 72
     8
 73
     4
 74
     0
 42
0.000000001
 43
0.00000001
 40
0.0
 40
0.0
 40
0.0
 40
0.0
 40
1.0
 40
1.0
 40
1.0
 40
1.0
 10
26.09384233574612
 20
5.85378485040266
 30
0.0
 10
25.904640753503
 20
5.931544160126035
 30
0.0
 10
25.71496582174618
 20
6.007519873079844
 30
0.0
 10
25.5250861422764
 20
6.081597334316912
 30
0.0
  0
LINE
  5
A3
330
1F
100
AcDbEntity
  8
외형선
  6
Continuous
370
    15
100
AcDbLine
 10
25.5250861422764
 20
-7.937499999999999
 30
0.0
 11
25.5250861422764
 21
6.081682711113102
 31
0.0
  0
SPLINE
  5
A4
330
1F
100
AcDbEntity
  8
외형선
  6
Continuous
370
    15
100
AcDbSpline
210
0.0
220
0.0
230
1.0
 70
     8
 71
     3
 72
     8
 73
     4
 74
     0
 42
0.000000001
 43
0.00000001
 40
0.0
 40
0.0
 40
0.0
 40
0.0
 40
1.0
 40
1.0
 40
1.0
 40
1.0
 10
26.09384233574612
 20
-7.091525945234793
 30
0.0
 10
25.90467073029525
 20
-7.143239689372383
 30
0.0
 10
25.71502592539033
 20
-7.192758003985624
 30
0.0
 10
25.52517639494764
 20
-7.240002485939431
 30
0.0
  0
LINE
  5
A5
330
1F
100
AcDbEntity
  8
외형선
  6
Continuous
370
    15
100
AcDbLine
 10
25.5250861422764
 20
7.240059052247884
 30
0.0
 11
25.5250861422764
 21
7.937499999999994
 31
0.0
  0
SPLINE
  5
A8
330
1F
100
AcDbEntity
  8
외형선
  6
Continuous
370
    15
100
AcDbSpline
210
0.0
220
0.0
230
1.0
 70
    24
 71
     3
 72
    10
 73
     6
 74
     0
 42
0.000000001
 43
0.00000001
 40
0.0
 40
0.0
 40
0.0
 40
0.0
 40
0.5000000000000002
 40
0.5000000000000002
 40
1.0
 40
1.0
 40
1.0
 40
1.0
 10
28.575
 20
4.612730446493935
 30
0.0
 10
28.575
 20
4.473000059846845
 30
0.0
 10
28.575
 20
4.256587951558427
 30
0.0
 10
28.575
 20
3.714332700053162
 30
0.0
 10
28.575
 20
3.390358131900998
 30
0.0
 10
28.575
 20
3.05454054889713
 30
0.0
  0
SPLINE
  5
A9
330
1F
100
AcDbEntity
  8
외형선
  6
Continuous
370
    15
100
AcDbSpline
210
0.0
220
0.0
230
1.0
 70
     8
 71
     3
 72
    10
 73
     6
 74
     0
 42
0.000000001
 43
0.00000001
 40
0.0
 40
0.0
 40
0.0
 40
0.0
 40
0.5
 40
0.5
 40
1.0
 40
1.0
 40
1.0
 40
1.0
 10
28.57499999999921
 20
3.054540548897392
 30
0.0
 10
28.06736086155118
 20
3.222002049501393
 30
0.0
 10
27.5565968055902
 20
3.382848687434507
 30
0.0
 10
26.53923205307025
 20
3.688001871431793
 30
0.0
 10
26.0342082773708
 20
3.832195076460807
 30
0.0
 10
25.5251078840609
 20
3.967746731525127
 30
0.0
  0
SPLINE
  5
AA
330
1F
100
AcDbEntity
  8
외형선
  6
Continuous
370
    15
100
AcDbSpline
210
0.0
220
0.0
230
1.0
 70
     8
 71
     3
 72
     8
 73
     4
 74
     0
 42
0.000000001
 43
0.00000001
 40
0.0
 40
0.0
 40
0.0
 40
0.0
 40
1.0
 40
1.0
 40
1.0
 40
1.0
 10
26.09384233574612
 20
5.853784850402661
 30
0.0
 10
26.58821139517216
 20
5.592123526951963
 30
0.0
 10
27.08152797419785
 20
5.325392424619756
 30
0.0
 10
27.57500000000001
 20
5.05513239060914
 30
0.0
  0
SPLINE
  5
AB
330
1F
100
AcDbEntity
  8
외형선
  6
Continuous
370
    15
100
AcDbSpline
210
0.0
220
0.0
230
1.0
 70
     8
 71
     3
 72
     8
 73
     4
 74
     0
 42
0.000000001
 43
0.00000001
 40
0.0
 40
0.0
 40
0.0
 40
0.0
 40
1.0
 40
1.0
 40
1.0
 40
1.0
 10
28.575
 20
4.612730446493935
 30
0.0
 10
28.24251944078704
 20
4.764713268329659
 30
0.0
 10
27.90869910036541
 20
4.912402003501016
 30
0.0
 10
27.57500000000001
 20
5.05513239060914
 30
0.0
  0
LINE
  5
AC
330
1F
100
AcDbEntity
  8
외형선
  6
Continuous
370
    15
100
AcDbLine
 10
27.57500000000001
 20
6.403813105463664
 30
0.0
 11
27.57500000000001
 21
5.05513239060914
 31
0.0
  0
SPLINE
  5
AD
330
1F
100
AcDbEntity
  8
외형선
  6
Continuous
370
    15
100
AcDbSpline
210
0.0
220
0.0
230
1.0
 70
     8
 71
     3
 72
     8
 73
     4
 74
     0
 42
0.000000001
 43
0.00000001
 40
0.0
 40
0.0
 40
0.0
 40
0.0
 40
1.0
 40
1.0
 40
1.0
 40
1.0
 10
28.57499999999986
 20
6.080798174935617
 30
0.0
 10
28.24251944078694
 20
6.194411847972749
 30
0.0
 10
27.90869910036537
 20
6.302248385341402
 30
0.0
 10
27.57500000000001
 20
6.403813105463668
 30
0.0
  0
LINE
  5
AE
330
1F
100
AcDbEntity
  8
외형선
  6
Continuous
370
    15
100
AcDbLine
 10
28.575
 20
6.080798174935569
 30
0.0
 11
28.575
 21
4.612730446493937
 31
0.0
  0
SPLINE
  5
AF
330
1F
100
AcDbEntity
  8
외형선
  6
Continuous
370
    15
100
AcDbSpline
210
0.0
220
0.0
230
1.0
 70
     8
 71
     3
 72
    10
 73
     6
 74
     0
 42
0.000000001
 43
0.00000001
 40
0.0
 40
0.0
 40
0.0
 40
0.0
 40
0.5
 40
0.5
 40
1.0
 40
1.0
 40
1.0
 40
1.0
 10
28.57499999999953
 20
-4.919822061032962
 30
0.0
 10
28.0673627249719
 20
-4.784023934812071
 30
0.0
 10
27.55660055537297
 20
-4.636742704374909
 30
0.0
 10
26.53923950678756
 20
-4.32217338618681
 30
0.0
 10
26.0342175997057
 20
-4.155106442820693
 30
0.0
 10
25.52511909676688
 20
-3.978540313929782
 30
0.0
  0
SPLINE
  5
B0
330
1F
100
AcDbEntity
  8
외형선
  6
Continuous
370
    15
100
AcDbSpline
210
0.0
220
0.0
230
1.0
 70
    24
 71
     3
 72
    14
 73
    10
 74
     0
 42
0.000000001
 43
0.00000001
 40
0.0
 40
0.0
 40
0.0
 40
0.0
 40
0.25
 40
0.25
 40
0.5
 40
0.5
 40
0.75
 40
0.75
 40
1.0
 40
1.0
 40
1.0
 40
1.0
 10
28.575
 20
3.054540548897129
 30
0.0
 10
28.575
 20
2.439959560807889
 30
0.0
 10
28.575
 20
1.773564067987275
 30
0.0
 10
28.575
 20
0.3888725292110662
 30
0.0
 10
28.575
 20
-0.3288512880542265
 30
0.0
 10
28.575
 20
-1.746125433565098
 30
0.0
 10
28.575
 20
-2.444920578892236
 30
0.0
 10
28.575
 20
-3.757487761607865
 30
0.0
 10
28.575
 20
-4.37078887285579
 30
0.0
 10
28.575
 20
-4.91982206103309
 30
0.0
  0
SPLINE
  5
B1
330
1F
100
AcDbEntity
  8
외형선
  6
Continuous
370
    15
100
AcDbSpline
210
0.0
220
0.0
230
1.0
 70
     8
 71
     3
 72
     8
 73
     4
 74
     0
 42
0.000000001
 43
0.00000001
 40
0.0
 40
0.0
 40
0.0
 40
0.0
 40
1.0
 40
1.0
 40
1.0
 40
1.0
 10
27.57500000000001
 20
6.403813105463664
 30
0.0
 10
27.07920573183319
 20
6.637373452049616
 30
0.0
 10
26.58586090821161
 20
6.867169488493185
 30
0.0
 10
26.09384233574612
 20
7.091525945234793
 30
0.0
  0
SPLINE
  5
B2
330
1F
100
AcDbEntity
  8
외형선
  6
Continuous
370
    15
100
AcDbSpline
210
0.0
220
0.0
230
1.0
 70
    24
 71
     3
 72
    11
 73
     7
 74
     0
 42
0.000000001
 43
0.00000001
 40
0.0
 40
0.0
 40
0.0
 40
0.0
 40
0.2265049865086349
 40
0.4530099730172696
 40
0.7842765771273569
 40
1.0
 40
1.0
 40
1.0
 40
1.0
 10
28.575
 20
-4.91982206103309
 30
0.0
 10
28.575
 20
-5.061913415851975
 30
0.0
 10
28.575
 20
-5.346096125489745
 30
0.0
 10
28.57500000000002
 20
-5.689686018343282
 30
0.0
 10
28.575
 20
-5.919360432732181
 30
0.0
 10
28.575
 20
-5.91417604547818
 30
0.0
 10
28.575
 20
-5.912131412653522
 30
0.0
  0
SPLINE
  5
B3
330
1F
100
AcDbEntity
  8
외형선
  6
Continuous
370
    15
100
AcDbSpline
210
0.0
220
0.0
230
1.0
 70
     8
 71
     3
 72
     8
 73
     4
 74
     0
 42
0.000000001
 43
0.00000001
 40
0.0
 40
0.0
 40
0.0
 40
0.0
 40
1.0
 40
1.0
 40
1.0
 40
1.0
 10
28.57499999999986
 20
-6.080798174935623
 30
0.0
 10
28.24251944078694
 20
-6.194411847972752
 30
0.0
 10
27.90869910036537
 20
-6.302248385341407
 30
0.0
 10
27.57500000000001
 20
-6.403813105463671
 30
0.0
  0
SPLINE
  5
B4
330
1F
100
AcDbEntity
  8
외형선
  6
Continuous
370
    15
100
AcDbSpline
210
0.0
220
0.0
230
1.0
 70
     8
 71
     3
 72
     8
 73
     4
 74
     0
 42
0.000000001
 43
0.00000001
 40
0.0
 40
0.0
 40
0.0
 40
0.0
 40
1.0
 40
1.0
 40
1.0
 40
1.0
 10
27.57500000000001
 20
-6.403813105463669
 30
0.0
 10
27.07920573183319
 20
-6.637373452049619
 30
0.0
 10
26.58586090821161
 20
-6.86716948849319
 30
0.0
 10
26.09384233574612
 20
-7.091525945234797
 30
0.0
  0
LINE
  5
B5
330
1F
100
AcDbEntity
  8
외형선
  6
Continuous
370
    15
100
AcDbLine
 10
28.575
 20
-5.991546171802295
 30
0.0
 11
28.57500000000001
 21
-6.080798174920628
 31
0.0
  0
SPLINE
  5
B6
330
1F
100
AcDbEntity
  8
0
  6
Continuous
 62
     1
370
    15
100
AcDbSpline
210
0.0
220
0.0
230
1.0
 70
     8
 71
     3
 72
    46
 73
    42
 74
     0
 42
0.000000001
 43
0.00000001
 40
0.0
 40
0.0
 40
0.0
 40
0.0
 40
0.0625000000000001
 40
0.0625000000000001
 40
0.1250000000000002
 40
0.1250000000000002
 40
0.1875000000000004
 40
0.1875000000000004
 40
0.2500000000000005
 40
0.2500000000000005
 40
0.2812500000000006
 40
0.2812500000000006
 40
0.3125000000000006
 40
0.3125000000000006
 40
0.3437500000000007
 40
0.3437500000000007
 40
0.3750000000000008
 40
0.3750000000000008
 40
0.4375000000000009
 40
0.4375000000000009
 40
0.4687500000000008
 40
0.4687500000000008
 40
0.5000000000000008
 40
0.5000000000000008
 40
0.5625000000000007
 40
0.5625000000000007
 40
0.6250000000000006
 40
0.6250000000000006
 40
0.6875000000000004
 40
0.6875000000000004
 40
0.7500000000000003
 40
0.7500000000000003
 40
0.8125000000000003
 40
0.8125000000000003
 40
0.8750000000000002
 40
0.8750000000000002
 40
0.9375000000000001
 40
0.9375000000000001
 40
0.96875
 40
0.96875
 40
1.0
 40
1.0
 40
1.0
 40
1.0
 10
57.15000000000001
 20
-7.155607242051796
 30
0.0
 10
56.55753165874402
 20
-7.047354478431354
 30
0.0
 10
55.95907241920511
 20
-6.916404688665533
 30
0.0
 10
54.76686179363584
 20
-6.612501848199846
 30
0.0
 10
54.17519579696474
 20
-6.439867775976517
 30
0.0
 10
52.98204863469305
 20
-6.054623733358435
 30
0.0
 10
52.38667517436054
 20
-5.842604114890639
 30
0.0
 10
51.19894547768521
 20
-5.383963307745778
 30
0.0
 10
50.60015179410409
 20
-5.136464680397289
 30
0.0
 10
49.70710834849527
 20
-4.743071966865817
 30
0.0
 10
49.41125774315403
 20
-4.608419667826396
 30
0.0
 10
48.81679626480261
 20
-4.33174262818584
 30
0.0
 10
48.51846752976555
 20
-4.189750387380179
 30
0.0
 10
47.92170114820131
 20
-3.899427586721483
 30
0.0
 10
47.62326513325785
 20
-3.751097817119051
 30
0.0
 10
47.02837703381979
 20
-3.449159858694607
 30
0.0
 10
46.73263046332853
 20
-3.295680347104149
 30
0.0
 10
45.84014539422044
 20
-2.827004751805973
 30
0.0
 10
45.24129614277126
 20
-2.504057869631809
 30
0.0
 10
44.34977762889362
 20
-2.01067122406298
 30
0.0
 10
44.05387392375609
 20
-1.84475307045402
 30
0.0
 10
43.45842357496217
 20
-1.509624298123405
 30
0.0
 10
43.15986703670345
 20
-1.340595610756063
 30
0.0
 10
42.26484191091641
 20
-0.8308873979511162
 30
0.0
 10
41.67292229188315
 20
-0.4883394362659156
 30
0.0
 10
40.48123787226042
 20
0.1991631419625607
 30
0.0
 10
39.88261201576682
 20
0.5438958608461267
 30
0.0
 10
38.69649799793353
 20
1.225709978501162
 30
0.0
 10
38.09937609659303
 20
1.564633562852855
 30
0.0
 10
36.90672646502901
 20
2.230316005815696
 30
0.0
 10
36.31516960513034
 20
2.556362294616594
 30
0.0
 10
35.12232954364224
 20
3.192281766724984
 30
0.0
 10
34.5258350865285
 20
3.501255861782445
 30
0.0
 10
33.33915315367285
 20
4.094470726561497
 30
0.0
 10
32.74045929321939
 20
4.380100614060577
 30
0.0
 10
31.54907703455726
 20
4.921325953160819
 30
0.0
 10
30.95697228327548
 20
5.176918176846577
 30
0.0
 10
30.06188835310996
 20
5.535912616611809
 30
0.0
 10
29.76336695170816
 20
5.651367113236986
 30
0.0
 10
29.16809553440523
 20
5.873067299328837
 30
0.0
 10
28.87228723350679
 20
5.979210597527464
 30
0.0
 10
28.57499999999482
 20
6.080798174937343
 30
0.0
1001
PE_URL
1000

  0
SPLINE
  5
B7
330
1F
100
AcDbEntity
  8
0
  6
Continuous
 62
     1
370
    15
100
AcDbSpline
210
0.0
220
0.0
230
1.0
 70
     8
 71
     3
 72
    15
 73
    11
 74
     0
 42
0.000000001
 43
0.00000001
 40
0.0
 40
0.0
 40
0.0
 40
0.0
 40
0.1347991541547375
 40
0.2696006928856333
 40
0.4044044781795806
 40
0.539210371702371
 40
0.6740182348182074
 40
0.8088279286093145
 40
0.9436393138956306
 40
0.9999999999999999
 40
0.9999999999999999
 40
0.9999999999999999
 40
0.9999999999999999
 10
57.15000000000001
 20
-5.949343981001583
 30
0.0
 10
56.27161229361028
 20
-5.76555427120973
 30
0.0
 10
54.51482134228834
 20
-5.397971600414528
 30
0.0
 10
51.87960362918754
 20
-4.562905645002732
 30
0.0
 10
49.24433601344873
 20
-3.559922659767429
 30
0.0
 10
46.60902090986708
 20
-2.408184379459548
 30
0.0
 10
43.97366169702533
 20
-1.158659856977594
 30
0.0
 10
41.33826111380492
 20
0.1333548574475439
 30
0.0
 10
39.21404663221539
 20
1.184955778527339
 30
0.0
 10
37.96829789493692
 20
1.759395266695332
 30
0.0
 10
37.60103057897432
 20
1.928749521441186
 30
0.0
1001
PE_URL
1000

  0
LINE
  5
B8
330
1F
100
AcDbEntity
  8
0
  6
Continuous
 62
     1
370
    15
100
AcDbLine
 10
57.15000000000001
 20
-7.1556072420518
 30
0.0
 11
57.15000000000001
 21
-5.949343981001583
 31
0.0
1001
PE_URL
1000

  0
SPLINE
  5
B9
330
1F
100
AcDbEntity
  8
0
  6
Continuous
 62
     1
370
    15
100
AcDbSpline
210
0.0
220
0.0
230
1.0
 70
     8
 71
     3
 72
    46
 73
    42
 74
     0
 42
0.000000001
 43
0.00000001
 40
0.0
 40
0.0
 40
0.0
 40
0.0
 40
0.0625000000000003
 40
0.0625000000000003
 40
0.1250000000000006
 40
0.1250000000000006
 40
0.1875000000000009
 40
0.1875000000000009
 40
0.2500000000000013
 40
0.2500000000000013
 40
0.2812500000000013
 40
0.2812500000000013
 40
0.3125000000000013
 40
0.3125000000000013
 40
0.3437500000000013
 40
0.3437500000000013
 40
0.3750000000000012
 40
0.3750000000000012
 40
0.4375000000000012
 40
0.4375000000000012
 40
0.4687500000000011
 40
0.4687500000000011
 40
0.500000000000001
 40
0.500000000000001
 40
0.562500000000001
 40
0.562500000000001
 40
0.6250000000000009
 40
0.6250000000000009
 40
0.6875000000000008
 40
0.6875000000000008
 40
0.7500000000000006
 40
0.7500000000000006
 40
0.8125000000000004
 40
0.8125000000000004
 40
0.8750000000000003
 40
0.8750000000000003
 40
0.9375000000000002
 40
0.9375000000000002
 40
0.9687500000000002
 40
0.9687500000000002
 40
1.0
 40
1.0
 40
1.0
 40
1.0
 10
57.15000000000001
 20
-7.534251778591034
 30
0.0
 10
56.55753165874412
 20
-7.520145839719204
 30
0.0
 10
55.9590724192053
 20
-7.48247711593992
 30
0.0
 10
54.76686179363626
 20
-7.360781525632161
 30
0.0
 10
54.17519579696528
 20
-7.27697916812052
 30
0.0
 10
52.98204863469378
 20
-7.064119533694769
 30
0.0
 10
52.38667517436139
 20
-6.935346791013756
 30
0.0
 10
51.19894547768626
 20
-6.635758055322823
 30
0.0
 10
50.60015179410526
 20
-6.464339747234719
 30
0.0
 10
49.70710834849658
 20
-6.178290296425649
 30
0.0
 10
49.41125774315537
 20
-6.078257527111258
 30
0.0
 10
48.81679626480408
 20
-5.868587438959295
 30
0.0
 10
48.51846752976708
 20
-5.758968350526402
 30
0.0
 10
47.92170114820294
 20
-5.530895054665167
 30
0.0
 10
47.62326513325952
 20
-5.412441465896535
 30
0.0
 10
47.02837703382157
 20
-5.167557420921105
 30
0.0
 10
46.73263046333037
 20
-5.041237518525115
 30
0.0
 10
45.84014539422243
 20
-4.650062615236751
 30
0.0
 10
45.24129614277336
 20
-4.37334933544988
 30
0.0
 10
44.34977762889586
 20
-3.940203604014305
 30
0.0
 10
44.0538739237584
 20
-3.792853981578737
 30
0.0
 10
43.45842357496461
 20
-3.491875094243668
 30
0.0
 10
43.15986703670593
 20
-3.338404080044314
 30
0.0
 10
42.26484191091904
 20
-2.870643847248817
 30
0.0
 10
41.67292229188589
 20
-2.549717877869891
 30
0.0
 10
40.48123787226338
 20
-1.892596665020964
 30
0.0
 10
39.88261201576988
 20
-1.556572316154938
 30
0.0
 10
38.69649799793676
 20
-0.879027945980261
 30
0.0
 10
38.09937609659641
 20
-0.5356857777400074
 30
0.0
 10
36.90672646503258
 20
0.1519060307401731
 30
0.0
 10
36.31516960513402
 20
0.495383459607258
 30
0.0
 10
35.12232954364615
 20
1.178982201843864
 30
0.0
 10
34.52583508653245
 20
1.518170625945247
 30
0.0
 10
33.33915315367707
 20
2.183827718927164
 30
0.0
 10
32.74045929322372
 20
2.511869498814545
 30
0.0
 10
31.54907703456177
 20
3.149162127352109
 30
0.0
 10
30.95697228328012
 20
3.458358317153103
 30
0.0
 10
30.06188835311476
 20
3.905746033440091
 30
0.0
 10
29.76336695171301
 20
4.051966794360325
 30
0.0
 10
29.16809553441016
 20
4.337581382375841
 30
0.0
 10
28.87228723351176
 20
4.476835124518403
 30
0.0
 10
28.57499999999987
 20
4.612730446494001
 30
0.0
1001
PE_URL
1000

  0
SPLINE
  5
BA
330
1F
100
AcDbEntity
  8
0
  6
Continuous
 62
     1
370
    15
100
AcDbSpline
210
0.0
220
0.0
230
1.0
 70
     8
 71
     3
 72
    11
 73
     7
 74
     0
 42
0.000000001
 43
0.00000001
 40
0.0
 40
0.0
 40
0.0
 40
0.0
 40
0.2394585853285065
 40
0.5069820874922206
 40
0.7534851974836811
 40
1.0
 40
1.0
 40
1.0
 40
1.0
 10
38.4263395457091
 20
-0.7208405584033782
 30
0.0
 10
37.63999963301492
 20
-0.4039931772895571
 30
0.0
 10
35.97515955275957
 20
0.2668365884219387
 30
0.0
 10
33.50079884717462
 20
1.261588060987392
 30
0.0
 10
31.00343526014944
 20
2.223487970312664
 30
0.0
 10
29.38449121846475
 20
2.777518642863196
 30
0.0
 10
28.575
 20
3.054540548897132
 30
0.0
1001
PE_URL
1000

  0
SPLINE
  5
BB
330
1F
100
AcDbEntity
  8
외형선
  6
Continuous
370
    15
100
AcDbSpline
210
0.0
220
0.0
230
1.0
 70
    24
 71
     3
 72
    10
 73
     6
 74
     0
 42
0.000000001
 43
0.00000001
 40
0.0
 40
0.0
 40
0.0
 40
0.0
 40
0.5
 40
0.5
 40
1.0
 40
1.0
 40
1.0
 40
1.0
 10
28.57500000000001
 20
4.612730446493933
 30
0.0
 10
28.57500000000001
 20
4.473000059846843
 30
0.0
 10
28.57500000000001
 20
4.256587951558427
 30
0.0
 10
28.57500000000001
 20
3.714332700053161
 30
0.0
 10
28.57500000000001
 20
3.390358131900996
 30
0.0
 10
28.57500000000001
 20
3.054540548897128
 30
0.0
  0
LINE
  5
BC
330
1F
100
AcDbEntity
  8
0
  6
Continuous
 62
     1
370
    15
100
AcDbLine
 10
57.15000000000001
 20
-7.534251778591039
 30
0.0
 11
57.14999999999973
 21
-7.1556072420518
 31
0.0
1001
PE_URL
1000

  0
SPLINE
  5
BD
330
1F
100
AcDbEntity
  8
0
  6
Continuous
 62
     1
370
    15
100
AcDbSpline
210
0.0
220
0.0
230
1.0
 70
     8
 71
     3
 72
     8
 73
     4
 74
     0
 42
0.000000001
 43
0.00000001
 40
0.0
 40
0.0
 40
0.0
 40
0.0
 40
1.0
 40
1.0
 40
1.0
 40
1.0
 10
52.48438873352426
 20
2.109075688396318
 30
0.0
 10
52.36758363509137
 20
2.24742102103661
 30
0.0
 10
52.25594148049246
 20
2.383902939617095
 30
0.0
 10
52.1499999999999
 20
2.518327366072706
 30
0.0
1001
PE_URL
1000

  0
LINE
  5
BE
330
1F
100
AcDbEntity
  8
0
  6
Continuous
 62
     1
370
    15
100
AcDbLine
 10
52.15000000000001
 20
2.937719435296589
 30
0.0
 11
57.15000000000001
 21
0.000000000000001
 31
0.0
1001
PE_URL
1000

  0
LINE
  5
BF
330
1F
100
AcDbEntity
  8
0
  6
Continuous
 62
     1
370
    15
100
AcDbLine
 10
57.15000000000001
 20
0.000000000000001
 30
0.0
 11
57.15000000000001
 21
-2.01517883990479
 31
0.0
1001
PE_URL
1000

  0
SPLINE
  5
C0
330
1F
100
AcDbEntity
  8
0
  6
Continuous
 62
     1
370
    15
100
AcDbSpline
210
0.0
220
0.0
230
1.0
 70
     8
 71
     3
 72
    12
 73
     8
 74
     0
 42
0.000000001
 43
0.00000001
 40
0.0
 40
0.0
 40
0.0
 40
0.0
 40
0.5000000000000007
 40
0.5000000000000007
 40
0.7500000000000003
 40
0.7500000000000003
 40
1.0
 40
1.0
 40
1.0
 40
1.0
 10
57.15000000000001
 20
-2.015178839904787
 30
0.0
 10
56.34236422954368
 20
-1.38024301329607
 30
0.0
 10
55.54822060530125
 20
-0.7192787536448467
 30
0.0
 10
54.37777508848083
 20
0.3122360172115577
 30
0.0
 10
53.99113826919887
 20
0.6628488592388304
 30
0.0
 10
53.22576766256536
 20
1.379320712003155
 30
0.0
 10
52.84910690720076
 20
1.74333586032933
 30
0.0
 10
52.48438873352424
 20
2.109075688396321
 30
0.0
1001
PE_URL
1000

  0
SPLINE
  5
C1
330
1F
100
AcDbEntity
  8
0
  6
Continuous
 62
     1
370
    15
100
AcDbSpline
210
0.0
220
0.0
230
1.0
 70
     8
 71
     3
 72
    15
 73
    11
 74
     0
 42
0.000000001
 43
0.00000001
 40
0.0
 40
0.0
 40
0.0
 40
0.0
 40
0.0932778957850604
 40
0.1866059107576101
 40
0.3383453905622977
 40
0.4900871186120089
 40
0.641830936325734
 40
0.7935766848221157
 40
0.945324204942092
 40
1.0
 40
1.0
 40
1.0
 40
1.0
 10
52.48438873269576
 20
2.109075688754956
 30
0.0
 10
51.94454787546562
 20
2.339709015746987
 30
0.0
 10
50.86457609887527
 20
2.801099591426102
 30
0.0
 10
48.90633572403735
 20
3.57480924827422
 30
0.0
 10
46.60895292788901
 20
4.387376256473286
 30
0.0
 10
43.9736506379328
 20
5.138977420487558
 30
0.0
 10
41.33822899989843
 20
5.686737188480793
 30
0.0
 10
38.70279017033544
 20
5.987525211690323
 30
0.0
 10
36.62928626582218
 20
6.080340964175321
 30
0.0
 10
35.43426376530721
 20
5.988215456670585
 30
0.0
 10
35.11773554139297
 20
5.963813971966232
 30
0.0
1001
PE_URL
1000

  0
SPLINE
  5
C2
330
1F
100
AcDbEntity
  8
0
  6
Continuous
 62
     1
370
    15
100
AcDbSpline
210
0.0
220
0.0
230
1.0
 70
    24
 71
     3
 72
    10
 73
     6
 74
     0
 42
0.000000001
 43
0.00000001
 40
0.0
 40
0.0
 40
0.0
 40
0.0
 40
0.5
 40
0.5
 40
1.0
 40
1.0
 40
1.0
 40
1.0
 10
57.15000000000001
 20
-5.949343981001579
 30
0.0
 10
57.15000000000001
 20
-5.493280380206818
 30
0.0
 10
57.15000000000001
 20
-4.917026533332213
 30
0.0
 10
57.15000000000001
 20
-3.577291797595595
 30
0.0
 10
57.15000000000001
 20
-2.814971437758781
 30
0.0
 10
57.15000000000001
 20
-2.015178839905028
 30
0.0
1001
PE_URL
1000

  0
SPLINE
  5
C3
330
1F
100
AcDbEntity
  8
0
  6
Continuous
 62
     1
370
    15
100
AcDbSpline
210
0.0
220
0.0
230
1.0
 70
     8
 71
     3
 72
     9
 73
     5
 74
     0
 42
0.000000001
 43
0.00000001
 40
0.0
 40
0.0
 40
0.0
 40
0.0
 40
0.9400337852064187
 40
1.0
 40
1.0
 40
1.0
 40
1.0
 10
57.15000000000001
 20
5.278437499999995
 30
0.0
 10
56.27161069186521
 20
5.275615620020897
 30
0.0
 10
55.33718756584754
 20
5.272613727936265
 30
0.0
 10
54.4027617788145
 20
5.158002525317071
 30
0.0
 10
54.34672780136062
 20
5.151129725323059
 30
0.0
1001
PE_URL
1000

  0
SPLINE
  5
C4
330
1F
100
AcDbEntity
  8
0
  6
Continuous
 62
     1
370
    15
100
AcDbSpline
210
0.0
220
0.0
230
1.0
 70
     8
 71
     3
 72
    10
 73
     6
 74
     0
 42
0.000000001
 43
0.00000001
 40
0.0
 40
0.0
 40
0.0
 40
0.0
 40
0.5
 40
0.5
 40
1.0
 40
1.0
 40
1.0
 40
1.0
 10
57.15000000000001
 20
5.278437499999999
 30
0.0
 10
56.37431557462819
 20
5.068091248733583
 30
0.0
 10
55.60335223281722
 20
4.831855881893509
 30
0.0
 10
54.07165721768715
 20
4.303277510065242
 30
0.0
 10
53.31114257325135
 20
4.011467374449538
 30
0.0
 10
52.56006675032064
 20
3.68284048165186
 30
0.0
1001
PE_URL
1000

  0
SPLINE
  5
C5
330
1F
100
AcDbEntity
  8
0
  6
Continuous
 62
     1
370
    15
100
AcDbSpline
210
0.0
220
0.0
230
1.0
 70
    24
 71
     3
 72
     8
 73
     4
 74
     0
 42
0.000000001
 43
0.00000001
 40
0.0
 40
0.0
 40
0.0
 40
0.0
 40
1.0
 40
1.0
 40
1.0
 40
1.0
 10
52.56006675030849
 20
3.682840481646527
 30
0.0
 10
52.42748269003829
 20
3.571589245573814
 30
0.0
 10
52.29064950575745
 20
3.456772571110963
 30
0.0
 10
52.15000000000001
 20
3.338753622704622
 30
0.0
1001
PE_URL
1000

  0
SPLINE
  5
C6
330
1F
100
AcDbEntity
  8
0
  6
Continuous
 62
     1
370
    15
100
AcDbSpline
210
0.0
220
0.0
230
1.0
 70
    24
 71
     3
 72
     8
 73
     4
 74
     0
 42
0.000000001
 43
0.00000001
 40
0.0
 40
0.0
 40
0.0
 40
0.0
 40
1.0
 40
1.0
 40
1.0
 40
1.0
 10
52.15000000000001
 20
2.518327366060802
 30
0.0
 10
52.15000000000001
 20
2.81000240613661
 30
0.0
 10
52.15000000000001
 20
3.085635367869402
 30
0.0
 10
52.15000000000001
 20
3.338753622704616
 30
0.0
1001
PE_URL
1000

  0
SPLINE
  5
C7
330
1F
100
AcDbEntity
  8
0
  6
Continuous
 62
     1
370
    15
100
AcDbSpline
210
0.0
220
0.0
230
1.0
 70
     8
 71
     3
 72
    12
 73
     8
 74
     0
 42
0.000000001
 43
0.00000001
 40
0.0
 40
0.0
 40
0.0
 40
0.0
 40
0.1964553155059991
 40
0.4055513179291065
 40
0.6146495418486417
 40
0.8073203206553381
 40
1.0
 40
1.0
 40
1.0
 40
1.0
 10
41.17894871500704
 20
-5.664399429749643
 30
0.0
 10
40.35356492437022
 20
-5.77737284412858
 30
0.0
 10
38.64968899091472
 20
-6.010588814764564
 30
0.0
 10
36.06732182486111
 20
-6.065235415118638
 30
0.0
 10
33.50079031000895
 20
-5.894983922082746
 30
0.0
 10
31.00344285719627
 20
-5.519421809590979
 30
0.0
 10
29.38449341682835
 20
-5.119691721441705
 30
0.0
 10
28.57500000000001
 20
-4.919822061033092
 30
0.0
1001
PE_URL
1000

  0
SPLINE
  5
C8
330
1F
100
AcDbEntity
  8
외형선
  6
Continuous
370
    15
100
AcDbSpline
210
0.0
220
0.0
230
1.0
 70
    24
 71
     3
 72
    14
 73
    10
 74
     0
 42
0.000000001
 43
0.00000001
 40
0.0
 40
0.0
 40
0.0
 40
0.0
 40
0.25
 40
0.25
 40
0.5
 40
0.5
 40
0.75
 40
0.75
 40
1.0
 40
1.0
 40
1.0
 40
1.0
 10
28.57500000000001
 20
3.054540548897128
 30
0.0
 10
28.57500000000001
 20
2.439959560807887
 30
0.0
 10
28.57500000000001
 20
1.773564067987274
 30
0.0
 10
28.57500000000001
 20
0.3888725292110647
 30
0.0
 10
28.57500000000001
 20
-0.3288512880542281
 30
0.0
 10
28.57500000000001
 20
-1.7461254335651
 30
0.0
 10
28.57500000000001
 20
-2.444920578892239
 30
0.0
 10
28.57500000000001
 20
-3.757487761607866
 30
0.0
 10
28.57500000000001
 20
-4.370788872855791
 30
0.0
 10
28.57500000000001
 20
-4.919822061033092
 30
0.0
  0
LINE
  5
C9
330
1F
100
AcDbEntity
  8
0
  6
Continuous
 62
     1
370
    15
100
AcDbLine
 10
57.15000000000001
 20
0.000000000000001
 30
0.0
 11
57.15000000000001
 21
5.278437499999999
 31
0.0
1001
PE_URL
1000

  0
SPLINE
  5
CA
330
1F
100
AcDbEntity
  8
외형선
  6
Continuous
370
    15
100
AcDbSpline
210
0.0
220
0.0
230
1.0
 70
    24
 71
     3
 72
    11
 73
     7
 74
     0
 42
0.000000001
 43
0.00000001
 40
0.0
 40
0.0
 40
0.0
 40
0.0
 40
0.2267234277598946
 40
0.453446855519789
 40
0.7850329329121994
 40
1.0
 40
1.0
 40
1.0
 40
1.0
 10
28.57500000000001
 20
-4.919822061033092
 30
0.0
 10
28.57500000000001
 20
-5.061914876474399
 30
0.0
 10
28.57500000000001
 20
-5.346100507357013
 30
0.0
 10
28.57500000000001
 20
-5.68966511308616
 30
0.0
 10
28.57500000000001
 20
-5.919175744833691
 30
0.0
 10
28.57500000000001
 20
-5.914056034452991
 30
0.0
 10
28.57500000000001
 20
-5.912042380088373
 30
0.0
  0
SPLINE
  5
CB
330
1F
100
AcDbEntity
  8
0
  6
Continuous
 62
     1
370
    15
100
AcDbSpline
210
0.0
220
0.0
230
1.0
 70
     8
 71
     3
 72
    12
 73
     8
 74
     0
 42
0.000000001
 43
0.00000001
 40
0.0
 40
0.0
 40
0.0
 40
0.0
 40
0.0292552417620395
 40
0.2719383740314039
 40
0.5146234872378581
 40
0.7573106673016483
 40
1.0
 40
1.0
 40
1.0
 40
1.0
 10
46.78730981119266
 20
5.054493581057566
 30
0.0
 10
46.88836373957741
 20
5.100750423950264
 30
0.0
 10
47.82769766127105
 20
5.530725016072367
 30
0.0
 10
49.60532209116109
 20
6.170565221758684
 30
0.0
 10
52.12019083948043
 20
6.908200499113713
 30
0.0
 10
54.63508533339299
 20
7.392953980554094
 30
0.0
 10
56.31169263255837
 20
7.487152373322758
 30
0.0
 10
57.15000000000001
 20
7.534251778591029
 30
0.0
1001
PE_URL
1000

  0
SPLINE
  5
CC
330
1F
100
AcDbEntity
  8
0
  6
Continuous
 62
     1
370
    15
100
AcDbSpline
210
0.0
220
0.0
230
1.0
 70
    24
 71
     3
 72
    10
 73
     6
 74
     0
 42
0.000000001
 43
0.00000001
 40
0.0
 40
0.0
 40
0.0
 40
0.0
 40
0.5
 40
0.5
 40
1.0
 40
1.0
 40
1.0
 40
1.0
 10
57.15000000000001
 20
5.278437499999997
 30
0.0
 10
57.15000000000001
 20
5.598403236487646
 30
0.0
 10
57.15000000000001
 20
5.970233054301103
 30
0.0
 10
57.15000000000001
 20
6.750331010620448
 30
0.0
 10
57.15000000000001
 20
7.156606876840477
 30
0.0
 10
57.15000000000001
 20
7.534251778591033
 30
0.0
1001
PE_URL
1000

  0
LINE
  5
CD
330
1F
100
AcDbEntity
  8
0
  6
Continuous
 62
     1
370
    15
100
AcDbLine
 10
28.9743384935955
 20
-5.927453914447337
 30
0.0
 11
28.57499999999483
 21
-6.080798174937343
 31
0.0
1001
PE_URL
1000

  0
LINE
  5
CE
330
1F
100
AcDbEntity
  8
외형선
  6
Continuous
370
    15
100
AcDbLine
 10
28.57500000000001
 20
-5.991546171802295
 30
0.0
 11
28.57500000000001
 21
-6.080798174920635
 31
0.0
  0
LINE
  5
CF
330
1F
100
AcDbEntity
  8
중심선
 62
     1
100
AcDbLine
 10
-64.15
 20
-0.0000000000000086
 30
0.0
 11
64.15
 21
0.0000000000000058
 31
0.0
  0
LINE
  5
D0
330
1F
100
AcDbEntity
  8
참조1
100
AcDbLine
 10
0.0
 20
-0.000000000000007
 30
0.0
 11
0.0000000000000071
 21
-40.00000000000001
 31
0.0
  0
LINE
  5
D1
330
1F
100
AcDbEntity
  8
참조1
100
AcDbLine
 10
0.0000000000000071
 20
-40.00000000000001
 30
0.0
 11
-11.29071559669922
 21
-40.0
 31
0.0
  0
CIRCLE
  5
D2
330
1F
100
AcDbEntity
  8
해칭선
100
AcDbCircle
 10
0.0
 20
0.0
 30
0.0
 40
3.000000000000001
  0
INSERT
  5
D3
330
1F
100
AcDbEntity
  8
0
  6
Continuous
 62
     7
100
AcDbBlockReference
 66
     1
  2
블럭10
 10
-13.94027293212521
 20
-52.04717430164393
 30
0.0
  0
ATTRIB
  5
D4
330
D3
100
AcDbEntity
  8
FORMAT
 62
     2
100
AcDbText
 10
-23.12156822086649
 20
-49.97180738881175
 30
0.0
 40
4.233333333333333
  1
E1050038 [ 2 FLUTE ]
 41
0.75
  7
SLDTEXTSTYLE0
 11
-23.12156822086649
 21
-52.08847405547841
 31
0.0
100
AcDbAttribute
  2
AUTOATTR0
 70
     0
 74
     1
  0
SEQEND
  5
D5
330
D3
100
AcDbEntity
  8
0
  6
Continuous
 62
     7
  0
HATCH
  5
D6
330
1F
100
AcDbEntity
  8
중심선
100
AcDbHatch
 10
0.0
 20
0.0
 30
0.0
210
0.0
220
0.0
230
1.0
  2
SOLID
 70
     1
 71
     0
 91
        1
 92
        0
 93
        4
 72
     1
 10
-8.225363627744365
 20
-35.8
 11
-11.67163887158165
 21
-35.8
 72
     1
 10
-11.67163887158165
 20
-35.8
 11
-13.79986873078567
 21
-38.3363255805726
 72
     1
 10
-13.79986873078567
 20
-38.3363255805726
 11
-10.35356040183524
 21
-38.33628615127011
 72
     1
 10
-10.35356040183524
 20
-38.33628615127011
 11
-8.225363627744365
 21
-35.8
 97
        0
 75
     0
 76
     1
 98
        1
 10
18.16921167873051
 20
-0.0010749287238962
  0
HATCH
  5
D7
330
1F
100
AcDbEntity
  8
중심선
100
AcDbHatch
 10
0.0
 20
0.0
 30
0.0
210
0.0
220
0.0
230
1.0
  2
SOLID
 70
     1
 71
     0
 91
        1
 92
        0
 93
        4
 72
     1
 10
-3.212599636708411
 20
-35.80000000000003
 11
-6.658874880545696
 21
-35.8
 72
     1
 10
-6.658874880545696
 20
-35.8
 11
-11.19001288890308
 21
-41.20000000000002
 72
     1
 10
-11.19001288890308
 20
-41.20000000000002
 11
-7.743737645065803
 21
-41.20000000000002
 72
     1
 10
-7.743737645065803
 20
-41.20000000000002
 11
-3.212599636708411
 21
-35.80000000000003
 97
        0
 75
     0
 76
     1
 98
        1
 10
18.16921167873051
 20
-0.0010749287238962
  0
HATCH
  5
D8
330
1F
100
AcDbEntity
  8
중심선
100
AcDbHatch
 10
0.0
 20
0.0
 30
0.0
210
0.0
220
0.0
230
1.0
  2
SOLID
 70
     1
 71
     0
 91
        1
 92
        0
 93
        4
 72
     1
 10
1.800164354327482
 20
-35.8
 11
-1.646110889509632
 21
-35.79999999999998
 72
     1
 10
-1.646110889509632
 20
-35.79999999999998
 11
-8.694547791398882
 21
-44.20000000000002
 72
     1
 10
-8.694547791398882
 20
-44.20000000000002
 11
-5.248272547561601
 21
-44.20000000000002
 72
     1
 10
-5.248272547561601
 20
-44.20000000000002
 11
1.800164354327482
 21
-35.8
 97
        0
 75
     0
 76
     1
 98
        1
 10
18.16921167873051
 20
-0.0010749287238962
  0
HATCH
  5
D9
330
1F
100
AcDbEntity
  8
중심선
100
AcDbHatch
 10
0.0
 20
0.0
 30
0.0
210
0.0
220
0.0
230
1.0
  2
SOLID
 70
     1
 71
     0
 91
        1
 92
        0
 93
        6
 72
     3
 10
6.600054785339681
 20
-40.00000000005127
 11
3.960054785062283
 21
1.540882976769353E-10
 40
0.3939339440162628
 50
17.09539180608437
 51
320.0019657685077
 73
     0
 72
     1
 10
8.28305444104025
 20
-38.5878940046383
 11
10.58835631474134
 21
-36.65356729459038
 72
     3
 10
6.600054785286835
 20
-40.00000000000015
 11
6.600054785286829
 21
-1.278976924368180E-13
 40
0.636358354079598
 50
39.99873849337385
 51
368.4976242363725
 73
     1
 72
     1
 10
13.02538727718744
 20
-39.03999999993002
 11
5.280122092122758
 21
-39.03999999993002
 72
     1
 10
5.280122092122758
 20
-39.03999999993002
 11
5.280097047676824
 21
-40.95999999992991
 72
     1
 10
5.280097047676824
 20
-40.95999999992991
 11
9.721476817148861
 21
-40.95999999992988
 97
        0
 75
     0
 76
     1
 98
        1
 10
18.16921167873051
 20
-0.0010749287238962
  0
DIMENSION
  5
DA
330
1F
100
AcDbEntity
  8
치수문자_일반주서
100
AcDbDimension
  2
_D
 10
-72.14999999999992
 20
-7.937500000000185
 30
0.0
 11
-72.15000000000005
 21
28.54149999999992
 31
0.0
 70
   160
  1
%%c<>
 71
     2
 42
15.875
 52
-270.0
  3
SLDDIMSTYLE0
100
AcDbAlignedDimension
 13
-25.52508614227643
 23
7.937499999999989
 33
0.0
 14
-25.52508614227645
 24
-7.937500000000007
 34
0.0
 50
90.0000000000002
100
AcDbRotatedDimension
1001
PE_URL
1000

1001
ACAD
1000
DSTYLE
1002
{
1070
   171
1070
     8
1070
   273
1070
     7
1002
}
  0
DIMENSION
  5
EF
330
1F
100
AcDbEntity
  8
치수문자_일반주서
100
AcDbDimension
  2
_D_1
 10
72.14999999999999
 20
7.534251778591091
 30
0.0
 11
72.1499999999999
 21
30.10700177859109
 31
0.0
 70
   160
  1
%%c<>
 71
     2
 42
15.06850355718207
 52
-270.0
  3
SLDDIMSTYLE0
100
AcDbAlignedDimension
 13
57.15000000000001
 23
-7.534251778591039
 33
0.0
 14
57.15000000000001
 24
7.534251778591033
 34
0.0
 50
90.0000000000002
100
AcDbRotatedDimension
1001
PE_URL
1000

1001
ACAD
1000
DSTYLE
1002
{
1070
   171
1070
     8
1070
   273
1070
     7
1002
}
  0
DIMENSION
  5
103
330
1F
100
AcDbEntity
  8
치수문자_일반주서
100
AcDbDimension
  2
_D_2
 10
28.575
 20
22.93749999999999
 30
0.0
 11
42.86250000000001
 21
22.93749999999999
 31
0.0
 70
   160
  1
<>
 71
     2
 42
28.57500000000001
  3
SLDDIMSTYLE0
100
AcDbAlignedDimension
 13
57.15000000000001
 23
7.534251778591033
 33
0.0
 14
28.575
 24
6.080798174935571
 34
0.0
 50
0.0000000000000071
100
AcDbRotatedDimension
1001
PE_URL
1000

1001
ACAD
1000
DSTYLE
1002
{
1070
   171
1070
     8
1070
   273
1070
     7
1002
}
  0
DIMENSION
  5
117
330
1F
100
AcDbEntity
  8
치수문자_일반주서
100
AcDbDimension
  2
_D_3
 10
57.15000000000002
 20
37.93749999999999
 30
0.0
 11
0.0000000000000142
 21
37.93749999999999
 31
0.0
 70
   160
  1
<>
 71
     2
 42
114.3
  3
SLDDIMSTYLE0
100
AcDbAlignedDimension
 13
-57.15000000000003
 23
7.534251778591091
 33
0.0
 14
57.15000000000001
 24
7.534251778591033
 34
0.0
100
AcDbRotatedDimension
1001
PE_URL
1000

1001
ACAD
1000
DSTYLE
1002
{
1070
   171
1070
     8
1070
   273
1070
     7
1002
}
  0
LINE
  5
12B
330
1F
100
AcDbEntity
  8
참조1
100
AcDbLine
 10
86.68162503295505
 20
7.44
 30
0.0
 11
86.68162503295505
 21
-7.440000000000005
 31
0.0
  0
LINE
  5
12C
330
1F
100
AcDbEntity
  8
참조1
100
AcDbLine
 10
99.38162503295504
 20
5.44
 30
0.0
 11
86.68162503295505
 21
5.44
 31
0.0
  0
SOLID
  5
12D
330
1F
100
AcDbEntity
  8
참조1
100
AcDbTrace
 10
86.68162503295505
 20
5.44
 30
0.0
 11
93.03162503295505
 21
4.423999999999999
 31
0.0
 12
93.03162503295505
 22
6.456
 32
0.0
 13
93.03162503295505
 23
6.456
 33
0.0
  0
LINE
  5
12E
330
1F
100
AcDbEntity
  8
참조1
100
AcDbLine
 10
99.38162503295504
 20
-5.440000000000005
 30
0.0
 11
86.68162503295505
 21
-5.440000000000005
 31
0.0
  0
SOLID
  5
12F
330
1F
100
AcDbEntity
  8
참조1
100
AcDbTrace
 10
86.68162503295505
 20
-5.440000000000005
 30
0.0
 11
93.03162503295505
 21
-6.456000000000005
 31
0.0
 12
93.03162503295505
 22
-4.424000000000005
 32
0.0
 13
93.03162503295505
 23
-4.424000000000005
 33
0.0
  0
MTEXT
  5
130
330
1F
100
AcDbEntity
  8
참조1
100
AcDbMText
 10
96.06597516558105
 20
11.01029177718832
 30
0.0
 40
3.5
 41
0.0
 71
     1
 72
     1
  1
A
  7
SLDTEXTSTYLE0
 73
     1
 44
1.0
  0
MTEXT
  5
131
330
1F
100
AcDbEntity
  8
참조1
100
AcDbMText
 10
96.06597516558105
 20
0.1302917771883231
 30
0.0
 40
3.5
 41
0.0
 71
     1
 72
     1
  1
A
  7
SLDTEXTSTYLE0
 73
     1
 44
1.0
  0
INSERT
  5
138
330
1F
100
AcDbEntity
  8
해칭선
100
AcDbBlockReference
  2
SW_DOWELSYMBOL_0
 10
0.0
 20
0.0
 30
0.0
  0
LINE
  5
1A5
330
1F
100
AcDbEntity
  8
외형선
  6
Continuous
370
    15
100
AcDbLine
 10
-5.092700000000022
 20
6.286499999999982
 30
0.0
 11
5.092699999999994
 21
6.286499999999982
 31
0.0
1001
PE_URL
1000

  0
LINE
  5
1A6
330
1F
100
AcDbEntity
  8
외형선
  6
Continuous
370
    15
100
AcDbLine
 10
-5.092700000000022
 20
6.286500000000082
 30
0.0
 11
-6.743699999999976
 21
7.937499999999993
 31
0.0
1001
PE_URL
1000

  0
LINE
  5
1A7
330
1F
100
AcDbEntity
  8
외형선
  6
Continuous
370
    15
100
AcDbLine
 10
5.09269999999988
 20
6.286500000000082
 30
0.0
 11
6.74369999999989
 21
7.937499999999993
 31
0.0
1001
PE_URL
1000

  0
SPLINE
  5
1F4
330
1F
100
AcDbEntity
  8
외형선
  6
Continuous
370
    15
100
AcDbSpline
210
0.0
220
0.0
230
1.0
 70
     8
 71
     3
 72
     9
 73
     5
 74
     0
 42
0.000000001
 43
0.00000001
 40
0.0
 40
0.0
 40
0.0
 40
0.0
 40
0.4376136415025652
 40
1.0
 40
1.0
 40
1.0
 40
1.0
 10
-25.5251190967669
 20
6.118610546261618
 30
0.0
 10
-25.9688439385574
 20
6.085604114541889
 30
0.0
 10
-26.98280876896567
 20
6.010180433492099
 30
0.0
 10
-28.00188527483428
 20
5.96546831260429
 30
0.0
 10
-28.57500000000002
 20
5.940322825757496
 30
0.0
  0
SPLINE
  5
1F5
330
1F
100
AcDbEntity
  8
0
  6
Continuous
 62
     1
370
    15
100
AcDbSpline
210
0.0
220
0.0
230
1.0
 70
     8
 71
     3
 72
    11
 73
     7
 74
     0
 42
0.000000001
 43
0.00000001
 40
0.0
 40
0.0
 40
0.0
 40
0.0
 40
0.3161037260638675
 40
0.4846633549837074
 40
0.6726064154798261
 40
1.0
 40
1.0
 40
1.0
 40
1.0
 10
-37.61346965543206
 20
-1.932272058550719
 30
0.0
 10
-37.39302591481513
 20
-2.036607995257121
 30
0.0
 10
-37.05503242058161
 20
-2.196580184636741
 30
0.0
 10
-36.5867693015023
 20
-2.429255067980858
 30
0.0
 10
-36.11033272977615
 20
-2.670203037095842
 30
0.0
 10
-35.75093166791049
 20
-2.858756569477382
 30
0.0
 10
-35.52260402410238
 20
-2.978544706877123
 30
0.0
1001
PE_URL
1000

  0
SPLINE
  5
1F6
330
1F
100
AcDbEntity
  8
0
  6
Continuous
 62
     1
370
    15
100
AcDbSpline
210
0.0
220
0.0
230
1.0
 70
     8
 71
     3
 72
    10
 73
     6
 74
     0
 42
0.000000001
 43
0.00000001
 40
0.0
 40
0.0
 40
0.0
 40
0.0
 40
0.2245173153872269
 40
0.5080946515841183
 40
1.0
 40
1.0
 40
1.0
 40
1.0
 10
-35.1210420963734
 20
-5.992077350126024
 30
0.0
 10
-34.65722099552249
 20
-5.970052666013871
 30
0.0
 10
-33.60756912244646
 20
-5.920209631943585
 30
0.0
 10
-31.56383401996383
 20
-5.872274568532902
 30
0.0
 10
-29.96738366100217
 20
-5.910646720822569
 30
0.0
 10
-28.9547208567439
 20
-5.934987002451081
 30
0.0
1001
PE_URL
1000

  0
SPLINE
  5
1F7
330
1F
100
AcDbEntity
  8
0
  6
Continuous
 62
     1
370
    15
100
AcDbSpline
210
0.0
220
0.0
230
1.0
 70
     8
 71
     3
 72
    29
 73
    25
 74
     0
 42
0.000000001
 43
0.00000001
 40
0.0
 40
0.0
 40
0.0
 40
0.0
 40
0.0634157636092873
 40
0.1134575122122576
 40
0.1508671751145401
 40
0.1882010350929899
 40
0.2297406444419891
 40
0.2726420536680095
 40
0.3090578176137757
 40
0.3496233646243786
 40
0.3898636469279089
 40
0.4364828002230224
 40
0.5005854839710197
 40
0.555574833244109
 40
0.5972369879262157
 40
0.6313872632311026
 40
0.6649130995682111
 40
0.7018038687407527
 40
0.7481339695397666
 40
0.7958254932196858
 40
0.8383961224649034
 40
0.8777141733275322
 40
0.9304521507314094
 40
1.0
 40
1.0
 40
1.0
 40
1.0
 10
-54.34862262616466
 20
-5.157435819159918
 30
0.0
 10
-54.07453842655721
 20
-5.134986195287041
 30
0.0
 10
-53.58417278788508
 20
-5.094821442396729
 30
0.0
 10
-52.92610909174994
 20
-5.052664072905905
 30
0.0
 10
-52.36978563595314
 20
-5.022989272091863
 30
0.0
 10
-51.85328674059383
 20
-5.000238200965519
 30
0.0
 10
-51.31635343829035
 20
-4.98202826182461
 30
0.0
 10
-50.78611384593589
 20
-4.969807582526379
 30
0.0
 10
-50.25976586632117
 20
-4.96300497379449
 30
0.0
 10
-49.74498581526964
 20
-4.961430693197943
 30
0.0
 10
-49.18560271983391
 20
-4.965564960469806
 30
0.0
 10
-48.52249710295347
 20
-4.977869897682613
 30
0.0
 10
-47.79463869819666
 20
-5.001634178935852
 30
0.0
 10
-47.08878445049501
 20
-5.035389316062627
 30
0.0
 10
-46.51441934854648
 20
-5.069969122169358
 30
0.0
 10
-46.03424393800486
 20
-5.103297787355224
 30
0.0
 10
-45.57644842079095
 20
-5.138844718252983
 30
0.0
 10
-45.06517521414064
 20
-5.18288700271173
 30
0.0
 10
-44.48988656368974
 20
-5.23829216360495
 30
0.0
 10
-43.88844401536298
 20
-5.303131534369413
 30
0.0
 10
-43.31474604050972
 20
-5.370681249173433
 30
0.0
 10
-42.71468869551896
 20
-5.446750674821772
 30
0.0
 10
-42.00782407270147
 20
-5.543537585135656
 30
0.0
 10
-41.4775699707303
 20
-5.625137854221787
 30
0.0
 10
-41.17599755337471
 20
-5.671546529446918
 30
0.0
1001
PE_URL
1000

  0
SPLINE
  5
1F8
330
1F
100
AcDbEntity
  8
0
  6
Continuous
 62
     1
370
    15
100
AcDbSpline
210
0.0
220
0.0
230
1.0
 70
     8
 71
     3
 72
    17
 73
    13
 74
     0
 42
0.000000001
 43
0.00000001
 40
0.0
 40
0.0
 40
0.0
 40
0.0
 40
0.1500641782308739
 40
0.2675216305870672
 40
0.3543347199653408
 40
0.4415117149831415
 40
0.5391412742311343
 40
0.6405992919595418
 40
0.727043076698679
 40
0.823012055381485
 40
0.9167144193878133
 40
1.0
 40
1.0
 40
1.0
 40
1.0
 10
-41.17599755337469
 20
5.67154652944696
 30
0.0
 10
-41.45320582720282
 20
5.628811968308089
 30
0.0
 10
-41.94738911798547
 20
5.552628433949176
 30
0.0
 10
-42.60632882287628
 20
5.461298744477235
 30
0.0
 10
-43.1583148842837
 20
5.390141442943797
 30
0.0
 10
-43.67183900287741
 20
5.328162325406964
 30
0.0
 10
-44.21006649270041
 20
5.267861875526711
 30
0.0
 10
-44.74464970711598
 20
5.213202668645167
 30
0.0
 10
-45.27571209751954
 20
5.164155332688711
 30
0.0
 10
-45.79006123617648
 20
5.12165909094051
 30
0.0
 10
-46.30009651024997
 20
5.083869488016351
 30
0.0
 10
-46.63124547313535
 20
5.063821097466246
 30
0.0
 10
-46.78707492074251
 20
5.054386885147977
 30
0.0
1001
PE_URL
1000

  0
SPLINE
  5
1F9
330
1F
100
AcDbEntity
  8
0
  6
Continuous
 62
     1
370
    15
100
AcDbSpline
210
0.0
220
0.0
230
1.0
 70
     8
 71
     3
 72
    19
 73
    15
 74
     0
 42
0.000000001
 43
0.00000001
 40
0.0
 40
0.0
 40
0.0
 40
0.0
 40
0.1259347270560653
 40
0.2205889246838352
 40
0.2838414389912624
 40
0.3357676121527183
 40
0.3892510181652913
 40
0.4441957403582479
 40
0.4999004802336781
 40
0.557629479913505
 40
0.6268464970186302
 40
0.7235435837793734
 40
0.8477688363272881
 40
0.9999999999999999
 40
0.9999999999999999
 40
0.9999999999999999
 40
0.9999999999999999
 10
-28.57499999999997
 20
5.9403228257575
 30
0.0
 10
-28.85059939376565
 20
5.930744934811193
 30
0.0
 10
-29.33334291761689
 20
5.913968175024799
 30
0.0
 10
-29.95399768191176
 20
5.900646987655715
 30
0.0
 10
-30.41451466271431
 20
5.893788457300051
 30
0.0
 10
-30.77998081382886
 20
5.890348199119572
 30
0.0
 10
-31.11612371377452
 20
5.888562873153187
 30
0.0
 10
-31.4505253611926
 20
5.88724578335176
 30
0.0
 10
-31.8170317561432
 20
5.888497510498288
 30
0.0
 10
-32.22257116835586
 20
5.893531395578643
 30
0.0
 10
-32.7201547419659
 20
5.902519461509815
 30
0.0
 10
-33.36062201678791
 20
5.917981153201559
 30
0.0
 10
-34.18104158394816
 20
5.945518910139347
 30
0.0
 10
-34.78723869601585
 20
5.975543991497542
 30
0.0
 10
-35.12104209637337
 20
5.992077350126046
 30
0.0
1001
PE_URL
1000

  0
SPLINE
  5
1FA
330
1F
100
AcDbEntity
  8
외형선
  6
Continuous
370
    15
100
AcDbSpline
210
0.0
220
0.0
230
1.0
 70
     8
 71
     3
 72
     8
 73
     4
 74
     0
 42
0.000000001
 43
0.00000001
 40
0.0
 40
0.0
 40
0.0
 40
0.0
 40
1.0
 40
1.0
 40
1.0
 40
1.0
 10
-26.09384233574616
 20
-7.091525945234796
 30
0.0
 10
-25.90467073029529
 20
-7.143239689372383
 30
0.0
 10
-25.71502592539038
 20
-7.192758003985631
 30
0.0
 10
-25.52517639494768
 20
-7.240002485939439
 30
0.0
  0
LINE
  5
1FB
330
1F
100
AcDbEntity
  8
외형선
  6
Continuous
370
    15
100
AcDbLine
 10
-26.09384233574616
 20
-7.091525945234796
 30
0.0
 11
-26.09384233574616
 21
-5.853784850402668
 31
0.0
  0
SPLINE
  5
1FC
330
1F
100
AcDbEntity
  8
외형선
  6
Continuous
370
    15
100
AcDbSpline
210
0.0
220
0.0
230
1.0
 70
     8
 71
     3
 72
     8
 73
     4
 74
     0
 42
0.000000001
 43
0.00000001
 40
0.0
 40
0.0
 40
0.0
 40
0.0
 40
1.0
 40
1.0
 40
1.0
 40
1.0
 10
-26.09384233574616
 20
-5.853784850402668
 30
0.0
 10
-25.90464075350304
 20
-5.931544160126041
 30
0.0
 10
-25.71496582174623
 20
-6.007519873079858
 30
0.0
 10
-25.52508614227645
 20
-6.081597334316925
 30
0.0
  0
LINE
  5
1FD
330
1F
100
AcDbEntity
  8
외형선
  6
Continuous
370
    15
100
AcDbLine
 10
-25.52508614227643
 20
7.937499999999989
 30
0.0
 11
-25.52508614227645
 21
-6.081682711113114
 31
0.0
  0
SPLINE
  5
1FE
330
1F
100
AcDbEntity
  8
외형선
  6
Continuous
370
    15
100
AcDbSpline
210
0.0
220
0.0
230
1.0
 70
     8
 71
     3
 72
     8
 73
     4
 74
     0
 42
0.000000001
 43
0.00000001
 40
0.0
 40
0.0
 40
0.0
 40
0.0
 40
1.0
 40
1.0
 40
1.0
 40
1.0
 10
-26.09384233574614
 20
7.091525945234784
 30
0.0
 10
-25.90467073029527
 20
7.143239689372374
 30
0.0
 10
-25.71502592539035
 20
7.192758003985615
 30
0.0
 10
-25.52517639494766
 20
7.240002485939423
 30
0.0
  0
LINE
  5
1FF
330
1F
100
AcDbEntity
  8
외형선
  6
Continuous
370
    15
100
AcDbLine
 10
-25.52508614227645
 20
-7.240059052247894
 30
0.0
 11
-25.52508614227645
 21
-7.937500000000007
 31
0.0
  0
SPLINE
  5
200
330
1F
100
AcDbEntity
  8
외형선
  6
Continuous
370
    15
100
AcDbSpline
210
0.0
220
0.0
230
1.0
 70
    24
 71
     3
 72
    10
 73
     6
 74
     0
 42
0.000000001
 43
0.00000001
 40
0.0
 40
0.0
 40
0.0
 40
0.0
 40
0.5000000000000002
 40
0.5000000000000002
 40
1.0
 40
1.0
 40
1.0
 40
1.0
 10
-28.57500000000005
 20
-4.612730446493941
 30
0.0
 10
-28.57500000000005
 20
-4.47300005984685
 30
0.0
 10
-28.57500000000005
 20
-4.256587951558434
 30
0.0
 10
-28.57500000000005
 20
-3.71433270005317
 30
0.0
 10
-28.57500000000005
 20
-3.390358131901003
 30
0.0
 10
-28.57500000000005
 20
-3.054540548897137
 30
0.0
  0
SPLINE
  5
201
330
1F
100
AcDbEntity
  8
외형선
  6
Continuous
370
    15
100
AcDbSpline
210
0.0
220
0.0
230
1.0
 70
     8
 71
     3
 72
    10
 73
     6
 74
     0
 42
0.000000001
 43
0.00000001
 40
0.0
 40
0.0
 40
0.0
 40
0.0
 40
0.5
 40
0.5
 40
1.0
 40
1.0
 40
1.0
 40
1.0
 10
-28.57499999999925
 20
-3.054540548897396
 30
0.0
 10
-28.06736086155122
 20
-3.222002049501398
 30
0.0
 10
-27.55659680559024
 20
-3.382848687434514
 30
0.0
 10
-26.5392320530703
 20
-3.688001871431801
 30
0.0
 10
-26.03420827737084
 20
-3.832195076460817
 30
0.0
 10
-25.52510788406094
 20
-3.967746731525139
 30
0.0
  0
SPLINE
  5
202
330
1F
100
AcDbEntity
  8
외형선
  6
Continuous
370
    15
100
AcDbSpline
210
0.0
220
0.0
230
1.0
 70
     8
 71
     3
 72
     8
 73
     4
 74
     0
 42
0.000000001
 43
0.00000001
 40
0.0
 40
0.0
 40
0.0
 40
0.0
 40
1.0
 40
1.0
 40
1.0
 40
1.0
 10
-26.09384233574616
 20
-5.853784850402668
 30
0.0
 10
-26.5882113951722
 20
-5.592123526951969
 30
0.0
 10
-27.08152797419789
 20
-5.325392424619764
 30
0.0
 10
-27.57500000000005
 20
-5.055132390609149
 30
0.0
  0
SPLINE
  5
203
330
1F
100
AcDbEntity
  8
외형선
  6
Continuous
370
    15
100
AcDbSpline
210
0.0
220
0.0
230
1.0
 70
     8
 71
     3
 72
     8
 73
     4
 74
     0
 42
0.000000001
 43
0.00000001
 40
0.0
 40
0.0
 40
0.0
 40
0.0
 40
1.0
 40
1.0
 40
1.0
 40
1.0
 10
-28.57500000000005
 20
-4.612730446493941
 30
0.0
 10
-28.24251944078708
 20
-4.764713268329665
 30
0.0
 10
-27.90869910036546
 20
-4.912402003501022
 30
0.0
 10
-27.57500000000005
 20
-5.055132390609149
 30
0.0
  0
LINE
  5
204
330
1F
100
AcDbEntity
  8
외형선
  6
Continuous
370
    15
100
AcDbLine
 10
-27.57500000000006
 20
-6.403813105463673
 30
0.0
 11
-27.57500000000005
 21
-5.055132390609149
 31
0.0
  0
SPLINE
  5
205
330
1F
100
AcDbEntity
  8
외형선
  6
Continuous
370
    15
100
AcDbSpline
210
0.0
220
0.0
230
1.0
 70
     8
 71
     3
 72
     8
 73
     4
 74
     0
 42
0.000000001
 43
0.00000001
 40
0.0
 40
0.0
 40
0.0
 40
0.0
 40
1.0
 40
1.0
 40
1.0
 40
1.0
 10
-28.57499999999991
 20
-6.080798174935623
 30
0.0
 10
-28.24251944078699
 20
-6.194411847972756
 30
0.0
 10
-27.90869910036541
 20
-6.302248385341411
 30
0.0
 10
-27.57500000000006
 20
-6.403813105463673
 30
0.0
  0
LINE
  5
206
330
1F
100
AcDbEntity
  8
외형선
  6
Continuous
370
    15
100
AcDbLine
 10
-28.57500000000005
 20
-6.080798174935577
 30
0.0
 11
-28.57500000000005
 21
-4.612730446493945
 31
0.0
  0
SPLINE
  5
207
330
1F
100
AcDbEntity
  8
외형선
  6
Continuous
370
    15
100
AcDbSpline
210
0.0
220
0.0
230
1.0
 70
     8
 71
     3
 72
    10
 73
     6
 74
     0
 42
0.000000001
 43
0.00000001
 40
0.0
 40
0.0
 40
0.0
 40
0.0
 40
0.5
 40
0.5
 40
1.0
 40
1.0
 40
1.0
 40
1.0
 10
-28.57499999999955
 20
4.919822061032958
 30
0.0
 10
-28.06736272497193
 20
4.784023934812067
 30
0.0
 10
-27.55660055537299
 20
4.636742704374903
 30
0.0
 10
-26.53923950678758
 20
4.322173386186799
 30
0.0
 10
-26.03421759970573
 20
4.155106442820685
 30
0.0
 10
-25.52511909676691
 20
3.97854031392977
 30
0.0
  0
SPLINE
  5
208
330
1F
100
AcDbEntity
  8
외형선
  6
Continuous
370
    15
100
AcDbSpline
210
0.0
220
0.0
230
1.0
 70
    24
 71
     3
 72
    14
 73
    10
 74
     0
 42
0.000000001
 43
0.00000001
 40
0.0
 40
0.0
 40
0.0
 40
0.0
 40
0.25
 40
0.25
 40
0.5
 40
0.5
 40
0.75
 40
0.75
 40
1.0
 40
1.0
 40
1.0
 40
1.0
 10
-28.57500000000005
 20
-3.054540548897133
 30
0.0
 10
-28.57500000000004
 20
-2.439959560807896
 30
0.0
 10
-28.57500000000004
 20
-1.77356406798728
 30
0.0
 10
-28.57500000000004
 20
-0.3888725292110742
 30
0.0
 10
-28.57500000000003
 20
0.3288512880542207
 30
0.0
 10
-28.57500000000003
 20
1.746125433565091
 30
0.0
 10
-28.57500000000003
 20
2.44492057889223
 30
0.0
 10
-28.57500000000003
 20
3.757487761607859
 30
0.0
 10
-28.57500000000003
 20
4.370788872855785
 30
0.0
 10
-28.57500000000003
 20
4.919822061033086
 30
0.0
  0
SPLINE
  5
209
330
1F
100
AcDbEntity
  8
외형선
  6
Continuous
370
    15
100
AcDbSpline
210
0.0
220
0.0
230
1.0
 70
     8
 71
     3
 72
     8
 73
     4
 74
     0
 42
0.000000001
 43
0.00000001
 40
0.0
 40
0.0
 40
0.0
 40
0.0
 40
1.0
 40
1.0
 40
1.0
 40
1.0
 10
-27.57500000000006
 20
-6.403813105463673
 30
0.0
 10
-27.07920573183324
 20
-6.637373452049623
 30
0.0
 10
-26.58586090821166
 20
-6.867169488493193
 30
0.0
 10
-26.09384233574616
 20
-7.091525945234803
 30
0.0
  0
SPLINE
  5
20A
330
1F
100
AcDbEntity
  8
외형선
  6
Continuous
370
    15
100
AcDbSpline
210
0.0
220
0.0
230
1.0
 70
    24
 71
     3
 72
    11
 73
     7
 74
     0
 42
0.000000001
 43
0.00000001
 40
0.0
 40
0.0
 40
0.0
 40
0.0
 40
0.2265049865086349
 40
0.4530099730172696
 40
0.7842765771273569
 40
1.0
 40
1.0
 40
1.0
 40
1.0
 10
-28.57500000000003
 20
4.919822061033086
 30
0.0
 10
-28.57500000000003
 20
5.06191341585197
 30
0.0
 10
-28.57500000000002
 20
5.346096125489741
 30
0.0
 10
-28.57500000000004
 20
5.689686018343279
 30
0.0
 10
-28.57500000000002
 20
5.919360432732176
 30
0.0
 10
-28.57500000000002
 20
5.914176045478175
 30
0.0
 10
-28.57500000000002
 20
5.912131412653517
 30
0.0
  0
SPLINE
  5
20B
330
1F
100
AcDbEntity
  8
외형선
  6
Continuous
370
    15
100
AcDbSpline
210
0.0
220
0.0
230
1.0
 70
     8
 71
     3
 72
     8
 73
     4
 74
     0
 42
0.000000001
 43
0.00000001
 40
0.0
 40
0.0
 40
0.0
 40
0.0
 40
1.0
 40
1.0
 40
1.0
 40
1.0
 10
-28.57499999999988
 20
6.080798174935618
 30
0.0
 10
-28.24251944078696
 20
6.194411847972747
 30
0.0
 10
-27.90869910036539
 20
6.3022483853414
 30
0.0
 10
-27.57500000000003
 20
6.403813105463664
 30
0.0
  0
SPLINE
  5
20C
330
1F
100
AcDbEntity
  8
외형선
  6
Continuous
370
    15
100
AcDbSpline
210
0.0
220
0.0
230
1.0
 70
     8
 71
     3
 72
     8
 73
     4
 74
     0
 42
0.000000001
 43
0.00000001
 40
0.0
 40
0.0
 40
0.0
 40
0.0
 40
1.0
 40
1.0
 40
1.0
 40
1.0
 10
-27.57500000000003
 20
6.403813105463662
 30
0.0
 10
-27.07920573183321
 20
6.637373452049612
 30
0.0
 10
-26.58586090821163
 20
6.867169488493182
 30
0.0
 10
-26.09384233574614
 20
7.091525945234787
 30
0.0
  0
LINE
  5
20D
330
1F
100
AcDbEntity
  8
외형선
  6
Continuous
370
    15
100
AcDbLine
 10
-28.57500000000002
 20
5.991546171802289
 30
0.0
 11
-28.57500000000003
 21
6.080798174920623
 31
0.0
  0
SPLINE
  5
20E
330
1F
100
AcDbEntity
  8
0
  6
Continuous
 62
     1
370
    15
100
AcDbSpline
210
0.0
220
0.0
230
1.0
 70
     8
 71
     3
 72
    46
 73
    42
 74
     0
 42
0.000000001
 43
0.00000001
 40
0.0
 40
0.0
 40
0.0
 40
0.0
 40
0.0625000000000001
 40
0.0625000000000001
 40
0.1250000000000002
 40
0.1250000000000002
 40
0.1875000000000004
 40
0.1875000000000004
 40
0.2500000000000005
 40
0.2500000000000005
 40
0.2812500000000006
 40
0.2812500000000006
 40
0.3125000000000006
 40
0.3125000000000006
 40
0.3437500000000007
 40
0.3437500000000007
 40
0.3750000000000008
 40
0.3750000000000008
 40
0.4375000000000009
 40
0.4375000000000009
 40
0.4687500000000008
 40
0.4687500000000008
 40
0.5000000000000008
 40
0.5000000000000008
 40
0.5625000000000007
 40
0.5625000000000007
 40
0.6250000000000006
 40
0.6250000000000006
 40
0.6875000000000004
 40
0.6875000000000004
 40
0.7500000000000003
 40
0.7500000000000003
 40
0.8125000000000003
 40
0.8125000000000003
 40
0.8750000000000002
 40
0.8750000000000002
 40
0.9375000000000001
 40
0.9375000000000001
 40
0.96875
 40
0.96875
 40
1.0
 40
1.0
 40
1.0
 40
1.0
 10
-57.15000000000003
 20
7.155607242051847
 30
0.0
 10
-56.55753165874404
 20
7.047354478431405
 30
0.0
 10
-55.95907241920513
 20
6.916404688665581
 30
0.0
 10
-54.76686179363585
 20
6.612501848199893
 30
0.0
 10
-54.17519579696477
 20
6.439867775976563
 30
0.0
 10
-52.98204863469307
 20
6.054623733358477
 30
0.0
 10
-52.38667517436056
 20
5.84260411489068
 30
0.0
 10
-51.19894547768524
 20
5.383963307745818
 30
0.0
 10
-50.60015179410412
 20
5.136464680397326
 30
0.0
 10
-49.7071083484953
 20
4.743071966865852
 30
0.0
 10
-49.41125774315407
 20
4.608419667826432
 30
0.0
 10
-48.81679626480265
 20
4.331742628185875
 30
0.0
 10
-48.51846752976559
 20
4.189750387380215
 30
0.0
 10
-47.92170114820135
 20
3.899427586721519
 30
0.0
 10
-47.62326513325787
 20
3.751097817119081
 30
0.0
 10
-47.02837703381982
 20
3.449159858694639
 30
0.0
 10
-46.73263046332856
 20
3.295680347104181
 30
0.0
 10
-45.84014539422047
 20
2.827004751806001
 30
0.0
 10
-45.24129614277129
 20
2.50405786963184
 30
0.0
 10
-44.34977762889365
 20
2.010671224063007
 30
0.0
 10
-44.05387392375611
 20
1.844753070454043
 30
0.0
 10
-43.4584235749622
 20
1.50962429812343
 30
0.0
 10
-43.15986703670347
 20
1.340595610756086
 30
0.0
 10
-42.26484191091645
 20
0.8308873979511411
 30
0.0
 10
-41.6729222918832
 20
0.4883394362659352
 30
0.0
 10
-40.48123787226046
 20
-0.1991631419625399
 30
0.0
 10
-39.88261201576687
 20
-0.5438958608461064
 30
0.0
 10
-38.69649799793358
 20
-1.225709978501147
 30
0.0
 10
-38.09937609659308
 20
-1.56463356285284
 30
0.0
 10
-36.90672646502905
 20
-2.230316005815684
 30
0.0
 10
-36.31516960513038
 20
-2.556362294616584
 30
0.0
 10
-35.12232954364228
 20
-3.192281766724975
 30
0.0
 10
-34.52583508652853
 20
-3.501255861782436
 30
0.0
 10
-33.3391531536729
 20
-4.094470726561493
 30
0.0
 10
-32.74045929321944
 20
-4.380100614060574
 30
0.0
 10
-31.54907703455731
 20
-4.921325953160817
 30
0.0
 10
-30.95697228327553
 20
-5.176918176846577
 30
0.0
 10
-30.06188835311001
 20
-5.53591261661181
 30
0.0
 10
-29.76336695170821
 20
-5.651367113236986
 30
0.0
 10
-29.16809553440527
 20
-5.873067299328838
 30
0.0
 10
-28.87228723350683
 20
-5.979210597527466
 30
0.0
 10
-28.57499999999487
 20
-6.08079817493735
 30
0.0
1001
PE_URL
1000

  0
SPLINE
  5
20F
330
1F
100
AcDbEntity
  8
0
  6
Continuous
 62
     1
370
    15
100
AcDbSpline
210
0.0
220
0.0
230
1.0
 70
     8
 71
     3
 72
    15
 73
    11
 74
     0
 42
0.000000001
 43
0.00000001
 40
0.0
 40
0.0
 40
0.0
 40
0.0
 40
0.1347991541547375
 40
0.2696006928856333
 40
0.4044044781795806
 40
0.539210371702371
 40
0.6740182348182074
 40
0.8088279286093145
 40
0.9436393138956306
 40
0.9999999999999999
 40
0.9999999999999999
 40
0.9999999999999999
 40
0.9999999999999999
 10
-57.15000000000003
 20
5.949343981001634
 30
0.0
 10
-56.2716122936103
 20
5.765554271209778
 30
0.0
 10
-54.51482134228837
 20
5.397971600414575
 30
0.0
 10
-51.87960362918757
 20
4.562905645002772
 30
0.0
 10
-49.24433601344876
 20
3.559922659767466
 30
0.0
 10
-46.60902090986711
 20
2.408184379459577
 30
0.0
 10
-43.97366169702536
 20
1.158659856977618
 30
0.0
 10
-41.33826111380496
 20
-0.1333548574475252
 30
0.0
 10
-39.21404663221543
 20
-1.184955778527325
 30
0.0
 10
-37.96829789493697
 20
-1.759395266695318
 30
0.0
 10
-37.60103057897436
 20
-1.928749521441173
 30
0.0
1001
PE_URL
1000

  0
LINE
  5
210
330
1F
100
AcDbEntity
  8
0
  6
Continuous
 62
     1
370
    15
100
AcDbLine
 10
-57.15000000000003
 20
7.15560724205185
 30
0.0
 11
-57.15000000000003
 21
5.949343981001634
 31
0.0
1001
PE_URL
1000

  0
SPLINE
  5
211
330
1F
100
AcDbEntity
  8
0
  6
Continuous
 62
     1
370
    15
100
AcDbSpline
210
0.0
220
0.0
230
1.0
 70
     8
 71
     3
 72
    46
 73
    42
 74
     0
 42
0.000000001
 43
0.00000001
 40
0.0
 40
0.0
 40
0.0
 40
0.0
 40
0.0625000000000003
 40
0.0625000000000003
 40
0.1250000000000006
 40
0.1250000000000006
 40
0.1875000000000009
 40
0.1875000000000009
 40
0.2500000000000013
 40
0.2500000000000013
 40
0.2812500000000013
 40
0.2812500000000013
 40
0.3125000000000013
 40
0.3125000000000013
 40
0.3437500000000013
 40
0.3437500000000013
 40
0.3750000000000012
 40
0.3750000000000012
 40
0.4375000000000012
 40
0.4375000000000012
 40
0.4687500000000011
 40
0.4687500000000011
 40
0.500000000000001
 40
0.500000000000001
 40
0.562500000000001
 40
0.562500000000001
 40
0.6250000000000009
 40
0.6250000000000009
 40
0.6875000000000008
 40
0.6875000000000008
 40
0.7500000000000006
 40
0.7500000000000006
 40
0.8125000000000004
 40
0.8125000000000004
 40
0.8750000000000003
 40
0.8750000000000003
 40
0.9375000000000002
 40
0.9375000000000002
 40
0.9687500000000002
 40
0.9687500000000002
 40
1.0
 40
1.0
 40
1.0
 40
1.0
 10
-57.15000000000003
 20
7.534251778591084
 30
0.0
 10
-56.55753165874414
 20
7.520145839719255
 30
0.0
 10
-55.95907241920531
 20
7.48247711593997
 30
0.0
 10
-54.76686179363628
 20
7.360781525632207
 30
0.0
 10
-54.1751957969653
 20
7.276979168120565
 30
0.0
 10
-52.9820486346938
 20
7.064119533694813
 30
0.0
 10
-52.3866751743614
 20
6.935346791013796
 30
0.0
 10
-51.19894547768628
 20
6.635758055322864
 30
0.0
 10
-50.60015179410529
 20
6.464339747234758
 30
0.0
 10
-49.7071083484966
 20
6.178290296425685
 30
0.0
 10
-49.4112577431554
 20
6.078257527111294
 30
0.0
 10
-48.81679626480411
 20
5.868587438959331
 30
0.0
 10
-48.51846752976711
 20
5.758968350526438
 30
0.0
 10
-47.92170114820297
 20
5.5308950546652
 30
0.0
 10
-47.62326513325955
 20
5.412441465896569
 30
0.0
 10
-47.0283770338216
 20
5.167557420921137
 30
0.0
 10
-46.73263046333039
 20
5.041237518525145
 30
0.0
 10
-45.84014539422246
 20
4.650062615236781
 30
0.0
 10
-45.24129614277339
 20
4.373349335449907
 30
0.0
 10
-44.34977762889589
 20
3.940203604014329
 30
0.0
 10
-44.05387392375843
 20
3.792853981578762
 30
0.0
 10
-43.45842357496464
 20
3.491875094243692
 30
0.0
 10
-43.15986703670596
 20
3.338404080044338
 30
0.0
 10
-42.26484191091907
 20
2.870643847248839
 30
0.0
 10
-41.67292229188593
 20
2.549717877869909
 30
0.0
 10
-40.48123787226341
 20
1.892596665020985
 30
0.0
 10
-39.88261201576991
 20
1.556572316154956
 30
0.0
 10
-38.6964979979368
 20
0.8790279459802761
 30
0.0
 10
-38.09937609659644
 20
0.5356857777400208
 30
0.0
 10
-36.90672646503262
 20
-0.151906030740161
 30
0.0
 10
-36.31516960513406
 20
-0.4953834596072468
 30
0.0
 10
-35.12232954364619
 20
-1.178982201843855
 30
0.0
 10
-34.5258350865325
 20
-1.518170625945238
 30
0.0
 10
-33.3391531536771
 20
-2.183827718927159
 30
0.0
 10
-32.74045929322376
 20
-2.511869498814541
 30
0.0
 10
-31.54907703456181
 20
-3.149162127352106
 30
0.0
 10
-30.95697228328016
 20
-3.458358317153106
 30
0.0
 10
-30.0618883531148
 20
-3.905746033440092
 30
0.0
 10
-29.76336695171305
 20
-4.051966794360325
 30
0.0
 10
-29.16809553441021
 20
-4.337581382375845
 30
0.0
 10
-28.87228723351181
 20
-4.476835124518406
 30
0.0
 10
-28.57499999999991
 20
-4.612730446494009
 30
0.0
1001
PE_URL
1000

  0
SPLINE
  5
212
330
1F
100
AcDbEntity
  8
0
  6
Continuous
 62
     1
370
    15
100
AcDbSpline
210
0.0
220
0.0
230
1.0
 70
     8
 71
     3
 72
    11
 73
     7
 74
     0
 42
0.000000001
 43
0.00000001
 40
0.0
 40
0.0
 40
0.0
 40
0.0
 40
0.2394585853285065
 40
0.5069820874922206
 40
0.7534851974836811
 40
1.0
 40
1.0
 40
1.0
 40
1.0
 10
-38.42633954570914
 20
0.7208405584033919
 30
0.0
 10
-37.63999963301495
 20
0.4039931772895713
 30
0.0
 10
-35.97515955275961
 20
-0.2668365884219313
 30
0.0
 10
-33.50079884717466
 20
-1.261588060987389
 30
0.0
 10
-31.00343526014948
 20
-2.223487970312664
 30
0.0
 10
-29.38449121846479
 20
-2.7775186428632
 30
0.0
 10
-28.57500000000004
 20
-3.054540548897137
 30
0.0
1001
PE_URL
1000

  0
SPLINE
  5
213
330
1F
100
AcDbEntity
  8
외형선
  6
Continuous
370
    15
100
AcDbSpline
210
0.0
220
0.0
230
1.0
 70
    24
 71
     3
 72
    10
 73
     6
 74
     0
 42
0.000000001
 43
0.00000001
 40
0.0
 40
0.0
 40
0.0
 40
0.0
 40
0.5
 40
0.5
 40
1.0
 40
1.0
 40
1.0
 40
1.0
 10
-28.57500000000005
 20
-4.612730446493938
 30
0.0
 10
-28.57500000000005
 20
-4.47300005984685
 30
0.0
 10
-28.57500000000005
 20
-4.256587951558434
 30
0.0
 10
-28.57500000000005
 20
-3.714332700053166
 30
0.0
 10
-28.57500000000005
 20
-3.390358131901003
 30
0.0
 10
-28.57500000000005
 20
-3.054540548897133
 30
0.0
  0
LINE
  5
214
330
1F
100
AcDbEntity
  8
0
  6
Continuous
 62
     1
370
    15
100
AcDbLine
 10
-57.15000000000003
 20
7.534251778591091
 30
0.0
 11
-57.14999999999975
 21
7.15560724205185
 31
0.0
1001
PE_URL
1000

  0
SPLINE
  5
215
330
1F
100
AcDbEntity
  8
0
  6
Continuous
 62
     1
370
    15
100
AcDbSpline
210
0.0
220
0.0
230
1.0
 70
     8
 71
     3
 72
     8
 73
     4
 74
     0
 42
0.000000001
 43
0.00000001
 40
0.0
 40
0.0
 40
0.0
 40
0.0
 40
1.0
 40
1.0
 40
1.0
 40
1.0
 10
-52.4843887335243
 20
-2.109075688396278
 30
0.0
 10
-52.36758363509141
 20
-2.247421021036569
 30
0.0
 10
-52.2559414804925
 20
-2.383902939617055
 30
0.0
 10
-52.14999999999993
 20
-2.518327366072665
 30
0.0
1001
PE_URL
1000

  0
LINE
  5
216
330
1F
100
AcDbEntity
  8
0
  6
Continuous
 62
     1
370
    15
100
AcDbLine
 10
-52.15000000000005
 20
-2.937719435296547
 30
0.0
 11
-57.15000000000005
 21
0.0000000000000497
 31
0.0
1001
PE_URL
1000

  0
LINE
  5
217
330
1F
100
AcDbEntity
  8
0
  6
Continuous
 62
     1
370
    15
100
AcDbLine
 10
-57.15000000000005
 20
0.0000000000000497
 30
0.0
 11
-57.15000000000005
 21
2.015178839904841
 31
0.0
1001
PE_URL
1000

  0
SPLINE
  5
218
330
1F
100
AcDbEntity
  8
0
  6
Continuous
 62
     1
370
    15
100
AcDbSpline
210
0.0
220
0.0
230
1.0
 70
     8
 71
     3
 72
    12
 73
     8
 74
     0
 42
0.000000001
 43
0.00000001
 40
0.0
 40
0.0
 40
0.0
 40
0.0
 40
0.5000000000000007
 40
0.5000000000000007
 40
0.7500000000000003
 40
0.7500000000000003
 40
1.0
 40
1.0
 40
1.0
 40
1.0
 10
-57.15000000000005
 20
2.015178839904838
 30
0.0
 10
-56.34236422954372
 20
1.38024301329612
 30
0.0
 10
-55.5482206053013
 20
0.7192787536448932
 30
0.0
 10
-54.37777508848087
 20
-0.3122360172115108
 30
0.0
 10
-53.99113826919891
 20
-0.6628488592387853
 30
0.0
 10
-53.2257676625654
 20
-1.379320712003111
 30
0.0
 10
-52.84910690720079
 20
-1.743335860329289
 30
0.0
 10
-52.48438873352428
 20
-2.109075688396281
 30
0.0
1001
PE_URL
1000

  0
SPLINE
  5
219
330
1F
100
AcDbEntity
  8
0
  6
Continuous
 62
     1
370
    15
100
AcDbSpline
210
0.0
220
0.0
230
1.0
 70
     8
 71
     3
 72
    15
 73
    11
 74
     0
 42
0.000000001
 43
0.00000001
 40
0.0
 40
0.0
 40
0.0
 40
0.0
 40
0.0932778957850604
 40
0.1866059107576101
 40
0.3383453905622977
 40
0.4900871186120089
 40
0.641830936325734
 40
0.7935766848221157
 40
0.945324204942092
 40
1.0
 40
1.0
 40
1.0
 40
1.0
 10
-52.48438873269581
 20
-2.109075688754913
 30
0.0
 10
-51.94454787546566
 20
-2.339709015746948
 30
0.0
 10
-50.8645760988753
 20
-2.801099591426063
 30
0.0
 10
-48.90633572403739
 20
-3.574809248274185
 30
0.0
 10
-46.60895292788905
 20
-4.387376256473257
 30
0.0
 10
-43.97365063793285
 20
-5.138977420487532
 30
0.0
 10
-41.33822899989849
 20
-5.686737188480773
 30
0.0
 10
-38.70279017033549
 20
-5.987525211690308
 30
0.0
 10
-36.62928626582223
 20
-6.080340964175313
 30
0.0
 10
-35.43426376530726
 20
-5.988215456670577
 30
0.0
 10
-35.11773554139303
 20
-5.963813971966225
 30
0.0
1001
PE_URL
1000

  0
SPLINE
  5
21A
330
1F
100
AcDbEntity
  8
0
  6
Continuous
 62
     1
370
    15
100
AcDbSpline
210
0.0
220
0.0
230
1.0
 70
    24
 71
     3
 72
    10
 73
     6
 74
     0
 42
0.000000001
 43
0.00000001
 40
0.0
 40
0.0
 40
0.0
 40
0.0
 40
0.5
 40
0.5
 40
1.0
 40
1.0
 40
1.0
 40
1.0
 10
-57.15000000000003
 20
5.949343981001631
 30
0.0
 10
-57.15000000000003
 20
5.493280380206869
 30
0.0
 10
-57.15000000000005
 20
4.917026533332265
 30
0.0
 10
-57.15000000000005
 20
3.577291797595645
 30
0.0
 10
-57.15000000000005
 20
2.814971437758832
 30
0.0
 10
-57.15000000000005
 20
2.015178839905079
 30
0.0
1001
PE_URL
1000

  0
SPLINE
  5
21B
330
1F
100
AcDbEntity
  8
0
  6
Continuous
 62
     1
370
    15
100
AcDbSpline
210
0.0
220
0.0
230
1.0
 70
     8
 71
     3
 72
     9
 73
     5
 74
     0
 42
0.000000001
 43
0.00000001
 40
0.0
 40
0.0
 40
0.0
 40
0.0
 40
0.9400337852064187
 40
1.0
 40
1.0
 40
1.0
 40
1.0
 10
-57.15000000000006
 20
-5.278437499999946
 30
0.0
 10
-56.27161069186525
 20
-5.275615620020847
 30
0.0
 10
-55.33718756584759
 20
-5.272613727936218
 30
0.0
 10
-54.40276177881455
 20
-5.158002525317027
 30
0.0
 10
-54.34672780136067
 20
-5.151129725323013
 30
0.0
1001
PE_URL
1000

  0
SPLINE
  5
21C
330
1F
100
AcDbEntity
  8
0
  6
Continuous
 62
     1
370
    15
100
AcDbSpline
210
0.0
220
0.0
230
1.0
 70
     8
 71
     3
 72
    10
 73
     6
 74
     0
 42
0.000000001
 43
0.00000001
 40
0.0
 40
0.0
 40
0.0
 40
0.0
 40
0.5
 40
0.5
 40
1.0
 40
1.0
 40
1.0
 40
1.0
 10
-57.15000000000006
 20
-5.278437499999946
 30
0.0
 10
-56.37431557462824
 20
-5.068091248733531
 30
0.0
 10
-55.60335223281727
 20
-4.831855881893464
 30
0.0
 10
-54.07165721768719
 20
-4.303277510065197
 30
0.0
 10
-53.31114257325139
 20
-4.011467374449492
 30
0.0
 10
-52.56006675032067
 20
-3.682840481651819
 30
0.0
1001
PE_URL
1000

  0
SPLINE
  5
21D
330
1F
100
AcDbEntity
  8
0
  6
Continuous
 62
     1
370
    15
100
AcDbSpline
210
0.0
220
0.0
230
1.0
 70
    24
 71
     3
 72
     8
 73
     4
 74
     0
 42
0.000000001
 43
0.00000001
 40
0.0
 40
0.0
 40
0.0
 40
0.0
 40
1.0
 40
1.0
 40
1.0
 40
1.0
 10
-52.56006675030854
 20
-3.682840481646487
 30
0.0
 10
-52.42748269003833
 20
-3.571589245573772
 30
0.0
 10
-52.29064950575749
 20
-3.456772571110921
 30
0.0
 10
-52.15000000000005
 20
-3.33875362270458
 30
0.0
1001
PE_URL
1000

  0
SPLINE
  5
21E
330
1F
100
AcDbEntity
  8
0
  6
Continuous
 62
     1
370
    15
100
AcDbSpline
210
0.0
220
0.0
230
1.0
 70
    24
 71
     3
 72
     8
 73
     4
 74
     0
 42
0.000000001
 43
0.00000001
 40
0.0
 40
0.0
 40
0.0
 40
0.0
 40
1.0
 40
1.0
 40
1.0
 40
1.0
 10
-52.15000000000005
 20
-2.51832736606076
 30
0.0
 10
-52.15000000000005
 20
-2.810002406136569
 30
0.0
 10
-52.15000000000005
 20
-3.085635367869362
 30
0.0
 10
-52.15000000000005
 20
-3.338753622704576
 30
0.0
1001
PE_URL
1000

  0
SPLINE
  5
21F
330
1F
100
AcDbEntity
  8
0
  6
Continuous
 62
     1
370
    15
100
AcDbSpline
210
0.0
220
0.0
230
1.0
 70
     8
 71
     3
 72
    12
 73
     8
 74
     0
 42
0.000000001
 43
0.00000001
 40
0.0
 40
0.0
 40
0.0
 40
0.0
 40
0.1964553155059991
 40
0.4055513179291065
 40
0.6146495418486417
 40
0.8073203206553381
 40
1.0
 40
1.0
 40
1.0
 40
1.0
 10
-41.17894871500707
 20
5.664399429749661
 30
0.0
 10
-40.35356492437025
 20
5.7773728441286
 30
0.0
 10
-38.64968899091474
 20
6.010588814764578
 30
0.0
 10
-36.06732182486114
 20
6.065235415118647
 30
0.0
 10
-33.50079031000897
 20
5.894983922082753
 30
0.0
 10
-31.00344285719629
 20
5.519421809590979
 30
0.0
 10
-29.38449341682838
 20
5.119691721441704
 30
0.0
 10
-28.57500000000003
 20
4.919822061033088
 30
0.0
1001
PE_URL
1000

  0
SPLINE
  5
220
330
1F
100
AcDbEntity
  8
외형선
  6
Continuous
370
    15
100
AcDbSpline
210
0.0
220
0.0
230
1.0
 70
    24
 71
     3
 72
    14
 73
    10
 74
     0
 42
0.000000001
 43
0.00000001
 40
0.0
 40
0.0
 40
0.0
 40
0.0
 40
0.25
 40
0.25
 40
0.5
 40
0.5
 40
0.75
 40
0.75
 40
1.0
 40
1.0
 40
1.0
 40
1.0
 10
-28.57500000000005
 20
-3.054540548897133
 30
0.0
 10
-28.57500000000005
 20
-2.439959560807893
 30
0.0
 10
-28.57500000000005
 20
-1.77356406798728
 30
0.0
 10
-28.57500000000005
 20
-0.3888725292110706
 30
0.0
 10
-28.57500000000004
 20
0.3288512880542207
 30
0.0
 10
-28.57500000000004
 20
1.746125433565094
 30
0.0
 10
-28.57500000000004
 20
2.444920578892233
 30
0.0
 10
-28.57500000000003
 20
3.757487761607859
 30
0.0
 10
-28.57500000000003
 20
4.370788872855787
 30
0.0
 10
-28.57500000000003
 20
4.919822061033088
 30
0.0
  0
LINE
  5
221
330
1F
100
AcDbEntity
  8
0
  6
Continuous
 62
     1
370
    15
100
AcDbLine
 10
-57.15000000000005
 20
0.0000000000000497
 30
0.0
 11
-57.15000000000006
 21
-5.278437499999946
 31
0.0
1001
PE_URL
1000

  0
SPLINE
  5
222
330
1F
100
AcDbEntity
  8
외형선
  6
Continuous
370
    15
100
AcDbSpline
210
0.0
220
0.0
230
1.0
 70
    24
 71
     3
 72
    11
 73
     7
 74
     0
 42
0.000000001
 43
0.00000001
 40
0.0
 40
0.0
 40
0.0
 40
0.0
 40
0.2267234277598946
 40
0.453446855519789
 40
0.7850329329121994
 40
1.0
 40
1.0
 40
1.0
 40
1.0
 10
-28.57500000000003
 20
4.919822061033088
 30
0.0
 10
-28.57500000000003
 20
5.061914876474395
 30
0.0
 10
-28.57500000000003
 20
5.34610050735701
 30
0.0
 10
-28.57500000000003
 20
5.689665113086155
 30
0.0
 10
-28.57500000000003
 20
5.919175744833685
 30
0.0
 10
-28.57500000000003
 20
5.914056034452987
 30
0.0
 10
-28.57500000000003
 20
5.912042380088367
 30
0.0
  0
SPLINE
  5
223
330
1F
100
AcDbEntity
  8
0
  6
Continuous
 62
     1
370
    15
100
AcDbSpline
210
0.0
220
0.0
230
1.0
 70
     8
 71
     3
 72
    12
 73
     8
 74
     0
 42
0.000000001
 43
0.00000001
 40
0.0
 40
0.0
 40
0.0
 40
0.0
 40
0.0292552417620395
 40
0.2719383740314039
 40
0.5146234872378581
 40
0.7573106673016483
 40
1.0
 40
1.0
 40
1.0
 40
1.0
 10
-46.7873098111927
 20
-5.054493581057535
 30
0.0
 10
-46.88836373957746
 20
-5.100750423950235
 30
0.0
 10
-47.8276976612711
 20
-5.530725016072331
 30
0.0
 10
-49.60532209116114
 20
-6.170565221758647
 30
0.0
 10
-52.12019083948049
 20
-6.908200499113672
 30
0.0
 10
-54.63508533339304
 20
-7.392953980554047
 30
0.0
 10
-56.31169263255842
 20
-7.487152373322708
 30
0.0
 10
-57.15000000000006
 20
-7.534251778590978
 30
0.0
1001
PE_URL
1000

  0
SPLINE
  5
224
330
1F
100
AcDbEntity
  8
0
  6
Continuous
 62
     1
370
    15
100
AcDbSpline
210
0.0
220
0.0
230
1.0
 70
    24
 71
     3
 72
    10
 73
     6
 74
     0
 42
0.000000001
 43
0.00000001
 40
0.0
 40
0.0
 40
0.0
 40
0.0
 40
0.5
 40
0.5
 40
1.0
 40
1.0
 40
1.0
 40
1.0
 10
-57.15000000000006
 20
-5.278437499999946
 30
0.0
 10
-57.15000000000006
 20
-5.598403236487595
 30
0.0
 10
-57.15000000000006
 20
-5.970233054301051
 30
0.0
 10
-57.15000000000006
 20
-6.750331010620396
 30
0.0
 10
-57.15000000000006
 20
-7.156606876840424
 30
0.0
 10
-57.15000000000006
 20
-7.534251778590981
 30
0.0
1001
PE_URL
1000

  0
LINE
  5
225
330
1F
100
AcDbEntity
  8
0
  6
Continuous
 62
     1
370
    15
100
AcDbLine
 10
-28.97433849359552
 20
5.927453914447332
 30
0.0
 11
-28.57499999999485
 21
6.080798174937339
 31
0.0
1001
PE_URL
1000

  0
LINE
  5
226
330
1F
100
AcDbEntity
  8
외형선
  6
Continuous
370
    15
100
AcDbLine
 10
-28.57500000000003
 20
5.991546171802289
 30
0.0
 11
-28.57500000000003
 21
6.080798174920631
 31
0.0
  0
LINE
  5
227
330
1F
100
AcDbEntity
  8
외형선
  6
Continuous
370
    15
100
AcDbLine
 10
-6.743699999999965
 20
7.937499999999991
 30
0.0
 11
-25.52508614227643
 21
7.93749999999999
 31
0.0
  0
ENDSEC
  0
SECTION
  2
OBJECTS
  0
DICTIONARY
  5
C
330
0
100
AcDbDictionary
281
     1
  3
ACAD_GROUP
350
D
  3
ACAD_LAYOUT
350
1A
  3
ACAD_MLINESTYLE
350
17
  3
ACAD_PLOTSETTINGS
350
19
  3
ACAD_PLOTSTYLENAME
350
E
  3
ACAD_SCALELIST
350
47
  3
APPDATA
350
15A
  3
DWGPROPS
350
229
  0
DICTIONARY
  5
194
330
2
100
AcDbDictionary
280
     1
281
     1
  3
ACAD_LAYERSTATES
360
195
  0
DICTIONARY
  5
D
102
{ACAD_REACTORS
330
C
102
}
330
C
100
AcDbDictionary
281
     1
  0
DICTIONARY
  5
1A
102
{ACAD_REACTORS
330
C
102
}
330
C
100
AcDbDictionary
281
     1
  3
Layout1
350
1E
  3
Layout2
350
26
  3
Model
350
22
  0
DICTIONARY
  5
17
102
{ACAD_REACTORS
330
C
102
}
330
C
100
AcDbDictionary
281
     1
  3
Standard
350
18
  0
DICTIONARY
  5
19
102
{ACAD_REACTORS
330
C
102
}
330
C
100
AcDbDictionary
281
     1
  0
ACDBDICTIONARYWDFLT
  5
E
102
{ACAD_REACTORS
330
C
102
}
330
C
100
AcDbDictionary
281
     1
  3
Normal
350
F
100
AcDbDictionaryWithDefault
340
F
  0
DICTIONARY
  5
47
102
{ACAD_REACTORS
330
C
102
}
330
C
100
AcDbDictionary
281
     1
  3
A0
350
48
  3
A1
350
49
  3
A2
350
4A
  3
A3
350
4B
  3
A4
350
4C
  3
A5
350
4D
  3
A6
350
4E
  3
A7
350
4F
  3
A8
350
50
  3
A9
350
51
  3
B0
350
52
  3
B1
350
53
  3
B2
350
54
  3
B3
350
55
  3
B4
350
56
  3
B5
350
57
  3
B6
350
58
  3
B7
350
59
  3
B8
350
5A
  3
B9
350
5B
  3
C0
350
5C
  3
C1
350
5D
  3
C2
350
5E
  3
C3
350
5F
  3
C4
350
60
  3
C5
350
61
  3
C6
350
62
  3
C7
350
63
  3
C8
350
64
  3
C9
350
65
  3
D0
350
66
  3
D1
350
67
  3
D2
350
68
  0
DICTIONARY
  5
15A
102
{ACAD_REACTORS
330
C
102
}
330
C
100
AcDbDictionary
281
     1
  0
XRECORD
  5
229
102
{ACAD_REACTORS
330
C
102
}
330
C
100
AcDbXrecord
280
     1
  1
DWGPROPS COOKIE
  2

  3

  4

  6

  7

  8
120170442
  9

300
=
301
=
302
=
303
=
304
=
305
=
306
=
307
=
308
=
309
=
 40
0.0
 41
2458313.024488692
 42
2458324.072332535
  1

 90
        0
  0
DICTIONARY
  5
195
102
{ACAD_REACTORS
330
194
102
}
330
194
100
AcDbDictionary
281
     1
  0
LAYOUT
  5
1E
102
{ACAD_REACTORS
330
1A
102
}
330
1A
100
AcDbPlotSettings
  1

  2
none_device
  4

  6

 40
0.0
 41
0.0
 42
0.0
 43
0.0
 44
0.0
 45
0.0
 46
0.0
 47
0.0
 48
0.0
 49
0.0
140
0.0
141
0.0
142
1.0
143
1.0
 70
   688
 72
     1
 73
     0
 74
     5
  7

 75
    16
147
1.0
148
0.0
149
0.0
100
AcDbLayout
  1
Layout1
 70
     1
 71
     1
 10
0.0
 20
0.0
 11
420.0
 21
297.0
 12
0.0
 22
0.0
 32
0.0
 14
1.000000000000000E+20
 24
1.000000000000000E+20
 34
1.000000000000000E+20
 15
-1.000000000000000E+20
 25
-1.000000000000000E+20
 35
-1.000000000000000E+20
146
0.0
 13
0.0
 23
0.0
 33
0.0
 16
1.0
 26
0.0
 36
0.0
 17
0.0
 27
1.0
 37
0.0
 76
     0
330
1B
  0
LAYOUT
  5
26
102
{ACAD_REACTORS
330
1A
102
}
330
1A
100
AcDbPlotSettings
  1

  2
none_device
  4

  6

 40
0.0
 41
0.0
 42
0.0
 43
0.0
 44
0.0
 45
0.0
 46
0.0
 47
0.0
 48
0.0
 49
0.0
140
0.0
141
0.0
142
1.0
143
1.0
 70
   688
 72
     1
 73
     0
 74
     5
  7

 75
    16
147
1.0
148
0.0
149
0.0
100
AcDbLayout
  1
Layout2
 70
     1
 71
     2
 10
0.0
 20
0.0
 11
0.0
 21
0.0
 12
0.0
 22
0.0
 32
0.0
 14
0.0
 24
0.0
 34
0.0
 15
0.0
 25
0.0
 35
0.0
146
0.0
 13
0.0
 23
0.0
 33
0.0
 16
1.0
 26
0.0
 36
0.0
 17
0.0
 27
1.0
 37
0.0
 76
     0
330
23
  0
LAYOUT
  5
22
102
{ACAD_REACTORS
330
1A
102
}
330
1A
100
AcDbPlotSettings
  1

  2
none_device
  4
ANSI_A_(11.00_x_8.50_Inches)
  6

 40
6.35
 41
19.05
 42
6.35000508
 43
19.05000254
 44
279.4
 45
215.9
 46
60.05458028439218
 47
39.57808514780007
 48
0.0
 49
0.0
140
0.0
141
0.0
142
0.0259721867714998
143
1.0
 70
  1696
 72
     0
 73
     0
 74
     0
  7

 75
     0
147
0.0235690232323232
148
0.0
149
0.0
100
AcDbLayout
  1
Model
 70
     1
 71
     0
 10
0.0
 20
0.0
 11
420.0
 21
297.0
 12
0.0
 22
0.0
 32
0.0
 14
-76.52500000000009
 24
-49.97180738881175
 34
0.0
 15
99.38162503295504
 25
46.0757517785911
 35
0.0
146
0.0
 13
0.0
 23
0.0
 33
0.0
 16
1.0
 26
0.0
 36
0.0
 17
0.0
 27
1.0
 37
0.0
 76
     0
330
1F
331
29
  0
MLINESTYLE
  5
18
102
{ACAD_REACTORS
330
17
102
}
330
17
100
AcDbMlineStyle
  2
Standard
 70
     0
  3

 62
   256
 51
90.0
 52
90.0
 71
     2
 49
0.5
 62
   256
  6
BYLAYER
 49
-0.5
 62
   256
  6
BYLAYER
  0
ACDBPLACEHOLDER
  5
F
102
{ACAD_REACTORS
330
E
102
}
330
E
  0
SCALE
  5
48
102
{ACAD_REACTORS
330
47
102
}
330
47
100
AcDbScale
 70
     0
300
1:1
140
1.0
141
1.0
290
     1
  0
SCALE
  5
49
102
{ACAD_REACTORS
330
47
102
}
330
47
100
AcDbScale
 70
     0
300
1:2
140
1.0
141
2.0
290
     0
  0
SCALE
  5
4A
102
{ACAD_REACTORS
330
47
102
}
330
47
100
AcDbScale
 70
     0
300
1:4
140
1.0
141
4.0
290
     0
  0
SCALE
  5
4B
102
{ACAD_REACTORS
330
47
102
}
330
47
100
AcDbScale
 70
     0
300
1:5
140
1.0
141
5.0
290
     0
  0
SCALE
  5
4C
102
{ACAD_REACTORS
330
47
102
}
330
47
100
AcDbScale
 70
     0
300
1:8
140
1.0
141
8.0
290
     0
  0
SCALE
  5
4D
102
{ACAD_REACTORS
330
47
102
}
330
47
100
AcDbScale
 70
     0
300
1:10
140
1.0
141
10.0
290
     0
  0
SCALE
  5
4E
102
{ACAD_REACTORS
330
47
102
}
330
47
100
AcDbScale
 70
     0
300
1:16
140
1.0
141
16.0
290
     0
  0
SCALE
  5
4F
102
{ACAD_REACTORS
330
47
102
}
330
47
100
AcDbScale
 70
     0
300
1:20
140
1.0
141
20.0
290
     0
  0
SCALE
  5
50
102
{ACAD_REACTORS
330
47
102
}
330
47
100
AcDbScale
 70
     0
300
1:30
140
1.0
141
30.0
290
     0
  0
SCALE
  5
51
102
{ACAD_REACTORS
330
47
102
}
330
47
100
AcDbScale
 70
     0
300
1:40
140
1.0
141
40.0
290
     0
  0
SCALE
  5
52
102
{ACAD_REACTORS
330
47
102
}
330
47
100
AcDbScale
 70
     0
300
1:50
140
1.0
141
50.0
290
     0
  0
SCALE
  5
53
102
{ACAD_REACTORS
330
47
102
}
330
47
100
AcDbScale
 70
     0
300
1:100
140
1.0
141
100.0
290
     0
  0
SCALE
  5
54
102
{ACAD_REACTORS
330
47
102
}
330
47
100
AcDbScale
 70
     0
300
2:1
140
2.0
141
1.0
290
     0
  0
SCALE
  5
55
102
{ACAD_REACTORS
330
47
102
}
330
47
100
AcDbScale
 70
     0
300
4:1
140
4.0
141
1.0
290
     0
  0
SCALE
  5
56
102
{ACAD_REACTORS
330
47
102
}
330
47
100
AcDbScale
 70
     0
300
8:1
140
8.0
141
1.0
290
     0
  0
SCALE
  5
57
102
{ACAD_REACTORS
330
47
102
}
330
47
100
AcDbScale
 70
     0
300
10:1
140
10.0
141
1.0
290
     0
  0
SCALE
  5
58
102
{ACAD_REACTORS
330
47
102
}
330
47
100
AcDbScale
 70
     0
300
100:1
140
100.0
141
1.0
290
     0
  0
SCALE
  5
59
102
{ACAD_REACTORS
330
47
102
}
330
47
100
AcDbScale
 70
     0
300
1/128" = 1'-0"
140
0.0078125
141
12.0
290
     0
  0
SCALE
  5
5A
102
{ACAD_REACTORS
330
47
102
}
330
47
100
AcDbScale
 70
     0
300
1/64" = 1'-0"
140
0.015625
141
12.0
290
     0
  0
SCALE
  5
5B
102
{ACAD_REACTORS
330
47
102
}
330
47
100
AcDbScale
 70
     0
300
1/32" = 1'-0"
140
0.03125
141
12.0
290
     0
  0
SCALE
  5
5C
102
{ACAD_REACTORS
330
47
102
}
330
47
100
AcDbScale
 70
     0
300
1/16" = 1'-0"
140
0.0625
141
12.0
290
     0
  0
SCALE
  5
5D
102
{ACAD_REACTORS
330
47
102
}
330
47
100
AcDbScale
 70
     0
300
3/32" = 1'-0"
140
0.09375
141
12.0
290
     0
  0
SCALE
  5
5E
102
{ACAD_REACTORS
330
47
102
}
330
47
100
AcDbScale
 70
     0
300
1/8" = 1'-0"
140
0.125
141
12.0
290
     0
  0
SCALE
  5
5F
102
{ACAD_REACTORS
330
47
102
}
330
47
100
AcDbScale
 70
     0
300
3/16" = 1'-0"
140
0.1875
141
12.0
290
     0
  0
SCALE
  5
60
102
{ACAD_REACTORS
330
47
102
}
330
47
100
AcDbScale
 70
     0
300
1/4" = 1'-0"
140
0.25
141
12.0
290
     0
  0
SCALE
  5
61
102
{ACAD_REACTORS
330
47
102
}
330
47
100
AcDbScale
 70
     0
300
3/8" = 1'-0"
140
0.375
141
12.0
290
     0
  0
SCALE
  5
62
102
{ACAD_REACTORS
330
47
102
}
330
47
100
AcDbScale
 70
     0
300
1/2" = 1'-0"
140
0.5
141
12.0
290
     0
  0
SCALE
  5
63
102
{ACAD_REACTORS
330
47
102
}
330
47
100
AcDbScale
 70
     0
300
3/4" = 1'-0"
140
0.75
141
12.0
290
     0
  0
SCALE
  5
64
102
{ACAD_REACTORS
330
47
102
}
330
47
100
AcDbScale
 70
     0
300
1" = 1'-0"
140
1.0
141
12.0
290
     0
  0
SCALE
  5
65
102
{ACAD_REACTORS
330
47
102
}
330
47
100
AcDbScale
 70
     0
300
1-1/2" = 1'-0"
140
1.5
141
12.0
290
     0
  0
SCALE
  5
66
102
{ACAD_REACTORS
330
47
102
}
330
47
100
AcDbScale
 70
     0
300
3" = 1'-0"
140
3.0
141
12.0
290
     0
  0
SCALE
  5
67
102
{ACAD_REACTORS
330
47
102
}
330
47
100
AcDbScale
 70
     0
300
6" = 1'-0"
140
6.0
141
12.0
290
     0
  0
SCALE
  5
68
102
{ACAD_REACTORS
330
47
102
}
330
47
100
AcDbScale
 70
     0
300
1'-0" = 1'-0"
140
12.0
141
12.0
290
     0
  0
ENDSEC
  0
EOF
