  0
SECTION
  2
HEADER
  9
$ACADVER
  1
AC1015
  9
$ACADMAINTVER
 70
     6
  9
$DWGCODEPAGE
  3
ANSI_949
  9
$INSBASE
 10
0.0
 20
0.0
 30
0.0
  9
$EXTMIN
 10
-76.52500000000009
 20
-49.97180738881174
 30
0.0
  9
$EXTMAX
 10
99.38162503295504
 20
45.72017264400257
 30
0.0
  9
$LIMMIN
 10
0.0
 20
0.0
  9
$LIMMAX
 10
420.0
 20
297.0
  9
$ORTHOMODE
 70
     1
  9
$REGENMODE
 70
     1
  9
$FILLMODE
 70
     1
  9
$QTEXTMODE
 70
     0
  9
$MIRRTEXT
 70
     1
  9
$LTSCALE
 40
1.0
  9
$ATTMODE
 70
     1
  9
$TEXTSIZE
 40
3.5
  9
$TRACEWID
 40
1.0
  9
$TEXTSTYLE
  7
Standard
  9
$CLAYER
  8
0
  9
$CELTYPE
  6
ByLayer
  9
$CECOLOR
 62
   256
  9
$CELTSCALE
 40
1.0
  9
$DISPSILH
 70
     0
  9
$DIMSCALE
 40
1.0
  9
$DIMASZ
 40
3.302
  9
$DIMEXO
 40
1.0
  9
$DIMDLI
 40
3.75
  9
$DIMRND
 40
0.0
  9
$DIMDLE
 40
0.0
  9
$DIMEXE
 40
1.0
  9
$DIMTP
 40
0.0
  9
$DIMTM
 40
0.0
  9
$DIMTXT
 40
3.5
  9
$DIMCEN
 40
2.5
  9
$DIMTSZ
 40
0.0
  9
$DIMTOL
 70
     0
  9
$DIMLIM
 70
     0
  9
$DIMTIH
 70
     1
  9
$DIMTOH
 70
     1
  9
$DIMSE1
 70
     0
  9
$DIMSE2
 70
     0
  9
$DIMTAD
 70
     1
  9
$DIMZIN
 70
     0
  9
$DIMBLK
  1

  9
$DIMASO
 70
     1
  9
$DIMSHO
 70
     1
  9
$DIMPOST
  1

  9
$DIMAPOST
  1

  9
$DIMALT
 70
     0
  9
$DIMALTD
 70
     3
  9
$DIMALTF
 40
0.0393700787401575
  9
$DIMLFAC
 40
1.0
  9
$DIMTOFL
 70
     1
  9
$DIMTVP
 40
0.0
  9
$DIMTIX
 70
     0
  9
$DIMSOXD
 70
     0
  9
$DIMSAH
 70
     0
  9
$DIMBLK1
  1

  9
$DIMBLK2
  1

  9
$DIMSTYLE
  2
ISO-25
  9
$DIMCLRD
 70
     0
  9
$DIMCLRE
 70
     0
  9
$DIMCLRT
 70
     0
  9
$DIMTFAC
 40
1.0
  9
$DIMGAP
 40
1.524
  9
$DIMJUST
 70
     0
  9
$DIMSD1
 70
     0
  9
$DIMSD2
 70
     0
  9
$DIMTOLJ
 70
     0
  9
$DIMTZIN
 70
     0
  9
$DIMALTZ
 70
     0
  9
$DIMALTTZ
 70
     0
  9
$DIMUPT
 70
     0
  9
$DIMDEC
 70
     2
  9
$DIMTDEC
 70
     2
  9
$DIMALTU
 70
     2
  9
$DIMALTTD
 70
     3
  9
$DIMTXSTY
  7
Standard
  9
$DIMAUNIT
 70
     0
  9
$DIMADEC
 70
     2
  9
$DIMALTRND
 40
0.0
  9
$DIMAZIN
 70
     0
  9
$DIMDSEP
 70
    44
  9
$DIMATFIT
 70
     3
  9
$DIMFRAC
 70
     0
  9
$DIMLDRBLK
  1

  9
$DIMLUNIT
 70
     2
  9
$DIMLWD
 70
    -2
  9
$DIMLWE
 70
    -2
  9
$DIMTMOVE
 70
     0
  9
$LUNITS
 70
     2
  9
$LUPREC
 70
     2
  9
$SKETCHINC
 40
1.0
  9
$FILLETRAD
 40
10.0
  9
$AUNITS
 70
     0
  9
$AUPREC
 70
     2
  9
$MENU
  1
.
  9
$ELEVATION
 40
0.0
  9
$PELEVATION
 40
0.0
  9
$THICKNESS
 40
0.0
  9
$LIMCHECK
 70
     0
  9
$CHAMFERA
 40
0.0
  9
$CHAMFERB
 40
0.0
  9
$CHAMFERC
 40
0.0
  9
$CHAMFERD
 40
0.0
  9
$SKPOLY
 70
     0
  9
$TDCREATE
 40
2458313.399064919
  9
$TDUCREATE
 40
2458313.024064919
  9
$TDUPDATE
 40
2458324.443338912
  9
$TDUUPDATE
 40
2458324.068338912
  9
$TDINDWG
 40
0.0020302431
  9
$TDUSRTIMER
 40
0.0020302315
  9
$USRTIMER
 70
     1
  9
$ANGBASE
 50
0.0
  9
$ANGDIR
 70
     0
  9
$PDMODE
 70
     0
  9
$PDSIZE
 40
-1.0
  9
$PLINEWID
 40
0.0
  9
$SPLFRAME
 70
     0
  9
$SPLINETYPE
 70
     6
  9
$SPLINESEGS
 70
     8
  9
$HANDSEED
  5
250
  9
$SURFTAB1
 70
     6
  9
$SURFTAB2
 70
     6
  9
$SURFTYPE
 70
     6
  9
$SURFU
 70
     6
  9
$SURFV
 70
     6
  9
$UCSBASE
  2

  9
$UCSNAME
  2

  9
$UCSORG
 10
0.0
 20
0.0
 30
0.0
  9
$UCSXDIR
 10
1.0
 20
0.0
 30
0.0
  9
$UCSYDIR
 10
0.0
 20
1.0
 30
0.0
  9
$UCSORTHOREF
  2

  9
$UCSORTHOVIEW
 70
     0
  9
$UCSORGTOP
 10
0.0
 20
0.0
 30
0.0
  9
$UCSORGBOTTOM
 10
0.0
 20
0.0
 30
0.0
  9
$UCSORGLEFT
 10
0.0
 20
0.0
 30
0.0
  9
$UCSORGRIGHT
 10
0.0
 20
0.0
 30
0.0
  9
$UCSORGFRONT
 10
0.0
 20
0.0
 30
0.0
  9
$UCSORGBACK
 10
0.0
 20
0.0
 30
0.0
  9
$PUCSBASE
  2

  9
$PUCSNAME
  2

  9
$PUCSORG
 10
0.0
 20
0.0
 30
0.0
  9
$PUCSXDIR
 10
1.0
 20
0.0
 30
0.0
  9
$PUCSYDIR
 10
0.0
 20
1.0
 30
0.0
  9
$PUCSORTHOREF
  2

  9
$PUCSORTHOVIEW
 70
     0
  9
$PUCSORGTOP
 10
0.0
 20
0.0
 30
0.0
  9
$PUCSORGBOTTOM
 10
0.0
 20
0.0
 30
0.0
  9
$PUCSORGLEFT
 10
0.0
 20
0.0
 30
0.0
  9
$PUCSORGRIGHT
 10
0.0
 20
0.0
 30
0.0
  9
$PUCSORGFRONT
 10
0.0
 20
0.0
 30
0.0
  9
$PUCSORGBACK
 10
0.0
 20
0.0
 30
0.0
  9
$USERI1
 70
     0
  9
$USERI2
 70
     0
  9
$USERI3
 70
     0
  9
$USERI4
 70
     0
  9
$USERI5
 70
     0
  9
$USERR1
 40
0.0
  9
$USERR2
 40
0.0
  9
$USERR3
 40
0.0
  9
$USERR4
 40
0.0
  9
$USERR5
 40
0.0
  9
$WORLDVIEW
 70
     1
  9
$SHADEDGE
 70
     3
  9
$SHADEDIF
 70
    70
  9
$TILEMODE
 70
     1
  9
$MAXACTVP
 70
    64
  9
$PINSBASE
 10
0.0
 20
0.0
 30
0.0
  9
$PLIMCHECK
 70
     0
  9
$PEXTMIN
 10
1.000000000000000E+20
 20
1.000000000000000E+20
 30
1.000000000000000E+20
  9
$PEXTMAX
 10
-1.000000000000000E+20
 20
-1.000000000000000E+20
 30
-1.000000000000000E+20
  9
$PLIMMIN
 10
0.0
 20
0.0
  9
$PLIMMAX
 10
0.0
 20
0.0
  9
$UNITMODE
 70
     0
  9
$VISRETAIN
 70
     1
  9
$PLINEGEN
 70
     0
  9
$PSLTSCALE
 70
     1
  9
$TREEDEPTH
 70
  3020
  9
$CMLSTYLE
  2
Standard
  9
$CMLJUST
 70
     0
  9
$CMLSCALE
 40
20.0
  9
$PROXYGRAPHICS
 70
     1
  9
$MEASUREMENT
 70
     1
  9
$CELWEIGHT
370
    -1
  9
$ENDCAPS
280
     0
  9
$JOINSTYLE
280
     0
  9
$LWDISPLAY
290
     1
  9
$INSUNITS
 70
     4
  9
$HYPERLINKBASE
  1

  9
$STYLESHEET
  1

  9
$XEDIT
290
     1
  9
$CEPSNTYPE
380
     0
  9
$PSTYLEMODE
290
     1
  9
$FINGERPRINTGUID
  2
{24B45689-A1E9-482C-A834-4A536C0C60FB}
  9
$VERSIONGUID
  2
{FAEB1C32-E019-11D5-929B-00C0DF256EC4}
  9
$EXTNAMES
290
     1
  9
$PSVPSCALE
 40
0.0
  9
$OLESTARTUP
290
     0
  0
ENDSEC
  0
SECTION
  2
CLASSES
  0
CLASS
  1
ACDBDICTIONARYWDFLT
  2
AcDbDictionaryWithDefault
  3
ObjectDBX Classes
 90
        0
280
     0
281
     0
  0
CLASS
  1
VISUALSTYLE
  2
AcDbVisualStyle
  3
ObjectDBX Classes
 90
     4095
280
     0
281
     0
  0
CLASS
  1
MATERIAL
  2
AcDbMaterial
  3
ObjectDBX Classes
 90
     1153
280
     0
281
     0
  0
CLASS
  1
SCALE
  2
AcDbScale
  3
ObjectDBX Classes
 90
     1153
280
     0
281
     0
  0
CLASS
  1
SUN
  2
AcDbSun
  3
SCENEOE
 90
     1153
280
     0
281
     0
  0
CLASS
  1
ACDBPLACEHOLDER
  2
AcDbPlaceHolder
  3
ObjectDBX Classes
 90
        0
280
     0
281
     0
  0
CLASS
  1
LAYOUT
  2
AcDbLayout
  3
ObjectDBX Classes
 90
        0
280
     0
281
     0
  0
CLASS
  1
TABLESTYLE
  2
AcDbTableStyle
  3
ObjectDBX Classes
 90
     4095
280
     0
281
     0
  0
CLASS
  1
MLEADERSTYLE
  2
AcDbMLeaderStyle
  3
ACDB_MLEADERSTYLE_CLASS
 90
     4095
280
     0
281
     0
  0
ENDSEC
  0
SECTION
  2
TABLES
  0
TABLE
  2
VPORT
  5
8
330
0
100
AcDbSymbolTable
 70
     1
  0
VPORT
  5
29
330
8
100
AcDbSymbolTableRecord
100
AcDbViewportTableRecord
  2
*Active
 70
     0
 10
0.0
 20
0.0
 11
1.0
 21
1.0
 12
11.42831251647748
 22
-2.12581737240459
 13
0.0
 23
0.0
 14
10.0
 24
10.0
 15
10.0
 25
10.0
 16
0.0
 26
0.0
 36
1.0
 17
0.0
 27
0.0
 37
0.0
 40
100.6442182986565
 41
1.782762691853601
 42
50.0
 43
0.0
 44
0.0
 50
0.0
 51
0.0
 71
    16
 72
  2000
 73
     1
 74
     3
 75
     0
 76
     0
 77
     0
 78
     0
281
     0
 65
     1
110
0.0
120
0.0
130
0.0
111
1.0
121
0.0
131
0.0
112
0.0
122
1.0
132
0.0
 79
     0
146
0.0
  0
ENDTAB
  0
TABLE
  2
LTYPE
  5
5
330
0
100
AcDbSymbolTable
 70
     6
  0
LTYPE
  5
14
330
5
100
AcDbSymbolTableRecord
100
AcDbLinetypeTableRecord
  2
ByBlock
 70
     0
  3

 72
    65
 73
     0
 40
0.0
  0
LTYPE
  5
15
330
5
100
AcDbSymbolTableRecord
100
AcDbLinetypeTableRecord
  2
ByLayer
 70
     0
  3

 72
    65
 73
     0
 40
0.0
  0
LTYPE
  5
16
330
5
100
AcDbSymbolTableRecord
100
AcDbLinetypeTableRecord
  2
Continuous
 70
     0
  3
Solid line
 72
    65
 73
     0
 40
0.0
  0
LTYPE
  5
6A
330
5
100
AcDbSymbolTableRecord
100
AcDbLinetypeTableRecord
  2
HIDDEN
 70
     0
  3
Hidden __ __ __ __ __ __ __ __ __ __ __ __ __ __
 72
    65
 73
     2
 40
1.905
 49
1.27
 74
     0
 49
-0.635
 74
     0
  0
LTYPE
  5
6B
330
5
100
AcDbSymbolTableRecord
100
AcDbLinetypeTableRecord
  2
PHANTOM
 70
     0
  3
Phantom ______  __  __  ______  __  __  ______
 72
    65
 73
     6
 40
12.7
 49
6.35
 74
     0
 49
-1.27
 74
     0
 49
1.27
 74
     0
 49
-1.27
 74
     0
 49
1.27
 74
     0
 49
-1.27
 74
     0
  0
LTYPE
  5
6C
330
5
100
AcDbSymbolTableRecord
100
AcDbLinetypeTableRecord
  2
CENTER
 70
     0
  3
Center ____ _ ____ _ ____ _ ____ _ ____ _ ____
 72
    65
 73
     4
 40
10.16
 49
6.35
 74
     0
 49
-1.27
 74
     0
 49
1.27
 74
     0
 49
-1.27
 74
     0
  0
LTYPE
  5
6D
330
5
100
AcDbSymbolTableRecord
100
AcDbLinetypeTableRecord
  2
CENTERX2
 70
     0
  3
Center (2x) ________  __  ________  __  _____
 72
    65
 73
     4
 40
20.32
 49
12.7
 74
     0
 49
-2.54
 74
     0
 49
2.54
 74
     0
 49
-2.54
 74
     0
  0
LTYPE
  5
6E
330
5
100
AcDbSymbolTableRecord
100
AcDbLinetypeTableRecord
  2
DOT2
 70
     0
  3
Dot (.5x) ........................................
 72
    65
 73
     2
 40
0.635
 49
0.0
 74
     0
 49
-0.635
 74
     0
  0
ENDTAB
  0
TABLE
  2
LAYER
  5
2
102
{ACAD_XDICTIONARY
360
192
102
}
330
0
100
AcDbSymbolTable
 70
    18
  0
LAYER
  5
10
330
2
100
AcDbSymbolTableRecord
100
AcDbLayerTableRecord
  2
0
 70
     0
 62
     7
  6
Continuous
370
    -3
390
F
  0
LAYER
  5
6F
330
2
100
AcDbSymbolTableRecord
100
AcDbLayerTableRecord
  2
FORMAT
 70
     0
 62
     2
  6
Continuous
370
    -3
390
F
  0
LAYER
  5
70
330
2
100
AcDbSymbolTableRecord
100
AcDbLayerTableRecord
  2
외형선
 70
     0
 62
     4
  6
Continuous
370
    30
390
F
  0
LAYER
  5
71
330
2
100
AcDbSymbolTableRecord
100
AcDbLayerTableRecord
  2
숨은선
 70
     0
 62
     2
  6
HIDDEN
370
    15
390
F
  0
LAYER
  5
72
330
2
100
AcDbSymbolTableRecord
100
AcDbLayerTableRecord
  2
중심선
 70
     0
 62
     1
  6
CENTERX2
370
    -3
390
F
  0
LAYER
  5
73
330
2
100
AcDbSymbolTableRecord
100
AcDbLayerTableRecord
  2
파단선
 70
     0
 62
     4
  6
Continuous
370
    -3
390
F
  0
LAYER
  5
74
330
2
100
AcDbSymbolTableRecord
100
AcDbLayerTableRecord
  2
해칭선
 70
     0
 62
   100
  6
Continuous
370
    -3
390
F
  0
LAYER
  5
75
330
2
100
AcDbSymbolTableRecord
100
AcDbLayerTableRecord
  2
가는실선
 70
     0
 62
     4
  6
Continuous
370
    -3
390
F
  0
LAYER
  5
76
330
2
100
AcDbSymbolTableRecord
100
AcDbLayerTableRecord
  2
치수_보조선
 70
     0
 62
     4
  6
Continuous
370
    -3
390
F
  0
LAYER
  5
77
330
2
100
AcDbSymbolTableRecord
100
AcDbLayerTableRecord
  2
치수문자_일반주서
 70
     0
 62
     7
  6
Continuous
370
    15
390
F
  0
LAYER
  5
78
330
2
100
AcDbSymbolTableRecord
100
AcDbLayerTableRecord
  2
개별주서
 70
     0
 62
   100
  6
Continuous
370
    30
390
F
  0
LAYER
  5
79
330
2
100
AcDbSymbolTableRecord
100
AcDbLayerTableRecord
  2
중간선
 70
     0
 62
     2
  6
Continuous
370
    15
390
F
  0
LAYER
  5
7A
330
2
100
AcDbSymbolTableRecord
100
AcDbLayerTableRecord
  2
윤곽선
 70
     0
 62
     3
  6
Continuous
370
    40
390
F
  0
LAYER
  5
7B
330
2
100
AcDbSymbolTableRecord
100
AcDbLayerTableRecord
  2
중심마크
 70
     0
 62
   100
  6
Continuous
370
    30
390
F
  0
LAYER
  5
7C
330
2
100
AcDbSymbolTableRecord
100
AcDbLayerTableRecord
  2
가상선
 70
     0
 62
     4
  6
PHANTOM
370
    -3
390
F
  0
LAYER
  5
7D
330
2
100
AcDbSymbolTableRecord
100
AcDbLayerTableRecord
  2
특수지정선
 70
     0
 62
     5
  6
CENTERX2
370
    60
390
F
  0
LAYER
  5
7E
330
2
100
AcDbSymbolTableRecord
100
AcDbLayerTableRecord
  2
참조1
 70
     0
 62
    -4
  6
Continuous
370
    -3
390
F
  0
LAYER
  5
15B
330
2
100
AcDbSymbolTableRecord
100
AcDbLayerTableRecord
  2
Defpoints
 70
     0
 62
     7
  6
Continuous
290
     0
370
    -3
390
F
  0
ENDTAB
  0
TABLE
  2
STYLE
  5
3
330
0
100
AcDbSymbolTable
 70
     2
  0
STYLE
  5
11
330
3
100
AcDbSymbolTableRecord
100
AcDbTextStyleTableRecord
  2
Standard
 70
     0
 40
0.0
 41
1.0
 50
0.0
 71
     0
 42
3.5
  3
txt
  4

  0
STYLE
  5
94
330
3
100
AcDbSymbolTableRecord
100
AcDbTextStyleTableRecord
  2
SLDTEXTSTYLE0
 70
     0
 40
0.0
 41
0.75
 50
0.0
 71
     0
 42
3.5
  3
TXT
  4

  0
ENDTAB
  0
TABLE
  2
VIEW
  5
6
330
0
100
AcDbSymbolTable
 70
     0
  0
ENDTAB
  0
TABLE
  2
UCS
  5
7
330
0
100
AcDbSymbolTable
 70
     0
  0
ENDTAB
  0
TABLE
  2
APPID
  5
9
330
0
100
AcDbSymbolTable
 70
     2
  0
APPID
  5
12
330
9
100
AcDbSymbolTableRecord
100
AcDbRegAppTableRecord
  2
ACAD
 70
     0
  0
APPID
  5
162
330
9
100
AcDbSymbolTableRecord
100
AcDbRegAppTableRecord
  2
PE_URL
 70
     0
  0
ENDTAB
  0
TABLE
  2
DIMSTYLE
  5
A
330
0
100
AcDbSymbolTable
 70
     4
100
AcDbDimStyleTable
  0
DIMSTYLE
105
27
330
A
100
AcDbSymbolTableRecord
100
AcDbDimStyleTableRecord
  2
ISO-25
 70
     0
 41
2.5
 42
0.625
 43
3.75
 44
1.25
 73
     0
 74
     0
 77
     1
 78
     8
140
2.5
141
2.5
143
0.03937007874016
147
0.625
171
     3
172
     1
178
     0
271
     2
272
     2
274
     3
278
    44
283
     0
284
     8
340
11
  0
DIMSTYLE
105
DA
102
{ACAD_REACTORS
330
D9
330
181
330
102
330
EE
330
116
102
}
330
A
100
AcDbSymbolTableRecord
100
AcDbDimStyleTableRecord
  2
SLDDIMSTYLE0
 70
     0
 41
3.302
 44
0.0
 45
0.000000001
 73
     0
 74
     0
 77
     1
 78
    12
 79
     3
140
3.5
143
0.0393700787401575
147
0.875
148
0.000000001
170
     1
172
     1
173
     1
178
     0
271
     2
272
     2
276
     2
284
    12
289
     0
340
94
  0
DIMSTYLE
105
EF
330
A
100
AcDbSymbolTableRecord
100
AcDbDimStyleTableRecord
  2
SLDDIMSTYLE1
 70
     0
 41
3.302
 44
0.0
 45
0.000000001
 73
     0
 74
     0
 77
     1
 78
    12
 79
     3
140
3.5
143
0.0393700787401575
147
0.875
148
0.000000001
170
     1
173
     1
178
     0
271
     2
272
     2
276
     2
284
    12
340
94
  0
DIMSTYLE
105
117
330
A
100
AcDbSymbolTableRecord
100
AcDbDimStyleTableRecord
  2
SLDDIMSTYLE2
 70
     0
 41
3.302
 44
0.0
 45
0.000000001
 73
     0
 74
     0
 77
     1
 78
     4
 79
     1
140
3.5
143
0.0393700787401575
147
0.875
148
0.000000001
170
     1
173
     1
178
     0
271
     2
272
     2
276
     2
284
    12
340
94
  0
ENDTAB
  0
TABLE
  2
BLOCK_RECORD
  5
1
330
0
100
AcDbSymbolTable
 70
    11
  0
BLOCK_RECORD
  5
1F
330
1
100
AcDbSymbolTableRecord
100
AcDbBlockTableRecord
  2
*Model_Space
340
22
  0
BLOCK_RECORD
  5
1B
330
1
100
AcDbSymbolTableRecord
100
AcDbBlockTableRecord
  2
*Paper_Space
340
1E
  0
BLOCK_RECORD
  5
23
330
1
100
AcDbSymbolTableRecord
100
AcDbBlockTableRecord
  2
*Paper_Space0
340
26
  0
BLOCK_RECORD
  5
7F
330
1
100
AcDbSymbolTableRecord
100
AcDbBlockTableRecord
  2
블럭10
340
0
102
{BLKREFS
331
D2
102
}
  0
BLOCK_RECORD
  5
DB
330
1
100
AcDbSymbolTableRecord
100
AcDbBlockTableRecord
  2
_D
340
0
  0
BLOCK_RECORD
  5
F0
330
1
100
AcDbSymbolTableRecord
100
AcDbBlockTableRecord
  2
_D_1
340
0
  0
BLOCK_RECORD
  5
103
330
1
100
AcDbSymbolTableRecord
100
AcDbBlockTableRecord
  2
_D_2
340
0
  0
BLOCK_RECORD
  5
118
330
1
100
AcDbSymbolTableRecord
100
AcDbBlockTableRecord
  2
_D_3
340
0
  0
BLOCK_RECORD
  5
131
330
1
100
AcDbSymbolTableRecord
100
AcDbBlockTableRecord
  2
SW_DOWELSYMBOL_0
340
0
102
{BLKREFS
331
137
102
}
  0
BLOCK_RECORD
  5
196
330
1
100
AcDbSymbolTableRecord
100
AcDbBlockTableRecord
  2
*D8
340
0
  0
BLOCK_RECORD
  5
1A8
330
1
100
AcDbSymbolTableRecord
100
AcDbBlockTableRecord
  2
*D9
340
0
  0
ENDTAB
  0
ENDSEC
  0
SECTION
  2
BLOCKS
  0
BLOCK
  5
20
330
1F
100
AcDbEntity
  8
0
100
AcDbBlockBegin
  2
*Model_Space
 70
     0
 10
0.0
 20
0.0
 30
0.0
  3
*Model_Space
  1

  0
ENDBLK
  5
21
330
1F
100
AcDbEntity
  8
0
100
AcDbBlockEnd
  0
BLOCK
  5
1C
330
1B
100
AcDbEntity
 67
     1
  8
0
100
AcDbBlockBegin
  2
*Paper_Space
 70
     0
 10
0.0
 20
0.0
 30
0.0
  3
*Paper_Space
  1

  0
ENDBLK
  5
1D
330
1B
100
AcDbEntity
 67
     1
  8
0
100
AcDbBlockEnd
  0
BLOCK
  5
24
330
23
100
AcDbEntity
  8
0
100
AcDbBlockBegin
  2
*Paper_Space0
 70
     0
 10
0.0
 20
0.0
 30
0.0
  3
*Paper_Space0
  1

  0
ENDBLK
  5
25
330
23
100
AcDbEntity
  8
0
100
AcDbBlockEnd
  0
BLOCK
  5
80
330
7F
100
AcDbEntity
  8
0
100
AcDbBlockBegin
  2
블럭10
 70
     2
 10
0.0
 20
0.0
 30
0.0
  3
블럭10
  1

  0
ELLIPSE
  5
82
330
7F
100
AcDbEntity
  8
중심선
100
AcDbEllipse
 10
20.54032771741204
 20
12.0471743016438
 30
0.0
 11
6.600054785286829
 21
-1.261213355974178E-13
 31
0.0
210
0.0
220
0.0
230
1.0
 40
0.636358354079598
 41
0.9219305317359503
 42
6.513795318482858
  0
ELLIPSE
  5
83
330
7F
100
AcDbEntity
  8
중심선
100
AcDbEllipse
 10
20.54032771746488
 20
12.04717430159265
 30
0.0
 11
3.960054785062283
 21
1.540847449632565E-10
 31
0.0
210
0.0
220
0.0
230
1.0
 40
0.3939339440162632
 41
1.131841032648279
 42
5.62031148352944
  0
LINE
  5
84
330
7F
100
AcDbEntity
  8
중심선
100
AcDbLine
 10
2.268634060543552
 20
16.24717430164393
 30
0.0
 11
5.714909304380834
 21
16.24717430164393
 31
0.0
  0
LINE
  5
85
330
7F
100
AcDbEntity
  8
중심선
100
AcDbLine
 10
5.245725140726316
 20
7.84717430164391
 30
0.0
 11
8.692000384563599
 21
7.84717430164391
 31
0.0
  0
LINE
  5
86
330
7F
100
AcDbEntity
  8
중심선
100
AcDbLine
 10
15.74043728645272
 20
16.24717430164393
 30
0.0
 11
8.692000384563599
 21
7.84717430164391
 31
0.0
  0
LINE
  5
87
330
7F
100
AcDbEntity
  8
중심선
100
AcDbLine
 10
0.1404042013395286
 20
13.71084872107135
 30
0.0
 11
3.58671253028996
 21
13.71088815037384
 31
0.0
  0
LINE
  5
88
330
7F
100
AcDbEntity
  8
중심선
100
AcDbLine
 10
2.750260043222114
 20
10.84717430164391
 30
0.0
 11
6.196535287059397
 21
10.84717430164391
 31
0.0
  0
LINE
  5
89
330
7F
100
AcDbEntity
  8
중심선
100
AcDbLine
 10
12.29416204261559
 20
16.24717430164393
 30
0.0
 11
5.245725140726316
 21
7.84717430164391
 31
0.0
  0
LINE
  5
8A
330
7F
100
AcDbEntity
  8
중심선
100
AcDbLine
 10
10.72767329541681
 20
16.24717430164393
 30
0.0
 11
6.196535287059397
 21
10.84717430164391
 31
0.0
  0
LINE
  5
8B
330
7F
100
AcDbEntity
  8
중심선
100
AcDbLine
 10
7.28139805157953
 20
16.24717430164393
 30
0.0
 11
2.750260043222114
 21
10.84717430164391
 31
0.0
  0
LINE
  5
8C
330
7F
100
AcDbEntity
  8
중심선
100
AcDbLine
 10
5.714909304380834
 20
16.24717430164393
 30
0.0
 11
3.58671253028996
 21
13.71088815037384
 31
0.0
  0
LINE
  5
8D
330
7F
100
AcDbEntity
  8
중심선
100
AcDbLine
 10
2.268634060543552
 20
16.24717430164393
 30
0.0
 11
0.1404042013395286
 21
13.71084872107135
 31
0.0
  0
LINE
  5
8E
330
7F
100
AcDbEntity
  8
중심선
100
AcDbLine
 10
7.28139805157953
 20
16.24717430164393
 30
0.0
 11
10.72767329541681
 21
16.24717430164393
 31
0.0
  0
LINE
  5
8F
330
7F
100
AcDbEntity
  8
중심선
100
AcDbLine
 10
12.29416204261559
 20
16.24717430164393
 30
0.0
 11
15.74043728645272
 21
16.24717430164393
 31
0.0
  0
LINE
  5
90
330
7F
100
AcDbEntity
  8
중심선
100
AcDbLine
 10
19.22036997980202
 20
11.08717430171403
 30
0.0
 11
23.66174974927406
 21
11.08717430171406
 31
0.0
  0
LINE
  5
91
330
7F
100
AcDbEntity
  8
중심선
100
AcDbLine
 10
19.22039502424796
 20
13.00717430171391
 30
0.0
 11
19.22036997980202
 21
11.08717430171403
 31
0.0
  0
LINE
  5
92
330
7F
100
AcDbEntity
  8
중심선
100
AcDbLine
 10
19.22039502424796
 20
13.00717430171391
 30
0.0
 11
26.96566020931264
 21
13.00717430171391
 31
0.0
  0
LINE
  5
93
330
7F
100
AcDbEntity
  8
중심선
100
AcDbLine
 10
22.22332737316547
 20
13.45928029700563
 30
0.0
 11
24.52862924686651
 21
15.39360700705356
 31
0.0
  0
ATTDEF
  5
95
330
7F
100
AcDbEntity
  8
FORMAT
 62
     2
100
AcDbText
 10
4.408487351596664
 20
2.075366912832191
 30
0.0
 40
4.233333333333333
  1
E1050034
 41
0.75
  7
SLDTEXTSTYLE0
 11
4.408487351596664
 21
-0.0412997538344756
 31
0.0
100
AcDbAttributeDefinition
  3

  2
AUTOATTR0
 70
     0
 74
     1
  0
ENDBLK
  5
81
330
7F
100
AcDbEntity
  8
0
100
AcDbBlockEnd
  0
BLOCK
  5
DC
330
DB
100
AcDbEntity
  8
0
100
AcDbBlockBegin
  2
_D
 70
     0
 10
0.0
 20
0.0
 30
0.0
  3
_D
  1

  0
LINE
  5
DE
330
DB
100
AcDbEntity
  8
치수문자_일반주서
 62
     0
370
    -2
100
AcDbLine
 10
-23.19402700723833
 20
7.937499999999996
 30
0.0
 11
-72.14999999999998
 21
7.937499999999812
 31
0.0
  0
LINE
  5
DF
330
DB
100
AcDbEntity
  8
치수문자_일반주서
 62
     0
370
    -2
100
AcDbLine
 10
-23.1940270072383
 20
-7.937500000000003
 30
0.0
 11
-72.14999999999992
 21
-7.937500000000185
 31
0.0
  0
LINE
  5
E0
330
DB
100
AcDbEntity
  8
치수문자_일반주서
 62
     0
370
    -2
100
AcDbLine
 10
-72.14999999999998
 20
7.937499999999812
 30
0.0
 11
-72.1500000000001
 21
42.54149999999992
 31
0.0
  0
LINE
  5
E1
330
DB
100
AcDbEntity
  8
치수문자_일반주서
 62
     0
370
    -2
100
AcDbLine
 10
-72.14999999999998
 20
7.937499999999812
 30
0.0
 11
-72.14999999999992
 21
-7.937500000000185
 31
0.0
  0
LINE
  5
E2
330
DB
100
AcDbEntity
  8
치수문자_일반주서
 62
     0
370
    -2
100
AcDbLine
 10
-72.14999999999999
 20
11.23949999999981
 30
0.0
 11
-72.15
 21
14.54149999999981
 31
0.0
  0
LINE
  5
E3
330
DB
100
AcDbEntity
  8
치수문자_일반주서
 62
     0
370
    -2
100
AcDbLine
 10
-72.1499999999999
 20
-11.23950000000018
 30
0.0
 11
-72.14999999999989
 21
-14.54150000000018
 31
0.0
  0
SOLID
  5
E4
330
DB
100
AcDbEntity
  8
치수문자_일반주서
 62
     0
100
AcDbTrace
 10
-72.70033333333332
 20
11.23949999999981
 30
0.0
 11
-71.59966666666666
 21
11.23949999999981
 31
0.0
 12
-72.14999999999998
 22
7.937499999999812
 32
0.0
 13
-72.14999999999998
 23
7.937499999999812
 33
0.0
  0
SOLID
  5
E5
330
DB
100
AcDbEntity
  8
치수문자_일반주서
 62
     0
100
AcDbTrace
 10
-71.59966666666658
 20
-11.23950000000018
 30
0.0
 11
-72.70033333333323
 21
-11.23950000000019
 31
0.0
 12
-72.14999999999992
 22
-7.937500000000185
 32
0.0
 13
-72.14999999999992
 23
-7.937500000000185
 33
0.0
  0
MTEXT
  5
E6
330
DB
100
AcDbEntity
  8
치수문자_일반주서
 62
     0
100
AcDbMText
 10
-76.52500000000005
 20
28.5414999999999
 30
0.0
 40
3.5
 41
0.0
 71
     2
 72
     1
  1
\A1;%%c15.88 [5/8]
  7
SLDTEXTSTYLE0
 11
-3.580687802255624E-15
 21
1.0
 31
0.0
 73
     1
 44
1.0
  0
POINT
  5
1E6
330
DB
100
AcDbEntity
  8
Defpoints
 62
     0
100
AcDbPoint
 10
-23.13152700723833
 20
7.937499999999996
 30
0.0
  0
POINT
  5
1E7
330
DB
100
AcDbEntity
  8
Defpoints
 62
     0
100
AcDbPoint
 10
-23.1315270072383
 20
-7.937500000000003
 30
0.0
  0
POINT
  5
1E8
330
DB
100
AcDbEntity
  8
Defpoints
 62
     0
100
AcDbPoint
 10
-72.14999999999992
 20
-7.937500000000186
 30
0.0
  0
ENDBLK
  5
DD
330
DB
100
AcDbEntity
  8
0
100
AcDbBlockEnd
  0
BLOCK
  5
F1
330
F0
100
AcDbEntity
  8
0
100
AcDbBlockBegin
  2
_D_1
 70
     0
 10
0.0
 20
0.0
 30
0.0
  3
_D_1
  1

  0
LINE
  5
F3
330
F0
100
AcDbEntity
  8
치수문자_일반주서
 62
     0
370
    -2
100
AcDbLine
 10
57.21250000000001
 20
-6.741172644002505
 30
0.0
 11
72.15000000000003
 21
-6.74117264400245
 31
0.0
  0
LINE
  5
F4
330
F0
100
AcDbEntity
  8
치수문자_일반주서
 62
     0
370
    -2
100
AcDbLine
 10
57.21250000000001
 20
6.7411726440025
 30
0.0
 11
72.14999999999999
 21
6.741172644002557
 31
0.0
  0
LINE
  5
F5
330
F0
100
AcDbEntity
  8
치수문자_일반주서
 62
     0
370
    -2
100
AcDbLine
 10
72.14999999999999
 20
6.741172644002557
 30
0.0
 11
72.14999999999986
 21
45.72017264400256
 31
0.0
  0
LINE
  5
F6
330
F0
100
AcDbEntity
  8
치수문자_일반주서
 62
     0
370
    -2
100
AcDbLine
 10
72.15000000000003
 20
-6.74117264400245
 30
0.0
 11
72.14999999999999
 21
6.741172644002557
 31
0.0
  0
LINE
  5
F7
330
F0
100
AcDbEntity
  8
치수문자_일반주서
 62
     0
370
    -2
100
AcDbLine
 10
72.15000000000005
 20
-10.04317264400245
 30
0.0
 11
72.15000000000006
 21
-13.34517264400245
 31
0.0
  0
LINE
  5
F8
330
F0
100
AcDbEntity
  8
치수문자_일반주서
 62
     0
370
    -2
100
AcDbLine
 10
72.14999999999998
 20
10.04317264400256
 30
0.0
 11
72.14999999999996
 21
13.34517264400256
 31
0.0
  0
SOLID
  5
F9
330
F0
100
AcDbEntity
  8
치수문자_일반주서
 62
     0
100
AcDbTrace
 10
72.70033333333338
 20
-10.04317264400245
 30
0.0
 11
71.59966666666672
 21
-10.04317264400245
 31
0.0
 12
72.15000000000003
 22
-6.74117264400245
 32
0.0
 13
72.15000000000003
 23
-6.74117264400245
 33
0.0
  0
SOLID
  5
FA
330
F0
100
AcDbEntity
  8
치수문자_일반주서
 62
     0
100
AcDbTrace
 10
71.59966666666665
 20
10.04317264400255
 30
0.0
 11
72.7003333333333
 21
10.04317264400256
 31
0.0
 12
72.14999999999999
 22
6.741172644002557
 32
0.0
 13
72.14999999999999
 23
6.741172644002557
 33
0.0
  0
MTEXT
  5
FB
330
F0
100
AcDbEntity
  8
치수문자_일반주서
 62
     0
100
AcDbMText
 10
67.77499999999992
 20
29.53267264400254
 30
0.0
 40
3.5
 41
0.0
 71
     2
 72
     1
  1
\A1;%%c13.48 [17/32]
  7
SLDTEXTSTYLE0
 11
-3.162102975031757E-15
 21
1.0
 31
0.0
 73
     1
 44
1.0
  0
POINT
  5
FC
330
F0
100
AcDbEntity
  8
Defpoints
 62
     0
100
AcDbPoint
 10
57.15000000000001
 20
-6.741172644002505
 30
0.0
  0
POINT
  5
FD
330
F0
100
AcDbEntity
  8
Defpoints
 62
     0
100
AcDbPoint
 10
57.15000000000001
 20
6.7411726440025
 30
0.0
  0
POINT
  5
FE
330
F0
100
AcDbEntity
  8
Defpoints
 62
     0
100
AcDbPoint
 10
72.14999999999999
 20
6.741172644002556
 30
0.0
  0
ENDBLK
  5
F2
330
F0
100
AcDbEntity
  8
0
100
AcDbBlockEnd
  0
BLOCK
  5
104
330
103
100
AcDbEntity
  8
0
100
AcDbBlockBegin
  2
_D_2
 70
     0
 10
0.0
 20
0.0
 30
0.0
  3
_D_2
  1

  0
LINE
  5
106
330
103
100
AcDbEntity
  8
치수문자_일반주서
 62
     0
370
    -2
100
AcDbLine
 10
57.15000000000001
 20
6.8036726440025
 30
0.0
 11
57.15000000000001
 21
22.93749999999999
 31
0.0
  0
LINE
  5
107
330
103
100
AcDbEntity
  8
치수문자_일반주서
 62
     0
370
    -2
100
AcDbLine
 10
28.57500000000001
 20
6.339360801110214
 30
0.0
 11
28.57500000000001
 21
22.93749999999999
 31
0.0
  0
LINE
  5
108
330
103
100
AcDbEntity
  8
치수문자_일반주서
 62
     0
370
    -2
100
AcDbLine
 10
53.84800000000001
 20
22.93749999999999
 30
0.0
 11
31.87700000000001
 21
22.93749999999999
 31
0.0
  0
SOLID
  5
109
330
103
100
AcDbEntity
  8
치수문자_일반주서
 62
     0
100
AcDbTrace
 10
53.84800000000001
 20
22.38716666666666
 30
0.0
 11
53.84800000000001
 21
23.48783333333333
 31
0.0
 12
57.15000000000001
 22
22.93749999999999
 32
0.0
 13
57.15000000000001
 23
22.93749999999999
 33
0.0
  0
SOLID
  5
10A
330
103
100
AcDbEntity
  8
치수문자_일반주서
 62
     0
100
AcDbTrace
 10
31.87700000000001
 20
23.48783333333333
 30
0.0
 11
31.87700000000001
 21
22.38716666666666
 31
0.0
 12
28.57500000000001
 22
22.93749999999999
 32
0.0
 13
28.57500000000001
 23
22.93749999999999
 33
0.0
  0
MTEXT
  5
10B
330
103
100
AcDbEntity
  8
치수문자_일반주서
 62
     0
100
AcDbMText
 10
42.86250000000001
 20
27.31249999999999
 30
0.0
 40
3.5
 41
0.0
 71
     2
 72
     1
  1
\A1;28.58 [1 1/8]
  7
SLDTEXTSTYLE0
 73
     1
 44
1.0
  0
POINT
  5
10C
330
103
100
AcDbEntity
  8
Defpoints
 62
     0
100
AcDbPoint
 10
57.15000000000001
 20
6.7411726440025
 30
0.0
  0
POINT
  5
10D
330
103
100
AcDbEntity
  8
Defpoints
 62
     0
100
AcDbPoint
 10
28.57500000000001
 20
6.276860801110214
 30
0.0
  0
POINT
  5
10E
330
103
100
AcDbEntity
  8
Defpoints
 62
     0
100
AcDbPoint
 10
28.57500000000001
 20
22.93749999999999
 30
0.0
  0
ENDBLK
  5
105
330
103
100
AcDbEntity
  8
0
100
AcDbBlockEnd
  0
BLOCK
  5
119
330
118
100
AcDbEntity
  8
0
100
AcDbBlockBegin
  2
_D_3
 70
     0
 10
0.0
 20
0.0
 30
0.0
  3
_D_3
  1

  0
LINE
  5
11B
330
118
100
AcDbEntity
  8
치수문자_일반주서
 62
     0
370
    -2
100
AcDbLine
 10
-57.15
 20
6.803672644002475
 30
0.0
 11
-57.15
 21
37.93749999999999
 31
0.0
  0
LINE
  5
11C
330
118
100
AcDbEntity
  8
치수문자_일반주서
 62
     0
370
    -2
100
AcDbLine
 10
57.15000000000001
 20
6.8036726440025
 30
0.0
 11
57.15000000000001
 21
37.93749999999999
 31
0.0
  0
LINE
  5
11D
330
118
100
AcDbEntity
  8
치수문자_일반주서
 62
     0
370
    -2
100
AcDbLine
 10
-53.848
 20
37.93749999999999
 30
0.0
 11
53.84800000000001
 21
37.93749999999999
 31
0.0
  0
SOLID
  5
11E
330
118
100
AcDbEntity
  8
치수문자_일반주서
 62
     0
100
AcDbTrace
 10
-53.848
 20
38.48783333333333
 30
0.0
 11
-53.848
 21
37.38716666666666
 31
0.0
 12
-57.15
 22
37.93749999999999
 32
0.0
 13
-57.15
 23
37.93749999999999
 33
0.0
  0
SOLID
  5
11F
330
118
100
AcDbEntity
  8
치수문자_일반주서
 62
     0
100
AcDbTrace
 10
53.84800000000001
 20
37.38716666666666
 30
0.0
 11
53.84800000000001
 21
38.48783333333333
 31
0.0
 12
57.15000000000001
 22
37.93749999999999
 32
0.0
 13
57.15000000000001
 23
37.93749999999999
 33
0.0
  0
MTEXT
  5
120
330
118
100
AcDbEntity
  8
치수문자_일반주서
 62
     0
100
AcDbMText
 10
0.0000000000000142
 20
42.31249999999999
 30
0.0
 40
3.5
 41
0.0
 71
     2
 72
     1
  1
\A1;114.3 [4 1/2]
  7
SLDTEXTSTYLE0
 73
     1
 44
1.0
  0
POINT
  5
121
330
118
100
AcDbEntity
  8
Defpoints
 62
     0
100
AcDbPoint
 10
-57.15
 20
6.741172644002475
 30
0.0
  0
POINT
  5
122
330
118
100
AcDbEntity
  8
Defpoints
 62
     0
100
AcDbPoint
 10
57.15000000000001
 20
6.7411726440025
 30
0.0
  0
POINT
  5
123
330
118
100
AcDbEntity
  8
Defpoints
 62
     0
100
AcDbPoint
 10
57.15000000000001
 20
37.93749999999999
 30
0.0
  0
ENDBLK
  5
11A
330
118
100
AcDbEntity
  8
0
100
AcDbBlockEnd
  0
BLOCK
  5
132
330
131
100
AcDbEntity
  8
0
100
AcDbBlockBegin
  2
SW_DOWELSYMBOL_0
 70
     0
 10
0.0
 20
0.0
 30
0.0
  3
SW_DOWELSYMBOL_0
  1

  0
CIRCLE
  5
134
330
131
100
AcDbEntity
  8
해칭선
 62
     0
100
AcDbCircle
 10
0.0
 20
0.0
 30
0.0
 40
3.000000000000001
  0
HATCH
  5
135
330
131
100
AcDbEntity
  8
0
  6
Continuous
 62
     0
370
     0
100
AcDbHatch
 10
0.0
 20
0.0
 30
0.0
210
0.0
220
0.0
230
1.0
  2
SOLID
 70
     1
 71
     0
 91
        1
 92
        0
 93
        3
 72
     2
 10
0.0
 20
0.0
 40
3.000000000000001
 50
0.0
 51
90.0
 73
     1
 72
     1
 10
0.0
 20
3.000000000000001
 11
0.0
 21
0.0
 72
     1
 10
0.0
 20
0.0
 11
3.000000000000001
 21
0.0
 97
        0
 75
     0
 76
     1
 98
        1
 10
0.0
 20
0.0
  0
HATCH
  5
136
330
131
100
AcDbEntity
  8
0
  6
Continuous
 62
     0
370
     0
100
AcDbHatch
 10
0.0
 20
0.0
 30
0.0
210
0.0
220
0.0
230
1.0
  2
SOLID
 70
     1
 71
     0
 91
        1
 92
        0
 93
        3
 72
     2
 10
0.0
 20
0.0
 40
3.000000000000001
 50
180.0
 51
270.0000000000008
 73
     1
 72
     1
 10
0.0
 20
-3.000000000000001
 11
0.0
 21
0.0
 72
     1
 10
0.0
 20
0.0
 11
-3.000000000000001
 21
0.0
 97
        0
 75
     0
 76
     1
 98
        1
 10
0.0
 20
0.0
  0
ENDBLK
  5
133
330
131
100
AcDbEntity
  8
0
100
AcDbBlockEnd
  0
BLOCK
  5
197
330
196
100
AcDbEntity
  8
0
100
AcDbBlockBegin
  2
*D8
 70
     1
 10
0.0
 20
0.0
 30
0.0
  3
*D8
  1

  0
LINE
  5
199
330
196
100
AcDbEntity
  8
치수문자_일반주서
 62
     0
370
    -2
100
AcDbLine
 10
27.2415
 20
3.631580296889929
 30
0.0
 11
27.2415
 21
14.96233570571162
 31
0.0
  0
LINE
  5
19A
330
196
100
AcDbEntity
  8
치수문자_일반주서
 62
     0
370
    -2
100
AcDbLine
 10
6.604000000000003
 20
3.20671347064068
 30
0.0
 11
6.603999999999999
 21
14.96233570571162
 31
0.0
  0
LINE
  5
19B
330
196
100
AcDbEntity
  8
치수문자_일반주서
 62
     0
370
    -2
100
AcDbLine
 10
27.2415
 20
14.96233570571162
 30
0.0
 11
63.158
 21
14.96233570571162
 31
0.0
  0
LINE
  5
19C
330
196
100
AcDbEntity
  8
치수문자_일반주서
 62
     0
370
    -2
100
AcDbLine
 10
27.2415
 20
14.96233570571162
 30
0.0
 11
6.603999999999999
 21
14.96233570571162
 31
0.0
  0
LINE
  5
19D
330
196
100
AcDbEntity
  8
치수문자_일반주서
 62
     0
370
    -2
100
AcDbLine
 10
30.5435
 20
14.96233570571162
 30
0.0
 11
33.8455
 21
14.96233570571162
 31
0.0
  0
LINE
  5
19E
330
196
100
AcDbEntity
  8
치수문자_일반주서
 62
     0
370
    -2
100
AcDbLine
 10
3.302
 20
14.96233570571162
 30
0.0
 11
0.0
 21
14.96233570571162
 31
0.0
  0
SOLID
  5
19F
330
196
100
AcDbEntity
  8
치수문자_일반주서
 62
     0
100
AcDbTrace
 10
30.5435
 20
15.51266903904495
 30
0.0
 11
30.5435
 21
14.41200237237829
 31
0.0
 12
27.2415
 22
14.96233570571162
 32
0.0
 13
27.2415
 23
14.96233570571162
 33
0.0
  0
SOLID
  5
1A0
330
196
100
AcDbEntity
  8
치수문자_일반주서
 62
     0
100
AcDbTrace
 10
3.302
 20
14.41200237237829
 30
0.0
 11
3.302
 21
15.51266903904495
 31
0.0
 12
6.603999999999999
 22
14.96233570571162
 32
0.0
 13
6.603999999999999
 23
14.96233570571162
 33
0.0
  0
MTEXT
  5
1A1
330
196
100
AcDbEntity
  8
치수문자_일반주서
 62
     0
100
AcDbMText
 10
48.50175
 20
19.33733570571162
 30
0.0
 40
3.5
 41
0.0
 71
     2
 72
     1
  1
\A1;20.64 [13/16]
  7
SLDTEXTSTYLE0
 73
     1
 44
1.0
  0
POINT
  5
1A2
330
196
100
AcDbEntity
  8
Defpoints
 62
     0
100
AcDbPoint
 10
27.2415
 20
3.569080296889929
 30
0.0
  0
POINT
  5
1A3
330
196
100
AcDbEntity
  8
Defpoints
 62
     0
100
AcDbPoint
 10
6.604000000000003
 20
3.14421347064068
 30
0.0
  0
POINT
  5
1A4
330
196
100
AcDbEntity
  8
Defpoints
 62
     0
100
AcDbPoint
 10
6.604000000000003
 20
14.96233570571162
 30
0.0
  0
ENDBLK
  5
198
330
196
100
AcDbEntity
  8
0
100
AcDbBlockEnd
  0
BLOCK
  5
1A9
330
1A8
100
AcDbEntity
  8
0
100
AcDbBlockBegin
  2
*D9
 70
     1
 10
0.0
 20
0.0
 30
0.0
  3
*D9
  1

  0
LINE
  5
1AB
330
1A8
100
AcDbEntity
  8
치수문자_일반주서
 62
     0
370
    -2
100
AcDbLine
 10
95.57869321023799
 20
-35.05551597826858
 30
0.0
 11
95.57869321023799
 21
-23.72476056944689
 31
0.0
  0
LINE
  5
1AC
330
1A8
100
AcDbEntity
  8
치수문자_일반주서
 62
     0
370
    -2
100
AcDbLine
 10
74.94119321023798
 20
-35.48038280451783
 30
0.0
 11
74.94119321023798
 21
-23.72476056944689
 31
0.0
  0
LINE
  5
1AD
330
1A8
100
AcDbEntity
  8
치수문자_일반주서
 62
     0
370
    -2
100
AcDbLine
 10
95.57869321023799
 20
-23.72476056944689
 30
0.0
 11
131.495193210238
 21
-23.72476056944689
 31
0.0
  0
LINE
  5
1AE
330
1A8
100
AcDbEntity
  8
치수문자_일반주서
 62
     0
370
    -2
100
AcDbLine
 10
95.57869321023799
 20
-23.72476056944689
 30
0.0
 11
74.94119321023798
 21
-23.72476056944689
 31
0.0
  0
LINE
  5
1AF
330
1A8
100
AcDbEntity
  8
치수문자_일반주서
 62
     0
370
    -2
100
AcDbLine
 10
98.88069321023798
 20
-23.72476056944689
 30
0.0
 11
102.182693210238
 21
-23.72476056944689
 31
0.0
  0
LINE
  5
1B0
330
1A8
100
AcDbEntity
  8
치수문자_일반주서
 62
     0
370
    -2
100
AcDbLine
 10
71.63919321023798
 20
-23.72476056944689
 30
0.0
 11
68.33719321023798
 21
-23.72476056944689
 31
0.0
  0
SOLID
  5
1B1
330
1A8
100
AcDbEntity
  8
치수문자_일반주서
 62
     0
100
AcDbTrace
 10
98.88069321023798
 20
-23.17442723611355
 30
0.0
 11
98.88069321023798
 21
-24.27509390278022
 31
0.0
 12
95.57869321023799
 22
-23.72476056944689
 32
0.0
 13
95.57869321023799
 23
-23.72476056944689
 33
0.0
  0
SOLID
  5
1B2
330
1A8
100
AcDbEntity
  8
치수문자_일반주서
 62
     0
100
AcDbTrace
 10
71.63919321023798
 20
-24.27509390278022
 30
0.0
 11
71.63919321023798
 21
-23.17442723611355
 31
0.0
 12
74.94119321023798
 22
-23.72476056944689
 32
0.0
 13
74.94119321023798
 23
-23.72476056944689
 33
0.0
  0
MTEXT
  5
1B3
330
1A8
100
AcDbEntity
  8
치수문자_일반주서
 62
     0
100
AcDbMText
 10
116.838943210238
 20
-19.34976056944689
 30
0.0
 40
3.5
 41
0.0
 71
     2
 72
     1
  1
\A1;20.64 [13/16]
  7
SLDTEXTSTYLE0
 73
     1
 44
1.0
  0
POINT
  5
1B4
330
1A8
100
AcDbEntity
  8
Defpoints
 62
     0
100
AcDbPoint
 10
95.57869321023799
 20
-35.11801597826858
 30
0.0
  0
POINT
  5
1B5
330
1A8
100
AcDbEntity
  8
Defpoints
 62
     0
100
AcDbPoint
 10
74.94119321023798
 20
-35.54288280451783
 30
0.0
  0
POINT
  5
1B6
330
1A8
100
AcDbEntity
  8
Defpoints
 62
     0
100
AcDbPoint
 10
74.94119321023798
 20
-23.72476056944689
 30
0.0
  0
ENDBLK
  5
1AA
330
1A8
100
AcDbEntity
  8
0
100
AcDbBlockEnd
  0
ENDSEC
  0
SECTION
  2
ENTITIES
  0
LINE
  5
96
330
1F
100
AcDbEntity
  8
외형선
  6
Continuous
370
    15
100
AcDbLine
 10
23.13152700723833
 20
7.937499999999994
 30
0.0
 11
6.743699999999908
 21
7.937499999999993
 31
0.0
  0
LINE
  5
97
330
1F
100
AcDbEntity
  8
외형선
  6
Continuous
370
    15
100
AcDbLine
 10
-23.1315270072383
 20
-7.937500000000003
 30
0.0
 11
23.13152700723833
 21
-7.937499999999999
 31
0.0
  0
LINE
  5
98
330
1F
100
AcDbEntity
  8
외형선
  6
Continuous
370
    15
100
AcDbLine
 10
23.13152700723833
 20
-7.937499999999999
 30
0.0
 11
26.54499710430383
 21
-7.022863444103513
 31
0.0
  0
LINE
  5
99
330
1F
100
AcDbEntity
  8
외형선
  6
Continuous
370
    15
100
AcDbLine
 10
26.54499710430383
 20
7.022863444103507
 30
0.0
 11
23.13152700723833
 21
7.937499999999994
 31
0.0
  0
SPLINE
  5
9C
330
1F
100
AcDbEntity
  8
외형선
  6
Continuous
370
    15
100
AcDbSpline
210
0.0
220
0.0
230
1.0
 70
     8
 71
     3
 72
     9
 73
     5
 74
     0
 42
0.000000001
 43
0.00000001
 40
0.0
 40
0.0
 40
0.0
 40
0.0
 40
0.4991919463883555
 40
1.0
 40
1.0
 40
1.0
 40
1.0
 10
27.28186638864913
 20
-5.615496211541753
 30
0.0
 10
27.49716216046697
 20
-5.594325387831385
 30
0.0
 10
27.92845071264714
 20
-5.551915201001372
 30
0.0
 10
28.35925149746234
 20
-5.51537112141574
 30
0.0
 10
28.575
 20
-5.49706955204743
 30
0.0
  0
SPLINE
  5
9D
330
1F
100
AcDbEntity
  8
0
  6
Continuous
 62
     1
370
    15
100
AcDbSpline
210
0.0
220
0.0
230
1.0
 70
     8
 71
     3
 72
     9
 73
     5
 74
     0
 42
0.000000001
 43
0.00000001
 40
0.0
 40
0.0
 40
0.0
 40
0.0
 40
0.4990511628506077
 40
1.0
 40
1.0
 40
1.0
 40
1.0
 10
39.67149903477466
 20
1.728706120698914
 30
0.0
 10
39.35988971763558
 20
1.877109708152887
 30
0.0
 10
38.73548616879072
 20
2.174481197292967
 30
0.0
 10
38.11104146134599
 20
2.501327093894997
 30
0.0
 10
37.79822661128745
 20
2.665060165724833
 30
0.0
1001
PE_URL
1000

  0
SPLINE
  5
9E
330
1F
100
AcDbEntity
  8
0
  6
Continuous
 62
     1
370
    15
100
AcDbSpline
210
0.0
220
0.0
230
1.0
 70
     8
 71
     3
 72
    16
 73
    12
 74
     0
 42
0.000000001
 43
0.00000001
 40
0.0
 40
0.0
 40
0.0
 40
0.0
 40
0.1547425746396876
 40
0.2658105825053282
 40
0.3362091485506891
 40
0.4001781377672052
 40
0.4662595851406217
 40
0.6165887804948406
 40
0.8025318265018371
 40
0.9451789001046708
 40
1.0
 40
1.0
 40
1.0
 40
1.0
 10
37.44060585586008
 20
5.361332523301352
 30
0.0
 10
37.1551259601254
 20
5.347124358940871
 30
0.0
 10
36.66474005595205
 20
5.322718144595624
 30
0.0
 10
36.04533416459336
 20
5.301113188289924
 30
0.0
 10
35.59370144964817
 20
5.288492304253573
 30
0.0
 10
35.22477140607321
 20
5.280355712327327
 30
0.0
 10
34.70854352770671
 20
5.271866414066773
 30
0.0
 10
33.96712386384776
 20
5.266605227168143
 30
0.0
 10
33.08493608912509
 20
5.273820358528522
 30
0.0
 10
32.37898851187479
 20
5.288096138784331
 30
0.0
 10
32.01519713769068
 20
5.300692473158281
 30
0.0
 10
31.91420140297603
 20
5.30418946658662
 30
0.0
1001
PE_URL
1000

  0
SPLINE
  5
9F
330
1F
100
AcDbEntity
  8
0
  6
Continuous
 62
     1
370
    15
100
AcDbSpline
210
0.0
220
0.0
230
1.0
 70
     8
 71
     3
 72
    26
 73
    22
 74
     0
 42
0.000000001
 43
0.00000001
 40
0.0
 40
0.0
 40
0.0
 40
0.0
 40
0.064534555446692
 40
0.1153185444586089
 40
0.1605057625289103
 40
0.1903495703058359
 40
0.2228823325647844
 40
0.2588357382811915
 40
0.297349559730219
 40
0.3378282429724958
 40
0.403330798461064
 40
0.4592762152028571
 40
0.5069950210489133
 40
0.5772302130374846
 40
0.6606308984475895
 40
0.7538290237013524
 40
0.7962792224304769
 40
0.8323608981401603
 40
0.8664550763368789
 40
0.9212798858996188
 40
0.9999999999999999
 40
0.9999999999999999
 40
0.9999999999999999
 40
0.9999999999999999
 10
54.64304249319441
 20
4.614534121386372
 30
0.0
 10
54.38860984169006
 20
4.593752189774788
 30
0.0
 10
53.93395724772489
 20
4.556616393488627
 30
0.0
 10
53.30304279866245
 20
4.516915022101377
 30
0.0
 10
52.81019168745286
 20
4.491289960148613
 30
0.0
 10
52.39180106240472
 20
4.473507976348615
 30
0.0
 10
52.00600430109404
 20
4.46010310924193
 30
0.0
 10
51.58423534678216
 20
4.449244605995015
 30
0.0
 10
51.13030948092006
 20
4.441908764895746
 30
0.0
 10
50.55958560247469
 20
4.438476088938194
 30
0.0
 10
49.91886856368775
 20
4.443340154002187
 30
0.0
 10
49.25527423026315
 20
4.458982133831221
 30
0.0
 10
48.58006926148049
 20
4.483662411347206
 30
0.0
 10
47.78732610805277
 20
4.524235899742566
 30
0.0
 10
46.81885594307877
 20
4.59296445179921
 30
0.0
 10
45.95815897813036
 20
4.672087808331702
 30
0.0
 10
45.28298858379672
 20
4.745046729139269
 30
0.0
 10
44.83938838624803
 20
4.797212248892288
 30
0.0
 10
44.34615150622787
 20
4.85915508272469
 30
0.0
 10
43.68894327773219
 20
4.947296251253677
 30
0.0
 10
43.16481057160392
 20
5.027361063872523
 30
0.0
 10
42.85585246748131
 20
5.074556502020966
 30
0.0
1001
PE_URL
1000

  0
SPLINE
  5
A0
330
1F
100
AcDbEntity
  8
0
  6
Continuous
 62
     1
370
    15
100
AcDbSpline
210
0.0
220
0.0
230
1.0
 70
     8
 71
     3
 72
    17
 73
    13
 74
     0
 42
0.000000001
 43
0.00000001
 40
0.0
 40
0.0
 40
0.0
 40
0.0
 40
0.1508971265124147
 40
0.2666062494349755
 40
0.3466319647604565
 40
0.4061787684762599
 40
0.4742100834122813
 40
0.5516756029719976
 40
0.6355860461012764
 40
0.7176242975849841
 40
0.8811123501110213
 40
1.0
 40
1.0
 40
1.0
 40
1.0
 10
42.85585246748131
 20
-5.07455650202097
 30
0.0
 10
43.10913474856345
 20
-5.035657817390748
 30
0.0
 10
43.55663590758711
 20
-4.966931310419362
 30
0.0
 10
44.13822604312524
 20
-4.88678656852747
 30
0.0
 10
44.56729355887438
 20
-4.831129522505001
 30
0.0
 10
44.91795517689401
 20
-4.78793882563203
 30
0.0
 10
45.26319346743125
 20
-4.747553310356457
 30
0.0
 10
45.64917727081868
 20
-4.705338573534362
 30
0.0
 10
46.05821767791326
 20
-4.66391790927402
 30
0.0
 10
46.61186162238214
 20
-4.612717120878999
 30
0.0
 10
47.22394907473027
 20
-4.562597566358779
 30
0.0
 10
47.69827456211283
 20
-4.533612624623725
 30
0.0
 10
47.89797815557031
 20
-4.521409196440711
 30
0.0
1001
PE_URL
1000

  0
SPLINE
  5
A1
330
1F
100
AcDbEntity
  8
0
  6
Continuous
 62
     1
370
    15
100
AcDbSpline
210
0.0
220
0.0
230
1.0
 70
     8
 71
     3
 72
    22
 73
    18
 74
     0
 42
0.000000001
 43
0.00000001
 40
0.0
 40
0.0
 40
0.0
 40
0.0
 40
0.0918113984766331
 40
0.1598629680094378
 40
0.2042009620639917
 40
0.2387288714141685
 40
0.2736163459304098
 40
0.3345131394993813
 40
0.4108966748276777
 40
0.4998045039204808
 40
0.5991906821291988
 40
0.683748441607717
 40
0.7534695846741128
 40
0.7925505391714167
 40
0.8363252693841274
 40
0.9050391891548958
 40
1.0
 40
1.0
 40
1.0
 40
1.0
 10
28.575
 20
-5.497069552047432
 30
0.0
 10
28.84629077451533
 20
-5.475597378429246
 30
0.0
 10
29.31866511067837
 20
-5.438209804977883
 30
0.0
 10
29.92150325161985
 20
-5.398494543005807
 30
0.0
 10
30.35531126638048
 20
-5.372700014821064
 30
0.0
 10
30.69157320067453
 20
-5.354584690789195
 30
0.0
 10
31.07672693417215
 20
-5.335650344516865
 30
0.0
 10
31.58566460298092
 20
-5.313955312375342
 30
0.0
 10
32.25424949505486
 20
-5.291690543603718
 30
0.0
 10
33.0361801670926
 20
-5.274479765083507
 30
0.0
 10
33.8425474528369
 20
-5.267423224381029
 30
0.0
 10
34.59244310856772
 20
-5.2704313477213
 30
0.0
 10
35.16379025206899
 20
-5.278927559367872
 30
0.0
 10
35.6143247530964
 20
-5.289018879909075
 30
0.0
 10
36.06183225278751
 20
-5.301649435065265
 30
0.0
 10
36.67504719318479
 20
-5.323188658298699
 30
0.0
 10
37.15952278836485
 20
-5.347327594477742
 30
0.0
 10
37.44060585586008
 20
-5.361332523301358
 30
0.0
1001
PE_URL
1000

  0
LINE
  5
A2
330
1F
100
AcDbEntity
  8
외형선
  6
Continuous
370
    15
100
AcDbLine
 10
23.13152700723833
 20
7.937499999999994
 30
0.0
 11
23.13152700723833
 21
-7.937500000000008
 31
0.0
  0
SPLINE
  5
A4
330
1F
100
AcDbEntity
  8
외형선
  6
Continuous
370
    15
100
AcDbSpline
210
0.0
220
0.0
230
1.0
 70
     8
 71
     3
 72
     8
 73
     4
 74
     0
 42
0.000000001
 43
0.00000001
 40
0.0
 40
0.0
 40
0.0
 40
0.0
 40
1.0
 40
1.0
 40
1.0
 40
1.0
 10
27.57500000000001
 20
6.465561748549525
 30
0.0
 10
27.23087114845855
 20
6.5994825348536
 30
0.0
 10
26.88753673238894
 20
6.729148809327231
 30
0.0
 10
26.54499406935341
 20
6.854245060042283
 30
0.0
  0
LINE
  5
A5
330
1F
100
AcDbEntity
  8
외형선
  6
Continuous
370
    15
100
AcDbLine
 10
27.57500000000001
 20
6.465561748549523
 30
0.0
 11
27.57500000000001
 21
5.681636861058007
 31
0.0
  0
SPLINE
  5
A6
330
1F
100
AcDbEntity
  8
외형선
  6
Continuous
370
    15
100
AcDbSpline
210
0.0
220
0.0
230
1.0
 70
     8
 71
     3
 72
     8
 73
     4
 74
     0
 42
0.000000001
 43
0.00000001
 40
0.0
 40
0.0
 40
0.0
 40
0.0
 40
1.0
 40
1.0
 40
1.0
 40
1.0
 10
26.5449971043038
 20
6.17776001259142
 30
0.0
 10
26.88879144661728
 20
6.016445776159662
 30
0.0
 10
27.23211625279841
 20
5.851105998084751
 30
0.0
 10
27.57500000000001
 20
5.681636861058009
 30
0.0
  0
LINE
  5
A7
330
1F
100
AcDbEntity
  8
외형선
  6
Continuous
370
    15
100
AcDbLine
 10
26.54499710430383
 20
-7.022863444103513
 30
0.0
 11
26.5449971043038
 21
6.177811104701402
 31
0.0
  0
SPLINE
  5
A8
330
1F
100
AcDbEntity
  8
외형선
  6
Continuous
370
    15
100
AcDbSpline
210
0.0
220
0.0
230
1.0
 70
     8
 71
     3
 72
     8
 73
     4
 74
     0
 42
0.000000001
 43
0.00000001
 40
0.0
 40
0.0
 40
0.0
 40
0.0
 40
1.0
 40
1.0
 40
1.0
 40
1.0
 10
27.57500000000001
 20
-6.465561748549531
 30
0.0
 10
27.23087114845855
 20
-6.599482534853606
 30
0.0
 10
26.88753673238894
 20
-6.729148809327236
 30
0.0
 10
26.54499406935341
 20
-6.854245060042286
 30
0.0
  0
LINE
  5
A9
330
1F
100
AcDbEntity
  8
외형선
  6
Continuous
370
    15
100
AcDbLine
 10
26.54499710430382
 20
6.854281157814098
 30
0.0
 11
26.54499710430383
 21
7.022863444103507
 31
0.0
  0
SPLINE
  5
AB
330
1F
100
AcDbEntity
  8
외형선
  6
Continuous
370
    15
100
AcDbSpline
210
0.0
220
0.0
230
1.0
 70
    24
 71
     3
 72
    14
 73
    10
 74
     0
 42
0.000000001
 43
0.00000001
 40
0.0
 40
0.0
 40
0.0
 40
0.0
 40
0.25
 40
0.25
 40
0.5
 40
0.5
 40
0.75
 40
0.75
 40
1.0
 40
1.0
 40
1.0
 40
1.0
 10
28.57500000000001
 20
3.623125917039772
 30
0.0
 10
28.57500000000001
 20
3.150919347583141
 30
0.0
 10
28.57500000000001
 20
2.618640886454437
 30
0.0
 10
28.57500000000001
 20
1.469582795458281
 30
0.0
 10
28.57500000000001
 20
0.853197450054787
 30
0.0
 10
28.57500000000001
 20
-0.4060860275536446
 30
0.0
 10
28.57500000000001
 20
-1.048313160873312
 30
0.0
 10
28.57500000000001
 20
-2.295836813478758
 30
0.0
 10
28.57500000000001
 20
-2.900600748106342
 30
0.0
 10
28.57500000000001
 20
-3.462294437907748
 30
0.0
  0
SPLINE
  5
AC
330
1F
100
AcDbEntity
  8
외형선
  6
Continuous
370
    15
100
AcDbSpline
210
0.0
220
0.0
230
1.0
 70
     8
 71
     3
 72
    10
 73
     6
 74
     0
 42
0.000000001
 43
0.00000001
 40
0.0
 40
0.0
 40
0.0
 40
0.0
 40
0.5
 40
0.5
 40
1.0
 40
1.0
 40
1.0
 40
1.0
 10
28.57500000000001
 20
-3.462294437907749
 30
0.0
 10
28.23591116523528
 20
-3.342282893583008
 30
0.0
 10
27.89898091658803
 20
-3.218169074960966
 30
0.0
 10
27.22387533620176
 20
-2.962030630303543
 30
0.0
 10
26.88442614687786
 20
-2.829832623538435
 30
0.0
 10
26.54499599632958
 20
-2.694232988781628
 30
0.0
  0
SPLINE
  5
AD
330
1F
100
AcDbEntity
  8
외형선
  6
Continuous
370
    15
100
AcDbSpline
210
0.0
220
0.0
230
1.0
 70
     8
 71
     3
 72
    10
 73
     6
 74
     0
 42
0.000000001
 43
0.00000001
 40
0.0
 40
0.0
 40
0.0
 40
0.0
 40
0.5
 40
0.5
 40
1.0
 40
1.0
 40
1.0
 40
1.0
 10
28.57500000000001
 20
3.623125917039772
 30
0.0
 10
28.23591122800996
 20
3.710930992488461
 30
0.0
 10
27.89898104086783
 20
3.793989553867542
 30
0.0
 10
27.22387558686388
 20
3.950484874910047
 30
0.0
 10
26.88442646108306
 20
4.024005222035063
 30
0.0
 10
26.54499637335682
 20
4.092354892027169
 30
0.0
  0
LINE
  5
AE
330
1F
100
AcDbEntity
  8
외형선
  6
Continuous
370
    15
100
AcDbLine
 10
27.28242211459501
 20
-5.613028504485608
 30
0.0
 11
26.54499406935341
 21
-5.677616975470651
 31
0.0
  0
SPLINE
  5
AF
330
1F
100
AcDbEntity
  8
외형선
  6
Continuous
370
    15
100
AcDbSpline
210
0.0
220
0.0
230
1.0
 70
    24
 71
     3
 72
    13
 73
     9
 74
     0
 42
0.000000001
 43
0.00000001
 40
0.0
 40
0.0
 40
0.0
 40
0.0
 40
0.1486838880878161
 40
0.2993063827699467
 40
0.5180257642360369
 40
0.7430880225817467
 40
0.9405012649579546
 40
1.0
 40
1.0
 40
1.0
 40
1.0
 10
28.57500000000001
 20
-3.462294437907749
 30
0.0
 10
28.57500000000001
 20
-3.647907800304869
 30
0.0
 10
28.57500000000001
 20
-4.021554634587526
 30
0.0
 10
28.57500000000001
 20
-4.557892644933284
 30
0.0
 10
28.57500000000001
 20
-5.048589000490878
 30
0.0
 10
28.57500000000001
 20
-5.370200840560964
 30
0.0
 10
28.57500000000001
 20
-5.507714919912571
 30
0.0
 10
28.57500000000001
 20
-5.484318932132104
 30
0.0
 10
28.57500000000001
 20
-5.478900610682143
 30
0.0
  0
SPLINE
  5
B0
330
1F
100
AcDbEntity
  8
외형선
  6
Continuous
370
    15
100
AcDbSpline
210
0.0
220
0.0
230
1.0
 70
     8
 71
     3
 72
     8
 73
     4
 74
     0
 42
0.000000001
 43
0.00000001
 40
0.0
 40
0.0
 40
0.0
 40
0.0
 40
1.0
 40
1.0
 40
1.0
 40
1.0
 10
28.575
 20
5.349418395645862
 30
0.0
 10
28.24045605263098
 20
5.466984643555606
 30
0.0
 10
27.90797809531549
 20
5.577754552698692
 30
0.0
 10
27.57500000000001
 20
5.681636861058007
 30
0.0
  0
SPLINE
  5
B1
330
1F
100
AcDbEntity
  8
외형선
  6
Continuous
370
    15
100
AcDbSpline
210
0.0
220
0.0
230
1.0
 70
    24
 71
     3
 72
    10
 73
     6
 74
     0
 42
0.000000001
 43
0.00000001
 40
0.0
 40
0.0
 40
0.0
 40
0.0
 40
0.5
 40
0.5
 40
1.0
 40
1.0
 40
1.0
 40
1.0
 10
28.575
 20
5.34941839564586
 30
0.0
 10
28.575
 20
5.145661846799086
 30
0.0
 10
28.575
 20
4.879948480124955
 30
0.0
 10
28.575
 20
4.280570023766315
 30
0.0
 10
28.57500000000001
 20
3.948776088662456
 30
0.0
 10
28.57500000000001
 20
3.623125917039772
 30
0.0
  0
SPLINE
  5
B2
330
1F
100
AcDbEntity
  8
외형선
  6
Continuous
370
    15
100
AcDbSpline
210
0.0
220
0.0
230
1.0
 70
     8
 71
     3
 72
     8
 73
     4
 74
     0
 42
0.000000001
 43
0.00000001
 40
0.0
 40
0.0
 40
0.0
 40
0.0
 40
1.0
 40
1.0
 40
1.0
 40
1.0
 10
28.57500000000962
 20
6.276860801108181
 30
0.0
 10
28.24045605263737
 20
6.347608222374237
 30
0.0
 10
27.90797809531868
 20
6.410519619002369
 30
0.0
 10
27.575
 20
6.465561748549526
 30
0.0
  0
LINE
  5
B3
330
1F
100
AcDbEntity
  8
외형선
  6
Continuous
370
    15
100
AcDbLine
 10
28.57500000000001
 20
6.27686080111021
 30
0.0
 11
28.575
 21
5.349418395645862
 31
0.0
  0
SPLINE
  5
B4
330
1F
100
AcDbEntity
  8
외형선
  6
Continuous
370
    15
100
AcDbSpline
210
0.0
220
0.0
230
1.0
 70
     8
 71
     3
 72
     8
 73
     4
 74
     0
 42
0.000000001
 43
0.00000001
 40
0.0
 40
0.0
 40
0.0
 40
0.0
 40
1.0
 40
1.0
 40
1.0
 40
1.0
 10
28.57500000000962
 20
-6.276860801108185
 30
0.0
 10
28.24045605263737
 20
-6.347608222374243
 30
0.0
 10
27.90797809531868
 20
-6.410519619002373
 30
0.0
 10
27.575
 20
-6.465561748549533
 30
0.0
  0
SPLINE
  5
B5
330
1F
100
AcDbEntity
  8
외형선
  6
Continuous
370
    15
100
AcDbSpline
210
0.0
220
0.0
230
1.0
 70
    24
 71
     3
 72
    10
 73
     6
 74
     0
 42
0.000000001
 43
0.00000001
 40
0.0
 40
0.0
 40
0.0
 40
0.0
 40
0.3948816373689183
 40
0.8448163794217409
 40
1.0
 40
1.0
 40
1.0
 40
1.0
 10
28.57500000000001
 20
-5.497069552047432
 30
0.0
 10
28.57500000000001
 20
-5.605020488413334
 30
0.0
 10
28.57500000000001
 20
-5.835972527164695
 30
0.0
 10
28.57500000000001
 20
-6.091250021183989
 30
0.0
 10
28.57500000000001
 20
-6.238976179626367
 30
0.0
 10
28.57500000000001
 20
-6.276860801110218
 30
0.0
  0
SPLINE
  5
B6
330
1F
100
AcDbEntity
  8
0
  6
Continuous
 62
     1
370
    15
100
AcDbSpline
210
0.0
220
0.0
230
1.0
 70
     8
 71
     3
 72
    52
 73
    48
 74
     0
 42
0.000000001
 43
0.00000001
 40
0.0
 40
0.0
 40
0.0
 40
0.0
 40
0.0625000000000005
 40
0.0625000000000005
 40
0.0937500000000008
 40
0.0937500000000008
 40
0.125000000000001
 40
0.125000000000001
 40
0.1562500000000013
 40
0.1562500000000013
 40
0.1875000000000016
 40
0.1875000000000016
 40
0.2500000000000017
 40
0.2500000000000017
 40
0.2812500000000019
 40
0.2812500000000019
 40
0.312500000000002
 40
0.312500000000002
 40
0.3750000000000019
 40
0.3750000000000019
 40
0.4062500000000019
 40
0.4062500000000019
 40
0.4375000000000019
 40
0.4375000000000019
 40
0.5000000000000018
 40
0.5000000000000018
 40
0.5312500000000017
 40
0.5312500000000017
 40
0.5625000000000017
 40
0.5625000000000017
 40
0.6250000000000013
 40
0.6250000000000013
 40
0.6875000000000012
 40
0.6875000000000012
 40
0.750000000000001
 40
0.750000000000001
 40
0.781250000000001
 40
0.781250000000001
 40
0.8125000000000009
 40
0.8125000000000009
 40
0.8437500000000008
 40
0.8437500000000008
 40
0.8750000000000008
 40
0.8750000000000008
 40
0.9375000000000003
 40
0.9375000000000003
 40
1.0
 40
1.0
 40
1.0
 40
1.0
 10
57.15000000000001
 20
-6.7411726440025
 30
0.0
 10
56.55797004557759
 20
-6.727070871722695
 30
0.0
 10
55.95879871947421
 20
-6.68661574091278
 30
0.0
 10
55.06496487571
 20
-6.587207454090549
 30
0.0
 10
54.76897225317556
 20
-6.547707532151497
 30
0.0
 10
54.17527134368446
 20
-6.456008524011283
 30
0.0
 10
53.87697209920947
 20
-6.403759485685525
 30
0.0
 10
53.28007857969875
 20
-6.286852233163549
 30
0.0
 10
52.98148684922926
 20
-6.222194493938741
 30
0.0
 10
52.38662449397411
 20
-6.081078124364564
 30
0.0
 10
52.09117464401401
 20
-6.004708259390978
 30
0.0
 10
51.19863450021946
 20
-5.757787528905778
 30
0.0
 10
50.5991565463932
 20
-5.569587539616071
 30
0.0
 10
49.70892437702258
 20
-5.256910566545735
 30
0.0
 10
49.41275547768566
 20
-5.147552206023147
 30
0.0
 10
48.81675055179201
 20
-4.918574765434693
 30
0.0
 10
48.51797191983761
 20
-4.799077988333592
 30
0.0
 10
47.62323224121817
 20
-4.427121659691987
 30
0.0
 10
47.03216603700167
 20
-4.161719723659022
 30
0.0
 10
46.13721580801169
 20
-3.739662461934294
 30
0.0
 10
45.83846181734707
 20
-3.595121030004969
 30
0.0
 10
45.24269510663757
 20
-3.299602924814581
 30
0.0
 10
44.94685414388514
 20
-3.148831654156934
 30
0.0
 10
44.05599369218589
 20
-2.687229804752007
 30
0.0
 10
43.45647288161792
 20
-2.366825467186946
 30
0.0
 10
42.56443613344072
 20
-1.875567315660509
 30
0.0
 10
42.268961645798
 20
-1.710179436558276
 30
0.0
 10
41.67377726479656
 20
-1.375615343993421
 30
0.0
 10
41.37511853156293
 20
-1.206630242270034
 30
0.0
 10
40.47986219662343
 20
-0.6967743261482003
 30
0.0
 10
39.88852322004679
 20
-0.353880952398913
 30
0.0
 10
38.6962956271708
 20
0.3338178526477342
 30
0.0
 10
38.09825440469248
 20
0.6780674497603926
 30
0.0
 10
36.91319147889401
 20
1.356541383845904
 30
0.0
 10
36.31389164576457
 20
1.693091796197607
 30
0.0
 10
35.42043558299828
 20
2.185050422500236
 30
0.0
 10
35.12472165723473
 20
2.346686727053347
 30
0.0
 10
34.53061537724052
 20
2.665576441428781
 30
0.0
 10
34.23220686614646
 20
2.822824483067134
 30
0.0
 10
33.63528482423495
 20
3.131526296353843
 30
0.0
 10
33.33677383883335
 20
3.282978747742061
 30
0.0
 10
32.74226063918432
 20
3.57878674340239
 30
0.0
 10
32.44673687711437
 20
3.723076103138973
 30
0.0
 10
31.55373407013388
 20
4.145705152256157
 30
0.0
 10
30.95432680798173
 20
4.412963391108113
 30
0.0
 10
29.76824213279105
 20
4.909308632513659
 30
0.0
 10
29.17132537302711
 20
5.139856282232661
 30
0.0
 10
28.57500000000955
 20
5.349418395642511
 30
0.0
1001
PE_URL
1000

  0
SPLINE
  5
B7
330
1F
100
AcDbEntity
  8
0
  6
Continuous
 62
     1
370
    15
100
AcDbSpline
210
0.0
220
0.0
230
1.0
 70
     8
 71
     3
 72
    12
 73
     8
 74
     0
 42
0.000000001
 43
0.00000001
 40
0.0
 40
0.0
 40
0.0
 40
0.0
 40
0.1486875675189161
 40
0.3615172225481154
 40
0.5743460159067577
 40
0.7871736931466897
 40
1.0
 40
1.0
 40
1.0
 40
1.0
 10
40.39044881182566
 20
-0.6408780103891667
 30
0.0
 10
39.80484481615858
 20
-0.4060269411410624
 30
0.0
 10
38.3810140711993
 20
0.1649872174988554
 30
0.0
 10
36.11896074136433
 20
1.080889097149412
 30
0.0
 10
33.60429354753773
 20
2.042405004919374
 30
0.0
 10
31.08964077901316
 20
2.922675221503021
 30
0.0
 10
29.41321179392506
 20
3.389642852992619
 30
0.0
 10
28.57500000000001
 20
3.623125917039772
 30
0.0
1001
PE_URL
1000

  0
SPLINE
  5
B8
330
1F
100
AcDbEntity
  8
외형선
  6
Continuous
370
    15
100
AcDbSpline
210
0.0
220
0.0
230
1.0
 70
    24
 71
     3
 72
    10
 73
     6
 74
     0
 42
0.000000001
 43
0.00000001
 40
0.0
 40
0.0
 40
0.0
 40
0.0
 40
0.5
 40
0.5
 40
1.0
 40
1.0
 40
1.0
 40
1.0
 10
28.57500000000001
 20
5.34941839564586
 30
0.0
 10
28.57500000000001
 20
5.145661846799086
 30
0.0
 10
28.57500000000001
 20
4.879948480124955
 30
0.0
 10
28.57500000000001
 20
4.280570023766315
 30
0.0
 10
28.57500000000001
 20
3.948776088662454
 30
0.0
 10
28.57500000000001
 20
3.623125917039772
 30
0.0
  0
SPLINE
  5
B9
330
1F
100
AcDbEntity
  8
0
  6
Continuous
 62
     1
370
    15
100
AcDbSpline
210
0.0
220
0.0
230
1.0
 70
     8
 71
     3
 72
    52
 73
    48
 74
     0
 42
0.000000001
 43
0.00000001
 40
0.0
 40
0.0
 40
0.0
 40
0.0
 40
0.0625000000000002
 40
0.0625000000000002
 40
0.0937500000000003
 40
0.0937500000000003
 40
0.1250000000000004
 40
0.1250000000000004
 40
0.1562500000000005
 40
0.1562500000000005
 40
0.1875000000000006
 40
0.1875000000000006
 40
0.2500000000000004
 40
0.2500000000000004
 40
0.2812500000000004
 40
0.2812500000000004
 40
0.3125000000000003
 40
0.3125000000000003
 40
0.3749999999999998
 40
0.3749999999999998
 40
0.4062499999999996
 40
0.4062499999999996
 40
0.4374999999999994
 40
0.4374999999999994
 40
0.4999999999999992
 40
0.4999999999999992
 40
0.5312499999999992
 40
0.5312499999999992
 40
0.5624999999999992
 40
0.5624999999999992
 40
0.6249999999999992
 40
0.6249999999999992
 40
0.6874999999999992
 40
0.6874999999999992
 40
0.7499999999999991
 40
0.7499999999999991
 40
0.7812499999999992
 40
0.7812499999999992
 40
0.8124999999999993
 40
0.8124999999999993
 40
0.8437499999999994
 40
0.8437499999999994
 40
0.8749999999999996
 40
0.8749999999999996
 40
0.9374999999999998
 40
0.9374999999999998
 40
1.0
 40
1.0
 40
1.0
 40
1.0
 10
57.15000000000001
 20
-6.402385427098976
 30
0.0
 10
56.55797004557751
 20
-6.294164639024834
 30
0.0
 10
55.95879871947403
 20
-6.160535691057493
 30
0.0
 10
55.06496487570971
 20
-5.925235781998753
 30
0.0
 10
54.76897225317519
 20
-5.84113721095968
 30
0.0
 10
54.175271343684
 20
-5.661612323869866
 30
0.0
 10
53.87697209920899
 20
-5.56610905011408
 30
0.0
 10
53.28007857969815
 20
-5.36439743615349
 30
0.0
 10
52.9814868492286
 20
-5.258189935751125
 30
0.0
 10
52.38662449397339
 20
-5.036036288708298
 30
0.0
 10
52.09117464401326
 20
-4.920212244969756
 30
0.0
 10
51.19863450021855
 20
-4.557931431329944
 30
0.0
 10
50.5991565463922
 20
-4.29703031527231
 30
0.0
 10
49.70892437702148
 20
-3.883491103217652
 30
0.0
 10
49.41275547768448
 20
-3.741833024176982
 30
0.0
 10
48.81675055179073
 20
-3.450923626746365
 30
0.0
 10
48.51797191983628
 20
-3.301835253488741
 30
0.0
 10
47.62323224121672
 20
-2.845619555329255
 30
0.0
 10
47.0321660370001
 20
-2.530147490977555
 30
0.0
 10
46.13721580801
 20
-2.042556101039557
 30
0.0
 10
45.83846181734533
 20
-1.877794383744228
 30
0.0
 10
45.24269510663575
 20
-1.545256798794274
 30
0.0
 10
44.94685414388329
 20
-1.377705032065383
 30
0.0
 10
44.05599369218389
 20
-0.8709021249810879
 30
0.0
 10
43.45647288161582
 20
-0.5272520246388847
 30
0.0
 10
42.5644361334385
 20
-0.0120790232434606
 30
0.0
 10
42.26896164579573
 20
0.1594638521676678
 30
0.0
 10
41.67377726479418
 20
0.5027208612299267
 30
0.0
 10
41.3751185315605
 20
0.6742315527253575
 30
0.0
 10
40.47986219662087
 20
1.186153267244597
 30
0.0
 10
39.88852322004414
 20
1.52309690656903
 30
0.0
 10
38.69629562716796
 20
2.184330547968526
 30
0.0
 10
38.0982544046896
 20
2.508038306011749
 30
0.0
 10
36.91319147889089
 20
3.131543048244408
 30
0.0
 10
36.31389164576137
 20
3.433469469056992
 30
0.0
 10
35.42043558299496
 20
3.863634266699874
 30
0.0
 10
35.12472165723138
 20
4.003070488495024
 30
0.0
 10
34.53061537723705
 20
4.274322122269595
 30
0.0
 10
34.23220686614294
 20
4.406126047877761
 30
0.0
 10
33.63528482423133
 20
4.660897377160306
 30
0.0
 10
33.33677383882971
 20
4.783863688533242
 30
0.0
 10
32.7422606391806
 20
5.019918762906403
 30
0.0
 10
32.4467368771106
 20
5.132962855512814
 30
0.0
 10
31.55373407012994
 20
5.457609776509597
 30
0.0
 10
30.9543268079777
 20
5.654007265156775
 30
0.0
 10
29.7682421327869
 20
6.000058717216893
 30
0.0
 10
29.17132537302281
 20
6.150753356308948
 30
0.0
 10
28.57500000000517
 20
6.276860801109125
 30
0.0
1001
PE_URL
1000

  0
SPLINE
  5
BA
330
1F
100
AcDbEntity
  8
0
  6
Continuous
 62
     1
370
    15
100
AcDbSpline
210
0.0
220
0.0
230
1.0
 70
     8
 71
     3
 72
    14
 73
    10
 74
     0
 42
0.000000001
 43
0.00000001
 40
0.0
 40
0.0
 40
0.0
 40
0.0
 40
0.1523339349426184
 40
0.3046942475185555
 40
0.4570752235586293
 40
0.6094711134301767
 40
0.7618761418529354
 40
0.9142845178094139
 40
1.0
 40
1.0
 40
1.0
 40
1.0
 10
57.15000000000001
 20
-5.32309724615931
 30
0.0
 10
56.26133675223895
 20
-5.134006358573873
 30
0.0
 10
54.48385637876898
 20
-4.755791841059025
 30
0.0
 10
51.81734702576815
 20
-3.867896600080174
 30
0.0
 10
49.15043040476836
 20
-2.799471417177319
 30
0.0
 10
46.48320546483842
 20
-1.579521738188901
 30
0.0
 10
43.81582378632291
 20
-0.2827712211400138
 30
0.0
 10
41.5373670883205
 20
0.8495547200695923
 30
0.0
 10
40.14823715953362
 20
1.496861587288088
 30
0.0
 10
39.64820351066756
 20
1.729867304063616
 30
0.0
1001
PE_URL
1000

  0
LINE
  5
BB
330
1F
100
AcDbEntity
  8
0
  6
Continuous
 62
     1
370
    15
100
AcDbLine
 10
57.15000000000001
 20
-6.402385427098976
 30
0.0
 11
57.15000000000001
 21
-5.32309724615931
 31
0.0
1001
PE_URL
1000

  0
LINE
  5
BC
330
1F
100
AcDbEntity
  8
0
  6
Continuous
 62
     1
370
    15
100
AcDbLine
 10
57.15000000000001
 20
-6.741172644002505
 30
0.0
 11
57.15000000000001
 21
-6.402385427098976
 31
0.0
1001
PE_URL
1000

  0
SPLINE
  5
BD
330
1F
100
AcDbEntity
  8
0
  6
Continuous
 62
     1
370
    15
100
AcDbSpline
210
0.0
220
0.0
230
1.0
 70
     8
 71
     3
 72
     8
 73
     4
 74
     0
 42
0.000000001
 43
0.00000001
 40
0.0
 40
0.0
 40
0.0
 40
0.0
 40
1.0
 40
1.0
 40
1.0
 40
1.0
 10
52.97555369104702
 20
1.88701814160569
 30
0.0
 10
52.73654544043825
 20
2.170132812092729
 30
0.0
 10
52.52232760535044
 20
2.443548727918398
 30
0.0
 10
52.33949998003538
 20
2.704683851471827
 30
0.0
1001
PE_URL
1000

  0
LINE
  5
BE
330
1F
100
AcDbEntity
  8
0
  6
Continuous
 62
     1
370
    15
100
AcDbLine
 10
52.42480231898793
 20
2.776261012625514
 30
0.0
 11
57.15000000000001
 21
0.000000000000001
 31
0.0
1001
PE_URL
1000

  0
LINE
  5
BF
330
1F
100
AcDbEntity
  8
0
  6
Continuous
 62
     1
370
    15
100
AcDbLine
 10
57.15000000000001
 20
0.000000000000001
 30
0.0
 11
57.15000000000001
 21
-1.803054751493759
 31
0.0
1001
PE_URL
1000

  0
SPLINE
  5
C0
330
1F
100
AcDbEntity
  8
0
  6
Continuous
 62
     1
370
    15
100
AcDbSpline
210
0.0
220
0.0
230
1.0
 70
     8
 71
     3
 72
    12
 73
     8
 74
     0
 42
0.000000001
 43
0.00000001
 40
0.0
 40
0.0
 40
0.0
 40
0.0
 40
0.4999999999999993
 40
0.4999999999999993
 40
0.7499999999999997
 40
0.7499999999999997
 40
1.0
 40
1.0
 40
1.0
 40
1.0
 10
57.15000000000001
 20
-1.803054751493758
 30
0.0
 10
56.42739085219375
 20
-1.234963092360141
 30
0.0
 10
55.71685161155766
 20
-0.6435812161933732
 30
0.0
 10
54.66961841837204
 20
0.2793353976623705
 30
0.0
 10
54.32368647648437
 20
0.593044416097453
 30
0.0
 10
53.63888802874788
 20
1.234095991027105
 30
0.0
 10
53.30188369465021
 20
1.559784429718605
 30
0.0
 10
52.97555369104701
 20
1.887018141605692
 30
0.0
1001
PE_URL
1000

  0
SPLINE
  5
C1
330
1F
100
AcDbEntity
  8
0
  6
Continuous
 62
     1
370
    15
100
AcDbSpline
210
0.0
220
0.0
230
1.0
 70
     8
 71
     3
 72
    13
 73
     9
 74
     0
 42
0.000000001
 43
0.00000001
 40
0.0
 40
0.0
 40
0.0
 40
0.0
 40
0.1758687999944415
 40
0.3516975556766836
 40
0.5274856703110398
 40
0.7033116734068013
 40
0.8791785527243431
 40
1.0
 40
1.0
 40
1.0
 40
1.0
 10
52.97555369104702
 20
1.887018141605684
 30
0.0
 10
52.06455052992609
 20
2.27127362532453
 30
0.0
 10
50.24275163785379
 20
3.039697100003103
 30
0.0
 10
47.51045767623991
 20
3.99869901302462
 30
0.0
 10
44.77851980539053
 20
4.750318055361459
 30
0.0
 10
42.04625903769542
 20
5.230705096612239
 30
0.0
 10
39.59862562577689
 20
5.441730904350019
 30
0.0
 10
38.06178588861543
 20
5.363244768242595
 30
0.0
 10
37.43593315147966
 20
5.331282578612616
 30
0.0
1001
PE_URL
1000

  0
LINE
  5
C2
330
1F
100
AcDbEntity
  8
0
  6
Continuous
 62
     1
370
    15
100
AcDbLine
 10
57.15000000000001
 20
-5.323097246159308
 30
0.0
 11
57.15000000000001
 21
-1.803054751493759
 31
0.0
1001
PE_URL
1000

  0
SPLINE
  5
C3
330
1F
100
AcDbEntity
  8
0
  6
Continuous
 62
     1
370
    15
100
AcDbSpline
210
0.0
220
0.0
230
1.0
 70
    24
 71
     3
 72
     8
 73
     4
 74
     0
 42
0.000000001
 43
0.00000001
 40
0.0
 40
0.0
 40
0.0
 40
0.0
 40
1.0
 40
1.0
 40
1.0
 40
1.0
 10
53.04322168957209
 20
3.295176478395331
 30
0.0
 10
52.82069297300671
 20
3.10845271439896
 30
0.0
 10
52.58536237032131
 20
2.910986892481164
 30
0.0
 10
52.33949998003532
 20
2.70468385147182
 30
0.0
1001
PE_URL
1000

  0
LINE
  5
C4
330
1F
100
AcDbEntity
  8
0
  6
Continuous
 62
     1
370
    15
100
AcDbLine
 10
57.15000000000001
 20
4.722812499999996
 30
0.0
 11
54.64127929288372
 21
4.607608572108414
 31
0.0
1001
PE_URL
1000

  0
SPLINE
  5
C5
330
1F
100
AcDbEntity
  8
0
  6
Continuous
 62
     1
370
    15
100
AcDbSpline
210
0.0
220
0.0
230
1.0
 70
     8
 71
     3
 72
    10
 73
     6
 74
     0
 42
0.000000001
 43
0.00000001
 40
0.0
 40
0.0
 40
0.0
 40
0.0
 40
0.5
 40
0.5
 40
1.0
 40
1.0
 40
1.0
 40
1.0
 10
57.15000000000001
 20
4.7228125
 30
0.0
 10
56.45603786121976
 20
4.534600018222464
 30
0.0
 10
55.76585409113819
 20
4.323150383715657
 30
0.0
 10
54.39557666373037
 20
3.850243245003436
 30
0.0
 10
53.71513172692212
 20
3.589249448119482
 30
0.0
 10
53.04322168957192
 20
3.29517647839543
 30
0.0
1001
PE_URL
1000

  0
SPLINE
  5
C6
330
1F
100
AcDbEntity
  8
0
  6
Continuous
 62
     1
370
    15
100
AcDbSpline
210
0.0
220
0.0
230
1.0
 70
     8
 71
     3
 72
    13
 73
     9
 74
     0
 42
0.000000001
 43
0.00000001
 40
0.0
 40
0.0
 40
0.0
 40
0.0
 40
0.0577036310874585
 40
0.2488687101939397
 40
0.4366444293365119
 40
0.6244308954969477
 40
0.8122190923269627
 40
1.0
 40
1.0
 40
1.0
 40
1.0
 10
42.87137913792115
 20
-5.043496776842666
 30
0.0
 10
42.59640517166802
 20
-5.095158605898307
 30
0.0
 10
41.41047605371342
 20
-5.317969762164203
 30
0.0
 10
39.32963503570356
 20
-5.427851149265607
 30
0.0
 10
36.6289414152442
 20
-5.355824134422506
 30
0.0
 10
33.94429416993197
 20
-4.979912807196255
 30
0.0
 10
31.25962365568033
 20
-4.360665300707267
 30
0.0
 10
29.46986297315742
 20
-3.76174751751605
 30
0.0
 10
28.57500000000001
 20
-3.462294437907749
 30
0.0
1001
PE_URL
1000

  0
SPLINE
  5
C7
330
1F
100
AcDbEntity
  8
외형선
  6
Continuous
370
    15
100
AcDbSpline
210
0.0
220
0.0
230
1.0
 70
    24
 71
     3
 72
    14
 73
    10
 74
     0
 42
0.000000001
 43
0.00000001
 40
0.0
 40
0.0
 40
0.0
 40
0.0
 40
0.25
 40
0.25
 40
0.5
 40
0.5
 40
0.75
 40
0.75
 40
1.0
 40
1.0
 40
1.0
 40
1.0
 10
28.57500000000001
 20
3.623125917039772
 30
0.0
 10
28.57500000000001
 20
3.150919347583141
 30
0.0
 10
28.57500000000001
 20
2.618640886454437
 30
0.0
 10
28.57500000000001
 20
1.469582795458281
 30
0.0
 10
28.57500000000001
 20
0.853197450054787
 30
0.0
 10
28.57500000000001
 20
-0.4060860275536446
 30
0.0
 10
28.57500000000001
 20
-1.048313160873312
 30
0.0
 10
28.57500000000001
 20
-2.295836813478758
 30
0.0
 10
28.57500000000001
 20
-2.900600748106342
 30
0.0
 10
28.57500000000001
 20
-3.462294437907748
 30
0.0
  0
SPLINE
  5
C8
330
1F
100
AcDbEntity
  8
외형선
  6
Continuous
370
    15
100
AcDbSpline
210
0.0
220
0.0
230
1.0
 70
    24
 71
     3
 72
    13
 73
     9
 74
     0
 42
0.000000001
 43
0.00000001
 40
0.0
 40
0.0
 40
0.0
 40
0.0
 40
0.1497317847472523
 40
0.2994635694945048
 40
0.5183000777560042
 40
0.7434828595821255
 40
0.9410018190662361
 40
1.0
 40
1.0
 40
1.0
 40
1.0
 10
28.57500000000001
 20
-3.462294437907749
 30
0.0
 10
28.57500000000001
 20
-3.649016762726728
 30
0.0
 10
28.57500000000001
 20
-4.022461412364687
 30
0.0
 10
28.57500000000001
 20
-4.558767294572234
 30
0.0
 10
28.57500000000001
 20
-5.048576163731534
 30
0.0
 10
28.57500000000001
 20
-5.370165942760971
 30
0.0
 10
28.57500000000001
 20
-5.507655585165606
 30
0.0
 10
28.57500000000001
 20
-5.484357983342584
 30
0.0
 10
28.57500000000001
 20
-5.478999604072342
 30
0.0
  0
LINE
  5
C9
330
1F
100
AcDbEntity
  8
0
  6
Continuous
 62
     1
370
    15
100
AcDbLine
 10
57.15000000000001
 20
0.000000000000001
 30
0.0
 11
57.15000000000001
 21
4.7228125
 31
0.0
1001
PE_URL
1000

  0
SPLINE
  5
CA
330
1F
100
AcDbEntity
  8
0
  6
Continuous
 62
     1
370
    15
100
AcDbSpline
210
0.0
220
0.0
230
1.0
 70
     8
 71
     3
 72
    12
 73
     8
 74
     0
 42
0.000000001
 43
0.00000001
 40
0.0
 40
0.0
 40
0.0
 40
0.0
 40
0.0941972567000042
 40
0.3205738204008906
 40
0.5469710088778401
 40
0.7734320755133257
 40
1.0
 40
1.0
 40
1.0
 40
1.0
 10
47.89724986269341
 20
4.521094207391649
 30
0.0
 10
48.18776687919886
 20
4.649420116097307
 30
0.0
 10
49.17645968337706
 20
5.086141186873316
 30
0.0
 10
50.86332866685441
 20
5.672593599457554
 30
0.0
 10
52.95816333177892
 20
6.247177289247751
 30
0.0
 10
55.05368197034171
 20
6.628354498115677
 30
0.0
 10
56.45111745045492
 20
6.703560682307359
 30
0.0
 10
57.15000000000001
 20
6.741172644002496
 30
0.0
1001
PE_URL
1000

  0
LINE
  5
CB
330
1F
100
AcDbEntity
  8
0
  6
Continuous
 62
     1
370
    15
100
AcDbLine
 10
57.15000000000001
 20
4.7228125
 30
0.0
 11
57.15000000000001
 21
6.7411726440025
 31
0.0
1001
PE_URL
1000

  0
SPLINE
  5
CC
330
1F
100
AcDbEntity
  8
0
  6
Continuous
 62
     1
370
    15
100
AcDbSpline
210
0.0
220
0.0
230
1.0
 70
     8
 71
     3
 72
     9
 73
     5
 74
     0
 42
0.000000001
 43
0.00000001
 40
0.0
 40
0.0
 40
0.0
 40
0.0
 40
0.3725294265832789
 40
1.0
 40
1.0
 40
1.0
 40
1.0
 10
31.91420140297603
 20
-5.304189466586627
 30
0.0
 10
31.49952265806931
 20
-5.454557964296314
 30
0.0
 10
30.38637906372291
 20
-5.858199896931861
 30
0.0
 10
29.27337641205904
 20
-6.115446271161737
 30
0.0
 10
28.57500000000518
 20
-6.276860801109128
 30
0.0
1001
PE_URL
1000

  0
SPLINE
  5
CD
330
1F
100
AcDbEntity
  8
외형선
  6
Continuous
370
    15
100
AcDbSpline
210
0.0
220
0.0
230
1.0
 70
    24
 71
     3
 72
    10
 73
     6
 74
     0
 42
0.000000001
 43
0.00000001
 40
0.0
 40
0.0
 40
0.0
 40
0.0
 40
0.3948816373789398
 40
0.8448163794431797
 40
1.0
 40
1.0
 40
1.0
 40
1.0
 10
28.57500000000001
 20
-5.49706955204743
 30
0.0
 10
28.57500000000001
 20
-5.605020488413338
 30
0.0
 10
28.57500000000001
 20
-5.835972527164711
 30
0.0
 10
28.57500000000001
 20
-6.091250021177451
 30
0.0
 10
28.57500000000001
 20
-6.238976179614018
 30
0.0
 10
28.57500000000001
 20
-6.276860801091773
 30
0.0
  0
LINE
  5
CE
330
1F
100
AcDbEntity
  8
중심선
 62
     1
100
AcDbLine
 10
-64.15
 20
-0.0000000000000065
 30
0.0
 11
64.15
 21
0.000000000000008
 31
0.0
  0
LINE
  5
CF
330
1F
100
AcDbEntity
  8
참조1
100
AcDbLine
 10
0.0
 20
-0.000000000000007
 30
0.0
 11
0.0000000000000071
 21
-40.00000000000001
 31
0.0
  0
LINE
  5
D0
330
1F
100
AcDbEntity
  8
참조1
100
AcDbLine
 10
0.0000000000000071
 20
-40.00000000000001
 30
0.0
 11
-11.29071559669922
 21
-40.0
 31
0.0
  0
CIRCLE
  5
D1
330
1F
100
AcDbEntity
  8
해칭선
100
AcDbCircle
 10
0.0
 20
0.0
 30
0.0
 40
3.000000000000001
  0
INSERT
  5
D2
330
1F
100
AcDbEntity
  8
0
  6
Continuous
 62
     7
100
AcDbBlockReference
 66
     1
  2
블럭10
 10
-13.94027293212521
 20
-52.04717430164393
 30
0.0
  0
ATTRIB
  5
D3
330
D2
100
AcDbEntity
  8
FORMAT
 62
     2
100
AcDbText
 10
-23.12156822086649
 20
-49.97180738881175
 30
0.0
 40
4.233333333333333
  1
E1050034 [ 2 FLUTE ]
 41
0.75
  7
SLDTEXTSTYLE0
 11
-23.12156822086649
 21
-52.08847405547841
 31
0.0
100
AcDbAttribute
  2
AUTOATTR0
 70
     0
 74
     1
  0
SEQEND
  5
D4
330
D2
100
AcDbEntity
  8
0
  6
Continuous
 62
     7
  0
HATCH
  5
D5
330
1F
100
AcDbEntity
  8
중심선
100
AcDbHatch
 10
0.0
 20
0.0
 30
0.0
210
0.0
220
0.0
230
1.0
  2
SOLID
 70
     1
 71
     0
 91
        1
 92
        0
 93
        4
 72
     1
 10
-8.225363627744365
 20
-35.8
 11
-11.67163887158165
 21
-35.8
 72
     1
 10
-11.67163887158165
 20
-35.8
 11
-13.79986873078567
 21
-38.3363255805726
 72
     1
 10
-13.79986873078567
 20
-38.3363255805726
 11
-10.35356040183524
 21
-38.33628615127011
 72
     1
 10
-10.35356040183524
 20
-38.33628615127011
 11
-8.225363627744365
 21
-35.8
 97
        0
 75
     0
 76
     1
 98
        1
 10
18.16921167873051
 20
-0.0010749287238962
  0
HATCH
  5
D6
330
1F
100
AcDbEntity
  8
중심선
100
AcDbHatch
 10
0.0
 20
0.0
 30
0.0
210
0.0
220
0.0
230
1.0
  2
SOLID
 70
     1
 71
     0
 91
        1
 92
        0
 93
        4
 72
     1
 10
-3.212599636708411
 20
-35.80000000000003
 11
-6.658874880545696
 21
-35.8
 72
     1
 10
-6.658874880545696
 20
-35.8
 11
-11.19001288890308
 21
-41.20000000000002
 72
     1
 10
-11.19001288890308
 20
-41.20000000000002
 11
-7.743737645065803
 21
-41.20000000000002
 72
     1
 10
-7.743737645065803
 20
-41.20000000000002
 11
-3.212599636708411
 21
-35.80000000000003
 97
        0
 75
     0
 76
     1
 98
        1
 10
18.16921167873051
 20
-0.0010749287238962
  0
HATCH
  5
D7
330
1F
100
AcDbEntity
  8
중심선
100
AcDbHatch
 10
0.0
 20
0.0
 30
0.0
210
0.0
220
0.0
230
1.0
  2
SOLID
 70
     1
 71
     0
 91
        1
 92
        0
 93
        4
 72
     1
 10
1.800164354327482
 20
-35.8
 11
-1.646110889509632
 21
-35.79999999999998
 72
     1
 10
-1.646110889509632
 20
-35.79999999999998
 11
-8.694547791398882
 21
-44.20000000000002
 72
     1
 10
-8.694547791398882
 20
-44.20000000000002
 11
-5.248272547561601
 21
-44.20000000000002
 72
     1
 10
-5.248272547561601
 20
-44.20000000000002
 11
1.800164354327482
 21
-35.8
 97
        0
 75
     0
 76
     1
 98
        1
 10
18.16921167873051
 20
-0.0010749287238962
  0
HATCH
  5
D8
330
1F
100
AcDbEntity
  8
중심선
100
AcDbHatch
 10
0.0
 20
0.0
 30
0.0
210
0.0
220
0.0
230
1.0
  2
SOLID
 70
     1
 71
     0
 91
        1
 92
        0
 93
        6
 72
     3
 10
6.600054785339681
 20
-40.00000000005127
 11
3.960054785062283
 21
1.540882976769353E-10
 40
0.3939339440162628
 50
17.09539180608437
 51
320.0019657685077
 73
     0
 72
     1
 10
8.28305444104025
 20
-38.5878940046383
 11
10.58835631474134
 21
-36.65356729459038
 72
     3
 10
6.600054785286835
 20
-40.00000000000015
 11
6.600054785286829
 21
-1.278976924368180E-13
 40
0.636358354079598
 50
39.99873849337385
 51
368.4976242363725
 73
     1
 72
     1
 10
13.02538727718744
 20
-39.03999999993002
 11
5.280122092122758
 21
-39.03999999993002
 72
     1
 10
5.280122092122758
 20
-39.03999999993002
 11
5.280097047676824
 21
-40.95999999992991
 72
     1
 10
5.280097047676824
 20
-40.95999999992991
 11
9.721476817148861
 21
-40.95999999992988
 97
        0
 75
     0
 76
     1
 98
        1
 10
18.16921167873051
 20
-0.0010749287238962
  0
DIMENSION
  5
D9
330
1F
100
AcDbEntity
  8
치수문자_일반주서
100
AcDbDimension
  2
_D
 10
-72.14999999999992
 20
-7.937500000000185
 30
0.0
 11
-72.15000000000005
 21
28.54149999999992
 31
0.0
 70
   160
  1
%%c<>
 71
     2
 42
15.875
 52
-270.0
  3
SLDDIMSTYLE0
100
AcDbAlignedDimension
 13
-23.13152700723833
 23
7.937499999999996
 33
0.0
 14
-23.1315270072383
 24
-7.937500000000003
 34
0.0
 50
90.0000000000002
100
AcDbRotatedDimension
1001
PE_URL
1000

1001
ACAD
1000
DSTYLE
1002
{
1070
   171
1070
     8
1070
   273
1070
     7
1002
}
  0
DIMENSION
  5
EE
330
1F
100
AcDbEntity
  8
치수문자_일반주서
100
AcDbDimension
  2
_D_1
 10
72.14999999999999
 20
6.741172644002557
 30
0.0
 11
72.14999999999992
 21
29.53267264400256
 31
0.0
 70
   160
  1
%%c<>
 71
     2
 42
13.48234528800501
 52
-270.0
  3
SLDDIMSTYLE0
100
AcDbAlignedDimension
 13
57.15000000000001
 23
-6.741172644002505
 33
0.0
 14
57.15000000000001
 24
6.7411726440025
 34
0.0
 50
90.0000000000002
100
AcDbRotatedDimension
1001
PE_URL
1000

1001
ACAD
1000
DSTYLE
1002
{
1070
   171
1070
     8
1070
   273
1070
     7
1002
}
  0
DIMENSION
  5
102
330
1F
100
AcDbEntity
  8
치수문자_일반주서
100
AcDbDimension
  2
_D_2
 10
28.57500000000001
 20
22.93749999999999
 30
0.0
 11
42.86250000000001
 21
22.93749999999999
 31
0.0
 70
   160
  1
<>
 71
     2
 42
28.575
  3
SLDDIMSTYLE0
100
AcDbAlignedDimension
 13
57.15000000000001
 23
6.7411726440025
 33
0.0
 14
28.57500000000001
 24
6.276860801110214
 34
0.0
100
AcDbRotatedDimension
1001
PE_URL
1000

1001
ACAD
1000
DSTYLE
1002
{
1070
   171
1070
     8
1070
   273
1070
     7
1002
}
  0
DIMENSION
  5
116
330
1F
100
AcDbEntity
  8
치수문자_일반주서
100
AcDbDimension
  2
_D_3
 10
57.15000000000001
 20
37.93749999999999
 30
0.0
 11
0.0000000000000142
 21
37.93749999999999
 31
0.0
 70
   160
  1
<>
 71
     2
 42
114.3
  3
SLDDIMSTYLE0
100
AcDbAlignedDimension
 13
-57.15
 23
6.741172644002475
 33
0.0
 14
57.15000000000001
 24
6.7411726440025
 34
0.0
100
AcDbRotatedDimension
1001
PE_URL
1000

1001
ACAD
1000
DSTYLE
1002
{
1070
   171
1070
     8
1070
   273
1070
     7
1002
}
  0
LINE
  5
12A
330
1F
100
AcDbEntity
  8
참조1
100
AcDbLine
 10
86.68162503295505
 20
7.44
 30
0.0
 11
86.68162503295505
 21
-7.440000000000005
 31
0.0
  0
LINE
  5
12B
330
1F
100
AcDbEntity
  8
참조1
100
AcDbLine
 10
99.38162503295504
 20
5.44
 30
0.0
 11
86.68162503295505
 21
5.44
 31
0.0
  0
SOLID
  5
12C
330
1F
100
AcDbEntity
  8
참조1
100
AcDbTrace
 10
86.68162503295505
 20
5.44
 30
0.0
 11
93.03162503295505
 21
4.423999999999999
 31
0.0
 12
93.03162503295505
 22
6.456
 32
0.0
 13
93.03162503295505
 23
6.456
 33
0.0
  0
LINE
  5
12D
330
1F
100
AcDbEntity
  8
참조1
100
AcDbLine
 10
99.38162503295504
 20
-5.440000000000005
 30
0.0
 11
86.68162503295505
 21
-5.440000000000005
 31
0.0
  0
SOLID
  5
12E
330
1F
100
AcDbEntity
  8
참조1
100
AcDbTrace
 10
86.68162503295505
 20
-5.440000000000005
 30
0.0
 11
93.03162503295505
 21
-6.456000000000005
 31
0.0
 12
93.03162503295505
 22
-4.424000000000005
 32
0.0
 13
93.03162503295505
 23
-4.424000000000005
 33
0.0
  0
MTEXT
  5
12F
330
1F
100
AcDbEntity
  8
참조1
100
AcDbMText
 10
96.06597516558105
 20
11.01029177718832
 30
0.0
 40
3.5
 41
0.0
 71
     1
 72
     1
  1
A
  7
SLDTEXTSTYLE0
 73
     1
 44
1.0
  0
MTEXT
  5
130
330
1F
100
AcDbEntity
  8
참조1
100
AcDbMText
 10
96.06597516558105
 20
0.1302917771883231
 30
0.0
 40
3.5
 41
0.0
 71
     1
 72
     1
  1
A
  7
SLDTEXTSTYLE0
 73
     1
 44
1.0
  0
INSERT
  5
137
330
1F
100
AcDbEntity
  8
해칭선
100
AcDbBlockReference
  2
SW_DOWELSYMBOL_0
 10
0.0
 20
0.0
 30
0.0
  0
LINE
  5
1DF
330
1F
100
AcDbEntity
  8
외형선
  6
Continuous
370
    15
100
AcDbLine
 10
-5.092700000000008
 20
6.286499999999982
 30
0.0
 11
5.092700000000008
 21
6.286499999999982
 31
0.0
1001
PE_URL
1000

  0
LINE
  5
1E0
330
1F
100
AcDbEntity
  8
외형선
  6
Continuous
370
    15
100
AcDbLine
 10
-5.092700000000008
 20
6.286500000000082
 30
0.0
 11
-6.743699999999961
 21
7.937499999999993
 31
0.0
1001
PE_URL
1000

  0
LINE
  5
1E1
330
1F
100
AcDbEntity
  8
외형선
  6
Continuous
370
    15
100
AcDbLine
 10
5.092699999999894
 20
6.286500000000082
 30
0.0
 11
6.743699999999905
 21
7.937499999999993
 31
0.0
1001
PE_URL
1000

  0
LINE
  5
21B
330
1F
100
AcDbEntity
  8
외형선
  6
Continuous
370
    15
100
AcDbLine
 10
-23.13152700723832
 20
7.937499999999989
 30
0.0
 11
-26.54499710430382
 21
7.022863444103503
 31
0.0
  0
LINE
  5
21C
330
1F
100
AcDbEntity
  8
외형선
  6
Continuous
370
    15
100
AcDbLine
 10
-26.54499710430381
 20
-7.022863444103518
 30
0.0
 11
-23.13152700723832
 21
-7.937500000000004
 31
0.0
  0
SPLINE
  5
21D
330
1F
100
AcDbEntity
  8
외형선
  6
Continuous
370
    15
100
AcDbSpline
210
0.0
220
0.0
230
1.0
 70
     8
 71
     3
 72
     9
 73
     5
 74
     0
 42
0.000000001
 43
0.00000001
 40
0.0
 40
0.0
 40
0.0
 40
0.0
 40
0.4991919463883555
 40
1.0
 40
1.0
 40
1.0
 40
1.0
 10
-27.28186638864912
 20
5.615496211541743
 30
0.0
 10
-27.49716216046696
 20
5.594325387831375
 30
0.0
 10
-27.92845071264713
 20
5.551915201001357
 30
0.0
 10
-28.35925149746233
 20
5.515371121415725
 30
0.0
 10
-28.575
 20
5.497069552047414
 30
0.0
  0
SPLINE
  5
21E
330
1F
100
AcDbEntity
  8
0
  6
Continuous
 62
     1
370
    15
100
AcDbSpline
210
0.0
220
0.0
230
1.0
 70
     8
 71
     3
 72
     9
 73
     5
 74
     0
 42
0.000000001
 43
0.00000001
 40
0.0
 40
0.0
 40
0.0
 40
0.0
 40
0.4990511628506077
 40
1.0
 40
1.0
 40
1.0
 40
1.0
 10
-39.67149903477464
 20
-1.728706120698931
 30
0.0
 10
-39.35988971763557
 20
-1.877109708152904
 30
0.0
 10
-38.73548616879071
 20
-2.174481197292984
 30
0.0
 10
-38.11104146134598
 20
-2.501327093895014
 30
0.0
 10
-37.79822661128743
 20
-2.665060165724849
 30
0.0
1001
PE_URL
1000

  0
SPLINE
  5
21F
330
1F
100
AcDbEntity
  8
0
  6
Continuous
 62
     1
370
    15
100
AcDbSpline
210
0.0
220
0.0
230
1.0
 70
     8
 71
     3
 72
    16
 73
    12
 74
     0
 42
0.000000001
 43
0.00000001
 40
0.0
 40
0.0
 40
0.0
 40
0.0
 40
0.1547425746396876
 40
0.2658105825053282
 40
0.3362091485506891
 40
0.4001781377672052
 40
0.4662595851406217
 40
0.6165887804948406
 40
0.8025318265018371
 40
0.9451789001046708
 40
1.0
 40
1.0
 40
1.0
 40
1.0
 10
-37.44060585586006
 20
-5.361332523301371
 30
0.0
 10
-37.15512596012538
 20
-5.347124358940889
 30
0.0
 10
-36.66474005595203
 20
-5.322718144595644
 30
0.0
 10
-36.04533416459334
 20
-5.301113188289943
 30
0.0
 10
-35.59370144964814
 20
-5.288492304253591
 30
0.0
 10
-35.22477140607319
 20
-5.280355712327346
 30
0.0
 10
-34.70854352770669
 20
-5.271866414066789
 30
0.0
 10
-33.96712386384774
 20
-5.266605227168156
 30
0.0
 10
-33.08493608912507
 20
-5.273820358528535
 30
0.0
 10
-32.37898851187477
 20
-5.288096138784347
 30
0.0
 10
-32.01519713769066
 20
-5.300692473158296
 30
0.0
 10
-31.91420140297602
 20
-5.304189466586635
 30
0.0
1001
PE_URL
1000

  0
SPLINE
  5
220
330
1F
100
AcDbEntity
  8
0
  6
Continuous
 62
     1
370
    15
100
AcDbSpline
210
0.0
220
0.0
230
1.0
 70
     8
 71
     3
 72
    26
 73
    22
 74
     0
 42
0.000000001
 43
0.00000001
 40
0.0
 40
0.0
 40
0.0
 40
0.0
 40
0.064534555446692
 40
0.1153185444586089
 40
0.1605057625289103
 40
0.1903495703058359
 40
0.2228823325647844
 40
0.2588357382811915
 40
0.297349559730219
 40
0.3378282429724958
 40
0.403330798461064
 40
0.4592762152028571
 40
0.5069950210489133
 40
0.5772302130374846
 40
0.6606308984475895
 40
0.7538290237013524
 40
0.7962792224304769
 40
0.8323608981401603
 40
0.8664550763368789
 40
0.9212798858996188
 40
0.9999999999999999
 40
0.9999999999999999
 40
0.9999999999999999
 40
0.9999999999999999
 10
-54.64304249319439
 20
-4.614534121386399
 30
0.0
 10
-54.38860984169004
 20
-4.593752189774818
 30
0.0
 10
-53.93395724772488
 20
-4.556616393488657
 30
0.0
 10
-53.30304279866243
 20
-4.516915022101404
 30
0.0
 10
-52.81019168745284
 20
-4.491289960148642
 30
0.0
 10
-52.39180106240471
 20
-4.473507976348639
 30
0.0
 10
-52.00600430109402
 20
-4.460103109241956
 30
0.0
 10
-51.58423534678214
 20
-4.449244605995041
 30
0.0
 10
-51.13030948092005
 20
-4.441908764895771
 30
0.0
 10
-50.55958560247468
 20
-4.43847608893822
 30
0.0
 10
-49.91886856368773
 20
-4.443340154002211
 30
0.0
 10
-49.25527423026314
 20
-4.458982133831245
 30
0.0
 10
-48.58006926148047
 20
-4.483662411347229
 30
0.0
 10
-47.78732610805275
 20
-4.524235899742589
 30
0.0
 10
-46.81885594307875
 20
-4.592964451799237
 30
0.0
 10
-45.95815897813034
 20
-4.672087808331725
 30
0.0
 10
-45.28298858379671
 20
-4.74504672913929
 30
0.0
 10
-44.83938838624802
 20
-4.797212248892308
 30
0.0
 10
-44.34615150622786
 20
-4.859155082724712
 30
0.0
 10
-43.68894327773217
 20
-4.947296251253697
 30
0.0
 10
-43.16481057160391
 20
-5.027361063872544
 30
0.0
 10
-42.8558524674813
 20
-5.07455650202099
 30
0.0
1001
PE_URL
1000

  0
SPLINE
  5
221
330
1F
100
AcDbEntity
  8
0
  6
Continuous
 62
     1
370
    15
100
AcDbSpline
210
0.0
220
0.0
230
1.0
 70
     8
 71
     3
 72
    17
 73
    13
 74
     0
 42
0.000000001
 43
0.00000001
 40
0.0
 40
0.0
 40
0.0
 40
0.0
 40
0.1508971265124147
 40
0.2666062494349755
 40
0.3466319647604565
 40
0.4061787684762599
 40
0.4742100834122813
 40
0.5516756029719976
 40
0.6355860461012764
 40
0.7176242975849841
 40
0.8811123501110213
 40
1.0
 40
1.0
 40
1.0
 40
1.0
 10
-42.8558524674813
 20
5.074556502020947
 30
0.0
 10
-43.10913474856343
 20
5.035657817390728
 30
0.0
 10
-43.55663590758709
 20
4.966931310419341
 30
0.0
 10
-44.13822604312523
 20
4.886786568527448
 30
0.0
 10
-44.56729355887437
 20
4.83112952250498
 30
0.0
 10
-44.917955176894
 20
4.787938825632008
 30
0.0
 10
-45.26319346743124
 20
4.747553310356437
 30
0.0
 10
-45.64917727081867
 20
4.705338573534341
 30
0.0
 10
-46.05821767791325
 20
4.663917909273998
 30
0.0
 10
-46.61186162238213
 20
4.612717120878973
 30
0.0
 10
-47.22394907473026
 20
4.562597566358754
 30
0.0
 10
-47.69827456211281
 20
4.5336126246237
 30
0.0
 10
-47.89797815557029
 20
4.521409196440686
 30
0.0
1001
PE_URL
1000

  0
SPLINE
  5
222
330
1F
100
AcDbEntity
  8
0
  6
Continuous
 62
     1
370
    15
100
AcDbSpline
210
0.0
220
0.0
230
1.0
 70
     8
 71
     3
 72
    22
 73
    18
 74
     0
 42
0.000000001
 43
0.00000001
 40
0.0
 40
0.0
 40
0.0
 40
0.0
 40
0.0918113984766331
 40
0.1598629680094378
 40
0.2042009620639917
 40
0.2387288714141685
 40
0.2736163459304098
 40
0.3345131394993813
 40
0.4108966748276777
 40
0.4998045039204808
 40
0.5991906821291988
 40
0.683748441607717
 40
0.7534695846741128
 40
0.7925505391714167
 40
0.8363252693841274
 40
0.9050391891548958
 40
1.0
 40
1.0
 40
1.0
 40
1.0
 10
-28.575
 20
5.497069552047417
 30
0.0
 10
-28.84629077451532
 20
5.475597378429232
 30
0.0
 10
-29.31866511067836
 20
5.43820980497787
 30
0.0
 10
-29.92150325161984
 20
5.398494543005793
 30
0.0
 10
-30.35531126638047
 20
5.372700014821049
 30
0.0
 10
-30.69157320067452
 20
5.354584690789181
 30
0.0
 10
-31.07672693417214
 20
5.33565034451685
 30
0.0
 10
-31.58566460298091
 20
5.313955312375327
 30
0.0
 10
-32.25424949505485
 20
5.291690543603703
 30
0.0
 10
-33.03618016709259
 20
5.274479765083491
 30
0.0
 10
-33.84254745283689
 20
5.267423224381016
 30
0.0
 10
-34.59244310856771
 20
5.270431347721281
 30
0.0
 10
-35.16379025206898
 20
5.278927559367855
 30
0.0
 10
-35.61432475309638
 20
5.289018879909058
 30
0.0
 10
-36.0618322527875
 20
5.301649435065247
 30
0.0
 10
-36.67504719318477
 20
5.32318865829868
 30
0.0
 10
-37.15952278836484
 20
5.347327594477722
 30
0.0
 10
-37.44060585586006
 20
5.361332523301339
 30
0.0
1001
PE_URL
1000

  0
LINE
  5
223
330
1F
100
AcDbEntity
  8
외형선
  6
Continuous
370
    15
100
AcDbLine
 10
-23.13152700723832
 20
-7.937500000000004
 30
0.0
 11
-23.13152700723832
 21
7.937499999999996
 31
0.0
  0
SPLINE
  5
224
330
1F
100
AcDbEntity
  8
외형선
  6
Continuous
370
    15
100
AcDbSpline
210
0.0
220
0.0
230
1.0
 70
     8
 71
     3
 72
     8
 73
     4
 74
     0
 42
0.000000001
 43
0.00000001
 40
0.0
 40
0.0
 40
0.0
 40
0.0
 40
1.0
 40
1.0
 40
1.0
 40
1.0
 10
-27.575
 20
-6.465561748549536
 30
0.0
 10
-27.23087114845854
 20
-6.59948253485361
 30
0.0
 10
-26.88753673238892
 20
-6.729148809327246
 30
0.0
 10
-26.54499406935339
 20
-6.854245060042292
 30
0.0
  0
LINE
  5
225
330
1F
100
AcDbEntity
  8
외형선
  6
Continuous
370
    15
100
AcDbLine
 10
-27.575
 20
-6.465561748549536
 30
0.0
 11
-27.575
 21
-5.681636861058017
 31
0.0
  0
SPLINE
  5
226
330
1F
100
AcDbEntity
  8
외형선
  6
Continuous
370
    15
100
AcDbSpline
210
0.0
220
0.0
230
1.0
 70
     8
 71
     3
 72
     8
 73
     4
 74
     0
 42
0.000000001
 43
0.00000001
 40
0.0
 40
0.0
 40
0.0
 40
0.0
 40
1.0
 40
1.0
 40
1.0
 40
1.0
 10
-26.54499710430379
 20
-6.177760012591431
 30
0.0
 10
-26.88879144661727
 20
-6.016445776159674
 30
0.0
 10
-27.23211625279839
 20
-5.851105998084762
 30
0.0
 10
-27.575
 20
-5.681636861058021
 30
0.0
  0
LINE
  5
227
330
1F
100
AcDbEntity
  8
외형선
  6
Continuous
370
    15
100
AcDbLine
 10
-26.54499710430382
 20
7.022863444103503
 30
0.0
 11
-26.54499710430379
 21
-6.177811104701412
 31
0.0
  0
SPLINE
  5
228
330
1F
100
AcDbEntity
  8
외형선
  6
Continuous
370
    15
100
AcDbSpline
210
0.0
220
0.0
230
1.0
 70
     8
 71
     3
 72
     8
 73
     4
 74
     0
 42
0.000000001
 43
0.00000001
 40
0.0
 40
0.0
 40
0.0
 40
0.0
 40
1.0
 40
1.0
 40
1.0
 40
1.0
 10
-27.575
 20
6.465561748549522
 30
0.0
 10
-27.23087114845855
 20
6.599482534853596
 30
0.0
 10
-26.88753673238893
 20
6.729148809327224
 30
0.0
 10
-26.5449940693534
 20
6.854245060042278
 30
0.0
  0
LINE
  5
229
330
1F
100
AcDbEntity
  8
외형선
  6
Continuous
370
    15
100
AcDbLine
 10
-26.54499710430381
 20
-6.854281157814111
 30
0.0
 11
-26.54499710430381
 21
-7.022863444103518
 31
0.0
  0
SPLINE
  5
22A
330
1F
100
AcDbEntity
  8
외형선
  6
Continuous
370
    15
100
AcDbSpline
210
0.0
220
0.0
230
1.0
 70
    24
 71
     3
 72
    14
 73
    10
 74
     0
 42
0.000000001
 43
0.00000001
 40
0.0
 40
0.0
 40
0.0
 40
0.0
 40
0.25
 40
0.25
 40
0.5
 40
0.5
 40
0.75
 40
0.75
 40
1.0
 40
1.0
 40
1.0
 40
1.0
 10
-28.575
 20
-3.623125917039786
 30
0.0
 10
-28.575
 20
-3.150919347583155
 30
0.0
 10
-28.575
 20
-2.61864088645445
 30
0.0
 10
-28.575
 20
-1.469582795458294
 30
0.0
 10
-28.575
 20
-0.8531974500548003
 30
0.0
 10
-28.575
 20
0.4060860275536307
 30
0.0
 10
-28.575
 20
1.048313160873299
 30
0.0
 10
-28.575
 20
2.295836813478743
 30
0.0
 10
-28.575
 20
2.900600748106328
 30
0.0
 10
-28.575
 20
3.462294437907733
 30
0.0
  0
SPLINE
  5
22B
330
1F
100
AcDbEntity
  8
외형선
  6
Continuous
370
    15
100
AcDbSpline
210
0.0
220
0.0
230
1.0
 70
     8
 71
     3
 72
    10
 73
     6
 74
     0
 42
0.000000001
 43
0.00000001
 40
0.0
 40
0.0
 40
0.0
 40
0.0
 40
0.5
 40
0.5
 40
1.0
 40
1.0
 40
1.0
 40
1.0
 10
-28.575
 20
3.462294437907733
 30
0.0
 10
-28.23591116523527
 20
3.342282893582993
 30
0.0
 10
-27.89898091658802
 20
3.218169074960951
 30
0.0
 10
-27.22387533620175
 20
2.962030630303534
 30
0.0
 10
-26.88442614687785
 20
2.829832623538426
 30
0.0
 10
-26.54499599632957
 20
2.694232988781618
 30
0.0
  0
SPLINE
  5
22C
330
1F
100
AcDbEntity
  8
외형선
  6
Continuous
370
    15
100
AcDbSpline
210
0.0
220
0.0
230
1.0
 70
     8
 71
     3
 72
    10
 73
     6
 74
     0
 42
0.000000001
 43
0.00000001
 40
0.0
 40
0.0
 40
0.0
 40
0.0
 40
0.5
 40
0.5
 40
1.0
 40
1.0
 40
1.0
 40
1.0
 10
-28.575
 20
-3.623125917039786
 30
0.0
 10
-28.23591122800995
 20
-3.710930992488475
 30
0.0
 10
-27.89898104086782
 20
-3.793989553867558
 30
0.0
 10
-27.22387558686387
 20
-3.950484874910057
 30
0.0
 10
-26.88442646108305
 20
-4.024005222035075
 30
0.0
 10
-26.5449963733568
 20
-4.092354892027178
 30
0.0
  0
LINE
  5
22D
330
1F
100
AcDbEntity
  8
외형선
  6
Continuous
370
    15
100
AcDbLine
 10
-27.28242211459501
 20
5.613028504485598
 30
0.0
 11
-26.5449940693534
 21
5.677616975470642
 31
0.0
  0
SPLINE
  5
22E
330
1F
100
AcDbEntity
  8
외형선
  6
Continuous
370
    15
100
AcDbSpline
210
0.0
220
0.0
230
1.0
 70
    24
 71
     3
 72
    13
 73
     9
 74
     0
 42
0.000000001
 43
0.00000001
 40
0.0
 40
0.0
 40
0.0
 40
0.0
 40
0.1486838880878161
 40
0.2993063827699467
 40
0.5180257642360369
 40
0.7430880225817467
 40
0.9405012649579546
 40
1.0
 40
1.0
 40
1.0
 40
1.0
 10
-28.575
 20
3.462294437907733
 30
0.0
 10
-28.575
 20
3.647907800304857
 30
0.0
 10
-28.575
 20
4.02155463458751
 30
0.0
 10
-28.575
 20
4.557892644933268
 30
0.0
 10
-28.575
 20
5.048589000490864
 30
0.0
 10
-28.575
 20
5.370200840560951
 30
0.0
 10
-28.575
 20
5.507714919912559
 30
0.0
 10
-28.575
 20
5.484318932132091
 30
0.0
 10
-28.575
 20
5.478900610682128
 30
0.0
  0
SPLINE
  5
22F
330
1F
100
AcDbEntity
  8
외형선
  6
Continuous
370
    15
100
AcDbSpline
210
0.0
220
0.0
230
1.0
 70
     8
 71
     3
 72
     8
 73
     4
 74
     0
 42
0.000000001
 43
0.00000001
 40
0.0
 40
0.0
 40
0.0
 40
0.0
 40
1.0
 40
1.0
 40
1.0
 40
1.0
 10
-28.57499999999999
 20
-5.349418395645877
 30
0.0
 10
-28.24045605263097
 20
-5.46698464355562
 30
0.0
 10
-27.90797809531548
 20
-5.577754552698707
 30
0.0
 10
-27.575
 20
-5.681636861058017
 30
0.0
  0
SPLINE
  5
230
330
1F
100
AcDbEntity
  8
외형선
  6
Continuous
370
    15
100
AcDbSpline
210
0.0
220
0.0
230
1.0
 70
    24
 71
     3
 72
    10
 73
     6
 74
     0
 42
0.000000001
 43
0.00000001
 40
0.0
 40
0.0
 40
0.0
 40
0.0
 40
0.5
 40
0.5
 40
1.0
 40
1.0
 40
1.0
 40
1.0
 10
-28.57499999999999
 20
-5.349418395645873
 30
0.0
 10
-28.57499999999999
 20
-5.145661846799101
 30
0.0
 10
-28.57499999999999
 20
-4.87994848012497
 30
0.0
 10
-28.57499999999999
 20
-4.28057002376633
 30
0.0
 10
-28.575
 20
-3.94877608866247
 30
0.0
 10
-28.575
 20
-3.623125917039786
 30
0.0
  0
SPLINE
  5
231
330
1F
100
AcDbEntity
  8
외형선
  6
Continuous
370
    15
100
AcDbSpline
210
0.0
220
0.0
230
1.0
 70
     8
 71
     3
 72
     8
 73
     4
 74
     0
 42
0.000000001
 43
0.00000001
 40
0.0
 40
0.0
 40
0.0
 40
0.0
 40
1.0
 40
1.0
 40
1.0
 40
1.0
 10
-28.5750000000096
 20
-6.276860801108196
 30
0.0
 10
-28.24045605263736
 20
-6.347608222374252
 30
0.0
 10
-27.90797809531866
 20
-6.410519619002383
 30
0.0
 10
-27.57499999999999
 20
-6.465561748549536
 30
0.0
  0
LINE
  5
232
330
1F
100
AcDbEntity
  8
외형선
  6
Continuous
370
    15
100
AcDbLine
 10
-28.575
 20
-6.276860801110224
 30
0.0
 11
-28.57499999999999
 21
-5.349418395645877
 31
0.0
  0
SPLINE
  5
233
330
1F
100
AcDbEntity
  8
외형선
  6
Continuous
370
    15
100
AcDbSpline
210
0.0
220
0.0
230
1.0
 70
     8
 71
     3
 72
     8
 73
     4
 74
     0
 42
0.000000001
 43
0.00000001
 40
0.0
 40
0.0
 40
0.0
 40
0.0
 40
1.0
 40
1.0
 40
1.0
 40
1.0
 10
-28.57500000000961
 20
6.276860801108171
 30
0.0
 10
-28.24045605263737
 20
6.347608222374227
 30
0.0
 10
-27.90797809531867
 20
6.410519619002358
 30
0.0
 10
-27.575
 20
6.465561748549522
 30
0.0
  0
SPLINE
  5
234
330
1F
100
AcDbEntity
  8
외형선
  6
Continuous
370
    15
100
AcDbSpline
210
0.0
220
0.0
230
1.0
 70
    24
 71
     3
 72
    10
 73
     6
 74
     0
 42
0.000000001
 43
0.00000001
 40
0.0
 40
0.0
 40
0.0
 40
0.0
 40
0.3948816373689183
 40
0.8448163794217409
 40
1.0
 40
1.0
 40
1.0
 40
1.0
 10
-28.575
 20
5.497069552047417
 30
0.0
 10
-28.575
 20
5.60502048841332
 30
0.0
 10
-28.575
 20
5.835972527164682
 30
0.0
 10
-28.575
 20
6.091250021183974
 30
0.0
 10
-28.575
 20
6.238976179626352
 30
0.0
 10
-28.575
 20
6.276860801110203
 30
0.0
  0
SPLINE
  5
235
330
1F
100
AcDbEntity
  8
0
  6
Continuous
 62
     1
370
    15
100
AcDbSpline
210
0.0
220
0.0
230
1.0
 70
     8
 71
     3
 72
    52
 73
    48
 74
     0
 42
0.000000001
 43
0.00000001
 40
0.0
 40
0.0
 40
0.0
 40
0.0
 40
0.0625000000000005
 40
0.0625000000000005
 40
0.0937500000000008
 40
0.0937500000000008
 40
0.125000000000001
 40
0.125000000000001
 40
0.1562500000000013
 40
0.1562500000000013
 40
0.1875000000000016
 40
0.1875000000000016
 40
0.2500000000000017
 40
0.2500000000000017
 40
0.2812500000000019
 40
0.2812500000000019
 40
0.312500000000002
 40
0.312500000000002
 40
0.3750000000000019
 40
0.3750000000000019
 40
0.4062500000000019
 40
0.4062500000000019
 40
0.4375000000000019
 40
0.4375000000000019
 40
0.5000000000000018
 40
0.5000000000000018
 40
0.5312500000000017
 40
0.5312500000000017
 40
0.5625000000000017
 40
0.5625000000000017
 40
0.6250000000000013
 40
0.6250000000000013
 40
0.6875000000000012
 40
0.6875000000000012
 40
0.750000000000001
 40
0.750000000000001
 40
0.781250000000001
 40
0.781250000000001
 40
0.8125000000000009
 40
0.8125000000000009
 40
0.8437500000000008
 40
0.8437500000000008
 40
0.8750000000000008
 40
0.8750000000000008
 40
0.9375000000000003
 40
0.9375000000000003
 40
1.0
 40
1.0
 40
1.0
 40
1.0
 10
-57.15
 20
6.741172644002472
 30
0.0
 10
-56.55797004557758
 20
6.727070871722667
 30
0.0
 10
-55.9587987194742
 20
6.68661574091275
 30
0.0
 10
-55.06496487570999
 20
6.587207454090521
 30
0.0
 10
-54.76897225317555
 20
6.54770753215147
 30
0.0
 10
-54.17527134368444
 20
6.456008524011253
 30
0.0
 10
-53.87697209920946
 20
6.403759485685498
 30
0.0
 10
-53.28007857969873
 20
6.286852233163522
 30
0.0
 10
-52.98148684922924
 20
6.222194493938712
 30
0.0
 10
-52.3866244939741
 20
6.081078124364538
 30
0.0
 10
-52.091174644014
 20
6.004708259390952
 30
0.0
 10
-51.19863450021945
 20
5.757787528905755
 30
0.0
 10
-50.59915654639318
 20
5.569587539616048
 30
0.0
 10
-49.70892437702257
 20
5.256910566545709
 30
0.0
 10
-49.41275547768565
 20
5.147552206023121
 30
0.0
 10
-48.816750551792
 20
4.918574765434666
 30
0.0
 10
-48.51797191983759
 20
4.799077988333568
 30
0.0
 10
-47.62323224121815
 20
4.427121659691963
 30
0.0
 10
-47.03216603700165
 20
4.161719723658997
 30
0.0
 10
-46.13721580801167
 20
3.739662461934273
 30
0.0
 10
-45.83846181734706
 20
3.595121030004947
 30
0.0
 10
-45.24269510663756
 20
3.299602924814561
 30
0.0
 10
-44.94685414388513
 20
3.148831654156915
 30
0.0
 10
-44.05599369218588
 20
2.687229804751986
 30
0.0
 10
-43.45647288161791
 20
2.366825467186924
 30
0.0
 10
-42.56443613344071
 20
1.875567315660486
 30
0.0
 10
-42.26896164579799
 20
1.710179436558256
 30
0.0
 10
-41.67377726479654
 20
1.375615343993399
 30
0.0
 10
-41.37511853156291
 20
1.206630242270013
 30
0.0
 10
-40.47986219662342
 20
0.69677432614818
 30
0.0
 10
-39.88852322004677
 20
0.3538809523988959
 30
0.0
 10
-38.69629562717078
 20
-0.3338178526477513
 30
0.0
 10
-38.09825440469246
 20
-0.6780674497604089
 30
0.0
 10
-36.91319147889399
 20
-1.356541383845922
 30
0.0
 10
-36.31389164576456
 20
-1.693091796197624
 30
0.0
 10
-35.42043558299827
 20
-2.185050422500254
 30
0.0
 10
-35.12472165723472
 20
-2.346686727053363
 30
0.0
 10
-34.53061537724051
 20
-2.665576441428801
 30
0.0
 10
-34.23220686614644
 20
-2.822824483067151
 30
0.0
 10
-33.63528482423494
 20
-3.131526296353858
 30
0.0
 10
-33.33677383883334
 20
-3.282978747742074
 30
0.0
 10
-32.74226063918431
 20
-3.578786743402404
 30
0.0
 10
-32.44673687711435
 20
-3.723076103138986
 30
0.0
 10
-31.55373407013386
 20
-4.14570515225617
 30
0.0
 10
-30.95432680798171
 20
-4.412963391108129
 30
0.0
 10
-29.76824213279104
 20
-4.909308632513675
 30
0.0
 10
-29.17132537302709
 20
-5.139856282232675
 30
0.0
 10
-28.57500000000953
 20
-5.349418395642523
 30
0.0
1001
PE_URL
1000

  0
SPLINE
  5
236
330
1F
100
AcDbEntity
  8
0
  6
Continuous
 62
     1
370
    15
100
AcDbSpline
210
0.0
220
0.0
230
1.0
 70
     8
 71
     3
 72
    12
 73
     8
 74
     0
 42
0.000000001
 43
0.00000001
 40
0.0
 40
0.0
 40
0.0
 40
0.0
 40
0.1486875675189161
 40
0.3615172225481154
 40
0.5743460159067577
 40
0.7871736931466897
 40
1.0
 40
1.0
 40
1.0
 40
1.0
 10
-40.39044881182564
 20
0.6408780103891445
 30
0.0
 10
-39.80484481615856
 20
0.4060269411410431
 30
0.0
 10
-38.38101407119929
 20
-0.1649872174988722
 30
0.0
 10
-36.11896074136432
 20
-1.080889097149431
 30
0.0
 10
-33.60429354753771
 20
-2.042405004919388
 30
0.0
 10
-31.08964077901314
 20
-2.922675221503034
 30
0.0
 10
-29.41321179392505
 20
-3.389642852992633
 30
0.0
 10
-28.575
 20
-3.623125917039786
 30
0.0
1001
PE_URL
1000

  0
SPLINE
  5
237
330
1F
100
AcDbEntity
  8
외형선
  6
Continuous
370
    15
100
AcDbSpline
210
0.0
220
0.0
230
1.0
 70
    24
 71
     3
 72
    10
 73
     6
 74
     0
 42
0.000000001
 43
0.00000001
 40
0.0
 40
0.0
 40
0.0
 40
0.0
 40
0.5
 40
0.5
 40
1.0
 40
1.0
 40
1.0
 40
1.0
 10
-28.575
 20
-5.349418395645873
 30
0.0
 10
-28.575
 20
-5.145661846799101
 30
0.0
 10
-28.575
 20
-4.87994848012497
 30
0.0
 10
-28.575
 20
-4.28057002376633
 30
0.0
 10
-28.575
 20
-3.94877608866247
 30
0.0
 10
-28.575
 20
-3.623125917039786
 30
0.0
  0
SPLINE
  5
238
330
1F
100
AcDbEntity
  8
0
  6
Continuous
 62
     1
370
    15
100
AcDbSpline
210
0.0
220
0.0
230
1.0
 70
     8
 71
     3
 72
    52
 73
    48
 74
     0
 42
0.000000001
 43
0.00000001
 40
0.0
 40
0.0
 40
0.0
 40
0.0
 40
0.0625000000000002
 40
0.0625000000000002
 40
0.0937500000000003
 40
0.0937500000000003
 40
0.1250000000000004
 40
0.1250000000000004
 40
0.1562500000000005
 40
0.1562500000000005
 40
0.1875000000000006
 40
0.1875000000000006
 40
0.2500000000000004
 40
0.2500000000000004
 40
0.2812500000000004
 40
0.2812500000000004
 40
0.3125000000000003
 40
0.3125000000000003
 40
0.3749999999999998
 40
0.3749999999999998
 40
0.4062499999999996
 40
0.4062499999999996
 40
0.4374999999999994
 40
0.4374999999999994
 40
0.4999999999999992
 40
0.4999999999999992
 40
0.5312499999999992
 40
0.5312499999999992
 40
0.5624999999999992
 40
0.5624999999999992
 40
0.6249999999999992
 40
0.6249999999999992
 40
0.6874999999999992
 40
0.6874999999999992
 40
0.7499999999999991
 40
0.7499999999999991
 40
0.7812499999999992
 40
0.7812499999999992
 40
0.8124999999999993
 40
0.8124999999999993
 40
0.8437499999999994
 40
0.8437499999999994
 40
0.8749999999999996
 40
0.8749999999999996
 40
0.9374999999999998
 40
0.9374999999999998
 40
1.0
 40
1.0
 40
1.0
 40
1.0
 10
-57.15
 20
6.402385427098949
 30
0.0
 10
-56.55797004557749
 20
6.294164639024807
 30
0.0
 10
-55.95879871947402
 20
6.160535691057465
 30
0.0
 10
-55.0649648757097
 20
5.925235781998722
 30
0.0
 10
-54.76897225317518
 20
5.841137210959651
 30
0.0
 10
-54.17527134368398
 20
5.661612323869839
 30
0.0
 10
-53.87697209920898
 20
5.566109050114051
 30
0.0
 10
-53.28007857969813
 20
5.36439743615346
 30
0.0
 10
-52.98148684922859
 20
5.258189935751098
 30
0.0
 10
-52.38662449397337
 20
5.036036288708274
 30
0.0
 10
-52.09117464401324
 20
4.920212244969729
 30
0.0
 10
-51.19863450021853
 20
4.557931431329919
 30
0.0
 10
-50.59915654639219
 20
4.297030315272284
 30
0.0
 10
-49.70892437702146
 20
3.883491103217626
 30
0.0
 10
-49.41275547768447
 20
3.741833024176959
 30
0.0
 10
-48.81675055179072
 20
3.450923626746341
 30
0.0
 10
-48.51797191983627
 20
3.301835253488715
 30
0.0
 10
-47.62323224121671
 20
2.845619555329229
 30
0.0
 10
-47.03216603700009
 20
2.53014749097753
 30
0.0
 10
-46.13721580800998
 20
2.042556101039537
 30
0.0
 10
-45.83846181734532
 20
1.877794383744206
 30
0.0
 10
-45.24269510663574
 20
1.545256798794252
 30
0.0
 10
-44.94685414388328
 20
1.377705032065361
 30
0.0
 10
-44.05599369218388
 20
0.8709021249810682
 30
0.0
 10
-43.45647288161581
 20
0.5272520246388623
 30
0.0
 10
-42.56443613343848
 20
0.0120790232434409
 30
0.0
 10
-42.26896164579571
 20
-0.1594638521676899
 30
0.0
 10
-41.67377726479417
 20
-0.5027208612299496
 30
0.0
 10
-41.37511853156049
 20
-0.6742315527253773
 30
0.0
 10
-40.47986219662086
 20
-1.186153267244617
 30
0.0
 10
-39.88852322004412
 20
-1.523096906569048
 30
0.0
 10
-38.69629562716794
 20
-2.184330547968543
 30
0.0
 10
-38.09825440468958
 20
-2.508038306011766
 30
0.0
 10
-36.91319147889088
 20
-3.131543048244428
 30
0.0
 10
-36.31389164576136
 20
-3.433469469057009
 30
0.0
 10
-35.42043558299495
 20
-3.863634266699894
 30
0.0
 10
-35.12472165723136
 20
-4.003070488495041
 30
0.0
 10
-34.53061537723704
 20
-4.274322122269613
 30
0.0
 10
-34.23220686614292
 20
-4.40612604787778
 30
0.0
 10
-33.63528482423132
 20
-4.660897377160321
 30
0.0
 10
-33.33677383882969
 20
-4.783863688533255
 30
0.0
 10
-32.74226063918059
 20
-5.019918762906418
 30
0.0
 10
-32.44673687711058
 20
-5.132962855512829
 30
0.0
 10
-31.55373407012993
 20
-5.45760977650961
 30
0.0
 10
-30.95432680797768
 20
-5.654007265156789
 30
0.0
 10
-29.76824213278689
 20
-6.000058717216909
 30
0.0
 10
-29.1713253730228
 20
-6.150753356308961
 30
0.0
 10
-28.57500000000516
 20
-6.276860801109137
 30
0.0
1001
PE_URL
1000

  0
SPLINE
  5
239
330
1F
100
AcDbEntity
  8
0
  6
Continuous
 62
     1
370
    15
100
AcDbSpline
210
0.0
220
0.0
230
1.0
 70
     8
 71
     3
 72
    14
 73
    10
 74
     0
 42
0.000000001
 43
0.00000001
 40
0.0
 40
0.0
 40
0.0
 40
0.0
 40
0.1523339349426184
 40
0.3046942475185555
 40
0.4570752235586293
 40
0.6094711134301767
 40
0.7618761418529354
 40
0.9142845178094139
 40
1.0
 40
1.0
 40
1.0
 40
1.0
 10
-57.15
 20
5.323097246159282
 30
0.0
 10
-56.26133675223894
 20
5.134006358573846
 30
0.0
 10
-54.48385637876896
 20
4.755791841058997
 30
0.0
 10
-51.81734702576814
 20
3.867896600080147
 30
0.0
 10
-49.15043040476834
 20
2.799471417177294
 30
0.0
 10
-46.48320546483841
 20
1.579521738188877
 30
0.0
 10
-43.81582378632289
 20
0.282771221139992
 30
0.0
 10
-41.53736708832049
 20
-0.8495547200696123
 30
0.0
 10
-40.14823715953361
 20
-1.496861587288105
 30
0.0
 10
-39.64820351066755
 20
-1.729867304063635
 30
0.0
1001
PE_URL
1000

  0
LINE
  5
23A
330
1F
100
AcDbEntity
  8
0
  6
Continuous
 62
     1
370
    15
100
AcDbLine
 10
-57.15
 20
6.402385427098949
 30
0.0
 11
-57.15
 21
5.323097246159282
 31
0.0
1001
PE_URL
1000

  0
LINE
  5
23B
330
1F
100
AcDbEntity
  8
0
  6
Continuous
 62
     1
370
    15
100
AcDbLine
 10
-57.15
 20
6.741172644002475
 30
0.0
 11
-57.15
 21
6.402385427098949
 31
0.0
1001
PE_URL
1000

  0
SPLINE
  5
23C
330
1F
100
AcDbEntity
  8
0
  6
Continuous
 62
     1
370
    15
100
AcDbSpline
210
0.0
220
0.0
230
1.0
 70
     8
 71
     3
 72
     8
 73
     4
 74
     0
 42
0.000000001
 43
0.00000001
 40
0.0
 40
0.0
 40
0.0
 40
0.0
 40
1.0
 40
1.0
 40
1.0
 40
1.0
 10
-52.975553691047
 20
-1.887018141605719
 30
0.0
 10
-52.73654544043823
 20
-2.170132812092756
 30
0.0
 10
-52.52232760535043
 20
-2.443548727918422
 30
0.0
 10
-52.33949998003536
 20
-2.704683851471852
 30
0.0
1001
PE_URL
1000

  0
LINE
  5
23D
330
1F
100
AcDbEntity
  8
0
  6
Continuous
 62
     1
370
    15
100
AcDbLine
 10
-52.42480231898791
 20
-2.77626101262554
 30
0.0
 11
-57.15
 21
-0.0000000000000284
 31
0.0
1001
PE_URL
1000

  0
LINE
  5
23E
330
1F
100
AcDbEntity
  8
0
  6
Continuous
 62
     1
370
    15
100
AcDbLine
 10
-57.15
 20
-0.0000000000000284
 30
0.0
 11
-57.15
 21
1.803054751493733
 31
0.0
1001
PE_URL
1000

  0
SPLINE
  5
23F
330
1F
100
AcDbEntity
  8
0
  6
Continuous
 62
     1
370
    15
100
AcDbSpline
210
0.0
220
0.0
230
1.0
 70
     8
 71
     3
 72
    12
 73
     8
 74
     0
 42
0.000000001
 43
0.00000001
 40
0.0
 40
0.0
 40
0.0
 40
0.0
 40
0.4999999999999993
 40
0.4999999999999993
 40
0.7499999999999997
 40
0.7499999999999997
 40
1.0
 40
1.0
 40
1.0
 40
1.0
 10
-57.15
 20
1.803054751493729
 30
0.0
 10
-56.42739085219373
 20
1.234963092360111
 30
0.0
 10
-55.71685161155764
 20
0.6435812161933434
 30
0.0
 10
-54.66961841837202
 20
-0.2793353976624005
 30
0.0
 10
-54.32368647648435
 20
-0.5930444160974808
 30
0.0
 10
-53.63888802874786
 20
-1.234095991027132
 30
0.0
 10
-53.3018836946502
 20
-1.559784429718633
 30
0.0
 10
-52.975553691047
 20
-1.887018141605722
 30
0.0
1001
PE_URL
1000

  0
SPLINE
  5
240
330
1F
100
AcDbEntity
  8
0
  6
Continuous
 62
     1
370
    15
100
AcDbSpline
210
0.0
220
0.0
230
1.0
 70
     8
 71
     3
 72
    13
 73
     9
 74
     0
 42
0.000000001
 43
0.00000001
 40
0.0
 40
0.0
 40
0.0
 40
0.0
 40
0.1758687999944415
 40
0.3516975556766836
 40
0.5274856703110398
 40
0.7033116734068013
 40
0.8791785527243431
 40
1.0
 40
1.0
 40
1.0
 40
1.0
 10
-52.975553691047
 20
-1.887018141605711
 30
0.0
 10
-52.06455052992608
 20
-2.271273625324554
 30
0.0
 10
-50.24275163785378
 20
-3.039697100003128
 30
0.0
 10
-47.51045767623989
 20
-3.998699013024645
 30
0.0
 10
-44.77851980539052
 20
-4.750318055361479
 30
0.0
 10
-42.04625903769541
 20
-5.230705096612262
 30
0.0
 10
-39.59862562577687
 20
-5.441730904350038
 30
0.0
 10
-38.06178588861541
 20
-5.363244768242613
 30
0.0
 10
-37.43593315147964
 20
-5.331282578612633
 30
0.0
1001
PE_URL
1000

  0
LINE
  5
241
330
1F
100
AcDbEntity
  8
0
  6
Continuous
 62
     1
370
    15
100
AcDbLine
 10
-57.15
 20
5.323097246159278
 30
0.0
 11
-57.15
 21
1.803054751493733
 31
0.0
1001
PE_URL
1000

  0
SPLINE
  5
242
330
1F
100
AcDbEntity
  8
0
  6
Continuous
 62
     1
370
    15
100
AcDbSpline
210
0.0
220
0.0
230
1.0
 70
    24
 71
     3
 72
     8
 73
     4
 74
     0
 42
0.000000001
 43
0.00000001
 40
0.0
 40
0.0
 40
0.0
 40
0.0
 40
1.0
 40
1.0
 40
1.0
 40
1.0
 10
-53.04322168957208
 20
-3.295176478395359
 30
0.0
 10
-52.82069297300669
 20
-3.10845271439899
 30
0.0
 10
-52.5853623703213
 20
-2.910986892481187
 30
0.0
 10
-52.33949998003531
 20
-2.704683851471845
 30
0.0
1001
PE_URL
1000

  0
LINE
  5
243
330
1F
100
AcDbEntity
  8
0
  6
Continuous
 62
     1
370
    15
100
AcDbLine
 10
-57.15
 20
-4.722812500000025
 30
0.0
 11
-54.64127929288371
 21
-4.607608572108443
 31
0.0
1001
PE_URL
1000

  0
SPLINE
  5
244
330
1F
100
AcDbEntity
  8
0
  6
Continuous
 62
     1
370
    15
100
AcDbSpline
210
0.0
220
0.0
230
1.0
 70
     8
 71
     3
 72
    10
 73
     6
 74
     0
 42
0.000000001
 43
0.00000001
 40
0.0
 40
0.0
 40
0.0
 40
0.0
 40
0.5
 40
0.5
 40
1.0
 40
1.0
 40
1.0
 40
1.0
 10
-57.15
 20
-4.722812500000028
 30
0.0
 10
-56.45603786121974
 20
-4.534600018222491
 30
0.0
 10
-55.76585409113817
 20
-4.323150383715685
 30
0.0
 10
-54.39557666373035
 20
-3.850243245003465
 30
0.0
 10
-53.7151317269221
 20
-3.58924944811951
 30
0.0
 10
-53.04322168957191
 20
-3.295176478395458
 30
0.0
1001
PE_URL
1000

  0
SPLINE
  5
245
330
1F
100
AcDbEntity
  8
0
  6
Continuous
 62
     1
370
    15
100
AcDbSpline
210
0.0
220
0.0
230
1.0
 70
     8
 71
     3
 72
    13
 73
     9
 74
     0
 42
0.000000001
 43
0.00000001
 40
0.0
 40
0.0
 40
0.0
 40
0.0
 40
0.0577036310874585
 40
0.2488687101939397
 40
0.4366444293365119
 40
0.6244308954969477
 40
0.8122190923269627
 40
1.0
 40
1.0
 40
1.0
 40
1.0
 10
-42.87137913792114
 20
5.043496776842645
 30
0.0
 10
-42.59640517166801
 20
5.095158605898284
 30
0.0
 10
-41.4104760537134
 20
5.317969762164182
 30
0.0
 10
-39.32963503570355
 20
5.427851149265589
 30
0.0
 10
-36.62894141524419
 20
5.355824134422488
 30
0.0
 10
-33.94429416993196
 20
4.979912807196243
 30
0.0
 10
-31.25962365568032
 20
4.360665300707254
 30
0.0
 10
-29.46986297315741
 20
3.761747517516035
 30
0.0
 10
-28.575
 20
3.462294437907733
 30
0.0
1001
PE_URL
1000

  0
SPLINE
  5
246
330
1F
100
AcDbEntity
  8
외형선
  6
Continuous
370
    15
100
AcDbSpline
210
0.0
220
0.0
230
1.0
 70
    24
 71
     3
 72
    14
 73
    10
 74
     0
 42
0.000000001
 43
0.00000001
 40
0.0
 40
0.0
 40
0.0
 40
0.0
 40
0.25
 40
0.25
 40
0.5
 40
0.5
 40
0.75
 40
0.75
 40
1.0
 40
1.0
 40
1.0
 40
1.0
 10
-28.575
 20
-3.623125917039786
 30
0.0
 10
-28.575
 20
-3.150919347583155
 30
0.0
 10
-28.575
 20
-2.61864088645445
 30
0.0
 10
-28.575
 20
-1.469582795458294
 30
0.0
 10
-28.575
 20
-0.8531974500548003
 30
0.0
 10
-28.575
 20
0.4060860275536307
 30
0.0
 10
-28.575
 20
1.048313160873299
 30
0.0
 10
-28.575
 20
2.295836813478743
 30
0.0
 10
-28.575
 20
2.900600748106328
 30
0.0
 10
-28.575
 20
3.462294437907733
 30
0.0
  0
SPLINE
  5
247
330
1F
100
AcDbEntity
  8
외형선
  6
Continuous
370
    15
100
AcDbSpline
210
0.0
220
0.0
230
1.0
 70
    24
 71
     3
 72
    13
 73
     9
 74
     0
 42
0.000000001
 43
0.00000001
 40
0.0
 40
0.0
 40
0.0
 40
0.0
 40
0.1497317847472523
 40
0.2994635694945048
 40
0.5183000777560042
 40
0.7434828595821255
 40
0.9410018190662361
 40
1.0
 40
1.0
 40
1.0
 40
1.0
 10
-28.575
 20
3.462294437907733
 30
0.0
 10
-28.575
 20
3.649016762726713
 30
0.0
 10
-28.575
 20
4.022461412364674
 30
0.0
 10
-28.575
 20
4.55876729457222
 30
0.0
 10
-28.575
 20
5.048576163731518
 30
0.0
 10
-28.575
 20
5.370165942760956
 30
0.0
 10
-28.575
 20
5.507655585165594
 30
0.0
 10
-28.575
 20
5.484357983342569
 30
0.0
 10
-28.575
 20
5.478999604072328
 30
0.0
  0
LINE
  5
248
330
1F
100
AcDbEntity
  8
0
  6
Continuous
 62
     1
370
    15
100
AcDbLine
 10
-57.15
 20
-0.0000000000000284
 30
0.0
 11
-57.15
 21
-4.722812500000028
 31
0.0
1001
PE_URL
1000

  0
SPLINE
  5
249
330
1F
100
AcDbEntity
  8
0
  6
Continuous
 62
     1
370
    15
100
AcDbSpline
210
0.0
220
0.0
230
1.0
 70
     8
 71
     3
 72
    12
 73
     8
 74
     0
 42
0.000000001
 43
0.00000001
 40
0.0
 40
0.0
 40
0.0
 40
0.0
 40
0.0941972567000042
 40
0.3205738204008906
 40
0.5469710088778401
 40
0.7734320755133257
 40
1.0
 40
1.0
 40
1.0
 40
1.0
 10
-47.8972498626934
 20
-4.521094207391673
 30
0.0
 10
-48.18776687919885
 20
-4.649420116097332
 30
0.0
 10
-49.17645968337705
 20
-5.086141186873341
 30
0.0
 10
-50.86332866685439
 20
-5.672593599457578
 30
0.0
 10
-52.9581633317789
 20
-6.24717728924778
 30
0.0
 10
-55.05368197034169
 20
-6.628354498115701
 30
0.0
 10
-56.4511174504549
 20
-6.703560682307394
 30
0.0
 10
-57.14999999999999
 20
-6.741172644002528
 30
0.0
1001
PE_URL
1000

  0
LINE
  5
24A
330
1F
100
AcDbEntity
  8
0
  6
Continuous
 62
     1
370
    15
100
AcDbLine
 10
-57.15
 20
-4.722812500000028
 30
0.0
 11
-57.14999999999999
 21
-6.741172644002528
 31
0.0
1001
PE_URL
1000

  0
SPLINE
  5
24B
330
1F
100
AcDbEntity
  8
0
  6
Continuous
 62
     1
370
    15
100
AcDbSpline
210
0.0
220
0.0
230
1.0
 70
     8
 71
     3
 72
     9
 73
     5
 74
     0
 42
0.000000001
 43
0.00000001
 40
0.0
 40
0.0
 40
0.0
 40
0.0
 40
0.3725294265832789
 40
1.0
 40
1.0
 40
1.0
 40
1.0
 10
-31.91420140297602
 20
5.304189466586614
 30
0.0
 10
-31.4995226580693
 20
5.454557964296299
 30
0.0
 10
-30.3863790637229
 20
5.858199896931847
 30
0.0
 10
-29.27337641205903
 20
6.115446271161723
 30
0.0
 10
-28.57500000000517
 20
6.276860801109116
 30
0.0
1001
PE_URL
1000

  0
SPLINE
  5
24C
330
1F
100
AcDbEntity
  8
외형선
  6
Continuous
370
    15
100
AcDbSpline
210
0.0
220
0.0
230
1.0
 70
    24
 71
     3
 72
    10
 73
     6
 74
     0
 42
0.000000001
 43
0.00000001
 40
0.0
 40
0.0
 40
0.0
 40
0.0
 40
0.3948816373789398
 40
0.8448163794431797
 40
1.0
 40
1.0
 40
1.0
 40
1.0
 10
-28.575
 20
5.497069552047414
 30
0.0
 10
-28.575
 20
5.605020488413324
 30
0.0
 10
-28.575
 20
5.835972527164696
 30
0.0
 10
-28.575
 20
6.091250021177437
 30
0.0
 10
-28.575
 20
6.238976179614003
 30
0.0
 10
-28.575
 20
6.276860801091757
 30
0.0
  0
LINE
  5
24D
330
1F
100
AcDbEntity
  8
외형선
  6
Continuous
370
    15
100
AcDbLine
 10
-6.743699999999951
 20
7.937499999999991
 30
0.0
 11
-23.13152700723832
 21
7.93749999999999
 31
0.0
  0
ENDSEC
  0
SECTION
  2
OBJECTS
  0
DICTIONARY
  5
C
330
0
100
AcDbDictionary
281
     1
  3
ACAD_GROUP
350
D
  3
ACAD_LAYOUT
350
1A
  3
ACAD_MLINESTYLE
350
17
  3
ACAD_PLOTSETTINGS
350
19
  3
ACAD_PLOTSTYLENAME
350
E
  3
ACAD_SCALELIST
350
47
  3
APPDATA
350
159
  3
DWGPROPS
350
24F
  0
DICTIONARY
  5
192
330
2
100
AcDbDictionary
280
     1
281
     1
  3
ACAD_LAYERSTATES
360
193
  0
DICTIONARY
  5
D
102
{ACAD_REACTORS
330
C
102
}
330
C
100
AcDbDictionary
281
     1
  0
DICTIONARY
  5
1A
102
{ACAD_REACTORS
330
C
102
}
330
C
100
AcDbDictionary
281
     1
  3
Layout1
350
1E
  3
Layout2
350
26
  3
Model
350
22
  0
DICTIONARY
  5
17
102
{ACAD_REACTORS
330
C
102
}
330
C
100
AcDbDictionary
281
     1
  3
Standard
350
18
  0
DICTIONARY
  5
19
102
{ACAD_REACTORS
330
C
102
}
330
C
100
AcDbDictionary
281
     1
  0
ACDBDICTIONARYWDFLT
  5
E
102
{ACAD_REACTORS
330
C
102
}
330
C
100
AcDbDictionary
281
     1
  3
Normal
350
F
100
AcDbDictionaryWithDefault
340
F
  0
DICTIONARY
  5
47
102
{ACAD_REACTORS
330
C
102
}
330
C
100
AcDbDictionary
281
     1
  3
A0
350
48
  3
A1
350
49
  3
A2
350
4A
  3
A3
350
4B
  3
A4
350
4C
  3
A5
350
4D
  3
A6
350
4E
  3
A7
350
4F
  3
A8
350
50
  3
A9
350
51
  3
B0
350
52
  3
B1
350
53
  3
B2
350
54
  3
B3
350
55
  3
B4
350
56
  3
B5
350
57
  3
B6
350
58
  3
B7
350
59
  3
B8
350
5A
  3
B9
350
5B
  3
C0
350
5C
  3
C1
350
5D
  3
C2
350
5E
  3
C3
350
5F
  3
C4
350
60
  3
C5
350
61
  3
C6
350
62
  3
C7
350
63
  3
C8
350
64
  3
C9
350
65
  3
D0
350
66
  3
D1
350
67
  3
D2
350
68
  0
DICTIONARY
  5
159
102
{ACAD_REACTORS
330
C
102
}
330
C
100
AcDbDictionary
281
     1
  0
XRECORD
  5
24F
102
{ACAD_REACTORS
330
C
102
}
330
C
100
AcDbXrecord
280
     1
  1
DWGPROPS COOKIE
  2

  3

  4

  6

  7

  8
120170442
  9

300
=
301
=
302
=
303
=
304
=
305
=
306
=
307
=
308
=
309
=
 40
0.0
 41
2458313.024064919
 42
2458324.068338912
  1

 90
        0
  0
DICTIONARY
  5
193
102
{ACAD_REACTORS
330
192
102
}
330
192
100
AcDbDictionary
281
     1
  0
LAYOUT
  5
1E
102
{ACAD_REACTORS
330
1A
102
}
330
1A
100
AcDbPlotSettings
  1

  2
none_device
  4

  6

 40
0.0
 41
0.0
 42
0.0
 43
0.0
 44
0.0
 45
0.0
 46
0.0
 47
0.0
 48
0.0
 49
0.0
140
0.0
141
0.0
142
1.0
143
1.0
 70
   688
 72
     1
 73
     0
 74
     5
  7

 75
    16
147
1.0
148
0.0
149
0.0
100
AcDbLayout
  1
Layout1
 70
     1
 71
     1
 10
0.0
 20
0.0
 11
420.0
 21
297.0
 12
0.0
 22
0.0
 32
0.0
 14
1.000000000000000E+20
 24
1.000000000000000E+20
 34
1.000000000000000E+20
 15
-1.000000000000000E+20
 25
-1.000000000000000E+20
 35
-1.000000000000000E+20
146
0.0
 13
0.0
 23
0.0
 33
0.0
 16
1.0
 26
0.0
 36
0.0
 17
0.0
 27
1.0
 37
0.0
 76
     0
330
1B
  0
LAYOUT
  5
26
102
{ACAD_REACTORS
330
1A
102
}
330
1A
100
AcDbPlotSettings
  1

  2
none_device
  4

  6

 40
0.0
 41
0.0
 42
0.0
 43
0.0
 44
0.0
 45
0.0
 46
0.0
 47
0.0
 48
0.0
 49
0.0
140
0.0
141
0.0
142
1.0
143
1.0
 70
   688
 72
     1
 73
     0
 74
     5
  7

 75
    16
147
1.0
148
0.0
149
0.0
100
AcDbLayout
  1
Layout2
 70
     1
 71
     2
 10
0.0
 20
0.0
 11
0.0
 21
0.0
 12
0.0
 22
0.0
 32
0.0
 14
0.0
 24
0.0
 34
0.0
 15
0.0
 25
0.0
 35
0.0
146
0.0
 13
0.0
 23
0.0
 33
0.0
 16
1.0
 26
0.0
 36
0.0
 17
0.0
 27
1.0
 37
0.0
 76
     0
330
23
  0
LAYOUT
  5
22
102
{ACAD_REACTORS
330
1A
102
}
330
1A
100
AcDbPlotSettings
  1

  2
none_device
  4
ANSI_A_(11.00_x_8.50_Inches)
  6

 40
6.35
 41
19.05
 42
6.35000508
 43
19.05000254
 44
279.4
 45
215.9
 46
60.05458028439221
 47
46.23701196468787
 48
0.0
 49
0.0
140
0.0
141
0.0
142
0.0259721867714998
143
1.0
 70
  1696
 72
     0
 73
     0
 74
     0
  7

 75
     0
147
0.0235690232323232
148
0.0
149
0.0
100
AcDbLayout
  1
Model
 70
     1
 71
     0
 10
0.0
 20
0.0
 11
420.0
 21
297.0
 12
0.0
 22
0.0
 32
0.0
 14
-76.52500000000009
 24
-49.97180738881174
 34
0.0
 15
99.38162503295504
 25
45.72017264400257
 35
0.0
146
0.0
 13
0.0
 23
0.0
 33
0.0
 16
1.0
 26
0.0
 36
0.0
 17
0.0
 27
1.0
 37
0.0
 76
     0
330
1F
331
29
  0
MLINESTYLE
  5
18
102
{ACAD_REACTORS
330
17
102
}
330
17
100
AcDbMlineStyle
  2
Standard
 70
     0
  3

 62
   256
 51
90.0
 52
90.0
 71
     2
 49
0.5
 62
   256
  6
BYLAYER
 49
-0.5
 62
   256
  6
BYLAYER
  0
ACDBPLACEHOLDER
  5
F
102
{ACAD_REACTORS
330
E
102
}
330
E
  0
SCALE
  5
48
102
{ACAD_REACTORS
330
47
102
}
330
47
100
AcDbScale
 70
     0
300
1:1
140
1.0
141
1.0
290
     1
  0
SCALE
  5
49
102
{ACAD_REACTORS
330
47
102
}
330
47
100
AcDbScale
 70
     0
300
1:2
140
1.0
141
2.0
290
     0
  0
SCALE
  5
4A
102
{ACAD_REACTORS
330
47
102
}
330
47
100
AcDbScale
 70
     0
300
1:4
140
1.0
141
4.0
290
     0
  0
SCALE
  5
4B
102
{ACAD_REACTORS
330
47
102
}
330
47
100
AcDbScale
 70
     0
300
1:5
140
1.0
141
5.0
290
     0
  0
SCALE
  5
4C
102
{ACAD_REACTORS
330
47
102
}
330
47
100
AcDbScale
 70
     0
300
1:8
140
1.0
141
8.0
290
     0
  0
SCALE
  5
4D
102
{ACAD_REACTORS
330
47
102
}
330
47
100
AcDbScale
 70
     0
300
1:10
140
1.0
141
10.0
290
     0
  0
SCALE
  5
4E
102
{ACAD_REACTORS
330
47
102
}
330
47
100
AcDbScale
 70
     0
300
1:16
140
1.0
141
16.0
290
     0
  0
SCALE
  5
4F
102
{ACAD_REACTORS
330
47
102
}
330
47
100
AcDbScale
 70
     0
300
1:20
140
1.0
141
20.0
290
     0
  0
SCALE
  5
50
102
{ACAD_REACTORS
330
47
102
}
330
47
100
AcDbScale
 70
     0
300
1:30
140
1.0
141
30.0
290
     0
  0
SCALE
  5
51
102
{ACAD_REACTORS
330
47
102
}
330
47
100
AcDbScale
 70
     0
300
1:40
140
1.0
141
40.0
290
     0
  0
SCALE
  5
52
102
{ACAD_REACTORS
330
47
102
}
330
47
100
AcDbScale
 70
     0
300
1:50
140
1.0
141
50.0
290
     0
  0
SCALE
  5
53
102
{ACAD_REACTORS
330
47
102
}
330
47
100
AcDbScale
 70
     0
300
1:100
140
1.0
141
100.0
290
     0
  0
SCALE
  5
54
102
{ACAD_REACTORS
330
47
102
}
330
47
100
AcDbScale
 70
     0
300
2:1
140
2.0
141
1.0
290
     0
  0
SCALE
  5
55
102
{ACAD_REACTORS
330
47
102
}
330
47
100
AcDbScale
 70
     0
300
4:1
140
4.0
141
1.0
290
     0
  0
SCALE
  5
56
102
{ACAD_REACTORS
330
47
102
}
330
47
100
AcDbScale
 70
     0
300
8:1
140
8.0
141
1.0
290
     0
  0
SCALE
  5
57
102
{ACAD_REACTORS
330
47
102
}
330
47
100
AcDbScale
 70
     0
300
10:1
140
10.0
141
1.0
290
     0
  0
SCALE
  5
58
102
{ACAD_REACTORS
330
47
102
}
330
47
100
AcDbScale
 70
     0
300
100:1
140
100.0
141
1.0
290
     0
  0
SCALE
  5
59
102
{ACAD_REACTORS
330
47
102
}
330
47
100
AcDbScale
 70
     0
300
1/128" = 1'-0"
140
0.0078125
141
12.0
290
     0
  0
SCALE
  5
5A
102
{ACAD_REACTORS
330
47
102
}
330
47
100
AcDbScale
 70
     0
300
1/64" = 1'-0"
140
0.015625
141
12.0
290
     0
  0
SCALE
  5
5B
102
{ACAD_REACTORS
330
47
102
}
330
47
100
AcDbScale
 70
     0
300
1/32" = 1'-0"
140
0.03125
141
12.0
290
     0
  0
SCALE
  5
5C
102
{ACAD_REACTORS
330
47
102
}
330
47
100
AcDbScale
 70
     0
300
1/16" = 1'-0"
140
0.0625
141
12.0
290
     0
  0
SCALE
  5
5D
102
{ACAD_REACTORS
330
47
102
}
330
47
100
AcDbScale
 70
     0
300
3/32" = 1'-0"
140
0.09375
141
12.0
290
     0
  0
SCALE
  5
5E
102
{ACAD_REACTORS
330
47
102
}
330
47
100
AcDbScale
 70
     0
300
1/8" = 1'-0"
140
0.125
141
12.0
290
     0
  0
SCALE
  5
5F
102
{ACAD_REACTORS
330
47
102
}
330
47
100
AcDbScale
 70
     0
300
3/16" = 1'-0"
140
0.1875
141
12.0
290
     0
  0
SCALE
  5
60
102
{ACAD_REACTORS
330
47
102
}
330
47
100
AcDbScale
 70
     0
300
1/4" = 1'-0"
140
0.25
141
12.0
290
     0
  0
SCALE
  5
61
102
{ACAD_REACTORS
330
47
102
}
330
47
100
AcDbScale
 70
     0
300
3/8" = 1'-0"
140
0.375
141
12.0
290
     0
  0
SCALE
  5
62
102
{ACAD_REACTORS
330
47
102
}
330
47
100
AcDbScale
 70
     0
300
1/2" = 1'-0"
140
0.5
141
12.0
290
     0
  0
SCALE
  5
63
102
{ACAD_REACTORS
330
47
102
}
330
47
100
AcDbScale
 70
     0
300
3/4" = 1'-0"
140
0.75
141
12.0
290
     0
  0
SCALE
  5
64
102
{ACAD_REACTORS
330
47
102
}
330
47
100
AcDbScale
 70
     0
300
1" = 1'-0"
140
1.0
141
12.0
290
     0
  0
SCALE
  5
65
102
{ACAD_REACTORS
330
47
102
}
330
47
100
AcDbScale
 70
     0
300
1-1/2" = 1'-0"
140
1.5
141
12.0
290
     0
  0
SCALE
  5
66
102
{ACAD_REACTORS
330
47
102
}
330
47
100
AcDbScale
 70
     0
300
3" = 1'-0"
140
3.0
141
12.0
290
     0
  0
SCALE
  5
67
102
{ACAD_REACTORS
330
47
102
}
330
47
100
AcDbScale
 70
     0
300
6" = 1'-0"
140
6.0
141
12.0
290
     0
  0
SCALE
  5
68
102
{ACAD_REACTORS
330
47
102
}
330
47
100
AcDbScale
 70
     0
300
1'-0" = 1'-0"
140
12.0
141
12.0
290
     0
  0
ENDSEC
  0
EOF
