  0
SECTION
  2
HEADER
  9
$ACADVER
  1
AC1015
  9
$ACADMAINTVER
 70
     6
  9
$DWGCODEPAGE
  3
ANSI_949
  9
$INSBASE
 10
0.0
 20
0.0
 30
0.0
  9
$EXTMIN
 10
-62.00000000000009
 20
-49.97180738881175
 30
0.0
  9
$EXTMAX
 10
97.79412503295505
 20
39.86025000000016
 30
0.0
  9
$LIMMIN
 10
0.0
 20
0.0
  9
$LIMMAX
 10
420.0
 20
297.0
  9
$ORTHOMODE
 70
     1
  9
$REGENMODE
 70
     1
  9
$FILLMODE
 70
     1
  9
$QTEXTMODE
 70
     0
  9
$MIRRTEXT
 70
     1
  9
$LTSCALE
 40
1.0
  9
$ATTMODE
 70
     1
  9
$TEXTSIZE
 40
3.5
  9
$TRACEWID
 40
1.0
  9
$TEXTSTYLE
  7
Standard
  9
$CLAYER
  8
0
  9
$CELTYPE
  6
ByLayer
  9
$CECOLOR
 62
   256
  9
$CELTSCALE
 40
1.0
  9
$DISPSILH
 70
     0
  9
$DIMSCALE
 40
1.0
  9
$DIMASZ
 40
3.302
  9
$DIMEXO
 40
1.0
  9
$DIMDLI
 40
3.75
  9
$DIMRND
 40
0.0
  9
$DIMDLE
 40
0.0
  9
$DIMEXE
 40
1.0
  9
$DIMTP
 40
0.0
  9
$DIMTM
 40
0.0
  9
$DIMTXT
 40
3.5
  9
$DIMCEN
 40
2.5
  9
$DIMTSZ
 40
0.0
  9
$DIMTOL
 70
     0
  9
$DIMLIM
 70
     0
  9
$DIMTIH
 70
     1
  9
$DIMTOH
 70
     1
  9
$DIMSE1
 70
     0
  9
$DIMSE2
 70
     0
  9
$DIMTAD
 70
     1
  9
$DIMZIN
 70
     0
  9
$DIMBLK
  1

  9
$DIMASO
 70
     1
  9
$DIMSHO
 70
     1
  9
$DIMPOST
  1

  9
$DIMAPOST
  1

  9
$DIMALT
 70
     0
  9
$DIMALTD
 70
     3
  9
$DIMALTF
 40
0.0393700787401575
  9
$DIMLFAC
 40
1.0
  9
$DIMTOFL
 70
     1
  9
$DIMTVP
 40
0.0
  9
$DIMTIX
 70
     0
  9
$DIMSOXD
 70
     0
  9
$DIMSAH
 70
     0
  9
$DIMBLK1
  1

  9
$DIMBLK2
  1

  9
$DIMSTYLE
  2
ISO-25
  9
$DIMCLRD
 70
     0
  9
$DIMCLRE
 70
     0
  9
$DIMCLRT
 70
     0
  9
$DIMTFAC
 40
1.0
  9
$DIMGAP
 40
1.524
  9
$DIMJUST
 70
     0
  9
$DIMSD1
 70
     0
  9
$DIMSD2
 70
     0
  9
$DIMTOLJ
 70
     0
  9
$DIMTZIN
 70
     0
  9
$DIMALTZ
 70
     0
  9
$DIMALTTZ
 70
     0
  9
$DIMUPT
 70
     0
  9
$DIMDEC
 70
     2
  9
$DIMTDEC
 70
     2
  9
$DIMALTU
 70
     2
  9
$DIMALTTD
 70
     3
  9
$DIMTXSTY
  7
Standard
  9
$DIMAUNIT
 70
     0
  9
$DIMADEC
 70
     2
  9
$DIMALTRND
 40
0.0
  9
$DIMAZIN
 70
     0
  9
$DIMDSEP
 70
    44
  9
$DIMATFIT
 70
     3
  9
$DIMFRAC
 70
     0
  9
$DIMLDRBLK
  1

  9
$DIMLUNIT
 70
     2
  9
$DIMLWD
 70
    -2
  9
$DIMLWE
 70
    -2
  9
$DIMTMOVE
 70
     0
  9
$LUNITS
 70
     2
  9
$LUPREC
 70
     2
  9
$SKETCHINC
 40
1.0
  9
$FILLETRAD
 40
10.0
  9
$AUNITS
 70
     0
  9
$AUPREC
 70
     2
  9
$MENU
  1
.
  9
$ELEVATION
 40
0.0
  9
$PELEVATION
 40
0.0
  9
$THICKNESS
 40
0.0
  9
$LIMCHECK
 70
     0
  9
$CHAMFERA
 40
0.0
  9
$CHAMFERB
 40
0.0
  9
$CHAMFERC
 40
0.0
  9
$CHAMFERD
 40
0.0
  9
$SKPOLY
 70
     0
  9
$TDCREATE
 40
2458313.39885331
  9
$TDUCREATE
 40
2458313.02385331
  9
$TDUPDATE
 40
2458324.440419734
  9
$TDUUPDATE
 40
2458324.065419734
  9
$TDINDWG
 40
0.0032504398
  9
$TDUSRTIMER
 40
0.0032504282
  9
$USRTIMER
 70
     1
  9
$ANGBASE
 50
0.0
  9
$ANGDIR
 70
     0
  9
$PDMODE
 70
     0
  9
$PDSIZE
 40
-1.0
  9
$PLINEWID
 40
0.0
  9
$SPLFRAME
 70
     0
  9
$SPLINETYPE
 70
     6
  9
$SPLINESEGS
 70
     8
  9
$HANDSEED
  5
2A7
  9
$SURFTAB1
 70
     6
  9
$SURFTAB2
 70
     6
  9
$SURFTYPE
 70
     6
  9
$SURFU
 70
     6
  9
$SURFV
 70
     6
  9
$UCSBASE
  2

  9
$UCSNAME
  2

  9
$UCSORG
 10
0.0
 20
0.0
 30
0.0
  9
$UCSXDIR
 10
1.0
 20
0.0
 30
0.0
  9
$UCSYDIR
 10
0.0
 20
1.0
 30
0.0
  9
$UCSORTHOREF
  2

  9
$UCSORTHOVIEW
 70
     0
  9
$UCSORGTOP
 10
0.0
 20
0.0
 30
0.0
  9
$UCSORGBOTTOM
 10
0.0
 20
0.0
 30
0.0
  9
$UCSORGLEFT
 10
0.0
 20
0.0
 30
0.0
  9
$UCSORGRIGHT
 10
0.0
 20
0.0
 30
0.0
  9
$UCSORGFRONT
 10
0.0
 20
0.0
 30
0.0
  9
$UCSORGBACK
 10
0.0
 20
0.0
 30
0.0
  9
$PUCSBASE
  2

  9
$PUCSNAME
  2

  9
$PUCSORG
 10
0.0
 20
0.0
 30
0.0
  9
$PUCSXDIR
 10
1.0
 20
0.0
 30
0.0
  9
$PUCSYDIR
 10
0.0
 20
1.0
 30
0.0
  9
$PUCSORTHOREF
  2

  9
$PUCSORTHOVIEW
 70
     0
  9
$PUCSORGTOP
 10
0.0
 20
0.0
 30
0.0
  9
$PUCSORGBOTTOM
 10
0.0
 20
0.0
 30
0.0
  9
$PUCSORGLEFT
 10
0.0
 20
0.0
 30
0.0
  9
$PUCSORGRIGHT
 10
0.0
 20
0.0
 30
0.0
  9
$PUCSORGFRONT
 10
0.0
 20
0.0
 30
0.0
  9
$PUCSORGBACK
 10
0.0
 20
0.0
 30
0.0
  9
$USERI1
 70
     0
  9
$USERI2
 70
     0
  9
$USERI3
 70
     0
  9
$USERI4
 70
     0
  9
$USERI5
 70
     0
  9
$USERR1
 40
0.0
  9
$USERR2
 40
0.0
  9
$USERR3
 40
0.0
  9
$USERR4
 40
0.0
  9
$USERR5
 40
0.0
  9
$WORLDVIEW
 70
     1
  9
$SHADEDGE
 70
     3
  9
$SHADEDIF
 70
    70
  9
$TILEMODE
 70
     1
  9
$MAXACTVP
 70
    64
  9
$PINSBASE
 10
0.0
 20
0.0
 30
0.0
  9
$PLIMCHECK
 70
     0
  9
$PEXTMIN
 10
1.000000000000000E+20
 20
1.000000000000000E+20
 30
1.000000000000000E+20
  9
$PEXTMAX
 10
-1.000000000000000E+20
 20
-1.000000000000000E+20
 30
-1.000000000000000E+20
  9
$PLIMMIN
 10
0.0
 20
0.0
  9
$PLIMMAX
 10
0.0
 20
0.0
  9
$UNITMODE
 70
     0
  9
$VISRETAIN
 70
     1
  9
$PLINEGEN
 70
     0
  9
$PSLTSCALE
 70
     1
  9
$TREEDEPTH
 70
  3020
  9
$CMLSTYLE
  2
Standard
  9
$CMLJUST
 70
     0
  9
$CMLSCALE
 40
20.0
  9
$PROXYGRAPHICS
 70
     1
  9
$MEASUREMENT
 70
     1
  9
$CELWEIGHT
370
    -1
  9
$ENDCAPS
280
     0
  9
$JOINSTYLE
280
     0
  9
$LWDISPLAY
290
     1
  9
$INSUNITS
 70
     4
  9
$HYPERLINKBASE
  1

  9
$STYLESHEET
  1

  9
$XEDIT
290
     1
  9
$CEPSNTYPE
380
     0
  9
$PSTYLEMODE
290
     1
  9
$FINGERPRINTGUID
  2
{D4E8B0B3-5650-4E89-A787-5C8BF12B3A51}
  9
$VERSIONGUID
  2
{FAEB1C32-E019-11D5-929B-00C0DF256EC4}
  9
$EXTNAMES
290
     1
  9
$PSVPSCALE
 40
0.0
  9
$OLESTARTUP
290
     0
  0
ENDSEC
  0
SECTION
  2
CLASSES
  0
CLASS
  1
ACDBDICTIONARYWDFLT
  2
AcDbDictionaryWithDefault
  3
ObjectDBX Classes
 90
        0
280
     0
281
     0
  0
CLASS
  1
VISUALSTYLE
  2
AcDbVisualStyle
  3
ObjectDBX Classes
 90
     4095
280
     0
281
     0
  0
CLASS
  1
MATERIAL
  2
AcDbMaterial
  3
ObjectDBX Classes
 90
     1153
280
     0
281
     0
  0
CLASS
  1
SCALE
  2
AcDbScale
  3
ObjectDBX Classes
 90
     1153
280
     0
281
     0
  0
CLASS
  1
SUN
  2
AcDbSun
  3
SCENEOE
 90
     1153
280
     0
281
     0
  0
CLASS
  1
ACDBPLACEHOLDER
  2
AcDbPlaceHolder
  3
ObjectDBX Classes
 90
        0
280
     0
281
     0
  0
CLASS
  1
LAYOUT
  2
AcDbLayout
  3
ObjectDBX Classes
 90
        0
280
     0
281
     0
  0
CLASS
  1
TABLESTYLE
  2
AcDbTableStyle
  3
ObjectDBX Classes
 90
     4095
280
     0
281
     0
  0
CLASS
  1
MLEADERSTYLE
  2
AcDbMLeaderStyle
  3
ACDB_MLEADERSTYLE_CLASS
 90
     4095
280
     0
281
     0
  0
CLASS
  1
DICTIONARYVAR
  2
AcDbDictionaryVar
  3
ObjectDBX Classes
 90
        0
280
     0
281
     0
  0
ENDSEC
  0
SECTION
  2
TABLES
  0
TABLE
  2
VPORT
  5
8
330
0
100
AcDbSymbolTable
 70
     1
  0
VPORT
  5
29
330
8
100
AcDbSymbolTableRecord
100
AcDbViewportTableRecord
  2
*Active
 70
     0
 10
0.0
 20
0.0
 11
1.0
 21
1.0
 12
17.89706251647749
 22
-5.055778694405944
 13
0.0
 23
0.0
 14
10.0
 24
10.0
 15
10.0
 25
10.0
 16
0.0
 26
0.0
 36
1.0
 17
0.0
 27
0.0
 37
0.0
 40
91.62869853658785
 41
1.782762691853601
 42
50.0
 43
0.0
 44
0.0
 50
0.0
 51
0.0
 71
    16
 72
  2000
 73
     1
 74
     3
 75
     0
 76
     0
 77
     0
 78
     0
281
     0
 65
     1
110
0.0
120
0.0
130
0.0
111
1.0
121
0.0
131
0.0
112
0.0
122
1.0
132
0.0
 79
     0
146
0.0
  0
ENDTAB
  0
TABLE
  2
LTYPE
  5
5
330
0
100
AcDbSymbolTable
 70
     6
  0
LTYPE
  5
14
330
5
100
AcDbSymbolTableRecord
100
AcDbLinetypeTableRecord
  2
ByBlock
 70
     0
  3

 72
    65
 73
     0
 40
0.0
  0
LTYPE
  5
15
330
5
100
AcDbSymbolTableRecord
100
AcDbLinetypeTableRecord
  2
ByLayer
 70
     0
  3

 72
    65
 73
     0
 40
0.0
  0
LTYPE
  5
16
330
5
100
AcDbSymbolTableRecord
100
AcDbLinetypeTableRecord
  2
Continuous
 70
     0
  3
Solid line
 72
    65
 73
     0
 40
0.0
  0
LTYPE
  5
6A
330
5
100
AcDbSymbolTableRecord
100
AcDbLinetypeTableRecord
  2
HIDDEN
 70
     0
  3
Hidden __ __ __ __ __ __ __ __ __ __ __ __ __ __
 72
    65
 73
     2
 40
1.905
 49
1.27
 74
     0
 49
-0.635
 74
     0
  0
LTYPE
  5
6B
330
5
100
AcDbSymbolTableRecord
100
AcDbLinetypeTableRecord
  2
PHANTOM
 70
     0
  3
Phantom ______  __  __  ______  __  __  ______
 72
    65
 73
     6
 40
12.7
 49
6.35
 74
     0
 49
-1.27
 74
     0
 49
1.27
 74
     0
 49
-1.27
 74
     0
 49
1.27
 74
     0
 49
-1.27
 74
     0
  0
LTYPE
  5
6C
330
5
100
AcDbSymbolTableRecord
100
AcDbLinetypeTableRecord
  2
CENTER
 70
     0
  3
Center ____ _ ____ _ ____ _ ____ _ ____ _ ____
 72
    65
 73
     4
 40
10.16
 49
6.35
 74
     0
 49
-1.27
 74
     0
 49
1.27
 74
     0
 49
-1.27
 74
     0
  0
LTYPE
  5
6D
330
5
100
AcDbSymbolTableRecord
100
AcDbLinetypeTableRecord
  2
CENTERX2
 70
     0
  3
Center (2x) ________  __  ________  __  _____
 72
    65
 73
     4
 40
20.32
 49
12.7
 74
     0
 49
-2.54
 74
     0
 49
2.54
 74
     0
 49
-2.54
 74
     0
  0
LTYPE
  5
6E
330
5
100
AcDbSymbolTableRecord
100
AcDbLinetypeTableRecord
  2
DOT2
 70
     0
  3
Dot (.5x) ........................................
 72
    65
 73
     2
 40
0.635
 49
0.0
 74
     0
 49
-0.635
 74
     0
  0
ENDTAB
  0
TABLE
  2
LAYER
  5
2
102
{ACAD_XDICTIONARY
360
18F
102
}
330
0
100
AcDbSymbolTable
 70
    18
  0
LAYER
  5
10
330
2
100
AcDbSymbolTableRecord
100
AcDbLayerTableRecord
  2
0
 70
     0
 62
     7
  6
Continuous
370
    -3
390
F
  0
LAYER
  5
6F
330
2
100
AcDbSymbolTableRecord
100
AcDbLayerTableRecord
  2
FORMAT
 70
     0
 62
     2
  6
Continuous
370
    -3
390
F
  0
LAYER
  5
70
330
2
100
AcDbSymbolTableRecord
100
AcDbLayerTableRecord
  2
외형선
 70
     0
 62
     4
  6
Continuous
370
    30
390
F
  0
LAYER
  5
71
330
2
100
AcDbSymbolTableRecord
100
AcDbLayerTableRecord
  2
숨은선
 70
     0
 62
     2
  6
HIDDEN
370
    15
390
F
  0
LAYER
  5
72
330
2
100
AcDbSymbolTableRecord
100
AcDbLayerTableRecord
  2
중심선
 70
     0
 62
     1
  6
CENTERX2
370
    -3
390
F
  0
LAYER
  5
73
330
2
100
AcDbSymbolTableRecord
100
AcDbLayerTableRecord
  2
파단선
 70
     0
 62
     4
  6
Continuous
370
    -3
390
F
  0
LAYER
  5
74
330
2
100
AcDbSymbolTableRecord
100
AcDbLayerTableRecord
  2
해칭선
 70
     0
 62
   100
  6
Continuous
370
    -3
390
F
  0
LAYER
  5
75
330
2
100
AcDbSymbolTableRecord
100
AcDbLayerTableRecord
  2
가는실선
 70
     0
 62
     4
  6
Continuous
370
    -3
390
F
  0
LAYER
  5
76
330
2
100
AcDbSymbolTableRecord
100
AcDbLayerTableRecord
  2
치수_보조선
 70
     0
 62
     4
  6
Continuous
370
    -3
390
F
  0
LAYER
  5
77
330
2
100
AcDbSymbolTableRecord
100
AcDbLayerTableRecord
  2
치수문자_일반주서
 70
     0
 62
     7
  6
Continuous
370
    15
390
F
  0
LAYER
  5
78
330
2
100
AcDbSymbolTableRecord
100
AcDbLayerTableRecord
  2
개별주서
 70
     0
 62
   100
  6
Continuous
370
    30
390
F
  0
LAYER
  5
79
330
2
100
AcDbSymbolTableRecord
100
AcDbLayerTableRecord
  2
중간선
 70
     0
 62
     2
  6
Continuous
370
    15
390
F
  0
LAYER
  5
7A
330
2
100
AcDbSymbolTableRecord
100
AcDbLayerTableRecord
  2
윤곽선
 70
     0
 62
     3
  6
Continuous
370
    40
390
F
  0
LAYER
  5
7B
330
2
100
AcDbSymbolTableRecord
100
AcDbLayerTableRecord
  2
중심마크
 70
     0
 62
   100
  6
Continuous
370
    30
390
F
  0
LAYER
  5
7C
330
2
100
AcDbSymbolTableRecord
100
AcDbLayerTableRecord
  2
가상선
 70
     0
 62
     4
  6
PHANTOM
370
    -3
390
F
  0
LAYER
  5
7D
330
2
100
AcDbSymbolTableRecord
100
AcDbLayerTableRecord
  2
특수지정선
 70
     0
 62
     5
  6
CENTERX2
370
    60
390
F
  0
LAYER
  5
7E
330
2
100
AcDbSymbolTableRecord
100
AcDbLayerTableRecord
  2
참조1
 70
     0
 62
    -4
  6
Continuous
370
    -3
390
F
  0
LAYER
  5
154
330
2
100
AcDbSymbolTableRecord
100
AcDbLayerTableRecord
  2
Defpoints
 70
     0
 62
     7
  6
Continuous
290
     0
370
    -3
390
F
  0
ENDTAB
  0
TABLE
  2
STYLE
  5
3
330
0
100
AcDbSymbolTable
 70
     2
  0
STYLE
  5
11
330
3
100
AcDbSymbolTableRecord
100
AcDbTextStyleTableRecord
  2
Standard
 70
     0
 40
0.0
 41
1.0
 50
0.0
 71
     0
 42
3.5
  3
txt
  4

  0
STYLE
  5
94
330
3
100
AcDbSymbolTableRecord
100
AcDbTextStyleTableRecord
  2
SLDTEXTSTYLE0
 70
     0
 40
0.0
 41
0.75
 50
0.0
 71
     0
 42
3.5
  3
TXT
  4

  0
ENDTAB
  0
TABLE
  2
VIEW
  5
6
330
0
100
AcDbSymbolTable
 70
     0
  0
ENDTAB
  0
TABLE
  2
UCS
  5
7
330
0
100
AcDbSymbolTable
 70
     0
  0
ENDTAB
  0
TABLE
  2
APPID
  5
9
330
0
100
AcDbSymbolTable
 70
     2
  0
APPID
  5
12
330
9
100
AcDbSymbolTableRecord
100
AcDbRegAppTableRecord
  2
ACAD
 70
     0
  0
APPID
  5
15C
330
9
100
AcDbSymbolTableRecord
100
AcDbRegAppTableRecord
  2
PE_URL
 70
     0
  0
ENDTAB
  0
TABLE
  2
DIMSTYLE
  5
A
330
0
100
AcDbSymbolTable
 70
     3
100
AcDbDimStyleTable
  0
DIMSTYLE
105
27
330
A
100
AcDbSymbolTableRecord
100
AcDbDimStyleTableRecord
  2
ISO-25
 70
     0
 41
2.5
 42
0.625
 43
3.75
 44
1.25
 73
     0
 74
     0
 77
     1
 78
     8
140
2.5
141
2.5
143
0.03937007874016
147
0.625
171
     3
172
     1
178
     0
271
     2
272
     2
274
     3
278
    44
283
     0
284
     8
340
11
  0
DIMSTYLE
105
D4
102
{ACAD_REACTORS
330
D3
330
17F
330
E8
330
FC
330
110
102
}
330
A
100
AcDbSymbolTableRecord
100
AcDbDimStyleTableRecord
  2
SLDDIMSTYLE0
 70
     0
 41
3.302
 44
0.0
 45
0.000000001
 73
     0
 74
     0
 77
     1
 78
     4
 79
     1
140
3.5
143
0.0393700787401575
147
0.875
148
0.000000001
170
     1
172
     1
173
     1
178
     0
271
     2
272
     2
276
     2
284
    12
289
     0
340
94
  0
DIMSTYLE
105
E9
330
A
100
AcDbSymbolTableRecord
100
AcDbDimStyleTableRecord
  2
SLDDIMSTYLE1
 70
     0
 41
3.302
 44
0.0
 45
0.000000001
 73
     0
 74
     0
 77
     1
 78
    12
 79
     3
140
3.5
143
0.0393700787401575
147
0.875
148
0.000000001
170
     1
173
     1
178
     0
271
     2
272
     2
276
     2
284
    12
340
94
  0
ENDTAB
  0
TABLE
  2
BLOCK_RECORD
  5
1
330
0
100
AcDbSymbolTable
 70
    10
  0
BLOCK_RECORD
  5
1F
330
1
100
AcDbSymbolTableRecord
100
AcDbBlockTableRecord
  2
*Model_Space
340
22
  0
BLOCK_RECORD
  5
1B
330
1
100
AcDbSymbolTableRecord
100
AcDbBlockTableRecord
  2
*Paper_Space
340
1E
  0
BLOCK_RECORD
  5
23
330
1
100
AcDbSymbolTableRecord
100
AcDbBlockTableRecord
  2
*Paper_Space0
340
26
  0
BLOCK_RECORD
  5
7F
330
1
100
AcDbSymbolTableRecord
100
AcDbBlockTableRecord
  2
블럭10
340
0
102
{BLKREFS
331
CC
102
}
  0
BLOCK_RECORD
  5
D5
330
1
100
AcDbSymbolTableRecord
100
AcDbBlockTableRecord
  2
_D
340
0
  0
BLOCK_RECORD
  5
EA
330
1
100
AcDbSymbolTableRecord
100
AcDbBlockTableRecord
  2
_D_1
340
0
  0
BLOCK_RECORD
  5
FD
330
1
100
AcDbSymbolTableRecord
100
AcDbBlockTableRecord
  2
_D_2
340
0
  0
BLOCK_RECORD
  5
111
330
1
100
AcDbSymbolTableRecord
100
AcDbBlockTableRecord
  2
_D_3
340
0
  0
BLOCK_RECORD
  5
12A
330
1
100
AcDbSymbolTableRecord
100
AcDbBlockTableRecord
  2
SW_DOWELSYMBOL_0
340
0
102
{BLKREFS
331
130
102
}
  0
BLOCK_RECORD
  5
193
330
1
100
AcDbSymbolTableRecord
100
AcDbBlockTableRecord
  2
*D8
340
0
  0
BLOCK_RECORD
  5
1A8
330
1
100
AcDbSymbolTableRecord
100
AcDbBlockTableRecord
  2
*D9
340
0
  0
ENDTAB
  0
ENDSEC
  0
SECTION
  2
BLOCKS
  0
BLOCK
  5
20
330
1F
100
AcDbEntity
  8
0
100
AcDbBlockBegin
  2
*Model_Space
 70
     0
 10
0.0
 20
0.0
 30
0.0
  3
*Model_Space
  1

  0
ENDBLK
  5
21
330
1F
100
AcDbEntity
  8
0
100
AcDbBlockEnd
  0
BLOCK
  5
1C
330
1B
100
AcDbEntity
 67
     1
  8
0
100
AcDbBlockBegin
  2
*Paper_Space
 70
     0
 10
0.0
 20
0.0
 30
0.0
  3
*Paper_Space
  1

  0
ENDBLK
  5
1D
330
1B
100
AcDbEntity
 67
     1
  8
0
100
AcDbBlockEnd
  0
BLOCK
  5
24
330
23
100
AcDbEntity
  8
0
100
AcDbBlockBegin
  2
*Paper_Space0
 70
     0
 10
0.0
 20
0.0
 30
0.0
  3
*Paper_Space0
  1

  0
ENDBLK
  5
25
330
23
100
AcDbEntity
  8
0
100
AcDbBlockEnd
  0
BLOCK
  5
80
330
7F
100
AcDbEntity
  8
0
100
AcDbBlockBegin
  2
블럭10
 70
     2
 10
0.0
 20
0.0
 30
0.0
  3
블럭10
  1

  0
ELLIPSE
  5
82
330
7F
100
AcDbEntity
  8
중심선
100
AcDbEllipse
 10
20.54032771741204
 20
12.0471743016438
 30
0.0
 11
6.600054785286829
 21
-1.261213355974178E-13
 31
0.0
210
0.0
220
0.0
230
1.0
 40
0.636358354079598
 41
0.9219305317359503
 42
6.513795318482858
  0
ELLIPSE
  5
83
330
7F
100
AcDbEntity
  8
중심선
100
AcDbEllipse
 10
20.54032771746488
 20
12.04717430159265
 30
0.0
 11
3.960054785062283
 21
1.540847449632565E-10
 31
0.0
210
0.0
220
0.0
230
1.0
 40
0.3939339440162632
 41
1.131841032648279
 42
5.62031148352944
  0
LINE
  5
84
330
7F
100
AcDbEntity
  8
중심선
100
AcDbLine
 10
2.268634060543552
 20
16.24717430164393
 30
0.0
 11
5.714909304380834
 21
16.24717430164393
 31
0.0
  0
LINE
  5
85
330
7F
100
AcDbEntity
  8
중심선
100
AcDbLine
 10
5.245725140726316
 20
7.84717430164391
 30
0.0
 11
8.692000384563599
 21
7.84717430164391
 31
0.0
  0
LINE
  5
86
330
7F
100
AcDbEntity
  8
중심선
100
AcDbLine
 10
15.74043728645272
 20
16.24717430164393
 30
0.0
 11
8.692000384563599
 21
7.84717430164391
 31
0.0
  0
LINE
  5
87
330
7F
100
AcDbEntity
  8
중심선
100
AcDbLine
 10
0.1404042013395286
 20
13.71084872107135
 30
0.0
 11
3.58671253028996
 21
13.71088815037384
 31
0.0
  0
LINE
  5
88
330
7F
100
AcDbEntity
  8
중심선
100
AcDbLine
 10
2.750260043222114
 20
10.84717430164391
 30
0.0
 11
6.196535287059397
 21
10.84717430164391
 31
0.0
  0
LINE
  5
89
330
7F
100
AcDbEntity
  8
중심선
100
AcDbLine
 10
12.29416204261559
 20
16.24717430164393
 30
0.0
 11
5.245725140726316
 21
7.84717430164391
 31
0.0
  0
LINE
  5
8A
330
7F
100
AcDbEntity
  8
중심선
100
AcDbLine
 10
10.72767329541681
 20
16.24717430164393
 30
0.0
 11
6.196535287059397
 21
10.84717430164391
 31
0.0
  0
LINE
  5
8B
330
7F
100
AcDbEntity
  8
중심선
100
AcDbLine
 10
7.28139805157953
 20
16.24717430164393
 30
0.0
 11
2.750260043222114
 21
10.84717430164391
 31
0.0
  0
LINE
  5
8C
330
7F
100
AcDbEntity
  8
중심선
100
AcDbLine
 10
5.714909304380834
 20
16.24717430164393
 30
0.0
 11
3.58671253028996
 21
13.71088815037384
 31
0.0
  0
LINE
  5
8D
330
7F
100
AcDbEntity
  8
중심선
100
AcDbLine
 10
2.268634060543552
 20
16.24717430164393
 30
0.0
 11
0.1404042013395286
 21
13.71084872107135
 31
0.0
  0
LINE
  5
8E
330
7F
100
AcDbEntity
  8
중심선
100
AcDbLine
 10
7.28139805157953
 20
16.24717430164393
 30
0.0
 11
10.72767329541681
 21
16.24717430164393
 31
0.0
  0
LINE
  5
8F
330
7F
100
AcDbEntity
  8
중심선
100
AcDbLine
 10
12.29416204261559
 20
16.24717430164393
 30
0.0
 11
15.74043728645272
 21
16.24717430164393
 31
0.0
  0
LINE
  5
90
330
7F
100
AcDbEntity
  8
중심선
100
AcDbLine
 10
19.22036997980202
 20
11.08717430171403
 30
0.0
 11
23.66174974927406
 21
11.08717430171406
 31
0.0
  0
LINE
  5
91
330
7F
100
AcDbEntity
  8
중심선
100
AcDbLine
 10
19.22039502424796
 20
13.00717430171391
 30
0.0
 11
19.22036997980202
 21
11.08717430171403
 31
0.0
  0
LINE
  5
92
330
7F
100
AcDbEntity
  8
중심선
100
AcDbLine
 10
19.22039502424796
 20
13.00717430171391
 30
0.0
 11
26.96566020931264
 21
13.00717430171391
 31
0.0
  0
LINE
  5
93
330
7F
100
AcDbEntity
  8
중심선
100
AcDbLine
 10
22.22332737316547
 20
13.45928029700563
 30
0.0
 11
24.52862924686651
 21
15.39360700705356
 31
0.0
  0
ATTDEF
  5
95
330
7F
100
AcDbEntity
  8
FORMAT
 62
     2
100
AcDbText
 10
4.408487351596664
 20
2.075366912832191
 30
0.0
 40
4.233333333333333
  1
E1050032
 41
0.75
  7
SLDTEXTSTYLE0
 11
4.408487351596664
 21
-0.0412997538344756
 31
0.0
100
AcDbAttributeDefinition
  3

  2
AUTOATTR0
 70
     0
 74
     1
  0
ENDBLK
  5
81
330
7F
100
AcDbEntity
  8
0
100
AcDbBlockEnd
  0
BLOCK
  5
D6
330
D5
100
AcDbEntity
  8
0
100
AcDbBlockBegin
  2
_D
 70
     0
 10
0.0
 20
0.0
 30
0.0
  3
_D
  1

  0
LINE
  5
D8
330
D5
100
AcDbEntity
  8
치수문자_일반주서
 62
     0
370
    -2
100
AcDbLine
 10
-25.01989179239143
 20
6.349999999999995
 30
0.0
 11
-57.62499999999999
 21
6.34999999999987
 31
0.0
  0
LINE
  5
D9
330
D5
100
AcDbEntity
  8
치수문자_일반주서
 62
     0
370
    -2
100
AcDbLine
 10
-25.01989179239142
 20
-6.350000000000004
 30
0.0
 11
-57.62499999999994
 21
-6.350000000000122
 31
0.0
  0
LINE
  5
DA
330
D5
100
AcDbEntity
  8
치수문자_일반주서
 62
     0
370
    -2
100
AcDbLine
 10
-57.62499999999999
 20
6.34999999999987
 30
0.0
 11
-57.6250000000001
 21
39.86024999999987
 31
0.0
  0
LINE
  5
DB
330
D5
100
AcDbEntity
  8
치수문자_일반주서
 62
     0
370
    -2
100
AcDbLine
 10
-57.62499999999999
 20
6.34999999999987
 30
0.0
 11
-57.62499999999994
 21
-6.350000000000122
 31
0.0
  0
LINE
  5
DC
330
D5
100
AcDbEntity
  8
치수문자_일반주서
 62
     0
370
    -2
100
AcDbLine
 10
-57.625
 20
9.65199999999987
 30
0.0
 11
-57.62500000000001
 21
12.95399999999987
 31
0.0
  0
LINE
  5
DD
330
D5
100
AcDbEntity
  8
치수문자_일반주서
 62
     0
370
    -2
100
AcDbLine
 10
-57.62499999999993
 20
-9.652000000000122
 30
0.0
 11
-57.62499999999991
 21
-12.95400000000012
 31
0.0
  0
SOLID
  5
DE
330
D5
100
AcDbEntity
  8
치수문자_일반주서
 62
     0
100
AcDbTrace
 10
-58.17533333333333
 20
9.651999999999868
 30
0.0
 11
-57.07466666666667
 21
9.651999999999871
 31
0.0
 12
-57.62499999999999
 22
6.34999999999987
 32
0.0
 13
-57.62499999999999
 23
6.34999999999987
 33
0.0
  0
SOLID
  5
DF
330
D5
100
AcDbEntity
  8
치수문자_일반주서
 62
     0
100
AcDbTrace
 10
-57.07466666666659
 20
-9.65200000000012
 30
0.0
 11
-58.17533333333326
 21
-9.652000000000124
 31
0.0
 12
-57.62499999999994
 22
-6.350000000000122
 32
0.0
 13
-57.62499999999994
 23
-6.350000000000122
 33
0.0
  0
MTEXT
  5
E0
330
D5
100
AcDbEntity
  8
치수문자_일반주서
 62
     0
100
AcDbMText
 10
-62.00000000000006
 20
26.51649999999986
 30
0.0
 40
3.5
 41
0.0
 71
     2
 72
     1
  1
\A1;%%c12.70 [1/2]
  7
SLDTEXTSTYLE0
 11
-3.356894814614647E-15
 21
1.0
 31
0.0
 73
     1
 44
1.0
  0
POINT
  5
1C5
330
D5
100
AcDbEntity
  8
Defpoints
 62
     0
100
AcDbPoint
 10
-24.95739179239143
 20
6.349999999999995
 30
0.0
  0
POINT
  5
1C6
330
D5
100
AcDbEntity
  8
Defpoints
 62
     0
100
AcDbPoint
 10
-24.95739179239142
 20
-6.350000000000004
 30
0.0
  0
POINT
  5
1C7
330
D5
100
AcDbEntity
  8
Defpoints
 62
     0
100
AcDbPoint
 10
-57.62499999999994
 20
-6.350000000000126
 30
0.0
  0
ENDBLK
  5
D7
330
D5
100
AcDbEntity
  8
0
100
AcDbBlockEnd
  0
BLOCK
  5
EB
330
EA
100
AcDbEntity
  8
0
100
AcDbBlockBegin
  2
_D_1
 70
     0
 10
0.0
 20
0.0
 30
0.0
  3
_D_1
  1

  0
LINE
  5
ED
330
EA
100
AcDbEntity
  8
치수문자_일반주서
 62
     0
370
    -2
100
AcDbLine
 10
47.68750000000001
 20
-6.349999999999999
 30
0.0
 11
89.85821124663029
 21
-6.349999999999845
 31
0.0
  0
LINE
  5
EE
330
EA
100
AcDbEntity
  8
치수문자_일반주서
 62
     0
370
    -2
100
AcDbLine
 10
47.68749999999997
 20
6.349999999999999
 30
0.0
 11
89.85821124663025
 21
6.350000000000154
 31
0.0
  0
LINE
  5
EF
330
EA
100
AcDbEntity
  8
치수문자_일반주서
 62
     0
370
    -2
100
AcDbLine
 10
89.85821124663025
 20
6.350000000000154
 30
0.0
 11
89.85821124663013
 21
39.86025000000016
 31
0.0
  0
LINE
  5
F0
330
EA
100
AcDbEntity
  8
치수문자_일반주서
 62
     0
370
    -2
100
AcDbLine
 10
89.85821124663029
 20
-6.349999999999845
 30
0.0
 11
89.85821124663025
 21
6.350000000000154
 31
0.0
  0
LINE
  5
F1
330
EA
100
AcDbEntity
  8
치수문자_일반주서
 62
     0
370
    -2
100
AcDbLine
 10
89.8582112466303
 20
-9.651999999999845
 30
0.0
 11
89.85821124663032
 21
-12.95399999999984
 31
0.0
  0
LINE
  5
F2
330
EA
100
AcDbEntity
  8
치수문자_일반주서
 62
     0
370
    -2
100
AcDbLine
 10
89.85821124663023
 20
9.652000000000154
 30
0.0
 11
89.85821124663022
 21
12.95400000000015
 31
0.0
  0
SOLID
  5
F3
330
EA
100
AcDbEntity
  8
치수문자_일반주서
 62
     0
100
AcDbTrace
 10
90.40854457996363
 20
-9.651999999999843
 30
0.0
 11
89.30787791329698
 21
-9.651999999999846
 31
0.0
 12
89.85821124663029
 22
-6.349999999999845
 32
0.0
 13
89.85821124663029
 23
-6.349999999999845
 33
0.0
  0
SOLID
  5
F4
330
EA
100
AcDbEntity
  8
치수문자_일반주서
 62
     0
100
AcDbTrace
 10
89.3078779132969
 20
9.652000000000152
 30
0.0
 11
90.40854457996356
 21
9.652000000000156
 31
0.0
 12
89.85821124663025
 22
6.350000000000154
 32
0.0
 13
89.85821124663025
 23
6.350000000000154
 33
0.0
  0
MTEXT
  5
F5
330
EA
100
AcDbEntity
  8
치수문자_일반주서
 62
     0
100
AcDbMText
 10
85.48321124663018
 20
26.51650000000014
 30
0.0
 40
3.5
 41
0.0
 71
     2
 72
     1
  1
\A1;%%c12.70 [1/2]
  7
SLDTEXTSTYLE0
 11
-3.356894814614647E-15
 21
1.0
 31
0.0
 73
     1
 44
1.0
  0
POINT
  5
F6
330
EA
100
AcDbEntity
  8
Defpoints
 62
     0
100
AcDbPoint
 10
47.62500000000001
 20
-6.349999999999999
 30
0.0
  0
POINT
  5
1BE
330
EA
100
AcDbEntity
  8
Defpoints
 62
     0
100
AcDbPoint
 10
47.62499999999997
 20
6.349999999999999
 30
0.0
  0
POINT
  5
1BF
330
EA
100
AcDbEntity
  8
Defpoints
 62
     0
100
AcDbPoint
 10
89.85821124663025
 20
6.350000000000157
 30
0.0
  0
ENDBLK
  5
EC
330
EA
100
AcDbEntity
  8
0
100
AcDbBlockEnd
  0
BLOCK
  5
FE
330
FD
100
AcDbEntity
  8
0
100
AcDbBlockBegin
  2
_D_2
 70
     0
 10
0.0
 20
0.0
 30
0.0
  3
_D_2
  1

  0
LINE
  5
100
330
FD
100
AcDbEntity
  8
치수문자_일반주서
 62
     0
370
    -2
100
AcDbLine
 10
47.62500000000001
 20
6.412500000000001
 30
0.0
 11
47.62500000000001
 21
16.35
 31
0.0
  0
LINE
  5
101
330
FD
100
AcDbEntity
  8
치수문자_일반주서
 62
     0
370
    -2
100
AcDbLine
 10
26.98750000000001
 20
5.0325244603205
 30
0.0
 11
26.98750000000001
 21
16.35
 31
0.0
  0
LINE
  5
102
330
FD
100
AcDbEntity
  8
치수문자_일반주서
 62
     0
370
    -2
100
AcDbLine
 10
47.62500000000001
 20
16.35
 30
0.0
 11
83.54150000000001
 21
16.35
 31
0.0
  0
LINE
  5
103
330
FD
100
AcDbEntity
  8
치수문자_일반주서
 62
     0
370
    -2
100
AcDbLine
 10
47.62500000000001
 20
16.35
 30
0.0
 11
26.98750000000001
 21
16.35
 31
0.0
  0
LINE
  5
104
330
FD
100
AcDbEntity
  8
치수문자_일반주서
 62
     0
370
    -2
100
AcDbLine
 10
50.92700000000001
 20
16.35
 30
0.0
 11
54.22900000000001
 21
16.35
 31
0.0
  0
LINE
  5
105
330
FD
100
AcDbEntity
  8
치수문자_일반주서
 62
     0
370
    -2
100
AcDbLine
 10
23.68550000000001
 20
16.35
 30
0.0
 11
20.38350000000001
 21
16.35
 31
0.0
  0
SOLID
  5
106
330
FD
100
AcDbEntity
  8
치수문자_일반주서
 62
     0
100
AcDbTrace
 10
50.92700000000001
 20
16.90033333333333
 30
0.0
 11
50.92700000000001
 21
15.79966666666667
 31
0.0
 12
47.62500000000001
 22
16.35
 32
0.0
 13
47.62500000000001
 23
16.35
 33
0.0
  0
SOLID
  5
107
330
FD
100
AcDbEntity
  8
치수문자_일반주서
 62
     0
100
AcDbTrace
 10
23.68550000000001
 20
15.79966666666667
 30
0.0
 11
23.68550000000001
 21
16.90033333333333
 31
0.0
 12
26.98750000000001
 22
16.35
 32
0.0
 13
26.98750000000001
 23
16.35
 33
0.0
  0
MTEXT
  5
108
330
FD
100
AcDbEntity
  8
치수문자_일반주서
 62
     0
100
AcDbMText
 10
68.88525000000001
 20
20.725
 30
0.0
 40
3.5
 41
0.0
 71
     2
 72
     1
  1
\A1;20.64 [13/16]
  7
SLDTEXTSTYLE0
 73
     1
 44
1.0
  0
POINT
  5
109
330
FD
100
AcDbEntity
  8
Defpoints
 62
     0
100
AcDbPoint
 10
47.62500000000001
 20
6.350000000000001
 30
0.0
  0
POINT
  5
1C0
330
FD
100
AcDbEntity
  8
Defpoints
 62
     0
100
AcDbPoint
 10
26.98750000000001
 20
4.9700244603205
 30
0.0
  0
POINT
  5
1C1
330
FD
100
AcDbEntity
  8
Defpoints
 62
     0
100
AcDbPoint
 10
26.98750000000001
 20
16.35
 30
0.0
  0
ENDBLK
  5
FF
330
FD
100
AcDbEntity
  8
0
100
AcDbBlockEnd
  0
BLOCK
  5
112
330
111
100
AcDbEntity
  8
0
100
AcDbBlockBegin
  2
_D_3
 70
     0
 10
0.0
 20
0.0
 30
0.0
  3
_D_3
  1

  0
LINE
  5
114
330
111
100
AcDbEntity
  8
치수문자_일반주서
 62
     0
370
    -2
100
AcDbLine
 10
-47.62500000000001
 20
6.407133076708234
 30
0.0
 11
-47.62500000000001
 21
26.35
 31
0.0
  0
LINE
  5
115
330
111
100
AcDbEntity
  8
치수문자_일반주서
 62
     0
370
    -2
100
AcDbLine
 10
47.62500000000001
 20
6.412500000000001
 30
0.0
 11
47.62500000000001
 21
26.35
 31
0.0
  0
LINE
  5
116
330
111
100
AcDbEntity
  8
치수문자_일반주서
 62
     0
370
    -2
100
AcDbLine
 10
-44.32300000000001
 20
26.35
 30
0.0
 11
44.32300000000001
 21
26.35
 31
0.0
  0
SOLID
  5
117
330
111
100
AcDbEntity
  8
치수문자_일반주서
 62
     0
100
AcDbTrace
 10
-44.32300000000001
 20
26.90033333333333
 30
0.0
 11
-44.32300000000001
 21
25.79966666666666
 31
0.0
 12
-47.62500000000001
 22
26.35
 32
0.0
 13
-47.62500000000001
 23
26.35
 33
0.0
  0
SOLID
  5
118
330
111
100
AcDbEntity
  8
치수문자_일반주서
 62
     0
100
AcDbTrace
 10
44.32300000000001
 20
25.79966666666666
 30
0.0
 11
44.32300000000001
 21
26.90033333333333
 31
0.0
 12
47.62500000000001
 22
26.35
 32
0.0
 13
47.62500000000001
 23
26.35
 33
0.0
  0
MTEXT
  5
119
330
111
100
AcDbEntity
  8
치수문자_일반주서
 62
     0
100
AcDbMText
 10
0.0000000000000142
 20
30.725
 30
0.0
 40
3.5
 41
0.0
 71
     2
 72
     1
  1
\A1;95.25 [3 3/4]
  7
SLDTEXTSTYLE0
 73
     1
 44
1.0
  0
POINT
  5
11A
330
111
100
AcDbEntity
  8
Defpoints
 62
     0
100
AcDbPoint
 10
-47.62500000000001
 20
6.344633076708234
 30
0.0
  0
POINT
  5
11B
330
111
100
AcDbEntity
  8
Defpoints
 62
     0
100
AcDbPoint
 10
47.62500000000001
 20
6.350000000000001
 30
0.0
  0
POINT
  5
11C
330
111
100
AcDbEntity
  8
Defpoints
 62
     0
100
AcDbPoint
 10
47.62500000000001
 20
26.35
 30
0.0
  0
ENDBLK
  5
113
330
111
100
AcDbEntity
  8
0
100
AcDbBlockEnd
  0
BLOCK
  5
12B
330
12A
100
AcDbEntity
  8
0
100
AcDbBlockBegin
  2
SW_DOWELSYMBOL_0
 70
     0
 10
0.0
 20
0.0
 30
0.0
  3
SW_DOWELSYMBOL_0
  1

  0
CIRCLE
  5
12D
330
12A
100
AcDbEntity
  8
해칭선
 62
     0
100
AcDbCircle
 10
0.0
 20
0.0
 30
0.0
 40
3.000000000000001
  0
HATCH
  5
12E
330
12A
100
AcDbEntity
  8
0
  6
Continuous
 62
     0
370
     0
100
AcDbHatch
 10
0.0
 20
0.0
 30
0.0
210
0.0
220
0.0
230
1.0
  2
SOLID
 70
     1
 71
     0
 91
        1
 92
        0
 93
        3
 72
     2
 10
0.0
 20
0.0
 40
3.000000000000001
 50
0.0
 51
90.0
 73
     1
 72
     1
 10
0.0
 20
3.000000000000001
 11
0.0
 21
0.0
 72
     1
 10
0.0
 20
0.0
 11
3.000000000000001
 21
0.0
 97
        0
 75
     0
 76
     1
 98
        1
 10
0.0
 20
0.0
  0
HATCH
  5
12F
330
12A
100
AcDbEntity
  8
0
  6
Continuous
 62
     0
370
     0
100
AcDbHatch
 10
0.0
 20
0.0
 30
0.0
210
0.0
220
0.0
230
1.0
  2
SOLID
 70
     1
 71
     0
 91
        1
 92
        0
 93
        3
 72
     2
 10
0.0
 20
0.0
 40
3.000000000000001
 50
180.0
 51
270.0000000000008
 73
     1
 72
     1
 10
0.0
 20
-3.000000000000001
 11
0.0
 21
0.0
 72
     1
 10
0.0
 20
0.0
 11
-3.000000000000001
 21
0.0
 97
        0
 75
     0
 76
     1
 98
        1
 10
0.0
 20
0.0
  0
ENDBLK
  5
12C
330
12A
100
AcDbEntity
  8
0
100
AcDbBlockEnd
  0
BLOCK
  5
194
330
193
100
AcDbEntity
  8
0
100
AcDbBlockBegin
  2
*D8
 70
     1
 10
0.0
 20
0.0
 30
0.0
  3
*D8
  1

  0
LINE
  5
196
330
193
100
AcDbEntity
  8
치수문자_일반주서
 62
     0
370
    -2
100
AcDbLine
 10
54.73699999999996
 20
3.631580296889929
 30
0.0
 11
54.73699999999996
 21
14.96233570571162
 31
0.0
  0
LINE
  5
197
330
193
100
AcDbEntity
  8
치수문자_일반주서
 62
     0
370
    -2
100
AcDbLine
 10
34.09949999999996
 20
3.20671347064068
 30
0.0
 11
34.09949999999996
 21
14.96233570571162
 31
0.0
  0
LINE
  5
198
330
193
100
AcDbEntity
  8
치수문자_일반주서
 62
     0
370
    -2
100
AcDbLine
 10
54.73699999999996
 20
14.96233570571162
 30
0.0
 11
90.65349999999997
 21
14.96233570571162
 31
0.0
  0
LINE
  5
199
330
193
100
AcDbEntity
  8
치수문자_일반주서
 62
     0
370
    -2
100
AcDbLine
 10
54.73699999999996
 20
14.96233570571162
 30
0.0
 11
34.09949999999996
 21
14.96233570571162
 31
0.0
  0
LINE
  5
19A
330
193
100
AcDbEntity
  8
치수문자_일반주서
 62
     0
370
    -2
100
AcDbLine
 10
58.03899999999996
 20
14.96233570571162
 30
0.0
 11
61.34099999999996
 21
14.96233570571162
 31
0.0
  0
LINE
  5
19B
330
193
100
AcDbEntity
  8
치수문자_일반주서
 62
     0
370
    -2
100
AcDbLine
 10
30.79749999999996
 20
14.96233570571162
 30
0.0
 11
27.49549999999996
 21
14.96233570571162
 31
0.0
  0
SOLID
  5
19C
330
193
100
AcDbEntity
  8
치수문자_일반주서
 62
     0
100
AcDbTrace
 10
58.03899999999996
 20
15.51266903904495
 30
0.0
 11
58.03899999999996
 21
14.41200237237829
 31
0.0
 12
54.73699999999996
 22
14.96233570571162
 32
0.0
 13
54.73699999999996
 23
14.96233570571162
 33
0.0
  0
SOLID
  5
19D
330
193
100
AcDbEntity
  8
치수문자_일반주서
 62
     0
100
AcDbTrace
 10
30.79749999999996
 20
14.41200237237829
 30
0.0
 11
30.79749999999996
 21
15.51266903904495
 31
0.0
 12
34.09949999999996
 22
14.96233570571162
 32
0.0
 13
34.09949999999996
 23
14.96233570571162
 33
0.0
  0
MTEXT
  5
19E
330
193
100
AcDbEntity
  8
치수문자_일반주서
 62
     0
100
AcDbMText
 10
75.99724999999997
 20
19.33733570571162
 30
0.0
 40
3.5
 41
0.0
 71
     2
 72
     1
  1
\A1;20.64 [13/16]
  7
SLDTEXTSTYLE0
 73
     1
 44
1.0
  0
POINT
  5
19F
330
193
100
AcDbEntity
  8
Defpoints
 62
     0
100
AcDbPoint
 10
54.73699999999996
 20
3.569080296889929
 30
0.0
  0
POINT
  5
1A0
330
193
100
AcDbEntity
  8
Defpoints
 62
     0
100
AcDbPoint
 10
34.09949999999996
 20
3.14421347064068
 30
0.0
  0
POINT
  5
1A1
330
193
100
AcDbEntity
  8
Defpoints
 62
     0
100
AcDbPoint
 10
34.09949999999996
 20
14.96233570571162
 30
0.0
  0
ENDBLK
  5
195
330
193
100
AcDbEntity
  8
0
100
AcDbBlockEnd
  0
BLOCK
  5
1A9
330
1A8
100
AcDbEntity
  8
0
100
AcDbBlockBegin
  2
*D9
 70
     1
 10
0.0
 20
0.0
 30
0.0
  3
*D9
  1

  0
LINE
  5
1AB
330
1A8
100
AcDbEntity
  8
치수문자_일반주서
 62
     0
370
    -2
100
AcDbLine
 10
89.55600569254898
 20
-22.06411905062539
 30
0.0
 11
89.55600569254898
 21
-10.73336364180369
 31
0.0
  0
LINE
  5
1AC
330
1A8
100
AcDbEntity
  8
치수문자_일반주서
 62
     0
370
    -2
100
AcDbLine
 10
68.91850569254898
 20
-22.48898587687464
 30
0.0
 11
68.91850569254898
 21
-10.73336364180369
 31
0.0
  0
LINE
  5
1AD
330
1A8
100
AcDbEntity
  8
치수문자_일반주서
 62
     0
370
    -2
100
AcDbLine
 10
89.55600569254898
 20
-10.73336364180369
 30
0.0
 11
125.472505692549
 21
-10.73336364180369
 31
0.0
  0
LINE
  5
1AE
330
1A8
100
AcDbEntity
  8
치수문자_일반주서
 62
     0
370
    -2
100
AcDbLine
 10
89.55600569254898
 20
-10.73336364180369
 30
0.0
 11
68.91850569254898
 21
-10.73336364180369
 31
0.0
  0
LINE
  5
1AF
330
1A8
100
AcDbEntity
  8
치수문자_일반주서
 62
     0
370
    -2
100
AcDbLine
 10
92.85800569254897
 20
-10.73336364180369
 30
0.0
 11
96.16000569254896
 21
-10.73336364180369
 31
0.0
  0
LINE
  5
1B0
330
1A8
100
AcDbEntity
  8
치수문자_일반주서
 62
     0
370
    -2
100
AcDbLine
 10
65.61650569254897
 20
-10.73336364180369
 30
0.0
 11
62.31450569254897
 21
-10.73336364180369
 31
0.0
  0
SOLID
  5
1B1
330
1A8
100
AcDbEntity
  8
치수문자_일반주서
 62
     0
100
AcDbTrace
 10
92.85800569254897
 20
-10.18303030847036
 30
0.0
 11
92.85800569254897
 21
-11.28369697513703
 31
0.0
 12
89.55600569254898
 22
-10.73336364180369
 32
0.0
 13
89.55600569254898
 23
-10.73336364180369
 33
0.0
  0
SOLID
  5
1B2
330
1A8
100
AcDbEntity
  8
치수문자_일반주서
 62
     0
100
AcDbTrace
 10
65.61650569254897
 20
-11.28369697513703
 30
0.0
 11
65.61650569254897
 21
-10.18303030847036
 31
0.0
 12
68.91850569254898
 22
-10.73336364180369
 32
0.0
 13
68.91850569254898
 23
-10.73336364180369
 33
0.0
  0
MTEXT
  5
1B3
330
1A8
100
AcDbEntity
  8
치수문자_일반주서
 62
     0
100
AcDbMText
 10
110.816255692549
 20
-6.358363641803694
 30
0.0
 40
3.5
 41
0.0
 71
     2
 72
     1
  1
\A1;20.64 [13/16]
  7
SLDTEXTSTYLE0
 73
     1
 44
1.0
  0
POINT
  5
1B4
330
1A8
100
AcDbEntity
  8
Defpoints
 62
     0
100
AcDbPoint
 10
89.55600569254898
 20
-22.12661905062539
 30
0.0
  0
POINT
  5
1B5
330
1A8
100
AcDbEntity
  8
Defpoints
 62
     0
100
AcDbPoint
 10
68.91850569254898
 20
-22.55148587687464
 30
0.0
  0
POINT
  5
1B6
330
1A8
100
AcDbEntity
  8
Defpoints
 62
     0
100
AcDbPoint
 10
68.91850569254898
 20
-10.73336364180369
 30
0.0
  0
ENDBLK
  5
1AA
330
1A8
100
AcDbEntity
  8
0
100
AcDbBlockEnd
  0
ENDSEC
  0
SECTION
  2
ENTITIES
  0
LINE
  5
96
330
1F
100
AcDbEntity
  8
외형선
  6
Continuous
370
    15
100
AcDbLine
 10
24.95739179239143
 20
6.349999999999998
 30
0.0
 11
7.112000000000052
 21
6.349999999999997
 31
0.0
  0
LINE
  5
97
330
1F
100
AcDbEntity
  8
외형선
  6
Continuous
370
    15
100
AcDbLine
 10
-24.95739179239142
 20
-6.350000000000004
 30
0.0
 11
24.95739179239142
 21
-6.350000000000001
 31
0.0
  0
SPLINE
  5
9A
330
1F
100
AcDbEntity
  8
외형선
  6
Continuous
370
    15
100
AcDbSpline
210
0.0
220
0.0
230
1.0
 70
     8
 71
     3
 72
     9
 73
     5
 74
     0
 42
0.000000001
 43
0.00000001
 40
0.0
 40
0.0
 40
0.0
 40
0.0
 40
0.5541871195155239
 40
1.0
 40
1.0
 40
1.0
 40
1.0
 10
26.98750000000003
 20
4.969753686308716
 30
0.0
 10
26.68746512310975
 20
4.965181247031794
 30
0.0
 10
26.14606878543851
 20
4.956930533300085
 30
0.0
 10
25.62826653461754
 20
4.959509123539227
 30
0.0
 10
25.39742362165769
 20
4.960658692281327
 30
0.0
  0
LINE
  5
9B
330
1F
100
AcDbEntity
  8
외형선
  6
Continuous
370
    15
100
AcDbLine
 10
24.96334859720056
 20
5.413366660524575
 30
0.0
 11
24.96084631832816
 21
5.415012955672118
 31
0.0
  0
SPLINE
  5
9C
330
1F
100
AcDbEntity
  8
외형선
  6
Continuous
370
    15
100
AcDbSpline
210
0.0
220
0.0
230
1.0
 70
     8
 71
     3
 72
    17
 73
    13
 74
     0
 42
0.000000001
 43
0.00000001
 40
0.0
 40
0.0
 40
0.0
 40
0.0
 40
0.0019303585552584
 40
0.00367074356276
 40
0.0053864631486127
 40
0.0072609238556131
 40
0.0120459434294502
 40
0.0188250911127531
 40
0.0726695635803591
 40
0.353226975627791
 40
0.7901223275619398
 40
1.0
 40
1.0
 40
1.0
 40
1.0
 10
25.45415771324314
 20
4.96024189528082
 30
0.0
 10
25.45384514541236
 20
4.960254982399912
 30
0.0
 10
25.45325077067839
 20
4.960279868687503
 30
0.0
 10
25.45199750981597
 20
4.960515700506434
 30
0.0
 10
25.45052952276347
 20
4.960930519527555
 30
0.0
 10
25.44810218411978
 20
4.961809598330788
 30
0.0
 10
25.44441295646438
 20
4.963522245581045
 30
0.0
 10
25.42867995932088
 20
4.972263568673458
 30
0.0
 10
25.36124858339456
 20
5.023559504017228
 30
0.0
 10
25.21264252520837
 20
5.158720443959886
 30
0.0
 10
25.03710593558277
 20
5.339368305445102
 30
0.0
 10
24.98816443059443
 20
5.390799268520542
 30
0.0
 10
24.97228292539013
 20
5.407488602204484
 30
0.0
  0
SPLINE
  5
9D
330
1F
100
AcDbEntity
  8
외형선
  6
Continuous
370
    15
100
AcDbSpline
210
0.0
220
0.0
230
1.0
 70
     8
 71
     3
 72
     9
 73
     5
 74
     0
 42
0.000000001
 43
0.00000001
 40
0.0
 40
0.0
 40
0.0
 40
0.0
 40
0.444015238882375
 40
1.0
 40
1.0
 40
1.0
 40
1.0
 10
24.94511435483845
 20
-4.965723140060545
 30
0.0
 10
25.24170860509857
 20
-4.96226714260745
 30
0.0
 10
25.90969074689776
 20
-4.954483631704099
 30
0.0
 10
26.60237699938272
 20
-4.964297387587963
 30
0.0
 10
26.98750000000004
 20
-4.969753686308721
 30
0.0
  0
LINE
  5
9E
330
1F
100
AcDbEntity
  8
0
  6
Continuous
 62
     1
370
    15
100
AcDbLine
 10
27.70067548326185
 20
1.766398362507102
 30
0.0
 11
27.60642017014908
 21
1.818070365957165
 31
0.0
1001
PE_URL
1000

  0
LINE
  5
9F
330
1F
100
AcDbEntity
  8
0
  6
Continuous
 62
     1
370
    15
100
AcDbLine
 10
31.17458508382841
 20
1.627046127941392
 30
0.0
 11
29.41161407074209
 21
2.508266496203115
 31
0.0
1001
PE_URL
1000

  0
SPLINE
  5
A0
330
1F
100
AcDbEntity
  8
0
  6
Continuous
 62
     1
370
    15
100
AcDbSpline
210
0.0
220
0.0
230
1.0
 70
     8
 71
     3
 72
     9
 73
     5
 74
     0
 42
0.000000001
 43
0.00000001
 40
0.0
 40
0.0
 40
0.0
 40
0.0
 40
0.4994563820014248
 40
0.9999999999999999
 40
0.9999999999999999
 40
0.9999999999999999
 40
0.9999999999999999
 10
29.0749117775962
 20
5.045956264715993
 30
0.0
 10
28.72677425086587
 20
5.028832468603714
 30
0.0
 10
28.02974135815304
 20
4.994547600636544
 30
0.0
 10
27.33516550867312
 20
4.978024312655819
 30
0.0
 10
26.9875
 20
4.969753686308716
 30
0.0
1001
PE_URL
1000

  0
SPLINE
  5
A1
330
1F
100
AcDbEntity
  8
0
  6
Continuous
 62
     1
370
    15
100
AcDbSpline
210
0.0
220
0.0
230
1.0
 70
     8
 71
     3
 72
    22
 73
    18
 74
     0
 42
0.000000001
 43
0.00000001
 40
0.0
 40
0.0
 40
0.0
 40
0.0
 40
0.0971240184421066
 40
0.1808388304931292
 40
0.2508591345386582
 40
0.3111101372483545
 40
0.3685109924052121
 40
0.423400232305863
 40
0.476512917777065
 40
0.5286308073184914
 40
0.6049785198395954
 40
0.6833271151072416
 40
0.7634341754556393
 40
0.8112745680912415
 40
0.8632958631049864
 40
0.9258062162071896
 40
1.0
 40
1.0
 40
1.0
 40
1.0
 10
45.26559095467468
 20
4.343097875000395
 30
0.0
 10
44.91325400782409
 20
4.314935352292165
 30
0.0
 10
44.2572247121874
 20
4.262498501428873
 30
0.0
 10
43.33220428996633
 20
4.214620296853886
 30
0.0
 10
42.52742027817491
 20
4.188908001524252
 30
0.0
 10
41.81037060685259
 20
4.17837262956952
 30
0.0
 10
41.15974142216
 20
4.177954037357782
 30
0.0
 10
40.54401557308567
 20
4.18718189129516
 30
0.0
 10
39.96233633003526
 20
4.204254629643033
 30
0.0
 10
39.29684411326137
 20
4.231983100736029
 30
0.0
 10
38.53125974439858
 20
4.276345604393615
 30
0.0
 10
37.66267767555401
 20
4.343320829922043
 30
0.0
 10
36.87990598856533
 20
4.419390307350398
 30
0.0
 10
36.19370163511812
 20
4.493245805828606
 30
0.0
 10
35.57329369685267
 20
4.566567560899285
 30
0.0
 10
34.88881898566862
 20
4.663719354162897
 30
0.0
 10
34.4239640050215
 20
4.736535480543037
 30
0.0
 10
34.17167207946235
 20
4.776055161951266
 30
0.0
1001
PE_URL
1000

  0
SPLINE
  5
A2
330
1F
100
AcDbEntity
  8
0
  6
Continuous
 62
     1
370
    15
100
AcDbSpline
210
0.0
220
0.0
230
1.0
 70
     8
 71
     3
 72
    14
 73
    10
 74
     0
 42
0.000000001
 43
0.00000001
 40
0.0
 40
0.0
 40
0.0
 40
0.0
 40
0.1757231863980843
 40
0.3232526103162939
 40
0.4457331287749858
 40
0.5591163564637139
 40
0.6713334145645238
 40
0.8882623500318317
 40
1.0
 40
1.0
 40
1.0
 40
1.0
 10
34.17167207946235
 20
-4.77605516195127
 30
0.0
 10
34.4282097361322
 20
-4.735872628431737
 30
0.0
 10
34.90012507560876
 20
-4.661954615017812
 30
0.0
 10
35.5953034042068
 20
-4.563589597154998
 30
0.0
 10
36.2249277255968
 20
-4.489846213745603
 30
0.0
 10
36.79439703667236
 20
-4.428649638997324
 30
0.0
 10
37.51636820041045
 20
-4.357217189112171
 30
0.0
 10
38.21954224398461
 20
-4.296744828364896
 30
0.0
 10
38.74065200255571
 20
-4.267421790716845
 30
0.0
 10
38.91781506804064
 20
-4.257452759905941
 30
0.0
1001
PE_URL
1000

  0
SPLINE
  5
A3
330
1F
100
AcDbEntity
  8
0
  6
Continuous
 62
     1
370
    15
100
AcDbSpline
210
0.0
220
0.0
230
1.0
 70
     8
 71
     3
 72
     9
 73
     5
 74
     0
 42
0.000000001
 43
0.00000001
 40
0.0
 40
0.0
 40
0.0
 40
0.0
 40
0.500543617998575
 40
1.0
 40
1.0
 40
1.0
 40
1.0
 10
26.9875
 20
-4.969753686308717
 30
0.0
 10
27.33516550867312
 20
-4.978024312655823
 30
0.0
 10
28.02974135815304
 20
-4.994547600636548
 30
0.0
 10
28.72677425086587
 20
-5.028832468603717
 30
0.0
 10
29.0749117775962
 20
-5.045956264715997
 30
0.0
1001
PE_URL
1000

  0
SPLINE
  5
A4
330
1F
100
AcDbEntity
  8
외형선
  6
Continuous
370
    15
100
AcDbSpline
210
0.0
220
0.0
230
1.0
 70
     8
 71
     3
 72
     8
 73
     4
 74
     0
 42
0.000000001
 43
0.00000001
 40
0.0
 40
0.0
 40
0.0
 40
0.0
 40
1.0
 40
1.0
 40
1.0
 40
1.0
 10
26.98750000001312
 20
3.723084914075975
 30
0.0
 10
26.31382446322882
 20
4.039047873153307
 30
0.0
 10
25.63306594808977
 20
4.334893272517459
 30
0.0
 10
24.95727853677895
 20
4.603807095427857
 30
0.0
  0
LINE
  5
A5
330
1F
100
AcDbEntity
  8
외형선
  6
Continuous
370
    15
100
AcDbLine
 10
26.9875
 20
3.723084914082123
 30
0.0
 11
26.98750000000001
 21
2.157593439559937
 31
0.0
  0
SPLINE
  5
A6
330
1F
100
AcDbEntity
  8
외형선
  6
Continuous
370
    15
100
AcDbSpline
210
0.0
220
0.0
230
1.0
 70
     8
 71
     3
 72
     8
 73
     4
 74
     0
 42
0.000000001
 43
0.00000001
 40
0.0
 40
0.0
 40
0.0
 40
0.0
 40
1.0
 40
1.0
 40
1.0
 40
1.0
 10
24.95739179239143
 20
3.216813562184171
 30
0.0
 10
25.63314219677698
 20
2.880195709894586
 30
0.0
 10
26.31386209709351
 20
2.524404739120942
 30
0.0
 10
26.9875
 20
2.157593439559938
 30
0.0
  0
LINE
  5
A7
330
1F
100
AcDbEntity
  8
외형선
  6
Continuous
370
    15
100
AcDbLine
 10
24.95739179239143
 20
4.603994526900556
 30
0.0
 11
24.95739179239143
 21
6.349999999999998
 31
0.0
  0
LINE
  5
A9
330
1F
100
AcDbEntity
  8
외형선
  6
Continuous
370
    15
100
AcDbLine
 10
24.95739179239143
 20
-6.350000000000001
 30
0.0
 11
24.95739179239143
 21
3.216811647972792
 31
0.0
  0
SPLINE
  5
AB
330
1F
100
AcDbEntity
  8
외형선
  6
Continuous
370
    15
100
AcDbSpline
210
0.0
220
0.0
230
1.0
 70
    24
 71
     3
 72
    10
 73
     6
 74
     0
 42
0.000000001
 43
0.00000001
 40
0.0
 40
0.0
 40
0.0
 40
0.0
 40
0.5
 40
0.5
 40
1.0
 40
1.0
 40
1.0
 40
1.0
 10
26.9875
 20
2.157593439559932
 30
0.0
 10
26.9875
 20
2.139526567663266
 30
0.0
 10
26.9875
 20
2.055011209208978
 30
0.0
 10
26.9875
 20
1.767948784852969
 30
0.0
 10
26.9875
 20
1.566611175575368
 30
0.0
 10
26.9875
 20
1.337195793820564
 30
0.0
  0
SPLINE
  5
AC
330
1F
100
AcDbEntity
  8
외형선
  6
Continuous
370
    15
100
AcDbSpline
210
0.0
220
0.0
230
1.0
 70
     8
 71
     3
 72
     8
 73
     4
 74
     0
 42
0.000000001
 43
0.00000001
 40
0.0
 40
0.0
 40
0.0
 40
0.0
 40
1.0
 40
1.0
 40
1.0
 40
1.0
 10
26.98750000000001
 20
1.337195793820559
 30
0.0
 10
26.3138530275034
 20
1.597563258808858
 30
0.0
 10
25.63312382119951
 20
1.851215050914542
 30
0.0
 10
24.95736449829909
 20
2.092342231457369
 30
0.0
  0
SPLINE
  5
AD
330
1F
100
AcDbEntity
  8
외형선
  6
Continuous
370
    15
100
AcDbSpline
210
0.0
220
0.0
230
1.0
 70
     8
 71
     3
 72
     8
 73
     4
 74
     0
 42
0.000000001
 43
0.00000001
 40
0.0
 40
0.0
 40
0.0
 40
0.0
 40
1.0
 40
1.0
 40
1.0
 40
1.0
 10
26.98750000000001
 20
-4.844680807445001
 30
0.0
 10
26.31384835117448
 20
-4.750815856720792
 30
0.0
 10
25.63311434665252
 20
-4.62902405261972
 30
0.0
 10
24.95735042532271
 20
-4.481997801305792
 30
0.0
  0
SPLINE
  5
AE
330
1F
100
AcDbEntity
  8
외형선
  6
Continuous
370
    15
100
AcDbSpline
210
0.0
220
0.0
230
1.0
 70
    24
 71
     3
 72
    14
 73
    10
 74
     0
 42
0.000000001
 43
0.00000001
 40
0.0
 40
0.0
 40
0.0
 40
0.0
 40
0.2500000000000001
 40
0.2500000000000001
 40
0.5000000000000001
 40
0.5000000000000001
 40
0.75
 40
0.75
 40
1.0
 40
1.0
 40
1.0
 40
1.0
 10
26.98749999999998
 20
1.337195793820575
 30
0.0
 10
26.98749999999998
 20
0.7770127768717637
 30
0.0
 10
26.98749999999998
 20
0.1925734905305038
 30
0.0
 10
26.98749999999998
 20
-0.9730164241687619
 30
0.0
 10
26.98749999999998
 20
-1.553594019169751
 30
0.0
 10
26.98749999999998
 20
-2.652291721579473
 30
0.0
 10
26.98749999999998
 20
-3.169826396917764
 30
0.0
 10
26.98749999999998
 20
-4.095202418127421
 30
0.0
 10
26.98749999999998
 20
-4.502808124016521
 30
0.0
 10
26.98749999999998
 20
-4.844680807444996
 30
0.0
  0
SPLINE
  5
AF
330
1F
100
AcDbEntity
  8
외형선
  6
Continuous
370
    15
100
AcDbSpline
210
0.0
220
0.0
230
1.0
 70
    24
 71
     3
 72
    12
 73
     8
 74
     0
 42
0.000000001
 43
0.00000001
 40
0.0
 40
0.0
 40
0.0
 40
0.0
 40
0.0500170824055994
 40
0.3381751518825301
 40
0.6346898248955066
 40
0.8947775154833162
 40
1.0
 40
1.0
 40
1.0
 40
1.0
 10
26.98750000000001
 20
4.961134268077251
 30
0.0
 10
26.98750000000001
 20
4.963029617893606
 30
0.0
 10
26.98750000000001
 20
4.975844443972792
 30
0.0
 10
26.9875
 20
4.849868608634807
 30
0.0
 10
26.98750000000002
 20
4.526107909337711
 30
0.0
 10
26.98750000000001
 20
4.15681292497619
 30
0.0
 10
26.98750000000001
 20
3.871444114632565
 30
0.0
 10
26.98750000000001
 20
3.789247621695193
 30
0.0
  0
SPLINE
  5
B0
330
1F
100
AcDbEntity
  8
외형선
  6
Continuous
370
    15
100
AcDbSpline
210
0.0
220
0.0
230
1.0
 70
    24
 71
     3
 72
     9
 73
     5
 74
     0
 42
0.000000001
 43
0.00000001
 40
0.0
 40
0.0
 40
0.0
 40
0.0
 40
0.568923497793578
 40
1.0
 40
1.0
 40
1.0
 40
1.0
 10
26.9875
 20
-4.844680807444999
 30
0.0
 10
26.98750000000001
 20
-4.88807600766494
 30
0.0
 10
26.98750000000001
 20
-4.964351992728374
 30
0.0
 10
26.98750000000001
 20
-4.962103554825272
 30
0.0
 10
26.98750000000001
 20
-4.961134306078574
 30
0.0
  0
SPLINE
  5
B1
330
1F
100
AcDbEntity
  8
0
  6
Continuous
 62
     1
370
    15
100
AcDbSpline
210
0.0
220
0.0
230
1.0
 70
     8
 71
     3
 72
    38
 73
    34
 74
     0
 42
0.000000001
 43
0.00000001
 40
0.0
 40
0.0
 40
0.0
 40
0.0
 40
0.0625
 40
0.0625
 40
0.125
 40
0.125
 40
0.1875
 40
0.1875
 40
0.25
 40
0.25
 40
0.3124999999999999
 40
0.3124999999999999
 40
0.3749999999999998
 40
0.3749999999999998
 40
0.4374999999999997
 40
0.4374999999999997
 40
0.4999999999999997
 40
0.4999999999999997
 40
0.5624999999999996
 40
0.5624999999999996
 40
0.6249999999999993
 40
0.6249999999999993
 40
0.6874999999999992
 40
0.6874999999999992
 40
0.7499999999999991
 40
0.7499999999999991
 40
0.8124999999999993
 40
0.8124999999999993
 40
0.8749999999999996
 40
0.8749999999999996
 40
0.9374999999999998
 40
0.9374999999999998
 40
1.0
 40
1.0
 40
1.0
 40
1.0
 10
26.98750000000001
 20
2.157593439559936
 30
0.0
 10
27.41563850168442
 20
1.924462198699877
 30
0.0
 10
27.84741070085491
 20
1.685724455574356
 30
0.0
 10
28.70935918085306
 20
1.201889263332524
 30
0.0
 10
29.13694034765111
 20
0.9572985317097756
 30
0.0
 10
29.99591919680072
 20
0.4641391911431997
 30
0.0
 10
30.42809995159968
 20
0.2154129214911605
 30
0.0
 10
31.28895302289829
 20
-0.2812184584902858
 30
0.0
 10
31.71566057855551
 20
-0.5287441731760367
 30
0.0
 10
32.57653517877466
 20
-1.021671607172578
 30
0.0
 10
33.00871297165251
 20
-1.266680688995731
 30
0.0
 10
33.86765864574765
 20
-1.74876007500595
 30
0.0
 10
34.29526531112992
 20
-1.986004198891934
 30
0.0
 10
35.15722360612232
 20
-2.451537622847975
 30
0.0
 10
35.58898692895994
 20
-2.679331175540637
 30
0.0
 10
36.44521921532325
 20
-3.120367362802767
 30
0.0
 10
36.87549488598998
 20
-3.334615952191703
 30
0.0
 10
37.73772140433994
 20
-3.747094146588833
 30
0.0
 10
38.16688280885648
 20
-3.944885777009907
 30
0.0
 10
39.02413591244018
 20
-4.321394398795636
 30
0.0
 10
39.45608767472148
 20
-4.500647215069781
 30
0.0
 10
40.31776609893289
 20
-4.83735992733474
 30
0.0
 10
40.74486477515813
 20
-4.994535342823209
 30
0.0
 10
41.60455570484142
 20
-5.285996570735131
 30
0.0
 10
42.03678090335029
 20
-5.42017395837051
 30
0.0
 10
42.89709664448555
 20
-5.66264344725506
 30
0.0
 10
43.32390408405004
 20
-5.770890772692868
 30
0.0
 10
44.18522450771924
 20
-5.961100964059873
 30
0.0
 10
44.61731148339275
 20
-6.04280328507572
 30
0.0
 10
45.47545424427418
 20
-6.177822860981003
 30
0.0
 10
45.90374285409351
 20
-6.231314994989473
 30
0.0
 10
46.76587931113468
 20
-6.309692807108341
 30
0.0
 10
47.1974168449668
 20
-6.334448321295238
 30
0.0
 10
47.62500000000001
 20
-6.349999999999999
 30
0.0
1001
PE_URL
1000

  0
SPLINE
  5
B2
330
1F
100
AcDbEntity
  8
0
  6
Continuous
 62
     1
370
    15
100
AcDbSpline
210
0.0
220
0.0
230
1.0
 70
     8
 71
     3
 72
    10
 73
     6
 74
     0
 42
0.000000001
 43
0.00000001
 40
0.0
 40
0.0
 40
0.0
 40
0.0
 40
0.2521317758529245
 40
0.6258709247114206
 40
1.0
 40
1.0
 40
1.0
 40
1.0
 10
31.85238093309921
 20
-0.6040894942880803
 30
0.0
 10
31.44353830884129
 20
-0.4403847538302308
 30
0.0
 10
30.42866142376747
 20
-0.034017738235322
 30
0.0
 10
28.80714196137249
 20
0.6262203266313355
 30
0.0
 10
27.59425811314966
 20
1.100121609928888
 30
0.0
 10
26.98750000000001
 20
1.337195793820562
 30
0.0
1001
PE_URL
1000

  0
SPLINE
  5
B3
330
1F
100
AcDbEntity
  8
외형선
  6
Continuous
370
    15
100
AcDbSpline
210
0.0
220
0.0
230
1.0
 70
    24
 71
     3
 72
    10
 73
     6
 74
     0
 42
0.000000001
 43
0.00000001
 40
0.0
 40
0.0
 40
0.0
 40
0.0
 40
0.5
 40
0.5
 40
1.0
 40
1.0
 40
1.0
 40
1.0
 10
26.98750000000001
 20
2.15759343955993
 30
0.0
 10
26.98750000000001
 20
2.139526567663264
 30
0.0
 10
26.98750000000001
 20
2.055011209208976
 30
0.0
 10
26.98750000000001
 20
1.767948784852966
 30
0.0
 10
26.98750000000001
 20
1.566611175575366
 30
0.0
 10
26.98750000000001
 20
1.337195793820563
 30
0.0
  0
SPLINE
  5
B4
330
1F
100
AcDbEntity
  8
0
  6
Continuous
 62
     1
370
    15
100
AcDbSpline
210
0.0
220
0.0
230
1.0
 70
     8
 71
     3
 72
    38
 73
    34
 74
     0
 42
0.000000001
 43
0.00000001
 40
0.0
 40
0.0
 40
0.0
 40
0.0
 40
0.0625
 40
0.0625
 40
0.1250000000000001
 40
0.1250000000000001
 40
0.1875000000000001
 40
0.1875000000000001
 40
0.2500000000000001
 40
0.2500000000000001
 40
0.3125000000000002
 40
0.3125000000000002
 40
0.3750000000000002
 40
0.3750000000000002
 40
0.4375000000000002
 40
0.4375000000000002
 40
0.5000000000000002
 40
0.5000000000000002
 40
0.5625000000000002
 40
0.5625000000000002
 40
0.6250000000000003
 40
0.6250000000000003
 40
0.6875000000000003
 40
0.6875000000000003
 40
0.7500000000000002
 40
0.7500000000000002
 40
0.8125000000000002
 40
0.8125000000000002
 40
0.8750000000000001
 40
0.8750000000000001
 40
0.9375000000000001
 40
0.9375000000000001
 40
1.0
 40
1.0
 40
1.0
 40
1.0
 10
47.62500000000001
 20
-6.025774519622565
 30
0.0
 10
47.19741684496698
 20
-5.94761397105701
 30
0.0
 10
46.76587931113504
 20
-5.855404311552685
 30
0.0
 10
45.90374285409425
 20
-5.644562945548263
 30
0.0
 10
45.47545424427511
 20
-5.526176274527662
 30
0.0
 10
44.61731148339406
 20
-5.264562178400261
 30
0.0
 10
44.18522450772073
 20
-5.121056954536357
 30
0.0
 10
43.32390408405192
 20
-4.811514687397219
 30
0.0
 10
42.8970966444876
 20
-4.645838521038419
 30
0.0
 10
42.03678090335274
 20
-4.293128540982632
 30
0.0
 10
41.60455570484404
 20
-4.106209376300551
 30
0.0
 10
40.74486477516111
 20
-3.715103020527825
 30
0.0
 10
40.31776609893608
 20
-3.511022671309808
 30
0.0
 10
39.45608767472504
 20
-3.086522089441677
 30
0.0
 10
39.02413591244391
 20
-2.866493968482141
 30
0.0
 10
38.16688280886055
 20
-2.415476852789084
 30
0.0
 10
37.73772140434423
 20
-2.183829989221107
 30
0.0
 10
36.87549488599466
 20
-1.7108706786555
 30
0.0
 10
36.44521921532805
 20
-1.470067275679049
 30
0.0
 10
35.58898692896517
 20
-0.9836594429089742
 30
0.0
 10
35.15722360612775
 20
-0.7369528262842441
 30
0.0
 10
34.29526531113571
 20
-0.2415793898968269
 30
0.0
 10
33.86765864575359
 20
0.0065813317679533
 30
0.0
 10
33.00871297165888
 20
0.5024537311925689
 30
0.0
 10
32.57653517878121
 20
0.7503235113464826
 30
0.0
 10
31.7156605785624
 20
1.240823740724459
 30
0.0
 10
31.28895302290536
 20
1.483088358829838
 30
0.0
 10
30.42809995160717
 20
1.961114321809462
 30
0.0
 10
29.99591919680838
 20
2.196485796992944
 30
0.0
 10
29.13694034765909
 20
2.655123458141615
 30
0.0
 10
28.70935918086128
 20
2.878556625435138
 30
0.0
 10
27.84741070086352
 20
3.312373514467739
 30
0.0
 10
27.4156385016932
 20
3.522282152955297
 30
0.0
 10
26.98750000000893
 20
3.723084914077938
 30
0.0
1001
PE_URL
1000

  0
SPLINE
  5
B5
330
1F
100
AcDbEntity
  8
0
  6
Continuous
 62
     1
370
    15
100
AcDbSpline
210
0.0
220
0.0
230
1.0
 70
     8
 71
     3
 72
    16
 73
    12
 74
     0
 42
0.000000001
 43
0.00000001
 40
0.0
 40
0.0
 40
0.0
 40
0.0
 40
0.1145633684449978
 40
0.2290437727866843
 40
0.3434877770281971
 40
0.457942191923994
 40
0.5724537576079276
 40
0.687043325465526
 40
0.8015640894289232
 40
0.9160225400290137
 40
1.0
 40
1.0
 40
1.0
 40
1.0
 10
47.62500000000001
 20
-5.009973878738173
 30
0.0
 10
46.99495917176268
 20
-4.880743906363646
 30
0.0
 10
45.73533377607254
 20
-4.622377546928331
 30
0.0
 10
43.84661160555927
 20
-4.059153681019598
 30
0.0
 10
41.95855687653831
 20
-3.387163440475391
 30
0.0
 10
40.07030572386847
 20
-2.612639622520251
 30
0.0
 10
38.18113280228781
 20
-1.761970956079741
 30
0.0
 10
36.29126457010599
 20
-0.8593037578078019
 30
0.0
 10
34.40198634041326
 20
0.0674445206594566
 30
0.0
 10
32.68117913591584
 20
0.915510328141701
 30
0.0
 10
31.59008150650686
 20
1.427461160098188
 30
0.0
 10
31.12833238441281
 20
1.644117159377814
 30
0.0
1001
PE_URL
1000

  0
LINE
  5
B6
330
1F
100
AcDbEntity
  8
0
  6
Continuous
 62
     1
370
    15
100
AcDbLine
 10
47.62500000000001
 20
-6.025774519622565
 30
0.0
 11
47.62500000000001
 21
-5.009973878738173
 31
0.0
1001
PE_URL
1000

  0
LINE
  5
B7
330
1F
100
AcDbEntity
  8
0
  6
Continuous
 62
     1
370
    15
100
AcDbLine
 10
47.62500000000001
 20
-6.350000000000002
 30
0.0
 11
47.62500000000001
 21
-6.025774519622565
 31
0.0
1001
PE_URL
1000

  0
SPLINE
  5
B8
330
1F
100
AcDbEntity
  8
0
  6
Continuous
 62
     1
370
    15
100
AcDbSpline
210
0.0
220
0.0
230
1.0
 70
     8
 71
     3
 72
     8
 73
     4
 74
     0
 42
0.000000001
 43
0.00000001
 40
0.0
 40
0.0
 40
0.0
 40
0.0
 40
1.0
 40
1.0
 40
1.0
 40
1.0
 10
43.69610935627956
 20
1.776017074452405
 30
0.0
 10
43.47095661831214
 20
2.042719345426474
 30
0.0
 10
43.2693753469785
 20
2.300050926276651
 30
0.0
 10
43.0974705694501
 20
2.545584801378031
 30
0.0
1001
PE_URL
1000

  0
LINE
  5
B9
330
1F
100
AcDbEntity
  8
0
  6
Continuous
 62
     1
370
    15
100
AcDbLine
 10
43.17775512375335
 20
2.612951541294601
 30
0.0
 11
47.62500000000001
 21
0.0000000000000012
 31
0.0
1001
PE_URL
1000

  0
LINE
  5
BA
330
1F
100
AcDbEntity
  8
0
  6
Continuous
 62
     1
370
    15
100
AcDbLine
 10
47.62500000000001
 20
0.0000000000000012
 30
0.0
 11
47.62500000000001
 21
-1.696992707288244
 31
0.0
1001
PE_URL
1000

  0
SPLINE
  5
BB
330
1F
100
AcDbEntity
  8
0
  6
Continuous
 62
     1
370
    15
100
AcDbSpline
210
0.0
220
0.0
230
1.0
 70
     8
 71
     3
 72
    12
 73
     8
 74
     0
 42
0.000000001
 43
0.00000001
 40
0.0
 40
0.0
 40
0.0
 40
0.0
 40
0.4999999999999993
 40
0.4999999999999993
 40
0.7499999999999997
 40
0.7499999999999997
 40
1.0
 40
1.0
 40
1.0
 40
1.0
 10
47.62500000000001
 20
-1.696992707288243
 30
0.0
 10
46.94489727265295
 20
-1.162318204574253
 30
0.0
 10
46.27615445793661
 20
-0.6057234975937682
 30
0.0
 10
45.29052321729134
 20
0.2629039036822222
 30
0.0
 10
44.96494021316177
 20
0.5581594504446529
 30
0.0
 10
44.32042402705684
 20
1.16150210920197
 30
0.0
 10
44.00324347731787
 20
1.468032404441029
 30
0.0
 10
43.69610935627956
 20
1.776017074452405
 30
0.0
1001
PE_URL
1000

  0
SPLINE
  5
BC
330
1F
100
AcDbEntity
  8
0
  6
Continuous
 62
     1
370
    15
100
AcDbSpline
210
0.0
220
0.0
230
1.0
 70
     8
 71
     3
 72
    15
 73
    11
 74
     0
 42
0.000000001
 43
0.00000001
 40
0.0
 40
0.0
 40
0.0
 40
0.0
 40
0.1188365899487454
 40
0.2479594586273698
 40
0.3771477100358806
 40
0.506425186722319
 40
0.635623945404375
 40
0.764751424031732
 40
0.8938610618767434
 40
1.0
 40
1.0
 40
1.0
 40
1.0
 10
43.69610935627746
 20
1.776017074453309
 30
0.0
 10
43.11695761332125
 20
2.022469127968584
 30
0.0
 10
41.90852380763516
 20
2.536705675765924
 30
0.0
 10
40.07031614165245
 20
3.236937989898139
 30
0.0
 10
38.18115355928171
 20
3.864779706332944
 30
0.0
 10
36.29130970807835
 20
4.377378290421611
 30
0.0
 10
34.40203643294398
 20
4.762761760521887
 30
0.0
 10
32.51371027483098
 20
5.003949542294699
 30
0.0
 10
30.73781291884434
 20
5.10611405600524
 30
0.0
 10
29.59121327682502
 20
5.05865141253042
 30
0.0
 10
29.07389295743294
 20
5.037237320826759
 30
0.0
1001
PE_URL
1000

  0
SPLINE
  5
BD
330
1F
100
AcDbEntity
  8
0
  6
Continuous
 62
     1
370
    15
100
AcDbSpline
210
0.0
220
0.0
230
1.0
 70
    24
 71
     3
 72
    10
 73
     6
 74
     0
 42
0.000000001
 43
0.00000001
 40
0.0
 40
0.0
 40
0.0
 40
0.0
 40
0.5
 40
0.5
 40
1.0
 40
1.0
 40
1.0
 40
1.0
 10
47.62500000000001
 20
-5.009973878738172
 30
0.0
 10
47.62500000000001
 20
-4.625920320174163
 30
0.0
 10
47.62500000000001
 20
-4.140653922806076
 30
0.0
 10
47.62500000000001
 20
-3.012456250606818
 30
0.0
 10
47.62500000000001
 20
-2.370502263375817
 30
0.0
 10
47.62500000000001
 20
-1.696992707288447
 30
0.0
1001
PE_URL
1000

  0
SPLINE
  5
BE
330
1F
100
AcDbEntity
  8
외형선
  6
Continuous
370
    15
100
AcDbSpline
210
0.0
220
0.0
230
1.0
 70
    24
 71
     3
 72
    12
 73
     8
 74
     0
 42
0.000000001
 43
0.00000001
 40
0.0
 40
0.0
 40
0.0
 40
0.0
 40
0.05097917026755
 40
0.3388454098854045
 40
0.635059789953621
 40
0.8948840787417531
 40
1.0
 40
1.0
 40
1.0
 40
1.0
 10
26.98750000000001
 20
4.961054463029961
 30
0.0
 10
26.98750000000001
 20
4.962998237755815
 30
0.0
 10
26.98750000000001
 20
4.975918007541204
 30
0.0
 10
26.98750000000001
 20
4.84992302838565
 30
0.0
 10
26.98750000000001
 20
4.526094816260016
 30
0.0
 10
26.98750000000001
 20
4.156813994399169
 30
0.0
 10
26.98750000000001
 20
3.871444353781411
 30
0.0
 10
26.98750000000001
 20
3.789247621695193
 30
0.0
  0
SPLINE
  5
BF
330
1F
100
AcDbEntity
  8
0
  6
Continuous
 62
     1
370
    15
100
AcDbSpline
210
0.0
220
0.0
230
1.0
 70
    24
 71
     3
 72
     8
 73
     4
 74
     0
 42
0.000000001
 43
0.00000001
 40
0.0
 40
0.0
 40
0.0
 40
0.0
 40
1.0
 40
1.0
 40
1.0
 40
1.0
 10
43.75979688430282
 20
3.101342567901438
 30
0.0
 10
43.55126375333017
 20
2.926362494614037
 30
0.0
 10
43.32904178445885
 20
2.739896122494631
 30
0.0
 10
43.09747056944504
 20
2.545584801385262
 30
0.0
1001
PE_URL
1000

  0
SPLINE
  5
C0
330
1F
100
AcDbEntity
  8
0
  6
Continuous
 62
     1
370
    15
100
AcDbSpline
210
0.0
220
0.0
230
1.0
 70
     8
 71
     3
 72
     9
 73
     5
 74
     0
 42
0.000000001
 43
0.00000001
 40
0.0
 40
0.0
 40
0.0
 40
0.0
 40
0.7998720405000247
 40
1.0
 40
1.0
 40
1.0
 40
1.0
 10
47.62500000000001
 20
4.444999999999998
 30
0.0
 10
46.99495795521003
 20
4.440389385623404
 30
0.0
 10
46.20727941053165
 20
4.434625195674082
 30
0.0
 10
45.41969276540701
 20
4.348232719239153
 30
0.0
 10
45.26207465718879
 20
4.330943169214082
 30
0.0
1001
PE_URL
1000

  0
SPLINE
  5
C1
330
1F
100
AcDbEntity
  8
0
  6
Continuous
 62
     1
370
    15
100
AcDbSpline
210
0.0
220
0.0
230
1.0
 70
     8
 71
     3
 72
    10
 73
     6
 74
     0
 42
0.000000001
 43
0.00000001
 40
0.0
 40
0.0
 40
0.0
 40
0.0
 40
0.5
 40
0.5
 40
1.0
 40
1.0
 40
1.0
 40
1.0
 10
47.62500000000001
 20
4.445000000000001
 30
0.0
 10
46.97166113388164
 20
4.267805132207945
 30
0.0
 10
46.32232101282631
 20
4.068866271955328
 30
0.0
 10
45.0323433579302
 20
3.623666457193527
 30
0.0
 10
44.39212993873348
 20
3.378093991209913
 30
0.0
 10
43.75979688430186
 20
3.101342567902347
 30
0.0
1001
PE_URL
1000

  0
SPLINE
  5
C2
330
1F
100
AcDbEntity
  8
0
  6
Continuous
 62
     1
370
    15
100
AcDbSpline
210
0.0
220
0.0
230
1.0
 70
     8
 71
     3
 72
    11
 73
     7
 74
     0
 42
0.000000001
 43
0.00000001
 40
0.0
 40
0.0
 40
0.0
 40
0.0
 40
0.2310505622787336
 40
0.4937474040055596
 40
0.7467451588760703
 40
1.0
 40
1.0
 40
1.0
 40
1.0
 10
34.17402982629461
 20
-4.768121245257499
 30
0.0
 10
33.62056107001533
 20
-4.847975004619296
 30
0.0
 10
32.43781665720835
 20
-5.018619845281519
 30
0.0
 10
30.64907434285844
 20
-5.098421939618667
 30
0.0
 10
28.80716497700381
 20
-5.059540485090844
 30
0.0
 10
27.59426030559798
 20
-4.916324942665833
 30
0.0
 10
26.98750000000001
 20
-4.844680807445001
 30
0.0
1001
PE_URL
1000

  0
SPLINE
  5
C3
330
1F
100
AcDbEntity
  8
외형선
  6
Continuous
370
    15
100
AcDbSpline
210
0.0
220
0.0
230
1.0
 70
    24
 71
     3
 72
    14
 73
    10
 74
     0
 42
0.000000001
 43
0.00000001
 40
0.0
 40
0.0
 40
0.0
 40
0.0
 40
0.25
 40
0.25
 40
0.5
 40
0.5
 40
0.75
 40
0.75
 40
1.0
 40
1.0
 40
1.0
 40
1.0
 10
26.98749999999998
 20
1.337195793820573
 30
0.0
 10
26.98749999999998
 20
0.7770127768717621
 30
0.0
 10
26.98749999999998
 20
0.1925734905305017
 30
0.0
 10
26.98749999999998
 20
-0.9730164241687632
 30
0.0
 10
26.98749999999998
 20
-1.553594019169753
 30
0.0
 10
26.98749999999998
 20
-2.652291721579473
 30
0.0
 10
26.98749999999998
 20
-3.169826396917764
 30
0.0
 10
26.98749999999998
 20
-4.095202418127423
 30
0.0
 10
26.98749999999998
 20
-4.502808124016523
 30
0.0
 10
26.98749999999998
 20
-4.844680807444997
 30
0.0
  0
LINE
  5
C4
330
1F
100
AcDbEntity
  8
0
  6
Continuous
 62
     1
370
    15
100
AcDbLine
 10
47.62500000000001
 20
0.0000000000000012
 30
0.0
 11
47.62500000000001
 21
4.444999999999999
 31
0.0
1001
PE_URL
1000

  0
SPLINE
  5
C5
330
1F
100
AcDbEntity
  8
외형선
  6
Continuous
370
    15
100
AcDbSpline
210
0.0
220
0.0
230
1.0
 70
    24
 71
     3
 72
     9
 73
     5
 74
     0
 42
0.000000001
 43
0.00000001
 40
0.0
 40
0.0
 40
0.0
 40
0.0
 40
0.5706043412168934
 40
1.0
 40
1.0
 40
1.0
 40
1.0
 10
26.9875
 20
-4.844680807444999
 30
0.0
 10
26.98750000000001
 20
-4.888101037882797
 30
0.0
 10
26.98750000000001
 20
-4.964196201030695
 30
0.0
 10
26.98750000000001
 20
-4.961998252561056
 30
0.0
 10
26.98750000000001
 20
-4.961054463029964
 30
0.0
  0
SPLINE
  5
C6
330
1F
100
AcDbEntity
  8
0
  6
Continuous
 62
     1
370
    15
100
AcDbSpline
210
0.0
220
0.0
230
1.0
 70
    24
 71
     3
 72
    10
 73
     6
 74
     0
 42
0.000000001
 43
0.00000001
 40
0.0
 40
0.0
 40
0.0
 40
0.0
 40
0.5
 40
0.5
 40
1.0
 40
1.0
 40
1.0
 40
1.0
 10
47.62500000000001
 20
4.444999999999998
 30
0.0
 10
47.62500000000001
 20
4.714444830726441
 30
0.0
 10
47.62500000000002
 20
5.027564677306191
 30
0.0
 10
47.62500000000001
 20
5.684489272101427
 30
0.0
 10
47.62500000000001
 20
6.026616317339347
 30
0.0
 10
47.62500000000001
 20
6.350000000000001
 30
0.0
1001
PE_URL
1000

  0
SPLINE
  5
C7
330
1F
100
AcDbEntity
  8
0
  6
Continuous
 62
     1
370
    15
100
AcDbSpline
210
0.0
220
0.0
230
1.0
 70
     8
 71
     3
 72
    17
 73
    13
 74
     0
 42
0.000000001
 43
0.00000001
 40
0.0
 40
0.0
 40
0.0
 40
0.0
 40
0.0205630556854812
 40
0.1259162894439933
 40
0.2330690521655905
 40
0.3404159986990736
 40
0.4483502094535304
 40
0.556483105520648
 40
0.6668285709751248
 40
0.7773863720122967
 40
0.8885845899692281
 40
1.0
 40
1.0
 40
1.0
 40
1.0
 10
38.88967399697231
 20
4.258263013174638
 30
0.0
 10
38.94951982910099
 20
4.284644876953823
 30
0.0
 10
39.31598117782228
 20
4.446192190081863
 30
0.0
 10
39.99541963749709
 20
4.714631359366505
 30
0.0
 10
40.92591543075161
 20
5.061396001134987
 30
0.0
 10
41.8650972553423
 20
5.370145612110412
 30
0.0
 10
42.80712025806839
 20
5.641502290390008
 30
0.0
 10
43.75675519839253
 20
5.874041724271596
 30
0.0
 10
44.71581246231734
 20
6.063302701712651
 30
0.0
 10
45.68180251953292
 20
6.207672116719989
 30
0.0
 10
46.65263098920008
 20
6.307136477172071
 30
0.0
 10
47.30066624541935
 20
6.332126083193943
 30
0.0
 10
47.62499999999997
 20
6.349999999999999
 30
0.0
1001
PE_URL
1000

  0
LINE
  5
C8
330
1F
100
AcDbEntity
  8
중심선
 62
     1
100
AcDbLine
 10
-50.625
 20
-0.0000000000000062
 30
0.0
 11
50.625
 21
0.0000000000000062
 31
0.0
  0
LINE
  5
C9
330
1F
100
AcDbEntity
  8
참조1
100
AcDbLine
 10
0.0
 20
-0.0000000000000058
 30
0.0
 11
0.0000000000000071
 21
-40.00000000000001
 31
0.0
  0
LINE
  5
CA
330
1F
100
AcDbEntity
  8
참조1
100
AcDbLine
 10
0.0000000000000071
 20
-40.00000000000001
 30
0.0
 11
-12.87821559669922
 21
-40.0
 31
0.0
  0
CIRCLE
  5
CB
330
1F
100
AcDbEntity
  8
해칭선
100
AcDbCircle
 10
0.0
 20
0.0
 30
0.0
 40
3.000000000000001
  0
INSERT
  5
CC
330
1F
100
AcDbEntity
  8
0
  6
Continuous
 62
     7
100
AcDbBlockReference
 66
     1
  2
블럭10
 10
-13.94027293212521
 20
-52.04717430164393
 30
0.0
  0
ATTRIB
  5
CD
330
CC
100
AcDbEntity
  8
FORMAT
 62
     2
100
AcDbText
 10
-23.12156822086649
 20
-49.97180738881175
 30
0.0
 40
4.233333333333333
  1
E1050032 [ 2 FLUTE ]
 41
0.75
  7
SLDTEXTSTYLE0
 11
-23.12156822086649
 21
-52.08847405547841
 31
0.0
100
AcDbAttribute
  2
AUTOATTR0
 70
     0
 74
     1
  0
SEQEND
  5
CE
330
CC
100
AcDbEntity
  8
0
  6
Continuous
 62
     7
  0
HATCH
  5
CF
330
1F
100
AcDbEntity
  8
중심선
100
AcDbHatch
 10
0.0
 20
0.0
 30
0.0
210
0.0
220
0.0
230
1.0
  2
SOLID
 70
     1
 71
     0
 91
        1
 92
        0
 93
        4
 72
     1
 10
-8.225363627744372
 20
-35.8
 11
-11.67163887158165
 21
-35.8
 72
     1
 10
-11.67163887158165
 20
-35.8
 11
-13.79986873078568
 21
-38.33632558057257
 72
     1
 10
-13.79986873078568
 20
-38.33632558057257
 11
-10.35356040183525
 21
-38.33628615127008
 72
     1
 10
-10.35356040183525
 20
-38.33628615127008
 11
-8.225363627744372
 21
-35.8
 97
        0
 75
     0
 76
     1
 98
        1
 10
16.58171167873051
 20
-0.001074928723895
  0
HATCH
  5
D0
330
1F
100
AcDbEntity
  8
중심선
100
AcDbHatch
 10
0.0
 20
0.0
 30
0.0
210
0.0
220
0.0
230
1.0
  2
SOLID
 70
     1
 71
     0
 91
        1
 92
        0
 93
        4
 72
     1
 10
-3.212599636708394
 20
-35.8
 11
-6.658874880545646
 21
-35.8
 72
     1
 10
-6.658874880545646
 20
-35.8
 11
-11.19001288890309
 21
-41.20000000000002
 72
     1
 10
-11.19001288890309
 20
-41.20000000000002
 11
-7.743737645065806
 21
-41.20000000000002
 72
     1
 10
-7.743737645065806
 20
-41.20000000000002
 11
-3.212599636708394
 21
-35.8
 97
        0
 75
     0
 76
     1
 98
        1
 10
16.58171167873051
 20
-0.001074928723895
  0
HATCH
  5
D1
330
1F
100
AcDbEntity
  8
중심선
100
AcDbHatch
 10
0.0
 20
0.0
 30
0.0
210
0.0
220
0.0
230
1.0
  2
SOLID
 70
     1
 71
     0
 91
        1
 92
        0
 93
        4
 72
     1
 10
1.800164354327503
 20
-35.80000000000003
 11
-1.646110889509611
 21
-35.8
 72
     1
 10
-1.646110889509611
 20
-35.8
 11
-8.69454779139889
 21
-44.20000000000002
 72
     1
 10
-8.69454779139889
 20
-44.20000000000002
 11
-5.248272547561605
 21
-44.20000000000002
 72
     1
 10
-5.248272547561605
 20
-44.20000000000002
 11
1.800164354327503
 21
-35.80000000000003
 97
        0
 75
     0
 76
     1
 98
        1
 10
16.58171167873051
 20
-0.001074928723895
  0
HATCH
  5
D2
330
1F
100
AcDbEntity
  8
중심선
100
AcDbHatch
 10
0.0
 20
0.0
 30
0.0
210
0.0
220
0.0
230
1.0
  2
SOLID
 70
     1
 71
     0
 91
        1
 92
        0
 93
        6
 72
     3
 10
6.600054785339674
 20
-40.00000000005127
 11
3.960054785062283
 21
1.540882976769353E-10
 40
0.3939339440162628
 50
17.09539180608437
 51
320.0019657685077
 73
     0
 72
     1
 10
8.283054441040242
 20
-38.5878940046383
 11
10.58835631474131
 21
-36.65356729459035
 72
     3
 10
6.600054785286828
 20
-40.00000000000015
 11
6.600054785286829
 21
-1.278976924368180E-13
 40
0.636358354079598
 50
39.9987384933743
 51
368.4976242363725
 73
     1
 72
     1
 10
13.02538727718744
 20
-39.03999999993002
 11
5.280122092122751
 21
-39.03999999993
 72
     1
 10
5.280122092122751
 20
-39.03999999993
 11
5.280097047676817
 21
-40.95999999992991
 72
     1
 10
5.280097047676817
 20
-40.95999999992991
 11
9.721476817148854
 21
-40.95999999992988
 97
        0
 75
     0
 76
     1
 98
        1
 10
16.58171167873051
 20
-0.001074928723895
  0
DIMENSION
  5
D3
330
1F
100
AcDbEntity
  8
치수문자_일반주서
100
AcDbDimension
  2
_D
 10
-57.62499999999994
 20
-6.350000000000122
 30
0.0
 11
-57.62500000000006
 21
26.51649999999987
 31
0.0
 70
   160
  1
%%c<>
 71
     2
 42
12.7
 52
-270.0
  3
SLDDIMSTYLE0
100
AcDbAlignedDimension
 13
-24.95739179239143
 23
6.349999999999995
 33
0.0
 14
-24.95739179239142
 24
-6.350000000000004
 34
0.0
 50
90.0000000000002
100
AcDbRotatedDimension
1001
PE_URL
1000

1001
ACAD
1000
DSTYLE
1002
{
1070
   171
1070
     8
1070
   273
1070
     7
1002
}
  0
DIMENSION
  5
E8
330
1F
100
AcDbEntity
  8
치수문자_일반주서
100
AcDbDimension
  2
_D_1
 10
89.85821124663025
 20
6.350000000000154
 30
0.0
 11
89.85821124663018
 21
26.51650000000016
 31
0.0
 70
   160
  1
%%c<>
 71
     2
 42
12.7
 52
-270.0
  3
SLDDIMSTYLE0
100
AcDbAlignedDimension
 13
47.62500000000001
 23
-6.349999999999999
 33
0.0
 14
47.62499999999997
 24
6.349999999999999
 34
0.0
 50
90.0000000000002
100
AcDbRotatedDimension
1001
PE_URL
1000

1001
ACAD
1000
DSTYLE
1002
{
1070
   171
1070
     8
1070
   273
1070
     7
1002
}
  0
DIMENSION
  5
FC
330
1F
100
AcDbEntity
  8
치수문자_일반주서
100
AcDbDimension
  2
_D_2
 10
26.98750000000001
 20
16.35
 30
0.0
 11
68.88525000000001
 21
16.35
 31
0.0
 70
   160
  1
<>
 71
     2
 42
20.6375
  3
SLDDIMSTYLE0
100
AcDbAlignedDimension
 13
47.62500000000001
 23
6.350000000000001
 33
0.0
 14
26.98750000000001
 24
4.9700244603205
 34
0.0
100
AcDbRotatedDimension
1001
PE_URL
1000

1001
ACAD
1000
DSTYLE
1002
{
1070
   171
1070
     8
1070
   273
1070
     7
1002
}
  0
DIMENSION
  5
110
330
1F
100
AcDbEntity
  8
치수문자_일반주서
100
AcDbDimension
  2
_D_3
 10
47.62500000000001
 20
26.35
 30
0.0
 11
0.0000000000000142
 21
26.35
 31
0.0
 70
   160
  1
<>
 71
     2
 42
95.25000000000003
  3
SLDDIMSTYLE0
100
AcDbAlignedDimension
 13
-47.62500000000001
 23
6.344633076708234
 33
0.0
 14
47.62500000000001
 24
6.350000000000001
 34
0.0
100
AcDbRotatedDimension
1001
PE_URL
1000

1001
ACAD
1000
DSTYLE
1002
{
1070
   171
1070
     8
1070
   273
1070
     7
1002
}
  0
LINE
  5
123
330
1F
100
AcDbEntity
  8
참조1
100
AcDbLine
 10
85.09412503295505
 20
7.44
 30
0.0
 11
85.09412503295505
 21
-7.440000000000004
 31
0.0
  0
LINE
  5
124
330
1F
100
AcDbEntity
  8
참조1
100
AcDbLine
 10
97.79412503295505
 20
5.44
 30
0.0
 11
85.09412503295505
 21
5.44
 31
0.0
  0
SOLID
  5
125
330
1F
100
AcDbEntity
  8
참조1
100
AcDbTrace
 10
85.09412503295505
 20
5.44
 30
0.0
 11
91.44412503295504
 21
4.424
 31
0.0
 12
91.44412503295504
 22
6.456
 32
0.0
 13
91.44412503295504
 23
6.456
 33
0.0
  0
LINE
  5
126
330
1F
100
AcDbEntity
  8
참조1
100
AcDbLine
 10
97.79412503295505
 20
-5.440000000000004
 30
0.0
 11
85.09412503295505
 21
-5.440000000000004
 31
0.0
  0
SOLID
  5
127
330
1F
100
AcDbEntity
  8
참조1
100
AcDbTrace
 10
85.09412503295505
 20
-5.440000000000004
 30
0.0
 11
91.44412503295504
 21
-6.456000000000004
 31
0.0
 12
91.44412503295504
 22
-4.424000000000004
 32
0.0
 13
91.44412503295504
 23
-4.424000000000004
 33
0.0
  0
MTEXT
  5
128
330
1F
100
AcDbEntity
  8
참조1
100
AcDbMText
 10
94.47847516558105
 20
11.01029177718833
 30
0.0
 40
3.5
 41
0.0
 71
     1
 72
     1
  1
A
  7
SLDTEXTSTYLE0
 73
     1
 44
1.0
  0
MTEXT
  5
129
330
1F
100
AcDbEntity
  8
참조1
100
AcDbMText
 10
94.47847516558105
 20
0.1302917771883242
 30
0.0
 40
3.5
 41
0.0
 71
     1
 72
     1
  1
A
  7
SLDTEXTSTYLE0
 73
     1
 44
1.0
  0
INSERT
  5
130
330
1F
100
AcDbEntity
  8
해칭선
100
AcDbBlockReference
  2
SW_DOWELSYMBOL_0
 10
0.0
 20
0.0
 30
0.0
  0
LINE
  5
1A3
330
1F
100
AcDbEntity
  8
외형선
  6
Continuous
370
    15
100
AcDbLine
 10
-5.587999999999937
 20
4.826
 30
0.0
 11
5.587999999999937
 21
4.826
 31
0.0
1001
PE_URL
1000

  0
LINE
  5
1A4
330
1F
100
AcDbEntity
  8
외형선
  6
Continuous
370
    15
100
AcDbLine
 10
-5.587999999999937
 20
4.826
 30
0.0
 11
-7.111999999999938
 21
6.349999999999997
 31
0.0
1001
PE_URL
1000

  0
LINE
  5
1A5
330
1F
100
AcDbEntity
  8
외형선
  6
Continuous
370
    15
100
AcDbLine
 10
5.588000000000051
 20
4.826
 30
0.0
 11
7.112000000000052
 21
6.349999999999997
 31
0.0
1001
PE_URL
1000

  0
LINE
  5
220
330
1F
100
AcDbEntity
  8
외형선
  6
Continuous
370
    15
100
AcDbLine
 10
-7.111999999999945
 20
6.349999999999996
 30
0.0
 11
-24.95739179239143
 21
6.349999999999995
 31
0.0
  0
SPLINE
  5
27A
330
1F
100
AcDbEntity
  8
외형선
  6
Continuous
370
    15
100
AcDbSpline
210
0.0
220
0.0
230
1.0
 70
     8
 71
     3
 72
     9
 73
     5
 74
     0
 42
0.000000001
 43
0.00000001
 40
0.0
 40
0.0
 40
0.0
 40
0.0
 40
0.5541871195155239
 40
1.0
 40
1.0
 40
1.0
 40
1.0
 10
-27.05000000000004
 20
-4.969753686308721
 30
0.0
 10
-26.74996512310976
 20
-4.965181247031797
 30
0.0
 10
-26.20856878543852
 20
-4.956930533300088
 30
0.0
 10
-25.69076653461754
 20
-4.959509123539231
 30
0.0
 10
-25.4599236216577
 20
-4.960658692281331
 30
0.0
  0
LINE
  5
27B
330
1F
100
AcDbEntity
  8
외형선
  6
Continuous
370
    15
100
AcDbLine
 10
-25.02584859720056
 20
-5.413366660524581
 30
0.0
 11
-25.02334631832817
 21
-5.415012955672122
 31
0.0
  0
SPLINE
  5
27C
330
1F
100
AcDbEntity
  8
외형선
  6
Continuous
370
    15
100
AcDbSpline
210
0.0
220
0.0
230
1.0
 70
     8
 71
     3
 72
    17
 73
    13
 74
     0
 42
0.000000001
 43
0.00000001
 40
0.0
 40
0.0
 40
0.0
 40
0.0
 40
0.0019303585552584
 40
0.00367074356276
 40
0.0053864631486127
 40
0.0072609238556131
 40
0.0120459434294502
 40
0.0188250911127531
 40
0.0726695635803591
 40
0.353226975627791
 40
0.7901223275619398
 40
1.0
 40
1.0
 40
1.0
 40
1.0
 10
-25.51665771324314
 20
-4.960241895280824
 30
0.0
 10
-25.51634514541237
 20
-4.960254982399917
 30
0.0
 10
-25.51575077067839
 20
-4.960279868687508
 30
0.0
 10
-25.51449750981597
 20
-4.960515700506438
 30
0.0
 10
-25.51302952276347
 20
-4.960930519527558
 30
0.0
 10
-25.51060218411978
 20
-4.961809598330792
 30
0.0
 10
-25.50691295646439
 20
-4.963522245581046
 30
0.0
 10
-25.49117995932088
 20
-4.972263568673462
 30
0.0
 10
-25.42374858339457
 20
-5.023559504017232
 30
0.0
 10
-25.27514252520838
 20
-5.15872044395989
 30
0.0
 10
-25.09960593558277
 20
-5.339368305445106
 30
0.0
 10
-25.05066443059444
 20
-5.390799268520546
 30
0.0
 10
-25.03478292539014
 20
-5.407488602204488
 30
0.0
  0
SPLINE
  5
27D
330
1F
100
AcDbEntity
  8
외형선
  6
Continuous
370
    15
100
AcDbSpline
210
0.0
220
0.0
230
1.0
 70
     8
 71
     3
 72
     9
 73
     5
 74
     0
 42
0.000000001
 43
0.00000001
 40
0.0
 40
0.0
 40
0.0
 40
0.0
 40
0.444015238882375
 40
1.0
 40
1.0
 40
1.0
 40
1.0
 10
-25.00761435483846
 20
4.96572314006054
 30
0.0
 10
-25.30420860509858
 20
4.962267142607445
 30
0.0
 10
-25.97219074689777
 20
4.954483631704097
 30
0.0
 10
-26.66487699938273
 20
4.964297387587958
 30
0.0
 10
-27.05000000000005
 20
4.969753686308717
 30
0.0
  0
LINE
  5
27E
330
1F
100
AcDbEntity
  8
0
  6
Continuous
 62
     1
370
    15
100
AcDbLine
 10
-27.76317548326186
 20
-1.766398362507104
 30
0.0
 11
-27.66892017014909
 21
-1.818070365957169
 31
0.0
1001
PE_URL
1000

  0
LINE
  5
27F
330
1F
100
AcDbEntity
  8
0
  6
Continuous
 62
     1
370
    15
100
AcDbLine
 10
-31.23708508382842
 20
-1.627046127941394
 30
0.0
 11
-29.4741140707421
 21
-2.50826649620312
 31
0.0
1001
PE_URL
1000

  0
SPLINE
  5
280
330
1F
100
AcDbEntity
  8
0
  6
Continuous
 62
     1
370
    15
100
AcDbSpline
210
0.0
220
0.0
230
1.0
 70
     8
 71
     3
 72
     9
 73
     5
 74
     0
 42
0.000000001
 43
0.00000001
 40
0.0
 40
0.0
 40
0.0
 40
0.0
 40
0.4994563820014248
 40
0.9999999999999999
 40
0.9999999999999999
 40
0.9999999999999999
 40
0.9999999999999999
 10
-29.13741177759621
 20
-5.045956264715997
 30
0.0
 10
-28.78927425086588
 20
-5.028832468603717
 30
0.0
 10
-28.09224135815305
 20
-4.994547600636547
 30
0.0
 10
-27.39766550867313
 20
-4.978024312655823
 30
0.0
 10
-27.05000000000001
 20
-4.969753686308721
 30
0.0
1001
PE_URL
1000

  0
SPLINE
  5
281
330
1F
100
AcDbEntity
  8
0
  6
Continuous
 62
     1
370
    15
100
AcDbSpline
210
0.0
220
0.0
230
1.0
 70
     8
 71
     3
 72
    22
 73
    18
 74
     0
 42
0.000000001
 43
0.00000001
 40
0.0
 40
0.0
 40
0.0
 40
0.0
 40
0.0971240184421066
 40
0.1808388304931292
 40
0.2508591345386582
 40
0.3111101372483545
 40
0.3685109924052121
 40
0.423400232305863
 40
0.476512917777065
 40
0.5286308073184914
 40
0.6049785198395954
 40
0.6833271151072416
 40
0.7634341754556393
 40
0.8112745680912415
 40
0.8632958631049864
 40
0.9258062162071896
 40
1.0
 40
1.0
 40
1.0
 40
1.0
 10
-45.32809095467469
 20
-4.343097875000403
 30
0.0
 10
-44.97575400782409
 20
-4.314935352292171
 30
0.0
 10
-44.31972471218741
 20
-4.26249850142888
 30
0.0
 10
-43.39470428996633
 20
-4.214620296853887
 30
0.0
 10
-42.58992027817492
 20
-4.188908001524254
 30
0.0
 10
-41.8728706068526
 20
-4.178372629569523
 30
0.0
 10
-41.22224142216
 20
-4.177954037357786
 30
0.0
 10
-40.60651557308568
 20
-4.187181891295165
 30
0.0
 10
-40.02483633003526
 20
-4.204254629643035
 30
0.0
 10
-39.35934411326138
 20
-4.231983100736031
 30
0.0
 10
-38.59375974439859
 20
-4.276345604393619
 30
0.0
 10
-37.72517767555401
 20
-4.343320829922046
 30
0.0
 10
-36.94240598856533
 20
-4.419390307350401
 30
0.0
 10
-36.25620163511813
 20
-4.493245805828611
 30
0.0
 10
-35.63579369685268
 20
-4.566567560899287
 30
0.0
 10
-34.95131898566863
 20
-4.6637193541629
 30
0.0
 10
-34.4864640050215
 20
-4.73653548054304
 30
0.0
 10
-34.23417207946236
 20
-4.77605516195127
 30
0.0
1001
PE_URL
1000

  0
SPLINE
  5
282
330
1F
100
AcDbEntity
  8
0
  6
Continuous
 62
     1
370
    15
100
AcDbSpline
210
0.0
220
0.0
230
1.0
 70
     8
 71
     3
 72
    14
 73
    10
 74
     0
 42
0.000000001
 43
0.00000001
 40
0.0
 40
0.0
 40
0.0
 40
0.0
 40
0.1757231863980843
 40
0.3232526103162939
 40
0.4457331287749858
 40
0.5591163564637139
 40
0.6713334145645238
 40
0.8882623500318317
 40
1.0
 40
1.0
 40
1.0
 40
1.0
 10
-34.23417207946236
 20
4.776055161951266
 30
0.0
 10
-34.49070973613221
 20
4.735872628431732
 30
0.0
 10
-34.96262507560876
 20
4.661954615017809
 30
0.0
 10
-35.65780340420681
 20
4.563589597154994
 30
0.0
 10
-36.28742772559681
 20
4.489846213745601
 30
0.0
 10
-36.85689703667237
 20
4.428649638997321
 30
0.0
 10
-37.57886820041046
 20
4.357217189112166
 30
0.0
 10
-38.28204224398462
 20
4.296744828364893
 30
0.0
 10
-38.80315200255572
 20
4.267421790716842
 30
0.0
 10
-38.98031506804065
 20
4.257452759905938
 30
0.0
1001
PE_URL
1000

  0
SPLINE
  5
283
330
1F
100
AcDbEntity
  8
0
  6
Continuous
 62
     1
370
    15
100
AcDbSpline
210
0.0
220
0.0
230
1.0
 70
     8
 71
     3
 72
     9
 73
     5
 74
     0
 42
0.000000001
 43
0.00000001
 40
0.0
 40
0.0
 40
0.0
 40
0.0
 40
0.500543617998575
 40
1.0
 40
1.0
 40
1.0
 40
1.0
 10
-27.05000000000001
 20
4.969753686308714
 30
0.0
 10
-27.39766550867313
 20
4.978024312655819
 30
0.0
 10
-28.09224135815305
 20
4.994547600636544
 30
0.0
 10
-28.78927425086588
 20
5.028832468603714
 30
0.0
 10
-29.13741177759621
 20
5.045956264715993
 30
0.0
1001
PE_URL
1000

  0
SPLINE
  5
284
330
1F
100
AcDbEntity
  8
외형선
  6
Continuous
370
    15
100
AcDbSpline
210
0.0
220
0.0
230
1.0
 70
     8
 71
     3
 72
     8
 73
     4
 74
     0
 42
0.000000001
 43
0.00000001
 40
0.0
 40
0.0
 40
0.0
 40
0.0
 40
1.0
 40
1.0
 40
1.0
 40
1.0
 10
-27.05000000001312
 20
-3.723084914075979
 30
0.0
 10
-26.37632446322883
 20
-4.039047873153311
 30
0.0
 10
-25.69556594808978
 20
-4.334893272517462
 30
0.0
 10
-25.01977853677896
 20
-4.603807095427861
 30
0.0
  0
LINE
  5
285
330
1F
100
AcDbEntity
  8
외형선
  6
Continuous
370
    15
100
AcDbLine
 10
-27.05000000000001
 20
-3.723084914082126
 30
0.0
 11
-27.05000000000002
 21
-2.157593439559939
 31
0.0
  0
SPLINE
  5
286
330
1F
100
AcDbEntity
  8
외형선
  6
Continuous
370
    15
100
AcDbSpline
210
0.0
220
0.0
230
1.0
 70
     8
 71
     3
 72
     8
 73
     4
 74
     0
 42
0.000000001
 43
0.00000001
 40
0.0
 40
0.0
 40
0.0
 40
0.0
 40
1.0
 40
1.0
 40
1.0
 40
1.0
 10
-25.01989179239144
 20
-3.216813562184175
 30
0.0
 10
-25.69564219677699
 20
-2.88019570989459
 30
0.0
 10
-26.37636209709352
 20
-2.524404739120946
 30
0.0
 10
-27.05000000000001
 20
-2.157593439559943
 30
0.0
  0
LINE
  5
287
330
1F
100
AcDbEntity
  8
외형선
  6
Continuous
370
    15
100
AcDbLine
 10
-25.01989179239143
 20
-4.603994526900561
 30
0.0
 11
-25.01989179239143
 21
-6.350000000000001
 31
0.0
  0
LINE
  5
288
330
1F
100
AcDbEntity
  8
외형선
  6
Continuous
370
    15
100
AcDbLine
 10
-25.01989179239143
 20
6.349999999999996
 30
0.0
 11
-25.01989179239144
 21
-3.216811647972797
 31
0.0
  0
SPLINE
  5
289
330
1F
100
AcDbEntity
  8
외형선
  6
Continuous
370
    15
100
AcDbSpline
210
0.0
220
0.0
230
1.0
 70
    24
 71
     3
 72
    10
 73
     6
 74
     0
 42
0.000000001
 43
0.00000001
 40
0.0
 40
0.0
 40
0.0
 40
0.0
 40
0.5
 40
0.5
 40
1.0
 40
1.0
 40
1.0
 40
1.0
 10
-27.05000000000001
 20
-2.157593439559935
 30
0.0
 10
-27.05000000000001
 20
-2.139526567663271
 30
0.0
 10
-27.05000000000001
 20
-2.055011209208981
 30
0.0
 10
-27.05000000000001
 20
-1.767948784852972
 30
0.0
 10
-27.05000000000001
 20
-1.566611175575371
 30
0.0
 10
-27.05000000000001
 20
-1.337195793820566
 30
0.0
  0
SPLINE
  5
28A
330
1F
100
AcDbEntity
  8
외형선
  6
Continuous
370
    15
100
AcDbSpline
210
0.0
220
0.0
230
1.0
 70
     8
 71
     3
 72
     8
 73
     4
 74
     0
 42
0.000000001
 43
0.00000001
 40
0.0
 40
0.0
 40
0.0
 40
0.0
 40
1.0
 40
1.0
 40
1.0
 40
1.0
 10
-27.05000000000002
 20
-1.337195793820563
 30
0.0
 10
-26.37635302750341
 20
-1.597563258808862
 30
0.0
 10
-25.69562382119951
 20
-1.851215050914547
 30
0.0
 10
-25.0198644982991
 20
-2.092342231457373
 30
0.0
  0
SPLINE
  5
28B
330
1F
100
AcDbEntity
  8
외형선
  6
Continuous
370
    15
100
AcDbSpline
210
0.0
220
0.0
230
1.0
 70
     8
 71
     3
 72
     8
 73
     4
 74
     0
 42
0.000000001
 43
0.00000001
 40
0.0
 40
0.0
 40
0.0
 40
0.0
 40
1.0
 40
1.0
 40
1.0
 40
1.0
 10
-27.05000000000002
 20
4.844680807444998
 30
0.0
 10
-26.37634835117449
 20
4.750815856720788
 30
0.0
 10
-25.69561434665253
 20
4.629024052619716
 30
0.0
 10
-25.01985042532272
 20
4.481997801305788
 30
0.0
  0
SPLINE
  5
28C
330
1F
100
AcDbEntity
  8
외형선
  6
Continuous
370
    15
100
AcDbSpline
210
0.0
220
0.0
230
1.0
 70
    24
 71
     3
 72
    14
 73
    10
 74
     0
 42
0.000000001
 43
0.00000001
 40
0.0
 40
0.0
 40
0.0
 40
0.0
 40
0.2500000000000001
 40
0.2500000000000001
 40
0.5000000000000001
 40
0.5000000000000001
 40
0.75
 40
0.75
 40
1.0
 40
1.0
 40
1.0
 40
1.0
 10
-27.04999999999998
 20
-1.33719579382058
 30
0.0
 10
-27.04999999999998
 20
-0.7770127768717678
 30
0.0
 10
-27.04999999999998
 20
-0.1925734905305063
 30
0.0
 10
-27.04999999999998
 20
0.9730164241687582
 30
0.0
 10
-27.04999999999998
 20
1.553594019169747
 30
0.0
 10
-27.04999999999998
 20
2.65229172157947
 30
0.0
 10
-27.04999999999998
 20
3.16982639691776
 30
0.0
 10
-27.04999999999998
 20
4.095202418127418
 30
0.0
 10
-27.04999999999998
 20
4.502808124016518
 30
0.0
 10
-27.04999999999998
 20
4.844680807444991
 30
0.0
  0
SPLINE
  5
28D
330
1F
100
AcDbEntity
  8
외형선
  6
Continuous
370
    15
100
AcDbSpline
210
0.0
220
0.0
230
1.0
 70
    24
 71
     3
 72
    12
 73
     8
 74
     0
 42
0.000000001
 43
0.00000001
 40
0.0
 40
0.0
 40
0.0
 40
0.0
 40
0.0500170824055994
 40
0.3381751518825301
 40
0.6346898248955066
 40
0.8947775154833162
 40
1.0
 40
1.0
 40
1.0
 40
1.0
 10
-27.05000000000002
 20
-4.961134268077256
 30
0.0
 10
-27.05000000000002
 20
-4.963029617893611
 30
0.0
 10
-27.05000000000002
 20
-4.975844443972797
 30
0.0
 10
-27.05
 20
-4.849868608634811
 30
0.0
 10
-27.05000000000003
 20
-4.526107909337714
 30
0.0
 10
-27.05000000000002
 20
-4.156812924976194
 30
0.0
 10
-27.05000000000002
 20
-3.871444114632567
 30
0.0
 10
-27.05000000000002
 20
-3.789247621695196
 30
0.0
  0
SPLINE
  5
28E
330
1F
100
AcDbEntity
  8
외형선
  6
Continuous
370
    15
100
AcDbSpline
210
0.0
220
0.0
230
1.0
 70
    24
 71
     3
 72
     9
 73
     5
 74
     0
 42
0.000000001
 43
0.00000001
 40
0.0
 40
0.0
 40
0.0
 40
0.0
 40
0.568923497793578
 40
1.0
 40
1.0
 40
1.0
 40
1.0
 10
-27.05000000000001
 20
4.844680807444995
 30
0.0
 10
-27.05000000000002
 20
4.888076007664935
 30
0.0
 10
-27.05000000000002
 20
4.964351992728371
 30
0.0
 10
-27.05000000000002
 20
4.962103554825269
 30
0.0
 10
-27.05000000000002
 20
4.96113430607857
 30
0.0
  0
SPLINE
  5
28F
330
1F
100
AcDbEntity
  8
0
  6
Continuous
 62
     1
370
    15
100
AcDbSpline
210
0.0
220
0.0
230
1.0
 70
     8
 71
     3
 72
    38
 73
    34
 74
     0
 42
0.000000001
 43
0.00000001
 40
0.0
 40
0.0
 40
0.0
 40
0.0
 40
0.0625
 40
0.0625
 40
0.125
 40
0.125
 40
0.1875
 40
0.1875
 40
0.25
 40
0.25
 40
0.3124999999999999
 40
0.3124999999999999
 40
0.3749999999999998
 40
0.3749999999999998
 40
0.4374999999999997
 40
0.4374999999999997
 40
0.4999999999999997
 40
0.4999999999999997
 40
0.5624999999999996
 40
0.5624999999999996
 40
0.6249999999999993
 40
0.6249999999999993
 40
0.6874999999999992
 40
0.6874999999999992
 40
0.7499999999999991
 40
0.7499999999999991
 40
0.8124999999999993
 40
0.8124999999999993
 40
0.8749999999999996
 40
0.8749999999999996
 40
0.9374999999999998
 40
0.9374999999999998
 40
1.0
 40
1.0
 40
1.0
 40
1.0
 10
-27.05000000000002
 20
-2.157593439559939
 30
0.0
 10
-27.47813850168443
 20
-1.924462198699882
 30
0.0
 10
-27.90991070085492
 20
-1.685724455574359
 30
0.0
 10
-28.77185918085307
 20
-1.201889263332529
 30
0.0
 10
-29.19944034765112
 20
-0.9572985317097782
 30
0.0
 10
-30.05841919680072
 20
-0.4641391911432038
 30
0.0
 10
-30.49059995159968
 20
-0.2154129214911649
 30
0.0
 10
-31.35145302289829
 20
0.281218458490283
 30
0.0
 10
-31.77816057855552
 20
0.5287441731760332
 30
0.0
 10
-32.63903517877466
 20
1.021671607172575
 30
0.0
 10
-33.07121297165252
 20
1.266680688995727
 30
0.0
 10
-33.93015864574766
 20
1.748760075005947
 30
0.0
 10
-34.35776531112992
 20
1.98600419889193
 30
0.0
 10
-35.21972360612232
 20
2.451537622847972
 30
0.0
 10
-35.65148692895995
 20
2.679331175540632
 30
0.0
 10
-36.50771921532326
 20
3.120367362802764
 30
0.0
 10
-36.93799488598999
 20
3.334615952191697
 30
0.0
 10
-37.80022140433994
 20
3.747094146588829
 30
0.0
 10
-38.22938280885649
 20
3.944885777009905
 30
0.0
 10
-39.08663591244019
 20
4.321394398795633
 30
0.0
 10
-39.51858767472149
 20
4.500647215069776
 30
0.0
 10
-40.3802660989329
 20
4.837359927334738
 30
0.0
 10
-40.80736477515814
 20
4.994535342823205
 30
0.0
 10
-41.66705570484142
 20
5.285996570735129
 30
0.0
 10
-42.0992809033503
 20
5.420173958370505
 30
0.0
 10
-42.95959664448556
 20
5.662643447255057
 30
0.0
 10
-43.38640408405005
 20
5.770890772692866
 30
0.0
 10
-44.24772450771925
 20
5.961100964059867
 30
0.0
 10
-44.67981148339275
 20
6.042803285075713
 30
0.0
 10
-45.53795424427419
 20
6.177822860980998
 30
0.0
 10
-45.96624285409352
 20
6.231314994989468
 30
0.0
 10
-46.82837931113469
 20
6.309692807108336
 30
0.0
 10
-47.2599168449668
 20
6.334448321295232
 30
0.0
 10
-47.68750000000002
 20
6.349999999999993
 30
0.0
1001
PE_URL
1000

  0
SPLINE
  5
290
330
1F
100
AcDbEntity
  8
0
  6
Continuous
 62
     1
370
    15
100
AcDbSpline
210
0.0
220
0.0
230
1.0
 70
     8
 71
     3
 72
    10
 73
     6
 74
     0
 42
0.000000001
 43
0.00000001
 40
0.0
 40
0.0
 40
0.0
 40
0.0
 40
0.2521317758529245
 40
0.6258709247114206
 40
1.0
 40
1.0
 40
1.0
 40
1.0
 10
-31.91488093309922
 20
0.6040894942880755
 30
0.0
 10
-31.5060383088413
 20
0.4403847538302266
 30
0.0
 10
-30.49116142376747
 20
0.0340177382353168
 30
0.0
 10
-28.8696419613725
 20
-0.6262203266313406
 30
0.0
 10
-27.65675811314967
 20
-1.100121609928891
 30
0.0
 10
-27.05000000000002
 20
-1.337195793820566
 30
0.0
1001
PE_URL
1000

  0
SPLINE
  5
291
330
1F
100
AcDbEntity
  8
외형선
  6
Continuous
370
    15
100
AcDbSpline
210
0.0
220
0.0
230
1.0
 70
    24
 71
     3
 72
    10
 73
     6
 74
     0
 42
0.000000001
 43
0.00000001
 40
0.0
 40
0.0
 40
0.0
 40
0.0
 40
0.5
 40
0.5
 40
1.0
 40
1.0
 40
1.0
 40
1.0
 10
-27.05000000000002
 20
-2.157593439559932
 30
0.0
 10
-27.05000000000002
 20
-2.139526567663268
 30
0.0
 10
-27.05000000000002
 20
-2.055011209208981
 30
0.0
 10
-27.05000000000002
 20
-1.767948784852969
 30
0.0
 10
-27.05000000000002
 20
-1.566611175575371
 30
0.0
 10
-27.05000000000002
 20
-1.337195793820566
 30
0.0
  0
SPLINE
  5
292
330
1F
100
AcDbEntity
  8
0
  6
Continuous
 62
     1
370
    15
100
AcDbSpline
210
0.0
220
0.0
230
1.0
 70
     8
 71
     3
 72
    38
 73
    34
 74
     0
 42
0.000000001
 43
0.00000001
 40
0.0
 40
0.0
 40
0.0
 40
0.0
 40
0.0625
 40
0.0625
 40
0.1250000000000001
 40
0.1250000000000001
 40
0.1875000000000001
 40
0.1875000000000001
 40
0.2500000000000001
 40
0.2500000000000001
 40
0.3125000000000002
 40
0.3125000000000002
 40
0.3750000000000002
 40
0.3750000000000002
 40
0.4375000000000002
 40
0.4375000000000002
 40
0.5000000000000002
 40
0.5000000000000002
 40
0.5625000000000002
 40
0.5625000000000002
 40
0.6250000000000003
 40
0.6250000000000003
 40
0.6875000000000003
 40
0.6875000000000003
 40
0.7500000000000002
 40
0.7500000000000002
 40
0.8125000000000002
 40
0.8125000000000002
 40
0.8750000000000001
 40
0.8750000000000001
 40
0.9375000000000001
 40
0.9375000000000001
 40
1.0
 40
1.0
 40
1.0
 40
1.0
 10
-47.68750000000002
 20
6.025774519622559
 30
0.0
 10
-47.25991684496699
 20
5.947613971057002
 30
0.0
 10
-46.82837931113505
 20
5.855404311552679
 30
0.0
 10
-45.96624285409425
 20
5.644562945548255
 30
0.0
 10
-45.53795424427512
 20
5.526176274527653
 30
0.0
 10
-44.67981148339407
 20
5.264562178400254
 30
0.0
 10
-44.24772450772074
 20
5.12105695453635
 30
0.0
 10
-43.38640408405193
 20
4.811514687397214
 30
0.0
 10
-42.95959664448761
 20
4.645838521038414
 30
0.0
 10
-42.09928090335274
 20
4.293128540982629
 30
0.0
 10
-41.66705570484405
 20
4.106209376300548
 30
0.0
 10
-40.80736477516112
 20
3.71510302052782
 30
0.0
 10
-40.38026609893608
 20
3.511022671309803
 30
0.0
 10
-39.51858767472505
 20
3.086522089441672
 30
0.0
 10
-39.08663591244392
 20
2.866493968482139
 30
0.0
 10
-38.22938280886056
 20
2.41547685278908
 30
0.0
 10
-37.80022140434424
 20
2.183829989221103
 30
0.0
 10
-36.93799488599466
 20
1.710870678655496
 30
0.0
 10
-36.50771921532806
 20
1.470067275679046
 30
0.0
 10
-35.65148692896518
 20
0.9836594429089693
 30
0.0
 10
-35.21972360612776
 20
0.7369528262842415
 30
0.0
 10
-34.35776531113572
 20
0.2415793898968239
 30
0.0
 10
-33.9301586457536
 20
-0.0065813317679577
 30
0.0
 10
-33.07121297165889
 20
-0.5024537311925741
 30
0.0
 10
-32.63903517878121
 20
-0.7503235113464868
 30
0.0
 10
-31.77816057856241
 20
-1.240823740724462
 30
0.0
 10
-31.35145302290537
 20
-1.483088358829843
 30
0.0
 10
-30.49059995160717
 20
-1.961114321809465
 30
0.0
 10
-30.05841919680839
 20
-2.196485796992945
 30
0.0
 10
-29.1994403476591
 20
-2.65512345814162
 30
0.0
 10
-28.77185918086128
 20
-2.878556625435142
 30
0.0
 10
-27.90991070086353
 20
-3.312373514467744
 30
0.0
 10
-27.47813850169321
 20
-3.522282152955299
 30
0.0
 10
-27.05000000000894
 20
-3.723084914077941
 30
0.0
1001
PE_URL
1000

  0
SPLINE
  5
293
330
1F
100
AcDbEntity
  8
0
  6
Continuous
 62
     1
370
    15
100
AcDbSpline
210
0.0
220
0.0
230
1.0
 70
     8
 71
     3
 72
    16
 73
    12
 74
     0
 42
0.000000001
 43
0.00000001
 40
0.0
 40
0.0
 40
0.0
 40
0.0
 40
0.1145633684449978
 40
0.2290437727866843
 40
0.3434877770281971
 40
0.457942191923994
 40
0.5724537576079276
 40
0.687043325465526
 40
0.8015640894289232
 40
0.9160225400290137
 40
1.0
 40
1.0
 40
1.0
 40
1.0
 10
-47.68750000000002
 20
5.009973878738165
 30
0.0
 10
-47.05745917176269
 20
4.880743906363637
 30
0.0
 10
-45.79783377607254
 20
4.622377546928323
 30
0.0
 10
-43.90911160555928
 20
4.059153681019591
 30
0.0
 10
-42.02105687653832
 20
3.387163440475387
 30
0.0
 10
-40.13280572386847
 20
2.612639622520248
 30
0.0
 10
-38.24363280228781
 20
1.761970956079736
 30
0.0
 10
-36.35376457010599
 20
0.8593037578077976
 30
0.0
 10
-34.46448634041327
 20
-0.0674445206594605
 30
0.0
 10
-32.74367913591585
 20
-0.9155103281417034
 30
0.0
 10
-31.65258150650687
 20
-1.42746116009819
 30
0.0
 10
-31.19083238441281
 20
-1.644117159377817
 30
0.0
1001
PE_URL
1000

  0
LINE
  5
294
330
1F
100
AcDbEntity
  8
0
  6
Continuous
 62
     1
370
    15
100
AcDbLine
 10
-47.68750000000002
 20
6.025774519622559
 30
0.0
 11
-47.68750000000002
 21
5.009973878738165
 31
0.0
1001
PE_URL
1000

  0
LINE
  5
295
330
1F
100
AcDbEntity
  8
0
  6
Continuous
 62
     1
370
    15
100
AcDbLine
 10
-47.68750000000002
 20
6.349999999999996
 30
0.0
 11
-47.68750000000002
 21
6.025774519622559
 31
0.0
1001
PE_URL
1000

  0
SPLINE
  5
296
330
1F
100
AcDbEntity
  8
0
  6
Continuous
 62
     1
370
    15
100
AcDbSpline
210
0.0
220
0.0
230
1.0
 70
     8
 71
     3
 72
     8
 73
     4
 74
     0
 42
0.000000001
 43
0.00000001
 40
0.0
 40
0.0
 40
0.0
 40
0.0
 40
1.0
 40
1.0
 40
1.0
 40
1.0
 10
-43.75860935627956
 20
-1.776017074452412
 30
0.0
 10
-43.53345661831215
 20
-2.042719345426477
 30
0.0
 10
-43.33187534697851
 20
-2.300050926276654
 30
0.0
 10
-43.1599705694501
 20
-2.545584801378034
 30
0.0
1001
PE_URL
1000

  0
LINE
  5
297
330
1F
100
AcDbEntity
  8
0
  6
Continuous
 62
     1
370
    15
100
AcDbLine
 10
-43.24025512375336
 20
-2.612951541294606
 30
0.0
 11
-47.68750000000002
 21
-0.0000000000000071
 31
0.0
1001
PE_URL
1000

  0
LINE
  5
298
330
1F
100
AcDbEntity
  8
0
  6
Continuous
 62
     1
370
    15
100
AcDbLine
 10
-47.68750000000002
 20
-0.0000000000000071
 30
0.0
 11
-47.68750000000002
 21
1.696992707288238
 31
0.0
1001
PE_URL
1000

  0
SPLINE
  5
299
330
1F
100
AcDbEntity
  8
0
  6
Continuous
 62
     1
370
    15
100
AcDbSpline
210
0.0
220
0.0
230
1.0
 70
     8
 71
     3
 72
    12
 73
     8
 74
     0
 42
0.000000001
 43
0.00000001
 40
0.0
 40
0.0
 40
0.0
 40
0.0
 40
0.4999999999999993
 40
0.4999999999999993
 40
0.7499999999999997
 40
0.7499999999999997
 40
1.0
 40
1.0
 40
1.0
 40
1.0
 10
-47.68750000000002
 20
1.696992707288235
 30
0.0
 10
-47.00739727265296
 20
1.162318204574245
 30
0.0
 10
-46.33865445793662
 20
0.6057234975937611
 30
0.0
 10
-45.35302321729134
 20
-0.2629039036822292
 30
0.0
 10
-45.02744021316177
 20
-0.5581594504446592
 30
0.0
 10
-44.38292402705684
 20
-1.161502109201976
 30
0.0
 10
-44.06574347731787
 20
-1.468032404441036
 30
0.0
 10
-43.75860935627956
 20
-1.776017074452412
 30
0.0
1001
PE_URL
1000

  0
SPLINE
  5
29A
330
1F
100
AcDbEntity
  8
0
  6
Continuous
 62
     1
370
    15
100
AcDbSpline
210
0.0
220
0.0
230
1.0
 70
     8
 71
     3
 72
    15
 73
    11
 74
     0
 42
0.000000001
 43
0.00000001
 40
0.0
 40
0.0
 40
0.0
 40
0.0
 40
0.1188365899487454
 40
0.2479594586273698
 40
0.3771477100358806
 40
0.506425186722319
 40
0.635623945404375
 40
0.764751424031732
 40
0.8938610618767434
 40
1.0
 40
1.0
 40
1.0
 40
1.0
 10
-43.75860935627747
 20
-1.776017074453318
 30
0.0
 10
-43.17945761332125
 20
-2.022469127968588
 30
0.0
 10
-41.97102380763516
 20
-2.536705675765926
 30
0.0
 10
-40.13281614165246
 20
-3.236937989898141
 30
0.0
 10
-38.24365355928172
 20
-3.864779706332946
 30
0.0
 10
-36.35380970807836
 20
-4.377378290421614
 30
0.0
 10
-34.46453643294399
 20
-4.76276176052189
 30
0.0
 10
-32.57621027483098
 20
-5.003949542294702
 30
0.0
 10
-30.80031291884435
 20
-5.106114056005243
 30
0.0
 10
-29.65371327682503
 20
-5.058651412530423
 30
0.0
 10
-29.13639295743295
 20
-5.037237320826762
 30
0.0
1001
PE_URL
1000

  0
SPLINE
  5
29B
330
1F
100
AcDbEntity
  8
0
  6
Continuous
 62
     1
370
    15
100
AcDbSpline
210
0.0
220
0.0
230
1.0
 70
    24
 71
     3
 72
    10
 73
     6
 74
     0
 42
0.000000001
 43
0.00000001
 40
0.0
 40
0.0
 40
0.0
 40
0.0
 40
0.5
 40
0.5
 40
1.0
 40
1.0
 40
1.0
 40
1.0
 10
-47.68750000000002
 20
5.009973878738165
 30
0.0
 10
-47.68750000000002
 20
4.625920320174156
 30
0.0
 10
-47.68750000000002
 20
4.14065392280607
 30
0.0
 10
-47.68750000000002
 20
3.01245625060681
 30
0.0
 10
-47.68750000000002
 20
2.370502263375808
 30
0.0
 10
-47.68750000000002
 20
1.696992707288441
 30
0.0
1001
PE_URL
1000

  0
SPLINE
  5
29C
330
1F
100
AcDbEntity
  8
외형선
  6
Continuous
370
    15
100
AcDbSpline
210
0.0
220
0.0
230
1.0
 70
    24
 71
     3
 72
    12
 73
     8
 74
     0
 42
0.000000001
 43
0.00000001
 40
0.0
 40
0.0
 40
0.0
 40
0.0
 40
0.05097917026755
 40
0.3388454098854045
 40
0.635059789953621
 40
0.8948840787417531
 40
1.0
 40
1.0
 40
1.0
 40
1.0
 10
-27.05000000000002
 20
-4.961054463029964
 30
0.0
 10
-27.05000000000002
 20
-4.962998237755819
 30
0.0
 10
-27.05000000000002
 20
-4.975918007541207
 30
0.0
 10
-27.05000000000002
 20
-4.849923028385653
 30
0.0
 10
-27.05000000000002
 20
-4.52609481626002
 30
0.0
 10
-27.05000000000002
 20
-4.156813994399172
 30
0.0
 10
-27.05000000000002
 20
-3.871444353781413
 30
0.0
 10
-27.05000000000002
 20
-3.789247621695196
 30
0.0
  0
SPLINE
  5
29D
330
1F
100
AcDbEntity
  8
0
  6
Continuous
 62
     1
370
    15
100
AcDbSpline
210
0.0
220
0.0
230
1.0
 70
    24
 71
     3
 72
     8
 73
     4
 74
     0
 42
0.000000001
 43
0.00000001
 40
0.0
 40
0.0
 40
0.0
 40
0.0
 40
1.0
 40
1.0
 40
1.0
 40
1.0
 10
-43.82229688430282
 20
-3.101342567901444
 30
0.0
 10
-43.61376375333018
 20
-2.92636249461404
 30
0.0
 10
-43.39154178445886
 20
-2.739896122494635
 30
0.0
 10
-43.15997056944505
 20
-2.545584801385267
 30
0.0
1001
PE_URL
1000

  0
SPLINE
  5
29E
330
1F
100
AcDbEntity
  8
0
  6
Continuous
 62
     1
370
    15
100
AcDbSpline
210
0.0
220
0.0
230
1.0
 70
     8
 71
     3
 72
     9
 73
     5
 74
     0
 42
0.000000001
 43
0.00000001
 40
0.0
 40
0.0
 40
0.0
 40
0.0
 40
0.7998720405000247
 40
1.0
 40
1.0
 40
1.0
 40
1.0
 10
-47.68750000000002
 20
-4.445000000000004
 30
0.0
 10
-47.05745795521004
 20
-4.440389385623412
 30
0.0
 10
-46.26977941053166
 20
-4.434625195674091
 30
0.0
 10
-45.48219276540701
 20
-4.34823271923916
 30
0.0
 10
-45.3245746571888
 20
-4.330943169214091
 30
0.0
1001
PE_URL
1000

  0
SPLINE
  5
29F
330
1F
100
AcDbEntity
  8
0
  6
Continuous
 62
     1
370
    15
100
AcDbSpline
210
0.0
220
0.0
230
1.0
 70
     8
 71
     3
 72
    10
 73
     6
 74
     0
 42
0.000000001
 43
0.00000001
 40
0.0
 40
0.0
 40
0.0
 40
0.0
 40
0.5
 40
0.5
 40
1.0
 40
1.0
 40
1.0
 40
1.0
 10
-47.68750000000002
 20
-4.445000000000007
 30
0.0
 10
-47.03416113388165
 20
-4.26780513220795
 30
0.0
 10
-46.38482101282631
 20
-4.068866271955336
 30
0.0
 10
-45.09484335793021
 20
-3.623666457193533
 30
0.0
 10
-44.45462993873349
 20
-3.378093991209919
 30
0.0
 10
-43.82229688430186
 20
-3.101342567902353
 30
0.0
1001
PE_URL
1000

  0
SPLINE
  5
2A0
330
1F
100
AcDbEntity
  8
0
  6
Continuous
 62
     1
370
    15
100
AcDbSpline
210
0.0
220
0.0
230
1.0
 70
     8
 71
     3
 72
    11
 73
     7
 74
     0
 42
0.000000001
 43
0.00000001
 40
0.0
 40
0.0
 40
0.0
 40
0.0
 40
0.2310505622787336
 40
0.4937474040055596
 40
0.7467451588760703
 40
1.0
 40
1.0
 40
1.0
 40
1.0
 10
-34.23652982629462
 20
4.768121245257497
 30
0.0
 10
-33.68306107001533
 20
4.847975004619293
 30
0.0
 10
-32.50031665720836
 20
5.018619845281513
 30
0.0
 10
-30.71157434285845
 20
5.098421939618664
 30
0.0
 10
-28.86966497700382
 20
5.059540485090842
 30
0.0
 10
-27.65676030559799
 20
4.916324942665831
 30
0.0
 10
-27.05000000000002
 20
4.844680807444998
 30
0.0
1001
PE_URL
1000

  0
SPLINE
  5
2A1
330
1F
100
AcDbEntity
  8
외형선
  6
Continuous
370
    15
100
AcDbSpline
210
0.0
220
0.0
230
1.0
 70
    24
 71
     3
 72
    14
 73
    10
 74
     0
 42
0.000000001
 43
0.00000001
 40
0.0
 40
0.0
 40
0.0
 40
0.0
 40
0.25
 40
0.25
 40
0.5
 40
0.5
 40
0.75
 40
0.75
 40
1.0
 40
1.0
 40
1.0
 40
1.0
 10
-27.04999999999999
 20
-1.337195793820577
 30
0.0
 10
-27.04999999999999
 20
-0.7770127768717643
 30
0.0
 10
-27.04999999999999
 20
-0.1925734905305063
 30
0.0
 10
-27.04999999999999
 20
0.9730164241687582
 30
0.0
 10
-27.04999999999999
 20
1.553594019169751
 30
0.0
 10
-27.04999999999999
 20
2.65229172157947
 30
0.0
 10
-27.04999999999999
 20
3.16982639691776
 30
0.0
 10
-27.04999999999999
 20
4.095202418127421
 30
0.0
 10
-27.04999999999999
 20
4.502808124016518
 30
0.0
 10
-27.04999999999999
 20
4.844680807444995
 30
0.0
  0
LINE
  5
2A2
330
1F
100
AcDbEntity
  8
0
  6
Continuous
 62
     1
370
    15
100
AcDbLine
 10
-47.68750000000002
 20
-0.0000000000000071
 30
0.0
 11
-47.68750000000002
 21
-4.445000000000007
 31
0.0
1001
PE_URL
1000

  0
SPLINE
  5
2A3
330
1F
100
AcDbEntity
  8
외형선
  6
Continuous
370
    15
100
AcDbSpline
210
0.0
220
0.0
230
1.0
 70
    24
 71
     3
 72
     9
 73
     5
 74
     0
 42
0.000000001
 43
0.00000001
 40
0.0
 40
0.0
 40
0.0
 40
0.0
 40
0.5706043412168934
 40
1.0
 40
1.0
 40
1.0
 40
1.0
 10
-27.05000000000001
 20
4.844680807444995
 30
0.0
 10
-27.05000000000002
 20
4.888101037882794
 30
0.0
 10
-27.05000000000002
 20
4.964196201030692
 30
0.0
 10
-27.05000000000002
 20
4.961998252561052
 30
0.0
 10
-27.05000000000002
 20
4.96105446302996
 30
0.0
  0
SPLINE
  5
2A4
330
1F
100
AcDbEntity
  8
0
  6
Continuous
 62
     1
370
    15
100
AcDbSpline
210
0.0
220
0.0
230
1.0
 70
    24
 71
     3
 72
    10
 73
     6
 74
     0
 42
0.000000001
 43
0.00000001
 40
0.0
 40
0.0
 40
0.0
 40
0.0
 40
0.5
 40
0.5
 40
1.0
 40
1.0
 40
1.0
 40
1.0
 10
-47.68750000000002
 20
-4.445000000000004
 30
0.0
 10
-47.68750000000002
 20
-4.714444830726446
 30
0.0
 10
-47.68750000000003
 20
-5.027564677306199
 30
0.0
 10
-47.68750000000002
 20
-5.684489272101434
 30
0.0
 10
-47.68750000000002
 20
-6.026616317339354
 30
0.0
 10
-47.68750000000002
 20
-6.350000000000009
 30
0.0
1001
PE_URL
1000

  0
SPLINE
  5
2A5
330
1F
100
AcDbEntity
  8
0
  6
Continuous
 62
     1
370
    15
100
AcDbSpline
210
0.0
220
0.0
230
1.0
 70
     8
 71
     3
 72
    17
 73
    13
 74
     0
 42
0.000000001
 43
0.00000001
 40
0.0
 40
0.0
 40
0.0
 40
0.0
 40
0.0205630556854812
 40
0.1259162894439933
 40
0.2330690521655905
 40
0.3404159986990736
 40
0.4483502094535304
 40
0.556483105520648
 40
0.6668285709751248
 40
0.7773863720122967
 40
0.8885845899692281
 40
1.0
 40
1.0
 40
1.0
 40
1.0
 10
-38.95217399697231
 20
-4.258263013174641
 30
0.0
 10
-39.012019829101
 20
-4.284644876953827
 30
0.0
 10
-39.37848117782229
 20
-4.446192190081867
 30
0.0
 10
-40.05791963749709
 20
-4.714631359366507
 30
0.0
 10
-40.98841543075162
 20
-5.061396001134991
 30
0.0
 10
-41.92759725534231
 20
-5.370145612110417
 30
0.0
 10
-42.8696202580684
 20
-5.641502290390012
 30
0.0
 10
-43.81925519839254
 20
-5.874041724271603
 30
0.0
 10
-44.77831246231734
 20
-6.063302701712658
 30
0.0
 10
-45.74430251953292
 20
-6.207672116719994
 30
0.0
 10
-46.71513098920009
 20
-6.307136477172076
 30
0.0
 10
-47.36316624541936
 20
-6.332126083193952
 30
0.0
 10
-47.68749999999998
 20
-6.350000000000005
 30
0.0
1001
PE_URL
1000

  0
ENDSEC
  0
SECTION
  2
OBJECTS
  0
DICTIONARY
  5
C
330
0
100
AcDbDictionary
281
     1
  3
ACAD_DETAILVIEWSTYLE
350
1BC
  3
ACAD_GROUP
350
D
  3
ACAD_LAYOUT
350
1A
  3
ACAD_MLINESTYLE
350
17
  3
ACAD_PLOTSETTINGS
350
19
  3
ACAD_PLOTSTYLENAME
350
E
  3
ACAD_SCALELIST
350
47
  3
ACAD_SECTIONVIEWSTYLE
350
1BD
  3
AcDbVariableDictionary
350
1B7
  3
APPDATA
350
152
  3
DWGPROPS
350
2A6
  0
DICTIONARY
  5
18F
330
2
100
AcDbDictionary
280
     1
281
     1
  3
ACAD_LAYERSTATES
360
190
  0
DICTIONARY
  5
1BC
102
{ACAD_REACTORS
330
C
102
}
330
C
100
AcDbDictionary
281
     1
  0
DICTIONARY
  5
D
102
{ACAD_REACTORS
330
C
102
}
330
C
100
AcDbDictionary
281
     1
  0
DICTIONARY
  5
1A
102
{ACAD_REACTORS
330
C
102
}
330
C
100
AcDbDictionary
281
     1
  3
Layout1
350
1E
  3
Layout2
350
26
  3
Model
350
22
  0
DICTIONARY
  5
17
102
{ACAD_REACTORS
330
C
102
}
330
C
100
AcDbDictionary
281
     1
  3
Standard
350
18
  0
DICTIONARY
  5
19
102
{ACAD_REACTORS
330
C
102
}
330
C
100
AcDbDictionary
281
     1
  0
ACDBDICTIONARYWDFLT
  5
E
102
{ACAD_REACTORS
330
C
102
}
330
C
100
AcDbDictionary
281
     1
  3
Normal
350
F
100
AcDbDictionaryWithDefault
340
F
  0
DICTIONARY
  5
47
102
{ACAD_REACTORS
330
C
102
}
330
C
100
AcDbDictionary
281
     1
  3
A0
350
48
  3
A1
350
49
  3
A2
350
4A
  3
A3
350
4B
  3
A4
350
4C
  3
A5
350
4D
  3
A6
350
4E
  3
A7
350
4F
  3
A8
350
50
  3
A9
350
51
  3
B0
350
52
  3
B1
350
53
  3
B2
350
54
  3
B3
350
55
  3
B4
350
56
  3
B5
350
57
  3
B6
350
58
  3
B7
350
59
  3
B8
350
5A
  3
B9
350
5B
  3
C0
350
5C
  3
C1
350
5D
  3
C2
350
5E
  3
C3
350
5F
  3
C4
350
60
  3
C5
350
61
  3
C6
350
62
  3
C7
350
63
  3
C8
350
64
  3
C9
350
65
  3
D0
350
66
  3
D1
350
67
  3
D2
350
68
  0
DICTIONARY
  5
1BD
102
{ACAD_REACTORS
330
C
102
}
330
C
100
AcDbDictionary
281
     1
  0
DICTIONARY
  5
1B7
102
{ACAD_REACTORS
330
C
102
}
330
C
100
AcDbDictionary
281
     1
  0
DICTIONARY
  5
152
102
{ACAD_REACTORS
330
C
102
}
330
C
100
AcDbDictionary
281
     1
  0
XRECORD
  5
2A6
102
{ACAD_REACTORS
330
C
102
}
330
C
100
AcDbXrecord
280
     1
  1
DWGPROPS COOKIE
  2

  3

  4

  6

  7

  8
120170442
  9

300
=
301
=
302
=
303
=
304
=
305
=
306
=
307
=
308
=
309
=
 40
0.0
 41
2458313.02385331
 42
2458324.065419734
  1

 90
        0
  0
DICTIONARY
  5
190
102
{ACAD_REACTORS
330
18F
102
}
330
18F
100
AcDbDictionary
281
     1
  0
LAYOUT
  5
1E
102
{ACAD_REACTORS
330
1A
102
}
330
1A
100
AcDbPlotSettings
  1

  2
none_device
  4

  6

 40
0.0
 41
0.0
 42
0.0
 43
0.0
 44
0.0
 45
0.0
 46
0.0
 47
0.0
 48
0.0
 49
0.0
140
0.0
141
0.0
142
1.0
143
1.0
 70
   688
 72
     1
 73
     0
 74
     5
  7

 75
    16
147
1.0
148
0.0
149
0.0
100
AcDbLayout
  1
Layout1
 70
     1
 71
     1
 10
0.0
 20
0.0
 11
420.0
 21
297.0
 12
0.0
 22
0.0
 32
0.0
 14
1.000000000000000E+20
 24
1.000000000000000E+20
 34
1.000000000000000E+20
 15
-1.000000000000000E+20
 25
-1.000000000000000E+20
 35
-1.000000000000000E+20
146
0.0
 13
0.0
 23
0.0
 33
0.0
 16
1.0
 26
0.0
 36
0.0
 17
0.0
 27
1.0
 37
0.0
 76
     0
330
1B
  0
LAYOUT
  5
26
102
{ACAD_REACTORS
330
1A
102
}
330
1A
100
AcDbPlotSettings
  1

  2
none_device
  4

  6

 40
0.0
 41
0.0
 42
0.0
 43
0.0
 44
0.0
 45
0.0
 46
0.0
 47
0.0
 48
0.0
 49
0.0
140
0.0
141
0.0
142
1.0
143
1.0
 70
   688
 72
     1
 73
     0
 74
     5
  7

 75
    16
147
1.0
148
0.0
149
0.0
100
AcDbLayout
  1
Layout2
 70
     1
 71
     2
 10
0.0
 20
0.0
 11
0.0
 21
0.0
 12
0.0
 22
0.0
 32
0.0
 14
0.0
 24
0.0
 34
0.0
 15
0.0
 25
0.0
 35
0.0
146
0.0
 13
0.0
 23
0.0
 33
0.0
 16
1.0
 26
0.0
 36
0.0
 17
0.0
 27
1.0
 37
0.0
 76
     0
330
23
  0
LAYOUT
  5
22
102
{ACAD_REACTORS
330
1A
102
}
330
1A
100
AcDbPlotSettings
  1

  2
none_device
  4
ANSI_A_(11.00_x_8.50_Inches)
  6

 40
6.35
 41
19.05
 42
6.35000508
 43
19.05000254
 44
279.4
 45
215.9
 46
69.6453324306941
 47
38.02653680086247
 48
0.0
 49
0.0
140
0.0
141
0.0
142
0.0335920848724483
143
1.0
 70
  1696
 72
     0
 73
     0
 74
     0
  7

 75
     0
147
0.0235690232323232
148
0.0
149
0.0
100
AcDbLayout
  1
Model
 70
     1
 71
     0
 10
0.0
 20
0.0
 11
420.0
 21
297.0
 12
0.0
 22
0.0
 32
0.0
 14
-62.00000000000009
 24
-49.97180738881175
 34
0.0
 15
97.79412503295505
 25
39.86025000000016
 35
0.0
146
0.0
 13
0.0
 23
0.0
 33
0.0
 16
1.0
 26
0.0
 36
0.0
 17
0.0
 27
1.0
 37
0.0
 76
     0
330
1F
331
29
  0
MLINESTYLE
  5
18
102
{ACAD_REACTORS
330
17
102
}
330
17
100
AcDbMlineStyle
  2
Standard
 70
     0
  3

 62
   256
 51
90.0
 52
90.0
 71
     2
 49
0.5
 62
   256
  6
BYLAYER
 49
-0.5
 62
   256
  6
BYLAYER
  0
ACDBPLACEHOLDER
  5
F
102
{ACAD_REACTORS
330
E
102
}
330
E
  0
SCALE
  5
48
102
{ACAD_REACTORS
330
47
102
}
330
47
100
AcDbScale
 70
     0
300
1:1
140
1.0
141
1.0
290
     1
  0
SCALE
  5
49
102
{ACAD_REACTORS
330
47
102
}
330
47
100
AcDbScale
 70
     0
300
1:2
140
1.0
141
2.0
290
     0
  0
SCALE
  5
4A
102
{ACAD_REACTORS
330
47
102
}
330
47
100
AcDbScale
 70
     0
300
1:4
140
1.0
141
4.0
290
     0
  0
SCALE
  5
4B
102
{ACAD_REACTORS
330
47
102
}
330
47
100
AcDbScale
 70
     0
300
1:5
140
1.0
141
5.0
290
     0
  0
SCALE
  5
4C
102
{ACAD_REACTORS
330
47
102
}
330
47
100
AcDbScale
 70
     0
300
1:8
140
1.0
141
8.0
290
     0
  0
SCALE
  5
4D
102
{ACAD_REACTORS
330
47
102
}
330
47
100
AcDbScale
 70
     0
300
1:10
140
1.0
141
10.0
290
     0
  0
SCALE
  5
4E
102
{ACAD_REACTORS
330
47
102
}
330
47
100
AcDbScale
 70
     0
300
1:16
140
1.0
141
16.0
290
     0
  0
SCALE
  5
4F
102
{ACAD_REACTORS
330
47
102
}
330
47
100
AcDbScale
 70
     0
300
1:20
140
1.0
141
20.0
290
     0
  0
SCALE
  5
50
102
{ACAD_REACTORS
330
47
102
}
330
47
100
AcDbScale
 70
     0
300
1:30
140
1.0
141
30.0
290
     0
  0
SCALE
  5
51
102
{ACAD_REACTORS
330
47
102
}
330
47
100
AcDbScale
 70
     0
300
1:40
140
1.0
141
40.0
290
     0
  0
SCALE
  5
52
102
{ACAD_REACTORS
330
47
102
}
330
47
100
AcDbScale
 70
     0
300
1:50
140
1.0
141
50.0
290
     0
  0
SCALE
  5
53
102
{ACAD_REACTORS
330
47
102
}
330
47
100
AcDbScale
 70
     0
300
1:100
140
1.0
141
100.0
290
     0
  0
SCALE
  5
54
102
{ACAD_REACTORS
330
47
102
}
330
47
100
AcDbScale
 70
     0
300
2:1
140
2.0
141
1.0
290
     0
  0
SCALE
  5
55
102
{ACAD_REACTORS
330
47
102
}
330
47
100
AcDbScale
 70
     0
300
4:1
140
4.0
141
1.0
290
     0
  0
SCALE
  5
56
102
{ACAD_REACTORS
330
47
102
}
330
47
100
AcDbScale
 70
     0
300
8:1
140
8.0
141
1.0
290
     0
  0
SCALE
  5
57
102
{ACAD_REACTORS
330
47
102
}
330
47
100
AcDbScale
 70
     0
300
10:1
140
10.0
141
1.0
290
     0
  0
SCALE
  5
58
102
{ACAD_REACTORS
330
47
102
}
330
47
100
AcDbScale
 70
     0
300
100:1
140
100.0
141
1.0
290
     0
  0
SCALE
  5
59
102
{ACAD_REACTORS
330
47
102
}
330
47
100
AcDbScale
 70
     0
300
1/128" = 1'-0"
140
0.0078125
141
12.0
290
     0
  0
SCALE
  5
5A
102
{ACAD_REACTORS
330
47
102
}
330
47
100
AcDbScale
 70
     0
300
1/64" = 1'-0"
140
0.015625
141
12.0
290
     0
  0
SCALE
  5
5B
102
{ACAD_REACTORS
330
47
102
}
330
47
100
AcDbScale
 70
     0
300
1/32" = 1'-0"
140
0.03125
141
12.0
290
     0
  0
SCALE
  5
5C
102
{ACAD_REACTORS
330
47
102
}
330
47
100
AcDbScale
 70
     0
300
1/16" = 1'-0"
140
0.0625
141
12.0
290
     0
  0
SCALE
  5
5D
102
{ACAD_REACTORS
330
47
102
}
330
47
100
AcDbScale
 70
     0
300
3/32" = 1'-0"
140
0.09375
141
12.0
290
     0
  0
SCALE
  5
5E
102
{ACAD_REACTORS
330
47
102
}
330
47
100
AcDbScale
 70
     0
300
1/8" = 1'-0"
140
0.125
141
12.0
290
     0
  0
SCALE
  5
5F
102
{ACAD_REACTORS
330
47
102
}
330
47
100
AcDbScale
 70
     0
300
3/16" = 1'-0"
140
0.1875
141
12.0
290
     0
  0
SCALE
  5
60
102
{ACAD_REACTORS
330
47
102
}
330
47
100
AcDbScale
 70
     0
300
1/4" = 1'-0"
140
0.25
141
12.0
290
     0
  0
SCALE
  5
61
102
{ACAD_REACTORS
330
47
102
}
330
47
100
AcDbScale
 70
     0
300
3/8" = 1'-0"
140
0.375
141
12.0
290
     0
  0
SCALE
  5
62
102
{ACAD_REACTORS
330
47
102
}
330
47
100
AcDbScale
 70
     0
300
1/2" = 1'-0"
140
0.5
141
12.0
290
     0
  0
SCALE
  5
63
102
{ACAD_REACTORS
330
47
102
}
330
47
100
AcDbScale
 70
     0
300
3/4" = 1'-0"
140
0.75
141
12.0
290
     0
  0
SCALE
  5
64
102
{ACAD_REACTORS
330
47
102
}
330
47
100
AcDbScale
 70
     0
300
1" = 1'-0"
140
1.0
141
12.0
290
     0
  0
SCALE
  5
65
102
{ACAD_REACTORS
330
47
102
}
330
47
100
AcDbScale
 70
     0
300
1-1/2" = 1'-0"
140
1.5
141
12.0
290
     0
  0
SCALE
  5
66
102
{ACAD_REACTORS
330
47
102
}
330
47
100
AcDbScale
 70
     0
300
3" = 1'-0"
140
3.0
141
12.0
290
     0
  0
SCALE
  5
67
102
{ACAD_REACTORS
330
47
102
}
330
47
100
AcDbScale
 70
     0
300
6" = 1'-0"
140
6.0
141
12.0
290
     0
  0
SCALE
  5
68
102
{ACAD_REACTORS
330
47
102
}
330
47
100
AcDbScale
 70
     0
300
1'-0" = 1'-0"
140
12.0
141
12.0
290
     0
  0
ENDSEC
  0
EOF
