  0
SECTION
  2
HEADER
  9
$ACADVER
  1
AC1015
  9
$ACADMAINTVER
 70
     6
  9
$DWGCODEPAGE
  3
ANSI_949
  9
$INSBASE
 10
0.0
 20
0.0
 30
0.0
  9
$EXTMIN
 10
-62.00000000000009
 20
-49.97180738881175
 30
0.0
  9
$EXTMAX
 10
97.79412503295505
 20
45.12536329306117
 30
0.0
  9
$LIMMIN
 10
0.0
 20
0.0
  9
$LIMMAX
 10
420.0
 20
297.0
  9
$ORTHOMODE
 70
     1
  9
$REGENMODE
 70
     1
  9
$FILLMODE
 70
     1
  9
$QTEXTMODE
 70
     0
  9
$MIRRTEXT
 70
     1
  9
$LTSCALE
 40
1.0
  9
$ATTMODE
 70
     1
  9
$TEXTSIZE
 40
3.5
  9
$TRACEWID
 40
1.0
  9
$TEXTSTYLE
  7
Standard
  9
$CLAYER
  8
0
  9
$CELTYPE
  6
ByLayer
  9
$CECOLOR
 62
   256
  9
$CELTSCALE
 40
1.0
  9
$DISPSILH
 70
     0
  9
$DIMSCALE
 40
1.0
  9
$DIMASZ
 40
3.302
  9
$DIMEXO
 40
1.0
  9
$DIMDLI
 40
3.75
  9
$DIMRND
 40
0.0
  9
$DIMDLE
 40
0.0
  9
$DIMEXE
 40
1.0
  9
$DIMTP
 40
0.0
  9
$DIMTM
 40
0.0
  9
$DIMTXT
 40
3.5
  9
$DIMCEN
 40
2.5
  9
$DIMTSZ
 40
0.0
  9
$DIMTOL
 70
     0
  9
$DIMLIM
 70
     0
  9
$DIMTIH
 70
     1
  9
$DIMTOH
 70
     1
  9
$DIMSE1
 70
     0
  9
$DIMSE2
 70
     0
  9
$DIMTAD
 70
     1
  9
$DIMZIN
 70
     0
  9
$DIMBLK
  1

  9
$DIMASO
 70
     1
  9
$DIMSHO
 70
     1
  9
$DIMPOST
  1

  9
$DIMAPOST
  1

  9
$DIMALT
 70
     0
  9
$DIMALTD
 70
     3
  9
$DIMALTF
 40
0.0393700787401575
  9
$DIMLFAC
 40
1.0
  9
$DIMTOFL
 70
     1
  9
$DIMTVP
 40
0.0
  9
$DIMTIX
 70
     0
  9
$DIMSOXD
 70
     0
  9
$DIMSAH
 70
     0
  9
$DIMBLK1
  1

  9
$DIMBLK2
  1

  9
$DIMSTYLE
  2
ISO-25
  9
$DIMCLRD
 70
     0
  9
$DIMCLRE
 70
     0
  9
$DIMCLRT
 70
     0
  9
$DIMTFAC
 40
1.0
  9
$DIMGAP
 40
1.524
  9
$DIMJUST
 70
     0
  9
$DIMSD1
 70
     0
  9
$DIMSD2
 70
     0
  9
$DIMTOLJ
 70
     0
  9
$DIMTZIN
 70
     0
  9
$DIMALTZ
 70
     0
  9
$DIMALTTZ
 70
     0
  9
$DIMUPT
 70
     0
  9
$DIMDEC
 70
     2
  9
$DIMTDEC
 70
     2
  9
$DIMALTU
 70
     2
  9
$DIMALTTD
 70
     3
  9
$DIMTXSTY
  7
Standard
  9
$DIMAUNIT
 70
     0
  9
$DIMADEC
 70
     2
  9
$DIMALTRND
 40
0.0
  9
$DIMAZIN
 70
     0
  9
$DIMDSEP
 70
    44
  9
$DIMATFIT
 70
     3
  9
$DIMFRAC
 70
     0
  9
$DIMLDRBLK
  1

  9
$DIMLUNIT
 70
     2
  9
$DIMLWD
 70
    -2
  9
$DIMLWE
 70
    -2
  9
$DIMTMOVE
 70
     0
  9
$LUNITS
 70
     2
  9
$LUPREC
 70
     2
  9
$SKETCHINC
 40
1.0
  9
$FILLETRAD
 40
10.0
  9
$AUNITS
 70
     0
  9
$AUPREC
 70
     2
  9
$MENU
  1
.
  9
$ELEVATION
 40
0.0
  9
$PELEVATION
 40
0.0
  9
$THICKNESS
 40
0.0
  9
$LIMCHECK
 70
     0
  9
$CHAMFERA
 40
0.0
  9
$CHAMFERB
 40
0.0
  9
$CHAMFERC
 40
0.0
  9
$CHAMFERD
 40
0.0
  9
$SKPOLY
 70
     0
  9
$TDCREATE
 40
2458313.398641343
  9
$TDUCREATE
 40
2458313.023641343
  9
$TDUPDATE
 40
2458324.437166956
  9
$TDUUPDATE
 40
2458324.062166956
  9
$TDINDWG
 40
0.000727581
  9
$TDUSRTIMER
 40
0.0028500579
  9
$USRTIMER
 70
     1
  9
$ANGBASE
 50
0.0
  9
$ANGDIR
 70
     0
  9
$PDMODE
 70
     0
  9
$PDSIZE
 40
-1.0
  9
$PLINEWID
 40
0.0
  9
$SPLFRAME
 70
     0
  9
$SPLINETYPE
 70
     6
  9
$SPLINESEGS
 70
     8
  9
$HANDSEED
  5
231
  9
$SURFTAB1
 70
     6
  9
$SURFTAB2
 70
     6
  9
$SURFTYPE
 70
     6
  9
$SURFU
 70
     6
  9
$SURFV
 70
     6
  9
$UCSBASE
  2

  9
$UCSNAME
  2

  9
$UCSORG
 10
0.0
 20
0.0
 30
0.0
  9
$UCSXDIR
 10
1.0
 20
0.0
 30
0.0
  9
$UCSYDIR
 10
0.0
 20
1.0
 30
0.0
  9
$UCSORTHOREF
  2

  9
$UCSORTHOVIEW
 70
     0
  9
$UCSORGTOP
 10
0.0
 20
0.0
 30
0.0
  9
$UCSORGBOTTOM
 10
0.0
 20
0.0
 30
0.0
  9
$UCSORGLEFT
 10
0.0
 20
0.0
 30
0.0
  9
$UCSORGRIGHT
 10
0.0
 20
0.0
 30
0.0
  9
$UCSORGFRONT
 10
0.0
 20
0.0
 30
0.0
  9
$UCSORGBACK
 10
0.0
 20
0.0
 30
0.0
  9
$PUCSBASE
  2

  9
$PUCSNAME
  2

  9
$PUCSORG
 10
0.0
 20
0.0
 30
0.0
  9
$PUCSXDIR
 10
1.0
 20
0.0
 30
0.0
  9
$PUCSYDIR
 10
0.0
 20
1.0
 30
0.0
  9
$PUCSORTHOREF
  2

  9
$PUCSORTHOVIEW
 70
     0
  9
$PUCSORGTOP
 10
0.0
 20
0.0
 30
0.0
  9
$PUCSORGBOTTOM
 10
0.0
 20
0.0
 30
0.0
  9
$PUCSORGLEFT
 10
0.0
 20
0.0
 30
0.0
  9
$PUCSORGRIGHT
 10
0.0
 20
0.0
 30
0.0
  9
$PUCSORGFRONT
 10
0.0
 20
0.0
 30
0.0
  9
$PUCSORGBACK
 10
0.0
 20
0.0
 30
0.0
  9
$USERI1
 70
     0
  9
$USERI2
 70
     0
  9
$USERI3
 70
     0
  9
$USERI4
 70
     0
  9
$USERI5
 70
     0
  9
$USERR1
 40
0.0
  9
$USERR2
 40
0.0
  9
$USERR3
 40
0.0
  9
$USERR4
 40
0.0
  9
$USERR5
 40
0.0
  9
$WORLDVIEW
 70
     1
  9
$SHADEDGE
 70
     3
  9
$SHADEDIF
 70
    70
  9
$TILEMODE
 70
     1
  9
$MAXACTVP
 70
    64
  9
$PINSBASE
 10
0.0
 20
0.0
 30
0.0
  9
$PLIMCHECK
 70
     0
  9
$PEXTMIN
 10
1.000000000000000E+20
 20
1.000000000000000E+20
 30
1.000000000000000E+20
  9
$PEXTMAX
 10
-1.000000000000000E+20
 20
-1.000000000000000E+20
 30
-1.000000000000000E+20
  9
$PLIMMIN
 10
0.0
 20
0.0
  9
$PLIMMAX
 10
0.0
 20
0.0
  9
$UNITMODE
 70
     0
  9
$VISRETAIN
 70
     1
  9
$PLINEGEN
 70
     0
  9
$PSLTSCALE
 70
     1
  9
$TREEDEPTH
 70
  3020
  9
$CMLSTYLE
  2
Standard
  9
$CMLJUST
 70
     0
  9
$CMLSCALE
 40
20.0
  9
$PROXYGRAPHICS
 70
     1
  9
$MEASUREMENT
 70
     1
  9
$CELWEIGHT
370
    -1
  9
$ENDCAPS
280
     0
  9
$JOINSTYLE
280
     0
  9
$LWDISPLAY
290
     1
  9
$INSUNITS
 70
     4
  9
$HYPERLINKBASE
  1

  9
$STYLESHEET
  1

  9
$XEDIT
290
     1
  9
$CEPSNTYPE
380
     0
  9
$PSTYLEMODE
290
     1
  9
$FINGERPRINTGUID
  2
{4CAE111E-9DBE-49F5-867B-467BBC72E132}
  9
$VERSIONGUID
  2
{FAEB1C32-E019-11D5-929B-00C0DF256EC4}
  9
$EXTNAMES
290
     1
  9
$PSVPSCALE
 40
0.0
  9
$OLESTARTUP
290
     0
  0
ENDSEC
  0
SECTION
  2
CLASSES
  0
CLASS
  1
ACDBDICTIONARYWDFLT
  2
AcDbDictionaryWithDefault
  3
ObjectDBX Classes
 90
        0
280
     0
281
     0
  0
CLASS
  1
VISUALSTYLE
  2
AcDbVisualStyle
  3
ObjectDBX Classes
 90
     4095
280
     0
281
     0
  0
CLASS
  1
MATERIAL
  2
AcDbMaterial
  3
ObjectDBX Classes
 90
     1153
280
     0
281
     0
  0
CLASS
  1
SCALE
  2
AcDbScale
  3
ObjectDBX Classes
 90
     1153
280
     0
281
     0
  0
CLASS
  1
SUN
  2
AcDbSun
  3
SCENEOE
 90
     1153
280
     0
281
     0
  0
CLASS
  1
ACDBPLACEHOLDER
  2
AcDbPlaceHolder
  3
ObjectDBX Classes
 90
        0
280
     0
281
     0
  0
CLASS
  1
LAYOUT
  2
AcDbLayout
  3
ObjectDBX Classes
 90
        0
280
     0
281
     0
  0
CLASS
  1
TABLESTYLE
  2
AcDbTableStyle
  3
ObjectDBX Classes
 90
     4095
280
     0
281
     0
  0
CLASS
  1
MLEADERSTYLE
  2
AcDbMLeaderStyle
  3
ACDB_MLEADERSTYLE_CLASS
 90
     4095
280
     0
281
     0
  0
CLASS
  1
DICTIONARYVAR
  2
AcDbDictionaryVar
  3
ObjectDBX Classes
 90
        0
280
     0
281
     0
  0
ENDSEC
  0
SECTION
  2
TABLES
  0
TABLE
  2
VPORT
  5
8
330
0
100
AcDbSymbolTable
 70
     1
  0
VPORT
  5
29
330
8
100
AcDbSymbolTableRecord
100
AcDbViewportTableRecord
  2
*Active
 70
     0
 10
0.0
 20
0.0
 11
1.0
 21
1.0
 12
17.89706251647749
 22
-2.423222047875242
 13
0.0
 23
0.0
 14
10.0
 24
10.0
 15
10.0
 25
10.0
 16
0.0
 26
0.0
 36
1.0
 17
0.0
 27
0.0
 37
0.0
 40
96.99911409551049
 41
1.782762691853601
 42
50.0
 43
0.0
 44
0.0
 50
0.0
 51
0.0
 71
    16
 72
  2000
 73
     1
 74
     3
 75
     0
 76
     0
 77
     0
 78
     0
281
     0
 65
     1
110
0.0
120
0.0
130
0.0
111
1.0
121
0.0
131
0.0
112
0.0
122
1.0
132
0.0
 79
     0
146
0.0
  0
ENDTAB
  0
TABLE
  2
LTYPE
  5
5
330
0
100
AcDbSymbolTable
 70
     6
  0
LTYPE
  5
14
330
5
100
AcDbSymbolTableRecord
100
AcDbLinetypeTableRecord
  2
ByBlock
 70
     0
  3

 72
    65
 73
     0
 40
0.0
  0
LTYPE
  5
15
330
5
100
AcDbSymbolTableRecord
100
AcDbLinetypeTableRecord
  2
ByLayer
 70
     0
  3

 72
    65
 73
     0
 40
0.0
  0
LTYPE
  5
16
330
5
100
AcDbSymbolTableRecord
100
AcDbLinetypeTableRecord
  2
Continuous
 70
     0
  3
Solid line
 72
    65
 73
     0
 40
0.0
  0
LTYPE
  5
6A
330
5
100
AcDbSymbolTableRecord
100
AcDbLinetypeTableRecord
  2
HIDDEN
 70
     0
  3
Hidden __ __ __ __ __ __ __ __ __ __ __ __ __ __
 72
    65
 73
     2
 40
1.905
 49
1.27
 74
     0
 49
-0.635
 74
     0
  0
LTYPE
  5
6B
330
5
100
AcDbSymbolTableRecord
100
AcDbLinetypeTableRecord
  2
PHANTOM
 70
     0
  3
Phantom ______  __  __  ______  __  __  ______
 72
    65
 73
     6
 40
12.7
 49
6.35
 74
     0
 49
-1.27
 74
     0
 49
1.27
 74
     0
 49
-1.27
 74
     0
 49
1.27
 74
     0
 49
-1.27
 74
     0
  0
LTYPE
  5
6C
330
5
100
AcDbSymbolTableRecord
100
AcDbLinetypeTableRecord
  2
CENTER
 70
     0
  3
Center ____ _ ____ _ ____ _ ____ _ ____ _ ____
 72
    65
 73
     4
 40
10.16
 49
6.35
 74
     0
 49
-1.27
 74
     0
 49
1.27
 74
     0
 49
-1.27
 74
     0
  0
LTYPE
  5
6D
330
5
100
AcDbSymbolTableRecord
100
AcDbLinetypeTableRecord
  2
CENTERX2
 70
     0
  3
Center (2x) ________  __  ________  __  _____
 72
    65
 73
     4
 40
20.32
 49
12.7
 74
     0
 49
-2.54
 74
     0
 49
2.54
 74
     0
 49
-2.54
 74
     0
  0
LTYPE
  5
6E
330
5
100
AcDbSymbolTableRecord
100
AcDbLinetypeTableRecord
  2
DOT2
 70
     0
  3
Dot (.5x) ........................................
 72
    65
 73
     2
 40
0.635
 49
0.0
 74
     0
 49
-0.635
 74
     0
  0
ENDTAB
  0
TABLE
  2
LAYER
  5
2
102
{ACAD_XDICTIONARY
360
195
102
}
330
0
100
AcDbSymbolTable
 70
    18
  0
LAYER
  5
10
330
2
100
AcDbSymbolTableRecord
100
AcDbLayerTableRecord
  2
0
 70
     0
 62
     7
  6
Continuous
370
    -3
390
F
  0
LAYER
  5
6F
330
2
100
AcDbSymbolTableRecord
100
AcDbLayerTableRecord
  2
FORMAT
 70
     0
 62
     2
  6
Continuous
370
    -3
390
F
  0
LAYER
  5
70
330
2
100
AcDbSymbolTableRecord
100
AcDbLayerTableRecord
  2
외형선
 70
     0
 62
     4
  6
Continuous
370
    30
390
F
  0
LAYER
  5
71
330
2
100
AcDbSymbolTableRecord
100
AcDbLayerTableRecord
  2
숨은선
 70
     0
 62
     2
  6
HIDDEN
370
    15
390
F
  0
LAYER
  5
72
330
2
100
AcDbSymbolTableRecord
100
AcDbLayerTableRecord
  2
중심선
 70
     0
 62
     1
  6
CENTERX2
370
    -3
390
F
  0
LAYER
  5
73
330
2
100
AcDbSymbolTableRecord
100
AcDbLayerTableRecord
  2
파단선
 70
     0
 62
     4
  6
Continuous
370
    -3
390
F
  0
LAYER
  5
74
330
2
100
AcDbSymbolTableRecord
100
AcDbLayerTableRecord
  2
해칭선
 70
     0
 62
   100
  6
Continuous
370
    -3
390
F
  0
LAYER
  5
75
330
2
100
AcDbSymbolTableRecord
100
AcDbLayerTableRecord
  2
가는실선
 70
     0
 62
     4
  6
Continuous
370
    -3
390
F
  0
LAYER
  5
76
330
2
100
AcDbSymbolTableRecord
100
AcDbLayerTableRecord
  2
치수_보조선
 70
     0
 62
     4
  6
Continuous
370
    -3
390
F
  0
LAYER
  5
77
330
2
100
AcDbSymbolTableRecord
100
AcDbLayerTableRecord
  2
치수문자_일반주서
 70
     0
 62
     7
  6
Continuous
370
    15
390
F
  0
LAYER
  5
78
330
2
100
AcDbSymbolTableRecord
100
AcDbLayerTableRecord
  2
개별주서
 70
     0
 62
   100
  6
Continuous
370
    30
390
F
  0
LAYER
  5
79
330
2
100
AcDbSymbolTableRecord
100
AcDbLayerTableRecord
  2
중간선
 70
     0
 62
     2
  6
Continuous
370
    15
390
F
  0
LAYER
  5
7A
330
2
100
AcDbSymbolTableRecord
100
AcDbLayerTableRecord
  2
윤곽선
 70
     0
 62
     3
  6
Continuous
370
    40
390
F
  0
LAYER
  5
7B
330
2
100
AcDbSymbolTableRecord
100
AcDbLayerTableRecord
  2
중심마크
 70
     0
 62
   100
  6
Continuous
370
    30
390
F
  0
LAYER
  5
7C
330
2
100
AcDbSymbolTableRecord
100
AcDbLayerTableRecord
  2
가상선
 70
     0
 62
     4
  6
PHANTOM
370
    -3
390
F
  0
LAYER
  5
7D
330
2
100
AcDbSymbolTableRecord
100
AcDbLayerTableRecord
  2
특수지정선
 70
     0
 62
     5
  6
CENTERX2
370
    60
390
F
  0
LAYER
  5
7E
330
2
100
AcDbSymbolTableRecord
100
AcDbLayerTableRecord
  2
참조1
 70
     0
 62
    -4
  6
Continuous
370
    -3
390
F
  0
LAYER
  5
15A
330
2
100
AcDbSymbolTableRecord
100
AcDbLayerTableRecord
  2
Defpoints
 70
     0
 62
     7
  6
Continuous
290
     0
370
    -3
390
F
  0
ENDTAB
  0
TABLE
  2
STYLE
  5
3
330
0
100
AcDbSymbolTable
 70
     2
  0
STYLE
  5
11
330
3
100
AcDbSymbolTableRecord
100
AcDbTextStyleTableRecord
  2
Standard
 70
     0
 40
0.0
 41
1.0
 50
0.0
 71
     0
 42
3.5
  3
txt
  4

  0
STYLE
  5
94
330
3
100
AcDbSymbolTableRecord
100
AcDbTextStyleTableRecord
  2
SLDTEXTSTYLE0
 70
     0
 40
0.0
 41
0.75
 50
0.0
 71
     0
 42
3.5
  3
TXT
  4

  0
ENDTAB
  0
TABLE
  2
VIEW
  5
6
330
0
100
AcDbSymbolTable
 70
     0
  0
ENDTAB
  0
TABLE
  2
UCS
  5
7
330
0
100
AcDbSymbolTable
 70
     0
  0
ENDTAB
  0
TABLE
  2
APPID
  5
9
330
0
100
AcDbSymbolTable
 70
     2
  0
APPID
  5
12
330
9
100
AcDbSymbolTableRecord
100
AcDbRegAppTableRecord
  2
ACAD
 70
     0
  0
APPID
  5
162
330
9
100
AcDbSymbolTableRecord
100
AcDbRegAppTableRecord
  2
PE_URL
 70
     0
  0
ENDTAB
  0
TABLE
  2
DIMSTYLE
  5
A
330
0
100
AcDbSymbolTable
 70
     3
100
AcDbDimStyleTable
  0
DIMSTYLE
105
27
330
A
100
AcDbSymbolTableRecord
100
AcDbDimStyleTableRecord
  2
ISO-25
 70
     0
 41
2.5
 42
0.625
 43
3.75
 44
1.25
 73
     0
 74
     0
 77
     1
 78
     8
140
2.5
141
2.5
143
0.03937007874016
147
0.625
171
     3
172
     1
178
     0
271
     2
272
     2
274
     3
278
    44
283
     0
284
     8
340
11
  0
DIMSTYLE
105
DA
102
{ACAD_REACTORS
330
D9
330
185
330
EE
330
102
330
116
102
}
330
A
100
AcDbSymbolTableRecord
100
AcDbDimStyleTableRecord
  2
SLDDIMSTYLE0
 70
     0
 41
3.302
 44
0.0
 45
0.000000001
 73
     0
 74
     0
 77
     1
 78
     4
 79
     1
140
3.5
143
0.0393700787401575
147
0.875
148
0.000000001
170
     1
172
     1
173
     1
178
     0
271
     2
272
     2
276
     2
284
    12
289
     0
340
94
  0
DIMSTYLE
105
EF
330
A
100
AcDbSymbolTableRecord
100
AcDbDimStyleTableRecord
  2
SLDDIMSTYLE1
 70
     0
 41
3.302
 44
0.0
 45
0.000000001
 73
     0
 74
     0
 77
     1
 78
    12
 79
     3
140
3.5
143
0.0393700787401575
147
0.875
148
0.000000001
170
     1
173
     1
178
     0
271
     2
272
     2
276
     2
284
    12
340
94
  0
ENDTAB
  0
TABLE
  2
BLOCK_RECORD
  5
1
330
0
100
AcDbSymbolTable
 70
    10
  0
BLOCK_RECORD
  5
1F
330
1
100
AcDbSymbolTableRecord
100
AcDbBlockTableRecord
  2
*Model_Space
340
22
  0
BLOCK_RECORD
  5
1B
330
1
100
AcDbSymbolTableRecord
100
AcDbBlockTableRecord
  2
*Paper_Space
340
1E
  0
BLOCK_RECORD
  5
23
330
1
100
AcDbSymbolTableRecord
100
AcDbBlockTableRecord
  2
*Paper_Space0
340
26
  0
BLOCK_RECORD
  5
7F
330
1
100
AcDbSymbolTableRecord
100
AcDbBlockTableRecord
  2
블럭10
340
0
102
{BLKREFS
331
D2
102
}
  0
BLOCK_RECORD
  5
DB
330
1
100
AcDbSymbolTableRecord
100
AcDbBlockTableRecord
  2
_D
340
0
  0
BLOCK_RECORD
  5
F0
330
1
100
AcDbSymbolTableRecord
100
AcDbBlockTableRecord
  2
_D_1
340
0
  0
BLOCK_RECORD
  5
103
330
1
100
AcDbSymbolTableRecord
100
AcDbBlockTableRecord
  2
_D_2
340
0
  0
BLOCK_RECORD
  5
117
330
1
100
AcDbSymbolTableRecord
100
AcDbBlockTableRecord
  2
_D_3
340
0
  0
BLOCK_RECORD
  5
130
330
1
100
AcDbSymbolTableRecord
100
AcDbBlockTableRecord
  2
SW_DOWELSYMBOL_0
340
0
102
{BLKREFS
331
136
102
}
  0
BLOCK_RECORD
  5
199
330
1
100
AcDbSymbolTableRecord
100
AcDbBlockTableRecord
  2
*D8
340
0
  0
BLOCK_RECORD
  5
1AE
330
1
100
AcDbSymbolTableRecord
100
AcDbBlockTableRecord
  2
*D9
340
0
  0
ENDTAB
  0
ENDSEC
  0
SECTION
  2
BLOCKS
  0
BLOCK
  5
20
330
1F
100
AcDbEntity
  8
0
100
AcDbBlockBegin
  2
*Model_Space
 70
     0
 10
0.0
 20
0.0
 30
0.0
  3
*Model_Space
  1

  0
ENDBLK
  5
21
330
1F
100
AcDbEntity
  8
0
100
AcDbBlockEnd
  0
BLOCK
  5
1C
330
1B
100
AcDbEntity
 67
     1
  8
0
100
AcDbBlockBegin
  2
*Paper_Space
 70
     0
 10
0.0
 20
0.0
 30
0.0
  3
*Paper_Space
  1

  0
ENDBLK
  5
1D
330
1B
100
AcDbEntity
 67
     1
  8
0
100
AcDbBlockEnd
  0
BLOCK
  5
24
330
23
100
AcDbEntity
  8
0
100
AcDbBlockBegin
  2
*Paper_Space0
 70
     0
 10
0.0
 20
0.0
 30
0.0
  3
*Paper_Space0
  1

  0
ENDBLK
  5
25
330
23
100
AcDbEntity
  8
0
100
AcDbBlockEnd
  0
BLOCK
  5
80
330
7F
100
AcDbEntity
  8
0
100
AcDbBlockBegin
  2
블럭10
 70
     2
 10
0.0
 20
0.0
 30
0.0
  3
블럭10
  1

  0
ELLIPSE
  5
82
330
7F
100
AcDbEntity
  8
중심선
100
AcDbEllipse
 10
20.54032771741204
 20
12.0471743016438
 30
0.0
 11
6.600054785286829
 21
-1.261213355974178E-13
 31
0.0
210
0.0
220
0.0
230
1.0
 40
0.636358354079598
 41
0.9219305317359503
 42
6.513795318482858
  0
ELLIPSE
  5
83
330
7F
100
AcDbEntity
  8
중심선
100
AcDbEllipse
 10
20.54032771746488
 20
12.04717430159265
 30
0.0
 11
3.960054785062283
 21
1.540847449632565E-10
 31
0.0
210
0.0
220
0.0
230
1.0
 40
0.3939339440162632
 41
1.131841032648279
 42
5.62031148352944
  0
LINE
  5
84
330
7F
100
AcDbEntity
  8
중심선
100
AcDbLine
 10
2.268634060543552
 20
16.24717430164393
 30
0.0
 11
5.714909304380834
 21
16.24717430164393
 31
0.0
  0
LINE
  5
85
330
7F
100
AcDbEntity
  8
중심선
100
AcDbLine
 10
5.245725140726316
 20
7.84717430164391
 30
0.0
 11
8.692000384563599
 21
7.84717430164391
 31
0.0
  0
LINE
  5
86
330
7F
100
AcDbEntity
  8
중심선
100
AcDbLine
 10
15.74043728645272
 20
16.24717430164393
 30
0.0
 11
8.692000384563599
 21
7.84717430164391
 31
0.0
  0
LINE
  5
87
330
7F
100
AcDbEntity
  8
중심선
100
AcDbLine
 10
0.1404042013395286
 20
13.71084872107135
 30
0.0
 11
3.58671253028996
 21
13.71088815037384
 31
0.0
  0
LINE
  5
88
330
7F
100
AcDbEntity
  8
중심선
100
AcDbLine
 10
2.750260043222114
 20
10.84717430164391
 30
0.0
 11
6.196535287059397
 21
10.84717430164391
 31
0.0
  0
LINE
  5
89
330
7F
100
AcDbEntity
  8
중심선
100
AcDbLine
 10
12.29416204261559
 20
16.24717430164393
 30
0.0
 11
5.245725140726316
 21
7.84717430164391
 31
0.0
  0
LINE
  5
8A
330
7F
100
AcDbEntity
  8
중심선
100
AcDbLine
 10
10.72767329541681
 20
16.24717430164393
 30
0.0
 11
6.196535287059397
 21
10.84717430164391
 31
0.0
  0
LINE
  5
8B
330
7F
100
AcDbEntity
  8
중심선
100
AcDbLine
 10
7.28139805157953
 20
16.24717430164393
 30
0.0
 11
2.750260043222114
 21
10.84717430164391
 31
0.0
  0
LINE
  5
8C
330
7F
100
AcDbEntity
  8
중심선
100
AcDbLine
 10
5.714909304380834
 20
16.24717430164393
 30
0.0
 11
3.58671253028996
 21
13.71088815037384
 31
0.0
  0
LINE
  5
8D
330
7F
100
AcDbEntity
  8
중심선
100
AcDbLine
 10
2.268634060543552
 20
16.24717430164393
 30
0.0
 11
0.1404042013395286
 21
13.71084872107135
 31
0.0
  0
LINE
  5
8E
330
7F
100
AcDbEntity
  8
중심선
100
AcDbLine
 10
7.28139805157953
 20
16.24717430164393
 30
0.0
 11
10.72767329541681
 21
16.24717430164393
 31
0.0
  0
LINE
  5
8F
330
7F
100
AcDbEntity
  8
중심선
100
AcDbLine
 10
12.29416204261559
 20
16.24717430164393
 30
0.0
 11
15.74043728645272
 21
16.24717430164393
 31
0.0
  0
LINE
  5
90
330
7F
100
AcDbEntity
  8
중심선
100
AcDbLine
 10
19.22036997980202
 20
11.08717430171403
 30
0.0
 11
23.66174974927406
 21
11.08717430171406
 31
0.0
  0
LINE
  5
91
330
7F
100
AcDbEntity
  8
중심선
100
AcDbLine
 10
19.22039502424796
 20
13.00717430171391
 30
0.0
 11
19.22036997980202
 21
11.08717430171403
 31
0.0
  0
LINE
  5
92
330
7F
100
AcDbEntity
  8
중심선
100
AcDbLine
 10
19.22039502424796
 20
13.00717430171391
 30
0.0
 11
26.96566020931264
 21
13.00717430171391
 31
0.0
  0
LINE
  5
93
330
7F
100
AcDbEntity
  8
중심선
100
AcDbLine
 10
22.22332737316547
 20
13.45928029700563
 30
0.0
 11
24.52862924686651
 21
15.39360700705356
 31
0.0
  0
ATTDEF
  5
95
330
7F
100
AcDbEntity
  8
FORMAT
 62
     2
100
AcDbText
 10
4.408487351596664
 20
2.075366912832191
 30
0.0
 40
4.233333333333333
  1
E1050031
 41
0.75
  7
SLDTEXTSTYLE0
 11
4.408487351596664
 21
-0.0412997538344756
 31
0.0
100
AcDbAttributeDefinition
  3

  2
AUTOATTR0
 70
     0
 74
     1
  0
ENDBLK
  5
81
330
7F
100
AcDbEntity
  8
0
100
AcDbBlockEnd
  0
BLOCK
  5
DC
330
DB
100
AcDbEntity
  8
0
100
AcDbBlockBegin
  2
_D
 70
     0
 10
0.0
 20
0.0
 30
0.0
  3
_D
  1

  0
LINE
  5
DE
330
DB
100
AcDbEntity
  8
치수문자_일반주서
 62
     0
370
    -2
100
AcDbLine
 10
-25.02010440548095
 20
6.349999999999992
 30
0.0
 11
-57.62499999999998
 21
6.349999999999866
 31
0.0
  0
LINE
  5
DF
330
DB
100
AcDbEntity
  8
치수문자_일반주서
 62
     0
370
    -2
100
AcDbLine
 10
-25.02010440548096
 20
-6.350000000000001
 30
0.0
 11
-57.62499999999994
 21
-6.350000000000122
 31
0.0
  0
LINE
  5
E0
330
DB
100
AcDbEntity
  8
치수문자_일반주서
 62
     0
370
    -2
100
AcDbLine
 10
-57.62499999999998
 20
6.349999999999866
 30
0.0
 11
-57.62500000000009
 21
39.64149999999995
 31
0.0
  0
LINE
  5
E1
330
DB
100
AcDbEntity
  8
치수문자_일반주서
 62
     0
370
    -2
100
AcDbLine
 10
-57.62499999999998
 20
6.349999999999866
 30
0.0
 11
-57.62499999999994
 21
-6.350000000000122
 31
0.0
  0
LINE
  5
E2
330
DB
100
AcDbEntity
  8
치수문자_일반주서
 62
     0
370
    -2
100
AcDbLine
 10
-57.62499999999999
 20
9.651999999999866
 30
0.0
 11
-57.62500000000001
 21
12.95399999999987
 31
0.0
  0
LINE
  5
E3
330
DB
100
AcDbEntity
  8
치수문자_일반주서
 62
     0
370
    -2
100
AcDbLine
 10
-57.62499999999992
 20
-9.652000000000122
 30
0.0
 11
-57.62499999999991
 21
-12.95400000000012
 31
0.0
  0
SOLID
  5
E4
330
DB
100
AcDbEntity
  8
치수문자_일반주서
 62
     0
100
AcDbTrace
 10
-58.17533333333333
 20
9.651999999999864
 30
0.0
 11
-57.07466666666666
 21
9.651999999999868
 31
0.0
 12
-57.62499999999998
 22
6.349999999999866
 32
0.0
 13
-57.62499999999998
 23
6.349999999999866
 33
0.0
  0
SOLID
  5
E5
330
DB
100
AcDbEntity
  8
치수문자_일반주서
 62
     0
100
AcDbTrace
 10
-57.07466666666659
 20
-9.65200000000012
 30
0.0
 11
-58.17533333333326
 21
-9.652000000000124
 31
0.0
 12
-57.62499999999994
 22
-6.350000000000122
 32
0.0
 13
-57.62499999999994
 23
-6.350000000000122
 33
0.0
  0
MTEXT
  5
E6
330
DB
100
AcDbEntity
  8
치수문자_일반주서
 62
     0
100
AcDbMText
 10
-62.00000000000004
 20
26.29774999999994
 30
0.0
 40
3.5
 41
0.0
 71
     2
 72
     1
  1
\A1;%%c12.70 [1/2]
  7
SLDTEXTSTYLE0
 11
-3.356894814614648E-15
 21
1.0
 31
0.0
 73
     1
 44
1.0
  0
POINT
  5
1C0
330
DB
100
AcDbEntity
  8
Defpoints
 62
     0
100
AcDbPoint
 10
-24.95760440548095
 20
6.349999999999992
 30
0.0
  0
POINT
  5
1C1
330
DB
100
AcDbEntity
  8
Defpoints
 62
     0
100
AcDbPoint
 10
-24.95760440548096
 20
-6.350000000000001
 30
0.0
  0
POINT
  5
1C2
330
DB
100
AcDbEntity
  8
Defpoints
 62
     0
100
AcDbPoint
 10
-57.62499999999994
 20
-6.350000000000123
 30
0.0
  0
ENDBLK
  5
DD
330
DB
100
AcDbEntity
  8
0
100
AcDbBlockEnd
  0
BLOCK
  5
F1
330
F0
100
AcDbEntity
  8
0
100
AcDbBlockBegin
  2
_D_1
 70
     0
 10
0.0
 20
0.0
 30
0.0
  3
_D_1
  1

  0
LINE
  5
F3
330
F0
100
AcDbEntity
  8
치수문자_일반주서
 62
     0
370
    -2
100
AcDbLine
 10
47.68750000000001
 20
-6.146363293061103
 30
0.0
 11
90.59528903802034
 21
-6.146363293060947
 31
0.0
  0
LINE
  5
F4
330
F0
100
AcDbEntity
  8
치수문자_일반주서
 62
     0
370
    -2
100
AcDbLine
 10
47.68750000000001
 20
6.146363293061102
 30
0.0
 11
90.5952890380203
 21
6.146363293061263
 31
0.0
  0
LINE
  5
F5
330
F0
100
AcDbEntity
  8
치수문자_일반주서
 62
     0
370
    -2
100
AcDbLine
 10
90.5952890380203
 20
6.146363293061263
 30
0.0
 11
90.59528903802016
 21
45.12536329306126
 31
0.0
  0
LINE
  5
F6
330
F0
100
AcDbEntity
  8
치수문자_일반주서
 62
     0
370
    -2
100
AcDbLine
 10
90.59528903802034
 20
-6.146363293060947
 30
0.0
 11
90.5952890380203
 21
6.146363293061263
 31
0.0
  0
LINE
  5
F7
330
F0
100
AcDbEntity
  8
치수문자_일반주서
 62
     0
370
    -2
100
AcDbLine
 10
90.59528903802035
 20
-9.448363293060947
 30
0.0
 11
90.59528903802037
 21
-12.75036329306095
 31
0.0
  0
LINE
  5
F8
330
F0
100
AcDbEntity
  8
치수문자_일반주서
 62
     0
370
    -2
100
AcDbLine
 10
90.59528903802028
 20
9.448363293061263
 30
0.0
 11
90.59528903802027
 21
12.75036329306126
 31
0.0
  0
SOLID
  5
F9
330
F0
100
AcDbEntity
  8
치수문자_일반주서
 62
     0
100
AcDbTrace
 10
91.14562237135368
 20
-9.448363293060945
 30
0.0
 11
90.04495570468703
 21
-9.448363293060948
 31
0.0
 12
90.59528903802034
 22
-6.146363293060947
 32
0.0
 13
90.59528903802034
 23
-6.146363293060947
 33
0.0
  0
SOLID
  5
FA
330
F0
100
AcDbEntity
  8
치수문자_일반주서
 62
     0
100
AcDbTrace
 10
90.04495570468696
 20
9.448363293061261
 30
0.0
 11
91.14562237135361
 21
9.448363293061265
 31
0.0
 12
90.5952890380203
 22
6.146363293061263
 32
0.0
 13
90.5952890380203
 23
6.146363293061263
 33
0.0
  0
MTEXT
  5
FB
330
F0
100
AcDbEntity
  8
치수문자_일반주서
 62
     0
100
AcDbMText
 10
86.22028903802021
 20
28.93786329306124
 30
0.0
 40
3.5
 41
0.0
 71
     2
 72
     1
  1
\A1;%%c12.29 [31/64]
  7
SLDTEXTSTYLE0
 11
-3.468112940357411E-15
 21
1.0
 31
0.0
 73
     1
 44
1.0
  0
POINT
  5
FC
330
F0
100
AcDbEntity
  8
Defpoints
 62
     0
100
AcDbPoint
 10
47.62500000000001
 20
-6.146363293061103
 30
0.0
  0
POINT
  5
FD
330
F0
100
AcDbEntity
  8
Defpoints
 62
     0
100
AcDbPoint
 10
47.62500000000001
 20
6.146363293061102
 30
0.0
  0
POINT
  5
FE
330
F0
100
AcDbEntity
  8
Defpoints
 62
     0
100
AcDbPoint
 10
90.5952890380203
 20
6.146363293061262
 30
0.0
  0
ENDBLK
  5
F2
330
F0
100
AcDbEntity
  8
0
100
AcDbBlockEnd
  0
BLOCK
  5
104
330
103
100
AcDbEntity
  8
0
100
AcDbBlockBegin
  2
_D_2
 70
     0
 10
0.0
 20
0.0
 30
0.0
  3
_D_2
  1

  0
LINE
  5
106
330
103
100
AcDbEntity
  8
치수문자_일반주서
 62
     0
370
    -2
100
AcDbLine
 10
47.62500000000001
 20
6.208863293061102
 30
0.0
 11
47.62500000000001
 21
16.34999999999999
 31
0.0
  0
LINE
  5
107
330
103
100
AcDbEntity
  8
치수문자_일반주서
 62
     0
370
    -2
100
AcDbLine
 10
26.98750000000001
 20
4.868418289903689
 30
0.0
 11
26.98750000000001
 21
16.34999999999999
 31
0.0
  0
LINE
  5
108
330
103
100
AcDbEntity
  8
치수문자_일반주서
 62
     0
370
    -2
100
AcDbLine
 10
47.62500000000001
 20
16.34999999999999
 30
0.0
 11
83.54150000000001
 21
16.34999999999999
 31
0.0
  0
LINE
  5
109
330
103
100
AcDbEntity
  8
치수문자_일반주서
 62
     0
370
    -2
100
AcDbLine
 10
47.62500000000001
 20
16.34999999999999
 30
0.0
 11
26.98750000000001
 21
16.34999999999999
 31
0.0
  0
LINE
  5
10A
330
103
100
AcDbEntity
  8
치수문자_일반주서
 62
     0
370
    -2
100
AcDbLine
 10
50.92700000000001
 20
16.34999999999999
 30
0.0
 11
54.22900000000001
 21
16.34999999999999
 31
0.0
  0
LINE
  5
10B
330
103
100
AcDbEntity
  8
치수문자_일반주서
 62
     0
370
    -2
100
AcDbLine
 10
23.68550000000001
 20
16.34999999999999
 30
0.0
 11
20.38350000000001
 21
16.34999999999999
 31
0.0
  0
SOLID
  5
10C
330
103
100
AcDbEntity
  8
치수문자_일반주서
 62
     0
100
AcDbTrace
 10
50.92700000000001
 20
16.90033333333332
 30
0.0
 11
50.92700000000001
 21
15.79966666666665
 31
0.0
 12
47.62500000000001
 22
16.34999999999999
 32
0.0
 13
47.62500000000001
 23
16.34999999999999
 33
0.0
  0
SOLID
  5
10D
330
103
100
AcDbEntity
  8
치수문자_일반주서
 62
     0
100
AcDbTrace
 10
23.68550000000001
 20
15.79966666666665
 30
0.0
 11
23.68550000000001
 21
16.90033333333332
 31
0.0
 12
26.98750000000001
 22
16.34999999999999
 32
0.0
 13
26.98750000000001
 23
16.34999999999999
 33
0.0
  0
MTEXT
  5
10E
330
103
100
AcDbEntity
  8
치수문자_일반주서
 62
     0
100
AcDbMText
 10
68.88525000000001
 20
20.72499999999999
 30
0.0
 40
3.5
 41
0.0
 71
     2
 72
     1
  1
\A1;20.64 [13/16]
  7
SLDTEXTSTYLE0
 73
     1
 44
1.0
  0
POINT
  5
10F
330
103
100
AcDbEntity
  8
Defpoints
 62
     0
100
AcDbPoint
 10
47.62500000000001
 20
6.146363293061102
 30
0.0
  0
POINT
  5
110
330
103
100
AcDbEntity
  8
Defpoints
 62
     0
100
AcDbPoint
 10
26.98750000000001
 20
4.805918289903689
 30
0.0
  0
POINT
  5
111
330
103
100
AcDbEntity
  8
Defpoints
 62
     0
100
AcDbPoint
 10
26.98750000000001
 20
16.34999999999999
 30
0.0
  0
ENDBLK
  5
105
330
103
100
AcDbEntity
  8
0
100
AcDbBlockEnd
  0
BLOCK
  5
118
330
117
100
AcDbEntity
  8
0
100
AcDbBlockBegin
  2
_D_3
 70
     0
 10
0.0
 20
0.0
 30
0.0
  3
_D_3
  1

  0
LINE
  5
11A
330
117
100
AcDbEntity
  8
치수문자_일반주서
 62
     0
370
    -2
100
AcDbLine
 10
-47.62500000000003
 20
6.208863293061119
 30
0.0
 11
-47.62500000000003
 21
26.34999999999999
 31
0.0
  0
LINE
  5
11B
330
117
100
AcDbEntity
  8
치수문자_일반주서
 62
     0
370
    -2
100
AcDbLine
 10
47.62500000000001
 20
6.208863293061102
 30
0.0
 11
47.62500000000001
 21
26.34999999999999
 31
0.0
  0
LINE
  5
11C
330
117
100
AcDbEntity
  8
치수문자_일반주서
 62
     0
370
    -2
100
AcDbLine
 10
-44.32300000000003
 20
26.34999999999999
 30
0.0
 11
44.32300000000001
 21
26.34999999999999
 31
0.0
  0
SOLID
  5
11D
330
117
100
AcDbEntity
  8
치수문자_일반주서
 62
     0
100
AcDbTrace
 10
-44.32300000000003
 20
26.90033333333332
 30
0.0
 11
-44.32300000000003
 21
25.79966666666665
 31
0.0
 12
-47.62500000000003
 22
26.34999999999999
 32
0.0
 13
-47.62500000000003
 23
26.34999999999999
 33
0.0
  0
SOLID
  5
11E
330
117
100
AcDbEntity
  8
치수문자_일반주서
 62
     0
100
AcDbTrace
 10
44.32300000000001
 20
25.79966666666665
 30
0.0
 11
44.32300000000001
 21
26.90033333333332
 31
0.0
 12
47.62500000000001
 22
26.34999999999999
 32
0.0
 13
47.62500000000001
 23
26.34999999999999
 33
0.0
  0
MTEXT
  5
11F
330
117
100
AcDbEntity
  8
치수문자_일반주서
 62
     0
100
AcDbMText
 10
0.0000000000000213
 20
30.72499999999999
 30
0.0
 40
3.5
 41
0.0
 71
     2
 72
     1
  1
\A1;95.25 [3 3/4]
  7
SLDTEXTSTYLE0
 73
     1
 44
1.0
  0
POINT
  5
120
330
117
100
AcDbEntity
  8
Defpoints
 62
     0
100
AcDbPoint
 10
-47.62500000000003
 20
6.146363293061119
 30
0.0
  0
POINT
  5
121
330
117
100
AcDbEntity
  8
Defpoints
 62
     0
100
AcDbPoint
 10
47.62500000000001
 20
6.146363293061102
 30
0.0
  0
POINT
  5
122
330
117
100
AcDbEntity
  8
Defpoints
 62
     0
100
AcDbPoint
 10
47.62500000000001
 20
26.34999999999999
 30
0.0
  0
ENDBLK
  5
119
330
117
100
AcDbEntity
  8
0
100
AcDbBlockEnd
  0
BLOCK
  5
131
330
130
100
AcDbEntity
  8
0
100
AcDbBlockBegin
  2
SW_DOWELSYMBOL_0
 70
     0
 10
0.0
 20
0.0
 30
0.0
  3
SW_DOWELSYMBOL_0
  1

  0
CIRCLE
  5
133
330
130
100
AcDbEntity
  8
해칭선
 62
     0
100
AcDbCircle
 10
0.0
 20
0.0
 30
0.0
 40
3.000000000000001
  0
HATCH
  5
134
330
130
100
AcDbEntity
  8
0
  6
Continuous
 62
     0
370
     0
100
AcDbHatch
 10
0.0
 20
0.0
 30
0.0
210
0.0
220
0.0
230
1.0
  2
SOLID
 70
     1
 71
     0
 91
        1
 92
        0
 93
        3
 72
     2
 10
0.0
 20
0.0
 40
3.000000000000001
 50
0.0
 51
90.0
 73
     1
 72
     1
 10
0.0
 20
3.000000000000001
 11
0.0
 21
0.0
 72
     1
 10
0.0
 20
0.0
 11
3.000000000000001
 21
0.0
 97
        0
 75
     0
 76
     1
 98
        1
 10
0.0
 20
0.0
  0
HATCH
  5
135
330
130
100
AcDbEntity
  8
0
  6
Continuous
 62
     0
370
     0
100
AcDbHatch
 10
0.0
 20
0.0
 30
0.0
210
0.0
220
0.0
230
1.0
  2
SOLID
 70
     1
 71
     0
 91
        1
 92
        0
 93
        3
 72
     2
 10
0.0
 20
0.0
 40
3.000000000000001
 50
180.0
 51
270.0000000000008
 73
     1
 72
     1
 10
0.0
 20
-3.000000000000001
 11
0.0
 21
0.0
 72
     1
 10
0.0
 20
0.0
 11
-3.000000000000001
 21
0.0
 97
        0
 75
     0
 76
     1
 98
        1
 10
0.0
 20
0.0
  0
ENDBLK
  5
132
330
130
100
AcDbEntity
  8
0
100
AcDbBlockEnd
  0
BLOCK
  5
19A
330
199
100
AcDbEntity
  8
0
100
AcDbBlockBegin
  2
*D8
 70
     1
 10
0.0
 20
0.0
 30
0.0
  3
*D8
  1

  0
LINE
  5
19C
330
199
100
AcDbEntity
  8
치수문자_일반주서
 62
     0
370
    -2
100
AcDbLine
 10
54.73699999999996
 20
3.631580296889929
 30
0.0
 11
54.73699999999996
 21
14.96233570571162
 31
0.0
  0
LINE
  5
19D
330
199
100
AcDbEntity
  8
치수문자_일반주서
 62
     0
370
    -2
100
AcDbLine
 10
34.09949999999996
 20
3.20671347064068
 30
0.0
 11
34.09949999999996
 21
14.96233570571162
 31
0.0
  0
LINE
  5
19E
330
199
100
AcDbEntity
  8
치수문자_일반주서
 62
     0
370
    -2
100
AcDbLine
 10
54.73699999999996
 20
14.96233570571162
 30
0.0
 11
90.65349999999997
 21
14.96233570571162
 31
0.0
  0
LINE
  5
19F
330
199
100
AcDbEntity
  8
치수문자_일반주서
 62
     0
370
    -2
100
AcDbLine
 10
54.73699999999996
 20
14.96233570571162
 30
0.0
 11
34.09949999999996
 21
14.96233570571162
 31
0.0
  0
LINE
  5
1A0
330
199
100
AcDbEntity
  8
치수문자_일반주서
 62
     0
370
    -2
100
AcDbLine
 10
58.03899999999996
 20
14.96233570571162
 30
0.0
 11
61.34099999999996
 21
14.96233570571162
 31
0.0
  0
LINE
  5
1A1
330
199
100
AcDbEntity
  8
치수문자_일반주서
 62
     0
370
    -2
100
AcDbLine
 10
30.79749999999996
 20
14.96233570571162
 30
0.0
 11
27.49549999999996
 21
14.96233570571162
 31
0.0
  0
SOLID
  5
1A2
330
199
100
AcDbEntity
  8
치수문자_일반주서
 62
     0
100
AcDbTrace
 10
58.03899999999996
 20
15.51266903904495
 30
0.0
 11
58.03899999999996
 21
14.41200237237829
 31
0.0
 12
54.73699999999996
 22
14.96233570571162
 32
0.0
 13
54.73699999999996
 23
14.96233570571162
 33
0.0
  0
SOLID
  5
1A3
330
199
100
AcDbEntity
  8
치수문자_일반주서
 62
     0
100
AcDbTrace
 10
30.79749999999996
 20
14.41200237237829
 30
0.0
 11
30.79749999999996
 21
15.51266903904495
 31
0.0
 12
34.09949999999996
 22
14.96233570571162
 32
0.0
 13
34.09949999999996
 23
14.96233570571162
 33
0.0
  0
MTEXT
  5
1A4
330
199
100
AcDbEntity
  8
치수문자_일반주서
 62
     0
100
AcDbMText
 10
75.99724999999997
 20
19.33733570571162
 30
0.0
 40
3.5
 41
0.0
 71
     2
 72
     1
  1
\A1;20.64 [13/16]
  7
SLDTEXTSTYLE0
 73
     1
 44
1.0
  0
POINT
  5
1A5
330
199
100
AcDbEntity
  8
Defpoints
 62
     0
100
AcDbPoint
 10
54.73699999999996
 20
3.569080296889929
 30
0.0
  0
POINT
  5
1A6
330
199
100
AcDbEntity
  8
Defpoints
 62
     0
100
AcDbPoint
 10
34.09949999999996
 20
3.14421347064068
 30
0.0
  0
POINT
  5
1A7
330
199
100
AcDbEntity
  8
Defpoints
 62
     0
100
AcDbPoint
 10
34.09949999999996
 20
14.96233570571162
 30
0.0
  0
ENDBLK
  5
19B
330
199
100
AcDbEntity
  8
0
100
AcDbBlockEnd
  0
BLOCK
  5
1AF
330
1AE
100
AcDbEntity
  8
0
100
AcDbBlockBegin
  2
*D9
 70
     1
 10
0.0
 20
0.0
 30
0.0
  3
*D9
  1

  0
LINE
  5
1B1
330
1AE
100
AcDbEntity
  8
치수문자_일반주서
 62
     0
370
    -2
100
AcDbLine
 10
87.84834383644403
 20
-23.70928094650457
 30
0.0
 11
87.84834383644403
 21
-12.37852553768288
 31
0.0
  0
LINE
  5
1B2
330
1AE
100
AcDbEntity
  8
치수문자_일반주서
 62
     0
370
    -2
100
AcDbLine
 10
67.21084383644403
 20
-24.13414777275382
 30
0.0
 11
67.21084383644403
 21
-12.37852553768288
 31
0.0
  0
LINE
  5
1B3
330
1AE
100
AcDbEntity
  8
치수문자_일반주서
 62
     0
370
    -2
100
AcDbLine
 10
87.84834383644403
 20
-12.37852553768288
 30
0.0
 11
123.764843836444
 21
-12.37852553768288
 31
0.0
  0
LINE
  5
1B4
330
1AE
100
AcDbEntity
  8
치수문자_일반주서
 62
     0
370
    -2
100
AcDbLine
 10
87.84834383644403
 20
-12.37852553768288
 30
0.0
 11
67.21084383644403
 21
-12.37852553768288
 31
0.0
  0
LINE
  5
1B5
330
1AE
100
AcDbEntity
  8
치수문자_일반주서
 62
     0
370
    -2
100
AcDbLine
 10
91.15034383644402
 20
-12.37852553768288
 30
0.0
 11
94.45234383644402
 21
-12.37852553768288
 31
0.0
  0
LINE
  5
1B6
330
1AE
100
AcDbEntity
  8
치수문자_일반주서
 62
     0
370
    -2
100
AcDbLine
 10
63.90884383644403
 20
-12.37852553768288
 30
0.0
 11
60.60684383644403
 21
-12.37852553768288
 31
0.0
  0
SOLID
  5
1B7
330
1AE
100
AcDbEntity
  8
치수문자_일반주서
 62
     0
100
AcDbTrace
 10
91.15034383644402
 20
-11.82819220434954
 30
0.0
 11
91.15034383644402
 21
-12.92885887101621
 31
0.0
 12
87.84834383644403
 22
-12.37852553768288
 32
0.0
 13
87.84834383644403
 23
-12.37852553768288
 33
0.0
  0
SOLID
  5
1B8
330
1AE
100
AcDbEntity
  8
치수문자_일반주서
 62
     0
100
AcDbTrace
 10
63.90884383644403
 20
-12.92885887101621
 30
0.0
 11
63.90884383644403
 21
-11.82819220434954
 31
0.0
 12
67.21084383644403
 22
-12.37852553768288
 32
0.0
 13
67.21084383644403
 23
-12.37852553768288
 33
0.0
  0
MTEXT
  5
1B9
330
1AE
100
AcDbEntity
  8
치수문자_일반주서
 62
     0
100
AcDbMText
 10
109.108593836444
 20
-8.003525537682878
 30
0.0
 40
3.5
 41
0.0
 71
     2
 72
     1
  1
\A1;20.64 [13/16]
  7
SLDTEXTSTYLE0
 73
     1
 44
1.0
  0
POINT
  5
1BA
330
1AE
100
AcDbEntity
  8
Defpoints
 62
     0
100
AcDbPoint
 10
87.84834383644403
 20
-23.77178094650457
 30
0.0
  0
POINT
  5
1BB
330
1AE
100
AcDbEntity
  8
Defpoints
 62
     0
100
AcDbPoint
 10
67.21084383644403
 20
-24.19664777275382
 30
0.0
  0
POINT
  5
1BC
330
1AE
100
AcDbEntity
  8
Defpoints
 62
     0
100
AcDbPoint
 10
67.21084383644403
 20
-12.37852553768288
 30
0.0
  0
ENDBLK
  5
1B0
330
1AE
100
AcDbEntity
  8
0
100
AcDbBlockEnd
  0
ENDSEC
  0
SECTION
  2
ENTITIES
  0
LINE
  5
96
330
1F
100
AcDbEntity
  8
외형선
  6
Continuous
370
    15
100
AcDbLine
 10
24.95760440548094
 20
6.349999999999994
 30
0.0
 11
7.112000000000052
 21
6.349999999999993
 31
0.0
  0
LINE
  5
97
330
1F
100
AcDbEntity
  8
외형선
  6
Continuous
370
    15
100
AcDbLine
 10
-24.95760440548096
 20
-6.350000000000001
 30
0.0
 11
24.95760440548095
 21
-6.349999999999998
 31
0.0
  0
SPLINE
  5
9A
330
1F
100
AcDbEntity
  8
외형선
  6
Continuous
370
    15
100
AcDbSpline
210
0.0
220
0.0
230
1.0
 70
     8
 71
     3
 72
     9
 73
     5
 74
     0
 42
0.000000001
 43
0.00000001
 40
0.0
 40
0.0
 40
0.0
 40
0.0
 40
0.5169723650764794
 40
1.0
 40
1.0
 40
1.0
 40
1.0
 10
26.98750000000001
 20
4.805613381954774
 30
0.0
 10
26.72382665393667
 20
4.804468353115702
 30
0.0
 10
26.2137929193011
 20
4.802253478750219
 30
0.0
 10
25.69773456924958
 20
4.810386142206819
 30
0.0
 10
25.44846412494167
 20
4.814314443401888
 30
0.0
  0
SPLINE
  5
9B
330
1F
100
AcDbEntity
  8
외형선
  6
Continuous
370
    15
100
AcDbSpline
210
0.0
220
0.0
230
1.0
 70
     8
 71
     3
 72
    15
 73
    11
 74
     0
 42
0.000000001
 43
0.00000001
 40
0.0
 40
0.0
 40
0.0
 40
0.0
 40
0.0248565381155928
 40
0.0548473014113857
 40
0.1463254983920467
 40
0.4983829356625471
 40
0.8504389849885166
 40
0.9428064203061842
 40
0.9737956370256529
 40
1.0
 40
1.0
 40
1.0
 40
1.0
 10
25.44832423669602
 20
4.813984295608033
 30
0.0
 10
25.44603241892108
 20
4.814460285079264
 30
0.0
 10
25.44097539852275
 20
4.81551058170045
 30
0.0
 10
25.41788960392354
 20
4.829242620331634
 30
0.0
 10
25.32885529409977
 20
4.900316981547407
 30
0.0
 10
25.18243244144129
 20
5.043185932430248
 30
0.0
 10
25.04140054482411
 20
5.19206803940774
 30
0.0
 10
24.97205590756865
 20
5.279873182307189
 30
0.0
 10
24.95895759235994
 20
5.301340934617389
 30
0.0
 10
24.95802958863312
 20
5.305520905221832
 30
0.0
 10
24.95760440548094
 20
5.307436040933347
 30
0.0
  0
SPLINE
  5
9C
330
1F
100
AcDbEntity
  8
외형선
  6
Continuous
370
    15
100
AcDbSpline
210
0.0
220
0.0
230
1.0
 70
     8
 71
     3
 72
     9
 73
     5
 74
     0
 42
0.000000001
 43
0.00000001
 40
0.0
 40
0.0
 40
0.0
 40
0.0
 40
0.5532638305132372
 40
1.0
 40
1.0
 40
1.0
 40
1.0
 10
24.95764431839689
 20
-4.825172411883614
 30
0.0
 10
25.33392483800613
 20
-4.816880991310168
 30
0.0
 10
26.01403530042364
 20
-4.801894613896422
 30
0.0
 10
26.68690483953367
 20
-4.804465067401898
 30
0.0
 10
26.98750000000001
 20
-4.805613381954777
 30
0.0
  0
LINE
  5
9D
330
1F
100
AcDbEntity
  8
0
  6
Continuous
 62
     1
370
    15
100
AcDbLine
 10
28.30759234301043
 20
1.719765895438979
 30
0.0
 11
28.2186478439837
 21
1.768633417119797
 31
0.0
1001
PE_URL
1000

  0
SPLINE
  5
9E
330
1F
100
AcDbEntity
  8
0
  6
Continuous
 62
     1
370
    15
100
AcDbSpline
210
0.0
220
0.0
230
1.0
 70
     8
 71
     3
 72
     9
 73
     5
 74
     0
 42
0.000000001
 43
0.00000001
 40
0.0
 40
0.0
 40
0.0
 40
0.0
 40
0.4370456343858376
 40
1.0
 40
1.0
 40
1.0
 40
1.0
 10
31.6885060934917
 20
1.576273281056071
 30
0.0
 10
31.4396927074497
 20
1.694530247383033
 30
0.0
 10
30.87038514213872
 20
1.965112898307219
 30
0.0
 10
30.30114121328096
 20
2.262513233171099
 30
0.0
 10
29.98068285843113
 20
2.429936050017835
 30
0.0
1001
PE_URL
1000

  0
SPLINE
  5
9F
330
1F
100
AcDbEntity
  8
0
  6
Continuous
 62
     1
370
    15
100
AcDbSpline
210
0.0
220
0.0
230
1.0
 70
     8
 71
     3
 72
     9
 73
     5
 74
     0
 42
0.000000001
 43
0.00000001
 40
0.0
 40
0.0
 40
0.0
 40
0.0
 40
0.5001798081700849
 40
1.0
 40
1.0
 40
1.0
 40
1.0
 10
29.65460125748485
 20
4.888270089855521
 30
0.0
 10
29.20931880603158
 20
4.866932919833981
 30
0.0
 10
28.31907404968618
 20
4.824273920664059
 30
0.0
 10
27.43125159140767
 20
4.811832070093612
 30
0.0
 10
26.9875
 20
4.805613381954772
 30
0.0
1001
PE_URL
1000

  0
SPLINE
  5
A0
330
1F
100
AcDbEntity
  8
0
  6
Continuous
 62
     1
370
    15
100
AcDbSpline
210
0.0
220
0.0
230
1.0
 70
     8
 71
     3
 72
    21
 73
    17
 74
     0
 42
0.000000001
 43
0.00000001
 40
0.0
 40
0.0
 40
0.0
 40
0.0
 40
0.0968209657073288
 40
0.1755215199826845
 40
0.2356982779262603
 40
0.2807121349562028
 40
0.3206707254781907
 40
0.3673552301976363
 40
0.4161614258236883
 40
0.4838458068838847
 40
0.5701421455666115
 40
0.6424415187397658
 40
0.7032718034293911
 40
0.7792631950265948
 40
0.8780030313154027
 40
1.0
 40
1.0
 40
1.0
 40
1.0
 10
45.33937574769686
 20
4.207380663342747
 30
0.0
 10
44.99782113504975
 20
4.180143506456693
 30
0.0
 10
44.3786351526445
 20
4.130766730035165
 30
0.0
 10
43.53796450210375
 20
4.087006928674917
 30
0.0
 10
42.87119679829789
 20
4.063763954442715
 30
0.0
 10
42.3336535128584
 20
4.052496235407791
 30
0.0
 10
41.85078119805023
 20
4.046952953393318
 30
0.0
 10
41.36529367473826
 20
4.047818638424889
 30
0.0
 10
40.80489081848889
 20
4.055885469448373
 30
0.0
 10
40.08928628070834
 20
4.075429569620871
 30
0.0
 10
39.28872314938955
 20
4.112511633798086
 30
0.0
 10
38.50196617596769
 20
4.165176058792463
 30
0.0
 10
37.73772421767515
 20
4.229565024763286
 30
0.0
 10
36.88625717476391
 20
4.314823765008382
 30
0.0
 10
35.82117961986393
 20
4.442382608791071
 30
0.0
 10
35.02952848603763
 20
4.561167536183023
 30
0.0
 10
34.59199819472909
 20
4.626817671279362
 30
0.0
1001
PE_URL
1000

  0
SPLINE
  5
A1
330
1F
100
AcDbEntity
  8
0
  6
Continuous
 62
     1
370
    15
100
AcDbSpline
210
0.0
220
0.0
230
1.0
 70
     8
 71
     3
 72
    13
 73
     9
 74
     0
 42
0.000000001
 43
0.00000001
 40
0.0
 40
0.0
 40
0.0
 40
0.0
 40
0.2583384466813906
 40
0.4770979472706652
 40
0.6590993261909637
 40
0.8235227007021235
 40
0.9803037099139957
 40
1.0
 40
1.0
 40
1.0
 40
1.0
 10
34.59199819472909
 20
-4.626817671279364
 30
0.0
 10
34.97813020264292
 20
-4.568321388277043
 30
0.0
 10
35.69123655873396
 20
-4.460290791585444
 30
0.0
 10
36.69542186567853
 20
-4.335671517043171
 30
0.0
 10
37.57980556935388
 20
-4.244128649922472
 30
0.0
 10
38.36406932173688
 20
-4.176136928877767
 30
0.0
 10
38.89107744315729
 20
-4.136849491874539
 30
0.0
 10
39.15397085339533
 20
-4.123378724146034
 30
0.0
 10
39.18331187850364
 20
-4.12187527781091
 30
0.0
1001
PE_URL
1000

  0
SPLINE
  5
A2
330
1F
100
AcDbEntity
  8
0
  6
Continuous
 62
     1
370
    15
100
AcDbSpline
210
0.0
220
0.0
230
1.0
 70
     8
 71
     3
 72
     9
 73
     5
 74
     0
 42
0.000000001
 43
0.00000001
 40
0.0
 40
0.0
 40
0.0
 40
0.0
 40
0.4998201918299149
 40
1.0
 40
1.0
 40
1.0
 40
1.0
 10
26.9875
 20
-4.805613381954775
 30
0.0
 10
27.43125159140767
 20
-4.811832070093615
 30
0.0
 10
28.31907404968618
 20
-4.824273920664061
 30
0.0
 10
29.20931880603158
 20
-4.866932919833984
 30
0.0
 10
29.65460125748485
 20
-4.888270089855524
 30
0.0
1001
PE_URL
1000

  0
SPLINE
  5
A3
330
1F
100
AcDbEntity
  8
외형선
  6
Continuous
370
    15
100
AcDbSpline
210
0.0
220
0.0
230
1.0
 70
     8
 71
     3
 72
     8
 73
     4
 74
     0
 42
0.000000001
 43
0.00000001
 40
0.0
 40
0.0
 40
0.0
 40
0.0
 40
1.0
 40
1.0
 40
1.0
 40
1.0
 10
25.24692116787307
 20
4.713134464721809
 30
0.0
 10
25.15069535311956
 20
4.751684159751823
 30
0.0
 10
25.05427519755036
 20
4.789679496961265
 30
0.0
 10
24.95771367911584
 20
4.827097401837203
 30
0.0
  0
LINE
  5
A4
330
1F
100
AcDbEntity
  8
외형선
  6
Continuous
370
    15
100
AcDbLine
 10
25.24692116787307
 20
4.713134464721779
 30
0.0
 11
25.24692116787307
 21
3.371883437800799
 31
0.0
  0
SPLINE
  5
A5
330
1F
100
AcDbEntity
  8
외형선
  6
Continuous
370
    15
100
AcDbSpline
210
0.0
220
0.0
230
1.0
 70
     8
 71
     3
 72
     8
 73
     4
 74
     0
 42
0.000000001
 43
0.00000001
 40
0.0
 40
0.0
 40
0.0
 40
0.0
 40
1.0
 40
1.0
 40
1.0
 40
1.0
 10
25.24692116787307
 20
3.371883437800798
 30
0.0
 10
25.15065905522741
 20
3.420645851139777
 30
0.0
 10
25.05420245508385
 20
3.469025603339875
 30
0.0
 10
24.95760440548094
 20
3.516994418655634
 30
0.0
  0
LINE
  5
A6
330
1F
100
AcDbEntity
  8
외형선
  6
Continuous
370
    15
100
AcDbLine
 10
24.95760440548094
 20
-6.349999999999998
 30
0.0
 11
24.95760440548094
 21
3.517059159993483
 31
0.0
  0
LINE
  5
A7
330
1F
100
AcDbEntity
  8
외형선
  6
Continuous
370
    15
100
AcDbLine
 10
24.96287668039342
 20
-4.82508184796434
 30
0.0
 11
24.95771367911584
 21
-4.827097401837207
 31
0.0
  0
LINE
  5
A8
330
1F
100
AcDbEntity
  8
외형선
  6
Continuous
370
    15
100
AcDbLine
 10
24.95760440548094
 20
4.827216494198717
 30
0.0
 11
24.95760440548094
 21
6.349999999999994
 31
0.0
  0
SPLINE
  5
AB
330
1F
100
AcDbEntity
  8
외형선
  6
Continuous
370
    15
100
AcDbSpline
210
0.0
220
0.0
230
1.0
 70
    24
 71
     3
 72
    10
 73
     6
 74
     0
 42
0.000000001
 43
0.00000001
 40
0.0
 40
0.0
 40
0.0
 40
0.0
 40
0.5
 40
0.5
 40
1.0
 40
1.0
 40
1.0
 40
1.0
 10
26.98750000000001
 20
2.436883447322876
 30
0.0
 10
26.98750000000001
 20
2.400174285211512
 30
0.0
 10
26.98750000000001
 20
2.29895781317414
 30
0.0
 10
26.98750000000001
 20
1.986259292268299
 30
0.0
 10
26.98750000000001
 20
1.776027618344921
 30
0.0
 10
26.98750000000001
 20
1.541853607859419
 30
0.0
  0
SPLINE
  5
AC
330
1F
100
AcDbEntity
  8
외형선
  6
Continuous
370
    15
100
AcDbSpline
210
0.0
220
0.0
230
1.0
 70
     8
 71
     3
 72
    10
 73
     6
 74
     0
 42
0.000000001
 43
0.00000001
 40
0.0
 40
0.0
 40
0.0
 40
0.0
 40
0.5
 40
0.5
 40
1.0
 40
1.0
 40
1.0
 40
1.0
 10
26.98749999999907
 20
1.541853607859772
 30
0.0
 10
26.64897101955355
 20
1.669541110061025
 30
0.0
 10
26.30916533294739
 20
1.795050699951122
 30
0.0
 10
25.63162045986233
 20
2.040003857678535
 30
0.0
 10
25.29556222899358
 20
2.159257229376897
 30
0.0
 10
24.95763074012481
 20
2.27529396695333
 30
0.0
  0
SPLINE
  5
AD
330
1F
100
AcDbEntity
  8
외형선
  6
Continuous
370
    15
100
AcDbSpline
210
0.0
220
0.0
230
1.0
 70
     8
 71
     3
 72
     8
 73
     4
 74
     0
 42
0.000000001
 43
0.00000001
 40
0.0
 40
0.0
 40
0.0
 40
0.0
 40
1.0
 40
1.0
 40
1.0
 40
1.0
 10
25.24692116787307
 20
3.371883437800799
 30
0.0
 10
25.49387077248594
 20
3.233143564824627
 30
0.0
 10
25.74066544797318
 20
3.093992584893592
 30
0.0
 10
25.98750000000013
 20
2.954766404515705
 30
0.0
  0
SPLINE
  5
AE
330
1F
100
AcDbEntity
  8
외형선
  6
Continuous
370
    15
100
AcDbSpline
210
0.0
220
0.0
230
1.0
 70
     8
 71
     3
 72
     8
 73
     4
 74
     0
 42
0.000000001
 43
0.00000001
 40
0.0
 40
0.0
 40
0.0
 40
0.0
 40
1.0
 40
1.0
 40
1.0
 40
1.0
 10
26.98750000000001
 20
2.436883447322876
 30
0.0
 10
26.65466900072045
 20
2.613245293674224
 30
0.0
 10
26.32060389965412
 20
2.786253007108563
 30
0.0
 10
25.98750000000001
 20
2.954766404515961
 30
0.0
  0
LINE
  5
AF
330
1F
100
AcDbEntity
  8
외형선
  6
Continuous
370
    15
100
AcDbLine
 10
25.98750000000001
 20
4.329967432191139
 30
0.0
 11
25.98750000000001
 21
2.954766404515963
 31
0.0
  0
SPLINE
  5
B0
330
1F
100
AcDbEntity
  8
외형선
  6
Continuous
370
    15
100
AcDbSpline
210
0.0
220
0.0
230
1.0
 70
     8
 71
     3
 72
     8
 73
     4
 74
     0
 42
0.000000001
 43
0.00000001
 40
0.0
 40
0.0
 40
0.0
 40
0.0
 40
1.0
 40
1.0
 40
1.0
 40
1.0
 10
26.98749999999966
 20
3.902055128664074
 30
0.0
 10
26.65466900072021
 20
4.05054320712867
 30
0.0
 10
26.320603899654
 20
4.193495430787236
 30
0.0
 10
25.98750000000001
 20
4.329967432191141
 30
0.0
  0
LINE
  5
B1
330
1F
100
AcDbEntity
  8
외형선
  6
Continuous
370
    15
100
AcDbLine
 10
26.98750000000001
 20
3.902055128663917
 30
0.0
 11
26.9875
 21
2.436883447322877
 31
0.0
  0
SPLINE
  5
B2
330
1F
100
AcDbEntity
  8
외형선
  6
Continuous
370
    15
100
AcDbSpline
210
0.0
220
0.0
230
1.0
 70
     8
 71
     3
 72
     8
 73
     4
 74
     0
 42
0.000000001
 43
0.00000001
 40
0.0
 40
0.0
 40
0.0
 40
0.0
 40
1.0
 40
1.0
 40
1.0
 40
1.0
 10
25.98750000000001
 20
4.329967432191139
 30
0.0
 10
25.73997239929809
 20
4.457807419720035
 30
0.0
 10
25.4931744120726
 20
4.585641712004747
 30
0.0
 10
25.24692116787308
 20
4.713134464721803
 30
0.0
  0
SPLINE
  5
B3
330
1F
100
AcDbEntity
  8
외형선
  6
Continuous
370
    15
100
AcDbSpline
210
0.0
220
0.0
230
1.0
 70
     8
 71
     3
 72
    10
 73
     6
 74
     0
 42
0.000000001
 43
0.00000001
 40
0.0
 40
0.0
 40
0.0
 40
0.0
 40
0.5
 40
0.5
 40
1.0
 40
1.0
 40
1.0
 40
1.0
 10
26.98749999999932
 20
-4.594958136395265
 30
0.0
 10
26.64897328660052
 20
-4.53899642860957
 30
0.0
 10
26.30916988413506
 20
-4.475997185941756
 30
0.0
 10
25.63162952073793
 20
-4.336770384812237
 30
0.0
 10
25.29557349786388
 20
-4.260688587226953
 30
0.0
 10
24.95764431839689
 20
-4.178155353463871
 30
0.0
  0
SPLINE
  5
B4
330
1F
100
AcDbEntity
  8
외형선
  6
Continuous
370
    15
100
AcDbSpline
210
0.0
220
0.0
230
1.0
 70
    24
 71
     3
 72
    14
 73
    10
 74
     0
 42
0.000000001
 43
0.00000001
 40
0.0
 40
0.0
 40
0.0
 40
0.0
 40
0.25
 40
0.25
 40
0.5
 40
0.5
 40
0.75
 40
0.75
 40
1.0
 40
1.0
 40
1.0
 40
1.0
 10
26.98750000000001
 20
1.541853607859418
 30
0.0
 10
26.98750000000001
 20
1.003174793484015
 30
0.0
 10
26.98750000000001
 20
0.4371068036677858
 30
0.0
 10
26.98750000000001
 20
-0.7008177488634519
 30
0.0
 10
26.98750000000001
 20
-1.272132378598367
 30
0.0
 10
26.98750000000001
 20
-2.36282075664742
 30
0.0
 10
26.98750000000001
 20
-2.881613340593991
 30
0.0
 10
26.98750000000001
 20
-3.819411928459253
 30
0.0
 10
26.98750000000001
 20
-4.238157087113519
 30
0.0
 10
26.98750000000001
 20
-4.59495813639538
 30
0.0
  0
SPLINE
  5
B5
330
1F
100
AcDbEntity
  8
외형선
  6
Continuous
370
    15
100
AcDbSpline
210
0.0
220
0.0
230
1.0
 70
    24
 71
     3
 72
    11
 73
     7
 74
     0
 42
0.000000001
 43
0.00000001
 40
0.0
 40
0.0
 40
0.0
 40
0.0
 40
0.2994138221920521
 40
0.6362130218132754
 40
0.9316362638781732
 40
1.0
 40
1.0
 40
1.0
 40
1.0
 10
26.98750000000001
 20
4.798374886379403
 30
0.0
 10
26.98750000000001
 20
4.789833976124913
 30
0.0
 10
26.98750000000001
 20
4.771685721370803
 30
0.0
 10
26.98750000000001
 20
4.505826461984585
 30
0.0
 10
26.98750000000001
 20
4.228615464946411
 30
0.0
 10
26.98750000000001
 20
4.009406613339502
 30
0.0
 10
26.98750000000001
 20
3.968212351352666
 30
0.0
  0
SPLINE
  5
B6
330
1F
100
AcDbEntity
  8
외형선
  6
Continuous
370
    15
100
AcDbSpline
210
0.0
220
0.0
230
1.0
 70
    24
 71
     3
 72
    10
 73
     6
 74
     0
 42
0.000000001
 43
0.00000001
 40
0.0
 40
0.0
 40
0.0
 40
0.0
 40
0.4705978314355236
 40
0.9411956628710473
 40
1.0
 40
1.0
 40
1.0
 40
1.0
 10
26.98750000000001
 20
-4.59495813639538
 30
0.0
 10
26.98750000000001
 20
-4.647803011917666
 30
0.0
 10
26.98750000000001
 20
-4.753492762962244
 30
0.0
 10
26.98750000000001
 20
-4.819860935331597
 30
0.0
 10
26.98750000000001
 20
-4.800506074872648
 30
0.0
 10
26.98750000000001
 20
-4.798356197507018
 30
0.0
  0
SPLINE
  5
B7
330
1F
100
AcDbEntity
  8
0
  6
Continuous
 62
     1
370
    15
100
AcDbSpline
210
0.0
220
0.0
230
1.0
 70
     8
 71
     3
 72
    38
 73
    34
 74
     0
 42
0.000000001
 43
0.00000001
 40
0.0
 40
0.0
 40
0.0
 40
0.0
 40
0.0625
 40
0.0625
 40
0.125
 40
0.125
 40
0.1875
 40
0.1875
 40
0.25
 40
0.25
 40
0.3125
 40
0.3125
 40
0.375
 40
0.375
 40
0.4375
 40
0.4375
 40
0.5
 40
0.5
 40
0.5625
 40
0.5625
 40
0.625
 40
0.625
 40
0.6875
 40
0.6875
 40
0.75
 40
0.75
 40
0.8125
 40
0.8125
 40
0.875
 40
0.875
 40
0.9375
 40
0.9375
 40
1.0
 40
1.0
 40
1.0
 40
1.0
 10
47.62500000000001
 20
-6.146363293061103
 30
0.0
 10
47.19738354564916
 20
-6.1361777444798
 30
0.0
 10
46.76568402712444
 20
-6.110945678214008
 30
0.0
 10
45.90355141800902
 20
-6.030701996894419
 30
0.0
 10
45.47575347508628
 20
-5.975847007598552
 30
0.0
 10
44.61680222398424
 20
-5.837161668167737
 30
0.0
 10
44.18450813422196
 20
-5.753197986816756
 30
0.0
 10
43.32375863185521
 20
-5.557810355662975
 30
0.0
 10
42.89697754600195
 20
-5.446600911070744
 30
0.0
 10
42.03567408941953
 20
-5.197476002306693
 30
0.0
 10
41.60348353016396
 20
-5.059704995456278
 30
0.0
 10
40.74549285418675
 20
-4.760861469610358
 30
0.0
 10
40.31683849022807
 20
-4.599504863676168
 30
0.0
 10
39.45456150471096
 20
-4.254463824468128
 30
0.0
 10
39.02431848218505
 20
-4.07121210015048
 30
0.0
 10
38.1678418546478
 20
-3.68637606394238
 30
0.0
 10
37.73589339584731
 20
-3.483919749070488
 30
0.0
 10
36.87402676008641
 20
-3.063256062005546
 30
0.0
 10
36.4468316263312
 20
-2.845541570742864
 30
0.0
 10
35.58703990447714
 20
-2.396398307246332
 30
0.0
 10
35.1547036586459
 20
-2.164978854084388
 30
0.0
 10
34.29462905771416
 20
-1.693514378744952
 30
0.0
 10
33.86759388357284
 20
-1.453627186705629
 30
0.0
 10
33.0058576800687
 20
-0.9665007288412167
 30
0.0
 10
32.57383197659446
 20
-0.719751893023517
 30
0.0
 10
31.71692153077333
 20
-0.2253119875612389
 30
0.0
 10
31.28715753490848
 20
0.0233130709981604
 30
0.0
 10
30.42485783783886
 20
0.5197705224033059
 30
0.0
 10
29.99581884367801
 20
0.7669268589445883
 30
0.0
 10
29.13821744533792
 20
1.256212444894398
 30
0.0
 10
28.70608125662772
 20
1.499011909564251
 30
0.0
 10
27.84460206613054
 20
1.975573187861567
 30
0.0
 10
27.4177558472847
 20
2.208897725455503
 30
0.0
 10
26.98749999999966
 20
2.436883447323062
 30
0.0
1001
PE_URL
1000

  0
SPLINE
  5
B8
330
1F
100
AcDbEntity
  8
0
  6
Continuous
 62
     1
370
    15
100
AcDbSpline
210
0.0
220
0.0
230
1.0
 70
     8
 71
     3
 72
    10
 73
     6
 74
     0
 42
0.000000001
 43
0.00000001
 40
0.0
 40
0.0
 40
0.0
 40
0.0
 40
0.3216522509984766
 40
0.6607978124485575
 40
1.0
 40
1.0
 40
1.0
 40
1.0
 10
32.34683622621024
 20
-0.5873891721402551
 30
0.0
 10
31.77220037173216
 20
-0.3561657905314857
 30
0.0
 10
30.59167664023365
 20
0.1188562380093826
 30
0.0
 10
28.80530570808683
 20
0.8429749061433132
 30
0.0
 10
27.59346895599577
 20
1.308881076547314
 30
0.0
 10
26.98750000000001
 20
1.541853607859417
 30
0.0
1001
PE_URL
1000

  0
SPLINE
  5
B9
330
1F
100
AcDbEntity
  8
외형선
  6
Continuous
370
    15
100
AcDbSpline
210
0.0
220
0.0
230
1.0
 70
    24
 71
     3
 72
    10
 73
     6
 74
     0
 42
0.000000001
 43
0.00000001
 40
0.0
 40
0.0
 40
0.0
 40
0.0
 40
0.5
 40
0.5
 40
1.0
 40
1.0
 40
1.0
 40
1.0
 10
26.98750000000001
 20
2.436883447322876
 30
0.0
 10
26.98750000000001
 20
2.400174285211512
 30
0.0
 10
26.98750000000001
 20
2.298957813174141
 30
0.0
 10
26.98750000000001
 20
1.986259292268298
 30
0.0
 10
26.98750000000001
 20
1.776027618344922
 30
0.0
 10
26.98750000000001
 20
1.541853607859419
 30
0.0
  0
SPLINE
  5
BA
330
1F
100
AcDbEntity
  8
0
  6
Continuous
 62
     1
370
    15
100
AcDbSpline
210
0.0
220
0.0
230
1.0
 70
     8
 71
     3
 72
    38
 73
    34
 74
     0
 42
0.000000001
 43
0.00000001
 40
0.0
 40
0.0
 40
0.0
 40
0.0
 40
0.0624999999999999
 40
0.0624999999999999
 40
0.1249999999999999
 40
0.1249999999999999
 40
0.1874999999999998
 40
0.1874999999999998
 40
0.2499999999999998
 40
0.2499999999999998
 40
0.3124999999999997
 40
0.3124999999999997
 40
0.3749999999999997
 40
0.3749999999999997
 40
0.4374999999999996
 40
0.4374999999999996
 40
0.4999999999999996
 40
0.4999999999999996
 40
0.5624999999999996
 40
0.5624999999999996
 40
0.6249999999999994
 40
0.6249999999999994
 40
0.6874999999999993
 40
0.6874999999999993
 40
0.7499999999999994
 40
0.7499999999999994
 40
0.8124999999999996
 40
0.8124999999999996
 40
0.8749999999999998
 40
0.8749999999999998
 40
0.9374999999999999
 40
0.9374999999999999
 40
1.0
 40
1.0
 40
1.0
 40
1.0
 10
47.62500000000001
 20
-5.837469065884359
 30
0.0
 10
47.19738354564907
 20
-5.75930243033216
 30
0.0
 10
46.76568402712428
 20
-5.666628026995002
 30
0.0
 10
45.90355141800868
 20
-5.454069672015931
 30
0.0
 10
45.47575347508588
 20
-5.334472403486959
 30
0.0
 10
44.61680222398366
 20
-5.069573494057541
 30
0.0
 10
44.18450813422128
 20
-4.924091421502939
 30
0.0
 10
43.32375863185436
 20
-4.610200533089235
 30
0.0
 10
42.89697754600103
 20
-4.442069876584177
 30
0.0
 10
42.03567408941844
 20
-4.083941740565101
 30
0.0
 10
41.60348353016277
 20
-3.894204034151469
 30
0.0
 10
40.74549285418541
 20
-3.497614551981472
 30
0.0
 10
40.31683849022663
 20
-3.290358884179629
 30
0.0
 10
39.45456150470936
 20
-2.859969636554806
 30
0.0
 10
39.02431848218339
 20
-2.637387938615895
 30
0.0
 10
38.16784185464594
 20
-2.18117623406275
 30
0.0
 10
37.73589339584537
 20
-1.946522476921068
 30
0.0
 10
36.87402676008431
 20
-1.46919633536775
 30
0.0
 10
36.44683162632904
 20
-1.227054969314468
 30
0.0
 10
35.58703990447478
 20
-0.7369618205675593
 30
0.0
 10
35.15470365864344
 20
-0.4890466757134616
 30
0.0
 10
34.29462905771155
 20
0.0070863567367948
 30
0.0
 10
33.86759388357014
 20
0.2551642683724467
 30
0.0
 10
33.00585768006582
 20
0.7503358020615783
 30
0.0
 10
32.57383197659151
 20
0.9969056267754185
 30
0.0
 10
31.71692153077025
 20
1.482635175142043
 30
0.0
 10
31.28715753490528
 20
1.722722760499567
 30
0.0
 10
30.42485783783549
 20
2.193812557512577
 30
0.0
 10
29.99581884367458
 20
2.424177107815606
 30
0.0
 10
29.13821744533429
 20
2.871904469598961
 30
0.0
 10
28.706081256624
 20
3.089866224603116
 30
0.0
 10
27.84460206612667
 20
3.509144039673235
 30
0.0
 10
27.41775584728075
 20
3.710102263248244
 30
0.0
 10
26.98749999999561
 20
3.902055128665881
 30
0.0
1001
PE_URL
1000

  0
SPLINE
  5
BB
330
1F
100
AcDbEntity
  8
0
  6
Continuous
 62
     1
370
    15
100
AcDbSpline
210
0.0
220
0.0
230
1.0
 70
     8
 71
     3
 72
    16
 73
    12
 74
     0
 42
0.000000001
 43
0.00000001
 40
0.0
 40
0.0
 40
0.0
 40
0.0
 40
0.1184174907333676
 40
0.2367696087016212
 40
0.3550852041323015
 40
0.4733933077424167
 40
0.5917229873233965
 40
0.7101032039415336
 40
0.8285406037365481
 40
0.9469228236861151
 40
1.0
 40
1.0
 40
1.0
 40
1.0
 10
47.62500000000001
 20
-4.853412195027605
 30
0.0
 10
46.99494283169666
 20
-4.7237057243927
 30
0.0
 10
45.73517632022135
 20
-4.46436438800648
 30
0.0
 10
43.84610936590019
 20
-3.894488091310361
 30
0.0
 10
41.95769498172469
 20
-3.21352922237284
 30
0.0
 10
40.06942280814978
 20
-2.428868578407096
 30
0.0
 10
38.18075157529382
 20
-1.569005695384631
 30
0.0
 10
36.2912834628528
 20
-0.6588502605125561
 30
0.0
 10
34.40130812495605
 20
0.2686925398365789
 30
0.0
 10
32.85897181857882
 20
1.027990183911778
 30
0.0
 10
31.94682059908788
 20
1.449979981285675
 30
0.0
 10
31.66445397377063
 20
1.580611648992354
 30
0.0
1001
PE_URL
1000

  0
LINE
  5
BC
330
1F
100
AcDbEntity
  8
0
  6
Continuous
 62
     1
370
    15
100
AcDbLine
 10
47.62500000000001
 20
-5.837469065884361
 30
0.0
 11
47.62500000000001
 21
-4.853412195027605
 31
0.0
1001
PE_URL
1000

  0
LINE
  5
BD
330
1F
100
AcDbEntity
  8
0
  6
Continuous
 62
     1
370
    15
100
AcDbLine
 10
47.62500000000001
 20
-6.146363293061103
 30
0.0
 11
47.62500000000001
 21
-5.837469065884361
 31
0.0
1001
PE_URL
1000

  0
SPLINE
  5
BE
330
1F
100
AcDbEntity
  8
0
  6
Continuous
 62
     1
370
    15
100
AcDbSpline
210
0.0
220
0.0
230
1.0
 70
     8
 71
     3
 72
     8
 73
     4
 74
     0
 42
0.000000001
 43
0.00000001
 40
0.0
 40
0.0
 40
0.0
 40
0.0
 40
1.0
 40
1.0
 40
1.0
 40
1.0
 10
43.81888718889583
 20
1.720516540875765
 30
0.0
 10
43.60065985138824
 20
1.979015402703166
 30
0.0
 10
43.4053975404622
 20
2.228304421208777
 30
0.0
 10
43.23895586415605
 20
2.466035276333165
 30
0.0
1001
PE_URL
1000

  0
LINE
  5
BF
330
1F
100
AcDbEntity
  8
0
  6
Continuous
 62
     1
370
    15
100
AcDbLine
 10
43.31673152613606
 20
2.531296805629144
 30
0.0
 11
47.62500000000001
 21
0.0000000000000012
 31
0.0
1001
PE_URL
1000

  0
LINE
  5
C0
330
1F
100
AcDbEntity
  8
0
  6
Continuous
 62
     1
370
    15
100
AcDbLine
 10
47.62500000000001
 20
0.0000000000000012
 30
0.0
 11
47.62500000000001
 21
-1.643961685185487
 31
0.0
1001
PE_URL
1000

  0
SPLINE
  5
C1
330
1F
100
AcDbEntity
  8
0
  6
Continuous
 62
     1
370
    15
100
AcDbSpline
210
0.0
220
0.0
230
1.0
 70
     8
 71
     3
 72
    12
 73
     8
 74
     0
 42
0.000000001
 43
0.00000001
 40
0.0
 40
0.0
 40
0.0
 40
0.0
 40
0.5000000000000008
 40
0.5000000000000008
 40
0.7500000000000003
 40
0.7500000000000003
 40
1.0
 40
1.0
 40
1.0
 40
1.0
 10
47.62500000000001
 20
-1.643961685185486
 30
0.0
 10
46.96615048288254
 20
-1.125995760681306
 30
0.0
 10
46.31830588112609
 20
-0.5867946382939605
 30
0.0
 10
45.36347561675097
 20
0.2546881566921573
 30
0.0
 10
45.04806708150046
 20
0.5407169676182653
 30
0.0
 10
44.42369202621131
 20
1.125205168289417
 30
0.0
 10
44.11642336865167
 20
1.422156391802249
 30
0.0
 10
43.81888718889581
 20
1.720516540875769
 30
0.0
1001
PE_URL
1000

  0
SPLINE
  5
C2
330
1F
100
AcDbEntity
  8
0
  6
Continuous
 62
     1
370
    15
100
AcDbSpline
210
0.0
220
0.0
230
1.0
 70
     8
 71
     3
 72
    15
 73
    11
 74
     0
 42
0.000000001
 43
0.00000001
 40
0.0
 40
0.0
 40
0.0
 40
0.0
 40
0.1313823965033641
 40
0.2646628148248059
 40
0.3979678767946953
 40
0.5313306631084801
 40
0.6647587755580076
 40
0.7981238666689839
 40
0.9314302163283176
 40
1.0
 40
1.0
 40
1.0
 40
1.0
 10
43.81888718889582
 20
1.720516540875763
 30
0.0
 10
43.19847149780948
 20
1.983993050852045
 30
0.0
 10
41.94867725189479
 20
2.514752396292611
 30
0.0
 10
40.0693966925932
 20
3.220906523884306
 30
0.0
 10
38.18071700680732
 20
3.833494391592606
 30
0.0
 10
36.29124215517062
 20
4.324379688614
 30
0.0
 10
34.40127062756241
 20
4.681807693899088
 30
0.0
 10
32.51178028559134
 20
4.885114975590645
 30
0.0
 10
30.92864060351827
 20
4.950225094942142
 30
0.0
 10
29.97537571121298
 20
4.890657880654947
 30
0.0
 10
29.65158722582524
 20
4.870425122427404
 30
0.0
1001
PE_URL
1000

  0
SPLINE
  5
C3
330
1F
100
AcDbEntity
  8
0
  6
Continuous
 62
     1
370
    15
100
AcDbSpline
210
0.0
220
0.0
230
1.0
 70
    24
 71
     3
 72
    10
 73
     6
 74
     0
 42
0.000000001
 43
0.00000001
 40
0.0
 40
0.0
 40
0.0
 40
0.0
 40
0.4999999999999999
 40
0.4999999999999999
 40
1.0
 40
1.0
 40
1.0
 40
1.0
 10
47.62500000000001
 20
-4.853412195027605
 30
0.0
 10
47.62500000000001
 20
-4.481360310168721
 30
0.0
 10
47.62500000000001
 20
-4.011258487718389
 30
0.0
 10
47.625
 20
-2.918316992775354
 30
0.0
 10
47.62500000000002
 20
-2.296424067645322
 30
0.0
 10
47.62500000000001
 20
-1.643961685185683
 30
0.0
1001
PE_URL
1000

  0
SPLINE
  5
C4
330
1F
100
AcDbEntity
  8
외형선
  6
Continuous
370
    15
100
AcDbSpline
210
0.0
220
0.0
230
1.0
 70
    24
 71
     3
 72
    11
 73
     7
 74
     0
 42
0.000000001
 43
0.00000001
 40
0.0
 40
0.0
 40
0.0
 40
0.0
 40
0.3011120039749203
 40
0.6370948211389982
 40
0.9318019737579402
 40
1.0
 40
1.0
 40
1.0
 40
1.0
 10
26.98750000000001
 20
4.798876528752491
 30
0.0
 10
26.98750000000001
 20
4.790314431574112
 30
0.0
 10
26.98750000000001
 20
4.772198688267875
 30
0.0
 10
26.98750000000001
 20
4.505872036396716
 30
0.0
 10
26.98750000000001
 20
4.228613505524968
 30
0.0
 10
26.98750000000001
 20
4.009406303370397
 30
0.0
 10
26.98750000000001
 20
3.968212351352666
 30
0.0
  0
SPLINE
  5
C5
330
1F
100
AcDbEntity
  8
0
  6
Continuous
 62
     1
370
    15
100
AcDbSpline
210
0.0
220
0.0
230
1.0
 70
    24
 71
     3
 72
     8
 73
     4
 74
     0
 42
0.000000001
 43
0.00000001
 40
0.0
 40
0.0
 40
0.0
 40
0.0
 40
1.0
 40
1.0
 40
1.0
 40
1.0
 10
43.88058448166836
 20
3.004425612654525
 30
0.0
 10
43.67856801103859
 20
2.834913666657353
 30
0.0
 10
43.46329047869452
 20
2.654274368666675
 30
0.0
 10
43.23895586414988
 20
2.466035276341971
 30
0.0
1001
PE_URL
1000

  0
SPLINE
  5
C6
330
1F
100
AcDbEntity
  8
0
  6
Continuous
 62
     1
370
    15
100
AcDbSpline
210
0.0
220
0.0
230
1.0
 70
     8
 71
     3
 72
     9
 73
     5
 74
     0
 42
0.000000001
 43
0.00000001
 40
0.0
 40
0.0
 40
0.0
 40
0.0
 40
0.8257452547690571
 40
1.0
 40
1.0
 40
1.0
 40
1.0
 10
47.62500000000001
 20
4.306093749999998
 30
0.0
 10
46.99493703958702
 20
4.301888155178609
 30
0.0
 10
46.23191362919007
 20
4.296795065273339
 30
0.0
 10
45.46895805582827
 20
4.211172075981518
 30
0.0
 10
45.33600942676959
 20
4.196251863796562
 30
0.0
1001
PE_URL
1000

  0
SPLINE
  5
C7
330
1F
100
AcDbEntity
  8
0
  6
Continuous
 62
     1
370
    15
100
AcDbSpline
210
0.0
220
0.0
230
1.0
 70
     8
 71
     3
 72
    10
 73
     6
 74
     0
 42
0.000000001
 43
0.00000001
 40
0.0
 40
0.0
 40
0.0
 40
0.0
 40
0.5
 40
0.5
 40
1.0
 40
1.0
 40
1.0
 40
1.0
 10
47.62500000000001
 20
4.306093750000001
 30
0.0
 10
46.99207797344784
 20
4.134436221826448
 30
0.0
 10
46.36302973117549
 20
3.941714200956724
 30
0.0
 10
45.11336387799489
 20
3.51042688040623
 30
0.0
 10
44.49315712814807
 20
3.272528553984608
 30
0.0
 10
43.88058448166743
 20
3.004425612655404
 30
0.0
1001
PE_URL
1000

  0
SPLINE
  5
C8
330
1F
100
AcDbEntity
  8
0
  6
Continuous
 62
     1
370
    15
100
AcDbSpline
210
0.0
220
0.0
230
1.0
 70
     8
 71
     3
 72
    12
 73
     8
 74
     0
 42
0.000000001
 43
0.00000001
 40
0.0
 40
0.0
 40
0.0
 40
0.0
 40
0.0255091520802657
 40
0.2738630983567156
 40
0.5221076556528561
 40
0.7610344015029925
 40
1.0
 40
1.0
 40
1.0
 40
1.0
 10
34.59509643076355
 20
-4.6198127704942
 30
0.0
 10
34.53040036709099
 20
-4.632136883398067
 30
0.0
 10
33.83583143774739
 20
-4.764447033642629
 30
0.0
 10
32.51178337288
 20
-4.881017192458362
 30
0.0
 10
30.64656045698974
 20
-4.945544062146028
 30
0.0
 10
28.80531614679469
 20
-4.856358626804734
 30
0.0
 10
27.59347155658602
 20
-4.682096355705955
 30
0.0
 10
26.98750000000001
 20
-4.594958136395378
 30
0.0
1001
PE_URL
1000

  0
SPLINE
  5
C9
330
1F
100
AcDbEntity
  8
외형선
  6
Continuous
370
    15
100
AcDbSpline
210
0.0
220
0.0
230
1.0
 70
    24
 71
     3
 72
    14
 73
    10
 74
     0
 42
0.000000001
 43
0.00000001
 40
0.0
 40
0.0
 40
0.0
 40
0.0
 40
0.25
 40
0.25
 40
0.5
 40
0.5
 40
0.75
 40
0.75
 40
1.0
 40
1.0
 40
1.0
 40
1.0
 10
26.98750000000001
 20
1.541853607859418
 30
0.0
 10
26.98750000000001
 20
1.003174793484015
 30
0.0
 10
26.98750000000001
 20
0.4371068036677858
 30
0.0
 10
26.98750000000001
 20
-0.7008177488634519
 30
0.0
 10
26.98750000000001
 20
-1.272132378598367
 30
0.0
 10
26.98750000000001
 20
-2.36282075664742
 30
0.0
 10
26.98750000000001
 20
-2.881613340593991
 30
0.0
 10
26.98750000000001
 20
-3.819411928459253
 30
0.0
 10
26.98750000000001
 20
-4.238157087113519
 30
0.0
 10
26.98750000000001
 20
-4.59495813639538
 30
0.0
  0
LINE
  5
CA
330
1F
100
AcDbEntity
  8
0
  6
Continuous
 62
     1
370
    15
100
AcDbLine
 10
47.62500000000001
 20
0.0000000000000012
 30
0.0
 11
47.62500000000001
 21
4.30609375
 31
0.0
1001
PE_URL
1000

  0
SPLINE
  5
CB
330
1F
100
AcDbEntity
  8
외형선
  6
Continuous
370
    15
100
AcDbSpline
210
0.0
220
0.0
230
1.0
 70
    24
 71
     3
 72
    10
 73
     6
 74
     0
 42
0.000000001
 43
0.00000001
 40
0.0
 40
0.0
 40
0.0
 40
0.0
 40
0.4731034702715142
 40
0.9462069405430283
 40
1.0
 40
1.0
 40
1.0
 40
1.0
 10
26.98750000000001
 20
-4.59495813639538
 30
0.0
 10
26.98750000000001
 20
-4.647762169329491
 30
0.0
 10
26.98750000000001
 20
-4.753370235197716
 30
0.0
 10
26.9875
 20
-4.819818555511654
 30
0.0
 10
26.98750000000001
 20
-4.800816525114726
 30
0.0
 10
26.98750000000001
 20
-4.798876528752496
 30
0.0
  0
SPLINE
  5
CC
330
1F
100
AcDbEntity
  8
0
  6
Continuous
 62
     1
370
    15
100
AcDbSpline
210
0.0
220
0.0
230
1.0
 70
     8
 71
     3
 72
    12
 73
     8
 74
     0
 42
0.000000001
 43
0.00000001
 40
0.0
 40
0.0
 40
0.0
 40
0.0
 40
0.1395184924404594
 40
0.3545893329280863
 40
0.5696307574550808
 40
0.7847365411403359
 40
1.0
 40
1.0
 40
1.0
 40
1.0
 10
39.18352317638004
 20
4.12196335835417
 30
0.0
 10
39.57613579777328
 20
4.290321662716997
 30
0.0
 10
40.57396945468719
 20
4.718208015218947
 30
0.0
 10
42.17666578101607
 20
5.2592915881921
 30
0.0
 10
43.99203569108556
 20
5.734460607641201
 30
0.0
 10
45.8080143394661
 20
6.05140570814424
 30
0.0
 10
47.01919019957629
 20
6.114703034636001
 30
0.0
 10
47.62500000000001
 20
6.146363293061102
 30
0.0
1001
PE_URL
1000

  0
SPLINE
  5
CD
330
1F
100
AcDbEntity
  8
0
  6
Continuous
 62
     1
370
    15
100
AcDbSpline
210
0.0
220
0.0
230
1.0
 70
    24
 71
     3
 72
    10
 73
     6
 74
     0
 42
0.000000001
 43
0.00000001
 40
0.0
 40
0.0
 40
0.0
 40
0.0
 40
0.5
 40
0.5
 40
1.0
 40
1.0
 40
1.0
 40
1.0
 10
47.62500000000001
 20
4.306093749999998
 30
0.0
 10
47.62500000000001
 20
4.56711842976624
 30
0.0
 10
47.62500000000001
 20
4.870453281140372
 30
0.0
 10
47.62500000000001
 20
5.506848982348258
 30
0.0
 10
47.62500000000001
 20
5.838284557422491
 30
0.0
 10
47.62500000000001
 20
6.146363293061102
 30
0.0
1001
PE_URL
1000

  0
LINE
  5
CE
330
1F
100
AcDbEntity
  8
중심선
 62
     1
100
AcDbLine
 10
-50.625
 20
-0.0000000000000062
 30
0.0
 11
50.625
 21
0.0000000000000062
 31
0.0
  0
LINE
  5
CF
330
1F
100
AcDbEntity
  8
참조1
100
AcDbLine
 10
0.0
 20
-0.0000000000000058
 30
0.0
 11
0.0000000000000071
 21
-40.00000000000001
 31
0.0
  0
LINE
  5
D0
330
1F
100
AcDbEntity
  8
참조1
100
AcDbLine
 10
0.0000000000000071
 20
-40.00000000000001
 30
0.0
 11
-12.87821559669922
 21
-40.0
 31
0.0
  0
CIRCLE
  5
D1
330
1F
100
AcDbEntity
  8
해칭선
100
AcDbCircle
 10
0.0
 20
0.0
 30
0.0
 40
3.000000000000001
  0
INSERT
  5
D2
330
1F
100
AcDbEntity
  8
0
  6
Continuous
 62
     7
100
AcDbBlockReference
 66
     1
  2
블럭10
 10
-13.94027293212521
 20
-52.04717430164393
 30
0.0
  0
ATTRIB
  5
D3
330
D2
100
AcDbEntity
  8
FORMAT
 62
     2
100
AcDbText
 10
-23.12156822086649
 20
-49.97180738881175
 30
0.0
 40
4.233333333333333
  1
E1050031 [ 2 FLUTE ]
 41
0.75
  7
SLDTEXTSTYLE0
 11
-23.12156822086649
 21
-52.08847405547841
 31
0.0
100
AcDbAttribute
  2
AUTOATTR0
 70
     0
 74
     1
  0
SEQEND
  5
D4
330
D2
100
AcDbEntity
  8
0
  6
Continuous
 62
     7
  0
HATCH
  5
D5
330
1F
100
AcDbEntity
  8
중심선
100
AcDbHatch
 10
0.0
 20
0.0
 30
0.0
210
0.0
220
0.0
230
1.0
  2
SOLID
 70
     1
 71
     0
 91
        1
 92
        0
 93
        4
 72
     1
 10
-8.225363627744372
 20
-35.8
 11
-11.67163887158165
 21
-35.8
 72
     1
 10
-11.67163887158165
 20
-35.8
 11
-13.79986873078568
 21
-38.33632558057257
 72
     1
 10
-13.79986873078568
 20
-38.33632558057257
 11
-10.35356040183525
 21
-38.33628615127008
 72
     1
 10
-10.35356040183525
 20
-38.33628615127008
 11
-8.225363627744372
 21
-35.8
 97
        0
 75
     0
 76
     1
 98
        1
 10
16.58171167873051
 20
-0.001074928723895
  0
HATCH
  5
D6
330
1F
100
AcDbEntity
  8
중심선
100
AcDbHatch
 10
0.0
 20
0.0
 30
0.0
210
0.0
220
0.0
230
1.0
  2
SOLID
 70
     1
 71
     0
 91
        1
 92
        0
 93
        4
 72
     1
 10
-3.212599636708394
 20
-35.8
 11
-6.658874880545646
 21
-35.8
 72
     1
 10
-6.658874880545646
 20
-35.8
 11
-11.19001288890309
 21
-41.20000000000002
 72
     1
 10
-11.19001288890309
 20
-41.20000000000002
 11
-7.743737645065806
 21
-41.20000000000002
 72
     1
 10
-7.743737645065806
 20
-41.20000000000002
 11
-3.212599636708394
 21
-35.8
 97
        0
 75
     0
 76
     1
 98
        1
 10
16.58171167873051
 20
-0.001074928723895
  0
HATCH
  5
D7
330
1F
100
AcDbEntity
  8
중심선
100
AcDbHatch
 10
0.0
 20
0.0
 30
0.0
210
0.0
220
0.0
230
1.0
  2
SOLID
 70
     1
 71
     0
 91
        1
 92
        0
 93
        4
 72
     1
 10
1.800164354327503
 20
-35.80000000000003
 11
-1.646110889509611
 21
-35.8
 72
     1
 10
-1.646110889509611
 20
-35.8
 11
-8.69454779139889
 21
-44.20000000000002
 72
     1
 10
-8.69454779139889
 20
-44.20000000000002
 11
-5.248272547561605
 21
-44.20000000000002
 72
     1
 10
-5.248272547561605
 20
-44.20000000000002
 11
1.800164354327503
 21
-35.80000000000003
 97
        0
 75
     0
 76
     1
 98
        1
 10
16.58171167873051
 20
-0.001074928723895
  0
HATCH
  5
D8
330
1F
100
AcDbEntity
  8
중심선
100
AcDbHatch
 10
0.0
 20
0.0
 30
0.0
210
0.0
220
0.0
230
1.0
  2
SOLID
 70
     1
 71
     0
 91
        1
 92
        0
 93
        6
 72
     3
 10
6.600054785339674
 20
-40.00000000005127
 11
3.960054785062283
 21
1.540882976769353E-10
 40
0.3939339440162628
 50
17.09539180608437
 51
320.0019657685077
 73
     0
 72
     1
 10
8.283054441040242
 20
-38.5878940046383
 11
10.58835631474131
 21
-36.65356729459035
 72
     3
 10
6.600054785286828
 20
-40.00000000000015
 11
6.600054785286829
 21
-1.278976924368180E-13
 40
0.636358354079598
 50
39.9987384933743
 51
368.4976242363725
 73
     1
 72
     1
 10
13.02538727718744
 20
-39.03999999993002
 11
5.280122092122751
 21
-39.03999999993
 72
     1
 10
5.280122092122751
 20
-39.03999999993
 11
5.280097047676817
 21
-40.95999999992991
 72
     1
 10
5.280097047676817
 20
-40.95999999992991
 11
9.721476817148854
 21
-40.95999999992988
 97
        0
 75
     0
 76
     1
 98
        1
 10
16.58171167873051
 20
-0.001074928723895
  0
DIMENSION
  5
D9
330
1F
100
AcDbEntity
  8
치수문자_일반주서
100
AcDbDimension
  2
_D
 10
-57.62499999999994
 20
-6.350000000000122
 30
0.0
 11
-57.62500000000004
 21
26.29774999999995
 31
0.0
 70
   160
  1
%%c<>
 71
     2
 42
12.69999999999999
 52
-270.0
  3
SLDDIMSTYLE0
100
AcDbAlignedDimension
 13
-24.95760440548095
 23
6.349999999999992
 33
0.0
 14
-24.95760440548096
 24
-6.350000000000001
 34
0.0
 50
90.0000000000002
100
AcDbRotatedDimension
1001
PE_URL
1000

1001
ACAD
1000
DSTYLE
1002
{
1070
   171
1070
     8
1070
   273
1070
     7
1002
}
  0
DIMENSION
  5
EE
330
1F
100
AcDbEntity
  8
치수문자_일반주서
100
AcDbDimension
  2
_D_1
 10
90.5952890380203
 20
6.146363293061263
 30
0.0
 11
90.59528903802021
 21
28.93786329306126
 31
0.0
 70
   160
  1
%%c<>
 71
     2
 42
12.29272658612221
 52
-270.0
  3
SLDDIMSTYLE0
100
AcDbAlignedDimension
 13
47.62500000000001
 23
-6.146363293061103
 33
0.0
 14
47.62500000000001
 24
6.146363293061102
 34
0.0
 50
90.0000000000002
100
AcDbRotatedDimension
1001
PE_URL
1000

1001
ACAD
1000
DSTYLE
1002
{
1070
   171
1070
     8
1070
   273
1070
     7
1002
}
  0
DIMENSION
  5
102
330
1F
100
AcDbEntity
  8
치수문자_일반주서
100
AcDbDimension
  2
_D_2
 10
26.98750000000001
 20
16.34999999999999
 30
0.0
 11
68.88525000000001
 21
16.34999999999999
 31
0.0
 70
   160
  1
<>
 71
     2
 42
20.6375
  3
SLDDIMSTYLE0
100
AcDbAlignedDimension
 13
47.62500000000001
 23
6.146363293061102
 33
0.0
 14
26.98750000000001
 24
4.805918289903689
 34
0.0
 50
0.0000000000000197
100
AcDbRotatedDimension
1001
PE_URL
1000

1001
ACAD
1000
DSTYLE
1002
{
1070
   171
1070
     8
1070
   273
1070
     7
1002
}
  0
DIMENSION
  5
116
330
1F
100
AcDbEntity
  8
치수문자_일반주서
100
AcDbDimension
  2
_D_3
 10
47.62500000000001
 20
26.34999999999999
 30
0.0
 11
0.0000000000000213
 21
26.34999999999999
 31
0.0
 70
   160
  1
<>
 71
     2
 42
95.25000000000004
  3
SLDDIMSTYLE0
100
AcDbAlignedDimension
 13
-47.62500000000003
 23
6.146363293061119
 33
0.0
 14
47.62500000000001
 24
6.146363293061102
 34
0.0
100
AcDbRotatedDimension
1001
PE_URL
1000

1001
ACAD
1000
DSTYLE
1002
{
1070
   171
1070
     8
1070
   273
1070
     7
1002
}
  0
LINE
  5
129
330
1F
100
AcDbEntity
  8
참조1
100
AcDbLine
 10
85.09412503295505
 20
7.44
 30
0.0
 11
85.09412503295505
 21
-7.440000000000004
 31
0.0
  0
LINE
  5
12A
330
1F
100
AcDbEntity
  8
참조1
100
AcDbLine
 10
97.79412503295505
 20
5.44
 30
0.0
 11
85.09412503295505
 21
5.44
 31
0.0
  0
SOLID
  5
12B
330
1F
100
AcDbEntity
  8
참조1
100
AcDbTrace
 10
85.09412503295505
 20
5.44
 30
0.0
 11
91.44412503295504
 21
4.424
 31
0.0
 12
91.44412503295504
 22
6.456
 32
0.0
 13
91.44412503295504
 23
6.456
 33
0.0
  0
LINE
  5
12C
330
1F
100
AcDbEntity
  8
참조1
100
AcDbLine
 10
97.79412503295505
 20
-5.440000000000004
 30
0.0
 11
85.09412503295505
 21
-5.440000000000004
 31
0.0
  0
SOLID
  5
12D
330
1F
100
AcDbEntity
  8
참조1
100
AcDbTrace
 10
85.09412503295505
 20
-5.440000000000004
 30
0.0
 11
91.44412503295504
 21
-6.456000000000004
 31
0.0
 12
91.44412503295504
 22
-4.424000000000004
 32
0.0
 13
91.44412503295504
 23
-4.424000000000004
 33
0.0
  0
MTEXT
  5
12E
330
1F
100
AcDbEntity
  8
참조1
100
AcDbMText
 10
94.47847516558105
 20
11.01029177718833
 30
0.0
 40
3.5
 41
0.0
 71
     1
 72
     1
  1
A
  7
SLDTEXTSTYLE0
 73
     1
 44
1.0
  0
MTEXT
  5
12F
330
1F
100
AcDbEntity
  8
참조1
100
AcDbMText
 10
94.47847516558105
 20
0.1302917771883242
 30
0.0
 40
3.5
 41
0.0
 71
     1
 72
     1
  1
A
  7
SLDTEXTSTYLE0
 73
     1
 44
1.0
  0
INSERT
  5
136
330
1F
100
AcDbEntity
  8
해칭선
100
AcDbBlockReference
  2
SW_DOWELSYMBOL_0
 10
0.0
 20
0.0
 30
0.0
  0
LINE
  5
1A9
330
1F
100
AcDbEntity
  8
외형선
  6
Continuous
370
    15
100
AcDbLine
 10
-5.587999999999937
 20
4.825999999999996
 30
0.0
 11
5.587999999999937
 21
4.825999999999996
 31
0.0
1001
PE_URL
1000

  0
LINE
  5
1AA
330
1F
100
AcDbEntity
  8
외형선
  6
Continuous
370
    15
100
AcDbLine
 10
-5.587999999999937
 20
4.825999999999996
 30
0.0
 11
-7.111999999999938
 21
6.349999999999993
 31
0.0
1001
PE_URL
1000

  0
LINE
  5
1AB
330
1F
100
AcDbEntity
  8
외형선
  6
Continuous
370
    15
100
AcDbLine
 10
5.588000000000051
 20
4.825999999999996
 30
0.0
 11
7.112000000000052
 21
6.349999999999993
 31
0.0
1001
PE_URL
1000

  0
SPLINE
  5
1F5
330
1F
100
AcDbEntity
  8
외형선
  6
Continuous
370
    15
100
AcDbSpline
210
0.0
220
0.0
230
1.0
 70
     8
 71
     3
 72
     9
 73
     5
 74
     0
 42
0.000000001
 43
0.00000001
 40
0.0
 40
0.0
 40
0.0
 40
0.0
 40
0.5169723650764794
 40
1.0
 40
1.0
 40
1.0
 40
1.0
 10
-26.98750000000003
 20
-4.805613381954778
 30
0.0
 10
-26.72382665393669
 20
-4.804468353115706
 30
0.0
 10
-26.21379291930112
 20
-4.802253478750224
 30
0.0
 10
-25.6977345692496
 20
-4.810386142206827
 30
0.0
 10
-25.44846412494169
 20
-4.814314443401894
 30
0.0
  0
SPLINE
  5
1F6
330
1F
100
AcDbEntity
  8
외형선
  6
Continuous
370
    15
100
AcDbSpline
210
0.0
220
0.0
230
1.0
 70
     8
 71
     3
 72
    15
 73
    11
 74
     0
 42
0.000000001
 43
0.00000001
 40
0.0
 40
0.0
 40
0.0
 40
0.0
 40
0.0248565381155928
 40
0.0548473014113857
 40
0.1463254983920467
 40
0.4983829356625471
 40
0.8504389849885166
 40
0.9428064203061842
 40
0.9737956370256529
 40
1.0
 40
1.0
 40
1.0
 40
1.0
 10
-25.44832423669604
 20
-4.813984295608041
 30
0.0
 10
-25.4460324189211
 20
-4.814460285079271
 30
0.0
 10
-25.44097539852277
 20
-4.815510581700458
 30
0.0
 10
-25.41788960392356
 20
-4.829242620331641
 30
0.0
 10
-25.32885529409979
 20
-4.900316981547412
 30
0.0
 10
-25.18243244144131
 20
-5.043185932430255
 30
0.0
 10
-25.04140054482413
 20
-5.192068039407747
 30
0.0
 10
-24.97205590756867
 20
-5.279873182307195
 30
0.0
 10
-24.95895759235996
 20
-5.301340934617397
 30
0.0
 10
-24.95802958863315
 20
-5.30552090522184
 30
0.0
 10
-24.95760440548096
 20
-5.307436040933354
 30
0.0
  0
SPLINE
  5
1F7
330
1F
100
AcDbEntity
  8
외형선
  6
Continuous
370
    15
100
AcDbSpline
210
0.0
220
0.0
230
1.0
 70
     8
 71
     3
 72
     9
 73
     5
 74
     0
 42
0.000000001
 43
0.00000001
 40
0.0
 40
0.0
 40
0.0
 40
0.0
 40
0.5532638305132372
 40
1.0
 40
1.0
 40
1.0
 40
1.0
 10
-24.9576443183969
 20
4.825172411883607
 30
0.0
 10
-25.33392483800614
 20
4.816880991310162
 30
0.0
 10
-26.01403530042365
 20
4.801894613896417
 30
0.0
 10
-26.68690483953368
 20
4.804465067401892
 30
0.0
 10
-26.98750000000002
 20
4.805613381954775
 30
0.0
  0
LINE
  5
1F8
330
1F
100
AcDbEntity
  8
0
  6
Continuous
 62
     1
370
    15
100
AcDbLine
 10
-28.30759234301045
 20
-1.719765895438982
 30
0.0
 11
-28.21864784398371
 21
-1.768633417119801
 31
0.0
1001
PE_URL
1000

  0
SPLINE
  5
1F9
330
1F
100
AcDbEntity
  8
0
  6
Continuous
 62
     1
370
    15
100
AcDbSpline
210
0.0
220
0.0
230
1.0
 70
     8
 71
     3
 72
     9
 73
     5
 74
     0
 42
0.000000001
 43
0.00000001
 40
0.0
 40
0.0
 40
0.0
 40
0.0
 40
0.4370456343858376
 40
1.0
 40
1.0
 40
1.0
 40
1.0
 10
-31.68850609349172
 20
-1.576273281056071
 30
0.0
 10
-31.43969270744972
 20
-1.694530247383032
 30
0.0
 10
-30.87038514213873
 20
-1.965112898307218
 30
0.0
 10
-30.30114121328098
 20
-2.262513233171099
 30
0.0
 10
-29.98068285843115
 20
-2.429936050017837
 30
0.0
1001
PE_URL
1000

  0
SPLINE
  5
1FA
330
1F
100
AcDbEntity
  8
0
  6
Continuous
 62
     1
370
    15
100
AcDbSpline
210
0.0
220
0.0
230
1.0
 70
     8
 71
     3
 72
     9
 73
     5
 74
     0
 42
0.000000001
 43
0.00000001
 40
0.0
 40
0.0
 40
0.0
 40
0.0
 40
0.5001798081700849
 40
1.0
 40
1.0
 40
1.0
 40
1.0
 10
-29.65460125748487
 20
-4.888270089855521
 30
0.0
 10
-29.2093188060316
 20
-4.866932919833985
 30
0.0
 10
-28.3190740496862
 20
-4.824273920664062
 30
0.0
 10
-27.43125159140769
 20
-4.811832070093615
 30
0.0
 10
-26.98750000000003
 20
-4.805613381954775
 30
0.0
1001
PE_URL
1000

  0
SPLINE
  5
1FB
330
1F
100
AcDbEntity
  8
0
  6
Continuous
 62
     1
370
    15
100
AcDbSpline
210
0.0
220
0.0
230
1.0
 70
     8
 71
     3
 72
    21
 73
    17
 74
     0
 42
0.000000001
 43
0.00000001
 40
0.0
 40
0.0
 40
0.0
 40
0.0
 40
0.0968209657073288
 40
0.1755215199826845
 40
0.2356982779262603
 40
0.2807121349562028
 40
0.3206707254781907
 40
0.3673552301976363
 40
0.4161614258236883
 40
0.4838458068838847
 40
0.5701421455666115
 40
0.6424415187397658
 40
0.7032718034293911
 40
0.7792631950265948
 40
0.8780030313154027
 40
1.0
 40
1.0
 40
1.0
 40
1.0
 10
-45.33937574769688
 20
-4.207380663342732
 30
0.0
 10
-44.99782113504978
 20
-4.18014350645668
 30
0.0
 10
-44.37863515264452
 20
-4.130766730035152
 30
0.0
 10
-43.53796450210377
 20
-4.087006928674903
 30
0.0
 10
-42.87119679829791
 20
-4.063763954442702
 30
0.0
 10
-42.33365351285843
 20
-4.05249623540778
 30
0.0
 10
-41.85078119805025
 20
-4.046952953393308
 30
0.0
 10
-41.36529367473828
 20
-4.047818638424879
 30
0.0
 10
-40.80489081848891
 20
-4.055885469448363
 30
0.0
 10
-40.08928628070836
 20
-4.075429569620862
 30
0.0
 10
-39.28872314938957
 20
-4.112511633798078
 30
0.0
 10
-38.50196617596772
 20
-4.165176058792454
 30
0.0
 10
-37.73772421767517
 20
-4.229565024763279
 30
0.0
 10
-36.88625717476393
 20
-4.314823765008374
 30
0.0
 10
-35.82117961986395
 20
-4.442382608791068
 30
0.0
 10
-35.02952848603766
 20
-4.561167536183017
 30
0.0
 10
-34.59199819472911
 20
-4.626817671279358
 30
0.0
1001
PE_URL
1000

  0
SPLINE
  5
1FC
330
1F
100
AcDbEntity
  8
0
  6
Continuous
 62
     1
370
    15
100
AcDbSpline
210
0.0
220
0.0
230
1.0
 70
     8
 71
     3
 72
    13
 73
     9
 74
     0
 42
0.000000001
 43
0.00000001
 40
0.0
 40
0.0
 40
0.0
 40
0.0
 40
0.2583384466813906
 40
0.4770979472706652
 40
0.6590993261909637
 40
0.8235227007021235
 40
0.9803037099139957
 40
1.0
 40
1.0
 40
1.0
 40
1.0
 10
-34.5919981947291
 20
4.626817671279367
 30
0.0
 10
-34.97813020264293
 20
4.568321388277045
 30
0.0
 10
-35.69123655873397
 20
4.460290791585448
 30
0.0
 10
-36.69542186567855
 20
4.335671517043176
 30
0.0
 10
-37.57980556935389
 20
4.24412864992248
 30
0.0
 10
-38.36406932173689
 20
4.176136928877774
 30
0.0
 10
-38.8910774431573
 20
4.136849491874546
 30
0.0
 10
-39.15397085339534
 20
4.123378724146042
 30
0.0
 10
-39.18331187850366
 20
4.12187527781092
 30
0.0
1001
PE_URL
1000

  0
SPLINE
  5
1FD
330
1F
100
AcDbEntity
  8
0
  6
Continuous
 62
     1
370
    15
100
AcDbSpline
210
0.0
220
0.0
230
1.0
 70
     8
 71
     3
 72
     9
 73
     5
 74
     0
 42
0.000000001
 43
0.00000001
 40
0.0
 40
0.0
 40
0.0
 40
0.0
 40
0.4998201918299149
 40
1.0
 40
1.0
 40
1.0
 40
1.0
 10
-26.98750000000001
 20
4.805613381954771
 30
0.0
 10
-27.43125159140768
 20
4.811832070093612
 30
0.0
 10
-28.31907404968619
 20
4.824273920664059
 30
0.0
 10
-29.20931880603159
 20
4.866932919833983
 30
0.0
 10
-29.65460125748486
 20
4.888270089855522
 30
0.0
1001
PE_URL
1000

  0
SPLINE
  5
1FE
330
1F
100
AcDbEntity
  8
외형선
  6
Continuous
370
    15
100
AcDbSpline
210
0.0
220
0.0
230
1.0
 70
     8
 71
     3
 72
     8
 73
     4
 74
     0
 42
0.000000001
 43
0.00000001
 40
0.0
 40
0.0
 40
0.0
 40
0.0
 40
1.0
 40
1.0
 40
1.0
 40
1.0
 10
-25.24692116787309
 20
-4.713134464721815
 30
0.0
 10
-25.15069535311958
 20
-4.751684159751832
 30
0.0
 10
-25.05427519755038
 20
-4.789679496961273
 30
0.0
 10
-24.95771367911587
 20
-4.827097401837211
 30
0.0
  0
LINE
  5
1FF
330
1F
100
AcDbEntity
  8
외형선
  6
Continuous
370
    15
100
AcDbLine
 10
-25.24692116787309
 20
-4.713134464721787
 30
0.0
 11
-25.24692116787309
 21
-3.371883437800808
 31
0.0
  0
SPLINE
  5
200
330
1F
100
AcDbEntity
  8
외형선
  6
Continuous
370
    15
100
AcDbSpline
210
0.0
220
0.0
230
1.0
 70
     8
 71
     3
 72
     8
 73
     4
 74
     0
 42
0.000000001
 43
0.00000001
 40
0.0
 40
0.0
 40
0.0
 40
0.0
 40
1.0
 40
1.0
 40
1.0
 40
1.0
 10
-25.24692116787309
 20
-3.371883437800804
 30
0.0
 10
-25.15065905522743
 20
-3.420645851139785
 30
0.0
 10
-25.05420245508387
 20
-3.469025603339883
 30
0.0
 10
-24.95760440548096
 20
-3.516994418655642
 30
0.0
  0
LINE
  5
201
330
1F
100
AcDbEntity
  8
외형선
  6
Continuous
370
    15
100
AcDbLine
 10
-24.95760440548095
 20
6.349999999999991
 30
0.0
 11
-24.95760440548096
 21
-3.51705915999349
 31
0.0
  0
LINE
  5
202
330
1F
100
AcDbEntity
  8
외형선
  6
Continuous
370
    15
100
AcDbLine
 10
-24.96287668039343
 20
4.825081847964332
 30
0.0
 11
-24.95771367911586
 21
4.8270974018372
 31
0.0
  0
LINE
  5
203
330
1F
100
AcDbEntity
  8
외형선
  6
Continuous
370
    15
100
AcDbLine
 10
-24.95760440548096
 20
-4.827216494198723
 30
0.0
 11
-24.95760440548096
 21
-6.350000000000001
 31
0.0
  0
SPLINE
  5
204
330
1F
100
AcDbEntity
  8
외형선
  6
Continuous
370
    15
100
AcDbSpline
210
0.0
220
0.0
230
1.0
 70
    24
 71
     3
 72
    10
 73
     6
 74
     0
 42
0.000000001
 43
0.00000001
 40
0.0
 40
0.0
 40
0.0
 40
0.0
 40
0.5
 40
0.5
 40
1.0
 40
1.0
 40
1.0
 40
1.0
 10
-26.98750000000003
 20
-2.436883447322881
 30
0.0
 10
-26.98750000000003
 20
-2.400174285211516
 30
0.0
 10
-26.98750000000003
 20
-2.298957813174145
 30
0.0
 10
-26.98750000000003
 20
-1.986259292268304
 30
0.0
 10
-26.98750000000003
 20
-1.776027618344926
 30
0.0
 10
-26.98750000000003
 20
-1.541853607859423
 30
0.0
  0
SPLINE
  5
205
330
1F
100
AcDbEntity
  8
외형선
  6
Continuous
370
    15
100
AcDbSpline
210
0.0
220
0.0
230
1.0
 70
     8
 71
     3
 72
    10
 73
     6
 74
     0
 42
0.000000001
 43
0.00000001
 40
0.0
 40
0.0
 40
0.0
 40
0.0
 40
0.5
 40
0.5
 40
1.0
 40
1.0
 40
1.0
 40
1.0
 10
-26.98749999999909
 20
-1.541853607859775
 30
0.0
 10
-26.64897101955357
 20
-1.669541110061029
 30
0.0
 10
-26.3091653329474
 20
-1.795050699951126
 30
0.0
 10
-25.63162045986234
 20
-2.040003857678542
 30
0.0
 10
-25.2955622289936
 20
-2.159257229376905
 30
0.0
 10
-24.95763074012482
 20
-2.275293966953338
 30
0.0
  0
SPLINE
  5
206
330
1F
100
AcDbEntity
  8
외형선
  6
Continuous
370
    15
100
AcDbSpline
210
0.0
220
0.0
230
1.0
 70
     8
 71
     3
 72
     8
 73
     4
 74
     0
 42
0.000000001
 43
0.00000001
 40
0.0
 40
0.0
 40
0.0
 40
0.0
 40
1.0
 40
1.0
 40
1.0
 40
1.0
 10
-25.24692116787309
 20
-3.371883437800808
 30
0.0
 10
-25.49387077248596
 20
-3.233143564824633
 30
0.0
 10
-25.7406654479732
 20
-3.093992584893599
 30
0.0
 10
-25.98750000000015
 20
-2.954766404515713
 30
0.0
  0
SPLINE
  5
207
330
1F
100
AcDbEntity
  8
외형선
  6
Continuous
370
    15
100
AcDbSpline
210
0.0
220
0.0
230
1.0
 70
     8
 71
     3
 72
     8
 73
     4
 74
     0
 42
0.000000001
 43
0.00000001
 40
0.0
 40
0.0
 40
0.0
 40
0.0
 40
1.0
 40
1.0
 40
1.0
 40
1.0
 10
-26.98750000000003
 20
-2.436883447322881
 30
0.0
 10
-26.65466900072047
 20
-2.613245293674229
 30
0.0
 10
-26.32060389965414
 20
-2.786253007108566
 30
0.0
 10
-25.98750000000003
 20
-2.954766404515969
 30
0.0
  0
LINE
  5
208
330
1F
100
AcDbEntity
  8
외형선
  6
Continuous
370
    15
100
AcDbLine
 10
-25.98750000000003
 20
-4.329967432191147
 30
0.0
 11
-25.98750000000003
 21
-2.954766404515969
 31
0.0
  0
SPLINE
  5
209
330
1F
100
AcDbEntity
  8
외형선
  6
Continuous
370
    15
100
AcDbSpline
210
0.0
220
0.0
230
1.0
 70
     8
 71
     3
 72
     8
 73
     4
 74
     0
 42
0.000000001
 43
0.00000001
 40
0.0
 40
0.0
 40
0.0
 40
0.0
 40
1.0
 40
1.0
 40
1.0
 40
1.0
 10
-26.98749999999968
 20
-3.902055128664077
 30
0.0
 10
-26.65466900072023
 20
-4.050543207128673
 30
0.0
 10
-26.32060389965402
 20
-4.193495430787241
 30
0.0
 10
-25.98750000000003
 20
-4.329967432191147
 30
0.0
  0
LINE
  5
20A
330
1F
100
AcDbEntity
  8
외형선
  6
Continuous
370
    15
100
AcDbLine
 10
-26.98750000000003
 20
-3.902055128663921
 30
0.0
 11
-26.98750000000002
 21
-2.436883447322881
 31
0.0
  0
SPLINE
  5
20B
330
1F
100
AcDbEntity
  8
외형선
  6
Continuous
370
    15
100
AcDbSpline
210
0.0
220
0.0
230
1.0
 70
     8
 71
     3
 72
     8
 73
     4
 74
     0
 42
0.000000001
 43
0.00000001
 40
0.0
 40
0.0
 40
0.0
 40
0.0
 40
1.0
 40
1.0
 40
1.0
 40
1.0
 10
-25.98750000000003
 20
-4.329967432191147
 30
0.0
 10
-25.73997239929811
 20
-4.457807419720041
 30
0.0
 10
-25.49317441207262
 20
-4.585641712004755
 30
0.0
 10
-25.2469211678731
 20
-4.713134464721811
 30
0.0
  0
SPLINE
  5
20C
330
1F
100
AcDbEntity
  8
외형선
  6
Continuous
370
    15
100
AcDbSpline
210
0.0
220
0.0
230
1.0
 70
     8
 71
     3
 72
    10
 73
     6
 74
     0
 42
0.000000001
 43
0.00000001
 40
0.0
 40
0.0
 40
0.0
 40
0.0
 40
0.5
 40
0.5
 40
1.0
 40
1.0
 40
1.0
 40
1.0
 10
-26.98749999999933
 20
4.594958136395261
 30
0.0
 10
-26.64897328660053
 20
4.538996428609565
 30
0.0
 10
-26.30916988413507
 20
4.47599718594175
 30
0.0
 10
-25.63162952073794
 20
4.336770384812231
 30
0.0
 10
-25.2955734978639
 20
4.260688587226948
 30
0.0
 10
-24.9576443183969
 20
4.178155353463865
 30
0.0
  0
SPLINE
  5
20D
330
1F
100
AcDbEntity
  8
외형선
  6
Continuous
370
    15
100
AcDbSpline
210
0.0
220
0.0
230
1.0
 70
    24
 71
     3
 72
    14
 73
    10
 74
     0
 42
0.000000001
 43
0.00000001
 40
0.0
 40
0.0
 40
0.0
 40
0.0
 40
0.25
 40
0.25
 40
0.5
 40
0.5
 40
0.75
 40
0.75
 40
1.0
 40
1.0
 40
1.0
 40
1.0
 10
-26.98750000000003
 20
-1.541853607859423
 30
0.0
 10
-26.98750000000003
 20
-1.003174793484018
 30
0.0
 10
-26.98750000000003
 20
-0.4371068036677883
 30
0.0
 10
-26.98750000000003
 20
0.7008177488634466
 30
0.0
 10
-26.98750000000003
 20
1.272132378598364
 30
0.0
 10
-26.98750000000003
 20
2.362820756647416
 30
0.0
 10
-26.98750000000002
 20
2.881613340593987
 30
0.0
 10
-26.98750000000002
 20
3.81941192845925
 30
0.0
 10
-26.98750000000002
 20
4.238157087113516
 30
0.0
 10
-26.98750000000002
 20
4.594958136395377
 30
0.0
  0
SPLINE
  5
20E
330
1F
100
AcDbEntity
  8
외형선
  6
Continuous
370
    15
100
AcDbSpline
210
0.0
220
0.0
230
1.0
 70
    24
 71
     3
 72
    11
 73
     7
 74
     0
 42
0.000000001
 43
0.00000001
 40
0.0
 40
0.0
 40
0.0
 40
0.0
 40
0.2994138221920521
 40
0.6362130218132754
 40
0.9316362638781732
 40
1.0
 40
1.0
 40
1.0
 40
1.0
 10
-26.98750000000003
 20
-4.798374886379406
 30
0.0
 10
-26.98750000000003
 20
-4.789833976124918
 30
0.0
 10
-26.98750000000003
 20
-4.771685721370805
 30
0.0
 10
-26.98750000000003
 20
-4.505826461984586
 30
0.0
 10
-26.98750000000003
 20
-4.228615464946415
 30
0.0
 10
-26.98750000000003
 20
-4.009406613339504
 30
0.0
 10
-26.98750000000003
 20
-3.968212351352669
 30
0.0
  0
SPLINE
  5
20F
330
1F
100
AcDbEntity
  8
외형선
  6
Continuous
370
    15
100
AcDbSpline
210
0.0
220
0.0
230
1.0
 70
    24
 71
     3
 72
    10
 73
     6
 74
     0
 42
0.000000001
 43
0.00000001
 40
0.0
 40
0.0
 40
0.0
 40
0.0
 40
0.4705978314355236
 40
0.9411956628710473
 40
1.0
 40
1.0
 40
1.0
 40
1.0
 10
-26.98750000000002
 20
4.594958136395377
 30
0.0
 10
-26.98750000000002
 20
4.647803011917663
 30
0.0
 10
-26.98750000000002
 20
4.753492762962241
 30
0.0
 10
-26.98750000000002
 20
4.819860935331594
 30
0.0
 10
-26.98750000000002
 20
4.800506074872644
 30
0.0
 10
-26.98750000000002
 20
4.798356197507015
 30
0.0
  0
SPLINE
  5
210
330
1F
100
AcDbEntity
  8
0
  6
Continuous
 62
     1
370
    15
100
AcDbSpline
210
0.0
220
0.0
230
1.0
 70
     8
 71
     3
 72
    38
 73
    34
 74
     0
 42
0.000000001
 43
0.00000001
 40
0.0
 40
0.0
 40
0.0
 40
0.0
 40
0.0625
 40
0.0625
 40
0.125
 40
0.125
 40
0.1875
 40
0.1875
 40
0.25
 40
0.25
 40
0.3125
 40
0.3125
 40
0.375
 40
0.375
 40
0.4375
 40
0.4375
 40
0.5
 40
0.5
 40
0.5625
 40
0.5625
 40
0.625
 40
0.625
 40
0.6875
 40
0.6875
 40
0.75
 40
0.75
 40
0.8125
 40
0.8125
 40
0.875
 40
0.875
 40
0.9375
 40
0.9375
 40
1.0
 40
1.0
 40
1.0
 40
1.0
 10
-47.62500000000003
 20
6.146363293061119
 30
0.0
 10
-47.19738354564917
 20
6.136177744479816
 30
0.0
 10
-46.76568402712446
 20
6.110945678214025
 30
0.0
 10
-45.90355141800903
 20
6.030701996894432
 30
0.0
 10
-45.47575347508629
 20
5.975847007598567
 30
0.0
 10
-44.61680222398426
 20
5.837161668167752
 30
0.0
 10
-44.18450813422198
 20
5.753197986816769
 30
0.0
 10
-43.32375863185523
 20
5.557810355662987
 30
0.0
 10
-42.89697754600196
 20
5.446600911070757
 30
0.0
 10
-42.03567408941954
 20
5.197476002306704
 30
0.0
 10
-41.60348353016398
 20
5.05970499545629
 30
0.0
 10
-40.74549285418676
 20
4.760861469610367
 30
0.0
 10
-40.31683849022809
 20
4.599504863676177
 30
0.0
 10
-39.45456150471097
 20
4.254463824468138
 30
0.0
 10
-39.02431848218507
 20
4.071212100150488
 30
0.0
 10
-38.16784185464782
 20
3.686376063942387
 30
0.0
 10
-37.73589339584732
 20
3.483919749070495
 30
0.0
 10
-36.87402676008642
 20
3.063256062005552
 30
0.0
 10
-36.44683162633122
 20
2.845541570742869
 30
0.0
 10
-35.58703990447716
 20
2.396398307246338
 30
0.0
 10
-35.15470365864591
 20
2.164978854084392
 30
0.0
 10
-34.29462905771418
 20
1.693514378744954
 30
0.0
 10
-33.86759388357285
 20
1.453627186705631
 30
0.0
 10
-33.00585768006871
 20
0.966500728841222
 30
0.0
 10
-32.57383197659448
 20
0.7197518930235169
 30
0.0
 10
-31.71692153077335
 20
0.2253119875612377
 30
0.0
 10
-31.2871575349085
 20
-0.0233130709981602
 30
0.0
 10
-30.42485783783888
 20
-0.5197705224033058
 30
0.0
 10
-29.99581884367802
 20
-0.7669268589445899
 30
0.0
 10
-29.13821744533794
 20
-1.256212444894402
 30
0.0
 10
-28.70608125662774
 20
-1.499011909564256
 30
0.0
 10
-27.84460206613056
 20
-1.975573187861571
 30
0.0
 10
-27.41775584728471
 20
-2.208897725455508
 30
0.0
 10
-26.98749999999968
 20
-2.436883447323066
 30
0.0
1001
PE_URL
1000

  0
SPLINE
  5
211
330
1F
100
AcDbEntity
  8
0
  6
Continuous
 62
     1
370
    15
100
AcDbSpline
210
0.0
220
0.0
230
1.0
 70
     8
 71
     3
 72
    10
 73
     6
 74
     0
 42
0.000000001
 43
0.00000001
 40
0.0
 40
0.0
 40
0.0
 40
0.0
 40
0.3216522509984766
 40
0.6607978124485575
 40
1.0
 40
1.0
 40
1.0
 40
1.0
 10
-32.34683622621026
 20
0.5873891721402558
 30
0.0
 10
-31.77220037173218
 20
0.3561657905314846
 30
0.0
 10
-30.59167664023366
 20
-0.1188562380093821
 30
0.0
 10
-28.80530570808685
 20
-0.8429749061433149
 30
0.0
 10
-27.59346895599579
 20
-1.308881076547316
 30
0.0
 10
-26.98750000000003
 20
-1.541853607859419
 30
0.0
1001
PE_URL
1000

  0
SPLINE
  5
212
330
1F
100
AcDbEntity
  8
외형선
  6
Continuous
370
    15
100
AcDbSpline
210
0.0
220
0.0
230
1.0
 70
    24
 71
     3
 72
    10
 73
     6
 74
     0
 42
0.000000001
 43
0.00000001
 40
0.0
 40
0.0
 40
0.0
 40
0.0
 40
0.5
 40
0.5
 40
1.0
 40
1.0
 40
1.0
 40
1.0
 10
-26.98750000000003
 20
-2.436883447322881
 30
0.0
 10
-26.98750000000003
 20
-2.400174285211516
 30
0.0
 10
-26.98750000000003
 20
-2.298957813174145
 30
0.0
 10
-26.98750000000003
 20
-1.986259292268301
 30
0.0
 10
-26.98750000000003
 20
-1.776027618344926
 30
0.0
 10
-26.98750000000003
 20
-1.541853607859423
 30
0.0
  0
SPLINE
  5
213
330
1F
100
AcDbEntity
  8
0
  6
Continuous
 62
     1
370
    15
100
AcDbSpline
210
0.0
220
0.0
230
1.0
 70
     8
 71
     3
 72
    38
 73
    34
 74
     0
 42
0.000000001
 43
0.00000001
 40
0.0
 40
0.0
 40
0.0
 40
0.0
 40
0.0624999999999999
 40
0.0624999999999999
 40
0.1249999999999999
 40
0.1249999999999999
 40
0.1874999999999998
 40
0.1874999999999998
 40
0.2499999999999998
 40
0.2499999999999998
 40
0.3124999999999997
 40
0.3124999999999997
 40
0.3749999999999997
 40
0.3749999999999997
 40
0.4374999999999996
 40
0.4374999999999996
 40
0.4999999999999996
 40
0.4999999999999996
 40
0.5624999999999996
 40
0.5624999999999996
 40
0.6249999999999994
 40
0.6249999999999994
 40
0.6874999999999993
 40
0.6874999999999993
 40
0.7499999999999994
 40
0.7499999999999994
 40
0.8124999999999996
 40
0.8124999999999996
 40
0.8749999999999998
 40
0.8749999999999998
 40
0.9374999999999999
 40
0.9374999999999999
 40
1.0
 40
1.0
 40
1.0
 40
1.0
 10
-47.62500000000003
 20
5.837469065884376
 30
0.0
 10
-47.19738354564909
 20
5.759302430332175
 30
0.0
 10
-46.76568402712429
 20
5.666628026995019
 30
0.0
 10
-45.9035514180087
 20
5.454069672015946
 30
0.0
 10
-45.4757534750859
 20
5.334472403486973
 30
0.0
 10
-44.61680222398368
 20
5.069573494057554
 30
0.0
 10
-44.1845081342213
 20
4.924091421502952
 30
0.0
 10
-43.32375863185437
 20
4.610200533089246
 30
0.0
 10
-42.89697754600104
 20
4.44206987658419
 30
0.0
 10
-42.03567408941845
 20
4.083941740565113
 30
0.0
 10
-41.60348353016278
 20
3.894204034151478
 30
0.0
 10
-40.74549285418543
 20
3.49761455198148
 30
0.0
 10
-40.31683849022664
 20
3.290358884179637
 30
0.0
 10
-39.45456150470937
 20
2.859969636554816
 30
0.0
 10
-39.0243184821834
 20
2.637387938615904
 30
0.0
 10
-38.16784185464596
 20
2.181176234062757
 30
0.0
 10
-37.73589339584538
 20
1.946522476921075
 30
0.0
 10
-36.87402676008433
 20
1.469196335367755
 30
0.0
 10
-36.44683162632906
 20
1.227054969314477
 30
0.0
 10
-35.5870399044748
 20
0.7369618205675614
 30
0.0
 10
-35.15470365864346
 20
0.4890466757134639
 30
0.0
 10
-34.29462905771157
 20
-0.0070863567367923
 30
0.0
 10
-33.86759388357016
 20
-0.2551642683724431
 30
0.0
 10
-33.00585768006584
 20
-0.7503358020615742
 30
0.0
 10
-32.57383197659153
 20
-0.996905626775419
 30
0.0
 10
-31.71692153077027
 20
-1.482635175142043
 30
0.0
 10
-31.28715753490529
 20
-1.722722760499568
 30
0.0
 10
-30.42485783783551
 20
-2.193812557512576
 30
0.0
 10
-29.99581884367459
 20
-2.424177107815606
 30
0.0
 10
-29.13821744533431
 20
-2.871904469598963
 30
0.0
 10
-28.70608125662401
 20
-3.089866224603121
 30
0.0
 10
-27.84460206612668
 20
-3.509144039673238
 30
0.0
 10
-27.41775584728077
 20
-3.710102263248249
 30
0.0
 10
-26.98749999999563
 20
-3.902055128665886
 30
0.0
1001
PE_URL
1000

  0
SPLINE
  5
214
330
1F
100
AcDbEntity
  8
0
  6
Continuous
 62
     1
370
    15
100
AcDbSpline
210
0.0
220
0.0
230
1.0
 70
     8
 71
     3
 72
    16
 73
    12
 74
     0
 42
0.000000001
 43
0.00000001
 40
0.0
 40
0.0
 40
0.0
 40
0.0
 40
0.1184174907333676
 40
0.2367696087016212
 40
0.3550852041323015
 40
0.4733933077424167
 40
0.5917229873233965
 40
0.7101032039415336
 40
0.8285406037365481
 40
0.9469228236861151
 40
1.0
 40
1.0
 40
1.0
 40
1.0
 10
-47.62500000000003
 20
4.853412195027621
 30
0.0
 10
-46.99494283169668
 20
4.723705724392717
 30
0.0
 10
-45.73517632022136
 20
4.464364388006494
 30
0.0
 10
-43.8461093659002
 20
3.894488091310373
 30
0.0
 10
-41.9576949817247
 20
3.21352922237285
 30
0.0
 10
-40.0694228081498
 20
2.428868578407105
 30
0.0
 10
-38.18075157529383
 20
1.569005695384639
 30
0.0
 10
-36.29128346285282
 20
0.6588502605125584
 30
0.0
 10
-34.40130812495607
 20
-0.2686925398365752
 30
0.0
 10
-32.85897181857884
 20
-1.027990183911779
 30
0.0
 10
-31.9468205990879
 20
-1.449979981285676
 30
0.0
 10
-31.66445397377064
 20
-1.580611648992353
 30
0.0
1001
PE_URL
1000

  0
LINE
  5
215
330
1F
100
AcDbEntity
  8
0
  6
Continuous
 62
     1
370
    15
100
AcDbLine
 10
-47.62500000000003
 20
5.837469065884376
 30
0.0
 11
-47.62500000000003
 21
4.853412195027621
 31
0.0
1001
PE_URL
1000

  0
LINE
  5
216
330
1F
100
AcDbEntity
  8
0
  6
Continuous
 62
     1
370
    15
100
AcDbLine
 10
-47.62500000000003
 20
6.146363293061119
 30
0.0
 11
-47.62500000000003
 21
5.837469065884376
 31
0.0
1001
PE_URL
1000

  0
SPLINE
  5
217
330
1F
100
AcDbEntity
  8
0
  6
Continuous
 62
     1
370
    15
100
AcDbSpline
210
0.0
220
0.0
230
1.0
 70
     8
 71
     3
 72
     8
 73
     4
 74
     0
 42
0.000000001
 43
0.00000001
 40
0.0
 40
0.0
 40
0.0
 40
0.0
 40
1.0
 40
1.0
 40
1.0
 40
1.0
 10
-43.81888718889585
 20
-1.720516540875749
 30
0.0
 10
-43.60065985138826
 20
-1.979015402703151
 30
0.0
 10
-43.40539754046222
 20
-2.228304421208762
 30
0.0
 10
-43.23895586415607
 20
-2.466035276333155
 30
0.0
1001
PE_URL
1000

  0
LINE
  5
218
330
1F
100
AcDbEntity
  8
0
  6
Continuous
 62
     1
370
    15
100
AcDbLine
 10
-43.31673152613608
 20
-2.531296805629133
 30
0.0
 11
-47.62500000000004
 21
0.0000000000000178
 31
0.0
1001
PE_URL
1000

  0
LINE
  5
219
330
1F
100
AcDbEntity
  8
0
  6
Continuous
 62
     1
370
    15
100
AcDbLine
 10
-47.62500000000004
 20
0.0000000000000178
 30
0.0
 11
-47.62500000000003
 21
1.643961685185506
 31
0.0
1001
PE_URL
1000

  0
SPLINE
  5
21A
330
1F
100
AcDbEntity
  8
0
  6
Continuous
 62
     1
370
    15
100
AcDbSpline
210
0.0
220
0.0
230
1.0
 70
     8
 71
     3
 72
    12
 73
     8
 74
     0
 42
0.000000001
 43
0.00000001
 40
0.0
 40
0.0
 40
0.0
 40
0.0
 40
0.5000000000000008
 40
0.5000000000000008
 40
0.7500000000000003
 40
0.7500000000000003
 40
1.0
 40
1.0
 40
1.0
 40
1.0
 10
-47.62500000000003
 20
1.643961685185502
 30
0.0
 10
-46.96615048288255
 20
1.125995760681324
 30
0.0
 10
-46.31830588112611
 20
0.5867946382939735
 30
0.0
 10
-45.363475616751
 20
-0.2546881566921435
 30
0.0
 10
-45.04806708150048
 20
-0.5407169676182519
 30
0.0
 10
-44.42369202621133
 20
-1.125205168289401
 30
0.0
 10
-44.11642336865169
 20
-1.422156391802236
 30
0.0
 10
-43.81888718889584
 20
-1.720516540875757
 30
0.0
1001
PE_URL
1000

  0
SPLINE
  5
21B
330
1F
100
AcDbEntity
  8
0
  6
Continuous
 62
     1
370
    15
100
AcDbSpline
210
0.0
220
0.0
230
1.0
 70
     8
 71
     3
 72
    15
 73
    11
 74
     0
 42
0.000000001
 43
0.00000001
 40
0.0
 40
0.0
 40
0.0
 40
0.0
 40
0.1313823965033641
 40
0.2646628148248059
 40
0.3979678767946953
 40
0.5313306631084801
 40
0.6647587755580076
 40
0.7981238666689839
 40
0.9314302163283176
 40
1.0
 40
1.0
 40
1.0
 40
1.0
 10
-43.81888718889584
 20
-1.720516540875749
 30
0.0
 10
-43.1984714978095
 20
-1.983993050852035
 30
0.0
 10
-41.94867725189481
 20
-2.5147523962926
 30
0.0
 10
-40.06939669259322
 20
-3.220906523884295
 30
0.0
 10
-38.18071700680734
 20
-3.833494391592598
 30
0.0
 10
-36.29124215517064
 20
-4.324379688613998
 30
0.0
 10
-34.40127062756243
 20
-4.681807693899085
 30
0.0
 10
-32.51178028559136
 20
-4.885114975590646
 30
0.0
 10
-30.92864060351829
 20
-4.950225094942141
 30
0.0
 10
-29.975375711213
 20
-4.890657880654949
 30
0.0
 10
-29.65158722582526
 20
-4.870425122427406
 30
0.0
1001
PE_URL
1000

  0
SPLINE
  5
21C
330
1F
100
AcDbEntity
  8
0
  6
Continuous
 62
     1
370
    15
100
AcDbSpline
210
0.0
220
0.0
230
1.0
 70
    24
 71
     3
 72
    10
 73
     6
 74
     0
 42
0.000000001
 43
0.00000001
 40
0.0
 40
0.0
 40
0.0
 40
0.0
 40
0.4999999999999999
 40
0.4999999999999999
 40
1.0
 40
1.0
 40
1.0
 40
1.0
 10
-47.62500000000003
 20
4.853412195027621
 30
0.0
 10
-47.62500000000003
 20
4.481360310168737
 30
0.0
 10
-47.62500000000003
 20
4.011258487718406
 30
0.0
 10
-47.62500000000001
 20
2.91831699277537
 30
0.0
 10
-47.62500000000004
 20
2.296424067645338
 30
0.0
 10
-47.62500000000003
 20
1.643961685185701
 30
0.0
1001
PE_URL
1000

  0
SPLINE
  5
21D
330
1F
100
AcDbEntity
  8
외형선
  6
Continuous
370
    15
100
AcDbSpline
210
0.0
220
0.0
230
1.0
 70
    24
 71
     3
 72
    11
 73
     7
 74
     0
 42
0.000000001
 43
0.00000001
 40
0.0
 40
0.0
 40
0.0
 40
0.0
 40
0.3011120039749203
 40
0.6370948211389982
 40
0.9318019737579402
 40
1.0
 40
1.0
 40
1.0
 40
1.0
 10
-26.98750000000003
 20
-4.798876528752494
 30
0.0
 10
-26.98750000000003
 20
-4.790314431574114
 30
0.0
 10
-26.98750000000003
 20
-4.772198688267878
 30
0.0
 10
-26.98750000000003
 20
-4.50587203639672
 30
0.0
 10
-26.98750000000003
 20
-4.228613505524972
 30
0.0
 10
-26.98750000000003
 20
-4.009406303370401
 30
0.0
 10
-26.98750000000003
 20
-3.968212351352669
 30
0.0
  0
SPLINE
  5
21E
330
1F
100
AcDbEntity
  8
0
  6
Continuous
 62
     1
370
    15
100
AcDbSpline
210
0.0
220
0.0
230
1.0
 70
    24
 71
     3
 72
     8
 73
     4
 74
     0
 42
0.000000001
 43
0.00000001
 40
0.0
 40
0.0
 40
0.0
 40
0.0
 40
1.0
 40
1.0
 40
1.0
 40
1.0
 10
-43.88058448166838
 20
-3.004425612654511
 30
0.0
 10
-43.67856801103861
 20
-2.834913666657339
 30
0.0
 10
-43.46329047869454
 20
-2.654274368666663
 30
0.0
 10
-43.2389558641499
 20
-2.466035276341959
 30
0.0
1001
PE_URL
1000

  0
SPLINE
  5
21F
330
1F
100
AcDbEntity
  8
0
  6
Continuous
 62
     1
370
    15
100
AcDbSpline
210
0.0
220
0.0
230
1.0
 70
     8
 71
     3
 72
     9
 73
     5
 74
     0
 42
0.000000001
 43
0.00000001
 40
0.0
 40
0.0
 40
0.0
 40
0.0
 40
0.8257452547690571
 40
1.0
 40
1.0
 40
1.0
 40
1.0
 10
-47.62500000000004
 20
-4.306093749999981
 30
0.0
 10
-46.99493703958704
 20
-4.301888155178592
 30
0.0
 10
-46.23191362919009
 20
-4.296795065273326
 30
0.0
 10
-45.4689580558283
 20
-4.211172075981505
 30
0.0
 10
-45.33600942676961
 20
-4.196251863796547
 30
0.0
1001
PE_URL
1000

  0
SPLINE
  5
220
330
1F
100
AcDbEntity
  8
0
  6
Continuous
 62
     1
370
    15
100
AcDbSpline
210
0.0
220
0.0
230
1.0
 70
     8
 71
     3
 72
    10
 73
     6
 74
     0
 42
0.000000001
 43
0.00000001
 40
0.0
 40
0.0
 40
0.0
 40
0.0
 40
0.5
 40
0.5
 40
1.0
 40
1.0
 40
1.0
 40
1.0
 10
-47.62500000000004
 20
-4.306093749999985
 30
0.0
 10
-46.99207797344786
 20
-4.13443622182643
 30
0.0
 10
-46.36302973117551
 20
-3.94171420095671
 30
0.0
 10
-45.11336387799491
 20
-3.510426880406214
 30
0.0
 10
-44.49315712814809
 20
-3.272528553984593
 30
0.0
 10
-43.88058448166745
 20
-3.004425612655389
 30
0.0
1001
PE_URL
1000

  0
SPLINE
  5
221
330
1F
100
AcDbEntity
  8
0
  6
Continuous
 62
     1
370
    15
100
AcDbSpline
210
0.0
220
0.0
230
1.0
 70
     8
 71
     3
 72
    12
 73
     8
 74
     0
 42
0.000000001
 43
0.00000001
 40
0.0
 40
0.0
 40
0.0
 40
0.0
 40
0.0255091520802657
 40
0.2738630983567156
 40
0.5221076556528561
 40
0.7610344015029925
 40
1.0
 40
1.0
 40
1.0
 40
1.0
 10
-34.59509643076357
 20
4.619812770494203
 30
0.0
 10
-34.530400367091
 20
4.63213688339807
 30
0.0
 10
-33.8358314377474
 20
4.764447033642632
 30
0.0
 10
-32.51178337288002
 20
4.881017192458364
 30
0.0
 10
-30.64656045698975
 20
4.945544062146027
 30
0.0
 10
-28.80531614679471
 20
4.856358626804733
 30
0.0
 10
-27.59347155658603
 20
4.682096355705951
 30
0.0
 10
-26.98750000000002
 20
4.594958136395373
 30
0.0
1001
PE_URL
1000

  0
SPLINE
  5
222
330
1F
100
AcDbEntity
  8
외형선
  6
Continuous
370
    15
100
AcDbSpline
210
0.0
220
0.0
230
1.0
 70
    24
 71
     3
 72
    14
 73
    10
 74
     0
 42
0.000000001
 43
0.00000001
 40
0.0
 40
0.0
 40
0.0
 40
0.0
 40
0.25
 40
0.25
 40
0.5
 40
0.5
 40
0.75
 40
0.75
 40
1.0
 40
1.0
 40
1.0
 40
1.0
 10
-26.98750000000003
 20
-1.541853607859423
 30
0.0
 10
-26.98750000000003
 20
-1.003174793484018
 30
0.0
 10
-26.98750000000003
 20
-0.4371068036677883
 30
0.0
 10
-26.98750000000003
 20
0.7008177488634466
 30
0.0
 10
-26.98750000000003
 20
1.272132378598364
 30
0.0
 10
-26.98750000000003
 20
2.362820756647416
 30
0.0
 10
-26.98750000000002
 20
2.881613340593987
 30
0.0
 10
-26.98750000000002
 20
3.81941192845925
 30
0.0
 10
-26.98750000000002
 20
4.238157087113516
 30
0.0
 10
-26.98750000000002
 20
4.594958136395377
 30
0.0
  0
LINE
  5
223
330
1F
100
AcDbEntity
  8
0
  6
Continuous
 62
     1
370
    15
100
AcDbLine
 10
-47.62500000000004
 20
0.0000000000000178
 30
0.0
 11
-47.62500000000004
 21
-4.306093749999981
 31
0.0
1001
PE_URL
1000

  0
SPLINE
  5
224
330
1F
100
AcDbEntity
  8
외형선
  6
Continuous
370
    15
100
AcDbSpline
210
0.0
220
0.0
230
1.0
 70
    24
 71
     3
 72
    10
 73
     6
 74
     0
 42
0.000000001
 43
0.00000001
 40
0.0
 40
0.0
 40
0.0
 40
0.0
 40
0.4731034702715142
 40
0.9462069405430283
 40
1.0
 40
1.0
 40
1.0
 40
1.0
 10
-26.98750000000002
 20
4.594958136395377
 30
0.0
 10
-26.98750000000002
 20
4.647762169329487
 30
0.0
 10
-26.98750000000002
 20
4.753370235197712
 30
0.0
 10
-26.98750000000001
 20
4.819818555511651
 30
0.0
 10
-26.98750000000002
 20
4.800816525114723
 30
0.0
 10
-26.98750000000002
 20
4.798876528752492
 30
0.0
  0
SPLINE
  5
225
330
1F
100
AcDbEntity
  8
0
  6
Continuous
 62
     1
370
    15
100
AcDbSpline
210
0.0
220
0.0
230
1.0
 70
     8
 71
     3
 72
    12
 73
     8
 74
     0
 42
0.000000001
 43
0.00000001
 40
0.0
 40
0.0
 40
0.0
 40
0.0
 40
0.1395184924404594
 40
0.3545893329280863
 40
0.5696307574550808
 40
0.7847365411403359
 40
1.0
 40
1.0
 40
1.0
 40
1.0
 10
-39.18352317638006
 20
-4.121963358354165
 30
0.0
 10
-39.5761357977733
 20
-4.290321662716991
 30
0.0
 10
-40.57396945468721
 20
-4.718208015218938
 30
0.0
 10
-42.17666578101609
 20
-5.259291588192088
 30
0.0
 10
-43.99203569108558
 20
-5.734460607641186
 30
0.0
 10
-45.80801433946612
 20
-6.051405708144227
 30
0.0
 10
-47.01919019957631
 20
-6.114703034635983
 30
0.0
 10
-47.62500000000004
 20
-6.146363293061082
 30
0.0
1001
PE_URL
1000

  0
SPLINE
  5
226
330
1F
100
AcDbEntity
  8
0
  6
Continuous
 62
     1
370
    15
100
AcDbSpline
210
0.0
220
0.0
230
1.0
 70
    24
 71
     3
 72
    10
 73
     6
 74
     0
 42
0.000000001
 43
0.00000001
 40
0.0
 40
0.0
 40
0.0
 40
0.0
 40
0.5
 40
0.5
 40
1.0
 40
1.0
 40
1.0
 40
1.0
 10
-47.62500000000004
 20
-4.306093749999981
 30
0.0
 10
-47.62500000000004
 20
-4.567118429766222
 30
0.0
 10
-47.62500000000004
 20
-4.870453281140353
 30
0.0
 10
-47.62500000000004
 20
-5.506848982348242
 30
0.0
 10
-47.62500000000004
 20
-5.838284557422472
 30
0.0
 10
-47.62500000000004
 20
-6.146363293061082
 30
0.0
1001
PE_URL
1000

  0
LINE
  5
22E
330
1F
100
AcDbEntity
  8
외형선
  6
Continuous
370
    15
100
AcDbLine
 10
-7.111999999999938
 20
6.349999999999993
 30
0.0
 11
-24.95760440548095
 21
6.349999999999992
 31
0.0
  0
ENDSEC
  0
SECTION
  2
OBJECTS
  0
DICTIONARY
  5
C
330
0
100
AcDbDictionary
281
     1
  3
ACAD_DETAILVIEWSTYLE
350
22C
  3
ACAD_GROUP
350
D
  3
ACAD_LAYOUT
350
1A
  3
ACAD_MLINESTYLE
350
17
  3
ACAD_PLOTSETTINGS
350
19
  3
ACAD_PLOTSTYLENAME
350
E
  3
ACAD_SCALELIST
350
47
  3
ACAD_SECTIONVIEWSTYLE
350
22D
  3
AcDbVariableDictionary
350
227
  3
APPDATA
350
158
  3
DWGPROPS
350
230
  0
DICTIONARY
  5
195
330
2
100
AcDbDictionary
280
     1
281
     1
  3
ACAD_LAYERSTATES
360
196
  0
DICTIONARY
  5
22C
102
{ACAD_REACTORS
330
C
102
}
330
C
100
AcDbDictionary
281
     1
  0
DICTIONARY
  5
D
102
{ACAD_REACTORS
330
C
102
}
330
C
100
AcDbDictionary
281
     1
  0
DICTIONARY
  5
1A
102
{ACAD_REACTORS
330
C
102
}
330
C
100
AcDbDictionary
281
     1
  3
Layout1
350
1E
  3
Layout2
350
26
  3
Model
350
22
  0
DICTIONARY
  5
17
102
{ACAD_REACTORS
330
C
102
}
330
C
100
AcDbDictionary
281
     1
  3
Standard
350
18
  0
DICTIONARY
  5
19
102
{ACAD_REACTORS
330
C
102
}
330
C
100
AcDbDictionary
281
     1
  0
ACDBDICTIONARYWDFLT
  5
E
102
{ACAD_REACTORS
330
C
102
}
330
C
100
AcDbDictionary
281
     1
  3
Normal
350
F
100
AcDbDictionaryWithDefault
340
F
  0
DICTIONARY
  5
47
102
{ACAD_REACTORS
330
C
102
}
330
C
100
AcDbDictionary
281
     1
  3
A0
350
48
  3
A1
350
49
  3
A2
350
4A
  3
A3
350
4B
  3
A4
350
4C
  3
A5
350
4D
  3
A6
350
4E
  3
A7
350
4F
  3
A8
350
50
  3
A9
350
51
  3
B0
350
52
  3
B1
350
53
  3
B2
350
54
  3
B3
350
55
  3
B4
350
56
  3
B5
350
57
  3
B6
350
58
  3
B7
350
59
  3
B8
350
5A
  3
B9
350
5B
  3
C0
350
5C
  3
C1
350
5D
  3
C2
350
5E
  3
C3
350
5F
  3
C4
350
60
  3
C5
350
61
  3
C6
350
62
  3
C7
350
63
  3
C8
350
64
  3
C9
350
65
  3
D0
350
66
  3
D1
350
67
  3
D2
350
68
  0
DICTIONARY
  5
22D
102
{ACAD_REACTORS
330
C
102
}
330
C
100
AcDbDictionary
281
     1
  0
DICTIONARY
  5
227
102
{ACAD_REACTORS
330
C
102
}
330
C
100
AcDbDictionary
281
     1
  0
DICTIONARY
  5
158
102
{ACAD_REACTORS
330
C
102
}
330
C
100
AcDbDictionary
281
     1
  0
XRECORD
  5
230
102
{ACAD_REACTORS
330
C
102
}
330
C
100
AcDbXrecord
280
     1
  1
DWGPROPS COOKIE
  2

  3

  4

  6

  7

  8
120170442
  9

300
=
301
=
302
=
303
=
304
=
305
=
306
=
307
=
308
=
309
=
 40
0.0
 41
2458313.023641343
 42
2458324.062166956
  1

 90
        0
  0
DICTIONARY
  5
196
102
{ACAD_REACTORS
330
195
102
}
330
195
100
AcDbDictionary
281
     1
  0
LAYOUT
  5
1E
102
{ACAD_REACTORS
330
1A
102
}
330
1A
100
AcDbPlotSettings
  1

  2
none_device
  4

  6

 40
0.0
 41
0.0
 42
0.0
 43
0.0
 44
0.0
 45
0.0
 46
0.0
 47
0.0
 48
0.0
 49
0.0
140
0.0
141
0.0
142
1.0
143
1.0
 70
   688
 72
     1
 73
     0
 74
     5
  7

 75
    16
147
1.0
148
0.0
149
0.0
100
AcDbLayout
  1
Layout1
 70
     1
 71
     1
 10
0.0
 20
0.0
 11
420.0
 21
297.0
 12
0.0
 22
0.0
 32
0.0
 14
1.000000000000000E+20
 24
1.000000000000000E+20
 34
1.000000000000000E+20
 15
-1.000000000000000E+20
 25
-1.000000000000000E+20
 35
-1.000000000000000E+20
146
0.0
 13
0.0
 23
0.0
 33
0.0
 16
1.0
 26
0.0
 36
0.0
 17
0.0
 27
1.0
 37
0.0
 76
     0
330
1B
  0
LAYOUT
  5
26
102
{ACAD_REACTORS
330
1A
102
}
330
1A
100
AcDbPlotSettings
  1

  2
none_device
  4

  6

 40
0.0
 41
0.0
 42
0.0
 43
0.0
 44
0.0
 45
0.0
 46
0.0
 47
0.0
 48
0.0
 49
0.0
140
0.0
141
0.0
142
1.0
143
1.0
 70
   688
 72
     1
 73
     0
 74
     5
  7

 75
    16
147
1.0
148
0.0
149
0.0
100
AcDbLayout
  1
Layout2
 70
     1
 71
     2
 10
0.0
 20
0.0
 11
0.0
 21
0.0
 12
0.0
 22
0.0
 32
0.0
 14
0.0
 24
0.0
 34
0.0
 15
0.0
 25
0.0
 35
0.0
146
0.0
 13
0.0
 23
0.0
 33
0.0
 16
1.0
 26
0.0
 36
0.0
 17
0.0
 27
1.0
 37
0.0
 76
     0
330
23
  0
LAYOUT
  5
22
102
{ACAD_REACTORS
330
1A
102
}
330
1A
100
AcDbPlotSettings
  1

  2
none_device
  4
ANSI_A_(11.00_x_8.50_Inches)
  6

 40
6.35
 41
19.05
 42
6.35000508
 43
19.05000254
 44
279.4
 45
215.9
 46
69.6453324306941
 47
40.17967889821733
 48
0.0
 49
0.0
140
0.0
141
0.0
142
0.0335920848724483
143
1.0
 70
  1696
 72
     0
 73
     0
 74
     0
  7

 75
     0
147
0.0235690232323232
148
0.0
149
0.0
100
AcDbLayout
  1
Model
 70
     1
 71
     0
 10
0.0
 20
0.0
 11
420.0
 21
297.0
 12
0.0
 22
0.0
 32
0.0
 14
-62.00000000000009
 24
-49.97180738881175
 34
0.0
 15
97.79412503295505
 25
45.12536329306117
 35
0.0
146
0.0
 13
0.0
 23
0.0
 33
0.0
 16
1.0
 26
0.0
 36
0.0
 17
0.0
 27
1.0
 37
0.0
 76
     0
330
1F
331
29
  0
MLINESTYLE
  5
18
102
{ACAD_REACTORS
330
17
102
}
330
17
100
AcDbMlineStyle
  2
Standard
 70
     0
  3

 62
   256
 51
90.0
 52
90.0
 71
     2
 49
0.5
 62
   256
  6
BYLAYER
 49
-0.5
 62
   256
  6
BYLAYER
  0
ACDBPLACEHOLDER
  5
F
102
{ACAD_REACTORS
330
E
102
}
330
E
  0
SCALE
  5
48
102
{ACAD_REACTORS
330
47
102
}
330
47
100
AcDbScale
 70
     0
300
1:1
140
1.0
141
1.0
290
     1
  0
SCALE
  5
49
102
{ACAD_REACTORS
330
47
102
}
330
47
100
AcDbScale
 70
     0
300
1:2
140
1.0
141
2.0
290
     0
  0
SCALE
  5
4A
102
{ACAD_REACTORS
330
47
102
}
330
47
100
AcDbScale
 70
     0
300
1:4
140
1.0
141
4.0
290
     0
  0
SCALE
  5
4B
102
{ACAD_REACTORS
330
47
102
}
330
47
100
AcDbScale
 70
     0
300
1:5
140
1.0
141
5.0
290
     0
  0
SCALE
  5
4C
102
{ACAD_REACTORS
330
47
102
}
330
47
100
AcDbScale
 70
     0
300
1:8
140
1.0
141
8.0
290
     0
  0
SCALE
  5
4D
102
{ACAD_REACTORS
330
47
102
}
330
47
100
AcDbScale
 70
     0
300
1:10
140
1.0
141
10.0
290
     0
  0
SCALE
  5
4E
102
{ACAD_REACTORS
330
47
102
}
330
47
100
AcDbScale
 70
     0
300
1:16
140
1.0
141
16.0
290
     0
  0
SCALE
  5
4F
102
{ACAD_REACTORS
330
47
102
}
330
47
100
AcDbScale
 70
     0
300
1:20
140
1.0
141
20.0
290
     0
  0
SCALE
  5
50
102
{ACAD_REACTORS
330
47
102
}
330
47
100
AcDbScale
 70
     0
300
1:30
140
1.0
141
30.0
290
     0
  0
SCALE
  5
51
102
{ACAD_REACTORS
330
47
102
}
330
47
100
AcDbScale
 70
     0
300
1:40
140
1.0
141
40.0
290
     0
  0
SCALE
  5
52
102
{ACAD_REACTORS
330
47
102
}
330
47
100
AcDbScale
 70
     0
300
1:50
140
1.0
141
50.0
290
     0
  0
SCALE
  5
53
102
{ACAD_REACTORS
330
47
102
}
330
47
100
AcDbScale
 70
     0
300
1:100
140
1.0
141
100.0
290
     0
  0
SCALE
  5
54
102
{ACAD_REACTORS
330
47
102
}
330
47
100
AcDbScale
 70
     0
300
2:1
140
2.0
141
1.0
290
     0
  0
SCALE
  5
55
102
{ACAD_REACTORS
330
47
102
}
330
47
100
AcDbScale
 70
     0
300
4:1
140
4.0
141
1.0
290
     0
  0
SCALE
  5
56
102
{ACAD_REACTORS
330
47
102
}
330
47
100
AcDbScale
 70
     0
300
8:1
140
8.0
141
1.0
290
     0
  0
SCALE
  5
57
102
{ACAD_REACTORS
330
47
102
}
330
47
100
AcDbScale
 70
     0
300
10:1
140
10.0
141
1.0
290
     0
  0
SCALE
  5
58
102
{ACAD_REACTORS
330
47
102
}
330
47
100
AcDbScale
 70
     0
300
100:1
140
100.0
141
1.0
290
     0
  0
SCALE
  5
59
102
{ACAD_REACTORS
330
47
102
}
330
47
100
AcDbScale
 70
     0
300
1/128" = 1'-0"
140
0.0078125
141
12.0
290
     0
  0
SCALE
  5
5A
102
{ACAD_REACTORS
330
47
102
}
330
47
100
AcDbScale
 70
     0
300
1/64" = 1'-0"
140
0.015625
141
12.0
290
     0
  0
SCALE
  5
5B
102
{ACAD_REACTORS
330
47
102
}
330
47
100
AcDbScale
 70
     0
300
1/32" = 1'-0"
140
0.03125
141
12.0
290
     0
  0
SCALE
  5
5C
102
{ACAD_REACTORS
330
47
102
}
330
47
100
AcDbScale
 70
     0
300
1/16" = 1'-0"
140
0.0625
141
12.0
290
     0
  0
SCALE
  5
5D
102
{ACAD_REACTORS
330
47
102
}
330
47
100
AcDbScale
 70
     0
300
3/32" = 1'-0"
140
0.09375
141
12.0
290
     0
  0
SCALE
  5
5E
102
{ACAD_REACTORS
330
47
102
}
330
47
100
AcDbScale
 70
     0
300
1/8" = 1'-0"
140
0.125
141
12.0
290
     0
  0
SCALE
  5
5F
102
{ACAD_REACTORS
330
47
102
}
330
47
100
AcDbScale
 70
     0
300
3/16" = 1'-0"
140
0.1875
141
12.0
290
     0
  0
SCALE
  5
60
102
{ACAD_REACTORS
330
47
102
}
330
47
100
AcDbScale
 70
     0
300
1/4" = 1'-0"
140
0.25
141
12.0
290
     0
  0
SCALE
  5
61
102
{ACAD_REACTORS
330
47
102
}
330
47
100
AcDbScale
 70
     0
300
3/8" = 1'-0"
140
0.375
141
12.0
290
     0
  0
SCALE
  5
62
102
{ACAD_REACTORS
330
47
102
}
330
47
100
AcDbScale
 70
     0
300
1/2" = 1'-0"
140
0.5
141
12.0
290
     0
  0
SCALE
  5
63
102
{ACAD_REACTORS
330
47
102
}
330
47
100
AcDbScale
 70
     0
300
3/4" = 1'-0"
140
0.75
141
12.0
290
     0
  0
SCALE
  5
64
102
{ACAD_REACTORS
330
47
102
}
330
47
100
AcDbScale
 70
     0
300
1" = 1'-0"
140
1.0
141
12.0
290
     0
  0
SCALE
  5
65
102
{ACAD_REACTORS
330
47
102
}
330
47
100
AcDbScale
 70
     0
300
1-1/2" = 1'-0"
140
1.5
141
12.0
290
     0
  0
SCALE
  5
66
102
{ACAD_REACTORS
330
47
102
}
330
47
100
AcDbScale
 70
     0
300
3" = 1'-0"
140
3.0
141
12.0
290
     0
  0
SCALE
  5
67
102
{ACAD_REACTORS
330
47
102
}
330
47
100
AcDbScale
 70
     0
300
6" = 1'-0"
140
6.0
141
12.0
290
     0
  0
SCALE
  5
68
102
{ACAD_REACTORS
330
47
102
}
330
47
100
AcDbScale
 70
     0
300
1'-0" = 1'-0"
140
12.0
141
12.0
290
     0
  0
ENDSEC
  0
EOF
