  0
SECTION
  2
HEADER
  9
$ACADVER
  1
AC1015
  9
$ACADMAINTVER
 70
     6
  9
$DWGCODEPAGE
  3
ANSI_949
  9
$INSBASE
 10
0.0
 20
0.0
 30
0.0
  9
$EXTMIN
 10
-62.00000000000009
 20
-49.97180738881175
 30
0.0
  9
$EXTMAX
 10
97.79412503295505
 20
43.61459350941404
 30
0.0
  9
$LIMMIN
 10
0.0
 20
0.0
  9
$LIMMAX
 10
420.0
 20
297.0
  9
$ORTHOMODE
 70
     1
  9
$REGENMODE
 70
     1
  9
$FILLMODE
 70
     1
  9
$QTEXTMODE
 70
     0
  9
$MIRRTEXT
 70
     1
  9
$LTSCALE
 40
1.0
  9
$ATTMODE
 70
     1
  9
$TEXTSIZE
 40
3.5
  9
$TRACEWID
 40
1.0
  9
$TEXTSTYLE
  7
Standard
  9
$CLAYER
  8
0
  9
$CELTYPE
  6
ByLayer
  9
$CECOLOR
 62
   256
  9
$CELTSCALE
 40
1.0
  9
$DISPSILH
 70
     0
  9
$DIMSCALE
 40
1.0
  9
$DIMASZ
 40
3.302
  9
$DIMEXO
 40
1.0
  9
$DIMDLI
 40
3.75
  9
$DIMRND
 40
0.0
  9
$DIMDLE
 40
0.0
  9
$DIMEXE
 40
1.0
  9
$DIMTP
 40
0.0
  9
$DIMTM
 40
0.0
  9
$DIMTXT
 40
3.5
  9
$DIMCEN
 40
2.5
  9
$DIMTSZ
 40
0.0
  9
$DIMTOL
 70
     0
  9
$DIMLIM
 70
     0
  9
$DIMTIH
 70
     1
  9
$DIMTOH
 70
     1
  9
$DIMSE1
 70
     0
  9
$DIMSE2
 70
     0
  9
$DIMTAD
 70
     1
  9
$DIMZIN
 70
     0
  9
$DIMBLK
  1

  9
$DIMASO
 70
     1
  9
$DIMSHO
 70
     1
  9
$DIMPOST
  1

  9
$DIMAPOST
  1

  9
$DIMALT
 70
     0
  9
$DIMALTD
 70
     3
  9
$DIMALTF
 40
0.0393700787401575
  9
$DIMLFAC
 40
1.0
  9
$DIMTOFL
 70
     1
  9
$DIMTVP
 40
0.0
  9
$DIMTIX
 70
     0
  9
$DIMSOXD
 70
     0
  9
$DIMSAH
 70
     0
  9
$DIMBLK1
  1

  9
$DIMBLK2
  1

  9
$DIMSTYLE
  2
ISO-25
  9
$DIMCLRD
 70
     0
  9
$DIMCLRE
 70
     0
  9
$DIMCLRT
 70
     0
  9
$DIMTFAC
 40
1.0
  9
$DIMGAP
 40
1.524
  9
$DIMJUST
 70
     0
  9
$DIMSD1
 70
     0
  9
$DIMSD2
 70
     0
  9
$DIMTOLJ
 70
     0
  9
$DIMTZIN
 70
     0
  9
$DIMALTZ
 70
     0
  9
$DIMALTTZ
 70
     0
  9
$DIMUPT
 70
     0
  9
$DIMDEC
 70
     2
  9
$DIMTDEC
 70
     2
  9
$DIMALTU
 70
     2
  9
$DIMALTTD
 70
     3
  9
$DIMTXSTY
  7
Standard
  9
$DIMAUNIT
 70
     0
  9
$DIMADEC
 70
     2
  9
$DIMALTRND
 40
0.0
  9
$DIMAZIN
 70
     0
  9
$DIMDSEP
 70
    44
  9
$DIMATFIT
 70
     3
  9
$DIMFRAC
 70
     0
  9
$DIMLDRBLK
  1

  9
$DIMLUNIT
 70
     2
  9
$DIMLWD
 70
    -2
  9
$DIMLWE
 70
    -2
  9
$DIMTMOVE
 70
     0
  9
$LUNITS
 70
     2
  9
$LUPREC
 70
     2
  9
$SKETCHINC
 40
1.0
  9
$FILLETRAD
 40
10.0
  9
$AUNITS
 70
     0
  9
$AUPREC
 70
     2
  9
$MENU
  1
.
  9
$ELEVATION
 40
0.0
  9
$PELEVATION
 40
0.0
  9
$THICKNESS
 40
0.0
  9
$LIMCHECK
 70
     0
  9
$CHAMFERA
 40
0.0
  9
$CHAMFERB
 40
0.0
  9
$CHAMFERC
 40
0.0
  9
$CHAMFERD
 40
0.0
  9
$SKPOLY
 70
     0
  9
$TDCREATE
 40
2458313.398429734
  9
$TDUCREATE
 40
2458313.023429734
  9
$TDUPDATE
 40
2458324.434314352
  9
$TDUUPDATE
 40
2458324.059314352
  9
$TDINDWG
 40
0.0015943171
  9
$TDUSRTIMER
 40
0.0015943056
  9
$USRTIMER
 70
     1
  9
$ANGBASE
 50
0.0
  9
$ANGDIR
 70
     0
  9
$PDMODE
 70
     0
  9
$PDSIZE
 40
-1.0
  9
$PLINEWID
 40
0.0
  9
$SPLFRAME
 70
     0
  9
$SPLINETYPE
 70
     6
  9
$SPLINESEGS
 70
     8
  9
$HANDSEED
  5
22C
  9
$SURFTAB1
 70
     6
  9
$SURFTAB2
 70
     6
  9
$SURFTYPE
 70
     6
  9
$SURFU
 70
     6
  9
$SURFV
 70
     6
  9
$UCSBASE
  2

  9
$UCSNAME
  2

  9
$UCSORG
 10
0.0
 20
0.0
 30
0.0
  9
$UCSXDIR
 10
1.0
 20
0.0
 30
0.0
  9
$UCSYDIR
 10
0.0
 20
1.0
 30
0.0
  9
$UCSORTHOREF
  2

  9
$UCSORTHOVIEW
 70
     0
  9
$UCSORGTOP
 10
0.0
 20
0.0
 30
0.0
  9
$UCSORGBOTTOM
 10
0.0
 20
0.0
 30
0.0
  9
$UCSORGLEFT
 10
0.0
 20
0.0
 30
0.0
  9
$UCSORGRIGHT
 10
0.0
 20
0.0
 30
0.0
  9
$UCSORGFRONT
 10
0.0
 20
0.0
 30
0.0
  9
$UCSORGBACK
 10
0.0
 20
0.0
 30
0.0
  9
$PUCSBASE
  2

  9
$PUCSNAME
  2

  9
$PUCSORG
 10
0.0
 20
0.0
 30
0.0
  9
$PUCSXDIR
 10
1.0
 20
0.0
 30
0.0
  9
$PUCSYDIR
 10
0.0
 20
1.0
 30
0.0
  9
$PUCSORTHOREF
  2

  9
$PUCSORTHOVIEW
 70
     0
  9
$PUCSORGTOP
 10
0.0
 20
0.0
 30
0.0
  9
$PUCSORGBOTTOM
 10
0.0
 20
0.0
 30
0.0
  9
$PUCSORGLEFT
 10
0.0
 20
0.0
 30
0.0
  9
$PUCSORGRIGHT
 10
0.0
 20
0.0
 30
0.0
  9
$PUCSORGFRONT
 10
0.0
 20
0.0
 30
0.0
  9
$PUCSORGBACK
 10
0.0
 20
0.0
 30
0.0
  9
$USERI1
 70
     0
  9
$USERI2
 70
     0
  9
$USERI3
 70
     0
  9
$USERI4
 70
     0
  9
$USERI5
 70
     0
  9
$USERR1
 40
0.0
  9
$USERR2
 40
0.0
  9
$USERR3
 40
0.0
  9
$USERR4
 40
0.0
  9
$USERR5
 40
0.0
  9
$WORLDVIEW
 70
     1
  9
$SHADEDGE
 70
     3
  9
$SHADEDIF
 70
    70
  9
$TILEMODE
 70
     1
  9
$MAXACTVP
 70
    64
  9
$PINSBASE
 10
0.0
 20
0.0
 30
0.0
  9
$PLIMCHECK
 70
     0
  9
$PEXTMIN
 10
1.000000000000000E+20
 20
1.000000000000000E+20
 30
1.000000000000000E+20
  9
$PEXTMAX
 10
-1.000000000000000E+20
 20
-1.000000000000000E+20
 30
-1.000000000000000E+20
  9
$PLIMMIN
 10
0.0
 20
0.0
  9
$PLIMMAX
 10
0.0
 20
0.0
  9
$UNITMODE
 70
     0
  9
$VISRETAIN
 70
     1
  9
$PLINEGEN
 70
     0
  9
$PSLTSCALE
 70
     1
  9
$TREEDEPTH
 70
  3020
  9
$CMLSTYLE
  2
Standard
  9
$CMLJUST
 70
     0
  9
$CMLSCALE
 40
20.0
  9
$PROXYGRAPHICS
 70
     1
  9
$MEASUREMENT
 70
     1
  9
$CELWEIGHT
370
    -1
  9
$ENDCAPS
280
     0
  9
$JOINSTYLE
280
     0
  9
$LWDISPLAY
290
     1
  9
$INSUNITS
 70
     4
  9
$HYPERLINKBASE
  1

  9
$STYLESHEET
  1

  9
$XEDIT
290
     1
  9
$CEPSNTYPE
380
     0
  9
$PSTYLEMODE
290
     1
  9
$FINGERPRINTGUID
  2
{9650E2A2-A4FC-4EDA-98B4-5F397945B09A}
  9
$VERSIONGUID
  2
{FAEB1C32-E019-11D5-929B-00C0DF256EC4}
  9
$EXTNAMES
290
     1
  9
$PSVPSCALE
 40
0.0
  9
$OLESTARTUP
290
     0
  0
ENDSEC
  0
SECTION
  2
CLASSES
  0
CLASS
  1
ACDBDICTIONARYWDFLT
  2
AcDbDictionaryWithDefault
  3
ObjectDBX Classes
 90
        0
280
     0
281
     0
  0
CLASS
  1
VISUALSTYLE
  2
AcDbVisualStyle
  3
ObjectDBX Classes
 90
     4095
280
     0
281
     0
  0
CLASS
  1
MATERIAL
  2
AcDbMaterial
  3
ObjectDBX Classes
 90
     1153
280
     0
281
     0
  0
CLASS
  1
SCALE
  2
AcDbScale
  3
ObjectDBX Classes
 90
     1153
280
     0
281
     0
  0
CLASS
  1
SUN
  2
AcDbSun
  3
SCENEOE
 90
     1153
280
     0
281
     0
  0
CLASS
  1
ACDBPLACEHOLDER
  2
AcDbPlaceHolder
  3
ObjectDBX Classes
 90
        0
280
     0
281
     0
  0
CLASS
  1
LAYOUT
  2
AcDbLayout
  3
ObjectDBX Classes
 90
        0
280
     0
281
     0
  0
CLASS
  1
TABLESTYLE
  2
AcDbTableStyle
  3
ObjectDBX Classes
 90
     4095
280
     0
281
     0
  0
CLASS
  1
MLEADERSTYLE
  2
AcDbMLeaderStyle
  3
ACDB_MLEADERSTYLE_CLASS
 90
     4095
280
     0
281
     0
  0
ENDSEC
  0
SECTION
  2
TABLES
  0
TABLE
  2
VPORT
  5
8
330
0
100
AcDbSymbolTable
 70
     1
  0
VPORT
  5
29
330
8
100
AcDbSymbolTableRecord
100
AcDbViewportTableRecord
  2
*Active
 70
     0
 10
0.0
 20
0.0
 11
1.0
 21
1.0
 12
17.89706251647749
 22
-3.17860693969881
 13
0.0
 23
0.0
 14
10.0
 24
10.0
 15
10.0
 25
10.0
 16
0.0
 26
0.0
 36
1.0
 17
0.0
 27
0.0
 37
0.0
 40
95.4581289161904
 41
1.782762691853601
 42
50.0
 43
0.0
 44
0.0
 50
0.0
 51
0.0
 71
    16
 72
  2000
 73
     1
 74
     3
 75
     0
 76
     0
 77
     0
 78
     0
281
     0
 65
     1
110
0.0
120
0.0
130
0.0
111
1.0
121
0.0
131
0.0
112
0.0
122
1.0
132
0.0
 79
     0
146
0.0
  0
ENDTAB
  0
TABLE
  2
LTYPE
  5
5
330
0
100
AcDbSymbolTable
 70
     6
  0
LTYPE
  5
14
330
5
100
AcDbSymbolTableRecord
100
AcDbLinetypeTableRecord
  2
ByBlock
 70
     0
  3

 72
    65
 73
     0
 40
0.0
  0
LTYPE
  5
15
330
5
100
AcDbSymbolTableRecord
100
AcDbLinetypeTableRecord
  2
ByLayer
 70
     0
  3

 72
    65
 73
     0
 40
0.0
  0
LTYPE
  5
16
330
5
100
AcDbSymbolTableRecord
100
AcDbLinetypeTableRecord
  2
Continuous
 70
     0
  3
Solid line
 72
    65
 73
     0
 40
0.0
  0
LTYPE
  5
6A
330
5
100
AcDbSymbolTableRecord
100
AcDbLinetypeTableRecord
  2
HIDDEN
 70
     0
  3
Hidden __ __ __ __ __ __ __ __ __ __ __ __ __ __
 72
    65
 73
     2
 40
1.905
 49
1.27
 74
     0
 49
-0.635
 74
     0
  0
LTYPE
  5
6B
330
5
100
AcDbSymbolTableRecord
100
AcDbLinetypeTableRecord
  2
PHANTOM
 70
     0
  3
Phantom ______  __  __  ______  __  __  ______
 72
    65
 73
     6
 40
12.7
 49
6.35
 74
     0
 49
-1.27
 74
     0
 49
1.27
 74
     0
 49
-1.27
 74
     0
 49
1.27
 74
     0
 49
-1.27
 74
     0
  0
LTYPE
  5
6C
330
5
100
AcDbSymbolTableRecord
100
AcDbLinetypeTableRecord
  2
CENTER
 70
     0
  3
Center ____ _ ____ _ ____ _ ____ _ ____ _ ____
 72
    65
 73
     4
 40
10.16
 49
6.35
 74
     0
 49
-1.27
 74
     0
 49
1.27
 74
     0
 49
-1.27
 74
     0
  0
LTYPE
  5
6D
330
5
100
AcDbSymbolTableRecord
100
AcDbLinetypeTableRecord
  2
CENTERX2
 70
     0
  3
Center (2x) ________  __  ________  __  _____
 72
    65
 73
     4
 40
20.32
 49
12.7
 74
     0
 49
-2.54
 74
     0
 49
2.54
 74
     0
 49
-2.54
 74
     0
  0
LTYPE
  5
6E
330
5
100
AcDbSymbolTableRecord
100
AcDbLinetypeTableRecord
  2
DOT2
 70
     0
  3
Dot (.5x) ........................................
 72
    65
 73
     2
 40
0.635
 49
0.0
 74
     0
 49
-0.635
 74
     0
  0
ENDTAB
  0
TABLE
  2
LAYER
  5
2
102
{ACAD_XDICTIONARY
360
195
102
}
330
0
100
AcDbSymbolTable
 70
    18
  0
LAYER
  5
10
330
2
100
AcDbSymbolTableRecord
100
AcDbLayerTableRecord
  2
0
 70
     0
 62
     7
  6
Continuous
370
    -3
390
F
  0
LAYER
  5
6F
330
2
100
AcDbSymbolTableRecord
100
AcDbLayerTableRecord
  2
FORMAT
 70
     0
 62
     2
  6
Continuous
370
    -3
390
F
  0
LAYER
  5
70
330
2
100
AcDbSymbolTableRecord
100
AcDbLayerTableRecord
  2
외형선
 70
     0
 62
     4
  6
Continuous
370
    30
390
F
  0
LAYER
  5
71
330
2
100
AcDbSymbolTableRecord
100
AcDbLayerTableRecord
  2
숨은선
 70
     0
 62
     2
  6
HIDDEN
370
    15
390
F
  0
LAYER
  5
72
330
2
100
AcDbSymbolTableRecord
100
AcDbLayerTableRecord
  2
중심선
 70
     0
 62
     1
  6
CENTERX2
370
    -3
390
F
  0
LAYER
  5
73
330
2
100
AcDbSymbolTableRecord
100
AcDbLayerTableRecord
  2
파단선
 70
     0
 62
     4
  6
Continuous
370
    -3
390
F
  0
LAYER
  5
74
330
2
100
AcDbSymbolTableRecord
100
AcDbLayerTableRecord
  2
해칭선
 70
     0
 62
   100
  6
Continuous
370
    -3
390
F
  0
LAYER
  5
75
330
2
100
AcDbSymbolTableRecord
100
AcDbLayerTableRecord
  2
가는실선
 70
     0
 62
     4
  6
Continuous
370
    -3
390
F
  0
LAYER
  5
76
330
2
100
AcDbSymbolTableRecord
100
AcDbLayerTableRecord
  2
치수_보조선
 70
     0
 62
     4
  6
Continuous
370
    -3
390
F
  0
LAYER
  5
77
330
2
100
AcDbSymbolTableRecord
100
AcDbLayerTableRecord
  2
치수문자_일반주서
 70
     0
 62
     7
  6
Continuous
370
    15
390
F
  0
LAYER
  5
78
330
2
100
AcDbSymbolTableRecord
100
AcDbLayerTableRecord
  2
개별주서
 70
     0
 62
   100
  6
Continuous
370
    30
390
F
  0
LAYER
  5
79
330
2
100
AcDbSymbolTableRecord
100
AcDbLayerTableRecord
  2
중간선
 70
     0
 62
     2
  6
Continuous
370
    15
390
F
  0
LAYER
  5
7A
330
2
100
AcDbSymbolTableRecord
100
AcDbLayerTableRecord
  2
윤곽선
 70
     0
 62
     3
  6
Continuous
370
    40
390
F
  0
LAYER
  5
7B
330
2
100
AcDbSymbolTableRecord
100
AcDbLayerTableRecord
  2
중심마크
 70
     0
 62
   100
  6
Continuous
370
    30
390
F
  0
LAYER
  5
7C
330
2
100
AcDbSymbolTableRecord
100
AcDbLayerTableRecord
  2
가상선
 70
     0
 62
     4
  6
PHANTOM
370
    -3
390
F
  0
LAYER
  5
7D
330
2
100
AcDbSymbolTableRecord
100
AcDbLayerTableRecord
  2
특수지정선
 70
     0
 62
     5
  6
CENTERX2
370
    60
390
F
  0
LAYER
  5
7E
330
2
100
AcDbSymbolTableRecord
100
AcDbLayerTableRecord
  2
참조1
 70
     0
 62
    -4
  6
Continuous
370
    -3
390
F
  0
LAYER
  5
15A
330
2
100
AcDbSymbolTableRecord
100
AcDbLayerTableRecord
  2
Defpoints
 70
     0
 62
     7
  6
Continuous
290
     0
370
    -3
390
F
  0
ENDTAB
  0
TABLE
  2
STYLE
  5
3
330
0
100
AcDbSymbolTable
 70
     2
  0
STYLE
  5
11
330
3
100
AcDbSymbolTableRecord
100
AcDbTextStyleTableRecord
  2
Standard
 70
     0
 40
0.0
 41
1.0
 50
0.0
 71
     0
 42
3.5
  3
txt
  4

  0
STYLE
  5
94
330
3
100
AcDbSymbolTableRecord
100
AcDbTextStyleTableRecord
  2
SLDTEXTSTYLE0
 70
     0
 40
0.0
 41
0.75
 50
0.0
 71
     0
 42
3.5
  3
TXT
  4

  0
ENDTAB
  0
TABLE
  2
VIEW
  5
6
330
0
100
AcDbSymbolTable
 70
     0
  0
ENDTAB
  0
TABLE
  2
UCS
  5
7
330
0
100
AcDbSymbolTable
 70
     0
  0
ENDTAB
  0
TABLE
  2
APPID
  5
9
330
0
100
AcDbSymbolTable
 70
     2
  0
APPID
  5
12
330
9
100
AcDbSymbolTableRecord
100
AcDbRegAppTableRecord
  2
ACAD
 70
     0
  0
APPID
  5
162
330
9
100
AcDbSymbolTableRecord
100
AcDbRegAppTableRecord
  2
PE_URL
 70
     0
  0
ENDTAB
  0
TABLE
  2
DIMSTYLE
  5
A
330
0
100
AcDbSymbolTable
 70
     4
100
AcDbDimStyleTable
  0
DIMSTYLE
105
27
330
A
100
AcDbSymbolTableRecord
100
AcDbDimStyleTableRecord
  2
ISO-25
 70
     0
 41
2.5
 42
0.625
 43
3.75
 44
1.25
 73
     0
 74
     0
 77
     1
 78
     8
140
2.5
141
2.5
143
0.03937007874016
147
0.625
171
     3
172
     1
178
     0
271
     2
272
     2
274
     3
278
    44
283
     0
284
     8
340
11
  0
DIMSTYLE
105
D9
102
{ACAD_REACTORS
330
D8
330
185
330
ED
330
101
330
116
102
}
330
A
100
AcDbSymbolTableRecord
100
AcDbDimStyleTableRecord
  2
SLDDIMSTYLE0
 70
     0
 41
3.302
 44
0.0
 45
0.000000001
 73
     0
 74
     0
 77
     1
 78
     4
 79
     1
140
3.5
143
0.0393700787401575
147
0.875
148
0.000000001
170
     1
172
     1
173
     1
178
     0
271
     2
272
     2
276
     2
284
    12
289
     0
340
94
  0
DIMSTYLE
105
EE
330
A
100
AcDbSymbolTableRecord
100
AcDbDimStyleTableRecord
  2
SLDDIMSTYLE1
 70
     0
 41
3.302
 44
0.0
 45
0.000000001
 73
     0
 74
     0
 77
     1
 78
     4
 79
     1
140
3.5
143
0.0393700787401575
147
0.875
148
0.000000001
170
     1
173
     1
178
     0
271
     2
272
     2
276
     2
284
    12
340
94
  0
DIMSTYLE
105
102
330
A
100
AcDbSymbolTableRecord
100
AcDbDimStyleTableRecord
  2
SLDDIMSTYLE2
 70
     0
 41
3.302
 44
0.0
 45
0.000000001
 73
     0
 74
     0
 77
     1
 78
    12
 79
     3
140
3.5
143
0.0393700787401575
147
0.875
148
0.000000001
170
     1
173
     1
178
     0
271
     2
272
     2
276
     2
284
    12
340
94
  0
ENDTAB
  0
TABLE
  2
BLOCK_RECORD
  5
1
330
0
100
AcDbSymbolTable
 70
    10
  0
BLOCK_RECORD
  5
1F
330
1
100
AcDbSymbolTableRecord
100
AcDbBlockTableRecord
  2
*Model_Space
340
22
  0
BLOCK_RECORD
  5
1B
330
1
100
AcDbSymbolTableRecord
100
AcDbBlockTableRecord
  2
*Paper_Space
340
1E
  0
BLOCK_RECORD
  5
23
330
1
100
AcDbSymbolTableRecord
100
AcDbBlockTableRecord
  2
*Paper_Space0
340
26
  0
BLOCK_RECORD
  5
7F
330
1
100
AcDbSymbolTableRecord
100
AcDbBlockTableRecord
  2
블럭10
340
0
102
{BLKREFS
331
D1
102
}
  0
BLOCK_RECORD
  5
DA
330
1
100
AcDbSymbolTableRecord
100
AcDbBlockTableRecord
  2
_D
340
0
  0
BLOCK_RECORD
  5
EF
330
1
100
AcDbSymbolTableRecord
100
AcDbBlockTableRecord
  2
_D_1
340
0
  0
BLOCK_RECORD
  5
103
330
1
100
AcDbSymbolTableRecord
100
AcDbBlockTableRecord
  2
_D_2
340
0
  0
BLOCK_RECORD
  5
117
330
1
100
AcDbSymbolTableRecord
100
AcDbBlockTableRecord
  2
_D_3
340
0
  0
BLOCK_RECORD
  5
130
330
1
100
AcDbSymbolTableRecord
100
AcDbBlockTableRecord
  2
SW_DOWELSYMBOL_0
340
0
102
{BLKREFS
331
136
102
}
  0
BLOCK_RECORD
  5
199
330
1
100
AcDbSymbolTableRecord
100
AcDbBlockTableRecord
  2
*D8
340
0
  0
BLOCK_RECORD
  5
1AE
330
1
100
AcDbSymbolTableRecord
100
AcDbBlockTableRecord
  2
*D9
340
0
  0
ENDTAB
  0
ENDSEC
  0
SECTION
  2
BLOCKS
  0
BLOCK
  5
20
330
1F
100
AcDbEntity
  8
0
100
AcDbBlockBegin
  2
*Model_Space
 70
     0
 10
0.0
 20
0.0
 30
0.0
  3
*Model_Space
  1

  0
ENDBLK
  5
21
330
1F
100
AcDbEntity
  8
0
100
AcDbBlockEnd
  0
BLOCK
  5
1C
330
1B
100
AcDbEntity
 67
     1
  8
0
100
AcDbBlockBegin
  2
*Paper_Space
 70
     0
 10
0.0
 20
0.0
 30
0.0
  3
*Paper_Space
  1

  0
ENDBLK
  5
1D
330
1B
100
AcDbEntity
 67
     1
  8
0
100
AcDbBlockEnd
  0
BLOCK
  5
24
330
23
100
AcDbEntity
  8
0
100
AcDbBlockBegin
  2
*Paper_Space0
 70
     0
 10
0.0
 20
0.0
 30
0.0
  3
*Paper_Space0
  1

  0
ENDBLK
  5
25
330
23
100
AcDbEntity
  8
0
100
AcDbBlockEnd
  0
BLOCK
  5
80
330
7F
100
AcDbEntity
  8
0
100
AcDbBlockBegin
  2
블럭10
 70
     2
 10
0.0
 20
0.0
 30
0.0
  3
블럭10
  1

  0
ELLIPSE
  5
82
330
7F
100
AcDbEntity
  8
중심선
100
AcDbEllipse
 10
20.54032771741204
 20
12.0471743016438
 30
0.0
 11
6.600054785286829
 21
-1.261213355974178E-13
 31
0.0
210
0.0
220
0.0
230
1.0
 40
0.636358354079598
 41
0.9219305317359503
 42
6.513795318482858
  0
ELLIPSE
  5
83
330
7F
100
AcDbEntity
  8
중심선
100
AcDbEllipse
 10
20.54032771746488
 20
12.04717430159265
 30
0.0
 11
3.960054785062283
 21
1.540847449632565E-10
 31
0.0
210
0.0
220
0.0
230
1.0
 40
0.3939339440162632
 41
1.131841032648279
 42
5.62031148352944
  0
LINE
  5
84
330
7F
100
AcDbEntity
  8
중심선
100
AcDbLine
 10
2.268634060543552
 20
16.24717430164393
 30
0.0
 11
5.714909304380834
 21
16.24717430164393
 31
0.0
  0
LINE
  5
85
330
7F
100
AcDbEntity
  8
중심선
100
AcDbLine
 10
5.245725140726316
 20
7.84717430164391
 30
0.0
 11
8.692000384563599
 21
7.84717430164391
 31
0.0
  0
LINE
  5
86
330
7F
100
AcDbEntity
  8
중심선
100
AcDbLine
 10
15.74043728645272
 20
16.24717430164393
 30
0.0
 11
8.692000384563599
 21
7.84717430164391
 31
0.0
  0
LINE
  5
87
330
7F
100
AcDbEntity
  8
중심선
100
AcDbLine
 10
0.1404042013395286
 20
13.71084872107135
 30
0.0
 11
3.58671253028996
 21
13.71088815037384
 31
0.0
  0
LINE
  5
88
330
7F
100
AcDbEntity
  8
중심선
100
AcDbLine
 10
2.750260043222114
 20
10.84717430164391
 30
0.0
 11
6.196535287059397
 21
10.84717430164391
 31
0.0
  0
LINE
  5
89
330
7F
100
AcDbEntity
  8
중심선
100
AcDbLine
 10
12.29416204261559
 20
16.24717430164393
 30
0.0
 11
5.245725140726316
 21
7.84717430164391
 31
0.0
  0
LINE
  5
8A
330
7F
100
AcDbEntity
  8
중심선
100
AcDbLine
 10
10.72767329541681
 20
16.24717430164393
 30
0.0
 11
6.196535287059397
 21
10.84717430164391
 31
0.0
  0
LINE
  5
8B
330
7F
100
AcDbEntity
  8
중심선
100
AcDbLine
 10
7.28139805157953
 20
16.24717430164393
 30
0.0
 11
2.750260043222114
 21
10.84717430164391
 31
0.0
  0
LINE
  5
8C
330
7F
100
AcDbEntity
  8
중심선
100
AcDbLine
 10
5.714909304380834
 20
16.24717430164393
 30
0.0
 11
3.58671253028996
 21
13.71088815037384
 31
0.0
  0
LINE
  5
8D
330
7F
100
AcDbEntity
  8
중심선
100
AcDbLine
 10
2.268634060543552
 20
16.24717430164393
 30
0.0
 11
0.1404042013395286
 21
13.71084872107135
 31
0.0
  0
LINE
  5
8E
330
7F
100
AcDbEntity
  8
중심선
100
AcDbLine
 10
7.28139805157953
 20
16.24717430164393
 30
0.0
 11
10.72767329541681
 21
16.24717430164393
 31
0.0
  0
LINE
  5
8F
330
7F
100
AcDbEntity
  8
중심선
100
AcDbLine
 10
12.29416204261559
 20
16.24717430164393
 30
0.0
 11
15.74043728645272
 21
16.24717430164393
 31
0.0
  0
LINE
  5
90
330
7F
100
AcDbEntity
  8
중심선
100
AcDbLine
 10
19.22036997980202
 20
11.08717430171403
 30
0.0
 11
23.66174974927406
 21
11.08717430171406
 31
0.0
  0
LINE
  5
91
330
7F
100
AcDbEntity
  8
중심선
100
AcDbLine
 10
19.22039502424796
 20
13.00717430171391
 30
0.0
 11
19.22036997980202
 21
11.08717430171403
 31
0.0
  0
LINE
  5
92
330
7F
100
AcDbEntity
  8
중심선
100
AcDbLine
 10
19.22039502424796
 20
13.00717430171391
 30
0.0
 11
26.96566020931264
 21
13.00717430171391
 31
0.0
  0
LINE
  5
93
330
7F
100
AcDbEntity
  8
중심선
100
AcDbLine
 10
22.22332737316547
 20
13.45928029700563
 30
0.0
 11
24.52862924686651
 21
15.39360700705356
 31
0.0
  0
ATTDEF
  5
95
330
7F
100
AcDbEntity
  8
FORMAT
 62
     2
100
AcDbText
 10
4.408487351596664
 20
2.075366912832191
 30
0.0
 40
4.233333333333333
  1
E1050030
 41
0.75
  7
SLDTEXTSTYLE0
 11
4.408487351596664
 21
-0.0412997538344756
 31
0.0
100
AcDbAttributeDefinition
  3

  2
AUTOATTR0
 70
     0
 74
     1
  0
ENDBLK
  5
81
330
7F
100
AcDbEntity
  8
0
100
AcDbBlockEnd
  0
BLOCK
  5
DB
330
DA
100
AcDbEntity
  8
0
100
AcDbBlockBegin
  2
_D
 70
     0
 10
0.0
 20
0.0
 30
0.0
  3
_D
  1

  0
LINE
  5
DD
330
DA
100
AcDbEntity
  8
치수문자_일반주서
 62
     0
370
    -2
100
AcDbLine
 10
-24.56884233574614
 20
6.349999999999992
 30
0.0
 11
-57.62499999999999
 21
6.349999999999866
 31
0.0
  0
LINE
  5
DE
330
DA
100
AcDbEntity
  8
치수문자_일반주서
 62
     0
370
    -2
100
AcDbLine
 10
-24.56884233574616
 20
-6.350000000000001
 30
0.0
 11
-57.62499999999995
 21
-6.350000000000133
 31
0.0
  0
LINE
  5
DF
330
DA
100
AcDbEntity
  8
치수문자_일반주서
 62
     0
370
    -2
100
AcDbLine
 10
-57.62499999999999
 20
6.349999999999866
 30
0.0
 11
-57.6250000000001
 21
39.64149999999995
 31
0.0
  0
LINE
  5
E0
330
DA
100
AcDbEntity
  8
치수문자_일반주서
 62
     0
370
    -2
100
AcDbLine
 10
-57.62499999999999
 20
6.349999999999866
 30
0.0
 11
-57.62499999999995
 21
-6.350000000000133
 31
0.0
  0
LINE
  5
E1
330
DA
100
AcDbEntity
  8
치수문자_일반주서
 62
     0
370
    -2
100
AcDbLine
 10
-57.62500000000001
 20
9.651999999999866
 30
0.0
 11
-57.62500000000002
 21
12.95399999999987
 31
0.0
  0
LINE
  5
E2
330
DA
100
AcDbEntity
  8
치수문자_일반주서
 62
     0
370
    -2
100
AcDbLine
 10
-57.62499999999994
 20
-9.652000000000132
 30
0.0
 11
-57.62499999999992
 21
-12.95400000000013
 31
0.0
  0
SOLID
  5
E3
330
DA
100
AcDbEntity
  8
치수문자_일반주서
 62
     0
100
AcDbTrace
 10
-58.17533333333334
 20
9.651999999999864
 30
0.0
 11
-57.07466666666667
 21
9.651999999999868
 31
0.0
 12
-57.62499999999999
 22
6.349999999999866
 32
0.0
 13
-57.62499999999999
 23
6.349999999999866
 33
0.0
  0
SOLID
  5
E4
330
DA
100
AcDbEntity
  8
치수문자_일반주서
 62
     0
100
AcDbTrace
 10
-57.0746666666666
 20
-9.65200000000013
 30
0.0
 11
-58.17533333333327
 21
-9.652000000000134
 31
0.0
 12
-57.62499999999995
 22
-6.350000000000133
 32
0.0
 13
-57.62499999999995
 23
-6.350000000000133
 33
0.0
  0
MTEXT
  5
E5
330
DA
100
AcDbEntity
  8
치수문자_일반주서
 62
     0
100
AcDbMText
 10
-62.00000000000006
 20
26.29774999999994
 30
0.0
 40
3.5
 41
0.0
 71
     2
 72
     1
  1
\A1;%%c12.70 [1/2]
  7
SLDTEXTSTYLE0
 11
-3.356894814614648E-15
 21
1.0
 31
0.0
 73
     1
 44
1.0
  0
POINT
  5
1C4
330
DA
100
AcDbEntity
  8
Defpoints
 62
     0
100
AcDbPoint
 10
-24.50634233574614
 20
6.349999999999992
 30
0.0
  0
POINT
  5
1C5
330
DA
100
AcDbEntity
  8
Defpoints
 62
     0
100
AcDbPoint
 10
-24.50634233574616
 20
-6.350000000000001
 30
0.0
  0
POINT
  5
1C6
330
DA
100
AcDbEntity
  8
Defpoints
 62
     0
100
AcDbPoint
 10
-57.62499999999995
 20
-6.350000000000125
 30
0.0
  0
ENDBLK
  5
DC
330
DA
100
AcDbEntity
  8
0
100
AcDbBlockEnd
  0
BLOCK
  5
F0
330
EF
100
AcDbEntity
  8
0
100
AcDbBlockBegin
  2
_D_1
 70
     0
 10
0.0
 20
0.0
 30
0.0
  3
_D_1
  1

  0
LINE
  5
F2
330
EF
100
AcDbEntity
  8
치수문자_일반주서
 62
     0
370
    -2
100
AcDbLine
 10
47.68750000000001
 20
-5.948093509413972
 30
0.0
 11
90.12295790332986
 21
-5.948093509413813
 31
0.0
  0
LINE
  5
F3
330
EF
100
AcDbEntity
  8
치수문자_일반주서
 62
     0
370
    -2
100
AcDbLine
 10
47.68750000000001
 20
5.948093509413971
 30
0.0
 11
90.12295790332982
 21
5.948093509414129
 31
0.0
  0
LINE
  5
F4
330
EF
100
AcDbEntity
  8
치수문자_일반주서
 62
     0
370
    -2
100
AcDbLine
 10
90.12295790332982
 20
5.948093509414129
 30
0.0
 11
90.12295790332968
 21
43.61459350941414
 31
0.0
  0
LINE
  5
F5
330
EF
100
AcDbEntity
  8
치수문자_일반주서
 62
     0
370
    -2
100
AcDbLine
 10
90.12295790332986
 20
-5.948093509413813
 30
0.0
 11
90.12295790332982
 21
5.948093509414129
 31
0.0
  0
LINE
  5
F6
330
EF
100
AcDbEntity
  8
치수문자_일반주서
 62
     0
370
    -2
100
AcDbLine
 10
90.12295790332988
 20
-9.250093509413812
 30
0.0
 11
90.12295790332989
 21
-12.55209350941381
 31
0.0
  0
LINE
  5
F7
330
EF
100
AcDbEntity
  8
치수문자_일반주서
 62
     0
370
    -2
100
AcDbLine
 10
90.1229579033298
 20
9.250093509414128
 30
0.0
 11
90.12295790332979
 21
12.55209350941413
 31
0.0
  0
SOLID
  5
F8
330
EF
100
AcDbEntity
  8
치수문자_일반주서
 62
     0
100
AcDbTrace
 10
90.6732912366632
 20
-9.25009350941381
 30
0.0
 11
89.57262456999655
 21
-9.250093509413814
 31
0.0
 12
90.12295790332986
 22
-5.948093509413813
 32
0.0
 13
90.12295790332986
 23
-5.948093509413813
 33
0.0
  0
SOLID
  5
F9
330
EF
100
AcDbEntity
  8
치수문자_일반주서
 62
     0
100
AcDbTrace
 10
89.57262456999648
 20
9.250093509414127
 30
0.0
 11
90.67329123666313
 21
9.25009350941413
 31
0.0
 12
90.12295790332982
 22
5.948093509414129
 32
0.0
 13
90.12295790332982
 23
5.948093509414129
 33
0.0
  0
MTEXT
  5
FA
330
EF
100
AcDbEntity
  8
치수문자_일반주서
 62
     0
100
AcDbMText
 10
85.74795790332973
 20
28.08334350941411
 30
0.0
 40
3.5
 41
0.0
 71
     2
 72
     1
  1
\A1;%%c11.90 [15/32]
  7
SLDTEXTSTYLE0
 11
-3.583716705035991E-15
 21
1.0
 31
0.0
 73
     1
 44
1.0
  0
POINT
  5
FB
330
EF
100
AcDbEntity
  8
Defpoints
 62
     0
100
AcDbPoint
 10
47.62500000000001
 20
-5.948093509413972
 30
0.0
  0
POINT
  5
1BD
330
EF
100
AcDbEntity
  8
Defpoints
 62
     0
100
AcDbPoint
 10
47.62500000000001
 20
5.948093509413971
 30
0.0
  0
POINT
  5
1BE
330
EF
100
AcDbEntity
  8
Defpoints
 62
     0
100
AcDbPoint
 10
90.12295790332982
 20
5.94809350941413
 30
0.0
  0
ENDBLK
  5
F1
330
EF
100
AcDbEntity
  8
0
100
AcDbBlockEnd
  0
BLOCK
  5
104
330
103
100
AcDbEntity
  8
0
100
AcDbBlockBegin
  2
_D_2
 70
     0
 10
0.0
 20
0.0
 30
0.0
  3
_D_2
  1

  0
LINE
  5
106
330
103
100
AcDbEntity
  8
치수문자_일반주서
 62
     0
370
    -2
100
AcDbLine
 10
47.62500000000001
 20
6.010593509413971
 30
0.0
 11
47.62500000000001
 21
16.35
 31
0.0
  0
LINE
  5
107
330
103
100
AcDbEntity
  8
치수문자_일반주서
 62
     0
370
    -2
100
AcDbLine
 10
26.9875
 20
4.711990122866664
 30
0.0
 11
26.9875
 21
16.35
 31
0.0
  0
LINE
  5
108
330
103
100
AcDbEntity
  8
치수문자_일반주서
 62
     0
370
    -2
100
AcDbLine
 10
47.62500000000001
 20
16.35
 30
0.0
 11
83.54150000000001
 21
16.35
 31
0.0
  0
LINE
  5
109
330
103
100
AcDbEntity
  8
치수문자_일반주서
 62
     0
370
    -2
100
AcDbLine
 10
47.62500000000001
 20
16.35
 30
0.0
 11
26.9875
 21
16.35
 31
0.0
  0
LINE
  5
10A
330
103
100
AcDbEntity
  8
치수문자_일반주서
 62
     0
370
    -2
100
AcDbLine
 10
50.92700000000001
 20
16.35
 30
0.0
 11
54.22900000000001
 21
16.35
 31
0.0
  0
LINE
  5
10B
330
103
100
AcDbEntity
  8
치수문자_일반주서
 62
     0
370
    -2
100
AcDbLine
 10
23.6855
 20
16.35
 30
0.0
 11
20.38350000000001
 21
16.35
 31
0.0
  0
SOLID
  5
10C
330
103
100
AcDbEntity
  8
치수문자_일반주서
 62
     0
100
AcDbTrace
 10
50.92700000000001
 20
16.90033333333334
 30
0.0
 11
50.92700000000001
 21
15.79966666666667
 31
0.0
 12
47.62500000000001
 22
16.35
 32
0.0
 13
47.62500000000001
 23
16.35
 33
0.0
  0
SOLID
  5
10D
330
103
100
AcDbEntity
  8
치수문자_일반주서
 62
     0
100
AcDbTrace
 10
23.6855
 20
15.79966666666667
 30
0.0
 11
23.6855
 21
16.90033333333334
 31
0.0
 12
26.9875
 22
16.35
 32
0.0
 13
26.9875
 23
16.35
 33
0.0
  0
MTEXT
  5
10E
330
103
100
AcDbEntity
  8
치수문자_일반주서
 62
     0
100
AcDbMText
 10
68.88525000000001
 20
20.725
 30
0.0
 40
3.5
 41
0.0
 71
     2
 72
     1
  1
\A1;20.64 [13/16]
  7
SLDTEXTSTYLE0
 73
     1
 44
1.0
  0
POINT
  5
10F
330
103
100
AcDbEntity
  8
Defpoints
 62
     0
100
AcDbPoint
 10
47.62500000000001
 20
5.948093509413971
 30
0.0
  0
POINT
  5
1BF
330
103
100
AcDbEntity
  8
Defpoints
 62
     0
100
AcDbPoint
 10
26.9875
 20
4.649490122866664
 30
0.0
  0
POINT
  5
1C0
330
103
100
AcDbEntity
  8
Defpoints
 62
     0
100
AcDbPoint
 10
26.9875
 20
16.35
 30
0.0
  0
ENDBLK
  5
105
330
103
100
AcDbEntity
  8
0
100
AcDbBlockEnd
  0
BLOCK
  5
118
330
117
100
AcDbEntity
  8
0
100
AcDbBlockBegin
  2
_D_3
 70
     0
 10
0.0
 20
0.0
 30
0.0
  3
_D_3
  1

  0
LINE
  5
11A
330
117
100
AcDbEntity
  8
치수문자_일반주서
 62
     0
370
    -2
100
AcDbLine
 10
-47.62500000000003
 20
6.010593509414011
 30
0.0
 11
-47.62500000000003
 21
26.35
 31
0.0
  0
LINE
  5
11B
330
117
100
AcDbEntity
  8
치수문자_일반주서
 62
     0
370
    -2
100
AcDbLine
 10
47.62500000000001
 20
6.010593509413971
 30
0.0
 11
47.62500000000001
 21
26.35
 31
0.0
  0
LINE
  5
11C
330
117
100
AcDbEntity
  8
치수문자_일반주서
 62
     0
370
    -2
100
AcDbLine
 10
-44.32300000000003
 20
26.35
 30
0.0
 11
44.32300000000001
 21
26.35
 31
0.0
  0
SOLID
  5
11D
330
117
100
AcDbEntity
  8
치수문자_일반주서
 62
     0
100
AcDbTrace
 10
-44.32300000000003
 20
26.90033333333334
 30
0.0
 11
-44.32300000000003
 21
25.79966666666667
 31
0.0
 12
-47.62500000000003
 22
26.35
 32
0.0
 13
-47.62500000000003
 23
26.35
 33
0.0
  0
SOLID
  5
11E
330
117
100
AcDbEntity
  8
치수문자_일반주서
 62
     0
100
AcDbTrace
 10
44.32300000000001
 20
25.79966666666667
 30
0.0
 11
44.32300000000001
 21
26.90033333333334
 31
0.0
 12
47.62500000000001
 22
26.35
 32
0.0
 13
47.62500000000001
 23
26.35
 33
0.0
  0
MTEXT
  5
11F
330
117
100
AcDbEntity
  8
치수문자_일반주서
 62
     0
100
AcDbMText
 10
0.0000000000000142
 20
30.725
 30
0.0
 40
3.5
 41
0.0
 71
     2
 72
     1
  1
\A1;95.25 [3 3/4]
  7
SLDTEXTSTYLE0
 73
     1
 44
1.0
  0
POINT
  5
120
330
117
100
AcDbEntity
  8
Defpoints
 62
     0
100
AcDbPoint
 10
-47.62500000000003
 20
5.948093509414011
 30
0.0
  0
POINT
  5
121
330
117
100
AcDbEntity
  8
Defpoints
 62
     0
100
AcDbPoint
 10
47.62500000000001
 20
5.948093509413971
 30
0.0
  0
POINT
  5
122
330
117
100
AcDbEntity
  8
Defpoints
 62
     0
100
AcDbPoint
 10
47.62500000000001
 20
26.35
 30
0.0
  0
ENDBLK
  5
119
330
117
100
AcDbEntity
  8
0
100
AcDbBlockEnd
  0
BLOCK
  5
131
330
130
100
AcDbEntity
  8
0
100
AcDbBlockBegin
  2
SW_DOWELSYMBOL_0
 70
     0
 10
0.0
 20
0.0
 30
0.0
  3
SW_DOWELSYMBOL_0
  1

  0
CIRCLE
  5
133
330
130
100
AcDbEntity
  8
해칭선
 62
     0
100
AcDbCircle
 10
0.0
 20
0.0
 30
0.0
 40
3.000000000000001
  0
HATCH
  5
134
330
130
100
AcDbEntity
  8
0
  6
Continuous
 62
     0
370
     0
100
AcDbHatch
 10
0.0
 20
0.0
 30
0.0
210
0.0
220
0.0
230
1.0
  2
SOLID
 70
     1
 71
     0
 91
        1
 92
        0
 93
        3
 72
     2
 10
0.0
 20
0.0
 40
3.000000000000001
 50
0.0
 51
90.0
 73
     1
 72
     1
 10
0.0
 20
3.000000000000001
 11
0.0
 21
0.0
 72
     1
 10
0.0
 20
0.0
 11
3.000000000000001
 21
0.0
 97
        0
 75
     0
 76
     1
 98
        1
 10
0.0
 20
0.0
  0
HATCH
  5
135
330
130
100
AcDbEntity
  8
0
  6
Continuous
 62
     0
370
     0
100
AcDbHatch
 10
0.0
 20
0.0
 30
0.0
210
0.0
220
0.0
230
1.0
  2
SOLID
 70
     1
 71
     0
 91
        1
 92
        0
 93
        3
 72
     2
 10
0.0
 20
0.0
 40
3.000000000000001
 50
180.0
 51
270.0000000000008
 73
     1
 72
     1
 10
0.0
 20
-3.000000000000001
 11
0.0
 21
0.0
 72
     1
 10
0.0
 20
0.0
 11
-3.000000000000001
 21
0.0
 97
        0
 75
     0
 76
     1
 98
        1
 10
0.0
 20
0.0
  0
ENDBLK
  5
132
330
130
100
AcDbEntity
  8
0
100
AcDbBlockEnd
  0
BLOCK
  5
19A
330
199
100
AcDbEntity
  8
0
100
AcDbBlockBegin
  2
*D8
 70
     1
 10
0.0
 20
0.0
 30
0.0
  3
*D8
  1

  0
LINE
  5
19C
330
199
100
AcDbEntity
  8
치수문자_일반주서
 62
     0
370
    -2
100
AcDbLine
 10
54.73699999999996
 20
3.631580296889929
 30
0.0
 11
54.73699999999996
 21
14.96233570571162
 31
0.0
  0
LINE
  5
19D
330
199
100
AcDbEntity
  8
치수문자_일반주서
 62
     0
370
    -2
100
AcDbLine
 10
34.09949999999996
 20
3.20671347064068
 30
0.0
 11
34.09949999999996
 21
14.96233570571162
 31
0.0
  0
LINE
  5
19E
330
199
100
AcDbEntity
  8
치수문자_일반주서
 62
     0
370
    -2
100
AcDbLine
 10
54.73699999999996
 20
14.96233570571162
 30
0.0
 11
90.65349999999997
 21
14.96233570571162
 31
0.0
  0
LINE
  5
19F
330
199
100
AcDbEntity
  8
치수문자_일반주서
 62
     0
370
    -2
100
AcDbLine
 10
54.73699999999996
 20
14.96233570571162
 30
0.0
 11
34.09949999999996
 21
14.96233570571162
 31
0.0
  0
LINE
  5
1A0
330
199
100
AcDbEntity
  8
치수문자_일반주서
 62
     0
370
    -2
100
AcDbLine
 10
58.03899999999996
 20
14.96233570571162
 30
0.0
 11
61.34099999999996
 21
14.96233570571162
 31
0.0
  0
LINE
  5
1A1
330
199
100
AcDbEntity
  8
치수문자_일반주서
 62
     0
370
    -2
100
AcDbLine
 10
30.79749999999996
 20
14.96233570571162
 30
0.0
 11
27.49549999999996
 21
14.96233570571162
 31
0.0
  0
SOLID
  5
1A2
330
199
100
AcDbEntity
  8
치수문자_일반주서
 62
     0
100
AcDbTrace
 10
58.03899999999996
 20
15.51266903904495
 30
0.0
 11
58.03899999999996
 21
14.41200237237829
 31
0.0
 12
54.73699999999996
 22
14.96233570571162
 32
0.0
 13
54.73699999999996
 23
14.96233570571162
 33
0.0
  0
SOLID
  5
1A3
330
199
100
AcDbEntity
  8
치수문자_일반주서
 62
     0
100
AcDbTrace
 10
30.79749999999996
 20
14.41200237237829
 30
0.0
 11
30.79749999999996
 21
15.51266903904495
 31
0.0
 12
34.09949999999996
 22
14.96233570571162
 32
0.0
 13
34.09949999999996
 23
14.96233570571162
 33
0.0
  0
MTEXT
  5
1A4
330
199
100
AcDbEntity
  8
치수문자_일반주서
 62
     0
100
AcDbMText
 10
75.99724999999997
 20
19.33733570571162
 30
0.0
 40
3.5
 41
0.0
 71
     2
 72
     1
  1
\A1;20.64 [13/16]
  7
SLDTEXTSTYLE0
 73
     1
 44
1.0
  0
POINT
  5
1A5
330
199
100
AcDbEntity
  8
Defpoints
 62
     0
100
AcDbPoint
 10
54.73699999999996
 20
3.569080296889929
 30
0.0
  0
POINT
  5
1A6
330
199
100
AcDbEntity
  8
Defpoints
 62
     0
100
AcDbPoint
 10
34.09949999999996
 20
3.14421347064068
 30
0.0
  0
POINT
  5
1A7
330
199
100
AcDbEntity
  8
Defpoints
 62
     0
100
AcDbPoint
 10
34.09949999999996
 20
14.96233570571162
 30
0.0
  0
ENDBLK
  5
19B
330
199
100
AcDbEntity
  8
0
100
AcDbBlockEnd
  0
BLOCK
  5
1AF
330
1AE
100
AcDbEntity
  8
0
100
AcDbBlockBegin
  2
*D9
 70
     1
 10
0.0
 20
0.0
 30
0.0
  3
*D9
  1

  0
LINE
  5
1B1
330
1AE
100
AcDbEntity
  8
치수문자_일반주서
 62
     0
370
    -2
100
AcDbLine
 10
92.64344030422939
 20
-23.77433177856138
 30
0.0
 11
92.64344030422939
 21
-12.44357636973969
 31
0.0
  0
LINE
  5
1B2
330
1AE
100
AcDbEntity
  8
치수문자_일반주서
 62
     0
370
    -2
100
AcDbLine
 10
72.00594030422938
 20
-24.19919860481063
 30
0.0
 11
72.00594030422938
 21
-12.44357636973969
 31
0.0
  0
LINE
  5
1B3
330
1AE
100
AcDbEntity
  8
치수문자_일반주서
 62
     0
370
    -2
100
AcDbLine
 10
92.64344030422939
 20
-12.44357636973969
 30
0.0
 11
128.5599403042294
 21
-12.44357636973969
 31
0.0
  0
LINE
  5
1B4
330
1AE
100
AcDbEntity
  8
치수문자_일반주서
 62
     0
370
    -2
100
AcDbLine
 10
92.64344030422939
 20
-12.44357636973969
 30
0.0
 11
72.00594030422938
 21
-12.44357636973969
 31
0.0
  0
LINE
  5
1B5
330
1AE
100
AcDbEntity
  8
치수문자_일반주서
 62
     0
370
    -2
100
AcDbLine
 10
95.94544030422938
 20
-12.44357636973969
 30
0.0
 11
99.24744030422937
 21
-12.44357636973969
 31
0.0
  0
LINE
  5
1B6
330
1AE
100
AcDbEntity
  8
치수문자_일반주서
 62
     0
370
    -2
100
AcDbLine
 10
68.70394030422938
 20
-12.44357636973969
 30
0.0
 11
65.40194030422938
 21
-12.44357636973969
 31
0.0
  0
SOLID
  5
1B7
330
1AE
100
AcDbEntity
  8
치수문자_일반주서
 62
     0
100
AcDbTrace
 10
95.94544030422938
 20
-11.89324303640636
 30
0.0
 11
95.94544030422938
 21
-12.99390970307302
 31
0.0
 12
92.64344030422939
 22
-12.44357636973969
 32
0.0
 13
92.64344030422939
 23
-12.44357636973969
 33
0.0
  0
SOLID
  5
1B8
330
1AE
100
AcDbEntity
  8
치수문자_일반주서
 62
     0
100
AcDbTrace
 10
68.70394030422938
 20
-12.99390970307302
 30
0.0
 11
68.70394030422938
 21
-11.89324303640636
 31
0.0
 12
72.00594030422938
 22
-12.44357636973969
 32
0.0
 13
72.00594030422938
 23
-12.44357636973969
 33
0.0
  0
MTEXT
  5
1B9
330
1AE
100
AcDbEntity
  8
치수문자_일반주서
 62
     0
100
AcDbMText
 10
113.9036903042294
 20
-8.06857636973969
 30
0.0
 40
3.5
 41
0.0
 71
     2
 72
     1
  1
\A1;20.64 [13/16]
  7
SLDTEXTSTYLE0
 73
     1
 44
1.0
  0
POINT
  5
1BA
330
1AE
100
AcDbEntity
  8
Defpoints
 62
     0
100
AcDbPoint
 10
92.64344030422939
 20
-23.83683177856138
 30
0.0
  0
POINT
  5
1BB
330
1AE
100
AcDbEntity
  8
Defpoints
 62
     0
100
AcDbPoint
 10
72.00594030422938
 20
-24.26169860481063
 30
0.0
  0
POINT
  5
1BC
330
1AE
100
AcDbEntity
  8
Defpoints
 62
     0
100
AcDbPoint
 10
72.00594030422938
 20
-12.44357636973969
 30
0.0
  0
ENDBLK
  5
1B0
330
1AE
100
AcDbEntity
  8
0
100
AcDbBlockEnd
  0
ENDSEC
  0
SECTION
  2
ENTITIES
  0
LINE
  5
96
330
1F
100
AcDbEntity
  8
외형선
  6
Continuous
370
    15
100
AcDbLine
 10
24.50634233574612
 20
6.349999999999994
 30
0.0
 11
7.112000000000037
 21
6.349999999999993
 31
0.0
  0
LINE
  5
97
330
1F
100
AcDbEntity
  8
외형선
  6
Continuous
370
    15
100
AcDbLine
 10
-24.50634233574616
 20
-6.350000000000001
 30
0.0
 11
24.50634233574613
 21
-6.349999999999998
 31
0.0
  0
LINE
  5
98
330
1F
100
AcDbEntity
  8
외형선
  6
Continuous
370
    15
100
AcDbLine
 10
24.50634233574613
 20
-6.35
 30
0.0
 11
24.95750200442906
 21
-6.229112131118913
 31
0.0
  0
LINE
  5
99
330
1F
100
AcDbEntity
  8
외형선
  6
Continuous
370
    15
100
AcDbLine
 10
24.95750200442906
 20
6.229112131118911
 30
0.0
 11
24.50634233574612
 21
6.349999999999998
 31
0.0
  0
SPLINE
  5
9C
330
1F
100
AcDbEntity
  8
외형선
  6
Continuous
370
    15
100
AcDbSpline
210
0.0
220
0.0
230
1.0
 70
     8
 71
     3
 72
     9
 73
     5
 74
     0
 42
0.000000001
 43
0.00000001
 40
0.0
 40
0.0
 40
0.0
 40
0.0
 40
0.4993290492636354
 40
0.9999999999999999
 40
0.9999999999999999
 40
0.9999999999999999
 40
0.9999999999999999
 10
26.9875
 20
4.649355831569255
 30
0.0
 10
26.75628901260366
 20
4.65089093834802
 30
0.0
 10
26.29324567928003
 20
4.653965277365607
 30
0.0
 10
25.81740015620581
 20
4.66712883380917
 30
0.0
 10
25.5791581257646
 20
4.673719444128841
 30
0.0
  0
SPLINE
  5
9D
330
1F
100
AcDbEntity
  8
외형선
  6
Continuous
370
    15
100
AcDbSpline
210
0.0
220
0.0
230
1.0
 70
     8
 71
     3
 72
    13
 73
     9
 74
     0
 42
0.000000001
 43
0.00000001
 40
0.0
 40
0.0
 40
0.0
 40
0.0
 40
0.2235112151516555
 40
0.7900241912642065
 40
0.9291752278232835
 40
0.9697839356499685
 40
0.9857475891721669
 40
0.9999999999999999
 40
0.9999999999999999
 40
0.9999999999999999
 40
0.9999999999999999
 10
25.25785450475034
 20
4.835817303051489
 30
0.0
 10
25.23242815895349
 20
4.859777852245176
 30
0.0
 10
25.14255603212828
 20
4.944468964886414
 30
0.0
 10
25.04434304720906
 20
5.053203819808654
 30
0.0
 10
24.97316883424449
 20
5.143212133547997
 30
0.0
 10
24.9604001473651
 20
5.164733530017128
 30
0.0
 10
24.95782107611272
 20
5.171088377176889
 30
0.0
 10
24.95760426880176
 20
5.173001384027521
 30
0.0
 10
24.95750200442906
 20
5.173903717277669
 30
0.0
  0
SPLINE
  5
9E
330
1F
100
AcDbEntity
  8
외형선
  6
Continuous
370
    15
100
AcDbSpline
210
0.0
220
0.0
230
1.0
 70
     8
 71
     3
 72
     9
 73
     5
 74
     0
 42
0.000000001
 43
0.00000001
 40
0.0
 40
0.0
 40
0.0
 40
0.0
 40
0.5586227555558491
 40
1.0
 40
1.0
 40
1.0
 40
1.0
 10
24.95750277144957
 20
-4.693913000214019
 30
0.0
 10
25.33969403089714
 20
-4.680658681907506
 30
0.0
 10
26.02386103921616
 20
-4.656931903550035
 30
0.0
 10
26.69241534344029
 20
-4.651675769522681
 30
0.0
 10
26.9875
 20
-4.649355831569257
 30
0.0
  0
SPLINE
  5
9F
330
1F
100
AcDbEntity
  8
0
  6
Continuous
 62
     1
370
    15
100
AcDbSpline
210
0.0
220
0.0
230
1.0
 70
     8
 71
     3
 72
     9
 73
     5
 74
     0
 42
0.000000001
 43
0.00000001
 40
0.0
 40
0.0
 40
0.0
 40
0.0
 40
0.4370270221649052
 40
1.0
 40
1.0
 40
1.0
 40
1.0
 10
32.20246093993373
 20
1.52548458532879
 30
0.0
 10
31.96168614202707
 20
1.639921970344807
 30
0.0
 10
31.41074813202958
 20
1.90177622468617
 30
0.0
 10
30.85985972725188
 20
2.189589155901766
 30
0.0
 10
30.54972444155936
 20
2.351620058847657
 30
0.0
1001
PE_URL
1000

  0
SPLINE
  5
A0
330
1F
100
AcDbEntity
  8
0
  6
Continuous
 62
     1
370
    15
100
AcDbSpline
210
0.0
220
0.0
230
1.0
 70
     8
 71
     3
 72
    11
 73
     7
 74
     0
 42
0.000000001
 43
0.00000001
 40
0.0
 40
0.0
 40
0.0
 40
0.0
 40
0.2193473543315889
 40
0.4588060208330968
 40
0.717951925251468
 40
1.0
 40
1.0
 40
1.0
 40
1.0
 10
30.23429342764094
 20
4.73058405897731
 30
0.0
 10
30.00392527750528
 20
4.718876673464017
 30
0.0
 10
29.52206720079176
 20
4.694388486779105
 30
0.0
 10
28.74543878480758
 20
4.667632671564616
 30
0.0
 10
27.89327588236225
 20
4.650165800427207
 30
0.0
 10
27.29782470044366
 20
4.649633332160854
 30
0.0
 10
26.9875
 20
4.649355831569255
 30
0.0
1001
PE_URL
1000

  0
SPLINE
  5
A1
330
1F
100
AcDbEntity
  8
0
  6
Continuous
 62
     1
370
    15
100
AcDbSpline
210
0.0
220
0.0
230
1.0
 70
     8
 71
     3
 72
    22
 73
    18
 74
     0
 42
0.000000001
 43
0.00000001
 40
0.0
 40
0.0
 40
0.0
 40
0.0
 40
0.0807247752964884
 40
0.1490428829678896
 40
0.2377079547027336
 40
0.3217250152997051
 40
0.4078936333370288
 40
0.5001638316378352
 40
0.5627681608265956
 40
0.6235514893855192
 40
0.6808673239481304
 40
0.7397366146316361
 40
0.7825866458376933
 40
0.8284563990549388
 40
0.8738586325634513
 40
0.9372894383515616
 40
1.0
 40
1.0
 40
1.0
 40
1.0
 10
45.41316714438372
 20
4.071664021520399
 30
0.0
 10
45.16256536488886
 20
4.049851109741211
 30
0.0
 10
44.69987703214821
 20
4.009577733376224
 30
0.0
 10
43.86757270831994
 20
3.957115200614017
 30
0.0
 10
42.98569163600351
 20
3.930742966733616
 30
0.0
 10
42.05947591953764
 20
3.914277932517787
 30
0.0
 10
41.14202747051792
 20
3.920512014250319
 30
0.0
 10
40.30116080732286
 20
3.945124656923588
 30
0.0
 10
39.54567879563056
 20
3.982129611523053
 30
0.0
 10
38.91167012574305
 20
4.023347987763515
 30
0.0
 10
38.29425573044014
 20
4.072444354640764
 30
0.0
 10
37.72758445561765
 20
4.125553066001685
 30
0.0
 10
37.19585896477795
 20
4.181239520667968
 30
0.0
 10
36.71331000343737
 20
4.234460254606187
 30
0.0
 10
36.15647577325632
 20
4.299679288659557
 30
0.0
 10
35.54755552126555
 20
4.38892572337839
 30
0.0
 10
35.19007537226436
 20
4.448138078563805
 30
0.0
 10
35.01235587090166
 20
4.477575210296757
 30
0.0
1001
PE_URL
1000

  0
SPLINE
  5
A2
330
1F
100
AcDbEntity
  8
0
  6
Continuous
 62
     1
370
    15
100
AcDbSpline
210
0.0
220
0.0
230
1.0
 70
     8
 71
     3
 72
    14
 73
    10
 74
     0
 42
0.000000001
 43
0.00000001
 40
0.0
 40
0.0
 40
0.0
 40
0.0
 40
0.1459273317148636
 40
0.29353066987462
 40
0.4850351872319405
 40
0.661975387321867
 40
0.821544146470635
 40
0.9882210491144423
 40
1.0
 40
1.0
 40
1.0
 40
1.0
 10
35.01235587090166
 20
-4.47757521029676
 30
0.0
 10
35.19004724833025
 20
-4.448112210891897
 30
0.0
 10
35.54747082645385
 20
-4.38884782326694
 30
0.0
 10
36.2878246831467
 20
-4.280839648717064
 30
0.0
 10
37.08752503357318
 20
-4.192691204192148
 30
0.0
 10
37.90726045836375
 20
-4.106461892104726
 30
0.0
 10
38.66596469059121
 20
-4.042216665707267
 30
0.0
 10
39.17483013218078
 20
-4.003574095890725
 30
0.0
 10
39.44344743458383
 20
-3.990122113406641
 30
0.0
 10
39.46117747789393
 20
-3.989234217392812
 30
0.0
1001
PE_URL
1000

  0
SPLINE
  5
A3
330
1F
100
AcDbEntity
  8
0
  6
Continuous
 62
     1
370
    15
100
AcDbSpline
210
0.0
220
0.0
230
1.0
 70
     8
 71
     3
 72
    11
 73
     7
 74
     0
 42
0.000000001
 43
0.00000001
 40
0.0
 40
0.0
 40
0.0
 40
0.0
 40
0.282048074748532
 40
0.5411939791669033
 40
0.7806526456684114
 40
1.0
 40
1.0
 40
1.0
 40
1.0
 10
26.9875
 20
-4.649355831569257
 30
0.0
 10
27.29782470044366
 20
-4.649633332160859
 30
0.0
 10
27.89327588236225
 20
-4.65016580042721
 30
0.0
 10
28.74543878480758
 20
-4.66763267156462
 30
0.0
 10
29.52206720079176
 20
-4.694388486779109
 30
0.0
 10
30.00392527750528
 20
-4.71887667346402
 30
0.0
 10
30.23429342764094
 20
-4.730584058977314
 30
0.0
1001
PE_URL
1000

  0
LINE
  5
A4
330
1F
100
AcDbEntity
  8
외형선
  6
Continuous
370
    15
100
AcDbLine
 10
24.50634233574612
 20
6.349999999999998
 30
0.0
 11
24.50634233574613
 21
-6.349999999999998
 31
0.0
  0
SPLINE
  5
A6
330
1F
100
AcDbEntity
  8
외형선
  6
Continuous
370
    15
100
AcDbSpline
210
0.0
220
0.0
230
1.0
 70
     8
 71
     3
 72
     8
 73
     4
 74
     0
 42
0.000000001
 43
0.00000001
 40
0.0
 40
0.0
 40
0.0
 40
0.0
 40
1.0
 40
1.0
 40
1.0
 40
1.0
 10
25.98750000000001
 20
4.46702595585479
 30
0.0
 10
25.64329648345597
 20
4.641807691390075
 30
0.0
 10
25.29996470926067
 20
4.815076406352363
 30
0.0
 10
24.95750410541237
 20
4.986633479182144
 30
0.0
  0
LINE
  5
A7
330
1F
100
AcDbEntity
  8
외형선
  6
Continuous
370
    15
100
AcDbLine
 10
25.98750000000001
 20
4.467025955854789
 30
0.0
 11
25.98750000000001
 21
3.206472384047068
 31
0.0
  0
SPLINE
  5
A8
330
1F
100
AcDbEntity
  8
외형선
  6
Continuous
370
    15
100
AcDbSpline
210
0.0
220
0.0
230
1.0
 70
     8
 71
     3
 72
     8
 73
     4
 74
     0
 42
0.000000001
 43
0.00000001
 40
0.0
 40
0.0
 40
0.0
 40
0.0
 40
1.0
 40
1.0
 40
1.0
 40
1.0
 10
24.95750200442905
 20
3.781617072287264
 30
0.0
 10
25.30139569194323
 20
3.591725093827701
 30
0.0
 10
25.64471549683538
 20
3.40000236395215
 30
0.0
 10
25.98750000000001
 20
3.206472384047069
 30
0.0
  0
LINE
  5
A9
330
1F
100
AcDbEntity
  8
외형선
  6
Continuous
370
    15
100
AcDbLine
 10
24.95750200442906
 20
-6.229112131118913
 30
0.0
 11
24.95750200442905
 21
3.781701065661559
 31
0.0
  0
SPLINE
  5
AA
330
1F
100
AcDbEntity
  8
외형선
  6
Continuous
370
    15
100
AcDbSpline
210
0.0
220
0.0
230
1.0
 70
     8
 71
     3
 72
     9
 73
     5
 74
     0
 42
0.000000001
 43
0.00000001
 40
0.0
 40
0.0
 40
0.0
 40
0.0
 40
0.1673341428271609
 40
1.0
 40
1.0
 40
1.0
 40
1.0
 10
25.57562929815697
 20
-4.675505657431372
 30
0.0
 10
25.54107118795828
 20
-4.693008023329103
 30
0.0
 10
25.33454961612112
 20
-4.797603329475368
 30
0.0
 10
25.12881352449644
 20
-4.900748236642671
 30
0.0
 10
24.95750410541237
 20
-4.986633479182147
 30
0.0
  0
LINE
  5
AB
330
1F
100
AcDbEntity
  8
외형선
  6
Continuous
370
    15
100
AcDbLine
 10
24.95750200442906
 20
4.986712005812599
 30
0.0
 11
24.95750200442906
 21
6.229112131118911
 31
0.0
  0
SPLINE
  5
AD
330
1F
100
AcDbEntity
  8
외형선
  6
Continuous
370
    15
100
AcDbSpline
210
0.0
220
0.0
230
1.0
 70
    24
 71
     3
 72
    10
 73
     6
 74
     0
 42
0.000000001
 43
0.00000001
 40
0.0
 40
0.0
 40
0.0
 40
0.0
 40
0.5
 40
0.5
 40
1.0
 40
1.0
 40
1.0
 40
1.0
 10
26.9875
 20
2.705533616018238
 30
0.0
 10
26.9875
 20
2.650388152557189
 30
0.0
 10
26.9875
 20
2.532928647088966
 30
0.0
 10
26.9875
 20
2.195927017092342
 30
0.0
 10
26.9875
 20
1.977671050705107
 30
0.0
 10
26.9875
 20
1.739690935202321
 30
0.0
  0
SPLINE
  5
AE
330
1F
100
AcDbEntity
  8
외형선
  6
Continuous
370
    15
100
AcDbSpline
210
0.0
220
0.0
230
1.0
 70
     8
 71
     3
 72
     8
 73
     4
 74
     0
 42
0.000000001
 43
0.00000001
 40
0.0
 40
0.0
 40
0.0
 40
0.0
 40
1.0
 40
1.0
 40
1.0
 40
1.0
 10
26.9875
 20
1.739690935202322
 30
0.0
 10
26.30892913210043
 20
1.988452920286472
 30
0.0
 10
25.63614376558481
 20
2.225250285830925
 30
0.0
 10
24.95750251047407
 20
2.446855678605446
 30
0.0
  0
SPLINE
  5
AF
330
1F
100
AcDbEntity
  8
외형선
  6
Continuous
370
    15
100
AcDbSpline
210
0.0
220
0.0
230
1.0
 70
     8
 71
     3
 72
     8
 73
     4
 74
     0
 42
0.000000001
 43
0.00000001
 40
0.0
 40
0.0
 40
0.0
 40
0.0
 40
1.0
 40
1.0
 40
1.0
 40
1.0
 10
26.9875
 20
2.705533616018238
 30
0.0
 10
26.65310317059045
 20
2.877205282996096
 30
0.0
 10
26.31939778329178
 20
3.044497497925622
 30
0.0
 10
25.98750000000001
 20
3.206472384047068
 30
0.0
  0
SPLINE
  5
B0
330
1F
100
AcDbEntity
  8
외형선
  6
Continuous
370
    15
100
AcDbSpline
210
0.0
220
0.0
230
1.0
 70
     8
 71
     3
 72
     8
 73
     4
 74
     0
 42
0.000000001
 43
0.00000001
 40
0.0
 40
0.0
 40
0.0
 40
0.0
 40
1.0
 40
1.0
 40
1.0
 40
1.0
 10
26.9875
 20
4.06483774530876
 30
0.0
 10
26.65310317059045
 20
4.20564218947387
 30
0.0
 10
26.31939778329178
 20
4.339948501561096
 30
0.0
 10
25.98750000000001
 20
4.467025955854792
 30
0.0
  0
LINE
  5
B1
330
1F
100
AcDbEntity
  8
외형선
  6
Continuous
370
    15
100
AcDbLine
 10
26.9875
 20
4.064837745308757
 30
0.0
 11
26.98750000000001
 21
2.705533616018239
 31
0.0
  0
SPLINE
  5
B2
330
1F
100
AcDbEntity
  8
외형선
  6
Continuous
370
    15
100
AcDbSpline
210
0.0
220
0.0
230
1.0
 70
     8
 71
     3
 72
     8
 73
     4
 74
     0
 42
0.000000001
 43
0.00000001
 40
0.0
 40
0.0
 40
0.0
 40
0.0
 40
1.0
 40
1.0
 40
1.0
 40
1.0
 10
26.9875
 20
-4.327631522302278
 30
0.0
 10
26.30892921908325
 20
-4.19701753814304
 30
0.0
 10
25.63614393954899
 20
-4.038777323262017
 30
0.0
 10
24.95750277144957
 20
-3.855063882520716
 30
0.0
  0
SPLINE
  5
B3
330
1F
100
AcDbEntity
  8
외형선
  6
Continuous
370
    15
100
AcDbSpline
210
0.0
220
0.0
230
1.0
 70
    24
 71
     3
 72
    14
 73
    10
 74
     0
 42
0.000000001
 43
0.00000001
 40
0.0
 40
0.0
 40
0.0
 40
0.0
 40
0.25
 40
0.25
 40
0.5
 40
0.5
 40
0.75
 40
0.75
 40
1.0
 40
1.0
 40
1.0
 40
1.0
 10
26.9875
 20
1.739690935202322
 30
0.0
 10
26.9875
 20
1.224604688384456
 30
0.0
 10
26.9875
 20
0.679115926292994
 30
0.0
 10
26.9875
 20
-0.426675484377852
 30
0.0
 10
26.9875
 20
-0.9864693713587119
 30
0.0
 10
26.9875
 20
-2.064807499698979
 30
0.0
 10
26.9875
 20
-2.582777157420206
 30
0.0
 10
26.9875
 20
-3.529204740933119
 30
0.0
 10
26.9875
 20
-3.957377740220392
 30
0.0
 10
26.9875
 20
-4.32763152230228
 30
0.0
  0
SPLINE
  5
B4
330
1F
100
AcDbEntity
  8
외형선
  6
Continuous
370
    15
100
AcDbSpline
210
0.0
220
0.0
230
1.0
 70
    24
 71
     3
 72
    11
 73
     7
 74
     0
 42
0.000000001
 43
0.00000001
 40
0.0
 40
0.0
 40
0.0
 40
0.0
 40
0.2070450645774579
 40
0.6287484247969521
 40
0.9986453069920771
 40
1.0
 40
1.0
 40
1.0
 40
1.0
 10
26.9875
 20
4.626789353397508
 30
0.0
 10
26.9875
 20
4.632341374419955
 30
0.0
 10
26.9875
 20
4.649201590235421
 30
0.0
 10
26.9875
 20
4.466658441538521
 30
0.0
 10
26.98750000000001
 20
4.282319454721136
 30
0.0
 10
26.9875
 20
4.131541696036224
 30
0.0
 10
26.9875
 20
4.130991509615253
 30
0.0
  0
SPLINE
  5
B5
330
1F
100
AcDbEntity
  8
외형선
  6
Continuous
370
    15
100
AcDbSpline
210
0.0
220
0.0
230
1.0
 70
    24
 71
     3
 72
    10
 73
     6
 74
     0
 42
0.000000001
 43
0.00000001
 40
0.0
 40
0.0
 40
0.0
 40
0.0
 40
0.3672902019622871
 40
0.7345804039245742
 40
1.0
 40
1.0
 40
1.0
 40
1.0
 10
26.9875
 20
-4.327631522302278
 30
0.0
 10
26.9875
 20
-4.395579468621026
 30
0.0
 10
26.9875
 20
-4.53147536125852
 30
0.0
 10
26.9875
 20
-4.639528414260278
 30
0.0
 10
26.9875
 20
-4.630552929651045
 30
0.0
 10
26.9875
 20
-4.626787744558365
 30
0.0
  0
SPLINE
  5
B6
330
1F
100
AcDbEntity
  8
0
  6
Continuous
 62
     1
370
    15
100
AcDbSpline
210
0.0
220
0.0
230
1.0
 70
     8
 71
     3
 72
    38
 73
    34
 74
     0
 42
0.000000001
 43
0.00000001
 40
0.0
 40
0.0
 40
0.0
 40
0.0
 40
0.0625
 40
0.0625
 40
0.125
 40
0.125
 40
0.1875
 40
0.1875
 40
0.25
 40
0.25
 40
0.3125
 40
0.3125
 40
0.375
 40
0.375
 40
0.4375
 40
0.4375
 40
0.5
 40
0.5
 40
0.5625
 40
0.5625
 40
0.625
 40
0.625
 40
0.6875
 40
0.6875
 40
0.75
 40
0.75
 40
0.8125
 40
0.8125
 40
0.875
 40
0.875
 40
0.9375
 40
0.9375
 40
1.0
 40
1.0
 40
1.0
 40
1.0
 10
47.62500000000001
 20
-5.948093509413972
 30
0.0
 10
47.19741420391055
 20
-5.937908691092713
 30
0.0
 10
46.765609331632
 20
-5.912174192964078
 30
0.0
 10
45.90363428278637
 20
-5.82996392158062
 30
0.0
 10
45.47628633355226
 20
-5.773666716552932
 30
0.0
 10
44.61668981102054
 20
-5.631120543713118
 30
0.0
 10
44.18430425261931
 20
-5.544778799021797
 30
0.0
 10
43.32447624400072
 20
-5.343970564110307
 30
0.0
 10
42.89727994056273
 20
-5.229608298505799
 30
0.0
 10
42.03538582091926
 20
-4.973543397019345
 30
0.0
 10
41.60350467710943
 20
-4.832043333386993
 30
0.0
 10
40.7479529569893
 20
-4.525602919475399
 30
0.0
 10
40.31660176762832
 20
-4.359755141055038
 30
0.0
 10
39.45455641947917
 20
-4.006216850446484
 30
0.0
 10
39.02703550926702
 20
-3.819017897897619
 30
0.0
 10
38.16768100507871
 20
-3.42510953124432
 30
0.0
 10
37.73530081900506
 20
-3.218265284447506
 30
0.0
 10
36.87525186604449
 20
-2.789622792236457
 30
0.0
 10
36.44818588700522
 20
-2.567974017212989
 30
0.0
 10
35.58638332313478
 20
-2.111125535257363
 30
0.0
 10
35.15443125916759
 20
-1.876385028305804
 30
0.0
 10
34.29850977807512
 20
-1.399829697402728
 30
0.0
 10
33.86759112029075
 20
-1.156733224169829
 30
0.0
 10
33.00548610562755
 20
-0.6657077914488984
 30
0.0
 10
32.57777092634383
 20
-0.4184531195450692
 30
0.0
 10
31.7186689628387
 20
0.0776468311893241
 30
0.0
 10
31.28629952119692
 20
0.3266825120471796
 30
0.0
 10
30.42604017469839
 20
0.8208967087976601
 30
0.0
 10
29.99908319331833
 20
1.065904112080991
 30
0.0
 10
29.13738280802765
 20
1.55056266906593
 30
0.0
 10
28.70536517822125
 20
1.789677072422072
 30
0.0
 10
27.84908431819569
 20
2.255940224967858
 30
0.0
 10
27.41857702296693
 20
2.484228553828347
 30
0.0
 10
26.9875
 20
2.705533616018239
 30
0.0
1001
PE_URL
1000

  0
SPLINE
  5
B7
330
1F
100
AcDbEntity
  8
0
  6
Continuous
 62
     1
370
    15
100
AcDbSpline
210
0.0
220
0.0
230
1.0
 70
     8
 71
     3
 72
    10
 73
     6
 74
     0
 42
0.000000001
 43
0.00000001
 40
0.0
 40
0.0
 40
0.0
 40
0.0
 40
0.2212532308867063
 40
0.6106267616878216
 40
1.0
 40
1.0
 40
1.0
 40
1.0
 10
32.81837814150613
 20
-0.556881589909384
 30
0.0
 10
32.38834488584997
 20
-0.3851574649124012
 30
0.0
 10
31.20151559858026
 20
0.0887761627699714
 30
0.0
 10
29.25788853470926
 20
0.8822930745112474
 30
0.0
 10
27.74429598874005
 20
1.453891719867404
 30
0.0
 10
26.98750000000001
 20
1.73969093520232
 30
0.0
1001
PE_URL
1000

  0
SPLINE
  5
B8
330
1F
100
AcDbEntity
  8
외형선
  6
Continuous
370
    15
100
AcDbSpline
210
0.0
220
0.0
230
1.0
 70
    24
 71
     3
 72
    10
 73
     6
 74
     0
 42
0.000000001
 43
0.00000001
 40
0.0
 40
0.0
 40
0.0
 40
0.0
 40
0.5
 40
0.5
 40
1.0
 40
1.0
 40
1.0
 40
1.0
 10
26.9875
 20
2.705533616018239
 30
0.0
 10
26.9875
 20
2.65038815255719
 30
0.0
 10
26.9875
 20
2.532928647088967
 30
0.0
 10
26.9875
 20
2.195927017092342
 30
0.0
 10
26.9875
 20
1.977671050705108
 30
0.0
 10
26.9875
 20
1.739690935202321
 30
0.0
  0
SPLINE
  5
B9
330
1F
100
AcDbEntity
  8
0
  6
Continuous
 62
     1
370
    15
100
AcDbSpline
210
0.0
220
0.0
230
1.0
 70
     8
 71
     3
 72
    38
 73
    34
 74
     0
 42
0.000000001
 43
0.00000001
 40
0.0
 40
0.0
 40
0.0
 40
0.0
 40
0.0625
 40
0.0625
 40
0.1249999999999999
 40
0.1249999999999999
 40
0.1874999999999999
 40
0.1874999999999999
 40
0.2499999999999999
 40
0.2499999999999999
 40
0.3124999999999999
 40
0.3124999999999999
 40
0.3749999999999998
 40
0.3749999999999998
 40
0.4374999999999998
 40
0.4374999999999998
 40
0.4999999999999998
 40
0.4999999999999998
 40
0.5624999999999998
 40
0.5624999999999998
 40
0.6249999999999998
 40
0.6249999999999998
 40
0.6874999999999997
 40
0.6874999999999997
 40
0.7499999999999998
 40
0.7499999999999998
 40
0.8124999999999999
 40
0.8124999999999999
 40
0.8749999999999999
 40
0.8749999999999999
 40
0.9375
 40
0.9375
 40
1.0
 40
1.0
 40
1.0
 40
1.0
 10
47.62500000000001
 20
-5.649163612146154
 30
0.0
 10
47.19741420391046
 20
-5.571002580805675
 30
0.0
 10
46.76560933163182
 20
-5.47784872043731
 30
0.0
 10
45.90363428278603
 20
-5.26350538648091
 30
0.0
 10
45.47628633355184
 20
-5.142632656077775
 30
0.0
 10
44.61668981101997
 20
-4.874309147652886
 30
0.0
 10
44.18430425261866
 20
-4.726769653224102
 30
0.0
 10
43.3244762439999
 20
-4.408380868263996
 30
0.0
 10
42.89727994056184
 20
-4.237633759831529
 30
0.0
 10
42.03538582091819
 20
-3.873938565900075
 30
0.0
 10
41.60350467710828
 20
-3.681327617540254
 30
0.0
 10
40.74795295698802
 20
-3.279225494770154
 30
0.0
 10
40.31660176762693
 20
-3.068539553514472
 30
0.0
 10
39.45455641947762
 20
-2.632329704520282
 30
0.0
 10
39.0270355092654
 20
-2.407382561644997
 30
0.0
 10
38.16768100507691
 20
-1.945389573188997
 30
0.0
 10
37.73530081900319
 20
-1.708215476301883
 30
0.0
 10
36.87525186604246
 20
-1.227054173141292
 30
0.0
 10
36.44818588700311
 20
-0.9832043685063121
 30
0.0
 10
35.58638332313249
 20
-0.4902006912037313
 30
0.0
 10
35.15443125916521
 20
-0.2415708476617318
 30
0.0
 10
34.29850977807263
 20
0.25411972851581
 30
0.0
 10
33.86759112028814
 20
0.5025186806852098
 30
0.0
 10
33.00548610562478
 20
0.9954510917884053
 30
0.0
 10
32.577770926341
 20
1.239325553402414
 30
0.0
 10
31.71866896283568
 20
1.720053543216238
 30
0.0
 10
31.28629952119381
 20
1.957068920289999
 30
0.0
 10
30.42604017469515
 20
2.418843695485361
 30
0.0
 10
29.99908319331499
 20
2.643470169970342
 30
0.0
 10
29.13738280802414
 20
3.079126156452634
 30
0.0
 10
28.70536517821766
 20
3.289645712617733
 30
0.0
 10
27.84908431819198
 20
3.691250127791252
 30
0.0
 10
27.4185770229631
 20
3.883324180369102
 30
0.0
 10
26.98749999999609
 20
4.064837745310409
 30
0.0
1001
PE_URL
1000

  0
SPLINE
  5
BA
330
1F
100
AcDbEntity
  8
0
  6
Continuous
 62
     1
370
    15
100
AcDbSpline
210
0.0
220
0.0
230
1.0
 70
     8
 71
     3
 72
    14
 73
    10
 74
     0
 42
0.000000001
 43
0.00000001
 40
0.0
 40
0.0
 40
0.0
 40
0.0
 40
0.1496346479561475
 40
0.2992862711480648
 40
0.4489521206740462
 40
0.5986294326509727
 40
0.7483154311023964
 40
0.8953309262245326
 40
1.0
 40
1.0
 40
1.0
 40
1.0
 10
47.62500000000001
 20
-4.696850511317036
 30
0.0
 10
46.85477008151263
 20
-4.53338252253994
 30
0.0
 10
45.31422286614897
 20
-4.206428000432808
 30
0.0
 10
43.0032345011556
 20
-3.442543567992296
 30
0.0
 10
40.69199562353808
 20
-2.523438400737139
 30
0.0
 10
38.38055837075846
 20
-1.472825536715455
 30
0.0
 10
36.08272334065805
 20
-0.3589513575193439
 30
0.0
 10
34.01663696543787
 20
0.666998921759614
 30
0.0
 10
32.72105783035515
 20
1.274998663624658
 30
0.0
 10
32.1822601254903
 20
1.527849961244848
 30
0.0
1001
PE_URL
1000

  0
LINE
  5
BB
330
1F
100
AcDbEntity
  8
0
  6
Continuous
 62
     1
370
    15
100
AcDbLine
 10
47.62500000000001
 20
-5.649163612146156
 30
0.0
 11
47.62500000000001
 21
-4.696850511317036
 31
0.0
1001
PE_URL
1000

  0
LINE
  5
BC
330
1F
100
AcDbEntity
  8
0
  6
Continuous
 62
     1
370
    15
100
AcDbLine
 10
47.62500000000001
 20
-5.948093509413972
 30
0.0
 11
47.62500000000001
 21
-5.649163612146156
 31
0.0
1001
PE_URL
1000

  0
SPLINE
  5
BD
330
1F
100
AcDbEntity
  8
0
  6
Continuous
 62
     1
370
    15
100
AcDbSpline
210
0.0
220
0.0
230
1.0
 70
     8
 71
     3
 72
     8
 73
     4
 74
     0
 42
0.000000001
 43
0.00000001
 40
0.0
 40
0.0
 40
0.0
 40
0.0
 40
1.0
 40
1.0
 40
1.0
 40
1.0
 10
43.94166502151209
 20
1.665016007299129
 30
0.0
 10
43.73036120872712
 20
1.915313681864334
 30
0.0
 10
43.54141839921252
 20
2.156559822557414
 30
0.0
 10
43.38044115885471
 20
2.386485751298696
 30
0.0
1001
PE_URL
1000

  0
LINE
  5
BE
330
1F
100
AcDbEntity
  8
0
  6
Continuous
 62
     1
370
    15
100
AcDbLine
 10
43.45570792851876
 20
2.449642069963688
 30
0.0
 11
47.62500000000001
 21
0.0000000000000012
 31
0.0
1001
PE_URL
1000

  0
LINE
  5
BF
330
1F
100
AcDbEntity
  8
0
  6
Continuous
 62
     1
370
    15
100
AcDbLine
 10
47.62500000000001
 20
0.0000000000000012
 30
0.0
 11
47.62500000000001
 21
-1.590930663082728
 31
0.0
1001
PE_URL
1000

  0
SPLINE
  5
C0
330
1F
100
AcDbEntity
  8
0
  6
Continuous
 62
     1
370
    15
100
AcDbSpline
210
0.0
220
0.0
230
1.0
 70
     8
 71
     3
 72
    12
 73
     8
 74
     0
 42
0.000000001
 43
0.00000001
 40
0.0
 40
0.0
 40
0.0
 40
0.0
 40
0.5
 40
0.5
 40
0.75
 40
0.75
 40
1.0
 40
1.0
 40
1.0
 40
1.0
 10
47.62500000000001
 20
-1.590930663082723
 30
0.0
 10
46.98740369311213
 20
-1.089673316788357
 30
0.0
 10
46.36045730431557
 20
-0.567865778994153
 30
0.0
 10
45.43642801621063
 20
0.246472409702087
 30
0.0
 10
45.13119394983917
 20
0.5232744847918696
 30
0.0
 10
44.5269600253658
 20
1.088908227376854
 30
0.0
 10
44.22960325998549
 20
1.376280379163465
 30
0.0
 10
43.94166502151209
 20
1.66501600729913
 30
0.0
1001
PE_URL
1000

  0
SPLINE
  5
C1
330
1F
100
AcDbEntity
  8
0
  6
Continuous
 62
     1
370
    15
100
AcDbSpline
210
0.0
220
0.0
230
1.0
 70
     8
 71
     3
 72
    14
 73
    10
 74
     0
 42
0.000000001
 43
0.00000001
 40
0.0
 40
0.0
 40
0.0
 40
0.0
 40
0.173136236014074
 40
0.3462450716085546
 40
0.5193176999076697
 40
0.692392405473652
 40
0.8285211637095597
 40
0.9646181369036004
 40
1.0
 40
1.0
 40
1.0
 40
1.0
 10
43.94166502151209
 20
1.665016007299123
 30
0.0
 10
43.15039482780642
 20
1.998855729686876
 30
0.0
 10
41.56797966626242
 20
2.666482341221456
 30
0.0
 10
39.19463402344219
 20
3.504034434525789
 30
0.0
 10
36.8216723755296
 20
4.161843424398959
 30
0.0
 10
34.6176462197309
 20
4.571570370181313
 30
0.0
 10
32.58270478450259
 20
4.751028954351342
 30
0.0
 10
31.17699854796629
 20
4.792024077711679
 30
0.0
 10
30.39343756716854
 20
4.728740209941518
 30
0.0
 10
30.23176252930375
 20
4.715682615231334
 30
0.0
1001
PE_URL
1000

  0
LINE
  5
C2
330
1F
100
AcDbEntity
  8
0
  6
Continuous
 62
     1
370
    15
100
AcDbLine
 10
47.62500000000001
 20
-4.696850511317034
 30
0.0
 11
47.62500000000001
 21
-1.590930663082724
 31
0.0
1001
PE_URL
1000

  0
SPLINE
  5
C3
330
1F
100
AcDbEntity
  8
외형선
  6
Continuous
370
    15
100
AcDbSpline
210
0.0
220
0.0
230
1.0
 70
    24
 71
     3
 72
    11
 73
     7
 74
     0
 42
0.000000001
 43
0.00000001
 40
0.0
 40
0.0
 40
0.0
 40
0.0
 40
0.2101083703250122
 40
0.6301826262039989
 40
0.998650540377598
 40
1.0
 40
1.0
 40
1.0
 40
1.0
 10
26.98750000000001
 20
4.626745050352274
 30
0.0
 10
26.98750000000001
 20
4.632458272250934
 30
0.0
 10
26.98750000000001
 20
4.649594063531471
 30
0.0
 10
26.98750000000001
 20
4.466758700179927
 30
0.0
 10
26.98749999999999
 20
4.28231939731598
 30
0.0
 10
26.9875
 20
4.131541695827514
 30
0.0
 10
26.9875
 20
4.130991509615253
 30
0.0
  0
SPLINE
  5
C4
330
1F
100
AcDbEntity
  8
0
  6
Continuous
 62
     1
370
    15
100
AcDbSpline
210
0.0
220
0.0
230
1.0
 70
    24
 71
     3
 72
     8
 73
     4
 74
     0
 42
0.000000001
 43
0.00000001
 40
0.0
 40
0.0
 40
0.0
 40
0.0
 40
1.0
 40
1.0
 40
1.0
 40
1.0
 10
44.00137207903389
 20
2.907508657407599
 30
0.0
 10
43.80587226874702
 20
2.743464838700662
 30
0.0
 10
43.59753917293017
 20
2.568652614838718
 30
0.0
 10
43.38044115885472
 20
2.386485751298686
 30
0.0
1001
PE_URL
1000

  0
LINE
  5
C5
330
1F
100
AcDbEntity
  8
0
  6
Continuous
 62
     1
370
    15
100
AcDbLine
 10
47.62500000000001
 20
4.167187499999997
 30
0.0
 11
45.41257955071065
 21
4.067380658668358
 31
0.0
1001
PE_URL
1000

  0
SPLINE
  5
C6
330
1F
100
AcDbEntity
  8
0
  6
Continuous
 62
     1
370
    15
100
AcDbSpline
210
0.0
220
0.0
230
1.0
 70
     8
 71
     3
 72
    10
 73
     6
 74
     0
 42
0.000000001
 43
0.00000001
 40
0.0
 40
0.0
 40
0.0
 40
0.0
 40
0.5
 40
0.5
 40
1.0
 40
1.0
 40
1.0
 40
1.0
 10
47.62500000000001
 20
4.167187500000001
 30
0.0
 10
47.012494813014
 20
4.001067311444938
 30
0.0
 10
46.40373844952459
 20
3.814562129958097
 30
0.0
 10
45.19438439805943
 20
3.397187303618879
 30
0.0
 10
44.59418431756247
 20
3.166963116759224
 30
0.0
 10
44.00137207903278
 20
2.907508657408358
 30
0.0
1001
PE_URL
1000

  0
SPLINE
  5
C7
330
1F
100
AcDbEntity
  8
0
  6
Continuous
 62
     1
370
    15
100
AcDbSpline
210
0.0
220
0.0
230
1.0
 70
     8
 71
     3
 72
    12
 73
     8
 74
     0
 42
0.000000001
 43
0.00000001
 40
0.0
 40
0.0
 40
0.0
 40
0.0
 40
0.0708689450615821
 40
0.3032542425026838
 40
0.5355852797235042
 40
0.7678206992764751
 40
1.0
 40
1.0
 40
1.0
 40
1.0
 10
35.01798265587846
 20
-4.455604634454554
 30
0.0
 10
34.8282624914024
 20
-4.492093559469373
 30
0.0
 10
34.01643377410349
 20
-4.648232772568867
 30
0.0
 10
32.58270178853501
 20
-4.750177960885329
 30
0.0
 10
30.71702417837997
 20
-4.777833234257574
 30
0.0
 10
28.8520307193003
 20
-4.645677223719122
 30
0.0
 10
27.60896016981771
 20
-4.433638215335729
 30
0.0
 10
26.98750000000001
 20
-4.32763152230228
 30
0.0
1001
PE_URL
1000

  0
SPLINE
  5
C8
330
1F
100
AcDbEntity
  8
외형선
  6
Continuous
370
    15
100
AcDbSpline
210
0.0
220
0.0
230
1.0
 70
    24
 71
     3
 72
    14
 73
    10
 74
     0
 42
0.000000001
 43
0.00000001
 40
0.0
 40
0.0
 40
0.0
 40
0.0
 40
0.25
 40
0.25
 40
0.5
 40
0.5
 40
0.75
 40
0.75
 40
1.0
 40
1.0
 40
1.0
 40
1.0
 10
26.9875
 20
1.739690935202322
 30
0.0
 10
26.9875
 20
1.224604688384456
 30
0.0
 10
26.9875
 20
0.679115926292994
 30
0.0
 10
26.9875
 20
-0.426675484377852
 30
0.0
 10
26.9875
 20
-0.9864693713587119
 30
0.0
 10
26.9875
 20
-2.064807499698979
 30
0.0
 10
26.9875
 20
-2.582777157420206
 30
0.0
 10
26.9875
 20
-3.529204740933119
 30
0.0
 10
26.9875
 20
-3.957377740220392
 30
0.0
 10
26.9875
 20
-4.32763152230228
 30
0.0
  0
LINE
  5
C9
330
1F
100
AcDbEntity
  8
0
  6
Continuous
 62
     1
370
    15
100
AcDbLine
 10
47.62500000000001
 20
0.0000000000000012
 30
0.0
 11
47.62500000000001
 21
4.167187500000001
 31
0.0
1001
PE_URL
1000

  0
SPLINE
  5
CA
330
1F
100
AcDbEntity
  8
외형선
  6
Continuous
370
    15
100
AcDbSpline
210
0.0
220
0.0
230
1.0
 70
    24
 71
     3
 72
    10
 73
     6
 74
     0
 42
0.000000001
 43
0.00000001
 40
0.0
 40
0.0
 40
0.0
 40
0.0
 40
0.3690970525207345
 40
0.7381941050414691
 40
1.0
 40
1.0
 40
1.0
 40
1.0
 10
26.98750000000001
 20
-4.327631522302278
 30
0.0
 10
26.98750000000001
 20
-4.395561197171427
 30
0.0
 10
26.98750000000001
 20
-4.531420546909721
 30
0.0
 10
26.98750000000001
 20
-4.639192160462279
 30
0.0
 10
26.98750000000001
 20
-4.630395430685801
 30
0.0
 10
26.98750000000001
 20
-4.626745050352278
 30
0.0
  0
SPLINE
  5
CB
330
1F
100
AcDbEntity
  8
0
  6
Continuous
 62
     1
370
    15
100
AcDbSpline
210
0.0
220
0.0
230
1.0
 70
     8
 71
     3
 72
    12
 73
     8
 74
     0
 42
0.000000001
 43
0.00000001
 40
0.0
 40
0.0
 40
0.0
 40
0.0
 40
0.1102663985175314
 40
0.3326287443814693
 40
0.5549995048254798
 40
0.7774371999797295
 40
0.9999999999999999
 40
0.9999999999999999
 40
0.9999999999999999
 40
0.9999999999999999
 10
39.46129654710054
 20
3.989285057251683
 30
0.0
 10
39.76135471353417
 20
4.120488908514864
 30
0.0
 10
40.66650780172866
 20
4.516277407009687
 30
0.0
 10
42.17666708838989
 20
5.036055128061335
 30
0.0
 10
43.99209076541511
 20
5.525791424112445
 30
0.0
 10
45.80814123092568
 20
5.851334816822973
 30
0.0
 10
47.01926691401815
 20
5.915834567521324
 30
0.0
 10
47.62500000000001
 20
5.948093509413969
 30
0.0
1001
PE_URL
1000

  0
LINE
  5
CC
330
1F
100
AcDbEntity
  8
0
  6
Continuous
 62
     1
370
    15
100
AcDbLine
 10
47.62500000000001
 20
4.167187500000001
 30
0.0
 11
47.62500000000001
 21
5.948093509413971
 31
0.0
1001
PE_URL
1000

  0
LINE
  5
CD
330
1F
100
AcDbEntity
  8
중심선
 62
     1
100
AcDbLine
 10
-50.625
 20
-0.0000000000000062
 30
0.0
 11
50.625
 21
0.0000000000000062
 31
0.0
  0
LINE
  5
CE
330
1F
100
AcDbEntity
  8
참조1
100
AcDbLine
 10
0.0
 20
-0.0000000000000058
 30
0.0
 11
0.0000000000000071
 21
-40.00000000000001
 31
0.0
  0
LINE
  5
CF
330
1F
100
AcDbEntity
  8
참조1
100
AcDbLine
 10
0.0000000000000071
 20
-40.00000000000001
 30
0.0
 11
-12.87821559669922
 21
-40.0
 31
0.0
  0
CIRCLE
  5
D0
330
1F
100
AcDbEntity
  8
해칭선
100
AcDbCircle
 10
0.0
 20
0.0
 30
0.0
 40
3.000000000000001
  0
INSERT
  5
D1
330
1F
100
AcDbEntity
  8
0
  6
Continuous
 62
     7
100
AcDbBlockReference
 66
     1
  2
블럭10
 10
-13.94027293212521
 20
-52.04717430164393
 30
0.0
  0
ATTRIB
  5
D2
330
D1
100
AcDbEntity
  8
FORMAT
 62
     2
100
AcDbText
 10
-23.12156822086649
 20
-49.97180738881175
 30
0.0
 40
4.233333333333333
  1
E1050030 [ 2 FLUTE ]
 41
0.75
  7
SLDTEXTSTYLE0
 11
-23.12156822086649
 21
-52.08847405547841
 31
0.0
100
AcDbAttribute
  2
AUTOATTR0
 70
     0
 74
     1
  0
SEQEND
  5
D3
330
D1
100
AcDbEntity
  8
0
  6
Continuous
 62
     7
  0
HATCH
  5
D4
330
1F
100
AcDbEntity
  8
중심선
100
AcDbHatch
 10
0.0
 20
0.0
 30
0.0
210
0.0
220
0.0
230
1.0
  2
SOLID
 70
     1
 71
     0
 91
        1
 92
        0
 93
        4
 72
     1
 10
-8.225363627744372
 20
-35.8
 11
-11.67163887158165
 21
-35.8
 72
     1
 10
-11.67163887158165
 20
-35.8
 11
-13.79986873078568
 21
-38.33632558057257
 72
     1
 10
-13.79986873078568
 20
-38.33632558057257
 11
-10.35356040183525
 21
-38.33628615127008
 72
     1
 10
-10.35356040183525
 20
-38.33628615127008
 11
-8.225363627744372
 21
-35.8
 97
        0
 75
     0
 76
     1
 98
        1
 10
16.58171167873051
 20
-0.001074928723895
  0
HATCH
  5
D5
330
1F
100
AcDbEntity
  8
중심선
100
AcDbHatch
 10
0.0
 20
0.0
 30
0.0
210
0.0
220
0.0
230
1.0
  2
SOLID
 70
     1
 71
     0
 91
        1
 92
        0
 93
        4
 72
     1
 10
-3.212599636708394
 20
-35.8
 11
-6.658874880545646
 21
-35.8
 72
     1
 10
-6.658874880545646
 20
-35.8
 11
-11.19001288890309
 21
-41.20000000000002
 72
     1
 10
-11.19001288890309
 20
-41.20000000000002
 11
-7.743737645065806
 21
-41.20000000000002
 72
     1
 10
-7.743737645065806
 20
-41.20000000000002
 11
-3.212599636708394
 21
-35.8
 97
        0
 75
     0
 76
     1
 98
        1
 10
16.58171167873051
 20
-0.001074928723895
  0
HATCH
  5
D6
330
1F
100
AcDbEntity
  8
중심선
100
AcDbHatch
 10
0.0
 20
0.0
 30
0.0
210
0.0
220
0.0
230
1.0
  2
SOLID
 70
     1
 71
     0
 91
        1
 92
        0
 93
        4
 72
     1
 10
1.800164354327503
 20
-35.80000000000003
 11
-1.646110889509611
 21
-35.8
 72
     1
 10
-1.646110889509611
 20
-35.8
 11
-8.69454779139889
 21
-44.20000000000002
 72
     1
 10
-8.69454779139889
 20
-44.20000000000002
 11
-5.248272547561605
 21
-44.20000000000002
 72
     1
 10
-5.248272547561605
 20
-44.20000000000002
 11
1.800164354327503
 21
-35.80000000000003
 97
        0
 75
     0
 76
     1
 98
        1
 10
16.58171167873051
 20
-0.001074928723895
  0
HATCH
  5
D7
330
1F
100
AcDbEntity
  8
중심선
100
AcDbHatch
 10
0.0
 20
0.0
 30
0.0
210
0.0
220
0.0
230
1.0
  2
SOLID
 70
     1
 71
     0
 91
        1
 92
        0
 93
        6
 72
     3
 10
6.600054785339674
 20
-40.00000000005127
 11
3.960054785062283
 21
1.540882976769353E-10
 40
0.3939339440162628
 50
17.09539180608437
 51
320.0019657685077
 73
     0
 72
     1
 10
8.283054441040242
 20
-38.5878940046383
 11
10.58835631474131
 21
-36.65356729459035
 72
     3
 10
6.600054785286828
 20
-40.00000000000015
 11
6.600054785286829
 21
-1.278976924368180E-13
 40
0.636358354079598
 50
39.9987384933743
 51
368.4976242363725
 73
     1
 72
     1
 10
13.02538727718744
 20
-39.03999999993002
 11
5.280122092122751
 21
-39.03999999993
 72
     1
 10
5.280122092122751
 20
-39.03999999993
 11
5.280097047676817
 21
-40.95999999992991
 72
     1
 10
5.280097047676817
 20
-40.95999999992991
 11
9.721476817148854
 21
-40.95999999992988
 97
        0
 75
     0
 76
     1
 98
        1
 10
16.58171167873051
 20
-0.001074928723895
  0
DIMENSION
  5
D8
330
1F
100
AcDbEntity
  8
치수문자_일반주서
100
AcDbDimension
  2
_D
 10
-57.62499999999995
 20
-6.350000000000133
 30
0.0
 11
-57.62500000000006
 21
26.29774999999995
 31
0.0
 70
   160
  1
%%c<>
 71
     2
 42
12.69999999999999
 52
-270.0
  3
SLDDIMSTYLE0
100
AcDbAlignedDimension
 13
-24.50634233574614
 23
6.349999999999992
 33
0.0
 14
-24.50634233574616
 24
-6.350000000000001
 34
0.0
 50
90.0000000000002
100
AcDbRotatedDimension
1001
PE_URL
1000

1001
ACAD
1000
DSTYLE
1002
{
1070
   171
1070
     8
1070
   273
1070
     7
1002
}
  0
DIMENSION
  5
ED
330
1F
100
AcDbEntity
  8
치수문자_일반주서
100
AcDbDimension
  2
_D_1
 10
90.12295790332982
 20
5.948093509414129
 30
0.0
 11
90.12295790332973
 21
28.08334350941413
 31
0.0
 70
   160
  1
%%c<>
 71
     2
 42
11.89618701882794
 52
-270.0
  3
SLDDIMSTYLE0
100
AcDbAlignedDimension
 13
47.62500000000001
 23
-5.948093509413972
 33
0.0
 14
47.62500000000001
 24
5.948093509413971
 34
0.0
 50
90.0000000000002
100
AcDbRotatedDimension
1001
PE_URL
1000

1001
ACAD
1000
DSTYLE
1002
{
1070
   171
1070
     8
1070
   273
1070
     7
1002
}
  0
DIMENSION
  5
101
330
1F
100
AcDbEntity
  8
치수문자_일반주서
100
AcDbDimension
  2
_D_2
 10
26.9875
 20
16.35
 30
0.0
 11
68.88525000000001
 21
16.35
 31
0.0
 70
   160
  1
<>
 71
     2
 42
20.63750000000001
  3
SLDDIMSTYLE0
100
AcDbAlignedDimension
 13
47.62500000000001
 23
5.948093509413971
 33
0.0
 14
26.9875
 24
4.649490122866664
 34
0.0
 50
0.0000000000000099
100
AcDbRotatedDimension
1001
PE_URL
1000

1001
ACAD
1000
DSTYLE
1002
{
1070
   171
1070
     8
1070
   273
1070
     7
1002
}
  0
DIMENSION
  5
116
330
1F
100
AcDbEntity
  8
치수문자_일반주서
100
AcDbDimension
  2
_D_3
 10
47.62500000000001
 20
26.35
 30
0.0
 11
0.0000000000000142
 21
26.35
 31
0.0
 70
   160
  1
<>
 71
     2
 42
95.25000000000004
  3
SLDDIMSTYLE0
100
AcDbAlignedDimension
 13
-47.62500000000003
 23
5.948093509414011
 33
0.0
 14
47.62500000000001
 24
5.948093509413971
 34
0.0
100
AcDbRotatedDimension
1001
PE_URL
1000

1001
ACAD
1000
DSTYLE
1002
{
1070
   171
1070
     8
1070
   273
1070
     7
1002
}
  0
LINE
  5
129
330
1F
100
AcDbEntity
  8
참조1
100
AcDbLine
 10
85.09412503295505
 20
7.44
 30
0.0
 11
85.09412503295505
 21
-7.440000000000004
 31
0.0
  0
LINE
  5
12A
330
1F
100
AcDbEntity
  8
참조1
100
AcDbLine
 10
97.79412503295505
 20
5.44
 30
0.0
 11
85.09412503295505
 21
5.44
 31
0.0
  0
SOLID
  5
12B
330
1F
100
AcDbEntity
  8
참조1
100
AcDbTrace
 10
85.09412503295505
 20
5.44
 30
0.0
 11
91.44412503295504
 21
4.424
 31
0.0
 12
91.44412503295504
 22
6.456
 32
0.0
 13
91.44412503295504
 23
6.456
 33
0.0
  0
LINE
  5
12C
330
1F
100
AcDbEntity
  8
참조1
100
AcDbLine
 10
97.79412503295505
 20
-5.440000000000004
 30
0.0
 11
85.09412503295505
 21
-5.440000000000004
 31
0.0
  0
SOLID
  5
12D
330
1F
100
AcDbEntity
  8
참조1
100
AcDbTrace
 10
85.09412503295505
 20
-5.440000000000004
 30
0.0
 11
91.44412503295504
 21
-6.456000000000004
 31
0.0
 12
91.44412503295504
 22
-4.424000000000004
 32
0.0
 13
91.44412503295504
 23
-4.424000000000004
 33
0.0
  0
MTEXT
  5
12E
330
1F
100
AcDbEntity
  8
참조1
100
AcDbMText
 10
94.47847516558105
 20
11.01029177718833
 30
0.0
 40
3.5
 41
0.0
 71
     1
 72
     1
  1
A
  7
SLDTEXTSTYLE0
 73
     1
 44
1.0
  0
MTEXT
  5
12F
330
1F
100
AcDbEntity
  8
참조1
100
AcDbMText
 10
94.47847516558105
 20
0.1302917771883242
 30
0.0
 40
3.5
 41
0.0
 71
     1
 72
     1
  1
A
  7
SLDTEXTSTYLE0
 73
     1
 44
1.0
  0
INSERT
  5
136
330
1F
100
AcDbEntity
  8
해칭선
100
AcDbBlockReference
  2
SW_DOWELSYMBOL_0
 10
0.0
 20
0.0
 30
0.0
  0
LINE
  5
1A9
330
1F
100
AcDbEntity
  8
외형선
  6
Continuous
370
    15
100
AcDbLine
 10
-5.587999999999951
 20
4.825999999999996
 30
0.0
 11
5.587999999999923
 21
4.825999999999996
 31
0.0
1001
PE_URL
1000

  0
LINE
  5
1AA
330
1F
100
AcDbEntity
  8
외형선
  6
Continuous
370
    15
100
AcDbLine
 10
-5.587999999999951
 20
4.825999999999996
 30
0.0
 11
-7.111999999999952
 21
6.349999999999993
 31
0.0
1001
PE_URL
1000

  0
LINE
  5
1AB
330
1F
100
AcDbEntity
  8
외형선
  6
Continuous
370
    15
100
AcDbLine
 10
5.588000000000036
 20
4.825999999999996
 30
0.0
 11
7.112000000000037
 21
6.349999999999993
 31
0.0
1001
PE_URL
1000

  0
LINE
  5
1F8
330
1F
100
AcDbEntity
  8
외형선
  6
Continuous
370
    15
100
AcDbLine
 10
-24.50634233574614
 20
6.349999999999994
 30
0.0
 11
-24.95750200442907
 21
6.229112131118908
 31
0.0
  0
LINE
  5
1F9
330
1F
100
AcDbEntity
  8
외형선
  6
Continuous
370
    15
100
AcDbLine
 10
-24.9575020044291
 20
-6.229112131118914
 30
0.0
 11
-24.50634233574616
 21
-6.350000000000001
 31
0.0
  0
SPLINE
  5
1FA
330
1F
100
AcDbEntity
  8
외형선
  6
Continuous
370
    15
100
AcDbSpline
210
0.0
220
0.0
230
1.0
 70
     8
 71
     3
 72
     9
 73
     5
 74
     0
 42
0.000000001
 43
0.00000001
 40
0.0
 40
0.0
 40
0.0
 40
0.0
 40
0.4993290492636354
 40
0.9999999999999999
 40
0.9999999999999999
 40
0.9999999999999999
 40
0.9999999999999999
 10
-26.98750000000004
 20
-4.649355831569256
 30
0.0
 10
-26.75628901260369
 20
-4.650890938348024
 30
0.0
 10
-26.29324567928007
 20
-4.653965277365611
 30
0.0
 10
-25.81740015620584
 20
-4.667128833809173
 30
0.0
 10
-25.57915812576463
 20
-4.673719444128842
 30
0.0
  0
SPLINE
  5
1FB
330
1F
100
AcDbEntity
  8
외형선
  6
Continuous
370
    15
100
AcDbSpline
210
0.0
220
0.0
230
1.0
 70
     8
 71
     3
 72
    13
 73
     9
 74
     0
 42
0.000000001
 43
0.00000001
 40
0.0
 40
0.0
 40
0.0
 40
0.0
 40
0.2235112151516555
 40
0.7900241912642065
 40
0.9291752278232835
 40
0.9697839356499685
 40
0.9857475891721669
 40
0.9999999999999999
 40
0.9999999999999999
 40
0.9999999999999999
 40
0.9999999999999999
 10
-25.25785450475038
 20
-4.835817303051492
 30
0.0
 10
-25.23242815895352
 20
-4.85977785224518
 30
0.0
 10
-25.14255603212832
 20
-4.944468964886418
 30
0.0
 10
-25.0443430472091
 20
-5.053203819808658
 30
0.0
 10
-24.97316883424453
 20
-5.143212133548001
 30
0.0
 10
-24.96040014736514
 20
-5.164733530017131
 30
0.0
 10
-24.95782107611276
 20
-5.171088377176893
 30
0.0
 10
-24.9576042688018
 20
-5.173001384027526
 30
0.0
 10
-24.9575020044291
 20
-5.173903717277671
 30
0.0
  0
SPLINE
  5
1FC
330
1F
100
AcDbEntity
  8
외형선
  6
Continuous
370
    15
100
AcDbSpline
210
0.0
220
0.0
230
1.0
 70
     8
 71
     3
 72
     9
 73
     5
 74
     0
 42
0.000000001
 43
0.00000001
 40
0.0
 40
0.0
 40
0.0
 40
0.0
 40
0.5586227555558491
 40
1.0
 40
1.0
 40
1.0
 40
1.0
 10
-24.95750277144959
 20
4.693913000214014
 30
0.0
 10
-25.33969403089716
 20
4.680658681907502
 30
0.0
 10
-26.02386103921619
 20
4.656931903550031
 30
0.0
 10
-26.69241534344031
 20
4.651675769522679
 30
0.0
 10
-26.98750000000003
 20
4.649355831569258
 30
0.0
  0
SPLINE
  5
1FD
330
1F
100
AcDbEntity
  8
0
  6
Continuous
 62
     1
370
    15
100
AcDbSpline
210
0.0
220
0.0
230
1.0
 70
     8
 71
     3
 72
     9
 73
     5
 74
     0
 42
0.000000001
 43
0.00000001
 40
0.0
 40
0.0
 40
0.0
 40
0.0
 40
0.4370270221649052
 40
1.0
 40
1.0
 40
1.0
 40
1.0
 10
-32.20246093993376
 20
-1.52548458532878
 30
0.0
 10
-31.9616861420271
 20
-1.639921970344798
 30
0.0
 10
-31.41074813202961
 20
-1.901776224686159
 30
0.0
 10
-30.85985972725192
 20
-2.189589155901761
 30
0.0
 10
-30.54972444155939
 20
-2.351620058847651
 30
0.0
1001
PE_URL
1000

  0
SPLINE
  5
1FE
330
1F
100
AcDbEntity
  8
0
  6
Continuous
 62
     1
370
    15
100
AcDbSpline
210
0.0
220
0.0
230
1.0
 70
     8
 71
     3
 72
    11
 73
     7
 74
     0
 42
0.000000001
 43
0.00000001
 40
0.0
 40
0.0
 40
0.0
 40
0.0
 40
0.2193473543315889
 40
0.4588060208330968
 40
0.717951925251468
 40
1.0
 40
1.0
 40
1.0
 40
1.0
 10
-30.23429342764097
 20
-4.730584058977307
 30
0.0
 10
-30.00392527750532
 20
-4.718876673464013
 30
0.0
 10
-29.52206720079179
 20
-4.694388486779101
 30
0.0
 10
-28.74543878480762
 20
-4.667632671564611
 30
0.0
 10
-27.89327588236229
 20
-4.650165800427203
 30
0.0
 10
-27.29782470044369
 20
-4.649633332160857
 30
0.0
 10
-26.98750000000004
 20
-4.649355831569256
 30
0.0
1001
PE_URL
1000

  0
SPLINE
  5
1FF
330
1F
100
AcDbEntity
  8
0
  6
Continuous
 62
     1
370
    15
100
AcDbSpline
210
0.0
220
0.0
230
1.0
 70
     8
 71
     3
 72
    22
 73
    18
 74
     0
 42
0.000000001
 43
0.00000001
 40
0.0
 40
0.0
 40
0.0
 40
0.0
 40
0.0807247752964884
 40
0.1490428829678896
 40
0.2377079547027336
 40
0.3217250152997051
 40
0.4078936333370288
 40
0.5001638316378352
 40
0.5627681608265956
 40
0.6235514893855192
 40
0.6808673239481304
 40
0.7397366146316361
 40
0.7825866458376933
 40
0.8284563990549388
 40
0.8738586325634513
 40
0.9372894383515616
 40
1.0
 40
1.0
 40
1.0
 40
1.0
 10
-45.41316714438376
 20
-4.071664021520363
 30
0.0
 10
-45.16256536488891
 20
-4.049851109741176
 30
0.0
 10
-44.69987703214825
 20
-4.00957773337619
 30
0.0
 10
-43.86757270831998
 20
-3.957115200613984
 30
0.0
 10
-42.98569163600355
 20
-3.930742966733586
 30
0.0
 10
-42.05947591953768
 20
-3.914277932517759
 30
0.0
 10
-41.14202747051796
 20
-3.920512014250292
 30
0.0
 10
-40.3011608073229
 20
-3.945124656923564
 30
0.0
 10
-39.54567879563061
 20
-3.982129611523028
 30
0.0
 10
-38.91167012574309
 20
-4.02334798776349
 30
0.0
 10
-38.29425573044018
 20
-4.072444354640741
 30
0.0
 10
-37.72758445561769
 20
-4.125553066001661
 30
0.0
 10
-37.195858964778
 20
-4.181239520667951
 30
0.0
 10
-36.71331000343741
 20
-4.234460254606169
 30
0.0
 10
-36.15647577325636
 20
-4.29967928865954
 30
0.0
 10
-35.54755552126559
 20
-4.388925723378374
 30
0.0
 10
-35.1900753722644
 20
-4.44813807856379
 30
0.0
 10
-35.01235587090171
 20
-4.477575210296742
 30
0.0
1001
PE_URL
1000

  0
SPLINE
  5
200
330
1F
100
AcDbEntity
  8
0
  6
Continuous
 62
     1
370
    15
100
AcDbSpline
210
0.0
220
0.0
230
1.0
 70
     8
 71
     3
 72
    14
 73
    10
 74
     0
 42
0.000000001
 43
0.00000001
 40
0.0
 40
0.0
 40
0.0
 40
0.0
 40
0.1459273317148636
 40
0.29353066987462
 40
0.4850351872319405
 40
0.661975387321867
 40
0.821544146470635
 40
0.9882210491144423
 40
1.0
 40
1.0
 40
1.0
 40
1.0
 10
-35.01235587090169
 20
4.477575210296777
 30
0.0
 10
-35.19004724833026
 20
4.448112210891914
 30
0.0
 10
-35.54747082645386
 20
4.388847823266957
 30
0.0
 10
-36.28782468314671
 20
4.28083964871708
 30
0.0
 10
-37.0875250335732
 20
4.192691204192167
 30
0.0
 10
-37.90726045836378
 20
4.106461892104745
 30
0.0
 10
-38.66596469059124
 20
4.04221666570729
 30
0.0
 10
-39.1748301321808
 20
4.003574095890748
 30
0.0
 10
-39.44344743458386
 20
3.990122113406663
 30
0.0
 10
-39.46117747789395
 20
3.989234217392834
 30
0.0
1001
PE_URL
1000

  0
SPLINE
  5
201
330
1F
100
AcDbEntity
  8
0
  6
Continuous
 62
     1
370
    15
100
AcDbSpline
210
0.0
220
0.0
230
1.0
 70
     8
 71
     3
 72
    11
 73
     7
 74
     0
 42
0.000000001
 43
0.00000001
 40
0.0
 40
0.0
 40
0.0
 40
0.0
 40
0.282048074748532
 40
0.5411939791669033
 40
0.7806526456684114
 40
1.0
 40
1.0
 40
1.0
 40
1.0
 10
-26.98750000000003
 20
4.649355831569258
 30
0.0
 10
-27.29782470044368
 20
4.649633332160859
 30
0.0
 10
-27.89327588236227
 20
4.650165800427212
 30
0.0
 10
-28.7454387848076
 20
4.667632671564624
 30
0.0
 10
-29.52206720079178
 20
4.694388486779115
 30
0.0
 10
-30.0039252775053
 20
4.718876673464024
 30
0.0
 10
-30.23429342764096
 20
4.730584058977319
 30
0.0
1001
PE_URL
1000

  0
LINE
  5
202
330
1F
100
AcDbEntity
  8
외형선
  6
Continuous
370
    15
100
AcDbLine
 10
-24.50634233574616
 20
-6.350000000000001
 30
0.0
 11
-24.50634233574614
 21
6.349999999999993
 31
0.0
  0
SPLINE
  5
203
330
1F
100
AcDbEntity
  8
외형선
  6
Continuous
370
    15
100
AcDbSpline
210
0.0
220
0.0
230
1.0
 70
     8
 71
     3
 72
     8
 73
     4
 74
     0
 42
0.000000001
 43
0.00000001
 40
0.0
 40
0.0
 40
0.0
 40
0.0
 40
1.0
 40
1.0
 40
1.0
 40
1.0
 10
-25.98750000000005
 20
-4.467025955854794
 30
0.0
 10
-25.64329648345601
 20
-4.641807691390078
 30
0.0
 10
-25.29996470926071
 20
-4.815076406352365
 30
0.0
 10
-24.9575041054124
 20
-4.986633479182149
 30
0.0
  0
LINE
  5
204
330
1F
100
AcDbEntity
  8
외형선
  6
Continuous
370
    15
100
AcDbLine
 10
-25.98750000000005
 20
-4.46702595585479
 30
0.0
 11
-25.98750000000005
 21
-3.206472384047071
 31
0.0
  0
SPLINE
  5
205
330
1F
100
AcDbEntity
  8
외형선
  6
Continuous
370
    15
100
AcDbSpline
210
0.0
220
0.0
230
1.0
 70
     8
 71
     3
 72
     8
 73
     4
 74
     0
 42
0.000000001
 43
0.00000001
 40
0.0
 40
0.0
 40
0.0
 40
0.0
 40
1.0
 40
1.0
 40
1.0
 40
1.0
 10
-24.95750200442908
 20
-3.781617072287268
 30
0.0
 10
-25.30139569194326
 20
-3.591725093827705
 30
0.0
 10
-25.64471549683542
 20
-3.400002363952154
 30
0.0
 10
-25.98750000000005
 20
-3.206472384047071
 30
0.0
  0
LINE
  5
206
330
1F
100
AcDbEntity
  8
외형선
  6
Continuous
370
    15
100
AcDbLine
 10
-24.95750200442907
 20
6.229112131118908
 30
0.0
 11
-24.95750200442908
 21
-3.781701065661562
 31
0.0
  0
SPLINE
  5
207
330
1F
100
AcDbEntity
  8
외형선
  6
Continuous
370
    15
100
AcDbSpline
210
0.0
220
0.0
230
1.0
 70
     8
 71
     3
 72
     9
 73
     5
 74
     0
 42
0.000000001
 43
0.00000001
 40
0.0
 40
0.0
 40
0.0
 40
0.0
 40
0.1673341428271609
 40
1.0
 40
1.0
 40
1.0
 40
1.0
 10
-25.57562929815699
 20
4.675505657431369
 30
0.0
 10
-25.5410711879583
 20
4.693008023329099
 30
0.0
 10
-25.33454961612114
 20
4.797603329475365
 30
0.0
 10
-25.12881352449645
 20
4.900748236642665
 30
0.0
 10
-24.95750410541239
 20
4.986633479182141
 30
0.0
  0
LINE
  5
208
330
1F
100
AcDbEntity
  8
외형선
  6
Continuous
370
    15
100
AcDbLine
 10
-24.95750200442909
 20
-4.986712005812603
 30
0.0
 11
-24.9575020044291
 21
-6.229112131118914
 31
0.0
  0
SPLINE
  5
209
330
1F
100
AcDbEntity
  8
외형선
  6
Continuous
370
    15
100
AcDbSpline
210
0.0
220
0.0
230
1.0
 70
    24
 71
     3
 72
    10
 73
     6
 74
     0
 42
0.000000001
 43
0.00000001
 40
0.0
 40
0.0
 40
0.0
 40
0.0
 40
0.5
 40
0.5
 40
1.0
 40
1.0
 40
1.0
 40
1.0
 10
-26.98750000000004
 20
-2.70553361601824
 30
0.0
 10
-26.98750000000004
 20
-2.650388152557191
 30
0.0
 10
-26.98750000000004
 20
-2.532928647088969
 30
0.0
 10
-26.98750000000004
 20
-2.195927017092345
 30
0.0
 10
-26.98750000000004
 20
-1.977671050705109
 30
0.0
 10
-26.98750000000003
 20
-1.739690935202322
 30
0.0
  0
SPLINE
  5
20A
330
1F
100
AcDbEntity
  8
외형선
  6
Continuous
370
    15
100
AcDbSpline
210
0.0
220
0.0
230
1.0
 70
     8
 71
     3
 72
     8
 73
     4
 74
     0
 42
0.000000001
 43
0.00000001
 40
0.0
 40
0.0
 40
0.0
 40
0.0
 40
1.0
 40
1.0
 40
1.0
 40
1.0
 10
-26.98750000000003
 20
-1.739690935202322
 30
0.0
 10
-26.30892913210047
 20
-1.988452920286473
 30
0.0
 10
-25.63614376558485
 20
-2.225250285830928
 30
0.0
 10
-24.9575025104741
 20
-2.446855678605449
 30
0.0
  0
SPLINE
  5
20B
330
1F
100
AcDbEntity
  8
외형선
  6
Continuous
370
    15
100
AcDbSpline
210
0.0
220
0.0
230
1.0
 70
     8
 71
     3
 72
     8
 73
     4
 74
     0
 42
0.000000001
 43
0.00000001
 40
0.0
 40
0.0
 40
0.0
 40
0.0
 40
1.0
 40
1.0
 40
1.0
 40
1.0
 10
-26.98750000000004
 20
-2.70553361601824
 30
0.0
 10
-26.65310317059049
 20
-2.877205282996098
 30
0.0
 10
-26.31939778329181
 20
-3.044497497925622
 30
0.0
 10
-25.98750000000005
 20
-3.206472384047071
 30
0.0
  0
SPLINE
  5
20C
330
1F
100
AcDbEntity
  8
외형선
  6
Continuous
370
    15
100
AcDbSpline
210
0.0
220
0.0
230
1.0
 70
     8
 71
     3
 72
     8
 73
     4
 74
     0
 42
0.000000001
 43
0.00000001
 40
0.0
 40
0.0
 40
0.0
 40
0.0
 40
1.0
 40
1.0
 40
1.0
 40
1.0
 10
-26.98750000000004
 20
-4.064837745308761
 30
0.0
 10
-26.65310317059049
 20
-4.20564218947387
 30
0.0
 10
-26.31939778329181
 20
-4.3399485015611
 30
0.0
 10
-25.98750000000005
 20
-4.467025955854794
 30
0.0
  0
LINE
  5
20D
330
1F
100
AcDbEntity
  8
외형선
  6
Continuous
370
    15
100
AcDbLine
 10
-26.98750000000004
 20
-4.064837745308758
 30
0.0
 11
-26.98750000000005
 21
-2.70553361601824
 31
0.0
  0
SPLINE
  5
20E
330
1F
100
AcDbEntity
  8
외형선
  6
Continuous
370
    15
100
AcDbSpline
210
0.0
220
0.0
230
1.0
 70
     8
 71
     3
 72
     8
 73
     4
 74
     0
 42
0.000000001
 43
0.00000001
 40
0.0
 40
0.0
 40
0.0
 40
0.0
 40
1.0
 40
1.0
 40
1.0
 40
1.0
 10
-26.98750000000003
 20
4.327631522302278
 30
0.0
 10
-26.30892921908327
 20
4.197017538143037
 30
0.0
 10
-25.63614393954901
 20
4.038777323262014
 30
0.0
 10
-24.95750277144959
 20
3.855063882520712
 30
0.0
  0
SPLINE
  5
20F
330
1F
100
AcDbEntity
  8
외형선
  6
Continuous
370
    15
100
AcDbSpline
210
0.0
220
0.0
230
1.0
 70
    24
 71
     3
 72
    14
 73
    10
 74
     0
 42
0.000000001
 43
0.00000001
 40
0.0
 40
0.0
 40
0.0
 40
0.0
 40
0.25
 40
0.25
 40
0.5
 40
0.5
 40
0.75
 40
0.75
 40
1.0
 40
1.0
 40
1.0
 40
1.0
 10
-26.98750000000003
 20
-1.739690935202322
 30
0.0
 10
-26.98750000000003
 20
-1.224604688384456
 30
0.0
 10
-26.98750000000003
 20
-0.6791159262929973
 30
0.0
 10
-26.98750000000003
 20
0.4266754843778493
 30
0.0
 10
-26.98750000000003
 20
0.9864693713587087
 30
0.0
 10
-26.98750000000003
 20
2.064807499698976
 30
0.0
 10
-26.98750000000003
 20
2.582777157420203
 30
0.0
 10
-26.98750000000003
 20
3.529204740933119
 30
0.0
 10
-26.98750000000003
 20
3.957377740220393
 30
0.0
 10
-26.98750000000003
 20
4.32763152230228
 30
0.0
  0
SPLINE
  5
210
330
1F
100
AcDbEntity
  8
외형선
  6
Continuous
370
    15
100
AcDbSpline
210
0.0
220
0.0
230
1.0
 70
    24
 71
     3
 72
    11
 73
     7
 74
     0
 42
0.000000001
 43
0.00000001
 40
0.0
 40
0.0
 40
0.0
 40
0.0
 40
0.2070450645774579
 40
0.6287484247969521
 40
0.9986453069920771
 40
1.0
 40
1.0
 40
1.0
 40
1.0
 10
-26.98750000000004
 20
-4.626789353397509
 30
0.0
 10
-26.98750000000004
 20
-4.632341374419955
 30
0.0
 10
-26.98750000000004
 20
-4.649201590235425
 30
0.0
 10
-26.98750000000004
 20
-4.466658441538524
 30
0.0
 10
-26.98750000000005
 20
-4.282319454721137
 30
0.0
 10
-26.98750000000004
 20
-4.131541696036226
 30
0.0
 10
-26.98750000000004
 20
-4.130991509615253
 30
0.0
  0
SPLINE
  5
211
330
1F
100
AcDbEntity
  8
외형선
  6
Continuous
370
    15
100
AcDbSpline
210
0.0
220
0.0
230
1.0
 70
    24
 71
     3
 72
    10
 73
     6
 74
     0
 42
0.000000001
 43
0.00000001
 40
0.0
 40
0.0
 40
0.0
 40
0.0
 40
0.3672902019622871
 40
0.7345804039245742
 40
1.0
 40
1.0
 40
1.0
 40
1.0
 10
-26.98750000000003
 20
4.327631522302278
 30
0.0
 10
-26.98750000000003
 20
4.395579468621026
 30
0.0
 10
-26.98750000000003
 20
4.53147536125852
 30
0.0
 10
-26.98750000000003
 20
4.639528414260278
 30
0.0
 10
-26.98750000000003
 20
4.630552929651044
 30
0.0
 10
-26.98750000000003
 20
4.626787744558365
 30
0.0
  0
SPLINE
  5
212
330
1F
100
AcDbEntity
  8
0
  6
Continuous
 62
     1
370
    15
100
AcDbSpline
210
0.0
220
0.0
230
1.0
 70
     8
 71
     3
 72
    38
 73
    34
 74
     0
 42
0.000000001
 43
0.00000001
 40
0.0
 40
0.0
 40
0.0
 40
0.0
 40
0.0625
 40
0.0625
 40
0.125
 40
0.125
 40
0.1875
 40
0.1875
 40
0.25
 40
0.25
 40
0.3125
 40
0.3125
 40
0.375
 40
0.375
 40
0.4375
 40
0.4375
 40
0.5
 40
0.5
 40
0.5625
 40
0.5625
 40
0.625
 40
0.625
 40
0.6875
 40
0.6875
 40
0.75
 40
0.75
 40
0.8125
 40
0.8125
 40
0.875
 40
0.875
 40
0.9375
 40
0.9375
 40
1.0
 40
1.0
 40
1.0
 40
1.0
 10
-47.62500000000003
 20
5.948093509414011
 30
0.0
 10
-47.19741420391057
 20
5.937908691092753
 30
0.0
 10
-46.76560933163202
 20
5.912174192964116
 30
0.0
 10
-45.90363428278638
 20
5.829963921580656
 30
0.0
 10
-45.47628633355228
 20
5.773666716552967
 30
0.0
 10
-44.61668981102056
 20
5.63112054371315
 30
0.0
 10
-44.18430425261933
 20
5.544778799021829
 30
0.0
 10
-43.32447624400073
 20
5.343970564110339
 30
0.0
 10
-42.89727994056275
 20
5.229608298505829
 30
0.0
 10
-42.03538582091927
 20
4.973543397019373
 30
0.0
 10
-41.60350467710944
 20
4.832043333387022
 30
0.0
 10
-40.74795295698932
 20
4.525602919475425
 30
0.0
 10
-40.31660176762834
 20
4.359755141055063
 30
0.0
 10
-39.45455641947919
 20
4.006216850446506
 30
0.0
 10
-39.02703550926705
 20
3.819017897897643
 30
0.0
 10
-38.16768100507873
 20
3.42510953124434
 30
0.0
 10
-37.73530081900509
 20
3.218265284447529
 30
0.0
 10
-36.87525186604452
 20
2.789622792236475
 30
0.0
 10
-36.44818588700525
 20
2.567974017213007
 30
0.0
 10
-35.58638332313481
 20
2.111125535257379
 30
0.0
 10
-35.15443125916762
 20
1.876385028305819
 30
0.0
 10
-34.29850977807516
 20
1.399829697402744
 30
0.0
 10
-33.86759112029078
 20
1.156733224169841
 30
0.0
 10
-33.00548610562758
 20
0.6657077914489093
 30
0.0
 10
-32.57777092634386
 20
0.4184531195450809
 30
0.0
 10
-31.71866896283872
 20
-0.0776468311893161
 30
0.0
 10
-31.28629952119694
 20
-0.3266825120471708
 30
0.0
 10
-30.42604017469842
 20
-0.8208967087976546
 30
0.0
 10
-29.99908319331836
 20
-1.065904112080986
 30
0.0
 10
-29.13738280802767
 20
-1.550562669065926
 30
0.0
 10
-28.70536517822128
 20
-1.789677072422069
 30
0.0
 10
-27.84908431819573
 20
-2.255940224967855
 30
0.0
 10
-27.41857702296697
 20
-2.484228553828348
 30
0.0
 10
-26.98750000000004
 20
-2.70553361601824
 30
0.0
1001
PE_URL
1000

  0
SPLINE
  5
213
330
1F
100
AcDbEntity
  8
0
  6
Continuous
 62
     1
370
    15
100
AcDbSpline
210
0.0
220
0.0
230
1.0
 70
     8
 71
     3
 72
    10
 73
     6
 74
     0
 42
0.000000001
 43
0.00000001
 40
0.0
 40
0.0
 40
0.0
 40
0.0
 40
0.2212532308867063
 40
0.6106267616878216
 40
1.0
 40
1.0
 40
1.0
 40
1.0
 10
-32.81837814150616
 20
0.5568815899093948
 30
0.0
 10
-32.38834488585
 20
0.3851574649124103
 30
0.0
 10
-31.20151559858029
 20
-0.0887761627699639
 30
0.0
 10
-29.25788853470929
 20
-0.8822930745112423
 30
0.0
 10
-27.74429598874008
 20
-1.4538917198674
 30
0.0
 10
-26.98750000000004
 20
-1.739690935202322
 30
0.0
1001
PE_URL
1000

  0
SPLINE
  5
214
330
1F
100
AcDbEntity
  8
외형선
  6
Continuous
370
    15
100
AcDbSpline
210
0.0
220
0.0
230
1.0
 70
    24
 71
     3
 72
    10
 73
     6
 74
     0
 42
0.000000001
 43
0.00000001
 40
0.0
 40
0.0
 40
0.0
 40
0.0
 40
0.5
 40
0.5
 40
1.0
 40
1.0
 40
1.0
 40
1.0
 10
-26.98750000000004
 20
-2.70553361601824
 30
0.0
 10
-26.98750000000004
 20
-2.650388152557191
 30
0.0
 10
-26.98750000000004
 20
-2.532928647088969
 30
0.0
 10
-26.98750000000004
 20
-2.195927017092345
 30
0.0
 10
-26.98750000000004
 20
-1.977671050705109
 30
0.0
 10
-26.98750000000003
 20
-1.739690935202322
 30
0.0
  0
SPLINE
  5
215
330
1F
100
AcDbEntity
  8
0
  6
Continuous
 62
     1
370
    15
100
AcDbSpline
210
0.0
220
0.0
230
1.0
 70
     8
 71
     3
 72
    38
 73
    34
 74
     0
 42
0.000000001
 43
0.00000001
 40
0.0
 40
0.0
 40
0.0
 40
0.0
 40
0.0625
 40
0.0625
 40
0.1249999999999999
 40
0.1249999999999999
 40
0.1874999999999999
 40
0.1874999999999999
 40
0.2499999999999999
 40
0.2499999999999999
 40
0.3124999999999999
 40
0.3124999999999999
 40
0.3749999999999998
 40
0.3749999999999998
 40
0.4374999999999998
 40
0.4374999999999998
 40
0.4999999999999998
 40
0.4999999999999998
 40
0.5624999999999998
 40
0.5624999999999998
 40
0.6249999999999998
 40
0.6249999999999998
 40
0.6874999999999997
 40
0.6874999999999997
 40
0.7499999999999998
 40
0.7499999999999998
 40
0.8124999999999999
 40
0.8124999999999999
 40
0.8749999999999999
 40
0.8749999999999999
 40
0.9375
 40
0.9375
 40
1.0
 40
1.0
 40
1.0
 40
1.0
 10
-47.62500000000003
 20
5.649163612146193
 30
0.0
 10
-47.19741420391048
 20
5.571002580805713
 30
0.0
 10
-46.76560933163184
 20
5.477848720437349
 30
0.0
 10
-45.90363428278604
 20
5.263505386480945
 30
0.0
 10
-45.47628633355185
 20
5.142632656077812
 30
0.0
 10
-44.61668981102
 20
4.874309147652918
 30
0.0
 10
-44.18430425261867
 20
4.726769653224135
 30
0.0
 10
-43.32447624399992
 20
4.408380868264027
 30
0.0
 10
-42.89727994056186
 20
4.23763375983156
 30
0.0
 10
-42.03538582091821
 20
3.873938565900104
 30
0.0
 10
-41.6035046771083
 20
3.681327617540283
 30
0.0
 10
-40.74795295698804
 20
3.279225494770181
 30
0.0
 10
-40.31660176762696
 20
3.068539553514498
 30
0.0
 10
-39.45455641947765
 20
2.632329704520306
 30
0.0
 10
-39.02703550926543
 20
2.407382561645019
 30
0.0
 10
-38.16768100507694
 20
1.945389573189019
 30
0.0
 10
-37.73530081900321
 20
1.708215476301906
 30
0.0
 10
-36.87525186604249
 20
1.227054173141308
 30
0.0
 10
-36.44818588700313
 20
0.9832043685063283
 30
0.0
 10
-35.58638332313252
 20
0.4902006912037464
 30
0.0
 10
-35.15443125916525
 20
0.2415708476617482
 30
0.0
 10
-34.29850977807266
 20
-0.2541197285157963
 30
0.0
 10
-33.86759112028817
 20
-0.5025186806851991
 30
0.0
 10
-33.00548610562481
 20
-0.995451091788393
 30
0.0
 10
-32.57777092634103
 20
-1.239325553402402
 30
0.0
 10
-31.71866896283571
 20
-1.720053543216228
 30
0.0
 10
-31.28629952119384
 20
-1.957068920289991
 30
0.0
 10
-30.42604017469519
 20
-2.418843695485357
 30
0.0
 10
-29.99908319331503
 20
-2.643470169970335
 30
0.0
 10
-29.13738280802417
 20
-3.079126156452631
 30
0.0
 10
-28.7053651782177
 20
-3.28964571261773
 30
0.0
 10
-27.84908431819202
 20
-3.69125012779125
 30
0.0
 10
-27.41857702296313
 20
-3.883324180369105
 30
0.0
 10
-26.98749999999613
 20
-4.06483774531041
 30
0.0
1001
PE_URL
1000

  0
SPLINE
  5
216
330
1F
100
AcDbEntity
  8
0
  6
Continuous
 62
     1
370
    15
100
AcDbSpline
210
0.0
220
0.0
230
1.0
 70
     8
 71
     3
 72
    14
 73
    10
 74
     0
 42
0.000000001
 43
0.00000001
 40
0.0
 40
0.0
 40
0.0
 40
0.0
 40
0.1496346479561475
 40
0.2992862711480648
 40
0.4489521206740462
 40
0.5986294326509727
 40
0.7483154311023964
 40
0.8953309262245326
 40
1.0
 40
1.0
 40
1.0
 40
1.0
 10
-47.62500000000003
 20
4.696850511317075
 30
0.0
 10
-46.85477008151265
 20
4.533382522539979
 30
0.0
 10
-45.31422286614898
 20
4.206428000432844
 30
0.0
 10
-43.00323450115563
 20
3.442543567992326
 30
0.0
 10
-40.69199562353811
 20
2.523438400737167
 30
0.0
 10
-38.38055837075849
 20
1.472825536715479
 30
0.0
 10
-36.08272334065808
 20
0.3589513575193592
 30
0.0
 10
-34.0166369654379
 20
-0.6669989217596033
 30
0.0
 10
-32.72105783035518
 20
-1.274998663624647
 30
0.0
 10
-32.18226012549033
 20
-1.527849961244836
 30
0.0
1001
PE_URL
1000

  0
LINE
  5
217
330
1F
100
AcDbEntity
  8
0
  6
Continuous
 62
     1
370
    15
100
AcDbLine
 10
-47.62500000000003
 20
5.649163612146195
 30
0.0
 11
-47.62500000000003
 21
4.696850511317075
 31
0.0
1001
PE_URL
1000

  0
LINE
  5
218
330
1F
100
AcDbEntity
  8
0
  6
Continuous
 62
     1
370
    15
100
AcDbLine
 10
-47.62500000000003
 20
5.948093509414011
 30
0.0
 11
-47.62500000000003
 21
5.649163612146195
 31
0.0
1001
PE_URL
1000

  0
SPLINE
  5
219
330
1F
100
AcDbEntity
  8
0
  6
Continuous
 62
     1
370
    15
100
AcDbSpline
210
0.0
220
0.0
230
1.0
 70
     8
 71
     3
 72
     8
 73
     4
 74
     0
 42
0.000000001
 43
0.00000001
 40
0.0
 40
0.0
 40
0.0
 40
0.0
 40
1.0
 40
1.0
 40
1.0
 40
1.0
 10
-43.94166502151212
 20
-1.665016007299094
 30
0.0
 10
-43.73036120872715
 20
-1.915313681864305
 30
0.0
 10
-43.54141839921255
 20
-2.156559822557384
 30
0.0
 10
-43.38044115885474
 20
-2.386485751298665
 30
0.0
1001
PE_URL
1000

  0
LINE
  5
21A
330
1F
100
AcDbEntity
  8
0
  6
Continuous
 62
     1
370
    15
100
AcDbLine
 10
-43.45570792851879
 20
-2.449642069963659
 30
0.0
 11
-47.62500000000004
 21
0.0000000000000391
 31
0.0
1001
PE_URL
1000

  0
LINE
  5
21B
330
1F
100
AcDbEntity
  8
0
  6
Continuous
 62
     1
370
    15
100
AcDbLine
 10
-47.62500000000004
 20
0.0000000000000391
 30
0.0
 11
-47.62500000000004
 21
1.590930663082769
 31
0.0
1001
PE_URL
1000

  0
SPLINE
  5
21C
330
1F
100
AcDbEntity
  8
0
  6
Continuous
 62
     1
370
    15
100
AcDbSpline
210
0.0
220
0.0
230
1.0
 70
     8
 71
     3
 72
    12
 73
     8
 74
     0
 42
0.000000001
 43
0.00000001
 40
0.0
 40
0.0
 40
0.0
 40
0.0
 40
0.5
 40
0.5
 40
0.75
 40
0.75
 40
1.0
 40
1.0
 40
1.0
 40
1.0
 10
-47.62500000000004
 20
1.590930663082766
 30
0.0
 10
-46.98740369311216
 20
1.089673316788392
 30
0.0
 10
-46.3604573043156
 20
0.5678657789941894
 30
0.0
 10
-45.43642801621066
 20
-0.2464724097020508
 30
0.0
 10
-45.1311939498392
 20
-0.523274484791834
 30
0.0
 10
-44.52696002536582
 20
-1.08890822737682
 30
0.0
 10
-44.22960325998552
 20
-1.376280379163429
 30
0.0
 10
-43.94166502151212
 20
-1.665016007299094
 30
0.0
1001
PE_URL
1000

  0
SPLINE
  5
21D
330
1F
100
AcDbEntity
  8
0
  6
Continuous
 62
     1
370
    15
100
AcDbSpline
210
0.0
220
0.0
230
1.0
 70
     8
 71
     3
 72
    14
 73
    10
 74
     0
 42
0.000000001
 43
0.00000001
 40
0.0
 40
0.0
 40
0.0
 40
0.0
 40
0.173136236014074
 40
0.3462450716085546
 40
0.5193176999076697
 40
0.692392405473652
 40
0.8285211637095597
 40
0.9646181369036004
 40
1.0
 40
1.0
 40
1.0
 40
1.0
 10
-43.94166502151212
 20
-1.665016007299091
 30
0.0
 10
-43.15039482780645
 20
-1.998855729686845
 30
0.0
 10
-41.56797966626246
 20
-2.666482341221428
 30
0.0
 10
-39.19463402344223
 20
-3.504034434525767
 30
0.0
 10
-36.82167237552964
 20
-4.161843424398942
 30
0.0
 10
-34.61764621973094
 20
-4.571570370181298
 30
0.0
 10
-32.58270478450264
 20
-4.75102895435133
 30
0.0
 10
-31.17699854796633
 20
-4.79202407771167
 30
0.0
 10
-30.39343756716858
 20
-4.728740209941513
 30
0.0
 10
-30.23176252930379
 20
-4.71568261523133
 30
0.0
1001
PE_URL
1000

  0
LINE
  5
21E
330
1F
100
AcDbEntity
  8
0
  6
Continuous
 62
     1
370
    15
100
AcDbLine
 10
-47.62500000000003
 20
4.696850511317074
 30
0.0
 11
-47.62500000000004
 21
1.590930663082766
 31
0.0
1001
PE_URL
1000

  0
SPLINE
  5
21F
330
1F
100
AcDbEntity
  8
외형선
  6
Continuous
370
    15
100
AcDbSpline
210
0.0
220
0.0
230
1.0
 70
    24
 71
     3
 72
    11
 73
     7
 74
     0
 42
0.000000001
 43
0.00000001
 40
0.0
 40
0.0
 40
0.0
 40
0.0
 40
0.2101083703250122
 40
0.6301826262039989
 40
0.998650540377598
 40
1.0
 40
1.0
 40
1.0
 40
1.0
 10
-26.98750000000005
 20
-4.626745050352277
 30
0.0
 10
-26.98750000000005
 20
-4.632458272250936
 30
0.0
 10
-26.98750000000005
 20
-4.649594063531474
 30
0.0
 10
-26.98750000000005
 20
-4.466758700179927
 30
0.0
 10
-26.98750000000003
 20
-4.282319397315984
 30
0.0
 10
-26.98750000000004
 20
-4.131541695827515
 30
0.0
 10
-26.98750000000004
 20
-4.130991509615253
 30
0.0
  0
SPLINE
  5
220
330
1F
100
AcDbEntity
  8
0
  6
Continuous
 62
     1
370
    15
100
AcDbSpline
210
0.0
220
0.0
230
1.0
 70
    24
 71
     3
 72
     8
 73
     4
 74
     0
 42
0.000000001
 43
0.00000001
 40
0.0
 40
0.0
 40
0.0
 40
0.0
 40
1.0
 40
1.0
 40
1.0
 40
1.0
 10
-44.00137207903391
 20
-2.907508657407565
 30
0.0
 10
-43.80587226874705
 20
-2.743464838700632
 30
0.0
 10
-43.5975391729302
 20
-2.568652614838687
 30
0.0
 10
-43.38044115885475
 20
-2.386485751298657
 30
0.0
1001
PE_URL
1000

  0
LINE
  5
221
330
1F
100
AcDbEntity
  8
0
  6
Continuous
 62
     1
370
    15
100
AcDbLine
 10
-47.62500000000006
 20
-4.167187499999955
 30
0.0
 11
-45.41257955071069
 21
-4.067380658668323
 31
0.0
1001
PE_URL
1000

  0
SPLINE
  5
222
330
1F
100
AcDbEntity
  8
0
  6
Continuous
 62
     1
370
    15
100
AcDbSpline
210
0.0
220
0.0
230
1.0
 70
     8
 71
     3
 72
    10
 73
     6
 74
     0
 42
0.000000001
 43
0.00000001
 40
0.0
 40
0.0
 40
0.0
 40
0.0
 40
0.5
 40
0.5
 40
1.0
 40
1.0
 40
1.0
 40
1.0
 10
-47.62500000000006
 20
-4.167187499999962
 30
0.0
 10
-47.01249481301404
 20
-4.001067311444903
 30
0.0
 10
-46.40373844952462
 20
-3.814562129958059
 30
0.0
 10
-45.19438439805947
 20
-3.397187303618843
 30
0.0
 10
-44.59418431756249
 20
-3.166963116759188
 30
0.0
 10
-44.00137207903281
 20
-2.907508657408325
 30
0.0
1001
PE_URL
1000

  0
SPLINE
  5
223
330
1F
100
AcDbEntity
  8
0
  6
Continuous
 62
     1
370
    15
100
AcDbSpline
210
0.0
220
0.0
230
1.0
 70
     8
 71
     3
 72
    12
 73
     8
 74
     0
 42
0.000000001
 43
0.00000001
 40
0.0
 40
0.0
 40
0.0
 40
0.0
 40
0.0708689450615821
 40
0.3032542425026838
 40
0.5355852797235042
 40
0.7678206992764751
 40
1.0
 40
1.0
 40
1.0
 40
1.0
 10
-35.01798265587848
 20
4.45560463445457
 30
0.0
 10
-34.82826249140241
 20
4.492093559469387
 30
0.0
 10
-34.0164337741035
 20
4.64823277256888
 30
0.0
 10
-32.58270178853503
 20
4.75017796088534
 30
0.0
 10
-30.71702417837999
 20
4.777833234257582
 30
0.0
 10
-28.85203071930032
 20
4.645677223719126
 30
0.0
 10
-27.60896016981773
 20
4.43363821533573
 30
0.0
 10
-26.98750000000003
 20
4.32763152230228
 30
0.0
1001
PE_URL
1000

  0
SPLINE
  5
224
330
1F
100
AcDbEntity
  8
외형선
  6
Continuous
370
    15
100
AcDbSpline
210
0.0
220
0.0
230
1.0
 70
    24
 71
     3
 72
    14
 73
    10
 74
     0
 42
0.000000001
 43
0.00000001
 40
0.0
 40
0.0
 40
0.0
 40
0.0
 40
0.25
 40
0.25
 40
0.5
 40
0.5
 40
0.75
 40
0.75
 40
1.0
 40
1.0
 40
1.0
 40
1.0
 10
-26.98750000000003
 20
-1.739690935202322
 30
0.0
 10
-26.98750000000003
 20
-1.224604688384456
 30
0.0
 10
-26.98750000000003
 20
-0.6791159262929973
 30
0.0
 10
-26.98750000000003
 20
0.4266754843778493
 30
0.0
 10
-26.98750000000003
 20
0.9864693713587087
 30
0.0
 10
-26.98750000000003
 20
2.064807499698976
 30
0.0
 10
-26.98750000000003
 20
2.582777157420203
 30
0.0
 10
-26.98750000000003
 20
3.529204740933119
 30
0.0
 10
-26.98750000000003
 20
3.957377740220393
 30
0.0
 10
-26.98750000000003
 20
4.32763152230228
 30
0.0
  0
LINE
  5
225
330
1F
100
AcDbEntity
  8
0
  6
Continuous
 62
     1
370
    15
100
AcDbLine
 10
-47.62500000000004
 20
0.0000000000000391
 30
0.0
 11
-47.62500000000006
 21
-4.167187499999962
 31
0.0
1001
PE_URL
1000

  0
SPLINE
  5
226
330
1F
100
AcDbEntity
  8
외형선
  6
Continuous
370
    15
100
AcDbSpline
210
0.0
220
0.0
230
1.0
 70
    24
 71
     3
 72
    10
 73
     6
 74
     0
 42
0.000000001
 43
0.00000001
 40
0.0
 40
0.0
 40
0.0
 40
0.0
 40
0.3690970525207345
 40
0.7381941050414691
 40
1.0
 40
1.0
 40
1.0
 40
1.0
 10
-26.98750000000003
 20
4.327631522302278
 30
0.0
 10
-26.98750000000003
 20
4.395561197171427
 30
0.0
 10
-26.98750000000003
 20
4.53142054690972
 30
0.0
 10
-26.98750000000003
 20
4.639192160462279
 30
0.0
 10
-26.98750000000003
 20
4.6303954306858
 30
0.0
 10
-26.98750000000003
 20
4.626745050352278
 30
0.0
  0
SPLINE
  5
227
330
1F
100
AcDbEntity
  8
0
  6
Continuous
 62
     1
370
    15
100
AcDbSpline
210
0.0
220
0.0
230
1.0
 70
     8
 71
     3
 72
    12
 73
     8
 74
     0
 42
0.000000001
 43
0.00000001
 40
0.0
 40
0.0
 40
0.0
 40
0.0
 40
0.1102663985175314
 40
0.3326287443814693
 40
0.5549995048254798
 40
0.7774371999797295
 40
0.9999999999999999
 40
0.9999999999999999
 40
0.9999999999999999
 40
0.9999999999999999
 10
-39.46129654710057
 20
-3.98928505725166
 30
0.0
 10
-39.76135471353422
 20
-4.12048890851484
 30
0.0
 10
-40.6665078017287
 20
-4.51627740700966
 30
0.0
 10
-42.17666708838993
 20
-5.036055128061307
 30
0.0
 10
-43.99209076541516
 20
-5.525791424112409
 30
0.0
 10
-45.80814123092573
 20
-5.851334816822938
 30
0.0
 10
-47.01926691401819
 20
-5.915834567521287
 30
0.0
 10
-47.62500000000006
 20
-5.94809350941393
 30
0.0
1001
PE_URL
1000

  0
LINE
  5
228
330
1F
100
AcDbEntity
  8
0
  6
Continuous
 62
     1
370
    15
100
AcDbLine
 10
-47.62500000000006
 20
-4.167187499999962
 30
0.0
 11
-47.62500000000006
 21
-5.94809350941393
 31
0.0
1001
PE_URL
1000

  0
LINE
  5
22A
330
1F
100
AcDbEntity
  8
외형선
  6
Continuous
370
    15
100
AcDbLine
 10
-7.111999999999949
 20
6.349999999999993
 30
0.0
 11
-24.50634233574614
 21
6.349999999999992
 31
0.0
  0
ENDSEC
  0
SECTION
  2
OBJECTS
  0
DICTIONARY
  5
C
330
0
100
AcDbDictionary
281
     1
  3
ACAD_GROUP
350
D
  3
ACAD_LAYOUT
350
1A
  3
ACAD_MLINESTYLE
350
17
  3
ACAD_PLOTSETTINGS
350
19
  3
ACAD_PLOTSTYLENAME
350
E
  3
ACAD_SCALELIST
350
47
  3
APPDATA
350
158
  3
DWGPROPS
350
22B
  0
DICTIONARY
  5
195
330
2
100
AcDbDictionary
280
     1
281
     1
  3
ACAD_LAYERSTATES
360
196
  0
DICTIONARY
  5
D
102
{ACAD_REACTORS
330
C
102
}
330
C
100
AcDbDictionary
281
     1
  0
DICTIONARY
  5
1A
102
{ACAD_REACTORS
330
C
102
}
330
C
100
AcDbDictionary
281
     1
  3
Layout1
350
1E
  3
Layout2
350
26
  3
Model
350
22
  0
DICTIONARY
  5
17
102
{ACAD_REACTORS
330
C
102
}
330
C
100
AcDbDictionary
281
     1
  3
Standard
350
18
  0
DICTIONARY
  5
19
102
{ACAD_REACTORS
330
C
102
}
330
C
100
AcDbDictionary
281
     1
  0
ACDBDICTIONARYWDFLT
  5
E
102
{ACAD_REACTORS
330
C
102
}
330
C
100
AcDbDictionary
281
     1
  3
Normal
350
F
100
AcDbDictionaryWithDefault
340
F
  0
DICTIONARY
  5
47
102
{ACAD_REACTORS
330
C
102
}
330
C
100
AcDbDictionary
281
     1
  3
A0
350
48
  3
A1
350
49
  3
A2
350
4A
  3
A3
350
4B
  3
A4
350
4C
  3
A5
350
4D
  3
A6
350
4E
  3
A7
350
4F
  3
A8
350
50
  3
A9
350
51
  3
B0
350
52
  3
B1
350
53
  3
B2
350
54
  3
B3
350
55
  3
B4
350
56
  3
B5
350
57
  3
B6
350
58
  3
B7
350
59
  3
B8
350
5A
  3
B9
350
5B
  3
C0
350
5C
  3
C1
350
5D
  3
C2
350
5E
  3
C3
350
5F
  3
C4
350
60
  3
C5
350
61
  3
C6
350
62
  3
C7
350
63
  3
C8
350
64
  3
C9
350
65
  3
D0
350
66
  3
D1
350
67
  3
D2
350
68
  0
DICTIONARY
  5
158
102
{ACAD_REACTORS
330
C
102
}
330
C
100
AcDbDictionary
281
     1
  0
XRECORD
  5
22B
102
{ACAD_REACTORS
330
C
102
}
330
C
100
AcDbXrecord
280
     1
  1
DWGPROPS COOKIE
  2

  3

  4

  6

  7

  8
120170442
  9

300
=
301
=
302
=
303
=
304
=
305
=
306
=
307
=
308
=
309
=
 40
0.0
 41
2458313.023429734
 42
2458324.059314352
  1

 90
        0
  0
DICTIONARY
  5
196
102
{ACAD_REACTORS
330
195
102
}
330
195
100
AcDbDictionary
281
     1
  0
LAYOUT
  5
1E
102
{ACAD_REACTORS
330
1A
102
}
330
1A
100
AcDbPlotSettings
  1

  2
none_device
  4

  6

 40
0.0
 41
0.0
 42
0.0
 43
0.0
 44
0.0
 45
0.0
 46
0.0
 47
0.0
 48
0.0
 49
0.0
140
0.0
141
0.0
142
1.0
143
1.0
 70
   688
 72
     1
 73
     0
 74
     5
  7

 75
    16
147
1.0
148
0.0
149
0.0
100
AcDbLayout
  1
Layout1
 70
     1
 71
     1
 10
0.0
 20
0.0
 11
420.0
 21
297.0
 12
0.0
 22
0.0
 32
0.0
 14
1.000000000000000E+20
 24
1.000000000000000E+20
 34
1.000000000000000E+20
 15
-1.000000000000000E+20
 25
-1.000000000000000E+20
 35
-1.000000000000000E+20
146
0.0
 13
0.0
 23
0.0
 33
0.0
 16
1.0
 26
0.0
 36
0.0
 17
0.0
 27
1.0
 37
0.0
 76
     0
330
1B
  0
LAYOUT
  5
26
102
{ACAD_REACTORS
330
1A
102
}
330
1A
100
AcDbPlotSettings
  1

  2
none_device
  4

  6

 40
0.0
 41
0.0
 42
0.0
 43
0.0
 44
0.0
 45
0.0
 46
0.0
 47
0.0
 48
0.0
 49
0.0
140
0.0
141
0.0
142
1.0
143
1.0
 70
   688
 72
     1
 73
     0
 74
     5
  7

 75
    16
147
1.0
148
0.0
149
0.0
100
AcDbLayout
  1
Layout2
 70
     1
 71
     2
 10
0.0
 20
0.0
 11
0.0
 21
0.0
 12
0.0
 22
0.0
 32
0.0
 14
0.0
 24
0.0
 34
0.0
 15
0.0
 25
0.0
 35
0.0
146
0.0
 13
0.0
 23
0.0
 33
0.0
 16
1.0
 26
0.0
 36
0.0
 17
0.0
 27
1.0
 37
0.0
 76
     0
330
23
  0
LAYOUT
  5
22
102
{ACAD_REACTORS
330
1A
102
}
330
1A
100
AcDbPlotSettings
  1

  2
none_device
  4
ANSI_A_(11.00_x_8.50_Inches)
  6

 40
6.35
 41
19.05
 42
6.35000508
 43
19.05000254
 44
279.4
 45
215.9
 46
69.6453324306941
 47
42.33282099557219
 48
0.0
 49
0.0
140
0.0
141
0.0
142
0.0335920848724483
143
1.0
 70
  1696
 72
     0
 73
     0
 74
     0
  7

 75
     0
147
0.0235690232323232
148
0.0
149
0.0
100
AcDbLayout
  1
Model
 70
     1
 71
     0
 10
0.0
 20
0.0
 11
420.0
 21
297.0
 12
0.0
 22
0.0
 32
0.0
 14
-62.00000000000009
 24
-49.97180738881175
 34
0.0
 15
97.79412503295505
 25
43.61459350941404
 35
0.0
146
0.0
 13
0.0
 23
0.0
 33
0.0
 16
1.0
 26
0.0
 36
0.0
 17
0.0
 27
1.0
 37
0.0
 76
     0
330
1F
331
29
  0
MLINESTYLE
  5
18
102
{ACAD_REACTORS
330
17
102
}
330
17
100
AcDbMlineStyle
  2
Standard
 70
     0
  3

 62
   256
 51
90.0
 52
90.0
 71
     2
 49
0.5
 62
   256
  6
BYLAYER
 49
-0.5
 62
   256
  6
BYLAYER
  0
ACDBPLACEHOLDER
  5
F
102
{ACAD_REACTORS
330
E
102
}
330
E
  0
SCALE
  5
48
102
{ACAD_REACTORS
330
47
102
}
330
47
100
AcDbScale
 70
     0
300
1:1
140
1.0
141
1.0
290
     1
  0
SCALE
  5
49
102
{ACAD_REACTORS
330
47
102
}
330
47
100
AcDbScale
 70
     0
300
1:2
140
1.0
141
2.0
290
     0
  0
SCALE
  5
4A
102
{ACAD_REACTORS
330
47
102
}
330
47
100
AcDbScale
 70
     0
300
1:4
140
1.0
141
4.0
290
     0
  0
SCALE
  5
4B
102
{ACAD_REACTORS
330
47
102
}
330
47
100
AcDbScale
 70
     0
300
1:5
140
1.0
141
5.0
290
     0
  0
SCALE
  5
4C
102
{ACAD_REACTORS
330
47
102
}
330
47
100
AcDbScale
 70
     0
300
1:8
140
1.0
141
8.0
290
     0
  0
SCALE
  5
4D
102
{ACAD_REACTORS
330
47
102
}
330
47
100
AcDbScale
 70
     0
300
1:10
140
1.0
141
10.0
290
     0
  0
SCALE
  5
4E
102
{ACAD_REACTORS
330
47
102
}
330
47
100
AcDbScale
 70
     0
300
1:16
140
1.0
141
16.0
290
     0
  0
SCALE
  5
4F
102
{ACAD_REACTORS
330
47
102
}
330
47
100
AcDbScale
 70
     0
300
1:20
140
1.0
141
20.0
290
     0
  0
SCALE
  5
50
102
{ACAD_REACTORS
330
47
102
}
330
47
100
AcDbScale
 70
     0
300
1:30
140
1.0
141
30.0
290
     0
  0
SCALE
  5
51
102
{ACAD_REACTORS
330
47
102
}
330
47
100
AcDbScale
 70
     0
300
1:40
140
1.0
141
40.0
290
     0
  0
SCALE
  5
52
102
{ACAD_REACTORS
330
47
102
}
330
47
100
AcDbScale
 70
     0
300
1:50
140
1.0
141
50.0
290
     0
  0
SCALE
  5
53
102
{ACAD_REACTORS
330
47
102
}
330
47
100
AcDbScale
 70
     0
300
1:100
140
1.0
141
100.0
290
     0
  0
SCALE
  5
54
102
{ACAD_REACTORS
330
47
102
}
330
47
100
AcDbScale
 70
     0
300
2:1
140
2.0
141
1.0
290
     0
  0
SCALE
  5
55
102
{ACAD_REACTORS
330
47
102
}
330
47
100
AcDbScale
 70
     0
300
4:1
140
4.0
141
1.0
290
     0
  0
SCALE
  5
56
102
{ACAD_REACTORS
330
47
102
}
330
47
100
AcDbScale
 70
     0
300
8:1
140
8.0
141
1.0
290
     0
  0
SCALE
  5
57
102
{ACAD_REACTORS
330
47
102
}
330
47
100
AcDbScale
 70
     0
300
10:1
140
10.0
141
1.0
290
     0
  0
SCALE
  5
58
102
{ACAD_REACTORS
330
47
102
}
330
47
100
AcDbScale
 70
     0
300
100:1
140
100.0
141
1.0
290
     0
  0
SCALE
  5
59
102
{ACAD_REACTORS
330
47
102
}
330
47
100
AcDbScale
 70
     0
300
1/128" = 1'-0"
140
0.0078125
141
12.0
290
     0
  0
SCALE
  5
5A
102
{ACAD_REACTORS
330
47
102
}
330
47
100
AcDbScale
 70
     0
300
1/64" = 1'-0"
140
0.015625
141
12.0
290
     0
  0
SCALE
  5
5B
102
{ACAD_REACTORS
330
47
102
}
330
47
100
AcDbScale
 70
     0
300
1/32" = 1'-0"
140
0.03125
141
12.0
290
     0
  0
SCALE
  5
5C
102
{ACAD_REACTORS
330
47
102
}
330
47
100
AcDbScale
 70
     0
300
1/16" = 1'-0"
140
0.0625
141
12.0
290
     0
  0
SCALE
  5
5D
102
{ACAD_REACTORS
330
47
102
}
330
47
100
AcDbScale
 70
     0
300
3/32" = 1'-0"
140
0.09375
141
12.0
290
     0
  0
SCALE
  5
5E
102
{ACAD_REACTORS
330
47
102
}
330
47
100
AcDbScale
 70
     0
300
1/8" = 1'-0"
140
0.125
141
12.0
290
     0
  0
SCALE
  5
5F
102
{ACAD_REACTORS
330
47
102
}
330
47
100
AcDbScale
 70
     0
300
3/16" = 1'-0"
140
0.1875
141
12.0
290
     0
  0
SCALE
  5
60
102
{ACAD_REACTORS
330
47
102
}
330
47
100
AcDbScale
 70
     0
300
1/4" = 1'-0"
140
0.25
141
12.0
290
     0
  0
SCALE
  5
61
102
{ACAD_REACTORS
330
47
102
}
330
47
100
AcDbScale
 70
     0
300
3/8" = 1'-0"
140
0.375
141
12.0
290
     0
  0
SCALE
  5
62
102
{ACAD_REACTORS
330
47
102
}
330
47
100
AcDbScale
 70
     0
300
1/2" = 1'-0"
140
0.5
141
12.0
290
     0
  0
SCALE
  5
63
102
{ACAD_REACTORS
330
47
102
}
330
47
100
AcDbScale
 70
     0
300
3/4" = 1'-0"
140
0.75
141
12.0
290
     0
  0
SCALE
  5
64
102
{ACAD_REACTORS
330
47
102
}
330
47
100
AcDbScale
 70
     0
300
1" = 1'-0"
140
1.0
141
12.0
290
     0
  0
SCALE
  5
65
102
{ACAD_REACTORS
330
47
102
}
330
47
100
AcDbScale
 70
     0
300
1-1/2" = 1'-0"
140
1.5
141
12.0
290
     0
  0
SCALE
  5
66
102
{ACAD_REACTORS
330
47
102
}
330
47
100
AcDbScale
 70
     0
300
3" = 1'-0"
140
3.0
141
12.0
290
     0
  0
SCALE
  5
67
102
{ACAD_REACTORS
330
47
102
}
330
47
100
AcDbScale
 70
     0
300
6" = 1'-0"
140
6.0
141
12.0
290
     0
  0
SCALE
  5
68
102
{ACAD_REACTORS
330
47
102
}
330
47
100
AcDbScale
 70
     0
300
1'-0" = 1'-0"
140
12.0
141
12.0
290
     0
  0
ENDSEC
  0
EOF
