  0
SECTION
  2
HEADER
  9
$ACADVER
  1
AC1015
  9
$ACADMAINTVER
 70
     6
  9
$DWGCODEPAGE
  3
ANSI_949
  9
$INSBASE
 10
0.0
 20
0.0
 30
0.0
  9
$EXTMIN
 10
-62.00000000000009
 20
-49.97180738881175
 30
0.0
  9
$EXTMAX
 10
97.79412503295507
 20
42.18574459117845
 30
0.0
  9
$LIMMIN
 10
0.0
 20
0.0
  9
$LIMMAX
 10
420.0
 20
297.0
  9
$ORTHOMODE
 70
     1
  9
$REGENMODE
 70
     1
  9
$FILLMODE
 70
     1
  9
$QTEXTMODE
 70
     0
  9
$MIRRTEXT
 70
     1
  9
$LTSCALE
 40
1.0
  9
$ATTMODE
 70
     1
  9
$TEXTSIZE
 40
3.5
  9
$TRACEWID
 40
1.0
  9
$TEXTSTYLE
  7
Standard
  9
$CLAYER
  8
0
  9
$CELTYPE
  6
ByLayer
  9
$CECOLOR
 62
   256
  9
$CELTSCALE
 40
1.0
  9
$DISPSILH
 70
     0
  9
$DIMSCALE
 40
1.0
  9
$DIMASZ
 40
3.302
  9
$DIMEXO
 40
1.0
  9
$DIMDLI
 40
3.75
  9
$DIMRND
 40
0.0
  9
$DIMDLE
 40
0.0
  9
$DIMEXE
 40
1.0
  9
$DIMTP
 40
0.0
  9
$DIMTM
 40
0.0
  9
$DIMTXT
 40
3.5
  9
$DIMCEN
 40
2.5
  9
$DIMTSZ
 40
0.0
  9
$DIMTOL
 70
     0
  9
$DIMLIM
 70
     0
  9
$DIMTIH
 70
     1
  9
$DIMTOH
 70
     1
  9
$DIMSE1
 70
     0
  9
$DIMSE2
 70
     0
  9
$DIMTAD
 70
     1
  9
$DIMZIN
 70
     0
  9
$DIMBLK
  1

  9
$DIMASO
 70
     1
  9
$DIMSHO
 70
     1
  9
$DIMPOST
  1

  9
$DIMAPOST
  1

  9
$DIMALT
 70
     0
  9
$DIMALTD
 70
     3
  9
$DIMALTF
 40
0.0393700787401575
  9
$DIMLFAC
 40
1.0
  9
$DIMTOFL
 70
     1
  9
$DIMTVP
 40
0.0
  9
$DIMTIX
 70
     0
  9
$DIMSOXD
 70
     0
  9
$DIMSAH
 70
     0
  9
$DIMBLK1
  1

  9
$DIMBLK2
  1

  9
$DIMSTYLE
  2
ISO-25
  9
$DIMCLRD
 70
     0
  9
$DIMCLRE
 70
     0
  9
$DIMCLRT
 70
     0
  9
$DIMTFAC
 40
1.0
  9
$DIMGAP
 40
1.524
  9
$DIMJUST
 70
     0
  9
$DIMSD1
 70
     0
  9
$DIMSD2
 70
     0
  9
$DIMTOLJ
 70
     0
  9
$DIMTZIN
 70
     0
  9
$DIMALTZ
 70
     0
  9
$DIMALTTZ
 70
     0
  9
$DIMUPT
 70
     0
  9
$DIMDEC
 70
     2
  9
$DIMTDEC
 70
     2
  9
$DIMALTU
 70
     2
  9
$DIMALTTD
 70
     3
  9
$DIMTXSTY
  7
Standard
  9
$DIMAUNIT
 70
     0
  9
$DIMADEC
 70
     2
  9
$DIMALTRND
 40
0.0
  9
$DIMAZIN
 70
     0
  9
$DIMDSEP
 70
    44
  9
$DIMATFIT
 70
     3
  9
$DIMFRAC
 70
     0
  9
$DIMLDRBLK
  1

  9
$DIMLUNIT
 70
     2
  9
$DIMLWD
 70
    -2
  9
$DIMLWE
 70
    -2
  9
$DIMTMOVE
 70
     0
  9
$LUNITS
 70
     2
  9
$LUPREC
 70
     2
  9
$SKETCHINC
 40
1.0
  9
$FILLETRAD
 40
10.0
  9
$AUNITS
 70
     0
  9
$AUPREC
 70
     2
  9
$MENU
  1
.
  9
$ELEVATION
 40
0.0
  9
$PELEVATION
 40
0.0
  9
$THICKNESS
 40
0.0
  9
$LIMCHECK
 70
     0
  9
$CHAMFERA
 40
0.0
  9
$CHAMFERB
 40
0.0
  9
$CHAMFERC
 40
0.0
  9
$CHAMFERD
 40
0.0
  9
$SKPOLY
 70
     0
  9
$TDCREATE
 40
2458313.397370764
  9
$TDUCREATE
 40
2458313.022370764
  9
$TDUPDATE
 40
2458324.419650174
  9
$TDUUPDATE
 40
2458324.044650174
  9
$TDINDWG
 40
0.0004516667
  9
$TDUSRTIMER
 40
0.0004516551
  9
$USRTIMER
 70
     1
  9
$ANGBASE
 50
0.0
  9
$ANGDIR
 70
     0
  9
$PDMODE
 70
     0
  9
$PDSIZE
 40
-1.0
  9
$PLINEWID
 40
0.0
  9
$SPLFRAME
 70
     0
  9
$SPLINETYPE
 70
     6
  9
$SPLINESEGS
 70
     8
  9
$HANDSEED
  5
252
  9
$SURFTAB1
 70
     6
  9
$SURFTAB2
 70
     6
  9
$SURFTYPE
 70
     6
  9
$SURFU
 70
     6
  9
$SURFV
 70
     6
  9
$UCSBASE
  2

  9
$UCSNAME
  2

  9
$UCSORG
 10
0.0
 20
0.0
 30
0.0
  9
$UCSXDIR
 10
1.0
 20
0.0
 30
0.0
  9
$UCSYDIR
 10
0.0
 20
1.0
 30
0.0
  9
$UCSORTHOREF
  2

  9
$UCSORTHOVIEW
 70
     0
  9
$UCSORGTOP
 10
0.0
 20
0.0
 30
0.0
  9
$UCSORGBOTTOM
 10
0.0
 20
0.0
 30
0.0
  9
$UCSORGLEFT
 10
0.0
 20
0.0
 30
0.0
  9
$UCSORGRIGHT
 10
0.0
 20
0.0
 30
0.0
  9
$UCSORGFRONT
 10
0.0
 20
0.0
 30
0.0
  9
$UCSORGBACK
 10
0.0
 20
0.0
 30
0.0
  9
$PUCSBASE
  2

  9
$PUCSNAME
  2

  9
$PUCSORG
 10
0.0
 20
0.0
 30
0.0
  9
$PUCSXDIR
 10
1.0
 20
0.0
 30
0.0
  9
$PUCSYDIR
 10
0.0
 20
1.0
 30
0.0
  9
$PUCSORTHOREF
  2

  9
$PUCSORTHOVIEW
 70
     0
  9
$PUCSORGTOP
 10
0.0
 20
0.0
 30
0.0
  9
$PUCSORGBOTTOM
 10
0.0
 20
0.0
 30
0.0
  9
$PUCSORGLEFT
 10
0.0
 20
0.0
 30
0.0
  9
$PUCSORGRIGHT
 10
0.0
 20
0.0
 30
0.0
  9
$PUCSORGFRONT
 10
0.0
 20
0.0
 30
0.0
  9
$PUCSORGBACK
 10
0.0
 20
0.0
 30
0.0
  9
$USERI1
 70
     0
  9
$USERI2
 70
     0
  9
$USERI3
 70
     0
  9
$USERI4
 70
     0
  9
$USERI5
 70
     0
  9
$USERR1
 40
0.0
  9
$USERR2
 40
0.0
  9
$USERR3
 40
0.0
  9
$USERR4
 40
0.0
  9
$USERR5
 40
0.0
  9
$WORLDVIEW
 70
     1
  9
$SHADEDGE
 70
     3
  9
$SHADEDIF
 70
    70
  9
$TILEMODE
 70
     1
  9
$MAXACTVP
 70
    64
  9
$PINSBASE
 10
0.0
 20
0.0
 30
0.0
  9
$PLIMCHECK
 70
     0
  9
$PEXTMIN
 10
1.000000000000000E+20
 20
1.000000000000000E+20
 30
1.000000000000000E+20
  9
$PEXTMAX
 10
-1.000000000000000E+20
 20
-1.000000000000000E+20
 30
-1.000000000000000E+20
  9
$PLIMMIN
 10
0.0
 20
0.0
  9
$PLIMMAX
 10
0.0
 20
0.0
  9
$UNITMODE
 70
     0
  9
$VISRETAIN
 70
     1
  9
$PLINEGEN
 70
     0
  9
$PSLTSCALE
 70
     1
  9
$TREEDEPTH
 70
  3020
  9
$CMLSTYLE
  2
Standard
  9
$CMLJUST
 70
     0
  9
$CMLSCALE
 40
20.0
  9
$PROXYGRAPHICS
 70
     1
  9
$MEASUREMENT
 70
     1
  9
$CELWEIGHT
370
    -1
  9
$ENDCAPS
280
     0
  9
$JOINSTYLE
280
     0
  9
$LWDISPLAY
290
     1
  9
$INSUNITS
 70
     4
  9
$HYPERLINKBASE
  1

  9
$STYLESHEET
  1

  9
$XEDIT
290
     1
  9
$CEPSNTYPE
380
     0
  9
$PSTYLEMODE
290
     1
  9
$FINGERPRINTGUID
  2
{12FA7213-3FA4-499B-A086-6E4062609865}
  9
$VERSIONGUID
  2
{FAEB1C32-E019-11D5-929B-00C0DF256EC4}
  9
$EXTNAMES
290
     1
  9
$PSVPSCALE
 40
0.0
  9
$OLESTARTUP
290
     0
  0
ENDSEC
  0
SECTION
  2
CLASSES
  0
CLASS
  1
ACDBDICTIONARYWDFLT
  2
AcDbDictionaryWithDefault
  3
ObjectDBX Classes
 90
        0
280
     0
281
     0
  0
CLASS
  1
VISUALSTYLE
  2
AcDbVisualStyle
  3
ObjectDBX Classes
 90
     4095
280
     0
281
     0
  0
CLASS
  1
MATERIAL
  2
AcDbMaterial
  3
ObjectDBX Classes
 90
     1153
280
     0
281
     0
  0
CLASS
  1
SCALE
  2
AcDbScale
  3
ObjectDBX Classes
 90
     1153
280
     0
281
     0
  0
CLASS
  1
SUN
  2
AcDbSun
  3
SCENEOE
 90
     1153
280
     0
281
     0
  0
CLASS
  1
ACDBPLACEHOLDER
  2
AcDbPlaceHolder
  3
ObjectDBX Classes
 90
        0
280
     0
281
     0
  0
CLASS
  1
LAYOUT
  2
AcDbLayout
  3
ObjectDBX Classes
 90
        0
280
     0
281
     0
  0
CLASS
  1
TABLESTYLE
  2
AcDbTableStyle
  3
ObjectDBX Classes
 90
     4095
280
     0
281
     0
  0
CLASS
  1
MLEADERSTYLE
  2
AcDbMLeaderStyle
  3
ACDB_MLEADERSTYLE_CLASS
 90
     4095
280
     0
281
     0
  0
CLASS
  1
DICTIONARYVAR
  2
AcDbDictionaryVar
  3
ObjectDBX Classes
 90
        0
280
     0
281
     0
  0
ENDSEC
  0
SECTION
  2
TABLES
  0
TABLE
  2
VPORT
  5
8
330
0
100
AcDbSymbolTable
 70
     1
  0
VPORT
  5
29
330
8
100
AcDbSymbolTableRecord
100
AcDbViewportTableRecord
  2
*Active
 70
     0
 10
0.0
 20
0.0
 11
1.0
 21
1.0
 12
17.89706251647749
 22
-3.893031398816646
 13
0.0
 23
0.0
 14
10.0
 24
10.0
 15
10.0
 25
10.0
 16
0.0
 26
0.0
 36
1.0
 17
0.0
 27
0.0
 37
0.0
 40
94.00070301959002
 41
1.782762691853601
 42
50.0
 43
0.0
 44
0.0
 50
0.0
 51
0.0
 71
    16
 72
  2000
 73
     1
 74
     3
 75
     0
 76
     0
 77
     0
 78
     0
281
     0
 65
     1
110
0.0
120
0.0
130
0.0
111
1.0
121
0.0
131
0.0
112
0.0
122
1.0
132
0.0
 79
     0
146
0.0
  0
ENDTAB
  0
TABLE
  2
LTYPE
  5
5
330
0
100
AcDbSymbolTable
 70
     6
  0
LTYPE
  5
14
330
5
100
AcDbSymbolTableRecord
100
AcDbLinetypeTableRecord
  2
ByBlock
 70
     0
  3

 72
    65
 73
     0
 40
0.0
  0
LTYPE
  5
15
330
5
100
AcDbSymbolTableRecord
100
AcDbLinetypeTableRecord
  2
ByLayer
 70
     0
  3

 72
    65
 73
     0
 40
0.0
  0
LTYPE
  5
16
330
5
100
AcDbSymbolTableRecord
100
AcDbLinetypeTableRecord
  2
Continuous
 70
     0
  3
Solid line
 72
    65
 73
     0
 40
0.0
  0
LTYPE
  5
6A
330
5
100
AcDbSymbolTableRecord
100
AcDbLinetypeTableRecord
  2
HIDDEN
 70
     0
  3
Hidden __ __ __ __ __ __ __ __ __ __ __ __ __ __
 72
    65
 73
     2
 40
1.905
 49
1.27
 74
     0
 49
-0.635
 74
     0
  0
LTYPE
  5
6B
330
5
100
AcDbSymbolTableRecord
100
AcDbLinetypeTableRecord
  2
PHANTOM
 70
     0
  3
Phantom ______  __  __  ______  __  __  ______
 72
    65
 73
     6
 40
12.7
 49
6.35
 74
     0
 49
-1.27
 74
     0
 49
1.27
 74
     0
 49
-1.27
 74
     0
 49
1.27
 74
     0
 49
-1.27
 74
     0
  0
LTYPE
  5
6C
330
5
100
AcDbSymbolTableRecord
100
AcDbLinetypeTableRecord
  2
CENTER
 70
     0
  3
Center ____ _ ____ _ ____ _ ____ _ ____ _ ____
 72
    65
 73
     4
 40
10.16
 49
6.35
 74
     0
 49
-1.27
 74
     0
 49
1.27
 74
     0
 49
-1.27
 74
     0
  0
LTYPE
  5
6D
330
5
100
AcDbSymbolTableRecord
100
AcDbLinetypeTableRecord
  2
CENTERX2
 70
     0
  3
Center (2x) ________  __  ________  __  _____
 72
    65
 73
     4
 40
20.32
 49
12.7
 74
     0
 49
-2.54
 74
     0
 49
2.54
 74
     0
 49
-2.54
 74
     0
  0
LTYPE
  5
6E
330
5
100
AcDbSymbolTableRecord
100
AcDbLinetypeTableRecord
  2
DOT2
 70
     0
  3
Dot (.5x) ........................................
 72
    65
 73
     2
 40
0.635
 49
0.0
 74
     0
 49
-0.635
 74
     0
  0
ENDTAB
  0
TABLE
  2
LAYER
  5
2
102
{ACAD_XDICTIONARY
360
18F
102
}
330
0
100
AcDbSymbolTable
 70
    18
  0
LAYER
  5
10
330
2
100
AcDbSymbolTableRecord
100
AcDbLayerTableRecord
  2
0
 70
     0
 62
     7
  6
Continuous
370
    -3
390
F
  0
LAYER
  5
6F
330
2
100
AcDbSymbolTableRecord
100
AcDbLayerTableRecord
  2
FORMAT
 70
     0
 62
     2
  6
Continuous
370
    -3
390
F
  0
LAYER
  5
70
330
2
100
AcDbSymbolTableRecord
100
AcDbLayerTableRecord
  2
외형선
 70
     0
 62
     4
  6
Continuous
370
    30
390
F
  0
LAYER
  5
71
330
2
100
AcDbSymbolTableRecord
100
AcDbLayerTableRecord
  2
숨은선
 70
     0
 62
     2
  6
HIDDEN
370
    15
390
F
  0
LAYER
  5
72
330
2
100
AcDbSymbolTableRecord
100
AcDbLayerTableRecord
  2
중심선
 70
     0
 62
     1
  6
CENTERX2
370
    -3
390
F
  0
LAYER
  5
73
330
2
100
AcDbSymbolTableRecord
100
AcDbLayerTableRecord
  2
파단선
 70
     0
 62
     4
  6
Continuous
370
    -3
390
F
  0
LAYER
  5
74
330
2
100
AcDbSymbolTableRecord
100
AcDbLayerTableRecord
  2
해칭선
 70
     0
 62
   100
  6
Continuous
370
    -3
390
F
  0
LAYER
  5
75
330
2
100
AcDbSymbolTableRecord
100
AcDbLayerTableRecord
  2
가는실선
 70
     0
 62
     4
  6
Continuous
370
    -3
390
F
  0
LAYER
  5
76
330
2
100
AcDbSymbolTableRecord
100
AcDbLayerTableRecord
  2
치수_보조선
 70
     0
 62
     4
  6
Continuous
370
    -3
390
F
  0
LAYER
  5
77
330
2
100
AcDbSymbolTableRecord
100
AcDbLayerTableRecord
  2
치수문자_일반주서
 70
     0
 62
     7
  6
Continuous
370
    15
390
F
  0
LAYER
  5
78
330
2
100
AcDbSymbolTableRecord
100
AcDbLayerTableRecord
  2
개별주서
 70
     0
 62
   100
  6
Continuous
370
    30
390
F
  0
LAYER
  5
79
330
2
100
AcDbSymbolTableRecord
100
AcDbLayerTableRecord
  2
중간선
 70
     0
 62
     2
  6
Continuous
370
    15
390
F
  0
LAYER
  5
7A
330
2
100
AcDbSymbolTableRecord
100
AcDbLayerTableRecord
  2
윤곽선
 70
     0
 62
     3
  6
Continuous
370
    40
390
F
  0
LAYER
  5
7B
330
2
100
AcDbSymbolTableRecord
100
AcDbLayerTableRecord
  2
중심마크
 70
     0
 62
   100
  6
Continuous
370
    30
390
F
  0
LAYER
  5
7C
330
2
100
AcDbSymbolTableRecord
100
AcDbLayerTableRecord
  2
가상선
 70
     0
 62
     4
  6
PHANTOM
370
    -3
390
F
  0
LAYER
  5
7D
330
2
100
AcDbSymbolTableRecord
100
AcDbLayerTableRecord
  2
특수지정선
 70
     0
 62
     5
  6
CENTERX2
370
    60
390
F
  0
LAYER
  5
7E
330
2
100
AcDbSymbolTableRecord
100
AcDbLayerTableRecord
  2
참조1
 70
     0
 62
    -4
  6
Continuous
370
    -3
390
F
  0
LAYER
  5
15C
330
2
100
AcDbSymbolTableRecord
100
AcDbLayerTableRecord
  2
Defpoints
 70
     0
 62
     7
  6
Continuous
290
     0
370
    -3
390
F
  0
ENDTAB
  0
TABLE
  2
STYLE
  5
3
330
0
100
AcDbSymbolTable
 70
     2
  0
STYLE
  5
11
330
3
100
AcDbSymbolTableRecord
100
AcDbTextStyleTableRecord
  2
Standard
 70
     0
 40
0.0
 41
1.0
 50
0.0
 71
     0
 42
3.5
  3
txt
  4

  0
STYLE
  5
94
330
3
100
AcDbSymbolTableRecord
100
AcDbTextStyleTableRecord
  2
SLDTEXTSTYLE0
 70
     0
 40
0.0
 41
0.75
 50
0.0
 71
     0
 42
3.5
  3
TXT
  4

  0
ENDTAB
  0
TABLE
  2
VIEW
  5
6
330
0
100
AcDbSymbolTable
 70
     0
  0
ENDTAB
  0
TABLE
  2
UCS
  5
7
330
0
100
AcDbSymbolTable
 70
     0
  0
ENDTAB
  0
TABLE
  2
APPID
  5
9
330
0
100
AcDbSymbolTable
 70
     2
  0
APPID
  5
12
330
9
100
AcDbSymbolTableRecord
100
AcDbRegAppTableRecord
  2
ACAD
 70
     0
  0
APPID
  5
1E0
330
9
100
AcDbSymbolTableRecord
100
AcDbRegAppTableRecord
  2
PE_URL
 70
     0
  0
ENDTAB
  0
TABLE
  2
DIMSTYLE
  5
A
330
0
100
AcDbSymbolTable
 70
     3
100
AcDbDimStyleTable
  0
DIMSTYLE
105
27
330
A
100
AcDbSymbolTableRecord
100
AcDbDimStyleTableRecord
  2
ISO-25
 70
     0
 41
2.5
 42
0.625
 43
3.75
 44
1.25
 73
     0
 74
     0
 77
     1
 78
     8
140
2.5
141
2.5
143
0.03937007874016
147
0.625
171
     3
172
     1
178
     0
271
     2
272
     2
274
     3
278
    44
283
     0
284
     8
340
11
  0
DIMSTYLE
105
DC
102
{ACAD_REACTORS
330
DB
330
181
330
F0
330
104
330
118
102
}
330
A
100
AcDbSymbolTableRecord
100
AcDbDimStyleTableRecord
  2
SLDDIMSTYLE0
 70
     0
 41
3.302
 44
0.0
 45
0.000000001
 73
     0
 74
     0
 77
     1
 78
     4
 79
     1
140
3.5
143
0.0393700787401575
147
0.875
148
0.000000001
170
     1
172
     1
173
     1
178
     0
271
     2
272
     2
276
     2
284
    12
289
     0
340
94
  0
DIMSTYLE
105
F1
330
A
100
AcDbSymbolTableRecord
100
AcDbDimStyleTableRecord
  2
SLDDIMSTYLE1
 70
     0
 41
3.302
 44
0.0
 45
0.000000001
 73
     0
 74
     0
 77
     1
 78
    12
 79
     3
140
3.5
143
0.0393700787401575
147
0.875
148
0.000000001
170
     1
173
     1
178
     0
271
     2
272
     2
276
     2
284
    12
340
94
  0
ENDTAB
  0
TABLE
  2
BLOCK_RECORD
  5
1
330
0
100
AcDbSymbolTable
 70
    11
  0
BLOCK_RECORD
  5
1F
330
1
100
AcDbSymbolTableRecord
100
AcDbBlockTableRecord
  2
*Model_Space
340
22
  0
BLOCK_RECORD
  5
1B
330
1
100
AcDbSymbolTableRecord
100
AcDbBlockTableRecord
  2
*Paper_Space
340
1E
  0
BLOCK_RECORD
  5
23
330
1
100
AcDbSymbolTableRecord
100
AcDbBlockTableRecord
  2
*Paper_Space0
340
26
  0
BLOCK_RECORD
  5
7F
330
1
100
AcDbSymbolTableRecord
100
AcDbBlockTableRecord
  2
블럭10
340
0
102
{BLKREFS
331
D4
102
}
  0
BLOCK_RECORD
  5
DD
330
1
100
AcDbSymbolTableRecord
100
AcDbBlockTableRecord
  2
_D
340
0
  0
BLOCK_RECORD
  5
F2
330
1
100
AcDbSymbolTableRecord
100
AcDbBlockTableRecord
  2
_D_1
340
0
  0
BLOCK_RECORD
  5
105
330
1
100
AcDbSymbolTableRecord
100
AcDbBlockTableRecord
  2
_D_2
340
0
  0
BLOCK_RECORD
  5
119
330
1
100
AcDbSymbolTableRecord
100
AcDbBlockTableRecord
  2
_D_3
340
0
  0
BLOCK_RECORD
  5
132
330
1
100
AcDbSymbolTableRecord
100
AcDbBlockTableRecord
  2
SW_DOWELSYMBOL_0
340
0
102
{BLKREFS
331
138
102
}
  0
BLOCK_RECORD
  5
193
330
1
100
AcDbSymbolTableRecord
100
AcDbBlockTableRecord
  2
*D8
340
0
  0
BLOCK_RECORD
  5
1A2
330
1
100
AcDbSymbolTableRecord
100
AcDbBlockTableRecord
  2
*D9
340
0
  0
ENDTAB
  0
ENDSEC
  0
SECTION
  2
BLOCKS
  0
BLOCK
  5
20
330
1F
100
AcDbEntity
  8
0
100
AcDbBlockBegin
  2
*Model_Space
 70
     0
 10
0.0
 20
0.0
 30
0.0
  3
*Model_Space
  1

  0
ENDBLK
  5
21
330
1F
100
AcDbEntity
  8
0
100
AcDbBlockEnd
  0
BLOCK
  5
1C
330
1B
100
AcDbEntity
 67
     1
  8
0
100
AcDbBlockBegin
  2
*Paper_Space
 70
     0
 10
0.0
 20
0.0
 30
0.0
  3
*Paper_Space
  1

  0
ENDBLK
  5
1D
330
1B
100
AcDbEntity
 67
     1
  8
0
100
AcDbBlockEnd
  0
BLOCK
  5
24
330
23
100
AcDbEntity
  8
0
100
AcDbBlockBegin
  2
*Paper_Space0
 70
     0
 10
0.0
 20
0.0
 30
0.0
  3
*Paper_Space0
  1

  0
ENDBLK
  5
25
330
23
100
AcDbEntity
  8
0
100
AcDbBlockEnd
  0
BLOCK
  5
80
330
7F
100
AcDbEntity
  8
0
100
AcDbBlockBegin
  2
블럭10
 70
     2
 10
0.0
 20
0.0
 30
0.0
  3
블럭10
  1

  0
ELLIPSE
  5
82
330
7F
100
AcDbEntity
  8
중심선
100
AcDbEllipse
 10
20.54032771741204
 20
12.0471743016438
 30
0.0
 11
6.600054785286829
 21
-1.261213355974178E-13
 31
0.0
210
0.0
220
0.0
230
1.0
 40
0.636358354079598
 41
0.9219305317359503
 42
6.513795318482858
  0
ELLIPSE
  5
83
330
7F
100
AcDbEntity
  8
중심선
100
AcDbEllipse
 10
20.54032771746488
 20
12.04717430159265
 30
0.0
 11
3.960054785062283
 21
1.540847449632565E-10
 31
0.0
210
0.0
220
0.0
230
1.0
 40
0.3939339440162632
 41
1.131841032648279
 42
5.62031148352944
  0
LINE
  5
84
330
7F
100
AcDbEntity
  8
중심선
100
AcDbLine
 10
2.268634060543552
 20
16.24717430164393
 30
0.0
 11
5.714909304380834
 21
16.24717430164393
 31
0.0
  0
LINE
  5
85
330
7F
100
AcDbEntity
  8
중심선
100
AcDbLine
 10
5.245725140726316
 20
7.84717430164391
 30
0.0
 11
8.692000384563599
 21
7.84717430164391
 31
0.0
  0
LINE
  5
86
330
7F
100
AcDbEntity
  8
중심선
100
AcDbLine
 10
15.74043728645272
 20
16.24717430164393
 30
0.0
 11
8.692000384563599
 21
7.84717430164391
 31
0.0
  0
LINE
  5
87
330
7F
100
AcDbEntity
  8
중심선
100
AcDbLine
 10
0.1404042013395286
 20
13.71084872107135
 30
0.0
 11
3.58671253028996
 21
13.71088815037384
 31
0.0
  0
LINE
  5
88
330
7F
100
AcDbEntity
  8
중심선
100
AcDbLine
 10
2.750260043222114
 20
10.84717430164391
 30
0.0
 11
6.196535287059397
 21
10.84717430164391
 31
0.0
  0
LINE
  5
89
330
7F
100
AcDbEntity
  8
중심선
100
AcDbLine
 10
12.29416204261559
 20
16.24717430164393
 30
0.0
 11
5.245725140726316
 21
7.84717430164391
 31
0.0
  0
LINE
  5
8A
330
7F
100
AcDbEntity
  8
중심선
100
AcDbLine
 10
10.72767329541681
 20
16.24717430164393
 30
0.0
 11
6.196535287059397
 21
10.84717430164391
 31
0.0
  0
LINE
  5
8B
330
7F
100
AcDbEntity
  8
중심선
100
AcDbLine
 10
7.28139805157953
 20
16.24717430164393
 30
0.0
 11
2.750260043222114
 21
10.84717430164391
 31
0.0
  0
LINE
  5
8C
330
7F
100
AcDbEntity
  8
중심선
100
AcDbLine
 10
5.714909304380834
 20
16.24717430164393
 30
0.0
 11
3.58671253028996
 21
13.71088815037384
 31
0.0
  0
LINE
  5
8D
330
7F
100
AcDbEntity
  8
중심선
100
AcDbLine
 10
2.268634060543552
 20
16.24717430164393
 30
0.0
 11
0.1404042013395286
 21
13.71084872107135
 31
0.0
  0
LINE
  5
8E
330
7F
100
AcDbEntity
  8
중심선
100
AcDbLine
 10
7.28139805157953
 20
16.24717430164393
 30
0.0
 11
10.72767329541681
 21
16.24717430164393
 31
0.0
  0
LINE
  5
8F
330
7F
100
AcDbEntity
  8
중심선
100
AcDbLine
 10
12.29416204261559
 20
16.24717430164393
 30
0.0
 11
15.74043728645272
 21
16.24717430164393
 31
0.0
  0
LINE
  5
90
330
7F
100
AcDbEntity
  8
중심선
100
AcDbLine
 10
19.22036997980202
 20
11.08717430171403
 30
0.0
 11
23.66174974927406
 21
11.08717430171406
 31
0.0
  0
LINE
  5
91
330
7F
100
AcDbEntity
  8
중심선
100
AcDbLine
 10
19.22039502424796
 20
13.00717430171391
 30
0.0
 11
19.22036997980202
 21
11.08717430171403
 31
0.0
  0
LINE
  5
92
330
7F
100
AcDbEntity
  8
중심선
100
AcDbLine
 10
19.22039502424796
 20
13.00717430171391
 30
0.0
 11
26.96566020931264
 21
13.00717430171391
 31
0.0
  0
LINE
  5
93
330
7F
100
AcDbEntity
  8
중심선
100
AcDbLine
 10
22.22332737316547
 20
13.45928029700563
 30
0.0
 11
24.52862924686651
 21
15.39360700705356
 31
0.0
  0
ATTDEF
  5
95
330
7F
100
AcDbEntity
  8
FORMAT
 62
     2
100
AcDbText
 10
4.408487351596664
 20
2.075366912832191
 30
0.0
 40
4.233333333333333
  1
E1050025
 41
0.75
  7
SLDTEXTSTYLE0
 11
4.408487351596664
 21
-0.0412997538344756
 31
0.0
100
AcDbAttributeDefinition
  3

  2
AUTOATTR0
 70
     0
 74
     1
  0
ENDBLK
  5
81
330
7F
100
AcDbEntity
  8
0
100
AcDbBlockEnd
  0
BLOCK
  5
DE
330
DD
100
AcDbEntity
  8
0
100
AcDbBlockBegin
  2
_D
 70
     0
 10
0.0
 20
0.0
 30
0.0
  3
_D
  1

  0
LINE
  5
E0
330
DD
100
AcDbEntity
  8
치수문자_일반주서
 62
     0
370
    -2
100
AcDbLine
 10
-20.86594817511141
 20
6.349999999999993
 30
0.0
 11
-57.62499999999999
 21
6.349999999999856
 31
0.0
  0
LINE
  5
E1
330
DD
100
AcDbEntity
  8
치수문자_일반주서
 62
     0
370
    -2
100
AcDbLine
 10
-20.86594817511139
 20
-6.35
 30
0.0
 11
-57.62499999999994
 21
-6.350000000000133
 31
0.0
  0
LINE
  5
E2
330
DD
100
AcDbEntity
  8
치수문자_일반주서
 62
     0
370
    -2
100
AcDbLine
 10
-57.62499999999999
 20
6.349999999999856
 30
0.0
 11
-57.6250000000001
 21
40.07899999999995
 31
0.0
  0
LINE
  5
E3
330
DD
100
AcDbEntity
  8
치수문자_일반주서
 62
     0
370
    -2
100
AcDbLine
 10
-57.62499999999999
 20
6.349999999999856
 30
0.0
 11
-57.62499999999994
 21
-6.350000000000133
 31
0.0
  0
LINE
  5
E4
330
DD
100
AcDbEntity
  8
치수문자_일반주서
 62
     0
370
    -2
100
AcDbLine
 10
-57.625
 20
9.651999999999855
 30
0.0
 11
-57.62500000000001
 21
12.95399999999985
 31
0.0
  0
LINE
  5
E5
330
DD
100
AcDbEntity
  8
치수문자_일반주서
 62
     0
370
    -2
100
AcDbLine
 10
-57.62499999999993
 20
-9.652000000000132
 30
0.0
 11
-57.62499999999991
 21
-12.95400000000013
 31
0.0
  0
SOLID
  5
E6
330
DD
100
AcDbEntity
  8
치수문자_일반주서
 62
     0
100
AcDbTrace
 10
-58.17533333333333
 20
9.651999999999854
 30
0.0
 11
-57.07466666666667
 21
9.651999999999857
 31
0.0
 12
-57.62499999999999
 22
6.349999999999856
 32
0.0
 13
-57.62499999999999
 23
6.349999999999856
 33
0.0
  0
SOLID
  5
E7
330
DD
100
AcDbEntity
  8
치수문자_일반주서
 62
     0
100
AcDbTrace
 10
-57.07466666666659
 20
-9.65200000000013
 30
0.0
 11
-58.17533333333326
 21
-9.652000000000134
 31
0.0
 12
-57.62499999999994
 22
-6.350000000000133
 32
0.0
 13
-57.62499999999994
 23
-6.350000000000133
 33
0.0
  0
MTEXT
  5
E8
330
DD
100
AcDbEntity
  8
치수문자_일반주서
 62
     0
100
AcDbMText
 10
-62.00000000000006
 20
26.73524999999994
 30
0.0
 40
3.5
 41
0.0
 71
     2
 72
     1
  1
\A1;%%c12.70 [1/2]
  7
SLDTEXTSTYLE0
 11
-3.356894814614648E-15
 21
1.0
 31
0.0
 73
     1
 44
1.0
  0
POINT
  5
1E4
330
DD
100
AcDbEntity
  8
Defpoints
 62
     0
100
AcDbPoint
 10
-20.80344817511141
 20
6.349999999999993
 30
0.0
  0
POINT
  5
1E5
330
DD
100
AcDbEntity
  8
Defpoints
 62
     0
100
AcDbPoint
 10
-20.80344817511139
 20
-6.35
 30
0.0
  0
POINT
  5
1E6
330
DD
100
AcDbEntity
  8
Defpoints
 62
     0
100
AcDbPoint
 10
-57.62499999999994
 20
-6.350000000000137
 30
0.0
  0
ENDBLK
  5
DF
330
DD
100
AcDbEntity
  8
0
100
AcDbBlockEnd
  0
BLOCK
  5
F3
330
F2
100
AcDbEntity
  8
0
100
AcDbBlockBegin
  2
_D_1
 70
     0
 10
0.0
 20
0.0
 30
0.0
  3
_D_1
  1

  0
LINE
  5
F5
330
F2
100
AcDbEntity
  8
치수문자_일반주서
 62
     0
370
    -2
100
AcDbLine
 10
47.68750000000001
 20
-4.956744591178312
 30
0.0
 11
89.92660986911577
 21
-4.956744591178158
 31
0.0
  0
LINE
  5
F6
330
F2
100
AcDbEntity
  8
치수문자_일반주서
 62
     0
370
    -2
100
AcDbLine
 10
47.68750000000001
 20
4.956744591178309
 30
0.0
 11
89.92660986911574
 21
4.956744591178463
 31
0.0
  0
LINE
  5
F7
330
F2
100
AcDbEntity
  8
치수문자_일반주서
 62
     0
370
    -2
100
AcDbLine
 10
89.92660986911574
 20
4.956744591178463
 30
0.0
 11
89.92660986911564
 21
42.18574459117846
 31
0.0
  0
LINE
  5
F8
330
F2
100
AcDbEntity
  8
치수문자_일반주서
 62
     0
370
    -2
100
AcDbLine
 10
89.92660986911577
 20
-4.956744591178158
 30
0.0
 11
89.92660986911574
 21
4.956744591178463
 31
0.0
  0
LINE
  5
F9
330
F2
100
AcDbEntity
  8
치수문자_일반주서
 62
     0
370
    -2
100
AcDbLine
 10
89.92660986911578
 20
-8.258744591178157
 30
0.0
 11
89.9266098691158
 21
-11.56074459117816
 31
0.0
  0
LINE
  5
FA
330
F2
100
AcDbEntity
  8
치수문자_일반주서
 62
     0
370
    -2
100
AcDbLine
 10
89.92660986911572
 20
8.258744591178463
 30
0.0
 11
89.92660986911571
 21
11.56074459117846
 31
0.0
  0
SOLID
  5
FB
330
F2
100
AcDbEntity
  8
치수문자_일반주서
 62
     0
100
AcDbTrace
 10
90.4769432024491
 20
-8.258744591178155
 30
0.0
 11
89.37627653578245
 21
-8.258744591178159
 31
0.0
 12
89.92660986911577
 22
-4.956744591178158
 32
0.0
 13
89.92660986911577
 23
-4.956744591178158
 33
0.0
  0
SOLID
  5
FC
330
F2
100
AcDbEntity
  8
치수문자_일반주서
 62
     0
100
AcDbTrace
 10
89.3762765357824
 20
8.258744591178461
 30
0.0
 11
90.47694320244905
 21
8.258744591178464
 31
0.0
 12
89.92660986911574
 22
4.956744591178463
 32
0.0
 13
89.92660986911574
 23
4.956744591178463
 33
0.0
  0
MTEXT
  5
FD
330
F2
100
AcDbEntity
  8
치수문자_일반주서
 62
     0
100
AcDbMText
 10
85.55160986911568
 20
26.87324459117845
 30
0.0
 40
3.5
 41
0.0
 71
     2
 72
     1
  1
\A1;%%c9.91 [25/64]
  7
SLDTEXTSTYLE0
 11
-2.866973364028793E-15
 21
1.0
 31
0.0
 73
     1
 44
1.0
  0
POINT
  5
FE
330
F2
100
AcDbEntity
  8
Defpoints
 62
     0
100
AcDbPoint
 10
47.62500000000001
 20
-4.956744591178312
 30
0.0
  0
POINT
  5
FF
330
F2
100
AcDbEntity
  8
Defpoints
 62
     0
100
AcDbPoint
 10
47.62500000000001
 20
4.956744591178309
 30
0.0
  0
POINT
  5
100
330
F2
100
AcDbEntity
  8
Defpoints
 62
     0
100
AcDbPoint
 10
89.92660986911574
 20
4.956744591178467
 30
0.0
  0
ENDBLK
  5
F4
330
F2
100
AcDbEntity
  8
0
100
AcDbBlockEnd
  0
BLOCK
  5
106
330
105
100
AcDbEntity
  8
0
100
AcDbBlockBegin
  2
_D_2
 70
     0
 10
0.0
 20
0.0
 30
0.0
  3
_D_2
  1

  0
LINE
  5
108
330
105
100
AcDbEntity
  8
치수문자_일반주서
 62
     0
370
    -2
100
AcDbLine
 10
47.62500000000001
 20
5.019244591178309
 30
0.0
 11
47.62500000000001
 21
16.35
 31
0.0
  0
LINE
  5
109
330
105
100
AcDbEntity
  8
치수문자_일반주서
 62
     0
370
    -2
100
AcDbLine
 10
26.98750000000001
 20
4.594377764929059
 30
0.0
 11
26.98750000000001
 21
16.35
 31
0.0
  0
LINE
  5
10A
330
105
100
AcDbEntity
  8
치수문자_일반주서
 62
     0
370
    -2
100
AcDbLine
 10
47.62500000000001
 20
16.35
 30
0.0
 11
83.54150000000001
 21
16.35
 31
0.0
  0
LINE
  5
10B
330
105
100
AcDbEntity
  8
치수문자_일반주서
 62
     0
370
    -2
100
AcDbLine
 10
47.62500000000001
 20
16.35
 30
0.0
 11
26.98750000000001
 21
16.35
 31
0.0
  0
LINE
  5
10C
330
105
100
AcDbEntity
  8
치수문자_일반주서
 62
     0
370
    -2
100
AcDbLine
 10
50.92700000000001
 20
16.35
 30
0.0
 11
54.22900000000001
 21
16.35
 31
0.0
  0
LINE
  5
10D
330
105
100
AcDbEntity
  8
치수문자_일반주서
 62
     0
370
    -2
100
AcDbLine
 10
23.68550000000001
 20
16.35
 30
0.0
 11
20.38350000000001
 21
16.35
 31
0.0
  0
SOLID
  5
10E
330
105
100
AcDbEntity
  8
치수문자_일반주서
 62
     0
100
AcDbTrace
 10
50.92700000000001
 20
16.90033333333333
 30
0.0
 11
50.92700000000001
 21
15.79966666666667
 31
0.0
 12
47.62500000000001
 22
16.35
 32
0.0
 13
47.62500000000001
 23
16.35
 33
0.0
  0
SOLID
  5
10F
330
105
100
AcDbEntity
  8
치수문자_일반주서
 62
     0
100
AcDbTrace
 10
23.68550000000001
 20
15.79966666666667
 30
0.0
 11
23.68550000000001
 21
16.90033333333333
 31
0.0
 12
26.98750000000001
 22
16.35
 32
0.0
 13
26.98750000000001
 23
16.35
 33
0.0
  0
MTEXT
  5
110
330
105
100
AcDbEntity
  8
치수문자_일반주서
 62
     0
100
AcDbMText
 10
68.88525000000001
 20
20.725
 30
0.0
 40
3.5
 41
0.0
 71
     2
 72
     1
  1
\A1;20.64 [13/16]
  7
SLDTEXTSTYLE0
 73
     1
 44
1.0
  0
POINT
  5
111
330
105
100
AcDbEntity
  8
Defpoints
 62
     0
100
AcDbPoint
 10
47.62500000000001
 20
4.956744591178309
 30
0.0
  0
POINT
  5
112
330
105
100
AcDbEntity
  8
Defpoints
 62
     0
100
AcDbPoint
 10
26.98750000000001
 20
4.531877764929059
 30
0.0
  0
POINT
  5
113
330
105
100
AcDbEntity
  8
Defpoints
 62
     0
100
AcDbPoint
 10
26.98750000000001
 20
16.35
 30
0.0
  0
ENDBLK
  5
107
330
105
100
AcDbEntity
  8
0
100
AcDbBlockEnd
  0
BLOCK
  5
11A
330
119
100
AcDbEntity
  8
0
100
AcDbBlockBegin
  2
_D_3
 70
     0
 10
0.0
 20
0.0
 30
0.0
  3
_D_3
  1

  0
LINE
  5
11C
330
119
100
AcDbEntity
  8
치수문자_일반주서
 62
     0
370
    -2
100
AcDbLine
 10
-47.62500000000003
 20
5.019244591178312
 30
0.0
 11
-47.62500000000003
 21
26.34999999999999
 31
0.0
  0
LINE
  5
11D
330
119
100
AcDbEntity
  8
치수문자_일반주서
 62
     0
370
    -2
100
AcDbLine
 10
47.62500000000001
 20
5.019244591178309
 30
0.0
 11
47.62500000000001
 21
26.34999999999999
 31
0.0
  0
LINE
  5
11E
330
119
100
AcDbEntity
  8
치수문자_일반주서
 62
     0
370
    -2
100
AcDbLine
 10
-44.32300000000003
 20
26.34999999999999
 30
0.0
 11
44.32300000000001
 21
26.34999999999999
 31
0.0
  0
SOLID
  5
11F
330
119
100
AcDbEntity
  8
치수문자_일반주서
 62
     0
100
AcDbTrace
 10
-44.32300000000003
 20
26.90033333333333
 30
0.0
 11
-44.32300000000003
 21
25.79966666666666
 31
0.0
 12
-47.62500000000003
 22
26.34999999999999
 32
0.0
 13
-47.62500000000003
 23
26.34999999999999
 33
0.0
  0
SOLID
  5
120
330
119
100
AcDbEntity
  8
치수문자_일반주서
 62
     0
100
AcDbTrace
 10
44.32300000000001
 20
25.79966666666666
 30
0.0
 11
44.32300000000001
 21
26.90033333333333
 31
0.0
 12
47.62500000000001
 22
26.34999999999999
 32
0.0
 13
47.62500000000001
 23
26.34999999999999
 33
0.0
  0
MTEXT
  5
121
330
119
100
AcDbEntity
  8
치수문자_일반주서
 62
     0
100
AcDbMText
 10
0.0000000000000142
 20
30.72499999999999
 30
0.0
 40
3.5
 41
0.0
 71
     2
 72
     1
  1
\A1;95.25 [3 3/4]
  7
SLDTEXTSTYLE0
 73
     1
 44
1.0
  0
POINT
  5
122
330
119
100
AcDbEntity
  8
Defpoints
 62
     0
100
AcDbPoint
 10
-47.62500000000003
 20
4.956744591178312
 30
0.0
  0
POINT
  5
123
330
119
100
AcDbEntity
  8
Defpoints
 62
     0
100
AcDbPoint
 10
47.62500000000001
 20
4.956744591178309
 30
0.0
  0
POINT
  5
124
330
119
100
AcDbEntity
  8
Defpoints
 62
     0
100
AcDbPoint
 10
47.62500000000001
 20
26.34999999999999
 30
0.0
  0
ENDBLK
  5
11B
330
119
100
AcDbEntity
  8
0
100
AcDbBlockEnd
  0
BLOCK
  5
133
330
132
100
AcDbEntity
  8
0
100
AcDbBlockBegin
  2
SW_DOWELSYMBOL_0
 70
     0
 10
0.0
 20
0.0
 30
0.0
  3
SW_DOWELSYMBOL_0
  1

  0
CIRCLE
  5
135
330
132
100
AcDbEntity
  8
해칭선
 62
     0
100
AcDbCircle
 10
0.0
 20
0.0
 30
0.0
 40
3.000000000000001
  0
HATCH
  5
136
330
132
100
AcDbEntity
  8
0
  6
Continuous
 62
     0
370
     0
100
AcDbHatch
 10
0.0
 20
0.0
 30
0.0
210
0.0
220
0.0
230
1.0
  2
SOLID
 70
     1
 71
     0
 91
        1
 92
        0
 93
        3
 72
     2
 10
0.0
 20
0.0
 40
3.000000000000001
 50
0.0
 51
90.0
 73
     1
 72
     1
 10
0.0
 20
3.000000000000001
 11
0.0
 21
0.0
 72
     1
 10
0.0
 20
0.0
 11
3.000000000000001
 21
0.0
 97
        0
 75
     0
 76
     1
 98
        1
 10
0.0
 20
0.0
  0
HATCH
  5
137
330
132
100
AcDbEntity
  8
0
  6
Continuous
 62
     0
370
     0
100
AcDbHatch
 10
0.0
 20
0.0
 30
0.0
210
0.0
220
0.0
230
1.0
  2
SOLID
 70
     1
 71
     0
 91
        1
 92
        0
 93
        3
 72
     2
 10
0.0
 20
0.0
 40
3.000000000000001
 50
180.0
 51
270.0000000000008
 73
     1
 72
     1
 10
0.0
 20
-3.000000000000001
 11
0.0
 21
0.0
 72
     1
 10
0.0
 20
0.0
 11
-3.000000000000001
 21
0.0
 97
        0
 75
     0
 76
     1
 98
        1
 10
0.0
 20
0.0
  0
ENDBLK
  5
134
330
132
100
AcDbEntity
  8
0
100
AcDbBlockEnd
  0
BLOCK
  5
194
330
193
100
AcDbEntity
  8
0
100
AcDbBlockBegin
  2
*D8
 70
     1
 10
0.0
 20
0.0
 30
0.0
  3
*D8
  1

  0
LINE
  5
196
330
193
100
AcDbEntity
  8
치수문자_일반주서
 62
     0
370
    -2
100
AcDbLine
 10
0.0
 20
0.5121961990748796
 30
0.0
 11
0.0
 21
33.79272327212171
 31
0.0
  0
LINE
  5
197
330
193
100
AcDbEntity
  8
치수문자_일반주서
 62
     0
370
    -2
100
AcDbLine
 10
25.99995813577124
 20
8.175743682859753
 30
0.0
 11
25.99995813577124
 21
33.79272327212171
 31
0.0
  0
LINE
  5
198
330
193
100
AcDbEntity
  8
치수문자_일반주서
 62
     0
370
    -2
100
AcDbLine
 10
3.302
 20
33.79272327212171
 30
0.0
 11
22.69795813577124
 21
33.79272327212171
 31
0.0
  0
SOLID
  5
199
330
193
100
AcDbEntity
  8
치수문자_일반주서
 62
     0
100
AcDbTrace
 10
3.302
 20
34.34305660545504
 30
0.0
 11
3.302
 21
33.24238993878837
 31
0.0
 12
0.0
 22
33.79272327212171
 32
0.0
 13
0.0
 23
33.79272327212171
 33
0.0
  0
SOLID
  5
19A
330
193
100
AcDbEntity
  8
치수문자_일반주서
 62
     0
100
AcDbTrace
 10
22.69795813577124
 20
33.24238993878837
 30
0.0
 11
22.69795813577124
 21
34.34305660545504
 31
0.0
 12
25.99995813577124
 22
33.79272327212171
 32
0.0
 13
25.99995813577124
 23
33.79272327212171
 33
0.0
  0
MTEXT
  5
19B
330
193
100
AcDbEntity
  8
치수문자_일반주서
 62
     0
100
AcDbMText
 10
13.04655386270326
 20
38.16772327212171
 30
0.0
 40
3.5
 41
0.0
 71
     2
 72
     1
  1
\A1;26.00 [1.02]
  7
SLDTEXTSTYLE0
 73
     1
 44
1.0
  0
POINT
  5
19C
330
193
100
AcDbEntity
  8
Defpoints
 62
     0
100
AcDbPoint
 10
0.0
 20
0.4496961990748796
 30
0.0
  0
POINT
  5
19D
330
193
100
AcDbEntity
  8
Defpoints
 62
     0
100
AcDbPoint
 10
25.99995813577124
 20
8.113243682859753
 30
0.0
  0
POINT
  5
19E
330
193
100
AcDbEntity
  8
Defpoints
 62
     0
100
AcDbPoint
 10
25.99995813577124
 20
33.79272327212171
 30
0.0
  0
ENDBLK
  5
195
330
193
100
AcDbEntity
  8
0
100
AcDbBlockEnd
  0
BLOCK
  5
1A3
330
1A2
100
AcDbEntity
  8
0
100
AcDbBlockBegin
  2
*D9
 70
     1
 10
0.0
 20
0.0
 30
0.0
  3
*D9
  1

  0
LINE
  5
1A5
330
1A2
100
AcDbEntity
  8
치수문자_일반주서
 62
     0
370
    -2
100
AcDbLine
 10
69.74952362350476
 20
-29.98280050721198
 30
0.0
 11
69.74952362350476
 21
3.29772656583485
 31
0.0
  0
LINE
  5
1A6
330
1A2
100
AcDbEntity
  8
치수문자_일반주서
 62
     0
370
    -2
100
AcDbLine
 10
95.749481759276
 20
-22.3192530234271
 30
0.0
 11
95.749481759276
 21
3.29772656583485
 31
0.0
  0
LINE
  5
1A7
330
1A2
100
AcDbEntity
  8
치수문자_일반주서
 62
     0
370
    -2
100
AcDbLine
 10
73.05152362350475
 20
3.29772656583485
 30
0.0
 11
92.447481759276
 21
3.29772656583485
 31
0.0
  0
SOLID
  5
1A8
330
1A2
100
AcDbEntity
  8
치수문자_일반주서
 62
     0
100
AcDbTrace
 10
73.05152362350475
 20
3.848059899168183
 30
0.0
 11
73.05152362350475
 21
2.747393232501517
 31
0.0
 12
69.74952362350476
 22
3.29772656583485
 32
0.0
 13
69.74952362350476
 23
3.29772656583485
 33
0.0
  0
SOLID
  5
1A9
330
1A2
100
AcDbEntity
  8
치수문자_일반주서
 62
     0
100
AcDbTrace
 10
92.447481759276
 20
2.747393232501517
 30
0.0
 11
92.447481759276
 21
3.848059899168183
 31
0.0
 12
95.749481759276
 22
3.29772656583485
 32
0.0
 13
95.749481759276
 23
3.29772656583485
 33
0.0
  0
MTEXT
  5
1AA
330
1A2
100
AcDbEntity
  8
치수문자_일반주서
 62
     0
100
AcDbMText
 10
82.79607748620802
 20
7.67272656583485
 30
0.0
 40
3.5
 41
0.0
 71
     2
 72
     1
  1
\A1;26.00 [1.02]
  7
SLDTEXTSTYLE0
 73
     1
 44
1.0
  0
POINT
  5
1AB
330
1A2
100
AcDbEntity
  8
Defpoints
 62
     0
100
AcDbPoint
 10
69.74952362350476
 20
-30.04530050721198
 30
0.0
  0
POINT
  5
1AC
330
1A2
100
AcDbEntity
  8
Defpoints
 62
     0
100
AcDbPoint
 10
95.749481759276
 20
-22.3817530234271
 30
0.0
  0
POINT
  5
1AD
330
1A2
100
AcDbEntity
  8
Defpoints
 62
     0
100
AcDbPoint
 10
95.749481759276
 20
3.29772656583485
 30
0.0
  0
ENDBLK
  5
1A4
330
1A2
100
AcDbEntity
  8
0
100
AcDbBlockEnd
  0
ENDSEC
  0
SECTION
  2
ENTITIES
  0
LINE
  5
96
330
1F
100
AcDbEntity
  8
외형선
  6
Continuous
370
    15
100
AcDbLine
 10
20.80344817511138
 20
6.349999999999994
 30
0.0
 11
7.112000000000041
 21
6.349999999999993
 31
0.0
  0
LINE
  5
97
330
1F
100
AcDbEntity
  8
외형선
  6
Continuous
370
    15
100
AcDbLine
 10
-20.80344817511139
 20
-6.35
 30
0.0
 11
20.80344817511138
 21
-6.349999999999998
 31
0.0
  0
LINE
  5
98
330
1F
100
AcDbEntity
  8
외형선
  6
Continuous
370
    15
100
AcDbLine
 10
20.80344817511138
 20
-6.35
 30
0.0
 11
25.46750484886751
 21
-5.100269780814055
 31
0.0
  0
LINE
  5
99
330
1F
100
AcDbEntity
  8
외형선
  6
Continuous
370
    15
100
AcDbLine
 10
25.46750484886751
 20
5.100269780814052
 30
0.0
 11
20.80344817511138
 21
6.349999999999996
 31
0.0
  0
SPLINE
  5
9C
330
1F
100
AcDbEntity
  8
외형선
  6
Continuous
370
    15
100
AcDbSpline
210
0.0
220
0.0
230
1.0
 70
     8
 71
     3
 72
     9
 73
     5
 74
     0
 42
0.000000001
 43
0.00000001
 40
0.0
 40
0.0
 40
0.0
 40
0.0
 40
0.4998601502420167
 40
1.0
 40
1.0
 40
1.0
 40
1.0
 10
25.74826581170427
 20
-4.120353062741161
 30
0.0
 10
25.95501689778946
 20
-4.100537900706852
 30
0.0
 10
26.36863475867531
 20
-4.060896488954559
 30
0.0
 10
26.78117312396475
 20
-4.028580362570863
 30
0.0
 10
26.9875
 20
-4.012417779976558
 30
0.0
  0
LINE
  5
9D
330
1F
100
AcDbEntity
  8
0
  6
Continuous
 62
     1
370
    15
100
AcDbLine
 10
33.43972180533294
 20
1.93745778771936
 30
0.0
 11
33.39667268206304
 21
1.959600935427269
 31
0.0
1001
PE_URL
1000

  0
SPLINE
  5
9E
330
1F
100
AcDbEntity
  8
0
  6
Continuous
 62
     1
370
    15
100
AcDbSpline
210
0.0
220
0.0
230
1.0
 70
     8
 71
     3
 72
     9
 73
     5
 74
     0
 42
0.000000001
 43
0.00000001
 40
0.0
 40
0.0
 40
0.0
 40
0.0
 40
0.451240490475664
 40
0.9999999999999999
 40
0.9999999999999999
 40
0.9999999999999999
 40
0.9999999999999999
 10
34.77175663225209
 20
1.271216434489621
 30
0.0
 10
34.57138184771527
 20
1.36655493421327
 30
0.0
 10
34.12732864600545
 20
1.577835840372979
 30
0.0
 10
33.68335601084552
 20
1.810035833422146
 30
0.0
 10
33.43972180533294
 20
1.93745778771936
 30
0.0
1001
PE_URL
1000

  0
LINE
  5
9F
330
1F
100
AcDbEntity
  8
0
  6
Continuous
 62
     1
370
    15
100
AcDbLine
 10
32.08616192661446
 20
1.365810613884565
 30
0.0
 11
31.97625795982292
 21
1.426119802871193
 31
0.0
1001
PE_URL
1000

  0
SPLINE
  5
A0
330
1F
100
AcDbEntity
  8
0
  6
Continuous
 62
     1
370
    15
100
AcDbSpline
210
0.0
220
0.0
230
1.0
 70
     8
 71
     3
 72
    16
 73
    12
 74
     0
 42
0.000000001
 43
0.00000001
 40
0.0
 40
0.0
 40
0.0
 40
0.0
 40
0.1466907873465396
 40
0.2571367985319393
 40
0.3599668278512138
 40
0.485141201088187
 40
0.6167865207963144
 40
0.7452727745579736
 40
0.8705030206848338
 40
0.9841000513877375
 40
1.0
 40
1.0
 40
1.0
 40
1.0
 10
33.13235864266966
 20
3.94215207653638
 30
0.0
 10
32.93758158541142
 20
3.932368457090067
 30
0.0
 10
32.59615353913243
 20
3.915218582663823
 30
0.0
 10
32.10785043871554
 20
3.89761110215689
 30
0.0
 10
31.64552676222368
 20
3.885021060075807
 30
0.0
 10
31.16000596794594
 20
3.876557238100287
 30
0.0
 10
30.63978695064948
 20
3.873275565642484
 30
0.0
 10
30.1197280718469
 20
3.875739105349201
 30
0.0
 10
29.62390965553987
 20
3.884064419673673
 30
0.0
 10
29.2799395709005
 20
3.892082849871785
 30
0.0
 10
29.10508724811356
 20
3.89849481078392
 30
0.0
 10
29.08361846203261
 20
3.899282086669011
 30
0.0
1001
PE_URL
1000

  0
SPLINE
  5
A1
330
1F
100
AcDbEntity
  8
0
  6
Continuous
 62
     1
370
    15
100
AcDbSpline
210
0.0
220
0.0
230
1.0
 70
     8
 71
     3
 72
    25
 73
    21
 74
     0
 42
0.000000001
 43
0.00000001
 40
0.0
 40
0.0
 40
0.0
 40
0.0
 40
0.0614675970292644
 40
0.1101016092996383
 40
0.1692370689988699
 40
0.2192376268633082
 40
0.2786231582828018
 40
0.3390048570168396
 40
0.3974304631624608
 40
0.4484938934931343
 40
0.493997357884909
 40
0.5557239841386143
 40
0.6351409375895304
 40
0.7169781585659439
 40
0.771684114569719
 40
0.8194702275543243
 40
0.8432991927837133
 40
0.8805038049917262
 40
0.9326040377041076
 40
1.0
 40
1.0
 40
1.0
 40
1.0
 10
45.78114996615813
 20
3.393036358669759
 30
0.0
 10
45.60334618652953
 20
3.378453159883579
 30
0.0
 10
45.28486159915664
 20
3.352331532673543
 30
0.0
 10
44.79605690715546
 20
3.321030421100448
 30
0.0
 10
44.34217496592289
 20
3.297604911790882
 30
0.0
 10
43.8555912772801
 20
3.279250871067721
 30
0.0
 10
43.36376025516192
 20
3.267553568177628
 30
0.0
 10
42.8453790288585
 20
3.263311422889625
 30
0.0
 10
42.34807729235192
 20
3.266705735185776
 30
0.0
 10
41.90179610382483
 20
3.276366509578053
 30
0.0
 10
41.45499413181437
 20
3.291521975413539
 30
0.0
 10
40.9143163836893
 20
3.316846277103384
 30
0.0
 10
40.27064985415863
 20
3.358443546397464
 30
0.0
 10
39.64707820222715
 20
3.411452849125438
 30
0.0
 10
39.114189062592
 20
3.465193269952126
 30
0.0
 10
38.75022402775805
 20
3.50620603753668
 30
0.0
 10
38.43772289098175
 20
3.543954124718769
 30
0.0
 10
38.11090191570842
 20
3.585807440791735
 30
0.0
 10
37.65773837232233
 20
3.648205799065679
 30
0.0
 10
37.31091902363766
 20
3.701338147335477
 30
0.0
 10
37.1153125966228
 20
3.731304839918747
 30
0.0
1001
PE_URL
1000

  0
SPLINE
  5
A2
330
1F
100
AcDbEntity
  8
0
  6
Continuous
 62
     1
370
    15
100
AcDbSpline
210
0.0
220
0.0
230
1.0
 70
     8
 71
     3
 72
    17
 73
    13
 74
     0
 42
0.000000001
 43
0.00000001
 40
0.0
 40
0.0
 40
0.0
 40
0.0
 40
0.1574434909828851
 40
0.2791546772293932
 40
0.3857045242168504
 40
0.4541864033000506
 40
0.5285816367790145
 40
0.6100345153382025
 40
0.6975402269523413
 40
0.7904559333219993
 40
0.9437385634198311
 40
1.0
 40
1.0
 40
1.0
 40
1.0
 10
37.1153125966228
 20
-3.73130483991875
 30
0.0
 10
37.31091267025418
 20
-3.701339800223823
 30
0.0
 10
37.65772075409265
 20
-3.648210382602407
 30
0.0
 10
38.13525967432759
 20
-3.58244742393335
 30
0.0
 10
38.50198550449348
 20
-3.535841611253932
 30
0.0
 10
38.80845668726892
 20
-3.499607384435463
 30
0.0
 10
39.08536298026384
 20
-3.468781497259244
 30
0.0
 10
39.38630669839498
 20
-3.437610783395568
 30
0.0
 10
39.71024401206283
 20
-3.406721550464095
 30
0.0
 10
40.12263457493339
 20
-3.37134396930338
 30
0.0
 10
40.49664085747881
 20
-3.343040768014914
 30
0.0
 10
40.75576014442147
 20
-3.328510330506528
 30
0.0
 10
40.8253322566752
 20
-3.324608987455777
 30
0.0
1001
PE_URL
1000

  0
SPLINE
  5
A3
330
1F
100
AcDbEntity
  8
0
  6
Continuous
 62
     1
370
    15
100
AcDbSpline
210
0.0
220
0.0
230
1.0
 70
     8
 71
     3
 72
    20
 73
    16
 74
     0
 42
0.000000001
 43
0.00000001
 40
0.0
 40
0.0
 40
0.0
 40
0.0
 40
0.106393130357734
 40
0.182972636676067
 40
0.2320330204088775
 40
0.2771137350209998
 40
0.324094549706242
 40
0.4135998798721182
 40
0.5092244898547003
 40
0.5938349960870493
 40
0.6805258039946858
 40
0.762955377406822
 40
0.8306707989547987
 40
0.9034014813753086
 40
0.9999999999999999
 40
0.9999999999999999
 40
0.9999999999999999
 40
0.9999999999999999
 10
26.98750000000001
 20
-4.01241777997656
 30
0.0
 10
27.20488699934295
 20
-3.996878935174491
 30
0.0
 10
27.57874452487242
 20
-3.970155561261389
 30
0.0
 10
28.05262645587785
 20
-3.943185246385059
 30
0.0
 10
28.40225522815513
 20
-3.925692955886018
 30
0.0
 10
28.691549547051
 20
-3.913045696934741
 30
0.0
 10
29.06384047817639
 20
-3.899001591784704
 30
0.0
 10
29.53981856129854
 20
-3.885274803578657
 30
0.0
 10
30.09276487869855
 20
-3.875963207984299
 30
0.0
 10
30.63978625583236
 20
-3.873250365462737
 30
0.0
 10
31.16000614693477
 20
-3.87656372980939
 30
0.0
 10
31.64552672467795
 20
-3.88501969833769
 30
0.0
 10
32.10785044856752
 20
-3.897611459476715
 30
0.0
 10
32.59615353560908
 20
-3.915218454876064
 30
0.0
 10
32.93758158413155
 20
-3.932368410671034
 30
0.0
 10
33.13235864266966
 20
-3.942152076536384
 30
0.0
1001
PE_URL
1000

  0
LINE
  5
A4
330
1F
100
AcDbEntity
  8
외형선
  6
Continuous
370
    15
100
AcDbLine
 10
20.80344817511138
 20
6.349999999999996
 30
0.0
 11
20.80344817511138
 21
-6.349999999999998
 31
0.0
  0
SPLINE
  5
A6
330
1F
100
AcDbEntity
  8
외형선
  6
Continuous
370
    15
100
AcDbSpline
210
0.0
220
0.0
230
1.0
 70
     8
 71
     3
 72
     8
 73
     4
 74
     0
 42
0.000000001
 43
0.00000001
 40
0.0
 40
0.0
 40
0.0
 40
0.0
 40
0.0005904361615421
 40
0.0005904361615421
 40
0.0005904361615421
 40
0.0005904361615421
 10
25.98750000000001
 20
4.7358166421068
 30
0.0
 10
25.81389940115614
 20
4.804111054402506
 30
0.0
 10
25.64053700929779
 20
4.871003184480633
 30
0.0
 10
25.46750993237347
 20
4.93637782219892
 30
0.0
  0
LINE
  5
A7
330
1F
100
AcDbEntity
  8
외형선
  6
Continuous
370
    15
100
AcDbLine
 10
25.98750000000001
 20
4.735816642106852
 30
0.0
 11
25.98750000000001
 21
4.143569346860621
 31
0.0
  0
SPLINE
  5
A8
330
1F
100
AcDbEntity
  8
외형선
  6
Continuous
370
    15
100
AcDbSpline
210
0.0
220
0.0
230
1.0
 70
     8
 71
     3
 72
     8
 73
     4
 74
     0
 42
0.000000001
 43
0.00000001
 40
0.0
 40
0.0
 40
0.0
 40
0.0
 40
0.0005966042685055
 40
0.0005966042685055
 40
0.0005966042685055
 40
0.0005966042685055
 10
25.46750484886751
 20
4.397709130941004
 30
0.0
 10
25.6409644835068
 20
4.314359168901023
 30
0.0
 10
25.81431810674196
 20
4.229641094026947
 30
0.0
 10
25.98750000000004
 20
4.143569346860494
 30
0.0
  0
LINE
  5
A9
330
1F
100
AcDbEntity
  8
외형선
  6
Continuous
370
    15
100
AcDbLine
 10
25.46750484886751
 20
-5.100269780814055
 30
0.0
 11
25.46750484886751
 21
4.39773743872149
 31
0.0
  0
SPLINE
  5
AA
330
1F
100
AcDbEntity
  8
외형선
  6
Continuous
370
    15
100
AcDbSpline
210
0.0
220
0.0
230
1.0
 70
     8
 71
     3
 72
     8
 73
     4
 74
     0
 42
0.000000001
 43
0.00000001
 40
0.0
 40
0.0
 40
0.0
 40
0.0
 40
0.0005904361615421
 40
0.0005904361615421
 40
0.0005904361615421
 40
0.0005904361615421
 10
25.98750000000001
 20
-4.735816642106804
 30
0.0
 10
25.81389940115614
 20
-4.804111054402509
 30
0.0
 10
25.64053700929779
 20
-4.871003184480634
 30
0.0
 10
25.46750993237347
 20
-4.936377822198924
 30
0.0
  0
LINE
  5
AB
330
1F
100
AcDbEntity
  8
외형선
  6
Continuous
370
    15
100
AcDbLine
 10
25.46750484886751
 20
4.936418846994065
 30
0.0
 11
25.46750484886751
 21
5.100269780814052
 31
0.0
  0
SPLINE
  5
AD
330
1F
100
AcDbEntity
  8
외형선
  6
Continuous
370
    15
100
AcDbSpline
210
0.0
220
0.0
230
1.0
 70
    24
 71
     3
 72
    14
 73
    10
 74
     0
 42
0.000000001
 43
0.00000001
 40
0.0
 40
0.0
 40
0.0
 40
0.0
 40
0.25
 40
0.25
 40
0.5
 40
0.5
 40
0.75
 40
0.75
 40
1.0
 40
1.0
 40
1.0
 40
1.0
 10
26.98750000000001
 20
2.564692343761619
 30
0.0
 10
26.98750000000001
 20
2.206097238275923
 30
0.0
 10
26.98750000000001
 20
1.804847698469163
 30
0.0
 10
26.98750000000001
 20
0.944707076613817
 30
0.0
 10
26.98750000000001
 20
0.4861220550795819
 30
0.0
 10
26.98750000000001
 20
-0.4452598326865836
 30
0.0
 10
26.98750000000001
 20
-0.9175604197092924
 30
0.0
 10
26.98750000000001
 20
-1.829961777663562
 30
0.0
 10
26.98750000000001
 20
-2.269683085057063
 30
0.0
 10
26.98750000000001
 20
-2.675773606240969
 30
0.0
  0
SPLINE
  5
AE
330
1F
100
AcDbEntity
  8
외형선
  6
Continuous
370
    15
100
AcDbSpline
210
0.0
220
0.0
230
1.0
 70
     8
 71
     3
 72
    10
 73
     6
 74
     0
 42
0.000000001
 43
0.00000001
 40
0.0
 40
0.0
 40
0.0
 40
0.0
 40
0.5
 40
0.5
 40
1.0
 40
1.0
 40
1.0
 40
1.0
 10
26.9875
 20
-2.675773606240966
 30
0.0
 10
26.73358278281903
 20
-2.589250289576444
 30
0.0
 10
26.48160344218145
 20
-2.499456028350262
 30
0.0
 10
25.97609470258859
 20
-2.313417664263785
 30
0.0
 10
25.72181793131524
 20
-2.217070003942903
 30
0.0
 10
25.46750670478771
 20
-2.117940756984373
 30
0.0
  0
SPLINE
  5
AF
330
1F
100
AcDbEntity
  8
외형선
  6
Continuous
370
    15
100
AcDbSpline
210
0.0
220
0.0
230
1.0
 70
     8
 71
     3
 72
    10
 73
     6
 74
     0
 42
0.000000001
 43
0.00000001
 40
0.0
 40
0.0
 40
0.0
 40
0.0
 40
0.5
 40
0.5
 40
1.0
 40
1.0
 40
1.0
 40
1.0
 10
26.9875
 20
2.56469234376162
 30
0.0
 10
26.73358267773981
 20
2.633805946875395
 30
0.0
 10
26.48160323424299
 20
2.69939695690647
 30
0.0
 10
25.97609428293906
 20
2.823520650261379
 30
0.0
 10
25.72181740515749
 20
2.882101436681733
 30
0.0
 10
25.46750607333405
 20
2.936834826804585
 30
0.0
  0
LINE
  5
B0
330
1F
100
AcDbEntity
  8
외형선
  6
Continuous
370
    15
100
AcDbLine
 10
25.74893913721051
 20
-4.11721293206673
 30
0.0
 11
25.46750993237351
 21
-4.147400479427164
 31
0.0
  0
SPLINE
  5
B1
330
1F
100
AcDbEntity
  8
외형선
  6
Continuous
370
    15
100
AcDbSpline
210
0.0
220
0.0
230
1.0
 70
    24
 71
     3
 72
    13
 73
     9
 74
     0
 42
0.000000001
 43
0.00000001
 40
0.0
 40
0.0
 40
0.0
 40
0.0
 40
0.1570386923745063
 40
0.3161283512630643
 40
0.5469492734595471
 40
0.7844640180366484
 40
0.9926738524436008
 40
1.0
 40
1.0
 40
1.0
 40
1.0
 10
26.9875
 20
-2.675773606240966
 30
0.0
 10
26.9875
 20
-2.805553895706795
 30
0.0
 10
26.9875
 20
-3.066809439260568
 30
0.0
 10
26.9875
 20
-3.434608817533189
 30
0.0
 10
26.9875
 20
-3.763963382627395
 30
0.0
 10
26.9875
 20
-3.957946520886015
 30
0.0
 10
26.9875
 20
-4.033262103395634
 30
0.0
 10
26.9875
 20
-4.011028832785688
 30
0.0
 10
26.9875
 20
-4.010273115713922
 30
0.0
  0
SPLINE
  5
B2
330
1F
100
AcDbEntity
  8
외형선
  6
Continuous
370
    15
100
AcDbSpline
210
0.0
220
0.0
230
1.0
 70
     8
 71
     3
 72
     8
 73
     4
 74
     0
 42
0.000000001
 43
0.00000001
 40
0.0
 40
0.0
 40
0.0
 40
0.0
 40
1.0
 40
1.0
 40
1.0
 40
1.0
 10
26.98750000000002
 20
3.798235561508911
 30
0.0
 10
26.65290126789296
 20
3.922373300051933
 30
0.0
 10
26.32164281568381
 20
4.037502939793892
 30
0.0
 10
25.98750000000001
 20
4.143569346860621
 30
0.0
  0
SPLINE
  5
B3
330
1F
100
AcDbEntity
  8
외형선
  6
Continuous
370
    15
100
AcDbSpline
210
0.0
220
0.0
230
1.0
 70
    24
 71
     3
 72
    10
 73
     6
 74
     0
 42
0.000000001
 43
0.00000001
 40
0.0
 40
0.0
 40
0.0
 40
0.0
 40
0.5
 40
0.5
 40
1.0
 40
1.0
 40
1.0
 40
1.0
 10
26.9875
 20
3.798235561508914
 30
0.0
 10
26.9875
 20
3.657605892770822
 30
0.0
 10
26.9875
 20
3.470370699914318
 30
0.0
 10
26.9875
 20
3.041937830663092
 30
0.0
 10
26.9875
 20
2.802097403536999
 30
0.0
 10
26.9875
 20
2.56469234376162
 30
0.0
  0
SPLINE
  5
B4
330
1F
100
AcDbEntity
  8
외형선
  6
Continuous
370
    15
100
AcDbSpline
210
0.0
220
0.0
230
1.0
 70
     8
 71
     3
 72
     8
 73
     4
 74
     0
 42
0.000000001
 43
0.00000001
 40
0.0
 40
0.0
 40
0.0
 40
0.0
 40
1.0
 40
1.0
 40
1.0
 40
1.0
 10
26.9875
 20
4.531877764941778
 30
0.0
 10
26.65290126789296
 20
4.61038225057675
 30
0.0
 10
26.32164281568381
 20
4.678370370433672
 30
0.0
 10
25.98750000000001
 20
4.735816642106855
 30
0.0
  0
LINE
  5
B5
330
1F
100
AcDbEntity
  8
외형선
  6
Continuous
370
    15
100
AcDbLine
 10
26.9875
 20
4.531877764941776
 30
0.0
 11
26.98750000000001
 21
3.798235561508916
 31
0.0
  0
SPLINE
  5
B6
330
1F
100
AcDbEntity
  8
외형선
  6
Continuous
370
    15
100
AcDbSpline
210
0.0
220
0.0
230
1.0
 70
     8
 71
     3
 72
     8
 73
     4
 74
     0
 42
0.000000001
 43
0.00000001
 40
0.0
 40
0.0
 40
0.0
 40
0.0
 40
1.0
 40
1.0
 40
1.0
 40
1.0
 10
26.9875
 20
-4.531877764941783
 30
0.0
 10
26.65290126789296
 20
-4.610382250576754
 30
0.0
 10
26.32164281568381
 20
-4.678370370433677
 30
0.0
 10
25.98750000000001
 20
-4.73581664210686
 30
0.0
  0
SPLINE
  5
B7
330
1F
100
AcDbEntity
  8
외형선
  6
Continuous
370
    15
100
AcDbSpline
210
0.0
220
0.0
230
1.0
 70
    24
 71
     3
 72
    10
 73
     6
 74
     0
 42
0.000000001
 43
0.00000001
 40
0.0
 40
0.0
 40
0.0
 40
0.0
 40
0.3594513896827382
 40
0.8364083631556389
 40
1.0
 40
1.0
 40
1.0
 40
1.0
 10
26.9875
 20
-4.01241777997656
 30
0.0
 10
26.9875
 20
-4.078295226889875
 30
0.0
 10
26.9875
 20
-4.231585627548141
 30
0.0
 10
26.9875
 20
-4.4014999544548
 30
0.0
 10
26.9875
 20
-4.505354133646081
 30
0.0
 10
26.9875
 20
-4.531877764941783
 30
0.0
  0
SPLINE
  5
B8
330
1F
100
AcDbEntity
  8
0
  6
Continuous
 62
     1
370
    15
100
AcDbSpline
210
0.0
220
0.0
230
1.0
 70
     8
 71
     3
 72
    38
 73
    34
 74
     0
 42
0.000000001
 43
0.00000001
 40
0.0
 40
0.0
 40
0.0
 40
0.0
 40
0.0625
 40
0.0625
 40
0.125
 40
0.125
 40
0.1875
 40
0.1875
 40
0.2499999999999999
 40
0.2499999999999999
 40
0.3124999999999999
 40
0.3124999999999999
 40
0.3749999999999998
 40
0.3749999999999998
 40
0.4374999999999998
 40
0.4374999999999998
 40
0.4999999999999997
 40
0.4999999999999997
 40
0.5624999999999997
 40
0.5624999999999997
 40
0.6249999999999997
 40
0.6249999999999997
 40
0.6874999999999997
 40
0.6874999999999997
 40
0.7499999999999997
 40
0.7499999999999997
 40
0.8124999999999998
 40
0.8124999999999998
 40
0.8749999999999999
 40
0.8749999999999999
 40
0.9375
 40
0.9375
 40
1.0
 40
1.0
 40
1.0
 40
1.0
 10
47.62500000000001
 20
-4.70763634345513
 30
0.0
 10
47.19777681257997
 20
-4.629499113072904
 30
0.0
 10
46.76512792306747
 20
-4.533329197256412
 30
0.0
 10
45.90349399148701
 20
-4.307869301932591
 30
0.0
 10
45.47717664122091
 20
-4.1789548459526
 30
0.0
 10
44.61546997795149
 20
-3.889852848399721
 30
0.0
 10
44.18307305511935
 20
-3.729882078736456
 30
0.0
 10
43.32841048455799
 20
-3.384549127726304
 30
0.0
 10
42.89572546883992
 20
-3.197785542280195
 30
0.0
 10
42.03416722165096
 20
-2.802142317474539
 30
0.0
 10
41.60784472067133
 20
-2.59375349211683
 30
0.0
 10
40.74606827924734
 20
-2.157616463716426
 30
0.0
 10
40.3139182416427
 20
-1.930363071328928
 30
0.0
 10
39.45904234872824
 20
-1.464796353204204
 30
0.0
 10
39.02632270440034
 20
-1.224672778784006
 30
0.0
 10
38.16484309343987
 20
-0.7377366408323637
 30
0.0
 10
37.73851029109204
 20
-0.4914191998948595
 30
0.0
 10
36.876667025846
 20
0.0048021116098391
 30
0.0
 10
36.44475878921008
 20
0.2540141793200489
 30
0.0
 10
35.58967244972659
 20
0.7470046325075644
 30
0.0
 10
35.15691967478668
 20
0.9926129958643944
 30
0.0
 10
34.29552165099253
 20
1.473755003601653
 30
0.0
 10
33.86917339673943
 20
1.708893048436615
 30
0.0
 10
33.0072662627683
 20
2.166263438739722
 30
0.0
 10
32.57559474009362
 20
2.387750230245491
 30
0.0
 10
31.72030083220928
 20
2.809871002012383
 30
0.0
 10
31.28751642503986
 20
3.011992874271112
 30
0.0
 10
30.42620293841703
 20
3.39141506477132
 30
0.0
 10
29.99983408189809
 20
3.568493306230873
 30
0.0
 10
29.13786603502952
 20
3.895818966850081
 30
0.0
 10
28.70642613661719
 20
4.045440982631313
 30
0.0
 10
27.85092754085235
 20
4.312513636387504
 30
0.0
 10
27.41811300020328
 20
4.430846144541476
 30
0.0
 10
26.98749999999681
 20
4.531877764942529
 30
0.0
1001
PE_URL
1000

  0
SPLINE
  5
B9
330
1F
100
AcDbEntity
  8
0
  6
Continuous
 62
     1
370
    15
100
AcDbSpline
210
0.0
220
0.0
230
1.0
 70
     8
 71
     3
 72
    14
 73
    10
 74
     0
 42
0.000000001
 43
0.00000001
 40
0.0
 40
0.0
 40
0.0
 40
0.0
 40
0.1495741832877017
 40
0.2991483607578551
 40
0.4487225324229239
 40
0.5982966982953722
 40
0.7478708583876671
 40
0.8974450127122768
 40
1.0
 40
1.0
 40
1.0
 40
1.0
 10
47.62500000000001
 20
-3.914042092764197
 30
0.0
 10
46.98297207081566
 20
-3.777811983999993
 30
0.0
 10
45.69891623741803
 20
-3.505351771770126
 30
0.0
 10
43.77283251060994
 20
-2.868757027991983
 30
0.0
 10
41.84674898163866
 20
-2.102830741784814
 30
0.0
 10
39.92066511552102
 20
-1.227367817270816
 30
0.0
 10
37.99458291404616
 20
-0.2935664556827486
 30
0.0
 10
36.27031908315642
 20
0.5626747437812563
 30
0.0
 10
35.18809503572909
 20
1.070738416169406
 30
0.0
 10
34.7478941421845
 20
1.277396254806857
 30
0.0
1001
PE_URL
1000

  0
LINE
  5
BA
330
1F
100
AcDbEntity
  8
0
  6
Continuous
 62
     1
370
    15
100
AcDbLine
 10
47.62500000000001
 20
-4.70763634345513
 30
0.0
 11
47.62500000000001
 21
-3.914042092764197
 31
0.0
1001
PE_URL
1000

  0
SPLINE
  5
BB
330
1F
100
AcDbEntity
  8
0
  6
Continuous
 62
     1
370
    15
100
AcDbSpline
210
0.0
220
0.0
230
1.0
 70
     8
 71
     3
 72
    38
 73
    34
 74
     0
 42
0.000000001
 43
0.00000001
 40
0.0
 40
0.0
 40
0.0
 40
0.0
 40
0.0625
 40
0.0625
 40
0.125
 40
0.125
 40
0.1875000000000001
 40
0.1875000000000001
 40
0.2500000000000001
 40
0.2500000000000001
 40
0.3125000000000001
 40
0.3125000000000001
 40
0.3750000000000001
 40
0.3750000000000001
 40
0.4375000000000001
 40
0.4375000000000001
 40
0.5000000000000001
 40
0.5000000000000001
 40
0.5625000000000001
 40
0.5625000000000001
 40
0.6250000000000001
 40
0.6250000000000001
 40
0.6875000000000001
 40
0.6875000000000001
 40
0.7500000000000002
 40
0.7500000000000002
 40
0.8125000000000002
 40
0.8125000000000002
 40
0.8750000000000002
 40
0.8750000000000002
 40
0.9375000000000001
 40
0.9375000000000001
 40
1.0
 40
1.0
 40
1.0
 40
1.0
 10
47.62500000000001
 20
-4.956744591178312
 30
0.0
 10
47.19777681258006
 20
-4.946562874254663
 30
0.0
 10
46.7651279230676
 20
-4.917698022402784
 30
0.0
 10
45.90349399148727
 20
-4.823264317044175
 30
0.0
 10
45.47717664122125
 20
-4.757947975252699
 30
0.0
 10
44.61546997795196
 20
-4.591669914007266
 30
0.0
 10
44.18307305511988
 20
-4.490761567477799
 30
0.0
 10
43.32841048455865
 20
-4.25697351302236
 30
0.0
 10
42.89572546884065
 20
-4.123142586608706
 30
0.0
 10
42.03416722165181
 20
-3.82585287360305
 30
0.0
 10
41.60784472067227
 20
-3.662817114402673
 30
0.0
 10
40.74606827924841
 20
-3.309349426622429
 30
0.0
 10
40.31391824164382
 20
-3.119273213166492
 30
0.0
 10
39.4590423487295
 20
-2.718640100697157
 30
0.0
 10
39.02632270440168
 20
-2.506521794037439
 30
0.0
 10
38.16484309344133
 20
-2.065659491350743
 30
0.0
 10
37.73851029109357
 20
-1.837407761185271
 30
0.0
 10
36.87666702584767
 20
-1.367216167475769
 30
0.0
 10
36.44475878921179
 20
-1.125893722300293
 30
0.0
 10
35.58967244972845
 20
-0.638270697192185
 30
0.0
 10
35.15691967478863
 20
-0.3901549618337513
 30
0.0
 10
34.29552165099459
 20
0.1063754694697746
 30
0.0
 10
33.86917339674156
 20
0.3543374966652522
 30
0.0
 10
33.00726626277057
 20
0.8475105502165746
 30
0.0
 10
32.57559474009591
 20
1.091957122098187
 30
0.0
 10
31.72030083221175
 20
1.569356564041352
 30
0.0
 10
31.28751642504241
 20
1.804000034578523
 30
0.0
 10
30.4262029384197
 20
2.257200936634497
 30
0.0
 10
29.99983408190082
 20
2.475436963306642
 30
0.0
 10
29.1378660350324
 20
2.893262210007048
 30
0.0
 10
28.70642613662007
 20
3.092105638734919
 30
0.0
 10
27.85092754085542
 20
3.4640907370561
 30
0.0
 10
27.41811300020643
 20
3.638476067812605
 30
0.0
 10
26.98750000000001
 20
3.798235561508914
 30
0.0
1001
PE_URL
1000

  0
SPLINE
  5
BC
330
1F
100
AcDbEntity
  8
0
  6
Continuous
 62
     1
370
    15
100
AcDbSpline
210
0.0
220
0.0
230
1.0
 70
     8
 71
     3
 72
    11
 73
     7
 74
     0
 42
0.000000001
 43
0.00000001
 40
0.0
 40
0.0
 40
0.0
 40
0.0
 40
0.1805463557592732
 40
0.4536510422571591
 40
0.7268318677308394
 40
1.0
 40
1.0
 40
1.0
 40
1.0
 10
35.30047694745187
 20
-0.4694603487194039
 30
0.0
 10
34.8002228051388
 20
-0.2687317862322762
 30
0.0
 10
33.54325579464776
 20
0.235630216534926
 30
0.0
 10
31.52918777154322
 20
1.045140433845285
 30
0.0
 10
29.25841806129133
 20
1.893921152209636
 30
0.0
 10
27.74446096262029
 20
2.341105409688613
 30
0.0
 10
26.98750000000001
 20
2.564692343761619
 30
0.0
1001
PE_URL
1000

  0
SPLINE
  5
BD
330
1F
100
AcDbEntity
  8
외형선
  6
Continuous
370
    15
100
AcDbSpline
210
0.0
220
0.0
230
1.0
 70
    24
 71
     3
 72
    10
 73
     6
 74
     0
 42
0.000000001
 43
0.00000001
 40
0.0
 40
0.0
 40
0.0
 40
0.0
 40
0.5
 40
0.5
 40
1.0
 40
1.0
 40
1.0
 40
1.0
 10
26.98750000000001
 20
3.798235561508915
 30
0.0
 10
26.98750000000001
 20
3.657605892770824
 30
0.0
 10
26.98750000000001
 20
3.47037069991432
 30
0.0
 10
26.98750000000001
 20
3.041937830663093
 30
0.0
 10
26.98750000000001
 20
2.802097403536998
 30
0.0
 10
26.98750000000001
 20
2.56469234376162
 30
0.0
  0
LINE
  5
BE
330
1F
100
AcDbEntity
  8
0
  6
Continuous
 62
     1
370
    15
100
AcDbLine
 10
47.62500000000001
 20
-4.956744591178312
 30
0.0
 11
47.62500000000001
 21
-4.70763634345513
 31
0.0
1001
PE_URL
1000

  0
SPLINE
  5
BF
330
1F
100
AcDbEntity
  8
0
  6
Continuous
 62
     1
370
    15
100
AcDbSpline
210
0.0
220
0.0
230
1.0
 70
     8
 71
     3
 72
     8
 73
     4
 74
     0
 42
0.000000001
 43
0.00000001
 40
0.0
 40
0.0
 40
0.0
 40
0.0
 40
1.0
 40
1.0
 40
1.0
 40
1.0
 10
44.55540809466468
 20
1.387664294288385
 30
0.0
 10
44.37873182132132
 20
1.596970235065915
 30
0.0
 10
44.22146401190234
 20
1.797951152685713
 30
0.0
 10
44.08789947210656
 20
1.988764842786183
 30
0.0
1001
PE_URL
1000

  0
LINE
  5
C0
330
1F
100
AcDbEntity
  8
0
  6
Continuous
 62
     1
370
    15
100
AcDbLine
 10
44.1505899404323
 20
2.041368391636407
 30
0.0
 11
47.62500000000001
 21
0.0000000000000012
 31
0.0
1001
PE_URL
1000

  0
LINE
  5
C1
330
1F
100
AcDbEntity
  8
0
  6
Continuous
 62
     1
370
    15
100
AcDbLine
 10
47.62500000000001
 20
0.0000000000000012
 30
0.0
 11
47.62500000000001
 21
-1.32577555256894
 31
0.0
1001
PE_URL
1000

  0
SPLINE
  5
C2
330
1F
100
AcDbEntity
  8
0
  6
Continuous
 62
     1
370
    15
100
AcDbSpline
210
0.0
220
0.0
230
1.0
 70
     8
 71
     3
 72
    12
 73
     8
 74
     0
 42
0.000000001
 43
0.00000001
 40
0.0
 40
0.0
 40
0.0
 40
0.0
 40
0.5
 40
0.5
 40
0.75
 40
0.75
 40
1.0
 40
1.0
 40
1.0
 40
1.0
 10
47.62500000000001
 20
-1.325775552568939
 30
0.0
 10
47.09364428679827
 20
-0.9080402946766909
 30
0.0
 10
46.57116373259281
 20
-0.4731767396155095
 30
0.0
 10
45.80109783394946
 20
0.2054714441875564
 30
0.0
 10
45.54672463880497
 20
0.4361561020905803
 30
0.0
 10
45.0431734318728
 20
0.9075516770791552
 30
0.0
 10
44.79536951587447
 20
1.14703932894171
 30
0.0
 10
44.55540809466468
 20
1.387664294288385
 30
0.0
1001
PE_URL
1000

  0
SPLINE
  5
C3
330
1F
100
AcDbEntity
  8
0
  6
Continuous
 62
     1
370
    15
100
AcDbSpline
210
0.0
220
0.0
230
1.0
 70
     8
 71
     3
 72
    13
 73
     9
 74
     0
 42
0.000000001
 43
0.00000001
 40
0.0
 40
0.0
 40
0.0
 40
0.0
 40
0.1722159469629694
 40
0.3444313652704419
 40
0.5166461587518524
 40
0.6888602313006866
 40
0.8610734868843128
 40
1.0
 40
1.0
 40
1.0
 40
1.0
 10
44.55540809466468
 20
1.387664294288379
 30
0.0
 10
43.89952156032584
 20
1.664458881264842
 30
0.0
 10
42.58775050503903
 20
2.218047205534666
 30
0.0
 10
40.62009857237765
 20
2.912832577209451
 30
0.0
 10
38.65245353179584
 20
3.462315800132398
 30
0.0
 10
36.68482213421999
 20
3.823785889694627
 30
0.0
 10
34.84395527864041
 20
3.996044563883973
 30
0.0
 10
33.65900397110745
 20
3.948576254160752
 30
0.0
 10
33.12991328605742
 20
3.927381256231332
 30
0.0
1001
PE_URL
1000

  0
LINE
  5
C4
330
1F
100
AcDbEntity
  8
0
  6
Continuous
 62
     1
370
    15
100
AcDbLine
 10
47.62500000000001
 20
-3.914042092764195
 30
0.0
 11
47.62500000000001
 21
-1.325775552568939
 31
0.0
1001
PE_URL
1000

  0
SPLINE
  5
C5
330
1F
100
AcDbEntity
  8
0
  6
Continuous
 62
     1
370
    15
100
AcDbSpline
210
0.0
220
0.0
230
1.0
 70
    24
 71
     3
 72
     8
 73
     4
 74
     0
 42
0.000000001
 43
0.00000001
 40
0.0
 40
0.0
 40
0.0
 40
0.0
 40
1.0
 40
1.0
 40
1.0
 40
1.0
 10
44.60537862704625
 20
2.422981410837422
 30
0.0
 10
44.44163224322075
 20
2.285581880562841
 30
0.0
 10
44.2685818109904
 20
2.140375326703594
 30
0.0
 10
44.08789947210693
 20
1.988764842786225
 30
0.0
1001
PE_URL
1000

  0
LINE
  5
C6
330
1F
100
AcDbEntity
  8
0
  6
Continuous
 62
     1
370
    15
100
AcDbLine
 10
47.62500000000001
 20
3.472656249999998
 30
0.0
 11
45.77596248907884
 21
3.372740016049045
 31
0.0
1001
PE_URL
1000

  0
SPLINE
  5
C7
330
1F
100
AcDbEntity
  8
0
  6
Continuous
 62
     1
370
    15
100
AcDbSpline
210
0.0
220
0.0
230
1.0
 70
     8
 71
     3
 72
    10
 73
     6
 74
     0
 42
0.000000001
 43
0.00000001
 40
0.0
 40
0.0
 40
0.0
 40
0.0
 40
0.5
 40
0.5
 40
1.0
 40
1.0
 40
1.0
 40
1.0
 10
47.62500000000001
 20
3.47265625
 30
0.0
 10
47.11475030268836
 20
3.334244684055118
 30
0.0
 10
46.60726928151003
 20
3.17880099944306
 30
0.0
 10
45.59974012121653
 20
2.831071913316804
 30
0.0
 10
45.09940890505391
 20
2.639236578602592
 30
0.0
 10
44.60537862704601
 20
2.422981410837556
 30
0.0
1001
PE_URL
1000

  0
SPLINE
  5
C8
330
1F
100
AcDbEntity
  8
0
  6
Continuous
 62
     1
370
    15
100
AcDbSpline
210
0.0
220
0.0
230
1.0
 70
     8
 71
     3
 72
    13
 73
     9
 74
     0
 42
0.000000001
 43
0.00000001
 40
0.0
 40
0.0
 40
0.0
 40
0.0
 40
0.0432826812142311
 40
0.2374017649056117
 40
0.4280513419305123
 40
0.6187009068779613
 40
0.8093504596128291
 40
0.9999999999999999
 40
0.9999999999999999
 40
0.9999999999999999
 40
0.9999999999999999
 10
37.12353756165476
 20
-3.713235637120826
 30
0.0
 10
36.97729728678236
 20
-3.74140953285051
 30
0.0
 10
36.17518202079063
 20
-3.895940915446429
 30
0.0
 10
34.72890427139404
 20
-3.983147128898013
 30
0.0
 10
32.78477148451087
 20
-3.956669556828047
 30
0.0
 10
30.85234504363317
 20
-3.712854039198411
 30
0.0
 10
28.91992300234748
 20
-3.295887121704527
 30
0.0
 10
27.63164098687626
 20
-2.882478106932982
 30
0.0
 10
26.98750000000001
 20
-2.675773606240968
 30
0.0
1001
PE_URL
1000

  0
SPLINE
  5
C9
330
1F
100
AcDbEntity
  8
외형선
  6
Continuous
370
    15
100
AcDbSpline
210
0.0
220
0.0
230
1.0
 70
    24
 71
     3
 72
    14
 73
    10
 74
     0
 42
0.000000001
 43
0.00000001
 40
0.0
 40
0.0
 40
0.0
 40
0.0
 40
0.25
 40
0.25
 40
0.5
 40
0.5
 40
0.75
 40
0.75
 40
1.0
 40
1.0
 40
1.0
 40
1.0
 10
26.98750000000001
 20
2.564692343761619
 30
0.0
 10
26.98750000000001
 20
2.206097238275923
 30
0.0
 10
26.98750000000001
 20
1.804847698469163
 30
0.0
 10
26.98750000000001
 20
0.944707076613817
 30
0.0
 10
26.98750000000001
 20
0.4861220550795819
 30
0.0
 10
26.98750000000001
 20
-0.4452598326865836
 30
0.0
 10
26.98750000000001
 20
-0.9175604197092924
 30
0.0
 10
26.98750000000001
 20
-1.829961777663562
 30
0.0
 10
26.98750000000001
 20
-2.269683085057063
 30
0.0
 10
26.98750000000001
 20
-2.675773606240969
 30
0.0
  0
SPLINE
  5
CA
330
1F
100
AcDbEntity
  8
외형선
  6
Continuous
370
    15
100
AcDbSpline
210
0.0
220
0.0
230
1.0
 70
    24
 71
     3
 72
    13
 73
     9
 74
     0
 42
0.000000001
 43
0.00000001
 40
0.0
 40
0.0
 40
0.0
 40
0.0
 40
0.1581970382004859
 40
0.3163940764009717
 40
0.5474114133803594
 40
0.7851282687823758
 40
0.9935152772905087
 40
1.0
 40
1.0
 40
1.0
 40
1.0
 10
26.98750000000001
 20
-2.675773606240968
 30
0.0
 10
26.98750000000001
 20
-2.806324247867255
 30
0.0
 10
26.98750000000001
 20
-3.067425531119829
 30
0.0
 10
26.98750000000001
 20
-3.435200910765364
 30
0.0
 10
26.9875
 20
-3.763966168150603
 30
0.0
 10
26.98750000000001
 20
-3.957875400134299
 30
0.0
 10
26.98750000000002
 20
-4.033266332245613
 30
0.0
 10
26.98750000000001
 20
-4.011193598363524
 30
0.0
 10
26.98750000000001
 20
-4.010527454158074
 30
0.0
  0
LINE
  5
CB
330
1F
100
AcDbEntity
  8
0
  6
Continuous
 62
     1
370
    15
100
AcDbLine
 10
47.62500000000001
 20
0.0000000000000012
 30
0.0
 11
47.62500000000001
 21
3.472656250000001
 31
0.0
1001
PE_URL
1000

  0
SPLINE
  5
CC
330
1F
100
AcDbEntity
  8
0
  6
Continuous
 62
     1
370
    15
100
AcDbSpline
210
0.0
220
0.0
230
1.0
 70
     8
 71
     3
 72
    11
 73
     7
 74
     0
 42
0.000000001
 43
0.00000001
 40
0.0
 40
0.0
 40
0.0
 40
0.0
 40
0.1985451748924712
 40
0.4656724723152616
 40
0.7328229273600135
 40
1.0
 40
1.0
 40
1.0
 40
1.0
 10
40.82594961583334
 20
3.324859411339371
 30
0.0
 10
41.2759094512641
 20
3.515041713470556
 30
0.0
 10
42.33125571752866
 20
3.961099709450572
 30
0.0
 10
43.99207172498858
 20
4.46408585416049
 30
0.0
 10
45.8084555662485
 20
4.850282039664906
 30
0.0
 10
47.01946507988407
 20
4.921255895483223
 30
0.0
 10
47.62500000000001
 20
4.956744591178309
 30
0.0
1001
PE_URL
1000

  0
SPLINE
  5
CD
330
1F
100
AcDbEntity
  8
0
  6
Continuous
 62
     1
370
    15
100
AcDbSpline
210
0.0
220
0.0
230
1.0
 70
    24
 71
     3
 72
    10
 73
     6
 74
     0
 42
0.000000001
 43
0.00000001
 40
0.0
 40
0.0
 40
0.0
 40
0.0
 40
0.5
 40
0.5
 40
1.0
 40
1.0
 40
1.0
 40
1.0
 10
47.62500000000001
 20
3.472656249999999
 30
0.0
 10
47.62500000000001
 20
3.68316002400503
 30
0.0
 10
47.62500000000002
 20
3.927784904145462
 30
0.0
 10
47.62500000000001
 20
4.441007243829241
 30
0.0
 10
47.62500000000001
 20
4.708293997921365
 30
0.0
 10
47.62500000000001
 20
4.956744591178309
 30
0.0
1001
PE_URL
1000

  0
SPLINE
  5
CE
330
1F
100
AcDbEntity
  8
0
  6
Continuous
 62
     1
370
    15
100
AcDbSpline
210
0.0
220
0.0
230
1.0
 70
     8
 71
     3
 72
     9
 73
     5
 74
     0
 42
0.000000001
 43
0.00000001
 40
0.0
 40
0.0
 40
0.0
 40
0.0
 40
0.1334390699643141
 40
0.9999999999999999
 40
0.9999999999999999
 40
0.9999999999999999
 40
0.9999999999999999
 10
29.08301111229964
 20
-3.899517045513869
 30
0.0
 10
28.98980239966955
 20
-3.936186334098211
 30
0.0
 10
28.29129099176616
 20
-4.210988073904611
 30
0.0
 10
27.59279196567521
 20
-4.382903003588576
 30
0.0
 10
26.98749999999681
 20
-4.531877764942533
 30
0.0
1001
PE_URL
1000

  0
SPLINE
  5
CF
330
1F
100
AcDbEntity
  8
외형선
  6
Continuous
370
    15
100
AcDbSpline
210
0.0
220
0.0
230
1.0
 70
    24
 71
     3
 72
    10
 73
     6
 74
     0
 42
0.000000001
 43
0.00000001
 40
0.0
 40
0.0
 40
0.0
 40
0.0
 40
0.3594513896922187
 40
0.8364083631776966
 40
0.9999999999999999
 40
0.9999999999999999
 40
0.9999999999999999
 40
0.9999999999999999
 10
26.98750000000001
 20
-4.01241777997656
 30
0.0
 10
26.9875
 20
-4.07829522688988
 30
0.0
 10
26.9875
 20
-4.231585627548156
 30
0.0
 10
26.98750000000001
 20
-4.40149995445027
 30
0.0
 10
26.98750000000001
 20
-4.505354133637563
 30
0.0
 10
26.98750000000001
 20
-4.531877764929063
 30
0.0
  0
LINE
  5
D0
330
1F
100
AcDbEntity
  8
중심선
 62
     1
100
AcDbLine
 10
-50.625
 20
-0.0000000000000062
 30
0.0
 11
50.625
 21
0.0000000000000062
 31
0.0
  0
LINE
  5
D1
330
1F
100
AcDbEntity
  8
참조1
100
AcDbLine
 10
0.0
 20
-0.0000000000000058
 30
0.0
 11
0.0000000000000071
 21
-40.00000000000001
 31
0.0
  0
LINE
  5
D2
330
1F
100
AcDbEntity
  8
참조1
100
AcDbLine
 10
0.0000000000000071
 20
-40.00000000000001
 30
0.0
 11
-12.87821559669922
 21
-40.0
 31
0.0
  0
CIRCLE
  5
D3
330
1F
100
AcDbEntity
  8
해칭선
100
AcDbCircle
 10
0.0
 20
0.0
 30
0.0
 40
3.000000000000001
  0
INSERT
  5
D4
330
1F
100
AcDbEntity
  8
0
  6
Continuous
 62
     7
100
AcDbBlockReference
 66
     1
  2
블럭10
 10
-13.94027293212521
 20
-52.04717430164393
 30
0.0
  0
ATTRIB
  5
D5
330
D4
100
AcDbEntity
  8
FORMAT
 62
     2
100
AcDbText
 10
-23.12156822086649
 20
-49.97180738881175
 30
0.0
 40
4.233333333333333
  1
E1050025 [ 2 FLUTE ]
 41
0.75
  7
SLDTEXTSTYLE0
 11
-23.12156822086649
 21
-52.08847405547841
 31
0.0
100
AcDbAttribute
  2
AUTOATTR0
 70
     0
 74
     1
  0
SEQEND
  5
D6
330
D4
100
AcDbEntity
  8
0
  6
Continuous
 62
     7
  0
HATCH
  5
D7
330
1F
100
AcDbEntity
  8
중심선
100
AcDbHatch
 10
0.0
 20
0.0
 30
0.0
210
0.0
220
0.0
230
1.0
  2
SOLID
 70
     1
 71
     0
 91
        1
 92
        0
 93
        4
 72
     1
 10
-8.225363627744372
 20
-35.8
 11
-11.67163887158165
 21
-35.8
 72
     1
 10
-11.67163887158165
 20
-35.8
 11
-13.79986873078568
 21
-38.33632558057257
 72
     1
 10
-13.79986873078568
 20
-38.33632558057257
 11
-10.35356040183525
 21
-38.33628615127008
 72
     1
 10
-10.35356040183525
 20
-38.33628615127008
 11
-8.225363627744372
 21
-35.8
 97
        0
 75
     0
 76
     1
 98
        1
 10
16.58171167873051
 20
-0.001074928723895
  0
HATCH
  5
D8
330
1F
100
AcDbEntity
  8
중심선
100
AcDbHatch
 10
0.0
 20
0.0
 30
0.0
210
0.0
220
0.0
230
1.0
  2
SOLID
 70
     1
 71
     0
 91
        1
 92
        0
 93
        4
 72
     1
 10
-3.212599636708394
 20
-35.8
 11
-6.658874880545646
 21
-35.8
 72
     1
 10
-6.658874880545646
 20
-35.8
 11
-11.19001288890309
 21
-41.20000000000002
 72
     1
 10
-11.19001288890309
 20
-41.20000000000002
 11
-7.743737645065806
 21
-41.20000000000002
 72
     1
 10
-7.743737645065806
 20
-41.20000000000002
 11
-3.212599636708394
 21
-35.8
 97
        0
 75
     0
 76
     1
 98
        1
 10
16.58171167873051
 20
-0.001074928723895
  0
HATCH
  5
D9
330
1F
100
AcDbEntity
  8
중심선
100
AcDbHatch
 10
0.0
 20
0.0
 30
0.0
210
0.0
220
0.0
230
1.0
  2
SOLID
 70
     1
 71
     0
 91
        1
 92
        0
 93
        4
 72
     1
 10
1.800164354327503
 20
-35.80000000000003
 11
-1.646110889509611
 21
-35.8
 72
     1
 10
-1.646110889509611
 20
-35.8
 11
-8.69454779139889
 21
-44.20000000000002
 72
     1
 10
-8.69454779139889
 20
-44.20000000000002
 11
-5.248272547561605
 21
-44.20000000000002
 72
     1
 10
-5.248272547561605
 20
-44.20000000000002
 11
1.800164354327503
 21
-35.80000000000003
 97
        0
 75
     0
 76
     1
 98
        1
 10
16.58171167873051
 20
-0.001074928723895
  0
HATCH
  5
DA
330
1F
100
AcDbEntity
  8
중심선
100
AcDbHatch
 10
0.0
 20
0.0
 30
0.0
210
0.0
220
0.0
230
1.0
  2
SOLID
 70
     1
 71
     0
 91
        1
 92
        0
 93
        6
 72
     3
 10
6.600054785339674
 20
-40.00000000005127
 11
3.960054785062283
 21
1.540882976769353E-10
 40
0.3939339440162628
 50
17.09539180608437
 51
320.0019657685077
 73
     0
 72
     1
 10
8.283054441040242
 20
-38.5878940046383
 11
10.58835631474131
 21
-36.65356729459035
 72
     3
 10
6.600054785286828
 20
-40.00000000000015
 11
6.600054785286829
 21
-1.278976924368180E-13
 40
0.636358354079598
 50
39.9987384933743
 51
368.4976242363725
 73
     1
 72
     1
 10
13.02538727718744
 20
-39.03999999993002
 11
5.280122092122751
 21
-39.03999999993
 72
     1
 10
5.280122092122751
 20
-39.03999999993
 11
5.280097047676817
 21
-40.95999999992991
 72
     1
 10
5.280097047676817
 20
-40.95999999992991
 11
9.721476817148854
 21
-40.95999999992988
 97
        0
 75
     0
 76
     1
 98
        1
 10
16.58171167873051
 20
-0.001074928723895
  0
DIMENSION
  5
DB
330
1F
100
AcDbEntity
  8
치수문자_일반주서
100
AcDbDimension
  2
_D
 10
-57.62499999999994
 20
-6.350000000000133
 30
0.0
 11
-57.62500000000006
 21
26.73524999999995
 31
0.0
 70
   160
  1
%%c<>
 71
     2
 42
12.69999999999999
 52
-270.0
  3
SLDDIMSTYLE0
100
AcDbAlignedDimension
 13
-20.80344817511141
 23
6.349999999999993
 33
0.0
 14
-20.80344817511139
 24
-6.35
 34
0.0
 50
90.0000000000002
100
AcDbRotatedDimension
1001
PE_URL
1000

1001
ACAD
1000
DSTYLE
1002
{
1070
   171
1070
     8
1070
   273
1070
     7
1002
}
  0
DIMENSION
  5
F0
330
1F
100
AcDbEntity
  8
치수문자_일반주서
100
AcDbDimension
  2
_D_1
 10
89.92660986911574
 20
4.956744591178463
 30
0.0
 11
89.92660986911568
 21
26.87324459117846
 31
0.0
 70
   160
  1
%%c<>
 71
     2
 42
9.91348918235662
 52
-270.0
  3
SLDDIMSTYLE0
100
AcDbAlignedDimension
 13
47.62500000000001
 23
-4.956744591178312
 33
0.0
 14
47.62500000000001
 24
4.956744591178309
 34
0.0
 50
90.0000000000002
100
AcDbRotatedDimension
1001
PE_URL
1000

1001
ACAD
1000
DSTYLE
1002
{
1070
   171
1070
     8
1070
   273
1070
     7
1002
}
  0
DIMENSION
  5
104
330
1F
100
AcDbEntity
  8
치수문자_일반주서
100
AcDbDimension
  2
_D_2
 10
26.98750000000001
 20
16.35
 30
0.0
 11
68.88525000000001
 21
16.35
 31
0.0
 70
   160
  1
<>
 71
     2
 42
20.6375
  3
SLDDIMSTYLE0
100
AcDbAlignedDimension
 13
47.62500000000001
 23
4.956744591178309
 33
0.0
 14
26.98750000000001
 24
4.531877764929059
 34
0.0
 50
0.0000000000000197
100
AcDbRotatedDimension
1001
PE_URL
1000

1001
ACAD
1000
DSTYLE
1002
{
1070
   171
1070
     8
1070
   273
1070
     7
1002
}
  0
DIMENSION
  5
118
330
1F
100
AcDbEntity
  8
치수문자_일반주서
100
AcDbDimension
  2
_D_3
 10
47.62500000000001
 20
26.34999999999999
 30
0.0
 11
0.0000000000000142
 21
26.34999999999999
 31
0.0
 70
   160
  1
<>
 71
     2
 42
95.25000000000004
  3
SLDDIMSTYLE0
100
AcDbAlignedDimension
 13
-47.62500000000003
 23
4.956744591178312
 33
0.0
 14
47.62500000000001
 24
4.956744591178309
 34
0.0
100
AcDbRotatedDimension
1001
PE_URL
1000

1001
ACAD
1000
DSTYLE
1002
{
1070
   171
1070
     8
1070
   273
1070
     7
1002
}
  0
LINE
  5
12B
330
1F
100
AcDbEntity
  8
참조1
100
AcDbLine
 10
85.09412503295505
 20
7.44
 30
0.0
 11
85.09412503295505
 21
-7.440000000000004
 31
0.0
  0
LINE
  5
12C
330
1F
100
AcDbEntity
  8
참조1
100
AcDbLine
 10
97.79412503295505
 20
5.44
 30
0.0
 11
85.09412503295505
 21
5.44
 31
0.0
  0
SOLID
  5
12D
330
1F
100
AcDbEntity
  8
참조1
100
AcDbTrace
 10
85.09412503295505
 20
5.44
 30
0.0
 11
91.44412503295504
 21
4.424
 31
0.0
 12
91.44412503295504
 22
6.456
 32
0.0
 13
91.44412503295504
 23
6.456
 33
0.0
  0
LINE
  5
12E
330
1F
100
AcDbEntity
  8
참조1
100
AcDbLine
 10
97.79412503295505
 20
-5.440000000000004
 30
0.0
 11
85.09412503295505
 21
-5.440000000000004
 31
0.0
  0
SOLID
  5
12F
330
1F
100
AcDbEntity
  8
참조1
100
AcDbTrace
 10
85.09412503295505
 20
-5.440000000000004
 30
0.0
 11
91.44412503295504
 21
-6.456000000000004
 31
0.0
 12
91.44412503295504
 22
-4.424000000000004
 32
0.0
 13
91.44412503295504
 23
-4.424000000000004
 33
0.0
  0
MTEXT
  5
130
330
1F
100
AcDbEntity
  8
참조1
100
AcDbMText
 10
94.47847516558105
 20
11.01029177718833
 30
0.0
 40
3.5
 41
0.0
 71
     1
 72
     1
  1
A
  7
SLDTEXTSTYLE0
 73
     1
 44
1.0
  0
MTEXT
  5
131
330
1F
100
AcDbEntity
  8
참조1
100
AcDbMText
 10
94.47847516558105
 20
0.1302917771883242
 30
0.0
 40
3.5
 41
0.0
 71
     1
 72
     1
  1
A
  7
SLDTEXTSTYLE0
 73
     1
 44
1.0
  0
INSERT
  5
138
330
1F
100
AcDbEntity
  8
해칭선
100
AcDbBlockReference
  2
SW_DOWELSYMBOL_0
 10
0.0
 20
0.0
 30
0.0
  0
LINE
  5
1D6
330
1F
100
AcDbEntity
  8
외형선
  6
Continuous
370
    15
100
AcDbLine
 10
-5.587999999999949
 20
4.825999999999993
 30
0.0
 11
5.587999999999925
 21
4.825999999999993
 31
0.0
1001
PE_URL
1000

  0
LINE
  5
1D7
330
1F
100
AcDbEntity
  8
외형선
  6
Continuous
370
    15
100
AcDbLine
 10
-5.587999999999949
 20
4.825999999999993
 30
0.0
 11
-7.11199999999995
 21
6.349999999999993
 31
0.0
1001
PE_URL
1000

  0
LINE
  5
1D8
330
1F
100
AcDbEntity
  8
외형선
  6
Continuous
370
    15
100
AcDbLine
 10
5.588000000000038
 20
4.825999999999993
 30
0.0
 11
7.112000000000039
 21
6.349999999999993
 31
0.0
1001
PE_URL
1000

  0
LINE
  5
21B
330
1F
100
AcDbEntity
  8
외형선
  6
Continuous
370
    15
100
AcDbLine
 10
-20.8034481751114
 20
6.349999999999993
 30
0.0
 11
-25.46750484886752
 21
5.100269780814049
 31
0.0
  0
LINE
  5
21C
330
1F
100
AcDbEntity
  8
외형선
  6
Continuous
370
    15
100
AcDbLine
 10
-25.46750484886752
 20
-5.100269780814056
 30
0.0
 11
-20.8034481751114
 21
-6.350000000000005
 31
0.0
  0
SPLINE
  5
21D
330
1F
100
AcDbEntity
  8
외형선
  6
Continuous
370
    15
100
AcDbSpline
210
0.0
220
0.0
230
1.0
 70
     8
 71
     3
 72
     9
 73
     5
 74
     0
 42
0.000000001
 43
0.00000001
 40
0.0
 40
0.0
 40
0.0
 40
0.0
 40
0.4998601502420167
 40
1.0
 40
1.0
 40
1.0
 40
1.0
 10
-25.74826581170428
 20
4.120353062741156
 30
0.0
 10
-25.95501689778947
 20
4.100537900706847
 30
0.0
 10
-26.36863475867532
 20
4.060896488954553
 30
0.0
 10
-26.78117312396476
 20
4.028580362570857
 30
0.0
 10
-26.98750000000001
 20
4.012417779976552
 30
0.0
  0
LINE
  5
21E
330
1F
100
AcDbEntity
  8
0
  6
Continuous
 62
     1
370
    15
100
AcDbLine
 10
-33.43972180533295
 20
-1.937457787719364
 30
0.0
 11
-33.39667268206306
 21
-1.959600935427275
 31
0.0
1001
PE_URL
1000

  0
SPLINE
  5
21F
330
1F
100
AcDbEntity
  8
0
  6
Continuous
 62
     1
370
    15
100
AcDbSpline
210
0.0
220
0.0
230
1.0
 70
     8
 71
     3
 72
     9
 73
     5
 74
     0
 42
0.000000001
 43
0.00000001
 40
0.0
 40
0.0
 40
0.0
 40
0.0
 40
0.451240490475664
 40
0.9999999999999999
 40
0.9999999999999999
 40
0.9999999999999999
 40
0.9999999999999999
 10
-34.77175663225211
 20
-1.271216434489627
 30
0.0
 10
-34.57138184771529
 20
-1.366554934213276
 30
0.0
 10
-34.12732864600547
 20
-1.577835840372984
 30
0.0
 10
-33.68335601084553
 20
-1.810035833422152
 30
0.0
 10
-33.43972180533295
 20
-1.937457787719364
 30
0.0
1001
PE_URL
1000

  0
LINE
  5
220
330
1F
100
AcDbEntity
  8
0
  6
Continuous
 62
     1
370
    15
100
AcDbLine
 10
-32.08616192661447
 20
-1.36581061388457
 30
0.0
 11
-31.97625795982293
 21
-1.426119802871199
 31
0.0
1001
PE_URL
1000

  0
SPLINE
  5
221
330
1F
100
AcDbEntity
  8
0
  6
Continuous
 62
     1
370
    15
100
AcDbSpline
210
0.0
220
0.0
230
1.0
 70
     8
 71
     3
 72
    16
 73
    12
 74
     0
 42
0.000000001
 43
0.00000001
 40
0.0
 40
0.0
 40
0.0
 40
0.0
 40
0.1466907873465396
 40
0.2571367985319393
 40
0.3599668278512138
 40
0.485141201088187
 40
0.6167865207963144
 40
0.7452727745579736
 40
0.8705030206848338
 40
0.9841000513877375
 40
1.0
 40
1.0
 40
1.0
 40
1.0
 10
-33.13235864266968
 20
-3.942152076536384
 30
0.0
 10
-32.93758158541143
 20
-3.932368457090071
 30
0.0
 10
-32.59615353913245
 20
-3.915218582663829
 30
0.0
 10
-32.10785043871555
 20
-3.897611102156894
 30
0.0
 10
-31.64552676222369
 20
-3.885021060075811
 30
0.0
 10
-31.16000596794596
 20
-3.87655723810029
 30
0.0
 10
-30.6397869506495
 20
-3.873275565642487
 30
0.0
 10
-30.11972807184692
 20
-3.875739105349204
 30
0.0
 10
-29.62390965553988
 20
-3.884064419673678
 30
0.0
 10
-29.27993957090051
 20
-3.892082849871787
 30
0.0
 10
-29.10508724811358
 20
-3.898494810783927
 30
0.0
 10
-29.08361846203262
 20
-3.899282086669018
 30
0.0
1001
PE_URL
1000

  0
SPLINE
  5
222
330
1F
100
AcDbEntity
  8
0
  6
Continuous
 62
     1
370
    15
100
AcDbSpline
210
0.0
220
0.0
230
1.0
 70
     8
 71
     3
 72
    25
 73
    21
 74
     0
 42
0.000000001
 43
0.00000001
 40
0.0
 40
0.0
 40
0.0
 40
0.0
 40
0.0614675970292644
 40
0.1101016092996383
 40
0.1692370689988699
 40
0.2192376268633082
 40
0.2786231582828018
 40
0.3390048570168396
 40
0.3974304631624608
 40
0.4484938934931343
 40
0.493997357884909
 40
0.5557239841386143
 40
0.6351409375895304
 40
0.7169781585659439
 40
0.771684114569719
 40
0.8194702275543243
 40
0.8432991927837133
 40
0.8805038049917262
 40
0.9326040377041076
 40
1.0
 40
1.0
 40
1.0
 40
1.0
 10
-45.78114996615815
 20
-3.393036358669761
 30
0.0
 10
-45.60334618652954
 20
-3.378453159883581
 30
0.0
 10
-45.28486159915666
 20
-3.352331532673546
 30
0.0
 10
-44.79605690715548
 20
-3.321030421100449
 30
0.0
 10
-44.34217496592291
 20
-3.297604911790884
 30
0.0
 10
-43.85559127728012
 20
-3.279250871067724
 30
0.0
 10
-43.36376025516194
 20
-3.267553568177629
 30
0.0
 10
-42.84537902885852
 20
-3.263311422889625
 30
0.0
 10
-42.34807729235194
 20
-3.266705735185777
 30
0.0
 10
-41.90179610382484
 20
-3.276366509578057
 30
0.0
 10
-41.4549941318144
 20
-3.291521975413545
 30
0.0
 10
-40.91431638368932
 20
-3.316846277103387
 30
0.0
 10
-40.27064985415866
 20
-3.358443546397467
 30
0.0
 10
-39.64707820222717
 20
-3.411452849125443
 30
0.0
 10
-39.11418906259203
 20
-3.465193269952131
 30
0.0
 10
-38.75022402775807
 20
-3.506206037536685
 30
0.0
 10
-38.43772289098177
 20
-3.543954124718773
 30
0.0
 10
-38.11090191570845
 20
-3.585807440791736
 30
0.0
 10
-37.65773837232235
 20
-3.648205799065682
 30
0.0
 10
-37.31091902363767
 20
-3.70133814733548
 30
0.0
 10
-37.11531259662282
 20
-3.731304839918749
 30
0.0
1001
PE_URL
1000

  0
SPLINE
  5
223
330
1F
100
AcDbEntity
  8
0
  6
Continuous
 62
     1
370
    15
100
AcDbSpline
210
0.0
220
0.0
230
1.0
 70
     8
 71
     3
 72
    17
 73
    13
 74
     0
 42
0.000000001
 43
0.00000001
 40
0.0
 40
0.0
 40
0.0
 40
0.0
 40
0.1574434909828851
 40
0.2791546772293932
 40
0.3857045242168504
 40
0.4541864033000506
 40
0.5285816367790145
 40
0.6100345153382025
 40
0.6975402269523413
 40
0.7904559333219993
 40
0.9437385634198311
 40
1.0
 40
1.0
 40
1.0
 40
1.0
 10
-37.11531259662281
 20
3.731304839918746
 30
0.0
 10
-37.3109126702542
 20
3.70133980022382
 30
0.0
 10
-37.65772075409267
 20
3.648210382602404
 30
0.0
 10
-38.1352596743276
 20
3.582447423933347
 30
0.0
 10
-38.50198550449349
 20
3.535841611253929
 30
0.0
 10
-38.80845668726893
 20
3.49960738443546
 30
0.0
 10
-39.08536298026385
 20
3.46878149725924
 30
0.0
 10
-39.38630669839499
 20
3.437610783395565
 30
0.0
 10
-39.71024401206284
 20
3.406721550464091
 30
0.0
 10
-40.1226345749334
 20
3.371343969303375
 30
0.0
 10
-40.49664085747882
 20
3.343040768014912
 30
0.0
 10
-40.75576014442149
 20
3.328510330506527
 30
0.0
 10
-40.82533225667521
 20
3.324608987455775
 30
0.0
1001
PE_URL
1000

  0
SPLINE
  5
224
330
1F
100
AcDbEntity
  8
0
  6
Continuous
 62
     1
370
    15
100
AcDbSpline
210
0.0
220
0.0
230
1.0
 70
     8
 71
     3
 72
    20
 73
    16
 74
     0
 42
0.000000001
 43
0.00000001
 40
0.0
 40
0.0
 40
0.0
 40
0.0
 40
0.106393130357734
 40
0.182972636676067
 40
0.2320330204088775
 40
0.2771137350209998
 40
0.324094549706242
 40
0.4135998798721182
 40
0.5092244898547003
 40
0.5938349960870493
 40
0.6805258039946858
 40
0.762955377406822
 40
0.8306707989547987
 40
0.9034014813753086
 40
0.9999999999999999
 40
0.9999999999999999
 40
0.9999999999999999
 40
0.9999999999999999
 10
-26.98750000000002
 20
4.012417779976554
 30
0.0
 10
-27.20488699934296
 20
3.996878935174484
 30
0.0
 10
-27.57874452487243
 20
3.970155561261384
 30
0.0
 10
-28.05262645587786
 20
3.943185246385054
 30
0.0
 10
-28.40225522815514
 20
3.925692955886014
 30
0.0
 10
-28.69154954705101
 20
3.913045696934736
 30
0.0
 10
-29.0638404781764
 20
3.899001591784698
 30
0.0
 10
-29.53981856129855
 20
3.885274803578652
 30
0.0
 10
-30.09276487869856
 20
3.875963207984293
 30
0.0
 10
-30.63978625583237
 20
3.873250365462733
 30
0.0
 10
-31.16000614693478
 20
3.876563729809387
 30
0.0
 10
-31.64552672467796
 20
3.885019698337686
 30
0.0
 10
-32.10785044856753
 20
3.89761145947671
 30
0.0
 10
-32.59615353560909
 20
3.915218454876058
 30
0.0
 10
-32.93758158413156
 20
3.93236841067103
 30
0.0
 10
-33.13235864266967
 20
3.942152076536379
 30
0.0
1001
PE_URL
1000

  0
LINE
  5
225
330
1F
100
AcDbEntity
  8
외형선
  6
Continuous
370
    15
100
AcDbLine
 10
-20.8034481751114
 20
-6.350000000000005
 30
0.0
 11
-20.8034481751114
 21
6.349999999999991
 31
0.0
  0
SPLINE
  5
226
330
1F
100
AcDbEntity
  8
외형선
  6
Continuous
370
    15
100
AcDbSpline
210
0.0
220
0.0
230
1.0
 70
     8
 71
     3
 72
     8
 73
     4
 74
     0
 42
0.000000001
 43
0.00000001
 40
0.0
 40
0.0
 40
0.0
 40
0.0
 40
0.0005904361615421
 40
0.0005904361615421
 40
0.0005904361615421
 40
0.0005904361615421
 10
-25.98750000000003
 20
-4.735816642106805
 30
0.0
 10
-25.81389940115615
 20
-4.804111054402512
 30
0.0
 10
-25.64053700929781
 20
-4.871003184480639
 30
0.0
 10
-25.46750993237348
 20
-4.936377822198924
 30
0.0
  0
LINE
  5
227
330
1F
100
AcDbEntity
  8
외형선
  6
Continuous
370
    15
100
AcDbLine
 10
-25.98750000000003
 20
-4.735816642106858
 30
0.0
 11
-25.98750000000003
 21
-4.143569346860627
 31
0.0
  0
SPLINE
  5
228
330
1F
100
AcDbEntity
  8
외형선
  6
Continuous
370
    15
100
AcDbSpline
210
0.0
220
0.0
230
1.0
 70
     8
 71
     3
 72
     8
 73
     4
 74
     0
 42
0.000000001
 43
0.00000001
 40
0.0
 40
0.0
 40
0.0
 40
0.0
 40
0.0005966042685055
 40
0.0005966042685055
 40
0.0005966042685055
 40
0.0005966042685055
 10
-25.46750484886752
 20
-4.39770913094101
 30
0.0
 10
-25.64096448350681
 20
-4.314359168901028
 30
0.0
 10
-25.81431810674198
 20
-4.229641094026952
 30
0.0
 10
-25.98750000000005
 20
-4.143569346860502
 30
0.0
  0
LINE
  5
229
330
1F
100
AcDbEntity
  8
외형선
  6
Continuous
370
    15
100
AcDbLine
 10
-25.46750484886752
 20
5.100269780814049
 30
0.0
 11
-25.46750484886752
 21
-4.397737438721496
 31
0.0
  0
SPLINE
  5
22A
330
1F
100
AcDbEntity
  8
외형선
  6
Continuous
370
    15
100
AcDbSpline
210
0.0
220
0.0
230
1.0
 70
     8
 71
     3
 72
     8
 73
     4
 74
     0
 42
0.000000001
 43
0.00000001
 40
0.0
 40
0.0
 40
0.0
 40
0.0
 40
0.0005904361615421
 40
0.0005904361615421
 40
0.0005904361615421
 40
0.0005904361615421
 10
-25.98750000000002
 20
4.735816642106798
 30
0.0
 10
-25.81389940115615
 20
4.804111054402503
 30
0.0
 10
-25.6405370092978
 20
4.871003184480628
 30
0.0
 10
-25.46750993237348
 20
4.936377822198919
 30
0.0
  0
LINE
  5
22B
330
1F
100
AcDbEntity
  8
외형선
  6
Continuous
370
    15
100
AcDbLine
 10
-25.46750484886752
 20
-4.936418846994069
 30
0.0
 11
-25.46750484886752
 21
-5.100269780814056
 31
0.0
  0
SPLINE
  5
22C
330
1F
100
AcDbEntity
  8
외형선
  6
Continuous
370
    15
100
AcDbSpline
210
0.0
220
0.0
230
1.0
 70
    24
 71
     3
 72
    14
 73
    10
 74
     0
 42
0.000000001
 43
0.00000001
 40
0.0
 40
0.0
 40
0.0
 40
0.0
 40
0.25
 40
0.25
 40
0.5
 40
0.5
 40
0.75
 40
0.75
 40
1.0
 40
1.0
 40
1.0
 40
1.0
 10
-26.98750000000003
 20
-2.564692343761624
 30
0.0
 10
-26.98750000000003
 20
-2.20609723827593
 30
0.0
 10
-26.98750000000003
 20
-1.804847698469171
 30
0.0
 10
-26.98750000000003
 20
-0.9447070766138239
 30
0.0
 10
-26.98750000000003
 20
-0.4861220550795871
 30
0.0
 10
-26.98750000000003
 20
0.4452598326865775
 30
0.0
 10
-26.98750000000002
 20
0.9175604197092859
 30
0.0
 10
-26.98750000000002
 20
1.829961777663556
 30
0.0
 10
-26.98750000000002
 20
2.269683085057057
 30
0.0
 10
-26.98750000000002
 20
2.675773606240963
 30
0.0
  0
SPLINE
  5
22D
330
1F
100
AcDbEntity
  8
외형선
  6
Continuous
370
    15
100
AcDbSpline
210
0.0
220
0.0
230
1.0
 70
     8
 71
     3
 72
    10
 73
     6
 74
     0
 42
0.000000001
 43
0.00000001
 40
0.0
 40
0.0
 40
0.0
 40
0.0
 40
0.5
 40
0.5
 40
1.0
 40
1.0
 40
1.0
 40
1.0
 10
-26.98750000000001
 20
2.675773606240959
 30
0.0
 10
-26.73358278281905
 20
2.589250289576437
 30
0.0
 10
-26.48160344218146
 20
2.499456028350256
 30
0.0
 10
-25.9760947025886
 20
2.313417664263779
 30
0.0
 10
-25.72181793131525
 20
2.217070003942897
 30
0.0
 10
-25.46750670478772
 20
2.117940756984368
 30
0.0
  0
SPLINE
  5
22E
330
1F
100
AcDbEntity
  8
외형선
  6
Continuous
370
    15
100
AcDbSpline
210
0.0
220
0.0
230
1.0
 70
     8
 71
     3
 72
    10
 73
     6
 74
     0
 42
0.000000001
 43
0.00000001
 40
0.0
 40
0.0
 40
0.0
 40
0.0
 40
0.5
 40
0.5
 40
1.0
 40
1.0
 40
1.0
 40
1.0
 10
-26.98750000000002
 20
-2.564692343761624
 30
0.0
 10
-26.73358267773983
 20
-2.633805946875402
 30
0.0
 10
-26.481603234243
 20
-2.699396956906476
 30
0.0
 10
-25.97609428293908
 20
-2.823520650261386
 30
0.0
 10
-25.72181740515751
 20
-2.88210143668174
 30
0.0
 10
-25.46750607333406
 20
-2.936834826804592
 30
0.0
  0
LINE
  5
22F
330
1F
100
AcDbEntity
  8
외형선
  6
Continuous
370
    15
100
AcDbLine
 10
-25.74893913721052
 20
4.117212932066725
 30
0.0
 11
-25.46750993237352
 21
4.147400479427159
 31
0.0
  0
SPLINE
  5
230
330
1F
100
AcDbEntity
  8
외형선
  6
Continuous
370
    15
100
AcDbSpline
210
0.0
220
0.0
230
1.0
 70
    24
 71
     3
 72
    13
 73
     9
 74
     0
 42
0.000000001
 43
0.00000001
 40
0.0
 40
0.0
 40
0.0
 40
0.0
 40
0.1570386923745063
 40
0.3161283512630643
 40
0.5469492734595471
 40
0.7844640180366484
 40
0.9926738524436008
 40
1.0
 40
1.0
 40
1.0
 40
1.0
 10
-26.98750000000001
 20
2.675773606240959
 30
0.0
 10
-26.98750000000001
 20
2.805553895706788
 30
0.0
 10
-26.98750000000001
 20
3.066809439260563
 30
0.0
 10
-26.98750000000001
 20
3.434608817533183
 30
0.0
 10
-26.98750000000001
 20
3.763963382627388
 30
0.0
 10
-26.98750000000001
 20
3.95794652088601
 30
0.0
 10
-26.98750000000001
 20
4.033262103395629
 30
0.0
 10
-26.98750000000001
 20
4.011028832785682
 30
0.0
 10
-26.98750000000001
 20
4.010273115713915
 30
0.0
  0
SPLINE
  5
231
330
1F
100
AcDbEntity
  8
외형선
  6
Continuous
370
    15
100
AcDbSpline
210
0.0
220
0.0
230
1.0
 70
     8
 71
     3
 72
     8
 73
     4
 74
     0
 42
0.000000001
 43
0.00000001
 40
0.0
 40
0.0
 40
0.0
 40
0.0
 40
1.0
 40
1.0
 40
1.0
 40
1.0
 10
-26.98750000000003
 20
-3.798235561508918
 30
0.0
 10
-26.65290126789298
 20
-3.922373300051937
 30
0.0
 10
-26.32164281568383
 20
-4.037502939793896
 30
0.0
 10
-25.98750000000003
 20
-4.143569346860627
 30
0.0
  0
SPLINE
  5
232
330
1F
100
AcDbEntity
  8
외형선
  6
Continuous
370
    15
100
AcDbSpline
210
0.0
220
0.0
230
1.0
 70
    24
 71
     3
 72
    10
 73
     6
 74
     0
 42
0.000000001
 43
0.00000001
 40
0.0
 40
0.0
 40
0.0
 40
0.0
 40
0.5
 40
0.5
 40
1.0
 40
1.0
 40
1.0
 40
1.0
 10
-26.98750000000002
 20
-3.798235561508921
 30
0.0
 10
-26.98750000000002
 20
-3.657605892770828
 30
0.0
 10
-26.98750000000002
 20
-3.470370699914326
 30
0.0
 10
-26.98750000000002
 20
-3.041937830663098
 30
0.0
 10
-26.98750000000002
 20
-2.802097403537005
 30
0.0
 10
-26.98750000000002
 20
-2.564692343761624
 30
0.0
  0
SPLINE
  5
233
330
1F
100
AcDbEntity
  8
외형선
  6
Continuous
370
    15
100
AcDbSpline
210
0.0
220
0.0
230
1.0
 70
     8
 71
     3
 72
     8
 73
     4
 74
     0
 42
0.000000001
 43
0.00000001
 40
0.0
 40
0.0
 40
0.0
 40
0.0
 40
1.0
 40
1.0
 40
1.0
 40
1.0
 10
-26.98750000000002
 20
-4.531877764941783
 30
0.0
 10
-26.65290126789297
 20
-4.610382250576755
 30
0.0
 10
-26.32164281568383
 20
-4.678370370433679
 30
0.0
 10
-25.98750000000003
 20
-4.735816642106862
 30
0.0
  0
LINE
  5
234
330
1F
100
AcDbEntity
  8
외형선
  6
Continuous
370
    15
100
AcDbLine
 10
-26.98750000000002
 20
-4.531877764941783
 30
0.0
 11
-26.98750000000003
 21
-3.798235561508921
 31
0.0
  0
SPLINE
  5
235
330
1F
100
AcDbEntity
  8
외형선
  6
Continuous
370
    15
100
AcDbSpline
210
0.0
220
0.0
230
1.0
 70
     8
 71
     3
 72
     8
 73
     4
 74
     0
 42
0.000000001
 43
0.00000001
 40
0.0
 40
0.0
 40
0.0
 40
0.0
 40
1.0
 40
1.0
 40
1.0
 40
1.0
 10
-26.98750000000001
 20
4.531877764941775
 30
0.0
 10
-26.65290126789297
 20
4.610382250576748
 30
0.0
 10
-26.32164281568382
 20
4.678370370433671
 30
0.0
 10
-25.98750000000002
 20
4.735816642106855
 30
0.0
  0
SPLINE
  5
236
330
1F
100
AcDbEntity
  8
외형선
  6
Continuous
370
    15
100
AcDbSpline
210
0.0
220
0.0
230
1.0
 70
    24
 71
     3
 72
    10
 73
     6
 74
     0
 42
0.000000001
 43
0.00000001
 40
0.0
 40
0.0
 40
0.0
 40
0.0
 40
0.3594513896827382
 40
0.8364083631556389
 40
1.0
 40
1.0
 40
1.0
 40
1.0
 10
-26.98750000000001
 20
4.012417779976554
 30
0.0
 10
-26.98750000000001
 20
4.078295226889868
 30
0.0
 10
-26.98750000000001
 20
4.231585627548135
 30
0.0
 10
-26.98750000000001
 20
4.401499954454794
 30
0.0
 10
-26.98750000000001
 20
4.505354133646074
 30
0.0
 10
-26.98750000000001
 20
4.531877764941775
 30
0.0
  0
SPLINE
  5
237
330
1F
100
AcDbEntity
  8
0
  6
Continuous
 62
     1
370
    15
100
AcDbSpline
210
0.0
220
0.0
230
1.0
 70
     8
 71
     3
 72
    38
 73
    34
 74
     0
 42
0.000000001
 43
0.00000001
 40
0.0
 40
0.0
 40
0.0
 40
0.0
 40
0.0625
 40
0.0625
 40
0.125
 40
0.125
 40
0.1875
 40
0.1875
 40
0.2499999999999999
 40
0.2499999999999999
 40
0.3124999999999999
 40
0.3124999999999999
 40
0.3749999999999998
 40
0.3749999999999998
 40
0.4374999999999998
 40
0.4374999999999998
 40
0.4999999999999997
 40
0.4999999999999997
 40
0.5624999999999997
 40
0.5624999999999997
 40
0.6249999999999997
 40
0.6249999999999997
 40
0.6874999999999997
 40
0.6874999999999997
 40
0.7499999999999997
 40
0.7499999999999997
 40
0.8124999999999998
 40
0.8124999999999998
 40
0.8749999999999999
 40
0.8749999999999999
 40
0.9375
 40
0.9375
 40
1.0
 40
1.0
 40
1.0
 40
1.0
 10
-47.62500000000003
 20
4.70763634345513
 30
0.0
 10
-47.19777681257999
 20
4.629499113072903
 30
0.0
 10
-46.76512792306748
 20
4.53332919725641
 30
0.0
 10
-45.90349399148703
 20
4.307869301932588
 30
0.0
 10
-45.47717664122092
 20
4.178954845952598
 30
0.0
 10
-44.61546997795151
 20
3.88985284839972
 30
0.0
 10
-44.18307305511937
 20
3.729882078736455
 30
0.0
 10
-43.32841048455801
 20
3.3845491277263
 30
0.0
 10
-42.89572546883993
 20
3.197785542280192
 30
0.0
 10
-42.03416722165097
 20
2.802142317474535
 30
0.0
 10
-41.60784472067134
 20
2.593753492116827
 30
0.0
 10
-40.74606827924735
 20
2.157616463716424
 30
0.0
 10
-40.31391824164271
 20
1.930363071328925
 30
0.0
 10
-39.45904234872825
 20
1.4647963532042
 30
0.0
 10
-39.02632270440036
 20
1.224672778784003
 30
0.0
 10
-38.16484309343988
 20
0.7377366408323596
 30
0.0
 10
-37.73851029109206
 20
0.4914191998948567
 30
0.0
 10
-36.87666702584602
 20
-0.0048021116098411
 30
0.0
 10
-36.4447587892101
 20
-0.2540141793200519
 30
0.0
 10
-35.58967244972661
 20
-0.7470046325075685
 30
0.0
 10
-35.15691967478669
 20
-0.9926129958643983
 30
0.0
 10
-34.29552165099254
 20
-1.47375500360166
 30
0.0
 10
-33.86917339673944
 20
-1.708893048436622
 30
0.0
 10
-33.00726626276831
 20
-2.166263438739726
 30
0.0
 10
-32.57559474009363
 20
-2.387750230245494
 30
0.0
 10
-31.72030083220929
 20
-2.80987100201239
 30
0.0
 10
-31.28751642503988
 20
-3.011992874271115
 30
0.0
 10
-30.42620293841705
 20
-3.391415064771323
 30
0.0
 10
-29.9998340818981
 20
-3.568493306230877
 30
0.0
 10
-29.13786603502953
 20
-3.895818966850083
 30
0.0
 10
-28.7064261366172
 20
-4.04544098263132
 30
0.0
 10
-27.85092754085236
 20
-4.312513636387511
 30
0.0
 10
-27.41811300020329
 20
-4.430846144541484
 30
0.0
 10
-26.98749999999682
 20
-4.531877764942536
 30
0.0
1001
PE_URL
1000

  0
SPLINE
  5
238
330
1F
100
AcDbEntity
  8
0
  6
Continuous
 62
     1
370
    15
100
AcDbSpline
210
0.0
220
0.0
230
1.0
 70
     8
 71
     3
 72
    14
 73
    10
 74
     0
 42
0.000000001
 43
0.00000001
 40
0.0
 40
0.0
 40
0.0
 40
0.0
 40
0.1495741832877017
 40
0.2991483607578551
 40
0.4487225324229239
 40
0.5982966982953722
 40
0.7478708583876671
 40
0.8974450127122768
 40
1.0
 40
1.0
 40
1.0
 40
1.0
 10
-47.62500000000003
 20
3.914042092764197
 30
0.0
 10
-46.98297207081568
 20
3.777811983999992
 30
0.0
 10
-45.69891623741805
 20
3.505351771770124
 30
0.0
 10
-43.77283251060996
 20
2.868757027991983
 30
0.0
 10
-41.84674898163867
 20
2.10283074178481
 30
0.0
 10
-39.92066511552103
 20
1.227367817270812
 30
0.0
 10
-37.99458291404616
 20
0.2935664556827469
 30
0.0
 10
-36.27031908315644
 20
-0.5626747437812583
 30
0.0
 10
-35.18809503572911
 20
-1.070738416169412
 30
0.0
 10
-34.74789414218451
 20
-1.277396254806863
 30
0.0
1001
PE_URL
1000

  0
LINE
  5
239
330
1F
100
AcDbEntity
  8
0
  6
Continuous
 62
     1
370
    15
100
AcDbLine
 10
-47.62500000000003
 20
4.70763634345513
 30
0.0
 11
-47.62500000000003
 21
3.914042092764197
 31
0.0
1001
PE_URL
1000

  0
SPLINE
  5
23A
330
1F
100
AcDbEntity
  8
0
  6
Continuous
 62
     1
370
    15
100
AcDbSpline
210
0.0
220
0.0
230
1.0
 70
     8
 71
     3
 72
    38
 73
    34
 74
     0
 42
0.000000001
 43
0.00000001
 40
0.0
 40
0.0
 40
0.0
 40
0.0
 40
0.0625
 40
0.0625
 40
0.125
 40
0.125
 40
0.1875000000000001
 40
0.1875000000000001
 40
0.2500000000000001
 40
0.2500000000000001
 40
0.3125000000000001
 40
0.3125000000000001
 40
0.3750000000000001
 40
0.3750000000000001
 40
0.4375000000000001
 40
0.4375000000000001
 40
0.5000000000000001
 40
0.5000000000000001
 40
0.5625000000000001
 40
0.5625000000000001
 40
0.6250000000000001
 40
0.6250000000000001
 40
0.6875000000000001
 40
0.6875000000000001
 40
0.7500000000000002
 40
0.7500000000000002
 40
0.8125000000000002
 40
0.8125000000000002
 40
0.8750000000000002
 40
0.8750000000000002
 40
0.9375000000000001
 40
0.9375000000000001
 40
1.0
 40
1.0
 40
1.0
 40
1.0
 10
-47.62500000000003
 20
4.956744591178312
 30
0.0
 10
-47.19777681258007
 20
4.946562874254662
 30
0.0
 10
-46.76512792306761
 20
4.917698022402782
 30
0.0
 10
-45.90349399148728
 20
4.823264317044172
 30
0.0
 10
-45.47717664122126
 20
4.757947975252696
 30
0.0
 10
-44.61546997795197
 20
4.591669914007264
 30
0.0
 10
-44.18307305511989
 20
4.490761567477797
 30
0.0
 10
-43.32841048455866
 20
4.256973513022357
 30
0.0
 10
-42.89572546884067
 20
4.123142586608703
 30
0.0
 10
-42.03416722165183
 20
3.825852873603047
 30
0.0
 10
-41.60784472067228
 20
3.662817114402669
 30
0.0
 10
-40.74606827924842
 20
3.309349426622427
 30
0.0
 10
-40.31391824164383
 20
3.119273213166487
 30
0.0
 10
-39.45904234872951
 20
2.718640100697154
 30
0.0
 10
-39.02632270440169
 20
2.506521794037436
 30
0.0
 10
-38.16484309344135
 20
2.06565949135074
 30
0.0
 10
-37.73851029109358
 20
1.837407761185268
 30
0.0
 10
-36.87666702584768
 20
1.367216167475764
 30
0.0
 10
-36.4447587892118
 20
1.125893722300289
 30
0.0
 10
-35.58967244972847
 20
0.6382706971921799
 30
0.0
 10
-35.15691967478864
 20
0.3901549618337441
 30
0.0
 10
-34.2955216509946
 20
-0.1063754694697785
 30
0.0
 10
-33.86917339674157
 20
-0.3543374966652557
 30
0.0
 10
-33.00726626277059
 20
-0.8475105502165796
 30
0.0
 10
-32.57559474009592
 20
-1.091957122098194
 30
0.0
 10
-31.72030083221176
 20
-1.569356564041357
 30
0.0
 10
-31.28751642504243
 20
-1.804000034578529
 30
0.0
 10
-30.42620293841971
 20
-2.257200936634501
 30
0.0
 10
-29.99983408190083
 20
-2.475436963306645
 30
0.0
 10
-29.13786603503241
 20
-2.893262210007052
 30
0.0
 10
-28.70642613662009
 20
-3.092105638734925
 30
0.0
 10
-27.85092754085544
 20
-3.464090737056107
 30
0.0
 10
-27.41811300020644
 20
-3.638476067812611
 30
0.0
 10
-26.98750000000003
 20
-3.798235561508921
 30
0.0
1001
PE_URL
1000

  0
SPLINE
  5
23B
330
1F
100
AcDbEntity
  8
0
  6
Continuous
 62
     1
370
    15
100
AcDbSpline
210
0.0
220
0.0
230
1.0
 70
     8
 71
     3
 72
    11
 73
     7
 74
     0
 42
0.000000001
 43
0.00000001
 40
0.0
 40
0.0
 40
0.0
 40
0.0
 40
0.1805463557592732
 40
0.4536510422571591
 40
0.7268318677308394
 40
1.0
 40
1.0
 40
1.0
 40
1.0
 10
-35.30047694745188
 20
0.469460348719398
 30
0.0
 10
-34.80022280513882
 20
0.2687317862322693
 30
0.0
 10
-33.54325579464776
 20
-0.2356302165349327
 30
0.0
 10
-31.52918777154324
 20
-1.04514043384529
 30
0.0
 10
-29.25841806129134
 20
-1.893921152209639
 30
0.0
 10
-27.7444609626203
 20
-2.34110540968862
 30
0.0
 10
-26.98750000000003
 20
-2.564692343761624
 30
0.0
1001
PE_URL
1000

  0
SPLINE
  5
23C
330
1F
100
AcDbEntity
  8
외형선
  6
Continuous
370
    15
100
AcDbSpline
210
0.0
220
0.0
230
1.0
 70
    24
 71
     3
 72
    10
 73
     6
 74
     0
 42
0.000000001
 43
0.00000001
 40
0.0
 40
0.0
 40
0.0
 40
0.0
 40
0.5
 40
0.5
 40
1.0
 40
1.0
 40
1.0
 40
1.0
 10
-26.98750000000003
 20
-3.798235561508921
 30
0.0
 10
-26.98750000000003
 20
-3.657605892770832
 30
0.0
 10
-26.98750000000003
 20
-3.470370699914326
 30
0.0
 10
-26.98750000000003
 20
-3.041937830663098
 30
0.0
 10
-26.98750000000003
 20
-2.802097403537005
 30
0.0
 10
-26.98750000000003
 20
-2.564692343761624
 30
0.0
  0
LINE
  5
23D
330
1F
100
AcDbEntity
  8
0
  6
Continuous
 62
     1
370
    15
100
AcDbLine
 10
-47.62500000000003
 20
4.956744591178312
 30
0.0
 11
-47.62500000000003
 21
4.70763634345513
 31
0.0
1001
PE_URL
1000

  0
SPLINE
  5
23E
330
1F
100
AcDbEntity
  8
0
  6
Continuous
 62
     1
370
    15
100
AcDbSpline
210
0.0
220
0.0
230
1.0
 70
     8
 71
     3
 72
     8
 73
     4
 74
     0
 42
0.000000001
 43
0.00000001
 40
0.0
 40
0.0
 40
0.0
 40
0.0
 40
1.0
 40
1.0
 40
1.0
 40
1.0
 10
-44.5554080946647
 20
-1.387664294288388
 30
0.0
 10
-44.37873182132134
 20
-1.596970235065918
 30
0.0
 10
-44.22146401190236
 20
-1.797951152685716
 30
0.0
 10
-44.08789947210657
 20
-1.988764842786185
 30
0.0
1001
PE_URL
1000

  0
LINE
  5
23F
330
1F
100
AcDbEntity
  8
0
  6
Continuous
 62
     1
370
    15
100
AcDbLine
 10
-44.15058994043231
 20
-2.041368391636407
 30
0.0
 11
-47.62500000000003
 21
-0.0000000000000036
 31
0.0
1001
PE_URL
1000

  0
LINE
  5
240
330
1F
100
AcDbEntity
  8
0
  6
Continuous
 62
     1
370
    15
100
AcDbLine
 10
-47.62500000000003
 20
-0.0000000000000036
 30
0.0
 11
-47.62500000000003
 21
1.325775552568938
 31
0.0
1001
PE_URL
1000

  0
SPLINE
  5
241
330
1F
100
AcDbEntity
  8
0
  6
Continuous
 62
     1
370
    15
100
AcDbSpline
210
0.0
220
0.0
230
1.0
 70
     8
 71
     3
 72
    12
 73
     8
 74
     0
 42
0.000000001
 43
0.00000001
 40
0.0
 40
0.0
 40
0.0
 40
0.0
 40
0.5
 40
0.5
 40
0.75
 40
0.75
 40
1.0
 40
1.0
 40
1.0
 40
1.0
 10
-47.62500000000003
 20
1.325775552568938
 30
0.0
 10
-47.09364428679828
 20
0.9080402946766881
 30
0.0
 10
-46.57116373259282
 20
0.4731767396155071
 30
0.0
 10
-45.80109783394947
 20
-0.2054714441875589
 30
0.0
 10
-45.54672463880499
 20
-0.4361561020905818
 30
0.0
 10
-45.04317343187282
 20
-0.9075516770791587
 30
0.0
 10
-44.79536951587448
 20
-1.147039328941712
 30
0.0
 10
-44.5554080946647
 20
-1.387664294288388
 30
0.0
1001
PE_URL
1000

  0
SPLINE
  5
242
330
1F
100
AcDbEntity
  8
0
  6
Continuous
 62
     1
370
    15
100
AcDbSpline
210
0.0
220
0.0
230
1.0
 70
     8
 71
     3
 72
    13
 73
     9
 74
     0
 42
0.000000001
 43
0.00000001
 40
0.0
 40
0.0
 40
0.0
 40
0.0
 40
0.1722159469629694
 40
0.3444313652704419
 40
0.5166461587518524
 40
0.6888602313006866
 40
0.8610734868843128
 40
1.0
 40
1.0
 40
1.0
 40
1.0
 10
-44.5554080946647
 20
-1.387664294288381
 30
0.0
 10
-43.89952156032585
 20
-1.664458881264842
 30
0.0
 10
-42.58775050503904
 20
-2.218047205534667
 30
0.0
 10
-40.62009857237766
 20
-2.912832577209453
 30
0.0
 10
-38.65245353179586
 20
-3.462315800132401
 30
0.0
 10
-36.68482213422001
 20
-3.82378588969463
 30
0.0
 10
-34.84395527864043
 20
-3.996044563883977
 30
0.0
 10
-33.65900397110747
 20
-3.948576254160756
 30
0.0
 10
-33.12991328605744
 20
-3.927381256231335
 30
0.0
1001
PE_URL
1000

  0
LINE
  5
243
330
1F
100
AcDbEntity
  8
0
  6
Continuous
 62
     1
370
    15
100
AcDbLine
 10
-47.62500000000003
 20
3.914042092764193
 30
0.0
 11
-47.62500000000003
 21
1.325775552568938
 31
0.0
1001
PE_URL
1000

  0
SPLINE
  5
244
330
1F
100
AcDbEntity
  8
0
  6
Continuous
 62
     1
370
    15
100
AcDbSpline
210
0.0
220
0.0
230
1.0
 70
    24
 71
     3
 72
     8
 73
     4
 74
     0
 42
0.000000001
 43
0.00000001
 40
0.0
 40
0.0
 40
0.0
 40
0.0
 40
1.0
 40
1.0
 40
1.0
 40
1.0
 10
-44.60537862704627
 20
-2.422981410837423
 30
0.0
 10
-44.44163224322077
 20
-2.285581880562845
 30
0.0
 10
-44.26858181099041
 20
-2.140375326703595
 30
0.0
 10
-44.08789947210694
 20
-1.988764842786228
 30
0.0
1001
PE_URL
1000

  0
LINE
  5
245
330
1F
100
AcDbEntity
  8
0
  6
Continuous
 62
     1
370
    15
100
AcDbLine
 10
-47.62500000000004
 20
-3.47265625
 30
0.0
 11
-45.77596248907886
 21
-3.372740016049047
 31
0.0
1001
PE_URL
1000

  0
SPLINE
  5
246
330
1F
100
AcDbEntity
  8
0
  6
Continuous
 62
     1
370
    15
100
AcDbSpline
210
0.0
220
0.0
230
1.0
 70
     8
 71
     3
 72
    10
 73
     6
 74
     0
 42
0.000000001
 43
0.00000001
 40
0.0
 40
0.0
 40
0.0
 40
0.0
 40
0.5
 40
0.5
 40
1.0
 40
1.0
 40
1.0
 40
1.0
 10
-47.62500000000004
 20
-3.472656250000004
 30
0.0
 10
-47.11475030268839
 20
-3.334244684055122
 30
0.0
 10
-46.60726928151005
 20
-3.178800999443062
 30
0.0
 10
-45.59974012121655
 20
-2.831071913316805
 30
0.0
 10
-45.09940890505393
 20
-2.639236578602596
 30
0.0
 10
-44.60537862704603
 20
-2.422981410837558
 30
0.0
1001
PE_URL
1000

  0
SPLINE
  5
247
330
1F
100
AcDbEntity
  8
0
  6
Continuous
 62
     1
370
    15
100
AcDbSpline
210
0.0
220
0.0
230
1.0
 70
     8
 71
     3
 72
    13
 73
     9
 74
     0
 42
0.000000001
 43
0.00000001
 40
0.0
 40
0.0
 40
0.0
 40
0.0
 40
0.0432826812142311
 40
0.2374017649056117
 40
0.4280513419305123
 40
0.6187009068779613
 40
0.8093504596128291
 40
0.9999999999999999
 40
0.9999999999999999
 40
0.9999999999999999
 40
0.9999999999999999
 10
-37.12353756165477
 20
3.713235637120823
 30
0.0
 10
-36.97729728678237
 20
3.741409532850506
 30
0.0
 10
-36.17518202079064
 20
3.895940915446426
 30
0.0
 10
-34.72890427139404
 20
3.983147128898009
 30
0.0
 10
-32.78477148451088
 20
3.956669556828043
 30
0.0
 10
-30.85234504363318
 20
3.712854039198408
 30
0.0
 10
-28.91992300234749
 20
3.295887121704522
 30
0.0
 10
-27.63164098687627
 20
2.882478106932977
 30
0.0
 10
-26.98750000000002
 20
2.675773606240963
 30
0.0
1001
PE_URL
1000

  0
SPLINE
  5
248
330
1F
100
AcDbEntity
  8
외형선
  6
Continuous
370
    15
100
AcDbSpline
210
0.0
220
0.0
230
1.0
 70
    24
 71
     3
 72
    14
 73
    10
 74
     0
 42
0.000000001
 43
0.00000001
 40
0.0
 40
0.0
 40
0.0
 40
0.0
 40
0.25
 40
0.25
 40
0.5
 40
0.5
 40
0.75
 40
0.75
 40
1.0
 40
1.0
 40
1.0
 40
1.0
 10
-26.98750000000003
 20
-2.564692343761624
 30
0.0
 10
-26.98750000000003
 20
-2.20609723827593
 30
0.0
 10
-26.98750000000003
 20
-1.804847698469171
 30
0.0
 10
-26.98750000000003
 20
-0.9447070766138239
 30
0.0
 10
-26.98750000000003
 20
-0.4861220550795871
 30
0.0
 10
-26.98750000000003
 20
0.4452598326865775
 30
0.0
 10
-26.98750000000002
 20
0.9175604197092859
 30
0.0
 10
-26.98750000000002
 20
1.829961777663556
 30
0.0
 10
-26.98750000000002
 20
2.269683085057057
 30
0.0
 10
-26.98750000000002
 20
2.675773606240963
 30
0.0
  0
SPLINE
  5
249
330
1F
100
AcDbEntity
  8
외형선
  6
Continuous
370
    15
100
AcDbSpline
210
0.0
220
0.0
230
1.0
 70
    24
 71
     3
 72
    13
 73
     9
 74
     0
 42
0.000000001
 43
0.00000001
 40
0.0
 40
0.0
 40
0.0
 40
0.0
 40
0.1581970382004859
 40
0.3163940764009717
 40
0.5474114133803594
 40
0.7851282687823758
 40
0.9935152772905087
 40
1.0
 40
1.0
 40
1.0
 40
1.0
 10
-26.98750000000002
 20
2.675773606240963
 30
0.0
 10
-26.98750000000002
 20
2.806324247867249
 30
0.0
 10
-26.98750000000002
 20
3.067425531119822
 30
0.0
 10
-26.98750000000002
 20
3.435200910765358
 30
0.0
 10
-26.98750000000001
 20
3.763966168150597
 30
0.0
 10
-26.98750000000002
 20
3.957875400134292
 30
0.0
 10
-26.98750000000003
 20
4.033266332245606
 30
0.0
 10
-26.98750000000002
 20
4.011193598363517
 30
0.0
 10
-26.98750000000002
 20
4.010527454158069
 30
0.0
  0
LINE
  5
24A
330
1F
100
AcDbEntity
  8
0
  6
Continuous
 62
     1
370
    15
100
AcDbLine
 10
-47.62500000000003
 20
-0.0000000000000036
 30
0.0
 11
-47.62500000000004
 21
-3.472656250000004
 31
0.0
1001
PE_URL
1000

  0
SPLINE
  5
24B
330
1F
100
AcDbEntity
  8
0
  6
Continuous
 62
     1
370
    15
100
AcDbSpline
210
0.0
220
0.0
230
1.0
 70
     8
 71
     3
 72
    11
 73
     7
 74
     0
 42
0.000000001
 43
0.00000001
 40
0.0
 40
0.0
 40
0.0
 40
0.0
 40
0.1985451748924712
 40
0.4656724723152616
 40
0.7328229273600135
 40
1.0
 40
1.0
 40
1.0
 40
1.0
 10
-40.82594961583336
 20
-3.324859411339375
 30
0.0
 10
-41.27590945126412
 20
-3.515041713470559
 30
0.0
 10
-42.33125571752868
 20
-3.961099709450572
 30
0.0
 10
-43.9920717249886
 20
-4.464085854160491
 30
0.0
 10
-45.80845556624852
 20
-4.850282039664908
 30
0.0
 10
-47.01946507988409
 20
-4.921255895483224
 30
0.0
 10
-47.62500000000004
 20
-4.95674459117831
 30
0.0
1001
PE_URL
1000

  0
SPLINE
  5
24C
330
1F
100
AcDbEntity
  8
0
  6
Continuous
 62
     1
370
    15
100
AcDbSpline
210
0.0
220
0.0
230
1.0
 70
    24
 71
     3
 72
    10
 73
     6
 74
     0
 42
0.000000001
 43
0.00000001
 40
0.0
 40
0.0
 40
0.0
 40
0.0
 40
0.5
 40
0.5
 40
1.0
 40
1.0
 40
1.0
 40
1.0
 10
-47.62500000000004
 20
-3.472656250000004
 30
0.0
 10
-47.62500000000004
 20
-3.683160024005034
 30
0.0
 10
-47.62500000000004
 20
-3.927784904145465
 30
0.0
 10
-47.62500000000004
 20
-4.441007243829244
 30
0.0
 10
-47.62500000000004
 20
-4.70829399792137
 30
0.0
 10
-47.62500000000004
 20
-4.95674459117831
 30
0.0
1001
PE_URL
1000

  0
SPLINE
  5
24D
330
1F
100
AcDbEntity
  8
0
  6
Continuous
 62
     1
370
    15
100
AcDbSpline
210
0.0
220
0.0
230
1.0
 70
     8
 71
     3
 72
     9
 73
     5
 74
     0
 42
0.000000001
 43
0.00000001
 40
0.0
 40
0.0
 40
0.0
 40
0.0
 40
0.1334390699643141
 40
0.9999999999999999
 40
0.9999999999999999
 40
0.9999999999999999
 40
0.9999999999999999
 10
-29.08301111229965
 20
3.899517045513864
 30
0.0
 10
-28.98980239966956
 20
3.936186334098204
 30
0.0
 10
-28.29129099176617
 20
4.210988073904605
 30
0.0
 10
-27.59279196567522
 20
4.382903003588572
 30
0.0
 10
-26.98749999999682
 20
4.531877764942527
 30
0.0
1001
PE_URL
1000

  0
SPLINE
  5
24E
330
1F
100
AcDbEntity
  8
외형선
  6
Continuous
370
    15
100
AcDbSpline
210
0.0
220
0.0
230
1.0
 70
    24
 71
     3
 72
    10
 73
     6
 74
     0
 42
0.000000001
 43
0.00000001
 40
0.0
 40
0.0
 40
0.0
 40
0.0
 40
0.3594513896922187
 40
0.8364083631776966
 40
0.9999999999999999
 40
0.9999999999999999
 40
0.9999999999999999
 40
0.9999999999999999
 10
-26.98750000000002
 20
4.012417779976554
 30
0.0
 10
-26.98750000000001
 20
4.078295226889875
 30
0.0
 10
-26.98750000000001
 20
4.231585627548149
 30
0.0
 10
-26.98750000000002
 20
4.401499954450264
 30
0.0
 10
-26.98750000000002
 20
4.505354133637557
 30
0.0
 10
-26.98750000000002
 20
4.531877764929057
 30
0.0
  0
LINE
  5
24F
330
1F
100
AcDbEntity
  8
외형선
  6
Continuous
370
    15
100
AcDbLine
 10
-7.111999999999952
 20
6.349999999999993
 30
0.0
 11
-20.80344817511141
 21
6.349999999999993
 31
0.0
  0
ENDSEC
  0
SECTION
  2
OBJECTS
  0
DICTIONARY
  5
C
330
0
100
AcDbDictionary
281
     1
  3
ACAD_DETAILVIEWSTYLE
350
1DE
  3
ACAD_GROUP
350
D
  3
ACAD_LAYOUT
350
1A
  3
ACAD_MLINESTYLE
350
17
  3
ACAD_PLOTSETTINGS
350
19
  3
ACAD_PLOTSTYLENAME
350
E
  3
ACAD_SCALELIST
350
47
  3
ACAD_SECTIONVIEWSTYLE
350
1DF
  3
AcDbVariableDictionary
350
1D9
  3
APPDATA
350
15A
  3
DWGPROPS
350
251
  0
DICTIONARY
  5
18F
330
2
100
AcDbDictionary
280
     1
281
     1
  3
ACAD_LAYERSTATES
360
190
  0
DICTIONARY
  5
1DE
102
{ACAD_REACTORS
330
C
102
}
330
C
100
AcDbDictionary
281
     1
  0
DICTIONARY
  5
D
102
{ACAD_REACTORS
330
C
102
}
330
C
100
AcDbDictionary
281
     1
  0
DICTIONARY
  5
1A
102
{ACAD_REACTORS
330
C
102
}
330
C
100
AcDbDictionary
281
     1
  3
Layout1
350
1E
  3
Layout2
350
26
  3
Model
350
22
  0
DICTIONARY
  5
17
102
{ACAD_REACTORS
330
C
102
}
330
C
100
AcDbDictionary
281
     1
  3
Standard
350
18
  0
DICTIONARY
  5
19
102
{ACAD_REACTORS
330
C
102
}
330
C
100
AcDbDictionary
281
     1
  0
ACDBDICTIONARYWDFLT
  5
E
102
{ACAD_REACTORS
330
C
102
}
330
C
100
AcDbDictionary
281
     1
  3
Normal
350
F
100
AcDbDictionaryWithDefault
340
F
  0
DICTIONARY
  5
47
102
{ACAD_REACTORS
330
C
102
}
330
C
100
AcDbDictionary
281
     1
  3
A0
350
48
  3
A1
350
49
  3
A2
350
4A
  3
A3
350
4B
  3
A4
350
4C
  3
A5
350
4D
  3
A6
350
4E
  3
A7
350
4F
  3
A8
350
50
  3
A9
350
51
  3
B0
350
52
  3
B1
350
53
  3
B2
350
54
  3
B3
350
55
  3
B4
350
56
  3
B5
350
57
  3
B6
350
58
  3
B7
350
59
  3
B8
350
5A
  3
B9
350
5B
  3
C0
350
5C
  3
C1
350
5D
  3
C2
350
5E
  3
C3
350
5F
  3
C4
350
60
  3
C5
350
61
  3
C6
350
62
  3
C7
350
63
  3
C8
350
64
  3
C9
350
65
  3
D0
350
66
  3
D1
350
67
  3
D2
350
68
  0
DICTIONARY
  5
1DF
102
{ACAD_REACTORS
330
C
102
}
330
C
100
AcDbDictionary
281
     1
  0
DICTIONARY
  5
1D9
102
{ACAD_REACTORS
330
C
102
}
330
C
100
AcDbDictionary
281
     1
  0
DICTIONARY
  5
15A
102
{ACAD_REACTORS
330
C
102
}
330
C
100
AcDbDictionary
281
     1
  0
XRECORD
  5
251
102
{ACAD_REACTORS
330
C
102
}
330
C
100
AcDbXrecord
280
     1
  1
DWGPROPS COOKIE
  2

  3

  4

  6

  7

  8
120170442
  9

300
=
301
=
302
=
303
=
304
=
305
=
306
=
307
=
308
=
309
=
 40
0.0
 41
2458313.022370764
 42
2458324.044650174
  1

 90
        0
  0
DICTIONARY
  5
190
102
{ACAD_REACTORS
330
18F
102
}
330
18F
100
AcDbDictionary
281
     1
  0
LAYOUT
  5
1E
102
{ACAD_REACTORS
330
1A
102
}
330
1A
100
AcDbPlotSettings
  1

  2
none_device
  4

  6

 40
0.0
 41
0.0
 42
0.0
 43
0.0
 44
0.0
 45
0.0
 46
0.0
 47
0.0
 48
0.0
 49
0.0
140
0.0
141
0.0
142
1.0
143
1.0
 70
   688
 72
     1
 73
     0
 74
     5
  7

 75
    16
147
1.0
148
0.0
149
0.0
100
AcDbLayout
  1
Layout1
 70
     1
 71
     1
 10
0.0
 20
0.0
 11
420.0
 21
297.0
 12
0.0
 22
0.0
 32
0.0
 14
1.000000000000000E+20
 24
1.000000000000000E+20
 34
1.000000000000000E+20
 15
-1.000000000000000E+20
 25
-1.000000000000000E+20
 35
-1.000000000000000E+20
146
0.0
 13
0.0
 23
0.0
 33
0.0
 16
1.0
 26
0.0
 36
0.0
 17
0.0
 27
1.0
 37
0.0
 76
     0
330
1B
  0
LAYOUT
  5
26
102
{ACAD_REACTORS
330
1A
102
}
330
1A
100
AcDbPlotSettings
  1

  2
none_device
  4

  6

 40
0.0
 41
0.0
 42
0.0
 43
0.0
 44
0.0
 45
0.0
 46
0.0
 47
0.0
 48
0.0
 49
0.0
140
0.0
141
0.0
142
1.0
143
1.0
 70
   688
 72
     1
 73
     0
 74
     5
  7

 75
    16
147
1.0
148
0.0
149
0.0
100
AcDbLayout
  1
Layout2
 70
     1
 71
     2
 10
0.0
 20
0.0
 11
0.0
 21
0.0
 12
0.0
 22
0.0
 32
0.0
 14
0.0
 24
0.0
 34
0.0
 15
0.0
 25
0.0
 35
0.0
146
0.0
 13
0.0
 23
0.0
 33
0.0
 16
1.0
 26
0.0
 36
0.0
 17
0.0
 27
1.0
 37
0.0
 76
     0
330
23
  0
LAYOUT
  5
22
102
{ACAD_REACTORS
330
1A
102
}
330
1A
100
AcDbPlotSettings
  1

  2
none_device
  4
ANSI_A_(11.00_x_8.50_Inches)
  6

 40
6.35
 41
19.05
 42
6.35000508
 43
19.05000254
 44
279.4
 45
215.9
 46
69.6453324306941
 47
53.65017403691159
 48
0.0
 49
0.0
140
0.0
141
0.0
142
0.0335920848724483
143
1.0
 70
  1696
 72
     0
 73
     0
 74
     0
  7

 75
     0
147
0.0235690232323232
148
0.0
149
0.0
100
AcDbLayout
  1
Model
 70
     1
 71
     0
 10
0.0
 20
0.0
 11
420.0
 21
297.0
 12
0.0
 22
0.0
 32
0.0
 14
-62.00000000000009
 24
-49.97180738881175
 34
0.0
 15
97.79412503295507
 25
42.18574459117845
 35
0.0
146
0.0
 13
0.0
 23
0.0
 33
0.0
 16
1.0
 26
0.0
 36
0.0
 17
0.0
 27
1.0
 37
0.0
 76
     0
330
1F
331
29
  0
MLINESTYLE
  5
18
102
{ACAD_REACTORS
330
17
102
}
330
17
100
AcDbMlineStyle
  2
Standard
 70
     0
  3

 62
   256
 51
90.0
 52
90.0
 71
     2
 49
0.5
 62
   256
  6
BYLAYER
 49
-0.5
 62
   256
  6
BYLAYER
  0
ACDBPLACEHOLDER
  5
F
102
{ACAD_REACTORS
330
E
102
}
330
E
  0
SCALE
  5
48
102
{ACAD_REACTORS
330
47
102
}
330
47
100
AcDbScale
 70
     0
300
1:1
140
1.0
141
1.0
290
     1
  0
SCALE
  5
49
102
{ACAD_REACTORS
330
47
102
}
330
47
100
AcDbScale
 70
     0
300
1:2
140
1.0
141
2.0
290
     0
  0
SCALE
  5
4A
102
{ACAD_REACTORS
330
47
102
}
330
47
100
AcDbScale
 70
     0
300
1:4
140
1.0
141
4.0
290
     0
  0
SCALE
  5
4B
102
{ACAD_REACTORS
330
47
102
}
330
47
100
AcDbScale
 70
     0
300
1:5
140
1.0
141
5.0
290
     0
  0
SCALE
  5
4C
102
{ACAD_REACTORS
330
47
102
}
330
47
100
AcDbScale
 70
     0
300
1:8
140
1.0
141
8.0
290
     0
  0
SCALE
  5
4D
102
{ACAD_REACTORS
330
47
102
}
330
47
100
AcDbScale
 70
     0
300
1:10
140
1.0
141
10.0
290
     0
  0
SCALE
  5
4E
102
{ACAD_REACTORS
330
47
102
}
330
47
100
AcDbScale
 70
     0
300
1:16
140
1.0
141
16.0
290
     0
  0
SCALE
  5
4F
102
{ACAD_REACTORS
330
47
102
}
330
47
100
AcDbScale
 70
     0
300
1:20
140
1.0
141
20.0
290
     0
  0
SCALE
  5
50
102
{ACAD_REACTORS
330
47
102
}
330
47
100
AcDbScale
 70
     0
300
1:30
140
1.0
141
30.0
290
     0
  0
SCALE
  5
51
102
{ACAD_REACTORS
330
47
102
}
330
47
100
AcDbScale
 70
     0
300
1:40
140
1.0
141
40.0
290
     0
  0
SCALE
  5
52
102
{ACAD_REACTORS
330
47
102
}
330
47
100
AcDbScale
 70
     0
300
1:50
140
1.0
141
50.0
290
     0
  0
SCALE
  5
53
102
{ACAD_REACTORS
330
47
102
}
330
47
100
AcDbScale
 70
     0
300
1:100
140
1.0
141
100.0
290
     0
  0
SCALE
  5
54
102
{ACAD_REACTORS
330
47
102
}
330
47
100
AcDbScale
 70
     0
300
2:1
140
2.0
141
1.0
290
     0
  0
SCALE
  5
55
102
{ACAD_REACTORS
330
47
102
}
330
47
100
AcDbScale
 70
     0
300
4:1
140
4.0
141
1.0
290
     0
  0
SCALE
  5
56
102
{ACAD_REACTORS
330
47
102
}
330
47
100
AcDbScale
 70
     0
300
8:1
140
8.0
141
1.0
290
     0
  0
SCALE
  5
57
102
{ACAD_REACTORS
330
47
102
}
330
47
100
AcDbScale
 70
     0
300
10:1
140
10.0
141
1.0
290
     0
  0
SCALE
  5
58
102
{ACAD_REACTORS
330
47
102
}
330
47
100
AcDbScale
 70
     0
300
100:1
140
100.0
141
1.0
290
     0
  0
SCALE
  5
59
102
{ACAD_REACTORS
330
47
102
}
330
47
100
AcDbScale
 70
     0
300
1/128" = 1'-0"
140
0.0078125
141
12.0
290
     0
  0
SCALE
  5
5A
102
{ACAD_REACTORS
330
47
102
}
330
47
100
AcDbScale
 70
     0
300
1/64" = 1'-0"
140
0.015625
141
12.0
290
     0
  0
SCALE
  5
5B
102
{ACAD_REACTORS
330
47
102
}
330
47
100
AcDbScale
 70
     0
300
1/32" = 1'-0"
140
0.03125
141
12.0
290
     0
  0
SCALE
  5
5C
102
{ACAD_REACTORS
330
47
102
}
330
47
100
AcDbScale
 70
     0
300
1/16" = 1'-0"
140
0.0625
141
12.0
290
     0
  0
SCALE
  5
5D
102
{ACAD_REACTORS
330
47
102
}
330
47
100
AcDbScale
 70
     0
300
3/32" = 1'-0"
140
0.09375
141
12.0
290
     0
  0
SCALE
  5
5E
102
{ACAD_REACTORS
330
47
102
}
330
47
100
AcDbScale
 70
     0
300
1/8" = 1'-0"
140
0.125
141
12.0
290
     0
  0
SCALE
  5
5F
102
{ACAD_REACTORS
330
47
102
}
330
47
100
AcDbScale
 70
     0
300
3/16" = 1'-0"
140
0.1875
141
12.0
290
     0
  0
SCALE
  5
60
102
{ACAD_REACTORS
330
47
102
}
330
47
100
AcDbScale
 70
     0
300
1/4" = 1'-0"
140
0.25
141
12.0
290
     0
  0
SCALE
  5
61
102
{ACAD_REACTORS
330
47
102
}
330
47
100
AcDbScale
 70
     0
300
3/8" = 1'-0"
140
0.375
141
12.0
290
     0
  0
SCALE
  5
62
102
{ACAD_REACTORS
330
47
102
}
330
47
100
AcDbScale
 70
     0
300
1/2" = 1'-0"
140
0.5
141
12.0
290
     0
  0
SCALE
  5
63
102
{ACAD_REACTORS
330
47
102
}
330
47
100
AcDbScale
 70
     0
300
3/4" = 1'-0"
140
0.75
141
12.0
290
     0
  0
SCALE
  5
64
102
{ACAD_REACTORS
330
47
102
}
330
47
100
AcDbScale
 70
     0
300
1" = 1'-0"
140
1.0
141
12.0
290
     0
  0
SCALE
  5
65
102
{ACAD_REACTORS
330
47
102
}
330
47
100
AcDbScale
 70
     0
300
1-1/2" = 1'-0"
140
1.5
141
12.0
290
     0
  0
SCALE
  5
66
102
{ACAD_REACTORS
330
47
102
}
330
47
100
AcDbScale
 70
     0
300
3" = 1'-0"
140
3.0
141
12.0
290
     0
  0
SCALE
  5
67
102
{ACAD_REACTORS
330
47
102
}
330
47
100
AcDbScale
 70
     0
300
6" = 1'-0"
140
6.0
141
12.0
290
     0
  0
SCALE
  5
68
102
{ACAD_REACTORS
330
47
102
}
330
47
100
AcDbScale
 70
     0
300
1'-0" = 1'-0"
140
12.0
141
12.0
290
     0
  0
ENDSEC
  0
EOF
