  0
SECTION
  2
HEADER
  9
$ACADVER
  1
AC1015
  9
$ACADMAINTVER
 70
     6
  9
$DWGCODEPAGE
  3
ANSI_949
  9
$INSBASE
 10
0.0
 20
0.0
 30
0.0
  9
$EXTMIN
 10
-54.0625000000001
 20
-49.97180738881174
 30
0.0
  9
$EXTMAX
 10
96.20662503295505
 20
37.61649999999996
 30
0.0
  9
$LIMMIN
 10
0.0
 20
0.0
  9
$LIMMAX
 10
420.0
 20
297.0
  9
$ORTHOMODE
 70
     1
  9
$REGENMODE
 70
     1
  9
$FILLMODE
 70
     1
  9
$QTEXTMODE
 70
     0
  9
$MIRRTEXT
 70
     1
  9
$LTSCALE
 40
1.0
  9
$ATTMODE
 70
     1
  9
$TEXTSIZE
 40
3.5
  9
$TRACEWID
 40
1.0
  9
$TEXTSTYLE
  7
Standard
  9
$CLAYER
  8
0
  9
$CELTYPE
  6
ByLayer
  9
$CECOLOR
 62
   256
  9
$CELTSCALE
 40
1.0
  9
$DISPSILH
 70
     0
  9
$DIMSCALE
 40
1.0
  9
$DIMASZ
 40
3.302
  9
$DIMEXO
 40
1.0
  9
$DIMDLI
 40
3.75
  9
$DIMRND
 40
0.0
  9
$DIMDLE
 40
0.0
  9
$DIMEXE
 40
1.0
  9
$DIMTP
 40
0.0
  9
$DIMTM
 40
0.0
  9
$DIMTXT
 40
3.5
  9
$DIMCEN
 40
2.5
  9
$DIMTSZ
 40
0.0
  9
$DIMTOL
 70
     0
  9
$DIMLIM
 70
     0
  9
$DIMTIH
 70
     1
  9
$DIMTOH
 70
     1
  9
$DIMSE1
 70
     0
  9
$DIMSE2
 70
     0
  9
$DIMTAD
 70
     1
  9
$DIMZIN
 70
     0
  9
$DIMBLK
  1

  9
$DIMASO
 70
     1
  9
$DIMSHO
 70
     1
  9
$DIMPOST
  1

  9
$DIMAPOST
  1

  9
$DIMALT
 70
     0
  9
$DIMALTD
 70
     3
  9
$DIMALTF
 40
0.0393700787401575
  9
$DIMLFAC
 40
1.0
  9
$DIMTOFL
 70
     1
  9
$DIMTVP
 40
0.0
  9
$DIMTIX
 70
     0
  9
$DIMSOXD
 70
     0
  9
$DIMSAH
 70
     0
  9
$DIMBLK1
  1

  9
$DIMBLK2
  1

  9
$DIMSTYLE
  2
ISO-25
  9
$DIMCLRD
 70
     0
  9
$DIMCLRE
 70
     0
  9
$DIMCLRT
 70
     0
  9
$DIMTFAC
 40
1.0
  9
$DIMGAP
 40
1.524
  9
$DIMJUST
 70
     0
  9
$DIMSD1
 70
     0
  9
$DIMSD2
 70
     0
  9
$DIMTOLJ
 70
     0
  9
$DIMTZIN
 70
     0
  9
$DIMALTZ
 70
     0
  9
$DIMALTTZ
 70
     0
  9
$DIMUPT
 70
     0
  9
$DIMDEC
 70
     2
  9
$DIMTDEC
 70
     2
  9
$DIMALTU
 70
     2
  9
$DIMALTTD
 70
     3
  9
$DIMTXSTY
  7
Standard
  9
$DIMAUNIT
 70
     0
  9
$DIMADEC
 70
     2
  9
$DIMALTRND
 40
0.0
  9
$DIMAZIN
 70
     0
  9
$DIMDSEP
 70
    44
  9
$DIMATFIT
 70
     3
  9
$DIMFRAC
 70
     0
  9
$DIMLDRBLK
  1

  9
$DIMLUNIT
 70
     2
  9
$DIMLWD
 70
    -2
  9
$DIMLWE
 70
    -2
  9
$DIMTMOVE
 70
     0
  9
$LUNITS
 70
     2
  9
$LUPREC
 70
     2
  9
$SKETCHINC
 40
1.0
  9
$FILLETRAD
 40
10.0
  9
$AUNITS
 70
     0
  9
$AUPREC
 70
     2
  9
$MENU
  1
.
  9
$ELEVATION
 40
0.0
  9
$PELEVATION
 40
0.0
  9
$THICKNESS
 40
0.0
  9
$LIMCHECK
 70
     0
  9
$CHAMFERA
 40
0.0
  9
$CHAMFERB
 40
0.0
  9
$CHAMFERC
 40
0.0
  9
$CHAMFERD
 40
0.0
  9
$SKPOLY
 70
     0
  9
$TDCREATE
 40
2458313.397158785
  9
$TDUCREATE
 40
2458313.022158785
  9
$TDUPDATE
 40
2458324.489070104
  9
$TDUUPDATE
 40
2458324.114070104
  9
$TDINDWG
 40
0.0031577315
  9
$TDUSRTIMER
 40
0.000714456
  9
$USRTIMER
 70
     1
  9
$ANGBASE
 50
0.0
  9
$ANGDIR
 70
     0
  9
$PDMODE
 70
     0
  9
$PDSIZE
 40
-1.0
  9
$PLINEWID
 40
0.0
  9
$SPLFRAME
 70
     0
  9
$SPLINETYPE
 70
     6
  9
$SPLINESEGS
 70
     8
  9
$HANDSEED
  5
2B1
  9
$SURFTAB1
 70
     6
  9
$SURFTAB2
 70
     6
  9
$SURFTYPE
 70
     6
  9
$SURFU
 70
     6
  9
$SURFV
 70
     6
  9
$UCSBASE
  2

  9
$UCSNAME
  2

  9
$UCSORG
 10
0.0
 20
0.0
 30
0.0
  9
$UCSXDIR
 10
1.0
 20
0.0
 30
0.0
  9
$UCSYDIR
 10
0.0
 20
1.0
 30
0.0
  9
$UCSORTHOREF
  2

  9
$UCSORTHOVIEW
 70
     0
  9
$UCSORGTOP
 10
0.0
 20
0.0
 30
0.0
  9
$UCSORGBOTTOM
 10
0.0
 20
0.0
 30
0.0
  9
$UCSORGLEFT
 10
0.0
 20
0.0
 30
0.0
  9
$UCSORGRIGHT
 10
0.0
 20
0.0
 30
0.0
  9
$UCSORGFRONT
 10
0.0
 20
0.0
 30
0.0
  9
$UCSORGBACK
 10
0.0
 20
0.0
 30
0.0
  9
$PUCSBASE
  2

  9
$PUCSNAME
  2

  9
$PUCSORG
 10
0.0
 20
0.0
 30
0.0
  9
$PUCSXDIR
 10
1.0
 20
0.0
 30
0.0
  9
$PUCSYDIR
 10
0.0
 20
1.0
 30
0.0
  9
$PUCSORTHOREF
  2

  9
$PUCSORTHOVIEW
 70
     0
  9
$PUCSORGTOP
 10
0.0
 20
0.0
 30
0.0
  9
$PUCSORGBOTTOM
 10
0.0
 20
0.0
 30
0.0
  9
$PUCSORGLEFT
 10
0.0
 20
0.0
 30
0.0
  9
$PUCSORGRIGHT
 10
0.0
 20
0.0
 30
0.0
  9
$PUCSORGFRONT
 10
0.0
 20
0.0
 30
0.0
  9
$PUCSORGBACK
 10
0.0
 20
0.0
 30
0.0
  9
$USERI1
 70
     0
  9
$USERI2
 70
     0
  9
$USERI3
 70
     0
  9
$USERI4
 70
     0
  9
$USERI5
 70
     0
  9
$USERR1
 40
0.0
  9
$USERR2
 40
0.0
  9
$USERR3
 40
0.0
  9
$USERR4
 40
0.0
  9
$USERR5
 40
0.0
  9
$WORLDVIEW
 70
     1
  9
$SHADEDGE
 70
     3
  9
$SHADEDIF
 70
    70
  9
$TILEMODE
 70
     1
  9
$MAXACTVP
 70
    64
  9
$PINSBASE
 10
0.0
 20
0.0
 30
0.0
  9
$PLIMCHECK
 70
     0
  9
$PEXTMIN
 10
1.000000000000000E+20
 20
1.000000000000000E+20
 30
1.000000000000000E+20
  9
$PEXTMAX
 10
-1.000000000000000E+20
 20
-1.000000000000000E+20
 30
-1.000000000000000E+20
  9
$PLIMMIN
 10
0.0
 20
0.0
  9
$PLIMMAX
 10
0.0
 20
0.0
  9
$UNITMODE
 70
     0
  9
$VISRETAIN
 70
     1
  9
$PLINEGEN
 70
     0
  9
$PSLTSCALE
 70
     1
  9
$TREEDEPTH
 70
  3020
  9
$CMLSTYLE
  2
Standard
  9
$CMLJUST
 70
     0
  9
$CMLSCALE
 40
20.0
  9
$PROXYGRAPHICS
 70
     1
  9
$MEASUREMENT
 70
     1
  9
$CELWEIGHT
370
    -1
  9
$ENDCAPS
280
     0
  9
$JOINSTYLE
280
     0
  9
$LWDISPLAY
290
     1
  9
$INSUNITS
 70
     4
  9
$HYPERLINKBASE
  1

  9
$STYLESHEET
  1

  9
$XEDIT
290
     1
  9
$CEPSNTYPE
380
     0
  9
$PSTYLEMODE
290
     1
  9
$FINGERPRINTGUID
  2
{05879838-6529-4CA2-A163-47FA60C9CBD1}
  9
$VERSIONGUID
  2
{FAEB1C32-E019-11D5-929B-00C0DF256EC4}
  9
$EXTNAMES
290
     1
  9
$PSVPSCALE
 40
0.0
  9
$OLESTARTUP
290
     0
  0
ENDSEC
  0
SECTION
  2
CLASSES
  0
CLASS
  1
ACDBDICTIONARYWDFLT
  2
AcDbDictionaryWithDefault
  3
ObjectDBX Classes
 90
        0
280
     0
281
     0
  0
CLASS
  1
VISUALSTYLE
  2
AcDbVisualStyle
  3
ObjectDBX Classes
 90
     4095
280
     0
281
     0
  0
CLASS
  1
MATERIAL
  2
AcDbMaterial
  3
ObjectDBX Classes
 90
     1153
280
     0
281
     0
  0
CLASS
  1
SCALE
  2
AcDbScale
  3
ObjectDBX Classes
 90
     1153
280
     0
281
     0
  0
CLASS
  1
SUN
  2
AcDbSun
  3
SCENEOE
 90
     1153
280
     0
281
     0
  0
CLASS
  1
ACDBPLACEHOLDER
  2
AcDbPlaceHolder
  3
ObjectDBX Classes
 90
        0
280
     0
281
     0
  0
CLASS
  1
LAYOUT
  2
AcDbLayout
  3
ObjectDBX Classes
 90
        0
280
     0
281
     0
  0
CLASS
  1
TABLESTYLE
  2
AcDbTableStyle
  3
ObjectDBX Classes
 90
     4095
280
     0
281
     0
  0
CLASS
  1
MLEADERSTYLE
  2
AcDbMLeaderStyle
  3
ACDB_MLEADERSTYLE_CLASS
 90
     4095
280
     0
281
     0
  0
CLASS
  1
DICTIONARYVAR
  2
AcDbDictionaryVar
  3
ObjectDBX Classes
 90
        0
280
     0
281
     0
  0
CLASS
  1
SORTENTSTABLE
  2
AcDbSortentsTable
  3
ObjectDBX Classes
 90
        0
280
     0
281
     0
  0
ENDSEC
  0
SECTION
  2
TABLES
  0
TABLE
  2
VPORT
  5
8
330
0
100
AcDbSymbolTable
 70
     1
  0
VPORT
  5
29
330
8
100
AcDbSymbolTableRecord
100
AcDbViewportTableRecord
  2
*Active
 70
     0
 10
0.0
 20
0.0
 11
1.0
 21
1.0
 12
21.07206251647749
 22
-6.17765369440589
 13
0.0
 23
0.0
 14
10.0
 24
10.0
 15
10.0
 25
10.0
 16
0.0
 26
0.0
 36
1.0
 17
0.0
 27
0.0
 37
0.0
 40
89.34007353658794
 41
1.782762691853601
 42
50.0
 43
0.0
 44
0.0
 50
0.0
 51
0.0
 71
    16
 72
  2000
 73
     1
 74
     3
 75
     0
 76
     0
 77
     0
 78
     0
281
     0
 65
     1
110
0.0
120
0.0
130
0.0
111
1.0
121
0.0
131
0.0
112
0.0
122
1.0
132
0.0
 79
     0
146
0.0
  0
ENDTAB
  0
TABLE
  2
LTYPE
  5
5
330
0
100
AcDbSymbolTable
 70
     6
  0
LTYPE
  5
14
330
5
100
AcDbSymbolTableRecord
100
AcDbLinetypeTableRecord
  2
ByBlock
 70
     0
  3

 72
    65
 73
     0
 40
0.0
  0
LTYPE
  5
15
330
5
100
AcDbSymbolTableRecord
100
AcDbLinetypeTableRecord
  2
ByLayer
 70
     0
  3

 72
    65
 73
     0
 40
0.0
  0
LTYPE
  5
16
330
5
100
AcDbSymbolTableRecord
100
AcDbLinetypeTableRecord
  2
Continuous
 70
     0
  3
Solid line
 72
    65
 73
     0
 40
0.0
  0
LTYPE
  5
6A
330
5
100
AcDbSymbolTableRecord
100
AcDbLinetypeTableRecord
  2
HIDDEN
 70
     0
  3
Hidden __ __ __ __ __ __ __ __ __ __ __ __ __ __
 72
    65
 73
     2
 40
1.905
 49
1.27
 74
     0
 49
-0.635
 74
     0
  0
LTYPE
  5
6B
330
5
100
AcDbSymbolTableRecord
100
AcDbLinetypeTableRecord
  2
PHANTOM
 70
     0
  3
Phantom ______  __  __  ______  __  __  ______
 72
    65
 73
     6
 40
12.7
 49
6.35
 74
     0
 49
-1.27
 74
     0
 49
1.27
 74
     0
 49
-1.27
 74
     0
 49
1.27
 74
     0
 49
-1.27
 74
     0
  0
LTYPE
  5
6C
330
5
100
AcDbSymbolTableRecord
100
AcDbLinetypeTableRecord
  2
CENTER
 70
     0
  3
Center ____ _ ____ _ ____ _ ____ _ ____ _ ____
 72
    65
 73
     4
 40
10.16
 49
6.35
 74
     0
 49
-1.27
 74
     0
 49
1.27
 74
     0
 49
-1.27
 74
     0
  0
LTYPE
  5
6D
330
5
100
AcDbSymbolTableRecord
100
AcDbLinetypeTableRecord
  2
CENTERX2
 70
     0
  3
Center (2x) ________  __  ________  __  _____
 72
    65
 73
     4
 40
20.32
 49
12.7
 74
     0
 49
-2.54
 74
     0
 49
2.54
 74
     0
 49
-2.54
 74
     0
  0
LTYPE
  5
6E
330
5
100
AcDbSymbolTableRecord
100
AcDbLinetypeTableRecord
  2
DOT2
 70
     0
  3
Dot (.5x) ........................................
 72
    65
 73
     2
 40
0.635
 49
0.0
 74
     0
 49
-0.635
 74
     0
  0
ENDTAB
  0
TABLE
  2
LAYER
  5
2
102
{ACAD_XDICTIONARY
360
188
102
}
330
0
100
AcDbSymbolTable
 70
    18
  0
LAYER
  5
10
330
2
100
AcDbSymbolTableRecord
100
AcDbLayerTableRecord
  2
0
 70
     0
 62
     7
  6
Continuous
370
    -3
390
F
  0
LAYER
  5
6F
330
2
100
AcDbSymbolTableRecord
100
AcDbLayerTableRecord
  2
FORMAT
 70
     0
 62
     2
  6
Continuous
370
    -3
390
F
  0
LAYER
  5
70
330
2
100
AcDbSymbolTableRecord
100
AcDbLayerTableRecord
  2
외형선
 70
     0
 62
     4
  6
Continuous
370
    30
390
F
  0
LAYER
  5
71
330
2
100
AcDbSymbolTableRecord
100
AcDbLayerTableRecord
  2
숨은선
 70
     0
 62
     2
  6
HIDDEN
370
    15
390
F
  0
LAYER
  5
72
330
2
100
AcDbSymbolTableRecord
100
AcDbLayerTableRecord
  2
중심선
 70
     0
 62
     1
  6
CENTERX2
370
    -3
390
F
  0
LAYER
  5
73
330
2
100
AcDbSymbolTableRecord
100
AcDbLayerTableRecord
  2
파단선
 70
     0
 62
     4
  6
Continuous
370
    -3
390
F
  0
LAYER
  5
74
330
2
100
AcDbSymbolTableRecord
100
AcDbLayerTableRecord
  2
해칭선
 70
     0
 62
   100
  6
Continuous
370
    -3
390
F
  0
LAYER
  5
75
330
2
100
AcDbSymbolTableRecord
100
AcDbLayerTableRecord
  2
가는실선
 70
     0
 62
     4
  6
Continuous
370
    -3
390
F
  0
LAYER
  5
76
330
2
100
AcDbSymbolTableRecord
100
AcDbLayerTableRecord
  2
치수_보조선
 70
     0
 62
     4
  6
Continuous
370
    -3
390
F
  0
LAYER
  5
77
330
2
100
AcDbSymbolTableRecord
100
AcDbLayerTableRecord
  2
치수문자_일반주서
 70
     0
 62
     7
  6
Continuous
370
    15
390
F
  0
LAYER
  5
78
330
2
100
AcDbSymbolTableRecord
100
AcDbLayerTableRecord
  2
개별주서
 70
     0
 62
   100
  6
Continuous
370
    30
390
F
  0
LAYER
  5
79
330
2
100
AcDbSymbolTableRecord
100
AcDbLayerTableRecord
  2
중간선
 70
     0
 62
     2
  6
Continuous
370
    15
390
F
  0
LAYER
  5
7A
330
2
100
AcDbSymbolTableRecord
100
AcDbLayerTableRecord
  2
윤곽선
 70
     0
 62
     3
  6
Continuous
370
    40
390
F
  0
LAYER
  5
7B
330
2
100
AcDbSymbolTableRecord
100
AcDbLayerTableRecord
  2
중심마크
 70
     0
 62
   100
  6
Continuous
370
    30
390
F
  0
LAYER
  5
7C
330
2
100
AcDbSymbolTableRecord
100
AcDbLayerTableRecord
  2
가상선
 70
     0
 62
     4
  6
PHANTOM
370
    -3
390
F
  0
LAYER
  5
7D
330
2
100
AcDbSymbolTableRecord
100
AcDbLayerTableRecord
  2
특수지정선
 70
     0
 62
     5
  6
CENTERX2
370
    60
390
F
  0
LAYER
  5
7E
330
2
100
AcDbSymbolTableRecord
100
AcDbLayerTableRecord
  2
참조1
 70
     0
 62
    -4
  6
Continuous
370
    -3
390
F
  0
LAYER
  5
151
330
2
100
AcDbSymbolTableRecord
100
AcDbLayerTableRecord
  2
Defpoints
 70
     0
 62
     7
  6
Continuous
290
     0
370
    -3
390
F
  0
ENDTAB
  0
TABLE
  2
STYLE
  5
3
330
0
100
AcDbSymbolTable
 70
     2
  0
STYLE
  5
11
330
3
100
AcDbSymbolTableRecord
100
AcDbTextStyleTableRecord
  2
Standard
 70
     0
 40
0.0
 41
1.0
 50
0.0
 71
     0
 42
3.5
  3
txt
  4

  0
STYLE
  5
94
330
3
100
AcDbSymbolTableRecord
100
AcDbTextStyleTableRecord
  2
SLDTEXTSTYLE0
 70
     0
 40
0.0
 41
0.75
 50
0.0
 71
     0
 42
3.5
  3
TXT
  4

  0
ENDTAB
  0
TABLE
  2
VIEW
  5
6
330
0
100
AcDbSymbolTable
 70
     0
  0
ENDTAB
  0
TABLE
  2
UCS
  5
7
330
0
100
AcDbSymbolTable
 70
     0
  0
ENDTAB
  0
TABLE
  2
APPID
  5
9
330
0
100
AcDbSymbolTable
 70
     2
  0
APPID
  5
12
330
9
100
AcDbSymbolTableRecord
100
AcDbRegAppTableRecord
  2
ACAD
 70
     0
  0
APPID
  5
158
330
9
100
AcDbSymbolTableRecord
100
AcDbRegAppTableRecord
  2
PE_URL
 70
     0
  0
ENDTAB
  0
TABLE
  2
DIMSTYLE
  5
A
330
0
100
AcDbSymbolTable
 70
     3
100
AcDbDimStyleTable
  0
DIMSTYLE
105
27
330
A
100
AcDbSymbolTableRecord
100
AcDbDimStyleTableRecord
  2
ISO-25
 70
     0
 41
2.5
 42
0.625
 43
3.75
 44
1.25
 73
     0
 74
     0
 77
     1
 78
     8
140
2.5
141
2.5
143
0.03937007874016
147
0.625
171
     3
172
     1
178
     0
271
     2
272
     2
274
     3
278
    44
283
     0
284
     8
340
11
  0
DIMSTYLE
105
D1
102
{ACAD_REACTORS
330
D0
330
E5
330
F9
330
10D
102
}
330
A
100
AcDbSymbolTableRecord
100
AcDbDimStyleTableRecord
  2
SLDDIMSTYLE0
 70
     0
 41
3.302
 44
0.0
 45
0.000000001
 73
     0
 74
     0
 77
     1
 78
    12
 79
     3
140
3.5
143
0.0393700787401575
147
0.875
148
0.000000001
170
     1
172
     1
173
     1
178
     0
271
     2
272
     2
276
     2
284
    12
289
     0
340
94
  0
DIMSTYLE
105
E6
330
A
100
AcDbSymbolTableRecord
100
AcDbDimStyleTableRecord
  2
SLDDIMSTYLE1
 70
     0
 41
3.302
 44
0.0
 45
0.000000001
 73
     0
 74
     0
 77
     1
 78
    12
 79
     3
140
3.5
143
0.0393700787401575
147
0.875
148
0.000000001
170
     1
173
     1
178
     0
271
     2
272
     2
276
     2
284
    12
340
94
  0
ENDTAB
  0
TABLE
  2
BLOCK_RECORD
  5
1
330
0
100
AcDbSymbolTable
 70
     9
  0
BLOCK_RECORD
  5
1F
102
{ACAD_XDICTIONARY
360
237
102
}
330
1
100
AcDbSymbolTableRecord
100
AcDbBlockTableRecord
  2
*Model_Space
340
22
  0
BLOCK_RECORD
  5
1B
330
1
100
AcDbSymbolTableRecord
100
AcDbBlockTableRecord
  2
*Paper_Space
340
1E
  0
BLOCK_RECORD
  5
23
330
1
100
AcDbSymbolTableRecord
100
AcDbBlockTableRecord
  2
*Paper_Space0
340
26
  0
BLOCK_RECORD
  5
7F
330
1
100
AcDbSymbolTableRecord
100
AcDbBlockTableRecord
  2
블럭10
340
0
102
{BLKREFS
331
C9
102
}
  0
BLOCK_RECORD
  5
D2
330
1
100
AcDbSymbolTableRecord
100
AcDbBlockTableRecord
  2
_D
340
0
  0
BLOCK_RECORD
  5
E7
330
1
100
AcDbSymbolTableRecord
100
AcDbBlockTableRecord
  2
_D_1
340
0
  0
BLOCK_RECORD
  5
FA
330
1
100
AcDbSymbolTableRecord
100
AcDbBlockTableRecord
  2
_D_2
340
0
  0
BLOCK_RECORD
  5
10E
330
1
100
AcDbSymbolTableRecord
100
AcDbBlockTableRecord
  2
_D_3
340
0
  0
BLOCK_RECORD
  5
127
330
1
100
AcDbSymbolTableRecord
100
AcDbBlockTableRecord
  2
SW_DOWELSYMBOL_0
340
0
102
{BLKREFS
331
12D
102
}
  0
BLOCK_RECORD
  5
18C
330
1
100
AcDbSymbolTableRecord
100
AcDbBlockTableRecord
  2
*D7
340
0
  0
BLOCK_RECORD
  5
19E
330
1
100
AcDbSymbolTableRecord
100
AcDbBlockTableRecord
  2
*D8
340
0
  0
ENDTAB
  0
ENDSEC
  0
SECTION
  2
BLOCKS
  0
BLOCK
  5
20
330
1F
100
AcDbEntity
  8
0
100
AcDbBlockBegin
  2
*Model_Space
 70
     0
 10
0.0
 20
0.0
 30
0.0
  3
*Model_Space
  1

  0
ENDBLK
  5
21
330
1F
100
AcDbEntity
  8
0
100
AcDbBlockEnd
  0
BLOCK
  5
1C
330
1B
100
AcDbEntity
 67
     1
  8
0
100
AcDbBlockBegin
  2
*Paper_Space
 70
     0
 10
0.0
 20
0.0
 30
0.0
  3
*Paper_Space
  1

  0
ENDBLK
  5
1D
330
1B
100
AcDbEntity
 67
     1
  8
0
100
AcDbBlockEnd
  0
BLOCK
  5
24
330
23
100
AcDbEntity
  8
0
100
AcDbBlockBegin
  2
*Paper_Space0
 70
     0
 10
0.0
 20
0.0
 30
0.0
  3
*Paper_Space0
  1

  0
ENDBLK
  5
25
330
23
100
AcDbEntity
  8
0
100
AcDbBlockEnd
  0
BLOCK
  5
80
330
7F
100
AcDbEntity
  8
0
100
AcDbBlockBegin
  2
블럭10
 70
     2
 10
0.0
 20
0.0
 30
0.0
  3
블럭10
  1

  0
ELLIPSE
  5
82
330
7F
100
AcDbEntity
  8
중심선
100
AcDbEllipse
 10
20.54032771741204
 20
12.0471743016438
 30
0.0
 11
6.600054785286829
 21
-1.261213355974178E-13
 31
0.0
210
0.0
220
0.0
230
1.0
 40
0.636358354079598
 41
0.9219305317359503
 42
6.513795318482858
  0
ELLIPSE
  5
83
330
7F
100
AcDbEntity
  8
중심선
100
AcDbEllipse
 10
20.54032771746488
 20
12.04717430159265
 30
0.0
 11
3.960054785062283
 21
1.540847449632565E-10
 31
0.0
210
0.0
220
0.0
230
1.0
 40
0.3939339440162632
 41
1.131841032648279
 42
5.62031148352944
  0
LINE
  5
84
330
7F
100
AcDbEntity
  8
중심선
100
AcDbLine
 10
2.268634060543552
 20
16.24717430164393
 30
0.0
 11
5.714909304380834
 21
16.24717430164393
 31
0.0
  0
LINE
  5
85
330
7F
100
AcDbEntity
  8
중심선
100
AcDbLine
 10
5.245725140726316
 20
7.84717430164391
 30
0.0
 11
8.692000384563599
 21
7.84717430164391
 31
0.0
  0
LINE
  5
86
330
7F
100
AcDbEntity
  8
중심선
100
AcDbLine
 10
15.74043728645272
 20
16.24717430164393
 30
0.0
 11
8.692000384563599
 21
7.84717430164391
 31
0.0
  0
LINE
  5
87
330
7F
100
AcDbEntity
  8
중심선
100
AcDbLine
 10
0.1404042013395286
 20
13.71084872107135
 30
0.0
 11
3.58671253028996
 21
13.71088815037384
 31
0.0
  0
LINE
  5
88
330
7F
100
AcDbEntity
  8
중심선
100
AcDbLine
 10
2.750260043222114
 20
10.84717430164391
 30
0.0
 11
6.196535287059397
 21
10.84717430164391
 31
0.0
  0
LINE
  5
89
330
7F
100
AcDbEntity
  8
중심선
100
AcDbLine
 10
12.29416204261559
 20
16.24717430164393
 30
0.0
 11
5.245725140726316
 21
7.84717430164391
 31
0.0
  0
LINE
  5
8A
330
7F
100
AcDbEntity
  8
중심선
100
AcDbLine
 10
10.72767329541681
 20
16.24717430164393
 30
0.0
 11
6.196535287059397
 21
10.84717430164391
 31
0.0
  0
LINE
  5
8B
330
7F
100
AcDbEntity
  8
중심선
100
AcDbLine
 10
7.28139805157953
 20
16.24717430164393
 30
0.0
 11
2.750260043222114
 21
10.84717430164391
 31
0.0
  0
LINE
  5
8C
330
7F
100
AcDbEntity
  8
중심선
100
AcDbLine
 10
5.714909304380834
 20
16.24717430164393
 30
0.0
 11
3.58671253028996
 21
13.71088815037384
 31
0.0
  0
LINE
  5
8D
330
7F
100
AcDbEntity
  8
중심선
100
AcDbLine
 10
2.268634060543552
 20
16.24717430164393
 30
0.0
 11
0.1404042013395286
 21
13.71084872107135
 31
0.0
  0
LINE
  5
8E
330
7F
100
AcDbEntity
  8
중심선
100
AcDbLine
 10
7.28139805157953
 20
16.24717430164393
 30
0.0
 11
10.72767329541681
 21
16.24717430164393
 31
0.0
  0
LINE
  5
8F
330
7F
100
AcDbEntity
  8
중심선
100
AcDbLine
 10
12.29416204261559
 20
16.24717430164393
 30
0.0
 11
15.74043728645272
 21
16.24717430164393
 31
0.0
  0
LINE
  5
90
330
7F
100
AcDbEntity
  8
중심선
100
AcDbLine
 10
19.22036997980202
 20
11.08717430171403
 30
0.0
 11
23.66174974927406
 21
11.08717430171406
 31
0.0
  0
LINE
  5
91
330
7F
100
AcDbEntity
  8
중심선
100
AcDbLine
 10
19.22039502424796
 20
13.00717430171391
 30
0.0
 11
19.22036997980202
 21
11.08717430171403
 31
0.0
  0
LINE
  5
92
330
7F
100
AcDbEntity
  8
중심선
100
AcDbLine
 10
19.22039502424796
 20
13.00717430171391
 30
0.0
 11
26.96566020931264
 21
13.00717430171391
 31
0.0
  0
LINE
  5
93
330
7F
100
AcDbEntity
  8
중심선
100
AcDbLine
 10
22.22332737316547
 20
13.45928029700563
 30
0.0
 11
24.52862924686651
 21
15.39360700705356
 31
0.0
  0
ATTDEF
  5
95
330
7F
100
AcDbEntity
  8
FORMAT
 62
     2
100
AcDbText
 10
4.408487351596664
 20
2.075366912832191
 30
0.0
 40
4.233333333333333
  1
E1050024
 41
0.75
  7
SLDTEXTSTYLE0
 11
4.408487351596664
 21
-0.0412997538344756
 31
0.0
100
AcDbAttributeDefinition
  3

  2
AUTOATTR0
 70
     0
 74
     1
  0
ENDBLK
  5
81
330
7F
100
AcDbEntity
  8
0
100
AcDbBlockEnd
  0
BLOCK
  5
D3
330
D2
100
AcDbEntity
  8
0
100
AcDbBlockBegin
  2
_D
 70
     0
 10
0.0
 20
0.0
 30
0.0
  3
_D
  1

  0
LINE
  5
D5
330
D2
100
AcDbEntity
  8
치수문자_일반주서
 62
     0
370
    -2
100
AcDbLine
 10
-23.9424785006313
 20
4.762499999999996
 30
0.0
 11
-49.68749999999999
 21
4.7624999999999
 31
0.0
  0
LINE
  5
D6
330
D2
100
AcDbEntity
  8
치수문자_일반주서
 62
     0
370
    -2
100
AcDbLine
 10
-23.94247850063129
 20
-4.762500000000003
 30
0.0
 11
-49.68749999999996
 21
-4.762500000000099
 31
0.0
  0
LINE
  5
D7
330
D2
100
AcDbEntity
  8
치수문자_일반주서
 62
     0
370
    -2
100
AcDbLine
 10
-49.68749999999999
 20
4.7624999999999
 30
0.0
 11
-49.68750000000011
 21
37.61649999999996
 31
0.0
  0
LINE
  5
D8
330
D2
100
AcDbEntity
  8
치수문자_일반주서
 62
     0
370
    -2
100
AcDbLine
 10
-49.68749999999999
 20
4.7624999999999
 30
0.0
 11
-49.68749999999996
 21
-4.762500000000099
 31
0.0
  0
LINE
  5
D9
330
D2
100
AcDbEntity
  8
치수문자_일반주서
 62
     0
370
    -2
100
AcDbLine
 10
-49.68750000000001
 20
8.0644999999999
 30
0.0
 11
-49.68750000000002
 21
11.3664999999999
 31
0.0
  0
LINE
  5
DA
330
D2
100
AcDbEntity
  8
치수문자_일반주서
 62
     0
370
    -2
100
AcDbLine
 10
-49.68749999999994
 20
-8.064500000000098
 30
0.0
 11
-49.68749999999993
 21
-11.3665000000001
 31
0.0
  0
SOLID
  5
DB
330
D2
100
AcDbEntity
  8
치수문자_일반주서
 62
     0
100
AcDbTrace
 10
-50.23783333333334
 20
8.064499999999898
 30
0.0
 11
-49.13716666666667
 21
8.064499999999901
 31
0.0
 12
-49.68749999999999
 22
4.7624999999999
 32
0.0
 13
-49.68749999999999
 23
4.7624999999999
 33
0.0
  0
SOLID
  5
DC
330
D2
100
AcDbEntity
  8
치수문자_일반주서
 62
     0
100
AcDbTrace
 10
-49.13716666666661
 20
-8.064500000000097
 30
0.0
 11
-50.23783333333328
 21
-8.0645000000001
 31
0.0
 12
-49.68749999999996
 22
-4.762500000000099
 32
0.0
 13
-49.68749999999996
 23
-4.762500000000099
 33
0.0
  0
MTEXT
  5
DD
330
D2
100
AcDbEntity
  8
치수문자_일반주서
 62
     0
100
AcDbMText
 10
-54.06250000000006
 20
24.49149999999995
 30
0.0
 40
3.5
 41
0.0
 71
     2
 72
     1
  1
\A1;%%c9.53 [3/8]
  7
SLDTEXTSTYLE0
 11
-3.729883127349608E-15
 21
1.0
 31
0.0
 73
     1
 44
1.0
  0
POINT
  5
1E2
330
D2
100
AcDbEntity
  8
Defpoints
 62
     0
100
AcDbPoint
 10
-23.8799785006313
 20
4.762499999999996
 30
0.0
  0
POINT
  5
1E3
330
D2
100
AcDbEntity
  8
Defpoints
 62
     0
100
AcDbPoint
 10
-23.87997850063129
 20
-4.762500000000003
 30
0.0
  0
POINT
  5
1E4
330
D2
100
AcDbEntity
  8
Defpoints
 62
     0
100
AcDbPoint
 10
-49.68749999999996
 20
-4.7625000000001
 30
0.0
  0
ENDBLK
  5
D4
330
D2
100
AcDbEntity
  8
0
100
AcDbBlockEnd
  0
BLOCK
  5
E8
330
E7
100
AcDbEntity
  8
0
100
AcDbBlockBegin
  2
_D_1
 70
     0
 10
0.0
 20
0.0
 30
0.0
  3
_D_1
  1

  0
LINE
  5
EA
330
E7
100
AcDbEntity
  8
치수문자_일반주서
 62
     0
370
    -2
100
AcDbLine
 10
39.75000000000001
 20
-4.762499999999998
 30
0.0
 11
79.48114257109692
 21
-4.762499999999847
 31
0.0
  0
LINE
  5
EB
330
E7
100
AcDbEntity
  8
치수문자_일반주서
 62
     0
370
    -2
100
AcDbLine
 10
39.75000000000001
 20
4.762500000000001
 30
0.0
 11
79.4811425710969
 21
4.762500000000152
 31
0.0
  0
LINE
  5
EC
330
E7
100
AcDbEntity
  8
치수문자_일반주서
 62
     0
370
    -2
100
AcDbLine
 10
79.4811425710969
 20
4.762500000000152
 30
0.0
 11
79.4811425710968
 21
37.61650000000015
 31
0.0
  0
LINE
  5
ED
330
E7
100
AcDbEntity
  8
치수문자_일반주서
 62
     0
370
    -2
100
AcDbLine
 10
79.48114257109692
 20
-4.762499999999847
 30
0.0
 11
79.4811425710969
 21
4.762500000000152
 31
0.0
  0
LINE
  5
EE
330
E7
100
AcDbEntity
  8
치수문자_일반주서
 62
     0
370
    -2
100
AcDbLine
 10
79.48114257109694
 20
-8.064499999999846
 30
0.0
 11
79.48114257109695
 21
-11.36649999999985
 31
0.0
  0
LINE
  5
EF
330
E7
100
AcDbEntity
  8
치수문자_일반주서
 62
     0
370
    -2
100
AcDbLine
 10
79.48114257109688
 20
8.064500000000152
 30
0.0
 11
79.48114257109687
 21
11.36650000000015
 31
0.0
  0
SOLID
  5
F0
330
E7
100
AcDbEntity
  8
치수문자_일반주서
 62
     0
100
AcDbTrace
 10
80.03147590443027
 20
-8.064499999999844
 30
0.0
 11
78.93080923776361
 21
-8.064499999999848
 31
0.0
 12
79.48114257109692
 22
-4.762499999999847
 32
0.0
 13
79.48114257109692
 23
-4.762499999999847
 33
0.0
  0
SOLID
  5
F1
330
E7
100
AcDbEntity
  8
치수문자_일반주서
 62
     0
100
AcDbTrace
 10
78.93080923776355
 20
8.06450000000015
 30
0.0
 11
80.03147590443021
 21
8.064500000000153
 31
0.0
 12
79.4811425710969
 22
4.762500000000152
 32
0.0
 13
79.4811425710969
 23
4.762500000000152
 33
0.0
  0
MTEXT
  5
F2
330
E7
100
AcDbEntity
  8
치수문자_일반주서
 62
     0
100
AcDbMText
 10
75.10614257109684
 20
24.49150000000014
 30
0.0
 40
3.5
 41
0.0
 71
     2
 72
     1
  1
\A1;%%c9.53 [3/8]
  7
SLDTEXTSTYLE0
 11
-2.983906501879686E-15
 21
1.0
 31
0.0
 73
     1
 44
1.0
  0
POINT
  5
F3
330
E7
100
AcDbEntity
  8
Defpoints
 62
     0
100
AcDbPoint
 10
39.68750000000001
 20
-4.762499999999998
 30
0.0
  0
POINT
  5
F4
330
E7
100
AcDbEntity
  8
Defpoints
 62
     0
100
AcDbPoint
 10
39.68750000000001
 20
4.762500000000001
 30
0.0
  0
POINT
  5
F5
330
E7
100
AcDbEntity
  8
Defpoints
 62
     0
100
AcDbPoint
 10
79.4811425710969
 20
4.762500000000149
 30
0.0
  0
ENDBLK
  5
E9
330
E7
100
AcDbEntity
  8
0
100
AcDbBlockEnd
  0
BLOCK
  5
FB
330
FA
100
AcDbEntity
  8
0
100
AcDbBlockBegin
  2
_D_2
 70
     0
 10
0.0
 20
0.0
 30
0.0
  3
_D_2
  1

  0
LINE
  5
FD
330
FA
100
AcDbEntity
  8
치수문자_일반주서
 62
     0
370
    -2
100
AcDbLine
 10
39.68750000000001
 20
4.825000000000001
 30
0.0
 11
39.68750000000001
 21
14.7625
 31
0.0
  0
LINE
  5
FE
330
FA
100
AcDbEntity
  8
치수문자_일반주서
 62
     0
370
    -2
100
AcDbLine
 10
25.40000000000002
 20
3.828505315525992
 30
0.0
 11
25.40000000000002
 21
14.7625
 31
0.0
  0
LINE
  5
FF
330
FA
100
AcDbEntity
  8
치수문자_일반주서
 62
     0
370
    -2
100
AcDbLine
 10
39.68750000000001
 20
14.7625
 30
0.0
 11
73.41650000000001
 21
14.7625
 31
0.0
  0
LINE
  5
100
330
FA
100
AcDbEntity
  8
치수문자_일반주서
 62
     0
370
    -2
100
AcDbLine
 10
39.68750000000001
 20
14.7625
 30
0.0
 11
25.40000000000002
 21
14.7625
 31
0.0
  0
LINE
  5
101
330
FA
100
AcDbEntity
  8
치수문자_일반주서
 62
     0
370
    -2
100
AcDbLine
 10
42.98950000000001
 20
14.7625
 30
0.0
 11
46.29150000000001
 21
14.7625
 31
0.0
  0
LINE
  5
102
330
FA
100
AcDbEntity
  8
치수문자_일반주서
 62
     0
370
    -2
100
AcDbLine
 10
22.09800000000002
 20
14.7625
 30
0.0
 11
18.79600000000002
 21
14.7625
 31
0.0
  0
SOLID
  5
103
330
FA
100
AcDbEntity
  8
치수문자_일반주서
 62
     0
100
AcDbTrace
 10
42.98950000000001
 20
15.31283333333333
 30
0.0
 11
42.98950000000001
 21
14.21216666666667
 31
0.0
 12
39.68750000000001
 22
14.7625
 32
0.0
 13
39.68750000000001
 23
14.7625
 33
0.0
  0
SOLID
  5
104
330
FA
100
AcDbEntity
  8
치수문자_일반주서
 62
     0
100
AcDbTrace
 10
22.09800000000002
 20
14.21216666666667
 30
0.0
 11
22.09800000000002
 21
15.31283333333333
 31
0.0
 12
25.40000000000002
 22
14.7625
 32
0.0
 13
25.40000000000002
 23
14.7625
 33
0.0
  0
MTEXT
  5
105
330
FA
100
AcDbEntity
  8
치수문자_일반주서
 62
     0
100
AcDbMText
 10
59.85400000000001
 20
19.1375
 30
0.0
 40
3.5
 41
0.0
 71
     2
 72
     1
  1
\A1;14.29 [9/16]
  7
SLDTEXTSTYLE0
 73
     1
 44
1.0
  0
POINT
  5
106
330
FA
100
AcDbEntity
  8
Defpoints
 62
     0
100
AcDbPoint
 10
39.68750000000001
 20
4.762500000000001
 30
0.0
  0
POINT
  5
107
330
FA
100
AcDbEntity
  8
Defpoints
 62
     0
100
AcDbPoint
 10
25.40000000000002
 20
3.766005315525992
 30
0.0
  0
POINT
  5
108
330
FA
100
AcDbEntity
  8
Defpoints
 62
     0
100
AcDbPoint
 10
25.40000000000002
 20
14.7625
 30
0.0
  0
ENDBLK
  5
FC
330
FA
100
AcDbEntity
  8
0
100
AcDbBlockEnd
  0
BLOCK
  5
10F
330
10E
100
AcDbEntity
  8
0
100
AcDbBlockBegin
  2
_D_3
 70
     0
 10
0.0
 20
0.0
 30
0.0
  3
_D_3
  1

  0
LINE
  5
111
330
10E
100
AcDbEntity
  8
치수문자_일반주서
 62
     0
370
    -2
100
AcDbLine
 10
-39.68750000000002
 20
4.820974807531156
 30
0.0
 11
-39.68750000000002
 21
24.7625
 31
0.0
  0
LINE
  5
112
330
10E
100
AcDbEntity
  8
치수문자_일반주서
 62
     0
370
    -2
100
AcDbLine
 10
39.68750000000001
 20
4.825000000000001
 30
0.0
 11
39.68750000000001
 21
24.7625
 31
0.0
  0
LINE
  5
113
330
10E
100
AcDbEntity
  8
치수문자_일반주서
 62
     0
370
    -2
100
AcDbLine
 10
-36.38550000000002
 20
24.7625
 30
0.0
 11
36.38550000000001
 21
24.7625
 31
0.0
  0
SOLID
  5
114
330
10E
100
AcDbEntity
  8
치수문자_일반주서
 62
     0
100
AcDbTrace
 10
-36.38550000000002
 20
25.31283333333333
 30
0.0
 11
-36.38550000000002
 21
24.21216666666666
 31
0.0
 12
-39.68750000000002
 22
24.7625
 32
0.0
 13
-39.68750000000002
 23
24.7625
 33
0.0
  0
SOLID
  5
115
330
10E
100
AcDbEntity
  8
치수문자_일반주서
 62
     0
100
AcDbTrace
 10
36.38550000000001
 20
24.21216666666666
 30
0.0
 11
36.38550000000001
 21
25.31283333333333
 31
0.0
 12
39.68750000000001
 22
24.7625
 32
0.0
 13
39.68750000000001
 23
24.7625
 33
0.0
  0
MTEXT
  5
116
330
10E
100
AcDbEntity
  8
치수문자_일반주서
 62
     0
100
AcDbMText
 10
0.0000000000000071
 20
29.1375
 30
0.0
 40
3.5
 41
0.0
 71
     2
 72
     1
  1
\A1;79.38 [3 1/8]
  7
SLDTEXTSTYLE0
 73
     1
 44
1.0
  0
POINT
  5
117
330
10E
100
AcDbEntity
  8
Defpoints
 62
     0
100
AcDbPoint
 10
-39.68750000000002
 20
4.758474807531156
 30
0.0
  0
POINT
  5
118
330
10E
100
AcDbEntity
  8
Defpoints
 62
     0
100
AcDbPoint
 10
39.68750000000001
 20
4.762500000000001
 30
0.0
  0
POINT
  5
119
330
10E
100
AcDbEntity
  8
Defpoints
 62
     0
100
AcDbPoint
 10
39.68750000000001
 20
24.7625
 30
0.0
  0
ENDBLK
  5
110
330
10E
100
AcDbEntity
  8
0
100
AcDbBlockEnd
  0
BLOCK
  5
128
330
127
100
AcDbEntity
  8
0
100
AcDbBlockBegin
  2
SW_DOWELSYMBOL_0
 70
     0
 10
0.0
 20
0.0
 30
0.0
  3
SW_DOWELSYMBOL_0
  1

  0
CIRCLE
  5
12A
330
127
100
AcDbEntity
  8
해칭선
 62
     0
100
AcDbCircle
 10
0.0
 20
0.0
 30
0.0
 40
3.000000000000001
  0
HATCH
  5
12B
330
127
100
AcDbEntity
  8
0
  6
Continuous
 62
     0
370
     0
100
AcDbHatch
 10
0.0
 20
0.0
 30
0.0
210
0.0
220
0.0
230
1.0
  2
SOLID
 70
     1
 71
     0
 91
        1
 92
        0
 93
        3
 72
     2
 10
0.0
 20
0.0
 40
3.000000000000001
 50
0.0
 51
90.0
 73
     1
 72
     1
 10
0.0
 20
3.000000000000001
 11
0.0
 21
0.0
 72
     1
 10
0.0
 20
0.0
 11
3.000000000000001
 21
0.0
 97
        0
 75
     0
 76
     1
 98
        1
 10
0.0
 20
0.0
  0
HATCH
  5
12C
330
127
100
AcDbEntity
  8
0
  6
Continuous
 62
     0
370
     0
100
AcDbHatch
 10
0.0
 20
0.0
 30
0.0
210
0.0
220
0.0
230
1.0
  2
SOLID
 70
     1
 71
     0
 91
        1
 92
        0
 93
        3
 72
     2
 10
0.0
 20
0.0
 40
3.000000000000001
 50
180.0
 51
270.0000000000007
 73
     1
 72
     1
 10
0.0
 20
-3.000000000000001
 11
0.0
 21
0.0
 72
     1
 10
0.0
 20
0.0
 11
-3.000000000000001
 21
0.0
 97
        0
 75
     0
 76
     1
 98
        1
 10
0.0
 20
0.0
  0
ENDBLK
  5
129
330
127
100
AcDbEntity
  8
0
100
AcDbBlockEnd
  0
BLOCK
  5
18D
330
18C
100
AcDbEntity
  8
0
100
AcDbBlockBegin
  2
*D7
 70
     1
 10
0.0
 20
0.0
 30
0.0
  3
*D7
  1

  0
LINE
  5
18F
330
18C
100
AcDbEntity
  8
치수문자_일반주서
 62
     0
370
    -2
100
AcDbLine
 10
16.129
 20
1.204062975115863
 30
0.0
 11
16.129
 21
14.31790470593878
 31
0.0
  0
LINE
  5
190
330
18C
100
AcDbEntity
  8
치수문자_일반주서
 62
     0
370
    -2
100
AcDbLine
 10
6.603999999999999
 20
0.6820206663775747
 30
0.0
 11
6.603999999999999
 21
14.31790470593878
 31
0.0
  0
LINE
  5
191
330
18C
100
AcDbEntity
  8
치수문자_일반주서
 62
     0
370
    -2
100
AcDbLine
 10
16.129
 20
14.31790470593878
 30
0.0
 11
46.358
 21
14.31790470593878
 31
0.0
  0
LINE
  5
192
330
18C
100
AcDbEntity
  8
치수문자_일반주서
 62
     0
370
    -2
100
AcDbLine
 10
16.129
 20
14.31790470593878
 30
0.0
 11
6.603999999999999
 21
14.31790470593878
 31
0.0
  0
LINE
  5
193
330
18C
100
AcDbEntity
  8
치수문자_일반주서
 62
     0
370
    -2
100
AcDbLine
 10
19.431
 20
14.31790470593878
 30
0.0
 11
22.733
 21
14.31790470593878
 31
0.0
  0
LINE
  5
194
330
18C
100
AcDbEntity
  8
치수문자_일반주서
 62
     0
370
    -2
100
AcDbLine
 10
3.302
 20
14.31790470593878
 30
0.0
 11
0.0
 21
14.31790470593878
 31
0.0
  0
SOLID
  5
195
330
18C
100
AcDbEntity
  8
치수문자_일반주서
 62
     0
100
AcDbTrace
 10
19.431
 20
14.86823803927212
 30
0.0
 11
19.431
 21
13.76757137260545
 31
0.0
 12
16.129
 22
14.31790470593878
 32
0.0
 13
16.129
 23
14.31790470593878
 33
0.0
  0
SOLID
  5
196
330
18C
100
AcDbEntity
  8
치수문자_일반주서
 62
     0
100
AcDbTrace
 10
3.302
 20
13.76757137260545
 30
0.0
 11
3.302
 21
14.86823803927212
 31
0.0
 12
6.603999999999999
 22
14.31790470593878
 32
0.0
 13
6.603999999999999
 23
14.31790470593878
 33
0.0
  0
MTEXT
  5
197
330
18C
100
AcDbEntity
  8
치수문자_일반주서
 62
     0
100
AcDbMText
 10
34.5455
 20
18.69290470593878
 30
0.0
 40
3.5
 41
0.0
 71
     2
 72
     1
  1
\A1;9.53 [3/8]
  7
SLDTEXTSTYLE0
 73
     1
 44
1.0
  0
POINT
  5
198
330
18C
100
AcDbEntity
  8
Defpoints
 62
     0
100
AcDbPoint
 10
16.129
 20
1.141562975115863
 30
0.0
  0
POINT
  5
199
330
18C
100
AcDbEntity
  8
Defpoints
 62
     0
100
AcDbPoint
 10
6.603999999999999
 20
0.6195206663775747
 30
0.0
  0
POINT
  5
19A
330
18C
100
AcDbEntity
  8
Defpoints
 62
     0
100
AcDbPoint
 10
6.603999999999999
 20
14.31790470593878
 30
0.0
  0
ENDBLK
  5
18E
330
18C
100
AcDbEntity
  8
0
100
AcDbBlockEnd
  0
BLOCK
  5
19F
330
19E
100
AcDbEntity
  8
0
100
AcDbBlockBegin
  2
*D8
 70
     1
 10
0.0
 20
0.0
 30
0.0
  3
*D8
  1

  0
LINE
  5
1A1
330
19E
100
AcDbEntity
  8
치수문자_일반주서
 62
     0
370
    -2
100
AcDbLine
 10
87.58661092976295
 20
-2.508424287849335
 30
0.0
 11
87.58661092976295
 21
10.60541744297359
 31
0.0
  0
LINE
  5
1A2
330
19E
100
AcDbEntity
  8
치수문자_일반주서
 62
     0
370
    -2
100
AcDbLine
 10
78.06161092976295
 20
-3.030466596587623
 30
0.0
 11
78.06161092976295
 21
10.60541744297359
 31
0.0
  0
LINE
  5
1A3
330
19E
100
AcDbEntity
  8
치수문자_일반주서
 62
     0
370
    -2
100
AcDbLine
 10
87.58661092976295
 20
10.60541744297359
 30
0.0
 11
117.815610929763
 21
10.60541744297359
 31
0.0
  0
LINE
  5
1A4
330
19E
100
AcDbEntity
  8
치수문자_일반주서
 62
     0
370
    -2
100
AcDbLine
 10
87.58661092976295
 20
10.60541744297359
 30
0.0
 11
78.06161092976295
 21
10.60541744297359
 31
0.0
  0
LINE
  5
1A5
330
19E
100
AcDbEntity
  8
치수문자_일반주서
 62
     0
370
    -2
100
AcDbLine
 10
90.88861092976296
 20
10.60541744297359
 30
0.0
 11
94.19061092976295
 21
10.60541744297359
 31
0.0
  0
LINE
  5
1A6
330
19E
100
AcDbEntity
  8
치수문자_일반주서
 62
     0
370
    -2
100
AcDbLine
 10
74.75961092976294
 20
10.60541744297359
 30
0.0
 11
71.45761092976295
 21
10.60541744297359
 31
0.0
  0
SOLID
  5
1A7
330
19E
100
AcDbEntity
  8
치수문자_일반주서
 62
     0
100
AcDbTrace
 10
90.88861092976296
 20
11.15575077630692
 30
0.0
 11
90.88861092976296
 21
10.05508410964025
 31
0.0
 12
87.58661092976295
 22
10.60541744297359
 32
0.0
 13
87.58661092976295
 23
10.60541744297359
 33
0.0
  0
SOLID
  5
1A8
330
19E
100
AcDbEntity
  8
치수문자_일반주서
 62
     0
100
AcDbTrace
 10
74.75961092976294
 20
10.05508410964025
 30
0.0
 11
74.75961092976294
 21
11.15575077630692
 31
0.0
 12
78.06161092976295
 22
10.60541744297359
 32
0.0
 13
78.06161092976295
 23
10.60541744297359
 33
0.0
  0
MTEXT
  5
1A9
330
19E
100
AcDbEntity
  8
치수문자_일반주서
 62
     0
100
AcDbMText
 10
106.003110929763
 20
14.98041744297359
 30
0.0
 40
3.5
 41
0.0
 71
     2
 72
     1
  1
\A1;9.53 [3/8]
  7
SLDTEXTSTYLE0
 73
     1
 44
1.0
  0
POINT
  5
1AA
330
19E
100
AcDbEntity
  8
Defpoints
 62
     0
100
AcDbPoint
 10
87.58661092976295
 20
-2.570924287849335
 30
0.0
  0
POINT
  5
1AB
330
19E
100
AcDbEntity
  8
Defpoints
 62
     0
100
AcDbPoint
 10
78.06161092976295
 20
-3.092966596587623
 30
0.0
  0
POINT
  5
1AC
330
19E
100
AcDbEntity
  8
Defpoints
 62
     0
100
AcDbPoint
 10
78.06161092976295
 20
10.60541744297359
 30
0.0
  0
ENDBLK
  5
1A0
330
19E
100
AcDbEntity
  8
0
100
AcDbBlockEnd
  0
ENDSEC
  0
SECTION
  2
ENTITIES
  0
LINE
  5
96
330
1F
100
AcDbEntity
  8
외형선
  6
Continuous
370
    15
100
AcDbLine
 10
23.8799785006313
 20
4.762499999999998
 30
0.0
 11
4.838700000000159
 21
4.762499999999998
 31
0.0
  0
LINE
  5
97
330
1F
100
AcDbEntity
  8
외형선
  6
Continuous
370
    15
100
AcDbLine
 10
-23.87997850063129
 20
-4.762500000000003
 30
0.0
 11
23.8799785006313
 21
-4.7625
 31
0.0
  0
SPLINE
  5
9A
330
1F
100
AcDbEntity
  8
외형선
  6
Continuous
370
    15
100
AcDbSpline
210
0.0
220
0.0
230
1.0
 70
     8
 71
     3
 72
    14
 73
    10
 74
     0
 42
0.000000001
 43
0.00000001
 40
0.0
 40
0.0
 40
0.0
 40
0.0
 40
0.0035413360345658
 40
0.0259315142501359
 40
0.0981786119297674
 40
0.4393518707997043
 40
0.673614144443152
 40
0.9101356890215441
 40
1.0
 40
1.0
 40
1.0
 40
1.0
 10
24.39156236338182
 20
3.731358948977398
 30
0.0
 10
24.39049721678545
 20
3.731488471883381
 30
0.0
 10
24.38269765642956
 20
3.732436906329992
 30
0.0
 10
24.35715517570829
 20
3.749607169973021
 30
0.0
 10
24.25761914284135
 20
3.82421732477789
 30
0.0
 10
24.13147243475161
 20
3.945936421255747
 30
0.0
 10
24.00321112745866
 20
4.066353315976307
 30
0.0
 10
23.93488705441199
 20
4.131483487967266
 30
0.0
 10
23.91907363962753
 20
4.14072745545111
 30
0.0
 10
23.91471970823122
 20
4.143272610991709
 30
0.0
  0
LINE
  5
9B
330
1F
100
AcDbEntity
  8
외형선
  6
Continuous
370
    15
100
AcDbLine
 10
25.40000000000003
 20
3.749309726903204
 30
0.0
 11
24.38976610908115
 21
3.73053016513676
 31
0.0
  0
LINE
  5
9C
330
1F
100
AcDbEntity
  8
외형선
  6
Continuous
370
    15
100
AcDbLine
 10
23.87080266349896
 20
-3.722240172412151
 30
0.0
 11
25.25849152724928
 21
-3.746804771380044
 31
0.0
  0
SPLINE
  5
9D
330
1F
100
AcDbEntity
  8
0
  6
Continuous
 62
     1
370
    15
100
AcDbSpline
210
0.0
220
0.0
230
1.0
 70
     8
 71
     3
 72
     9
 73
     5
 74
     0
 42
0.000000001
 43
0.00000001
 40
0.0
 40
0.0
 40
0.0
 40
0.0
 40
0.5109007648022174
 40
1.0
 40
1.0
 40
1.0
 40
1.0
 10
27.34833955335796
 20
1.220389651155293
 30
0.0
 10
27.12080560756063
 20
1.329087236712424
 30
0.0
 10
26.67544721024954
 20
1.541843985274369
 30
0.0
 10
26.22532597455908
 20
1.777969254804419
 30
0.0
 10
26.00517202243659
 20
1.893457943542438
 30
0.0
1001
PE_URL
1000

  0
LINE
  5
9E
330
1F
100
AcDbEntity
  8
0
  6
Continuous
 62
     1
370
    15
100
AcDbLine
 10
25.80200973099322
 20
3.78590721445567
 30
0.0
 11
25.40000000000002
 21
3.749309726903204
 31
0.0
1001
PE_URL
1000

  0
SPLINE
  5
9F
330
1F
100
AcDbEntity
  8
0
  6
Continuous
 62
     1
370
    15
100
AcDbSpline
210
0.0
220
0.0
230
1.0
 70
     8
 71
     3
 72
    25
 73
    21
 74
     0
 42
0.000000001
 43
0.00000001
 40
0.0
 40
0.0
 40
0.0
 40
0.0
 40
0.0986143293965472
 40
0.1816898451147912
 40
0.2484097458346133
 40
0.3044479555561863
 40
0.3434539023980131
 40
0.3776153248128776
 40
0.4080684502657527
 40
0.4375759970529847
 40
0.4702346668911381
 40
0.5062798315341841
 40
0.5447121666042405
 40
0.6150579023263528
 40
0.6771814193469986
 40
0.7410153667494401
 40
0.7826593185367606
 40
0.838611159336821
 40
0.910897065671085
 40
1.0
 40
1.0
 40
1.0
 40
1.0
 10
37.91749579582724
 20
3.257322830448625
 30
0.0
 10
37.64311695148251
 20
3.235561506901018
 30
0.0
 10
37.13759356520765
 20
3.195467825495363
 30
0.0
 10
36.44796874492915
 20
3.161121992609945
 30
0.0
 10
35.87763883399644
 20
3.142469270052744
 30
0.0
 10
35.42923744679092
 20
3.135108823857039
 30
0.0
 10
35.06986976915974
 20
3.133567614834965
 30
0.0
 10
34.78192900608591
 20
3.135046286040113
 30
0.0
 10
34.52053851211349
 20
3.138558457302798
 30
0.0
 10
34.26352956170637
 20
3.14399971766267
 30
0.0
 10
33.99127332532403
 20
3.151970666834274
 30
0.0
 10
33.69419172591982
 20
3.163250703496244
 30
0.0
 10
33.29261633374615
 20
3.182238498233419
 30
0.0
 10
32.82081967445339
 20
3.211042081427072
 30
0.0
 10
32.28703104546767
 20
3.251875644197069
 30
0.0
 10
31.81033940699575
 20
3.296659697854231
 30
0.0
 10
31.34954087800432
 20
3.344266458015382
 30
0.0
 10
30.87401914398198
 20
3.399497322199865
 30
0.0
 10
30.27793159333908
 20
3.478286258626683
 30
0.0
 10
29.84006598125163
 20
3.545129567286371
 30
0.0
 10
29.59831995520424
 20
3.582033822359755
 30
0.0
1001
PE_URL
1000

  0
SPLINE
  5
A0
330
1F
100
AcDbEntity
  8
0
  6
Continuous
 62
     1
370
    15
100
AcDbSpline
210
0.0
220
0.0
230
1.0
 70
     8
 71
     3
 72
    14
 73
    10
 74
     0
 42
0.000000001
 43
0.00000001
 40
0.0
 40
0.0
 40
0.0
 40
0.0
 40
0.1709662272364958
 40
0.3111920945330799
 40
0.451192082691193
 40
0.6008662650539803
 40
0.7620865170789229
 40
0.9357519758672375
 40
1.0
 40
1.0
 40
1.0
 40
1.0
 10
29.59831995520424
 20
-3.582033822359755
 30
0.0
 10
29.77295141172676
 20
-3.553766450657208
 30
0.0
 10
30.09081494305119
 20
-3.502314285225185
 30
0.0
 10
30.62863310765104
 20
-3.423194277599904
 30
0.0
 10
31.1635544612703
 20
-3.364995347303558
 30
0.0
 10
31.72019313704292
 20
-3.304580286651598
 30
0.0
 10
32.30931878901968
 20
-3.250288451206939
 30
0.0
 10
32.79234884316688
 20
-3.212341305335888
 30
0.0
 10
33.07855820306283
 20
-3.196474076965993
 30
0.0
 10
33.15584842485204
 20
-3.192189166086994
 30
0.0
1001
PE_URL
1000

  0
LINE
  5
A1
330
1F
100
AcDbEntity
  8
0
  6
Continuous
 62
     1
370
    15
100
AcDbLine
 10
25.57893747239994
 20
-3.765599536362909
 30
0.0
 11
25.80200973099322
 21
-3.785907214455672
 31
0.0
1001
PE_URL
1000

  0
SPLINE
  5
A2
330
1F
100
AcDbEntity
  8
외형선
  6
Continuous
370
    15
100
AcDbSpline
210
0.0
220
0.0
230
1.0
 70
     8
 71
     3
 72
    10
 73
     6
 74
     0
 42
0.000000001
 43
0.00000001
 40
0.0
 40
0.0
 40
0.0
 40
0.0
 40
0.5
 40
0.5
 40
1.0
 40
1.0
 40
1.0
 40
1.0
 10
25.40000000000001
 20
2.208115852276083
 30
0.0
 10
25.14618363443061
 20
2.337837383842364
 30
0.0
 10
24.89453098731278
 20
2.464066945027204
 30
0.0
 10
24.388627607982
 20
2.709644313560485
 30
0.0
 10
24.13421426709602
 20
2.829002530364633
 30
0.0
 10
23.87995596267021
 20
2.944150604968375
 30
0.0
  0
LINE
  5
A3
330
1F
100
AcDbEntity
  8
외형선
  6
Continuous
370
    15
100
AcDbLine
 10
25.40000000000001
 20
2.208115852276082
 30
0.0
 11
25.40000000000001
 21
0.9568405010214514
 31
0.0
  0
SPLINE
  5
A4
330
1F
100
AcDbEntity
  8
외형선
  6
Continuous
370
    15
100
AcDbSpline
210
0.0
220
0.0
230
1.0
 70
     8
 71
     3
 72
    10
 73
     6
 74
     0
 42
0.000000001
 43
0.00000001
 40
0.0
 40
0.0
 40
0.0
 40
0.0
 40
0.5
 40
0.5
 40
1.0
 40
1.0
 40
1.0
 40
1.0
 10
23.8799785006313
 20
1.795760268760902
 30
0.0
 10
24.1342330579936
 20
1.66008121243093
 30
0.0
 10
24.38864259917657
 20
1.521821353516355
 30
0.0
 10
24.89453841825607
 20
1.241922733721263
 30
0.0
 10
25.14618738422833
 20
1.100262216266879
 30
0.0
 10
25.40000000000002
 20
0.9568405010214499
 30
0.0
  0
LINE
  5
A5
330
1F
100
AcDbEntity
  8
외형선
  6
Continuous
370
    15
100
AcDbLine
 10
23.8799785006313
 20
2.944311035803453
 30
0.0
 11
23.8799785006313
 21
4.762499999999998
 31
0.0
  0
LINE
  5
A7
330
1F
100
AcDbEntity
  8
외형선
  6
Continuous
370
    15
100
AcDbLine
 10
23.8799785006313
 20
-4.7625
 30
0.0
 11
23.8799785006313
 21
1.795757003018055
 31
0.0
  0
SPLINE
  5
A9
330
1F
100
AcDbEntity
  8
외형선
  6
Continuous
370
    15
100
AcDbSpline
210
0.0
220
0.0
230
1.0
 70
    24
 71
     3
 72
    11
 73
     7
 74
     0
 42
0.000000001
 43
0.00000001
 40
0.0
 40
0.0
 40
0.0
 40
0.0
 40
0.2004070572518078
 40
0.5887338554323263
 40
0.7935232332631014
 40
1.0
 40
1.0
 40
1.0
 40
1.0
 10
25.40000000000001
 20
0.9015058273380538
 30
0.0
 10
25.40000000000001
 20
0.889032468667094
 30
0.0
 10
25.40000000000001
 20
0.8523896046819325
 30
0.0
 10
25.40000000000001
 20
0.7557473414628536
 30
0.0
 10
25.40000000000001
 20
0.6408374550336814
 30
0.0
 10
25.40000000000001
 20
0.5703630704607549
 30
0.0
 10
25.40000000000001
 20
0.5349813030660981
 30
0.0
  0
SPLINE
  5
AA
330
1F
100
AcDbEntity
  8
외형선
  6
Continuous
370
    15
100
AcDbSpline
210
0.0
220
0.0
230
1.0
 70
     8
 71
     3
 72
    10
 73
     6
 74
     0
 42
0.000000001
 43
0.00000001
 40
0.0
 40
0.0
 40
0.0
 40
0.0
 40
0.5
 40
0.5
 40
1.0
 40
1.0
 40
1.0
 40
1.0
 10
25.40000000000001
 20
0.5349813030660979
 30
0.0
 10
25.14618648110332
 20
0.6361383877017662
 30
0.0
 10
24.89453662854078
 20
0.7362511140920514
 30
0.0
 10
24.38863898860263
 20
0.9344571448704798
 30
0.0
 10
24.13422853227512
 20
1.032566755984751
 30
0.0
 10
23.87997307244606
 20
1.129051510998843
 30
0.0
  0
LINE
  5
AB
330
1F
100
AcDbEntity
  8
외형선
  6
Continuous
370
    15
100
AcDbLine
 10
25.40000000000001
 20
3.760622452667016
 30
0.0
 11
25.24065408787051
 21
3.74634759464258
 31
0.0
  0
SPLINE
  5
AC
330
1F
100
AcDbEntity
  8
외형선
  6
Continuous
370
    15
100
AcDbSpline
210
0.0
220
0.0
230
1.0
 70
    24
 71
     3
 72
    12
 73
     8
 74
     0
 42
0.000000001
 43
0.00000001
 40
0.0
 40
0.0
 40
0.0
 40
0.0
 40
0.1443199665903925
 40
0.3785199850598422
 40
0.6195118199307423
 40
0.8307697362392176
 40
0.9999999999999999
 40
0.9999999999999999
 40
0.9999999999999999
 40
0.9999999999999999
 10
25.40000000000002
 20
3.746081689124002
 30
0.0
 10
25.40000000000002
 20
3.727652007513798
 30
0.0
 10
25.40000000000002
 20
3.679314948044051
 30
0.0
 10
25.40000000000002
 20
3.470258377626417
 30
0.0
 10
25.40000000000002
 20
3.110842804922754
 30
0.0
 10
25.40000000000002
 20
2.685174261847005
 30
0.0
 10
25.40000000000002
 20
2.35497779839976
 30
0.0
 10
25.40000000000002
 20
2.20811585227601
 30
0.0
  0
SPLINE
  5
AD
330
1F
100
AcDbEntity
  8
외형선
  6
Continuous
370
    15
100
AcDbSpline
210
0.0
220
0.0
230
1.0
 70
     8
 71
     3
 72
    10
 73
     6
 74
     0
 42
0.000000001
 43
0.00000001
 40
0.0
 40
0.0
 40
0.0
 40
0.0
 40
0.5000000000000001
 40
0.5000000000000001
 40
1.0
 40
1.0
 40
1.0
 40
1.0
 10
25.40000000000001
 20
-3.760622452667017
 30
0.0
 10
25.14618601530578
 20
-3.74182669379201
 30
0.0
 10
24.89453570547366
 20
-3.71776579687868
 30
0.0
 10
24.38863712640583
 20
-3.659134632214755
 30
0.0
 10
24.13422619808158
 20
-3.624534729010736
 30
0.0
 10
23.87997027279453
 20
-3.584844169711388
 30
0.0
  0
SPLINE
  5
AE
330
1F
100
AcDbEntity
  8
외형선
  6
Continuous
370
    15
100
AcDbSpline
210
0.0
220
0.0
230
1.0
 70
    24
 71
     3
 72
    14
 73
    10
 74
     0
 42
0.000000001
 43
0.00000001
 40
0.0
 40
0.0
 40
0.0
 40
0.0
 40
0.25
 40
0.25
 40
0.5
 40
0.5
 40
0.75
 40
0.75
 40
1.0
 40
1.0
 40
1.0
 40
1.0
 10
25.40000000000002
 20
0.5349813030660967
 30
0.0
 10
25.40000000000002
 20
0.1136979953215302
 30
0.0
 10
25.40000000000002
 20
-0.3183551598523754
 30
0.0
 10
25.40000000000002
 20
-1.163531373598119
 30
0.0
 10
25.40000000000002
 20
-1.576206748681827
 30
0.0
 10
25.40000000000002
 20
-2.339659383100368
 30
0.0
 10
25.40000000000002
 20
-2.690029842952987
 30
0.0
 10
25.40000000000002
 20
-3.297804198547559
 30
0.0
 10
25.40000000000002
 20
-3.555093854520761
 30
0.0
 10
25.40000000000002
 20
-3.760622452667015
 30
0.0
  0
SPLINE
  5
AF
330
1F
100
AcDbEntity
  8
0
  6
Continuous
 62
     1
370
    15
100
AcDbSpline
210
0.0
220
0.0
230
1.0
 70
     8
 71
     3
 72
    34
 73
    30
 74
     0
 42
0.000000001
 43
0.00000001
 40
0.0
 40
0.0
 40
0.0
 40
0.0
 40
0.1249999999999998
 40
0.1249999999999998
 40
0.2499999999999997
 40
0.2499999999999997
 40
0.3124999999999997
 40
0.3124999999999997
 40
0.3749999999999997
 40
0.3749999999999997
 40
0.4374999999999997
 40
0.4374999999999997
 40
0.4999999999999998
 40
0.4999999999999998
 40
0.5624999999999998
 40
0.5624999999999998
 40
0.6249999999999998
 40
0.6249999999999998
 40
0.6874999999999999
 40
0.6874999999999999
 40
0.7499999999999999
 40
0.7499999999999999
 40
0.8124999999999999
 40
0.8124999999999999
 40
0.8749999999999999
 40
0.8749999999999999
 40
0.9375
 40
0.9375
 40
1.0
 40
1.0
 40
1.0
 40
1.0
 10
39.68750000000002
 20
-4.519330889716923
 30
0.0
 10
39.09597335630261
 20
-4.411143284276006
 30
0.0
 10
38.49361085391769
 20
-4.266739886569908
 30
0.0
 10
37.30903568420739
 20
-3.915441996825547
 30
0.0
 10
36.70822084118714
 20
-3.706795919347666
 30
0.0
 10
35.81872999214392
 20
-3.354363451756204
 30
0.0
 10
35.52196230834421
 20
-3.230087567434879
 30
0.0
 10
34.92499078659974
 20
-2.968904803983293
 30
0.0
 10
34.6260277032913
 20
-2.832162959249077
 30
0.0
 10
34.03238233537665
 20
-2.548838834556913
 30
0.0
 10
33.73624722366308
 20
-2.402046977453629
 30
0.0
 10
33.13944405068348
 20
-2.098899562383402
 30
0.0
 10
32.84037237349504
 20
-1.942798460191904
 30
0.0
 10
32.24613058554078
 20
-1.624313141315876
 30
0.0
 10
31.95048260068169
 20
-1.461860696107117
 30
0.0
 10
31.35390381068073
 20
-1.13091712087167
 30
0.0
 10
31.05475176592958
 20
-0.9627443467161351
 30
0.0
 10
30.45996879212963
 20
-0.6239594708851242
 30
0.0
 10
30.16466233717056
 20
-0.4534175355076967
 30
0.0
 10
29.56836389411028
 20
-0.1101429208346434
 30
0.0
 10
29.26915973348718
 20
0.0622481007969248
 30
0.0
 10
28.67389097671814
 20
0.405512524393056
 30
0.0
 10
28.37878034829563
 20
0.5762050684606556
 30
0.0
 10
27.78281812841015
 20
0.9157734898155427
 30
0.0
 10
27.4835901200642
 20
1.084331186474675
 30
0.0
 10
26.8878911347768
 20
1.41603741347451
 30
0.0
 10
26.59283056850175
 20
1.578938281692362
 30
0.0
 10
25.99726034287857
 20
1.898942304929792
 30
0.0
 10
25.69803676249127
 20
2.055793974974431
 30
0.0
 10
25.39999999999695
 20
2.20811585227765
 30
0.0
1001
PE_URL
1000

  0
SPLINE
  5
B0
330
1F
100
AcDbEntity
  8
0
  6
Continuous
 62
     1
370
    15
100
AcDbSpline
210
0.0
220
0.0
230
1.0
 70
     8
 71
     3
 72
    17
 73
    13
 74
     0
 42
0.000000001
 43
0.00000001
 40
0.0
 40
0.0
 40
0.0
 40
0.0
 40
0.1065082465201911
 40
0.2128431210364237
 40
0.3192409430374748
 40
0.4258216172961518
 40
0.5322082886936682
 40
0.6385472117490553
 40
0.745072945932936
 40
0.8515629878098104
 40
0.9578947913368023
 40
0.9999999999999999
 40
0.9999999999999999
 40
0.9999999999999999
 40
0.9999999999999999
 10
39.68750000000001
 20
-3.75748040905363
 30
0.0
 10
39.24804146631276
 20
-3.668074500574565
 30
0.0
 10
38.36983974079325
 20
-3.489408216774897
 30
0.0
 10
37.05314935364414
 20
-3.106525281343225
 30
0.0
 10
35.73601615503615
 20
-2.651396358640287
 30
0.0
 10
34.4180350869256
 20
-2.127942824783126
 30
0.0
 10
33.1009630860626
 20
-1.549808908770499
 30
0.0
 10
31.78422538941183
 20
-0.9320588994462392
 30
0.0
 10
30.4664925096606
 20
-0.2910648209725015
 30
0.0
 10
29.14889530135792
 20
0.3557228872263801
 30
0.0
 10
28.09751932632119
 20
0.8710677788570746
 30
0.0
 10
27.48516797796161
 20
1.154353336975888
 30
0.0
 10
27.31147018576383
 20
1.234709289712124
 30
0.0
1001
PE_URL
1000

  0
LINE
  5
B1
330
1F
100
AcDbEntity
  8
0
  6
Continuous
 62
     1
370
    15
100
AcDbLine
 10
39.68749999999994
 20
-4.519330889716923
 30
0.0
 11
39.68750000000001
 21
-3.75748040905363
 31
0.0
1001
PE_URL
1000

  0
SPLINE
  5
B2
330
1F
100
AcDbEntity
  8
0
  6
Continuous
 62
     1
370
    15
100
AcDbSpline
210
0.0
220
0.0
230
1.0
 70
     8
 71
     3
 72
    34
 73
    30
 74
     0
 42
0.000000001
 43
0.00000001
 40
0.0
 40
0.0
 40
0.0
 40
0.0
 40
0.0625
 40
0.0625
 40
0.125
 40
0.125
 40
0.1875000000000001
 40
0.1875000000000001
 40
0.2500000000000001
 40
0.2500000000000001
 40
0.3125
 40
0.3125
 40
0.375
 40
0.375
 40
0.4374999999999999
 40
0.4374999999999999
 40
0.4999999999999999
 40
0.4999999999999999
 40
0.5624999999999998
 40
0.5624999999999998
 40
0.6249999999999998
 40
0.6249999999999998
 40
0.6874999999999998
 40
0.6874999999999998
 40
0.7499999999999998
 40
0.7499999999999998
 40
0.8749999999999999
 40
0.8749999999999999
 40
1.0
 40
1.0
 40
1.0
 40
1.0
 10
25.40000000000002
 20
0.956840501021448
 30
0.0
 10
25.69803676249429
 20
0.7884290784719336
 30
0.0
 10
25.99726034288153
 20
0.6179195328132099
 30
0.0
 10
26.59283056850456
 20
0.275698573140416
 30
0.0
 10
26.88789113477955
 20
0.1042393471595146
 30
0.0
 10
27.48359012006684
 20
-0.2394878162776043
 30
0.0
 10
27.78281812841272
 20
-0.4114829487167708
 30
0.0
 10
28.37878034829806
 20
-0.7527175767295086
 30
0.0
 10
28.67389097672051
 20
-0.9216528962223093
 30
0.0
 10
29.26915973348943
 20
-1.256227573122856
 30
0.0
 10
29.56836389411247
 20
-1.4216752633793
 30
0.0
 10
30.16466233717261
 20
-1.745979284730131
 30
0.0
 10
30.4599687921316
 20
-1.904527345611591
 30
0.0
 10
31.05475176593145
 20
-2.214328063011489
 30
0.0
 10
31.35390381068252
 20
-2.365501879895111
 30
0.0
 10
31.95048260068336
 20
-2.657717422412583
 30
0.0
 10
32.24613058554236
 20
-2.798491475330046
 30
0.0
 10
32.84037237349652
 20
-3.069063351543701
 30
0.0
 10
33.13944405068489
 20
-3.198905218570105
 30
0.0
 10
33.73624722366435
 20
-3.445371066387963
 30
0.0
 10
34.03238233537786
 20
-3.561800303520419
 30
0.0
 10
34.62602770329239
 20
-3.780531267136845
 30
0.0
 10
34.92499078660077
 20
-3.882981849957353
 30
0.0
 10
35.52196230834512
 20
-4.072173705499138
 30
0.0
 10
35.81872999214475
 20
-4.158805707551987
 30
0.0
 10
36.7082208411878
 20
-4.393871093044992
 30
0.0
 10
37.3090356842079
 20
-4.517912875198418
 30
0.0
 10
38.49361085391794
 20
-4.692747134202867
 30
0.0
 10
39.09597335630274
 20
-4.744377359133555
 30
0.0
 10
39.68750000000002
 20
-4.762499999999997
 30
0.0
1001
PE_URL
1000

  0
SPLINE
  5
B3
330
1F
100
AcDbEntity
  8
0
  6
Continuous
 62
     1
370
    15
100
AcDbSpline
210
0.0
220
0.0
230
1.0
 70
     8
 71
     3
 72
     9
 73
     5
 74
     0
 42
0.000000001
 43
0.00000001
 40
0.0
 40
0.0
 40
0.0
 40
0.0
 40
0.3499028582190509
 40
1.0
 40
1.0
 40
1.0
 40
1.0
 10
27.85462301896685
 20
-0.4511404202534406
 30
0.0
 10
27.56831672485359
 20
-0.3367512446677573
 30
0.0
 10
26.75007163943044
 20
-0.0098342935805162
 30
0.0
 10
25.93189457261042
 20
0.3203375386417946
 30
0.0
 10
25.40000000000001
 20
0.5349813030660979
 30
0.0
1001
PE_URL
1000

  0
SPLINE
  5
B4
330
1F
100
AcDbEntity
  8
외형선
  6
Continuous
370
    15
100
AcDbSpline
210
0.0
220
0.0
230
1.0
 70
    24
 71
     3
 72
    11
 73
     7
 74
     0
 42
0.000000001
 43
0.00000001
 40
0.0
 40
0.0
 40
0.0
 40
0.0
 40
0.200368426016175
 40
0.5887139856729914
 40
0.7935132576214955
 40
1.0
 40
1.0
 40
1.0
 40
1.0
 10
25.40000000000002
 20
0.9014958273380539
 30
0.0
 10
25.40000000000002
 20
0.889025274413165
 30
0.0
 10
25.40000000000002
 20
0.8523848263050146
 30
0.0
 10
25.40000000000002
 20
0.7557471571570781
 30
0.0
 10
25.40000000000002
 20
0.6408374889124425
 30
0.0
 10
25.40000000000002
 20
0.5703630817845213
 30
0.0
 10
25.40000000000002
 20
0.5349813030660971
 30
0.0
  0
LINE
  5
B5
330
1F
100
AcDbEntity
  8
0
  6
Continuous
 62
     1
370
    15
100
AcDbLine
 10
39.68750000000001
 20
-4.762499999999998
 30
0.0
 11
39.68749999999993
 21
-4.51933088971692
 31
0.0
1001
PE_URL
1000

  0
SPLINE
  5
B6
330
1F
100
AcDbEntity
  8
0
  6
Continuous
 62
     1
370
    15
100
AcDbSpline
210
0.0
220
0.0
230
1.0
 70
     8
 71
     3
 72
     8
 73
     4
 74
     0
 42
0.000000001
 43
0.00000001
 40
0.0
 40
0.0
 40
0.0
 40
0.0
 40
1.0
 40
1.0
 40
1.0
 40
1.0
 10
36.74069177087968
 20
1.332157722515836
 30
0.0
 10
36.57091672496114
 20
1.53328787448289
 30
0.0
 10
36.41997175025556
 20
1.726224115463183
 30
0.0
 10
36.2918834932226
 20
1.909214249074757
 30
0.0
1001
PE_URL
1000

  0
LINE
  5
B7
330
1F
100
AcDbEntity
  8
0
  6
Continuous
 62
     1
370
    15
100
AcDbLine
 10
36.35206634281501
 20
1.959713655970951
 30
0.0
 11
39.68750000000001
 21
0.0000000000000014
 31
0.0
1001
PE_URL
1000

  0
LINE
  5
B8
330
1F
100
AcDbEntity
  8
0
  6
Continuous
 62
     1
370
    15
100
AcDbLine
 10
39.68750000000001
 20
0.0000000000000014
 30
0.0
 11
39.68750000000001
 21
-1.272744530466183
 31
0.0
1001
PE_URL
1000

  0
SPLINE
  5
B9
330
1F
100
AcDbEntity
  8
0
  6
Continuous
 62
     1
370
    15
100
AcDbSpline
210
0.0
220
0.0
230
1.0
 70
     8
 71
     3
 72
    12
 73
     8
 74
     0
 42
0.000000001
 43
0.00000001
 40
0.0
 40
0.0
 40
0.0
 40
0.0
 40
0.5
 40
0.5
 40
0.75
 40
0.75
 40
1.0
 40
1.0
 40
1.0
 40
1.0
 10
39.68750000000002
 20
-1.272744530466184
 30
0.0
 10
39.17739851532635
 20
-0.8717186828896235
 30
0.0
 10
38.67581718328909
 20
-0.4542496700308873
 30
0.0
 10
37.93655392059149
 20
0.1972525864200588
 30
0.0
 10
37.69235565325277
 20
0.4187098580069606
 30
0.0
 10
37.20894649459787
 20
0.8712496099959941
 30
0.0
 10
36.97105473523948
 20
1.10115775578405
 30
0.0
 10
36.74069177087809
 20
1.332157722516857
 30
0.0
1001
PE_URL
1000

  0
SPLINE
  5
BA
330
1F
100
AcDbEntity
  8
0
  6
Continuous
 62
     1
370
    15
100
AcDbSpline
210
0.0
220
0.0
230
1.0
 70
     8
 71
     3
 72
    14
 73
    10
 74
     0
 42
0.000000001
 43
0.00000001
 40
0.0
 40
0.0
 40
0.0
 40
0.0
 40
0.1450658496988752
 40
0.290143320700442
 40
0.4352650217742834
 40
0.5804633447666463
 40
0.7325788414757934
 40
0.8846483716875237
 40
1.0
 40
1.0
 40
1.0
 40
1.0
 10
36.74069177087809
 20
1.332157722516853
 30
0.0
 10
36.21175389968539
 20
1.556354735658467
 30
0.0
 10
35.15383578380467
 20
2.00476672248415
 30
0.0
 10
33.56676581805714
 20
2.590323944435404
 30
0.0
 10
31.97915277862734
 20
3.083488446422102
 30
0.0
 10
30.36573937635993
 20
3.469042059516868
 30
0.0
 10
28.72691940927513
 20
3.720881989648587
 30
0.0
 10
27.19703913450149
 20
3.83453993764054
 30
0.0
 10
26.22189485756298
 20
3.790695713247883
 30
0.0
 10
25.80126815470518
 20
3.771783587133029
 30
0.0
1001
PE_URL
1000

  0
SPLINE
  5
BB
330
1F
100
AcDbEntity
  8
0
  6
Continuous
 62
     1
370
    15
100
AcDbSpline
210
0.0
220
0.0
230
1.0
 70
    24
 71
     3
 72
    10
 73
     6
 74
     0
 42
0.000000001
 43
0.00000001
 40
0.0
 40
0.0
 40
0.0
 40
0.0
 40
0.5
 40
0.5
 40
1.0
 40
1.0
 40
1.0
 40
1.0
 10
39.68750000000001
 20
-3.757480409053628
 30
0.0
 10
39.68750000000002
 20
-3.469440240130621
 30
0.0
 10
39.68750000000001
 20
-3.105490442104557
 30
0.0
 10
39.68750000000002
 20
-2.259342187955113
 30
0.0
 10
39.68750000000001
 20
-1.777876697531863
 30
0.0
 10
39.68750000000001
 20
-1.272744530466335
 30
0.0
1001
PE_URL
1000

  0
SPLINE
  5
BC
330
1F
100
AcDbEntity
  8
외형선
  6
Continuous
370
    15
100
AcDbSpline
210
0.0
220
0.0
230
1.0
 70
    24
 71
     3
 72
    12
 73
     8
 74
     0
 42
0.000000001
 43
0.00000001
 40
0.0
 40
0.0
 40
0.0
 40
0.0
 40
0.1443655492700369
 40
0.3785530917391152
 40
0.6195320888047878
 40
0.830778751254875
 40
1.0
 40
1.0
 40
1.0
 40
1.0
 10
25.40000000000002
 20
3.746106358723264
 30
0.0
 10
25.40000000000002
 20
3.727670704464893
 30
0.0
 10
25.40000000000002
 20
3.6793290193951
 30
0.0
 10
25.40000000000002
 20
3.470259672420756
 30
0.0
 10
25.40000000000002
 20
3.110842500774075
 30
0.0
 10
25.40000000000002
 20
2.685174317196994
 30
0.0
 10
25.40000000000002
 20
2.354977815439198
 30
0.0
 10
25.40000000000002
 20
2.20811585227601
 30
0.0
  0
SPLINE
  5
BD
330
1F
100
AcDbEntity
  8
0
  6
Continuous
 62
     1
370
    15
100
AcDbSpline
210
0.0
220
0.0
230
1.0
 70
    24
 71
     3
 72
     8
 73
     4
 74
     0
 42
0.000000001
 43
0.00000001
 40
0.0
 40
0.0
 40
0.0
 40
0.0
 40
1.0
 40
1.0
 40
1.0
 40
1.0
 10
36.78866348196402
 20
2.326062154403933
 30
0.0
 10
36.63226566468258
 20
2.194828803606142
 30
0.0
 10
36.46558902170983
 20
2.054970493961839
 30
0.0
 10
36.29188349322261
 20
1.909214249074756
 30
0.0
1001
PE_URL
1000

  0
LINE
  5
BE
330
1F
100
AcDbEntity
  8
0
  6
Continuous
 62
     1
370
    15
100
AcDbLine
 10
39.68750000000001
 20
3.333749999999999
 30
0.0
 11
37.91546241296847
 21
3.248376776064664
 31
0.0
1001
PE_URL
1000

  0
SPLINE
  5
BF
330
1F
100
AcDbEntity
  8
0
  6
Continuous
 62
     1
370
    15
100
AcDbSpline
210
0.0
220
0.0
230
1.0
 70
     8
 71
     3
 72
    10
 73
     6
 74
     0
 42
0.000000001
 43
0.00000001
 40
0.0
 40
0.0
 40
0.0
 40
0.0
 40
0.5
 40
0.5
 40
1.0
 40
1.0
 40
1.0
 40
1.0
 10
39.68750000000001
 20
3.333750000000001
 30
0.0
 10
39.19751264253258
 20
3.200834845326542
 30
0.0
 10
38.71051485177489
 20
3.051663544638918
 30
0.0
 10
37.74305890356419
 20
2.717760862422067
 30
0.0
 10
37.26289416209677
 20
2.533650312169168
 30
0.0
 10
36.78866348196324
 20
2.326062154404647
 30
0.0
1001
PE_URL
1000

  0
SPLINE
  5
C0
330
1F
100
AcDbEntity
  8
0
  6
Continuous
 62
     1
370
    15
100
AcDbSpline
210
0.0
220
0.0
230
1.0
 70
     8
 71
     3
 72
    10
 73
     6
 74
     0
 42
0.000000001
 43
0.00000001
 40
0.0
 40
0.0
 40
0.0
 40
0.0
 40
0.2084482148299043
 40
0.6042724536794742
 40
1.0
 40
1.0
 40
1.0
 40
1.0
 10
29.60289349634038
 20
-3.56309820266165
 30
0.0
 10
29.3108501972919
 20
-3.612030431952538
 30
0.0
 10
28.46424318249602
 20
-3.753880523025468
 30
0.0
 10
27.06328101351295
 20
-3.835520813031465
 30
0.0
 10
25.95438185173546
 20
-3.785586539537157
 30
0.0
 10
25.40000000000002
 20
-3.760622452667017
 30
0.0
1001
PE_URL
1000

  0
SPLINE
  5
C1
330
1F
100
AcDbEntity
  8
외형선
  6
Continuous
370
    15
100
AcDbSpline
210
0.0
220
0.0
230
1.0
 70
    24
 71
     3
 72
    14
 73
    10
 74
     0
 42
0.000000001
 43
0.00000001
 40
0.0
 40
0.0
 40
0.0
 40
0.0
 40
0.25
 40
0.25
 40
0.5
 40
0.5
 40
0.75
 40
0.75
 40
1.0
 40
1.0
 40
1.0
 40
1.0
 10
25.40000000000002
 20
0.5349813030660967
 30
0.0
 10
25.40000000000002
 20
0.1136979953215302
 30
0.0
 10
25.40000000000002
 20
-0.3183551598523754
 30
0.0
 10
25.40000000000002
 20
-1.163531373598119
 30
0.0
 10
25.40000000000002
 20
-1.576206748681827
 30
0.0
 10
25.40000000000002
 20
-2.339659383100368
 30
0.0
 10
25.40000000000002
 20
-2.690029842952987
 30
0.0
 10
25.40000000000002
 20
-3.297804198547559
 30
0.0
 10
25.40000000000002
 20
-3.555093854520761
 30
0.0
 10
25.40000000000002
 20
-3.760622452667015
 30
0.0
  0
LINE
  5
C2
330
1F
100
AcDbEntity
  8
0
  6
Continuous
 62
     1
370
    15
100
AcDbLine
 10
39.68750000000001
 20
0.0000000000000014
 30
0.0
 11
39.68750000000001
 21
3.333750000000001
 31
0.0
1001
PE_URL
1000

  0
SPLINE
  5
C3
330
1F
100
AcDbEntity
  8
0
  6
Continuous
 62
     1
370
    15
100
AcDbSpline
210
0.0
220
0.0
230
1.0
 70
    24
 71
     3
 72
    10
 73
     6
 74
     0
 42
0.000000001
 43
0.00000001
 40
0.0
 40
0.0
 40
0.0
 40
0.0
 40
0.5
 40
0.5
 40
1.0
 40
1.0
 40
1.0
 40
1.0
 10
39.68750000000001
 20
3.333749999999999
 30
0.0
 10
39.68750000000001
 20
3.535833623044831
 30
0.0
 10
39.68750000000001
 20
3.770673507979644
 30
0.0
 10
39.68750000000001
 20
4.263366954076072
 30
0.0
 10
39.68750000000001
 20
4.519962238004512
 30
0.0
 10
39.68750000000001
 20
4.762500000000001
 30
0.0
1001
PE_URL
1000

  0
SPLINE
  5
C4
330
1F
100
AcDbEntity
  8
0
  6
Continuous
 62
     1
370
    15
100
AcDbSpline
210
0.0
220
0.0
230
1.0
 70
     8
 71
     3
 72
    14
 73
    10
 74
     0
 42
0.000000001
 43
0.00000001
 40
0.0
 40
0.0
 40
0.0
 40
0.0
 40
0.0145976423256461
 40
0.2275061397723842
 40
0.4426857579345448
 40
0.550903667044576
 40
0.7748268838577914
 40
0.8871560284658874
 40
1.0
 40
1.0
 40
1.0
 40
1.0
 10
33.13798519077211
 20
3.19334542658714
 30
0.0
 10
33.16985245126349
 20
3.207888154941549
 30
0.0
 10
33.66650781914991
 20
3.434538453384426
 30
0.0
 10
34.63273612545527
 20
3.792710355535881
 30
0.0
 10
35.80411228110028
 20
4.164720419842169
 30
0.0
 10
36.99862092287724
 20
4.458375350659135
 30
0.0
 10
37.96899222682046
 20
4.628710352412512
 30
0.0
 10
38.94985438842917
 20
4.7298484925988
 30
0.0
 10
39.4412436318188
 20
4.748918169168418
 30
0.0
 10
39.68750000000002
 20
4.762500000000001
 30
0.0
1001
PE_URL
1000

  0
LINE
  5
C5
330
1F
100
AcDbEntity
  8
중심선
 62
     1
100
AcDbLine
 10
-42.68750000000001
 20
-0.0000000000000052
 30
0.0
 11
42.6875
 21
0.0000000000000052
 31
0.0
  0
LINE
  5
C6
330
1F
100
AcDbEntity
  8
참조1
100
AcDbLine
 10
-0.0000000000000018
 20
-0.0000000000000048
 30
0.0
 11
0.0000000000000036
 21
-40.00000000000001
 31
0.0
  0
LINE
  5
C7
330
1F
100
AcDbEntity
  8
참조1
100
AcDbLine
 10
0.0000000000000036
 20
-40.00000000000001
 30
0.0
 11
-14.46571559669921
 21
-40.0
 31
0.0
  0
CIRCLE
  5
C8
330
1F
100
AcDbEntity
  8
해칭선
100
AcDbCircle
 10
0.0
 20
0.0
 30
0.0
 40
3.000000000000001
  0
INSERT
  5
C9
330
1F
100
AcDbEntity
  8
0
  6
Continuous
 62
     7
100
AcDbBlockReference
 66
     1
  2
블럭10
 10
-13.94027293212521
 20
-52.04717430164393
 30
0.0
  0
ATTRIB
  5
CA
330
C9
100
AcDbEntity
  8
FORMAT
 62
     2
100
AcDbText
 10
-23.12156822086649
 20
-49.97180738881174
 30
0.0
 40
4.233333333333333
  1
E1050024 [ 2 FLUTE ]
 41
0.75
  7
SLDTEXTSTYLE0
 11
-23.12156822086649
 21
-52.08847405547841
 31
0.0
100
AcDbAttribute
  2
AUTOATTR0
 70
     0
 74
     1
  0
SEQEND
  5
CB
330
C9
100
AcDbEntity
  8
0
  6
Continuous
 62
     7
  0
HATCH
  5
CC
330
1F
100
AcDbEntity
  8
중심선
100
AcDbHatch
 10
0.0
 20
0.0
 30
0.0
210
0.0
220
0.0
230
1.0
  2
SOLID
 70
     1
 71
     0
 91
        1
 92
        0
 93
        4
 72
     1
 10
-8.225363627744372
 20
-35.8
 11
-11.67163887158165
 21
-35.8
 72
     1
 10
-11.67163887158165
 20
-35.8
 11
-13.79986873078568
 21
-38.3363255805726
 72
     1
 10
-13.79986873078568
 20
-38.3363255805726
 11
-10.35356040183525
 21
-38.33628615127011
 72
     1
 10
-10.35356040183525
 20
-38.33628615127011
 11
-8.225363627744372
 21
-35.8
 97
        0
 75
     0
 76
     1
 98
        1
 10
14.99421167873052
 20
-0.001074928723894
  0
HATCH
  5
CD
330
1F
100
AcDbEntity
  8
중심선
100
AcDbHatch
 10
0.0
 20
0.0
 30
0.0
210
0.0
220
0.0
230
1.0
  2
SOLID
 70
     1
 71
     0
 91
        1
 92
        0
 93
        4
 72
     1
 10
-3.212599636708418
 20
-35.80000000000003
 11
-6.658874880545675
 21
-35.8
 72
     1
 10
-6.658874880545675
 20
-35.8
 11
-11.19001288890309
 21
-41.20000000000002
 72
     1
 10
-11.19001288890309
 20
-41.20000000000002
 11
-7.743737645065806
 21
-41.20000000000002
 72
     1
 10
-7.743737645065806
 20
-41.20000000000002
 11
-3.212599636708418
 21
-35.80000000000003
 97
        0
 75
     0
 76
     1
 98
        1
 10
14.99421167873052
 20
-0.001074928723894
  0
HATCH
  5
CE
330
1F
100
AcDbEntity
  8
중심선
100
AcDbHatch
 10
0.0
 20
0.0
 30
0.0
210
0.0
220
0.0
230
1.0
  2
SOLID
 70
     1
 71
     0
 91
        1
 92
        0
 93
        4
 72
     1
 10
1.800164354327476
 20
-35.8
 11
-1.646110889509639
 21
-35.8
 72
     1
 10
-1.646110889509639
 20
-35.8
 11
-8.69454779139889
 21
-44.20000000000002
 72
     1
 10
-8.69454779139889
 20
-44.20000000000002
 11
-5.248272547561605
 21
-44.20000000000002
 72
     1
 10
-5.248272547561605
 20
-44.20000000000002
 11
1.800164354327476
 21
-35.8
 97
        0
 75
     0
 76
     1
 98
        1
 10
14.99421167873052
 20
-0.001074928723894
  0
HATCH
  5
CF
330
1F
100
AcDbEntity
  8
중심선
100
AcDbHatch
 10
0.0
 20
0.0
 30
0.0
210
0.0
220
0.0
230
1.0
  2
SOLID
 70
     1
 71
     0
 91
        1
 92
        0
 93
        6
 72
     3
 10
6.600054785339676
 20
-40.00000000005127
 11
3.960054785062283
 21
1.540882976769353E-10
 40
0.3939339440162628
 50
17.09539180608436
 51
320.0019657685077
 73
     0
 72
     1
 10
8.283054441040242
 20
-38.5878940046383
 11
10.58835631474131
 21
-36.65356729459035
 72
     3
 10
6.600054785286829
 20
-40.00000000000015
 11
6.600054785286829
 21
-1.278976924368180E-13
 40
0.636358354079598
 50
39.99873849337431
 51
368.4976242363724
 73
     1
 72
     1
 10
13.02538727718744
 20
-39.03999999993002
 11
5.280122092122751
 21
-39.03999999993
 72
     1
 10
5.280122092122751
 20
-39.03999999993
 11
5.280097047676817
 21
-40.95999999992991
 72
     1
 10
5.280097047676817
 20
-40.95999999992991
 11
9.721476817148854
 21
-40.95999999992988
 97
        0
 75
     0
 76
     1
 98
        1
 10
14.99421167873052
 20
-0.001074928723894
  0
DIMENSION
  5
D0
330
1F
100
AcDbEntity
  8
치수문자_일반주서
100
AcDbDimension
  2
_D
 10
-49.68749999999996
 20
-4.762500000000099
 30
0.0
 11
-49.68750000000006
 21
24.49149999999996
 31
0.0
 70
   160
  1
%%c<>
 71
     2
 42
9.524999999999999
 52
-270.0
  3
SLDDIMSTYLE0
100
AcDbAlignedDimension
 13
-23.8799785006313
 23
4.762499999999996
 33
0.0
 14
-23.87997850063129
 24
-4.762500000000003
 34
0.0
 50
90.0000000000002
100
AcDbRotatedDimension
1001
PE_URL
1000

1001
ACAD
1000
DSTYLE
1002
{
1070
   171
1070
     8
1070
   273
1070
     7
1002
}
  0
DIMENSION
  5
E5
330
1F
100
AcDbEntity
  8
치수문자_일반주서
100
AcDbDimension
  2
_D_1
 10
79.4811425710969
 20
4.762500000000152
 30
0.0
 11
79.48114257109684
 21
24.49150000000015
 31
0.0
 70
   160
  1
%%c<>
 71
     2
 42
9.524999999999999
 52
-270.0
  3
SLDDIMSTYLE0
100
AcDbAlignedDimension
 13
39.68750000000001
 23
-4.762499999999998
 33
0.0
 14
39.68750000000001
 24
4.762500000000001
 34
0.0
 50
90.0000000000002
100
AcDbRotatedDimension
1001
PE_URL
1000

1001
ACAD
1000
DSTYLE
1002
{
1070
   171
1070
     8
1070
   273
1070
     7
1002
}
  0
DIMENSION
  5
F9
330
1F
100
AcDbEntity
  8
치수문자_일반주서
100
AcDbDimension
  2
_D_2
 10
25.40000000000002
 20
14.7625
 30
0.0
 11
59.85400000000001
 21
14.7625
 31
0.0
 70
   160
  1
<>
 71
     2
 42
14.28749999999999
  3
SLDDIMSTYLE0
100
AcDbAlignedDimension
 13
39.68750000000001
 23
4.762500000000001
 33
0.0
 14
25.40000000000002
 24
3.766005315525992
 34
0.0
 50
0.0000000000000142
100
AcDbRotatedDimension
1001
PE_URL
1000

1001
ACAD
1000
DSTYLE
1002
{
1070
   171
1070
     8
1070
   273
1070
     7
1002
}
  0
DIMENSION
  5
10D
330
1F
100
AcDbEntity
  8
치수문자_일반주서
100
AcDbDimension
  2
_D_3
 10
39.68750000000001
 20
24.7625
 30
0.0
 11
0.0000000000000071
 21
24.7625
 31
0.0
 70
   160
  1
<>
 71
     2
 42
79.37500000000003
  3
SLDDIMSTYLE0
100
AcDbAlignedDimension
 13
-39.68750000000002
 23
4.758474807531156
 33
0.0
 14
39.68750000000001
 24
4.762500000000001
 34
0.0
100
AcDbRotatedDimension
1001
PE_URL
1000

1001
ACAD
1000
DSTYLE
1002
{
1070
   171
1070
     8
1070
   273
1070
     7
1002
}
  0
LINE
  5
120
330
1F
100
AcDbEntity
  8
참조1
100
AcDbLine
 10
83.50662503295506
 20
7.440000000000001
 30
0.0
 11
83.50662503295506
 21
-7.440000000000003
 31
0.0
  0
LINE
  5
121
330
1F
100
AcDbEntity
  8
참조1
100
AcDbLine
 10
96.20662503295506
 20
5.440000000000001
 30
0.0
 11
83.50662503295506
 21
5.440000000000001
 31
0.0
  0
SOLID
  5
122
330
1F
100
AcDbEntity
  8
참조1
100
AcDbTrace
 10
83.50662503295506
 20
5.440000000000001
 30
0.0
 11
89.85662503295505
 21
4.424000000000001
 31
0.0
 12
89.85662503295505
 22
6.456000000000001
 32
0.0
 13
89.85662503295505
 23
6.456000000000001
 33
0.0
  0
LINE
  5
123
330
1F
100
AcDbEntity
  8
참조1
100
AcDbLine
 10
96.20662503295506
 20
-5.440000000000003
 30
0.0
 11
83.50662503295506
 21
-5.440000000000003
 31
0.0
  0
SOLID
  5
124
330
1F
100
AcDbEntity
  8
참조1
100
AcDbTrace
 10
83.50662503295506
 20
-5.440000000000003
 30
0.0
 11
89.85662503295505
 21
-6.456000000000003
 31
0.0
 12
89.85662503295505
 22
-4.424000000000003
 32
0.0
 13
89.85662503295505
 23
-4.424000000000003
 33
0.0
  0
MTEXT
  5
125
330
1F
100
AcDbEntity
  8
참조1
100
AcDbMText
 10
92.89097516558105
 20
11.01029177718833
 30
0.0
 40
3.5
 41
0.0
 71
     1
 72
     1
  1
A
  7
SLDTEXTSTYLE0
 73
     1
 44
1.0
  0
MTEXT
  5
126
330
1F
100
AcDbEntity
  8
참조1
100
AcDbMText
 10
92.89097516558105
 20
0.1302917771883252
 30
0.0
 40
3.5
 41
0.0
 71
     1
 72
     1
  1
A
  7
SLDTEXTSTYLE0
 73
     1
 44
1.0
  0
INSERT
  5
12D
330
1F
100
AcDbEntity
  8
해칭선
100
AcDbBlockReference
  2
SW_DOWELSYMBOL_0
 10
0.0
 20
0.0
 30
0.0
  0
LINE
  5
1D5
330
1F
100
AcDbEntity
  8
외형선
  6
Continuous
370
    15
100
AcDbLine
 10
-3.568700000000064
 20
3.492500000000016
 30
0.0
 11
3.568700000000064
 21
3.492500000000016
 31
0.0
1001
PE_URL
1000

  0
LINE
  5
1D6
330
1F
100
AcDbEntity
  8
외형선
  6
Continuous
370
    15
100
AcDbLine
 10
-3.568700000000064
 20
3.492500000000016
 30
0.0
 11
-4.838700000000046
 21
4.762499999999998
 31
0.0
1001
PE_URL
1000

  0
LINE
  5
1D7
330
1F
100
AcDbEntity
  8
외형선
  6
Continuous
370
    15
100
AcDbLine
 10
3.568700000000064
 20
3.492500000000016
 30
0.0
 11
4.838700000000159
 21
4.762499999999998
 31
0.0
1001
PE_URL
1000

  0
LINE
  5
23A
330
1F
100
AcDbEntity
  8
외형선
  6
Continuous
370
    15
100
AcDbLine
 10
-4.838700000000046
 20
4.762499999999997
 30
0.0
 11
-23.8799785006313
 21
4.762499999999996
 31
0.0
  0
SPLINE
  5
287
330
1F
100
AcDbEntity
  8
외형선
  6
Continuous
370
    15
100
AcDbSpline
210
0.0
220
0.0
230
1.0
 70
     8
 71
     3
 72
    14
 73
    10
 74
     0
 42
0.000000001
 43
0.00000001
 40
0.0
 40
0.0
 40
0.0
 40
0.0
 40
0.0035413360345658
 40
0.0259315142501359
 40
0.0981786119297674
 40
0.4393518707997043
 40
0.673614144443152
 40
0.9101356890215441
 40
1.0
 40
1.0
 40
1.0
 40
1.0
 10
-24.39156236338181
 20
-3.731358948977402
 30
0.0
 10
-24.39049721678544
 20
-3.731488471883385
 30
0.0
 10
-24.38269765642955
 20
-3.732436906329998
 30
0.0
 10
-24.35715517570828
 20
-3.749607169973025
 30
0.0
 10
-24.25761914284134
 20
-3.824217324777894
 30
0.0
 10
-24.1314724347516
 20
-3.945936421255752
 30
0.0
 10
-24.00321112745865
 20
-4.066353315976311
 30
0.0
 10
-23.93488705441198
 20
-4.131483487967269
 30
0.0
 10
-23.91907363962752
 20
-4.140727455451113
 30
0.0
 10
-23.91471970823121
 20
-4.143272610991716
 30
0.0
  0
LINE
  5
288
330
1F
100
AcDbEntity
  8
외형선
  6
Continuous
370
    15
100
AcDbLine
 10
-25.40000000000002
 20
-3.74930972690321
 30
0.0
 11
-24.38976610908114
 21
-3.730530165136766
 31
0.0
  0
LINE
  5
289
330
1F
100
AcDbEntity
  8
외형선
  6
Continuous
370
    15
100
AcDbLine
 10
-23.87080266349896
 20
3.722240172412144
 30
0.0
 11
-25.25849152724928
 21
3.746804771380036
 31
0.0
  0
SPLINE
  5
28A
330
1F
100
AcDbEntity
  8
0
  6
Continuous
 62
     1
370
    15
100
AcDbSpline
210
0.0
220
0.0
230
1.0
 70
     8
 71
     3
 72
     9
 73
     5
 74
     0
 42
0.000000001
 43
0.00000001
 40
0.0
 40
0.0
 40
0.0
 40
0.0
 40
0.5109007648022174
 40
1.0
 40
1.0
 40
1.0
 40
1.0
 10
-27.34833955335796
 20
-1.220389651155301
 30
0.0
 10
-27.12080560756063
 20
-1.329087236712432
 30
0.0
 10
-26.67544721024954
 20
-1.541843985274376
 30
0.0
 10
-26.22532597455908
 20
-1.777969254804425
 30
0.0
 10
-26.00517202243659
 20
-1.893457943542444
 30
0.0
1001
PE_URL
1000

  0
LINE
  5
28B
330
1F
100
AcDbEntity
  8
0
  6
Continuous
 62
     1
370
    15
100
AcDbLine
 10
-25.80200973099321
 20
-3.785907214455676
 30
0.0
 11
-25.40000000000001
 21
-3.74930972690321
 31
0.0
1001
PE_URL
1000

  0
SPLINE
  5
28C
330
1F
100
AcDbEntity
  8
0
  6
Continuous
 62
     1
370
    15
100
AcDbSpline
210
0.0
220
0.0
230
1.0
 70
     8
 71
     3
 72
    25
 73
    21
 74
     0
 42
0.000000001
 43
0.00000001
 40
0.0
 40
0.0
 40
0.0
 40
0.0
 40
0.0986143293965472
 40
0.1816898451147912
 40
0.2484097458346133
 40
0.3044479555561863
 40
0.3434539023980131
 40
0.3776153248128776
 40
0.4080684502657527
 40
0.4375759970529847
 40
0.4702346668911381
 40
0.5062798315341841
 40
0.5447121666042405
 40
0.6150579023263528
 40
0.6771814193469986
 40
0.7410153667494401
 40
0.7826593185367606
 40
0.838611159336821
 40
0.910897065671085
 40
1.0
 40
1.0
 40
1.0
 40
1.0
 10
-37.91749579582724
 20
-3.257322830448643
 30
0.0
 10
-37.64311695148251
 20
-3.235561506901036
 30
0.0
 10
-37.13759356520765
 20
-3.195467825495381
 30
0.0
 10
-36.44796874492914
 20
-3.16112199260996
 30
0.0
 10
-35.87763883399644
 20
-3.142469270052761
 30
0.0
 10
-35.42923744679092
 20
-3.135108823857056
 30
0.0
 10
-35.06986976915974
 20
-3.13356761483498
 30
0.0
 10
-34.7819290060859
 20
-3.135046286040129
 30
0.0
 10
-34.52053851211349
 20
-3.138558457302814
 30
0.0
 10
-34.26352956170636
 20
-3.143999717662684
 30
0.0
 10
-33.99127332532403
 20
-3.151970666834288
 30
0.0
 10
-33.69419172591982
 20
-3.163250703496256
 30
0.0
 10
-33.29261633374615
 20
-3.182238498233435
 30
0.0
 10
-32.82081967445339
 20
-3.211042081427085
 30
0.0
 10
-32.28703104546767
 20
-3.251875644197082
 30
0.0
 10
-31.81033940699574
 20
-3.296659697854246
 30
0.0
 10
-31.34954087800431
 20
-3.344266458015394
 30
0.0
 10
-30.87401914398197
 20
-3.399497322199878
 30
0.0
 10
-30.27793159333907
 20
-3.478286258626692
 30
0.0
 10
-29.84006598125162
 20
-3.545129567286381
 30
0.0
 10
-29.59831995520423
 20
-3.582033822359762
 30
0.0
1001
PE_URL
1000

  0
SPLINE
  5
28D
330
1F
100
AcDbEntity
  8
0
  6
Continuous
 62
     1
370
    15
100
AcDbSpline
210
0.0
220
0.0
230
1.0
 70
     8
 71
     3
 72
    14
 73
    10
 74
     0
 42
0.000000001
 43
0.00000001
 40
0.0
 40
0.0
 40
0.0
 40
0.0
 40
0.1709662272364958
 40
0.3111920945330799
 40
0.451192082691193
 40
0.6008662650539803
 40
0.7620865170789229
 40
0.9357519758672375
 40
1.0
 40
1.0
 40
1.0
 40
1.0
 10
-29.59831995520424
 20
3.582033822359746
 30
0.0
 10
-29.77295141172676
 20
3.553766450657198
 30
0.0
 10
-30.09081494305119
 20
3.502314285225175
 30
0.0
 10
-30.62863310765104
 20
3.423194277599894
 30
0.0
 10
-31.1635544612703
 20
3.364995347303546
 30
0.0
 10
-31.72019313704292
 20
3.304580286651587
 30
0.0
 10
-32.30931878901967
 20
3.250288451206927
 30
0.0
 10
-32.79234884316688
 20
3.212341305335876
 30
0.0
 10
-33.07855820306283
 20
3.196474076965981
 30
0.0
 10
-33.15584842485204
 20
3.192189166086981
 30
0.0
1001
PE_URL
1000

  0
LINE
  5
28E
330
1F
100
AcDbEntity
  8
0
  6
Continuous
 62
     1
370
    15
100
AcDbLine
 10
-25.57893747239994
 20
3.765599536362901
 30
0.0
 11
-25.80200973099322
 21
3.785907214455664
 31
0.0
1001
PE_URL
1000

  0
SPLINE
  5
28F
330
1F
100
AcDbEntity
  8
외형선
  6
Continuous
370
    15
100
AcDbSpline
210
0.0
220
0.0
230
1.0
 70
     8
 71
     3
 72
    10
 73
     6
 74
     0
 42
0.000000001
 43
0.00000001
 40
0.0
 40
0.0
 40
0.0
 40
0.0
 40
0.5
 40
0.5
 40
1.0
 40
1.0
 40
1.0
 40
1.0
 10
-25.40000000000001
 20
-2.208115852276087
 30
0.0
 10
-25.14618363443061
 20
-2.33783738384237
 30
0.0
 10
-24.89453098731278
 20
-2.464066945027209
 30
0.0
 10
-24.388627607982
 20
-2.709644313560489
 30
0.0
 10
-24.13421426709601
 20
-2.829002530364637
 30
0.0
 10
-23.8799559626702
 20
-2.944150604968378
 30
0.0
  0
LINE
  5
290
330
1F
100
AcDbEntity
  8
외형선
  6
Continuous
370
    15
100
AcDbLine
 10
-25.40000000000001
 20
-2.208115852276087
 30
0.0
 11
-25.40000000000001
 21
-0.9568405010214569
 31
0.0
  0
SPLINE
  5
291
330
1F
100
AcDbEntity
  8
외형선
  6
Continuous
370
    15
100
AcDbSpline
210
0.0
220
0.0
230
1.0
 70
     8
 71
     3
 72
    10
 73
     6
 74
     0
 42
0.000000001
 43
0.00000001
 40
0.0
 40
0.0
 40
0.0
 40
0.0
 40
0.5
 40
0.5
 40
1.0
 40
1.0
 40
1.0
 40
1.0
 10
-23.8799785006313
 20
-1.795760268760908
 30
0.0
 10
-24.1342330579936
 20
-1.660081212430935
 30
0.0
 10
-24.38864259917657
 20
-1.521821353516358
 30
0.0
 10
-24.89453841825607
 20
-1.241922733721267
 30
0.0
 10
-25.14618738422833
 20
-1.100262216266884
 30
0.0
 10
-25.40000000000002
 20
-0.9568405010214569
 30
0.0
  0
LINE
  5
292
330
1F
100
AcDbEntity
  8
외형선
  6
Continuous
370
    15
100
AcDbLine
 10
-23.87997850063129
 20
-2.944311035803459
 30
0.0
 11
-23.87997850063129
 21
-4.762500000000003
 31
0.0
  0
LINE
  5
293
330
1F
100
AcDbEntity
  8
외형선
  6
Continuous
370
    15
100
AcDbLine
 10
-23.8799785006313
 20
4.762499999999994
 30
0.0
 11
-23.8799785006313
 21
-1.795757003018061
 31
0.0
  0
SPLINE
  5
294
330
1F
100
AcDbEntity
  8
외형선
  6
Continuous
370
    15
100
AcDbSpline
210
0.0
220
0.0
230
1.0
 70
    24
 71
     3
 72
    11
 73
     7
 74
     0
 42
0.000000001
 43
0.00000001
 40
0.0
 40
0.0
 40
0.0
 40
0.0
 40
0.2004070572518078
 40
0.5887338554323263
 40
0.7935232332631014
 40
1.0
 40
1.0
 40
1.0
 40
1.0
 10
-25.40000000000001
 20
-0.9015058273380596
 30
0.0
 10
-25.40000000000001
 20
-0.8890324686671001
 30
0.0
 10
-25.40000000000001
 20
-0.8523896046819388
 30
0.0
 10
-25.40000000000001
 20
-0.7557473414628575
 30
0.0
 10
-25.40000000000001
 20
-0.6408374550336866
 30
0.0
 10
-25.40000000000001
 20
-0.5703630704607612
 30
0.0
 10
-25.40000000000001
 20
-0.5349813030661039
 30
0.0
  0
SPLINE
  5
295
330
1F
100
AcDbEntity
  8
외형선
  6
Continuous
370
    15
100
AcDbSpline
210
0.0
220
0.0
230
1.0
 70
     8
 71
     3
 72
    10
 73
     6
 74
     0
 42
0.000000001
 43
0.00000001
 40
0.0
 40
0.0
 40
0.0
 40
0.0
 40
0.5
 40
0.5
 40
1.0
 40
1.0
 40
1.0
 40
1.0
 10
-25.40000000000001
 20
-0.5349813030661039
 30
0.0
 10
-25.14618648110332
 20
-0.6361383877017701
 30
0.0
 10
-24.89453662854078
 20
-0.736251114092056
 30
0.0
 10
-24.38863898860263
 20
-0.9344571448704855
 30
0.0
 10
-24.13422853227512
 20
-1.032566755984757
 30
0.0
 10
-23.87997307244606
 20
-1.129051510998849
 30
0.0
  0
LINE
  5
296
330
1F
100
AcDbEntity
  8
외형선
  6
Continuous
370
    15
100
AcDbLine
 10
-25.4
 20
-3.760622452667022
 30
0.0
 11
-25.2406540878705
 21
-3.746347594642586
 31
0.0
  0
SPLINE
  5
297
330
1F
100
AcDbEntity
  8
외형선
  6
Continuous
370
    15
100
AcDbSpline
210
0.0
220
0.0
230
1.0
 70
    24
 71
     3
 72
    12
 73
     8
 74
     0
 42
0.000000001
 43
0.00000001
 40
0.0
 40
0.0
 40
0.0
 40
0.0
 40
0.1443199665903925
 40
0.3785199850598422
 40
0.6195118199307423
 40
0.8307697362392176
 40
0.9999999999999999
 40
0.9999999999999999
 40
0.9999999999999999
 40
0.9999999999999999
 10
-25.40000000000001
 20
-3.746081689124008
 30
0.0
 10
-25.40000000000001
 20
-3.727652007513804
 30
0.0
 10
-25.40000000000001
 20
-3.679314948044055
 30
0.0
 10
-25.40000000000001
 20
-3.470258377626422
 30
0.0
 10
-25.40000000000001
 20
-3.110842804922761
 30
0.0
 10
-25.40000000000002
 20
-2.68517426184701
 30
0.0
 10
-25.40000000000002
 20
-2.354977798399766
 30
0.0
 10
-25.40000000000002
 20
-2.208115852276016
 30
0.0
  0
SPLINE
  5
298
330
1F
100
AcDbEntity
  8
외형선
  6
Continuous
370
    15
100
AcDbSpline
210
0.0
220
0.0
230
1.0
 70
     8
 71
     3
 72
    10
 73
     6
 74
     0
 42
0.000000001
 43
0.00000001
 40
0.0
 40
0.0
 40
0.0
 40
0.0
 40
0.5000000000000001
 40
0.5000000000000001
 40
1.0
 40
1.0
 40
1.0
 40
1.0
 10
-25.40000000000001
 20
3.760622452667009
 30
0.0
 10
-25.14618601530578
 20
3.741826693792003
 30
0.0
 10
-24.89453570547366
 20
3.717765796878673
 30
0.0
 10
-24.38863712640583
 20
3.659134632214748
 30
0.0
 10
-24.13422619808158
 20
3.62453472901073
 30
0.0
 10
-23.87997027279453
 20
3.584844169711381
 30
0.0
  0
SPLINE
  5
299
330
1F
100
AcDbEntity
  8
외형선
  6
Continuous
370
    15
100
AcDbSpline
210
0.0
220
0.0
230
1.0
 70
    24
 71
     3
 72
    14
 73
    10
 74
     0
 42
0.000000001
 43
0.00000001
 40
0.0
 40
0.0
 40
0.0
 40
0.0
 40
0.25
 40
0.25
 40
0.5
 40
0.5
 40
0.75
 40
0.75
 40
1.0
 40
1.0
 40
1.0
 40
1.0
 10
-25.40000000000002
 20
-0.5349813030661039
 30
0.0
 10
-25.40000000000002
 20
-0.1136979953215373
 30
0.0
 10
-25.40000000000002
 20
0.31835515985237
 30
0.0
 10
-25.40000000000002
 20
1.163531373598115
 30
0.0
 10
-25.40000000000002
 20
1.57620674868182
 30
0.0
 10
-25.40000000000002
 20
2.33965938310036
 30
0.0
 10
-25.40000000000002
 20
2.690029842952979
 30
0.0
 10
-25.40000000000002
 20
3.297804198547551
 30
0.0
 10
-25.40000000000002
 20
3.555093854520754
 30
0.0
 10
-25.40000000000002
 20
3.760622452667008
 30
0.0
  0
SPLINE
  5
29A
330
1F
100
AcDbEntity
  8
0
  6
Continuous
 62
     1
370
    15
100
AcDbSpline
210
0.0
220
0.0
230
1.0
 70
     8
 71
     3
 72
    34
 73
    30
 74
     0
 42
0.000000001
 43
0.00000001
 40
0.0
 40
0.0
 40
0.0
 40
0.0
 40
0.1249999999999998
 40
0.1249999999999998
 40
0.2499999999999997
 40
0.2499999999999997
 40
0.3124999999999997
 40
0.3124999999999997
 40
0.3749999999999997
 40
0.3749999999999997
 40
0.4374999999999997
 40
0.4374999999999997
 40
0.4999999999999998
 40
0.4999999999999998
 40
0.5624999999999998
 40
0.5624999999999998
 40
0.6249999999999998
 40
0.6249999999999998
 40
0.6874999999999999
 40
0.6874999999999999
 40
0.7499999999999999
 40
0.7499999999999999
 40
0.8124999999999999
 40
0.8124999999999999
 40
0.8749999999999999
 40
0.8749999999999999
 40
0.9375
 40
0.9375
 40
1.0
 40
1.0
 40
1.0
 40
1.0
 10
-39.68750000000001
 20
4.519330889716906
 30
0.0
 10
-39.09597335630261
 20
4.41114328427599
 30
0.0
 10
-38.49361085391769
 20
4.266739886569892
 30
0.0
 10
-37.30903568420739
 20
3.915441996825532
 30
0.0
 10
-36.70822084118714
 20
3.706795919347652
 30
0.0
 10
-35.81872999214391
 20
3.354363451756191
 30
0.0
 10
-35.5219623083442
 20
3.230087567434865
 30
0.0
 10
-34.92499078659974
 20
2.96890480398328
 30
0.0
 10
-34.6260277032913
 20
2.832162959249063
 30
0.0
 10
-34.03238233537665
 20
2.5488388345569
 30
0.0
 10
-33.73624722366307
 20
2.402046977453617
 30
0.0
 10
-33.13944405068348
 20
2.098899562383389
 30
0.0
 10
-32.84037237349504
 20
1.942798460191892
 30
0.0
 10
-32.24613058554078
 20
1.624313141315865
 30
0.0
 10
-31.95048260068168
 20
1.461860696107106
 30
0.0
 10
-31.35390381068073
 20
1.130917120871658
 30
0.0
 10
-31.05475176592958
 20
0.9627443467161214
 30
0.0
 10
-30.45996879212963
 20
0.623959470885115
 30
0.0
 10
-30.16466233717056
 20
0.4534175355076897
 30
0.0
 10
-29.56836389411028
 20
0.1101429208346367
 30
0.0
 10
-29.26915973348718
 20
-0.062248100796932
 30
0.0
 10
-28.67389097671814
 20
-0.405512524393064
 30
0.0
 10
-28.37878034829563
 20
-0.5762050684606628
 30
0.0
 10
-27.78281812841015
 20
-0.9157734898155496
 30
0.0
 10
-27.4835901200642
 20
-1.084331186474682
 30
0.0
 10
-26.8878911347768
 20
-1.416037413474516
 30
0.0
 10
-26.59283056850175
 20
-1.57893828169237
 30
0.0
 10
-25.99726034287857
 20
-1.898942304929797
 30
0.0
 10
-25.69803676249127
 20
-2.055793974974435
 30
0.0
 10
-25.39999999999695
 20
-2.208115852277658
 30
0.0
1001
PE_URL
1000

  0
SPLINE
  5
29B
330
1F
100
AcDbEntity
  8
0
  6
Continuous
 62
     1
370
    15
100
AcDbSpline
210
0.0
220
0.0
230
1.0
 70
     8
 71
     3
 72
    17
 73
    13
 74
     0
 42
0.000000001
 43
0.00000001
 40
0.0
 40
0.0
 40
0.0
 40
0.0
 40
0.1065082465201911
 40
0.2128431210364237
 40
0.3192409430374748
 40
0.4258216172961518
 40
0.5322082886936682
 40
0.6385472117490553
 40
0.745072945932936
 40
0.8515629878098104
 40
0.9578947913368023
 40
0.9999999999999999
 40
0.9999999999999999
 40
0.9999999999999999
 40
0.9999999999999999
 10
-39.6875
 20
3.757480409053613
 30
0.0
 10
-39.24804146631276
 20
3.66807450057455
 30
0.0
 10
-38.36983974079325
 20
3.489408216774882
 30
0.0
 10
-37.05314935364413
 20
3.106525281343211
 30
0.0
 10
-35.73601615503614
 20
2.651396358640273
 30
0.0
 10
-34.4180350869256
 20
2.127942824783114
 30
0.0
 10
-33.10096308606259
 20
1.549808908770487
 30
0.0
 10
-31.78422538941183
 20
0.9320588994462256
 30
0.0
 10
-30.4664925096606
 20
0.291064820972494
 30
0.0
 10
-29.14889530135792
 20
-0.3557228872263885
 30
0.0
 10
-28.09751932632119
 20
-0.871067778857082
 30
0.0
 10
-27.48516797796161
 20
-1.154353336975895
 30
0.0
 10
-27.31147018576383
 20
-1.234709289712132
 30
0.0
1001
PE_URL
1000

  0
LINE
  5
29C
330
1F
100
AcDbEntity
  8
0
  6
Continuous
 62
     1
370
    15
100
AcDbLine
 10
-39.68749999999994
 20
4.519330889716906
 30
0.0
 11
-39.6875
 21
3.757480409053613
 31
0.0
1001
PE_URL
1000

  0
SPLINE
  5
29D
330
1F
100
AcDbEntity
  8
0
  6
Continuous
 62
     1
370
    15
100
AcDbSpline
210
0.0
220
0.0
230
1.0
 70
     8
 71
     3
 72
    34
 73
    30
 74
     0
 42
0.000000001
 43
0.00000001
 40
0.0
 40
0.0
 40
0.0
 40
0.0
 40
0.0625
 40
0.0625
 40
0.125
 40
0.125
 40
0.1875000000000001
 40
0.1875000000000001
 40
0.2500000000000001
 40
0.2500000000000001
 40
0.3125
 40
0.3125
 40
0.375
 40
0.375
 40
0.4374999999999999
 40
0.4374999999999999
 40
0.4999999999999999
 40
0.4999999999999999
 40
0.5624999999999998
 40
0.5624999999999998
 40
0.6249999999999998
 40
0.6249999999999998
 40
0.6874999999999998
 40
0.6874999999999998
 40
0.7499999999999998
 40
0.7499999999999998
 40
0.8749999999999999
 40
0.8749999999999999
 40
1.0
 40
1.0
 40
1.0
 40
1.0
 10
-25.40000000000002
 20
-0.9568405010214533
 30
0.0
 10
-25.69803676249429
 20
-0.788429078471939
 30
0.0
 10
-25.99726034288152
 20
-0.6179195328132145
 30
0.0
 10
-26.59283056850456
 20
-0.2756985731404207
 30
0.0
 10
-26.88789113477955
 20
-0.1042393471595204
 30
0.0
 10
-27.48359012006684
 20
0.2394878162775989
 30
0.0
 10
-27.78281812841272
 20
0.4114829487167633
 30
0.0
 10
-28.37878034829806
 20
0.752717576729502
 30
0.0
 10
-28.67389097672051
 20
0.9216528962223016
 30
0.0
 10
-29.26915973348943
 20
1.25622757312285
 30
0.0
 10
-29.56836389411247
 20
1.421675263379292
 30
0.0
 10
-30.16466233717261
 20
1.745979284730121
 30
0.0
 10
-30.4599687921316
 20
1.90452734561158
 30
0.0
 10
-31.05475176593145
 20
2.214328063011477
 30
0.0
 10
-31.35390381068252
 20
2.365501879895101
 30
0.0
 10
-31.95048260068336
 20
2.657717422412572
 30
0.0
 10
-32.24613058554236
 20
2.798491475330033
 30
0.0
 10
-32.84037237349652
 20
3.069063351543688
 30
0.0
 10
-33.13944405068489
 20
3.198905218570092
 30
0.0
 10
-33.73624722366435
 20
3.445371066387951
 30
0.0
 10
-34.03238233537786
 20
3.561800303520405
 30
0.0
 10
-34.62602770329238
 20
3.780531267136832
 30
0.0
 10
-34.92499078660077
 20
3.882981849957339
 30
0.0
 10
-35.52196230834511
 20
4.072173705499123
 30
0.0
 10
-35.81872999214475
 20
4.158805707551972
 30
0.0
 10
-36.7082208411878
 20
4.393871093044977
 30
0.0
 10
-37.3090356842079
 20
4.517912875198403
 30
0.0
 10
-38.49361085391794
 20
4.692747134202852
 30
0.0
 10
-39.09597335630274
 20
4.744377359133539
 30
0.0
 10
-39.68750000000001
 20
4.76249999999998
 30
0.0
1001
PE_URL
1000

  0
SPLINE
  5
29E
330
1F
100
AcDbEntity
  8
0
  6
Continuous
 62
     1
370
    15
100
AcDbSpline
210
0.0
220
0.0
230
1.0
 70
     8
 71
     3
 72
     9
 73
     5
 74
     0
 42
0.000000001
 43
0.00000001
 40
0.0
 40
0.0
 40
0.0
 40
0.0
 40
0.3499028582190509
 40
1.0
 40
1.0
 40
1.0
 40
1.0
 10
-27.85462301896685
 20
0.4511404202534344
 30
0.0
 10
-27.56831672485359
 20
0.3367512446677488
 30
0.0
 10
-26.75007163943044
 20
0.0098342935805107
 30
0.0
 10
-25.93189457261042
 20
-0.3203375386418017
 30
0.0
 10
-25.40000000000001
 20
-0.5349813030661039
 30
0.0
1001
PE_URL
1000

  0
SPLINE
  5
29F
330
1F
100
AcDbEntity
  8
외형선
  6
Continuous
370
    15
100
AcDbSpline
210
0.0
220
0.0
230
1.0
 70
    24
 71
     3
 72
    11
 73
     7
 74
     0
 42
0.000000001
 43
0.00000001
 40
0.0
 40
0.0
 40
0.0
 40
0.0
 40
0.200368426016175
 40
0.5887139856729914
 40
0.7935132576214955
 40
1.0
 40
1.0
 40
1.0
 40
1.0
 10
-25.40000000000002
 20
-0.90149582733806
 30
0.0
 10
-25.40000000000002
 20
-0.8890252744131715
 30
0.0
 10
-25.40000000000002
 20
-0.8523848263050198
 30
0.0
 10
-25.40000000000002
 20
-0.7557471571570851
 30
0.0
 10
-25.40000000000002
 20
-0.6408374889124495
 30
0.0
 10
-25.40000000000002
 20
-0.570363081784528
 30
0.0
 10
-25.40000000000002
 20
-0.5349813030661039
 30
0.0
  0
LINE
  5
2A0
330
1F
100
AcDbEntity
  8
0
  6
Continuous
 62
     1
370
    15
100
AcDbLine
 10
-39.6875
 20
4.76249999999998
 30
0.0
 11
-39.68749999999993
 21
4.519330889716903
 31
0.0
1001
PE_URL
1000

  0
SPLINE
  5
2A1
330
1F
100
AcDbEntity
  8
0
  6
Continuous
 62
     1
370
    15
100
AcDbSpline
210
0.0
220
0.0
230
1.0
 70
     8
 71
     3
 72
     8
 73
     4
 74
     0
 42
0.000000001
 43
0.00000001
 40
0.0
 40
0.0
 40
0.0
 40
0.0
 40
1.0
 40
1.0
 40
1.0
 40
1.0
 10
-36.74069177087968
 20
-1.332157722515852
 30
0.0
 10
-36.57091672496114
 20
-1.533287874482905
 30
0.0
 10
-36.41997175025556
 20
-1.7262241154632
 30
0.0
 10
-36.2918834932226
 20
-1.909214249074772
 30
0.0
1001
PE_URL
1000

  0
LINE
  5
2A2
330
1F
100
AcDbEntity
  8
0
  6
Continuous
 62
     1
370
    15
100
AcDbLine
 10
-36.35206634281501
 20
-1.959713655970969
 30
0.0
 11
-39.6875
 21
-0.0000000000000213
 31
0.0
1001
PE_URL
1000

  0
LINE
  5
2A3
330
1F
100
AcDbEntity
  8
0
  6
Continuous
 62
     1
370
    15
100
AcDbLine
 10
-39.6875
 20
-0.0000000000000213
 30
0.0
 11
-39.6875
 21
1.272744530466166
 31
0.0
1001
PE_URL
1000

  0
SPLINE
  5
2A4
330
1F
100
AcDbEntity
  8
0
  6
Continuous
 62
     1
370
    15
100
AcDbSpline
210
0.0
220
0.0
230
1.0
 70
     8
 71
     3
 72
    12
 73
     8
 74
     0
 42
0.000000001
 43
0.00000001
 40
0.0
 40
0.0
 40
0.0
 40
0.0
 40
0.5
 40
0.5
 40
0.75
 40
0.75
 40
1.0
 40
1.0
 40
1.0
 40
1.0
 10
-39.68750000000001
 20
1.272744530466166
 30
0.0
 10
-39.17739851532635
 20
0.871718682889604
 30
0.0
 10
-38.67581718328908
 20
0.4542496700308689
 30
0.0
 10
-37.93655392059149
 20
-0.1972525864200776
 30
0.0
 10
-37.69235565325276
 20
-0.4187098580069772
 30
0.0
 10
-37.20894649459787
 20
-0.8712496099960099
 30
0.0
 10
-36.97105473523948
 20
-1.101157755784065
 30
0.0
 10
-36.74069177087809
 20
-1.332157722516872
 30
0.0
1001
PE_URL
1000

  0
SPLINE
  5
2A5
330
1F
100
AcDbEntity
  8
0
  6
Continuous
 62
     1
370
    15
100
AcDbSpline
210
0.0
220
0.0
230
1.0
 70
     8
 71
     3
 72
    14
 73
    10
 74
     0
 42
0.000000001
 43
0.00000001
 40
0.0
 40
0.0
 40
0.0
 40
0.0
 40
0.1450658496988752
 40
0.290143320700442
 40
0.4352650217742834
 40
0.5804633447666463
 40
0.7325788414757934
 40
0.8846483716875237
 40
1.0
 40
1.0
 40
1.0
 40
1.0
 10
-36.74069177087809
 20
-1.332157722516868
 30
0.0
 10
-36.21175389968539
 20
-1.556354735658484
 30
0.0
 10
-35.15383578380467
 20
-2.004766722484167
 30
0.0
 10
-33.56676581805714
 20
-2.590323944435418
 30
0.0
 10
-31.97915277862733
 20
-3.083488446422116
 30
0.0
 10
-30.36573937635992
 20
-3.469042059516877
 30
0.0
 10
-28.72691940927512
 20
-3.720881989648596
 30
0.0
 10
-27.19703913450148
 20
-3.834539937640546
 30
0.0
 10
-26.22189485756297
 20
-3.790695713247889
 30
0.0
 10
-25.80126815470517
 20
-3.771783587133037
 30
0.0
1001
PE_URL
1000

  0
SPLINE
  5
2A6
330
1F
100
AcDbEntity
  8
0
  6
Continuous
 62
     1
370
    15
100
AcDbSpline
210
0.0
220
0.0
230
1.0
 70
    24
 71
     3
 72
    10
 73
     6
 74
     0
 42
0.000000001
 43
0.00000001
 40
0.0
 40
0.0
 40
0.0
 40
0.0
 40
0.5
 40
0.5
 40
1.0
 40
1.0
 40
1.0
 40
1.0
 10
-39.6875
 20
3.757480409053612
 30
0.0
 10
-39.68750000000001
 20
3.469440240130604
 30
0.0
 10
-39.6875
 20
3.105490442104541
 30
0.0
 10
-39.68750000000001
 20
2.259342187955097
 30
0.0
 10
-39.6875
 20
1.777876697531847
 30
0.0
 10
-39.6875
 20
1.272744530466316
 30
0.0
1001
PE_URL
1000

  0
SPLINE
  5
2A7
330
1F
100
AcDbEntity
  8
외형선
  6
Continuous
370
    15
100
AcDbSpline
210
0.0
220
0.0
230
1.0
 70
    24
 71
     3
 72
    12
 73
     8
 74
     0
 42
0.000000001
 43
0.00000001
 40
0.0
 40
0.0
 40
0.0
 40
0.0
 40
0.1443655492700369
 40
0.3785530917391152
 40
0.6195320888047878
 40
0.830778751254875
 40
1.0
 40
1.0
 40
1.0
 40
1.0
 10
-25.40000000000001
 20
-3.746106358723271
 30
0.0
 10
-25.40000000000001
 20
-3.727670704464899
 30
0.0
 10
-25.40000000000001
 20
-3.679329019395105
 30
0.0
 10
-25.40000000000001
 20
-3.470259672420763
 30
0.0
 10
-25.40000000000001
 20
-3.11084250077408
 30
0.0
 10
-25.40000000000002
 20
-2.685174317196999
 30
0.0
 10
-25.40000000000002
 20
-2.354977815439202
 30
0.0
 10
-25.40000000000002
 20
-2.208115852276016
 30
0.0
  0
SPLINE
  5
2A8
330
1F
100
AcDbEntity
  8
0
  6
Continuous
 62
     1
370
    15
100
AcDbSpline
210
0.0
220
0.0
230
1.0
 70
    24
 71
     3
 72
     8
 73
     4
 74
     0
 42
0.000000001
 43
0.00000001
 40
0.0
 40
0.0
 40
0.0
 40
0.0
 40
1.0
 40
1.0
 40
1.0
 40
1.0
 10
-36.78866348196402
 20
-2.326062154403949
 30
0.0
 10
-36.63226566468258
 20
-2.194828803606157
 30
0.0
 10
-36.46558902170983
 20
-2.054970493961854
 30
0.0
 10
-36.29188349322261
 20
-1.909214249074772
 30
0.0
1001
PE_URL
1000

  0
LINE
  5
2A9
330
1F
100
AcDbEntity
  8
0
  6
Continuous
 62
     1
370
    15
100
AcDbLine
 10
-39.6875
 20
-3.333750000000016
 30
0.0
 11
-37.91546241296847
 21
-3.248376776064681
 31
0.0
1001
PE_URL
1000

  0
SPLINE
  5
2AA
330
1F
100
AcDbEntity
  8
0
  6
Continuous
 62
     1
370
    15
100
AcDbSpline
210
0.0
220
0.0
230
1.0
 70
     8
 71
     3
 72
    10
 73
     6
 74
     0
 42
0.000000001
 43
0.00000001
 40
0.0
 40
0.0
 40
0.0
 40
0.0
 40
0.5
 40
0.5
 40
1.0
 40
1.0
 40
1.0
 40
1.0
 10
-39.6875
 20
-3.33375000000002
 30
0.0
 10
-39.19751264253257
 20
-3.200834845326561
 30
0.0
 10
-38.71051485177489
 20
-3.051663544638934
 30
0.0
 10
-37.74305890356419
 20
-2.717760862422082
 30
0.0
 10
-37.26289416209677
 20
-2.533650312169186
 30
0.0
 10
-36.78866348196324
 20
-2.326062154404664
 30
0.0
1001
PE_URL
1000

  0
SPLINE
  5
2AB
330
1F
100
AcDbEntity
  8
0
  6
Continuous
 62
     1
370
    15
100
AcDbSpline
210
0.0
220
0.0
230
1.0
 70
     8
 71
     3
 72
    10
 73
     6
 74
     0
 42
0.000000001
 43
0.00000001
 40
0.0
 40
0.0
 40
0.0
 40
0.0
 40
0.2084482148299043
 40
0.6042724536794742
 40
1.0
 40
1.0
 40
1.0
 40
1.0
 10
-29.60289349634038
 20
3.56309820266164
 30
0.0
 10
-29.3108501972919
 20
3.612030431952528
 30
0.0
 10
-28.46424318249602
 20
3.753880523025458
 30
0.0
 10
-27.06328101351295
 20
3.835520813031456
 30
0.0
 10
-25.95438185173546
 20
3.78558653953715
 30
0.0
 10
-25.40000000000002
 20
3.760622452667009
 30
0.0
1001
PE_URL
1000

  0
SPLINE
  5
2AC
330
1F
100
AcDbEntity
  8
외형선
  6
Continuous
370
    15
100
AcDbSpline
210
0.0
220
0.0
230
1.0
 70
    24
 71
     3
 72
    14
 73
    10
 74
     0
 42
0.000000001
 43
0.00000001
 40
0.0
 40
0.0
 40
0.0
 40
0.0
 40
0.25
 40
0.25
 40
0.5
 40
0.5
 40
0.75
 40
0.75
 40
1.0
 40
1.0
 40
1.0
 40
1.0
 10
-25.40000000000002
 20
-0.5349813030661039
 30
0.0
 10
-25.40000000000002
 20
-0.1136979953215373
 30
0.0
 10
-25.40000000000002
 20
0.31835515985237
 30
0.0
 10
-25.40000000000002
 20
1.163531373598115
 30
0.0
 10
-25.40000000000002
 20
1.57620674868182
 30
0.0
 10
-25.40000000000002
 20
2.33965938310036
 30
0.0
 10
-25.40000000000002
 20
2.690029842952979
 30
0.0
 10
-25.40000000000002
 20
3.297804198547551
 30
0.0
 10
-25.40000000000002
 20
3.555093854520754
 30
0.0
 10
-25.40000000000002
 20
3.760622452667008
 30
0.0
  0
LINE
  5
2AD
330
1F
100
AcDbEntity
  8
0
  6
Continuous
 62
     1
370
    15
100
AcDbLine
 10
-39.6875
 20
-0.0000000000000213
 30
0.0
 11
-39.6875
 21
-3.33375000000002
 31
0.0
1001
PE_URL
1000

  0
SPLINE
  5
2AE
330
1F
100
AcDbEntity
  8
0
  6
Continuous
 62
     1
370
    15
100
AcDbSpline
210
0.0
220
0.0
230
1.0
 70
    24
 71
     3
 72
    10
 73
     6
 74
     0
 42
0.000000001
 43
0.00000001
 40
0.0
 40
0.0
 40
0.0
 40
0.0
 40
0.5
 40
0.5
 40
1.0
 40
1.0
 40
1.0
 40
1.0
 10
-39.6875
 20
-3.333750000000016
 30
0.0
 10
-39.6875
 20
-3.535833623044848
 30
0.0
 10
-39.6875
 20
-3.770673507979662
 30
0.0
 10
-39.6875
 20
-4.263366954076091
 30
0.0
 10
-39.6875
 20
-4.519962238004531
 30
0.0
 10
-39.6875
 20
-4.762500000000021
 30
0.0
1001
PE_URL
1000

  0
SPLINE
  5
2AF
330
1F
100
AcDbEntity
  8
0
  6
Continuous
 62
     1
370
    15
100
AcDbSpline
210
0.0
220
0.0
230
1.0
 70
     8
 71
     3
 72
    14
 73
    10
 74
     0
 42
0.000000001
 43
0.00000001
 40
0.0
 40
0.0
 40
0.0
 40
0.0
 40
0.0145976423256461
 40
0.2275061397723842
 40
0.4426857579345448
 40
0.550903667044576
 40
0.7748268838577914
 40
0.8871560284658874
 40
1.0
 40
1.0
 40
1.0
 40
1.0
 10
-33.13798519077211
 20
-3.193345426587154
 30
0.0
 10
-33.16985245126348
 20
-3.207888154941564
 30
0.0
 10
-33.66650781914991
 20
-3.434538453384441
 30
0.0
 10
-34.63273612545527
 20
-3.792710355535895
 30
0.0
 10
-35.80411228110027
 20
-4.164720419842187
 30
0.0
 10
-36.99862092287724
 20
-4.45837535065915
 30
0.0
 10
-37.96899222682046
 20
-4.628710352412529
 30
0.0
 10
-38.94985438842917
 20
-4.729848492598816
 30
0.0
 10
-39.44124363181879
 20
-4.748918169168437
 30
0.0
 10
-39.68750000000001
 20
-4.762500000000021
 30
0.0
1001
PE_URL
1000

  0
ENDSEC
  0
SECTION
  2
OBJECTS
  0
DICTIONARY
  5
C
330
0
100
AcDbDictionary
281
     1
  3
ACAD_DETAILVIEWSTYLE
350
1DD
  3
ACAD_GROUP
350
D
  3
ACAD_LAYOUT
350
1A
  3
ACAD_MLINESTYLE
350
17
  3
ACAD_PLOTSETTINGS
350
19
  3
ACAD_PLOTSTYLENAME
350
E
  3
ACAD_SCALELIST
350
47
  3
ACAD_SECTIONVIEWSTYLE
350
1DE
  3
AcDbVariableDictionary
350
1D8
  3
APPDATA
350
14F
  3
DWGPROPS
350
2B0
  0
DICTIONARY
  5
188
330
2
100
AcDbDictionary
280
     1
281
     1
  3
ACAD_LAYERSTATES
360
189
  0
DICTIONARY
  5
237
330
1F
100
AcDbDictionary
280
     1
281
     1
  3
ACAD_SORTENTS
360
238
  0
DICTIONARY
  5
1DD
102
{ACAD_REACTORS
330
C
102
}
330
C
100
AcDbDictionary
281
     1
  0
DICTIONARY
  5
D
102
{ACAD_REACTORS
330
C
102
}
330
C
100
AcDbDictionary
281
     1
  0
DICTIONARY
  5
1A
102
{ACAD_REACTORS
330
C
102
}
330
C
100
AcDbDictionary
281
     1
  3
Layout1
350
1E
  3
Layout2
350
26
  3
Model
350
22
  0
DICTIONARY
  5
17
102
{ACAD_REACTORS
330
C
102
}
330
C
100
AcDbDictionary
281
     1
  3
Standard
350
18
  0
DICTIONARY
  5
19
102
{ACAD_REACTORS
330
C
102
}
330
C
100
AcDbDictionary
281
     1
  0
ACDBDICTIONARYWDFLT
  5
E
102
{ACAD_REACTORS
330
C
102
}
330
C
100
AcDbDictionary
281
     1
  3
Normal
350
F
100
AcDbDictionaryWithDefault
340
F
  0
DICTIONARY
  5
47
102
{ACAD_REACTORS
330
C
102
}
330
C
100
AcDbDictionary
281
     1
  3
A0
350
48
  3
A1
350
49
  3
A2
350
4A
  3
A3
350
4B
  3
A4
350
4C
  3
A5
350
4D
  3
A6
350
4E
  3
A7
350
4F
  3
A8
350
50
  3
A9
350
51
  3
B0
350
52
  3
B1
350
53
  3
B2
350
54
  3
B3
350
55
  3
B4
350
56
  3
B5
350
57
  3
B6
350
58
  3
B7
350
59
  3
B8
350
5A
  3
B9
350
5B
  3
C0
350
5C
  3
C1
350
5D
  3
C2
350
5E
  3
C3
350
5F
  3
C4
350
60
  3
C5
350
61
  3
C6
350
62
  3
C7
350
63
  3
C8
350
64
  3
C9
350
65
  3
D0
350
66
  3
D1
350
67
  3
D2
350
68
  0
DICTIONARY
  5
1DE
102
{ACAD_REACTORS
330
C
102
}
330
C
100
AcDbDictionary
281
     1
  0
DICTIONARY
  5
1D8
102
{ACAD_REACTORS
330
C
102
}
330
C
100
AcDbDictionary
281
     1
  0
DICTIONARY
  5
14F
102
{ACAD_REACTORS
330
C
102
}
330
C
100
AcDbDictionary
281
     1
  0
XRECORD
  5
2B0
102
{ACAD_REACTORS
330
C
102
}
330
C
100
AcDbXrecord
280
     1
  1
DWGPROPS COOKIE
  2

  3

  4

  6

  7

  8
120170442
  9

300
=
301
=
302
=
303
=
304
=
305
=
306
=
307
=
308
=
309
=
 40
0.0
 41
2458313.022158785
 42
2458324.114070104
  1

 90
        0
  0
DICTIONARY
  5
189
102
{ACAD_REACTORS
330
188
102
}
330
188
100
AcDbDictionary
281
     1
  0
SORTENTSTABLE
  5
238
102
{ACAD_REACTORS
330
237
102
}
330
237
100
AcDbSortentsTable
330
1F
331
0
  5
9B
331
96
  5
99
331
97
  5
9A
331
9A
  5
9D
331
9B
  5
9E
331
9C
  5
9F
331
9D
  5
A0
331
9E
  5
A1
331
9F
  5
A2
331
A0
  5
A3
331
A1
  5
A4
331
A2
  5
A5
331
A3
  5
A6
331
A4
  5
A7
331
A5
  5
A8
331
A7
  5
AA
331
A9
  5
AC
331
AA
  5
AD
331
AB
  5
AE
331
AC
  5
AF
331
AD
  5
B0
331
AE
  5
B1
331
AF
  5
B2
331
B0
  5
B3
331
B1
  5
B4
331
B2
  5
B5
331
B3
  5
B6
331
B4
  5
B7
331
B5
  5
B8
331
B6
  5
B9
331
B7
  5
BA
331
B8
  5
BB
331
B9
  5
BC
331
BA
  5
BD
331
BB
  5
BE
331
BC
  5
BF
331
BD
  5
C0
331
BE
  5
C1
331
BF
  5
C2
331
C0
  5
C3
331
C1
  5
C4
331
C2
  5
C5
331
C3
  5
C6
331
C4
  5
C7
331
C5
  5
C8
331
C6
  5
C9
331
C7
  5
CC
331
C8
  5
CD
331
C9
  5
CE
331
CC
  5
CF
331
CD
  5
D0
331
CE
  5
E5
331
CF
  5
F9
331
D0
  5
10D
331
E5
  5
120
331
F9
  5
121
331
10D
  5
122
331
120
  5
123
331
121
  5
124
331
122
  5
125
331
123
  5
126
331
124
  5
12D
331
125
  5
19B
331
126
  5
19C
331
12D
  5
19D
331
1D5
  5
1DF
331
1D6
  5
1E0
331
1D7
  5
1E1
331
0
  5
211
331
0
  5
212
331
0
  5
213
331
0
  5
214
331
0
  5
215
331
0
  5
216
331
0
  5
217
331
0
  5
218
331
0
  5
219
331
0
  5
21A
331
0
  5
21B
331
0
  5
21C
331
0
  5
21D
331
0
  5
21E
331
0
  5
21F
331
0
  5
220
331
0
  5
221
331
0
  5
222
331
0
  5
223
331
0
  5
224
331
0
  5
225
331
0
  5
226
331
0
  5
227
331
0
  5
228
331
0
  5
229
331
0
  5
22A
331
0
  5
22B
331
0
  5
22C
331
0
  5
98
331
0
  5
22D
331
0
  5
22E
331
0
  5
96
331
0
  5
22F
331
0
  5
230
331
0
  5
231
331
0
  5
232
331
0
  5
233
331
0
  5
234
331
0
  5
97
  0
LAYOUT
  5
1E
102
{ACAD_REACTORS
330
1A
102
}
330
1A
100
AcDbPlotSettings
  1

  2
none_device
  4

  6

 40
0.0
 41
0.0
 42
0.0
 43
0.0
 44
0.0
 45
0.0
 46
0.0
 47
0.0
 48
0.0
 49
0.0
140
0.0
141
0.0
142
1.0
143
1.0
 70
   688
 72
     1
 73
     0
 74
     5
  7

 75
    16
147
1.0
148
0.0
149
0.0
100
AcDbLayout
  1
Layout1
 70
     1
 71
     1
 10
0.0
 20
0.0
 11
420.0
 21
297.0
 12
0.0
 22
0.0
 32
0.0
 14
1.000000000000000E+20
 24
1.000000000000000E+20
 34
1.000000000000000E+20
 15
-1.000000000000000E+20
 25
-1.000000000000000E+20
 35
-1.000000000000000E+20
146
0.0
 13
0.0
 23
0.0
 33
0.0
 16
1.0
 26
0.0
 36
0.0
 17
0.0
 27
1.0
 37
0.0
 76
     0
330
1B
  0
LAYOUT
  5
26
102
{ACAD_REACTORS
330
1A
102
}
330
1A
100
AcDbPlotSettings
  1

  2
none_device
  4

  6

 40
0.0
 41
0.0
 42
0.0
 43
0.0
 44
0.0
 45
0.0
 46
0.0
 47
0.0
 48
0.0
 49
0.0
140
0.0
141
0.0
142
1.0
143
1.0
 70
   688
 72
     1
 73
     0
 74
     5
  7

 75
    16
147
1.0
148
0.0
149
0.0
100
AcDbLayout
  1
Layout2
 70
     1
 71
     2
 10
0.0
 20
0.0
 11
0.0
 21
0.0
 12
0.0
 22
0.0
 32
0.0
 14
0.0
 24
0.0
 34
0.0
 15
0.0
 25
0.0
 35
0.0
146
0.0
 13
0.0
 23
0.0
 33
0.0
 16
1.0
 26
0.0
 36
0.0
 17
0.0
 27
1.0
 37
0.0
 76
     0
330
23
  0
LAYOUT
  5
22
102
{ACAD_REACTORS
330
1A
102
}
330
1A
100
AcDbPlotSettings
  1

  2
none_device
  4
ANSI_A_(11.00_x_8.50_Inches)
  6

 40
6.35
 41
19.05
 42
6.35000508
 43
19.05000254
 44
279.4
 45
215.9
 46
82.12739698969841
 47
45.54180942454155
 48
0.0
 49
0.0
140
0.0
141
0.0
142
0.0440071892659234
143
1.0
 70
  1696
 72
     0
 73
     0
 74
     0
  7

 75
     0
147
0.0235690232323232
148
0.0
149
0.0
100
AcDbLayout
  1
Model
 70
     1
 71
     0
 10
0.0
 20
0.0
 11
420.0
 21
297.0
 12
0.0
 22
0.0
 32
0.0
 14
-54.0625000000001
 24
-49.97180738881174
 34
0.0
 15
96.20662503295505
 25
37.61649999999996
 35
0.0
146
0.0
 13
0.0
 23
0.0
 33
0.0
 16
1.0
 26
0.0
 36
0.0
 17
0.0
 27
1.0
 37
0.0
 76
     0
330
1F
331
29
  0
MLINESTYLE
  5
18
102
{ACAD_REACTORS
330
17
102
}
330
17
100
AcDbMlineStyle
  2
Standard
 70
     0
  3

 62
   256
 51
90.0
 52
90.0
 71
     2
 49
0.5
 62
   256
  6
BYLAYER
 49
-0.5
 62
   256
  6
BYLAYER
  0
ACDBPLACEHOLDER
  5
F
102
{ACAD_REACTORS
330
E
102
}
330
E
  0
SCALE
  5
48
102
{ACAD_REACTORS
330
47
102
}
330
47
100
AcDbScale
 70
     0
300
1:1
140
1.0
141
1.0
290
     1
  0
SCALE
  5
49
102
{ACAD_REACTORS
330
47
102
}
330
47
100
AcDbScale
 70
     0
300
1:2
140
1.0
141
2.0
290
     0
  0
SCALE
  5
4A
102
{ACAD_REACTORS
330
47
102
}
330
47
100
AcDbScale
 70
     0
300
1:4
140
1.0
141
4.0
290
     0
  0
SCALE
  5
4B
102
{ACAD_REACTORS
330
47
102
}
330
47
100
AcDbScale
 70
     0
300
1:5
140
1.0
141
5.0
290
     0
  0
SCALE
  5
4C
102
{ACAD_REACTORS
330
47
102
}
330
47
100
AcDbScale
 70
     0
300
1:8
140
1.0
141
8.0
290
     0
  0
SCALE
  5
4D
102
{ACAD_REACTORS
330
47
102
}
330
47
100
AcDbScale
 70
     0
300
1:10
140
1.0
141
10.0
290
     0
  0
SCALE
  5
4E
102
{ACAD_REACTORS
330
47
102
}
330
47
100
AcDbScale
 70
     0
300
1:16
140
1.0
141
16.0
290
     0
  0
SCALE
  5
4F
102
{ACAD_REACTORS
330
47
102
}
330
47
100
AcDbScale
 70
     0
300
1:20
140
1.0
141
20.0
290
     0
  0
SCALE
  5
50
102
{ACAD_REACTORS
330
47
102
}
330
47
100
AcDbScale
 70
     0
300
1:30
140
1.0
141
30.0
290
     0
  0
SCALE
  5
51
102
{ACAD_REACTORS
330
47
102
}
330
47
100
AcDbScale
 70
     0
300
1:40
140
1.0
141
40.0
290
     0
  0
SCALE
  5
52
102
{ACAD_REACTORS
330
47
102
}
330
47
100
AcDbScale
 70
     0
300
1:50
140
1.0
141
50.0
290
     0
  0
SCALE
  5
53
102
{ACAD_REACTORS
330
47
102
}
330
47
100
AcDbScale
 70
     0
300
1:100
140
1.0
141
100.0
290
     0
  0
SCALE
  5
54
102
{ACAD_REACTORS
330
47
102
}
330
47
100
AcDbScale
 70
     0
300
2:1
140
2.0
141
1.0
290
     0
  0
SCALE
  5
55
102
{ACAD_REACTORS
330
47
102
}
330
47
100
AcDbScale
 70
     0
300
4:1
140
4.0
141
1.0
290
     0
  0
SCALE
  5
56
102
{ACAD_REACTORS
330
47
102
}
330
47
100
AcDbScale
 70
     0
300
8:1
140
8.0
141
1.0
290
     0
  0
SCALE
  5
57
102
{ACAD_REACTORS
330
47
102
}
330
47
100
AcDbScale
 70
     0
300
10:1
140
10.0
141
1.0
290
     0
  0
SCALE
  5
58
102
{ACAD_REACTORS
330
47
102
}
330
47
100
AcDbScale
 70
     0
300
100:1
140
100.0
141
1.0
290
     0
  0
SCALE
  5
59
102
{ACAD_REACTORS
330
47
102
}
330
47
100
AcDbScale
 70
     0
300
1/128" = 1'-0"
140
0.0078125
141
12.0
290
     0
  0
SCALE
  5
5A
102
{ACAD_REACTORS
330
47
102
}
330
47
100
AcDbScale
 70
     0
300
1/64" = 1'-0"
140
0.015625
141
12.0
290
     0
  0
SCALE
  5
5B
102
{ACAD_REACTORS
330
47
102
}
330
47
100
AcDbScale
 70
     0
300
1/32" = 1'-0"
140
0.03125
141
12.0
290
     0
  0
SCALE
  5
5C
102
{ACAD_REACTORS
330
47
102
}
330
47
100
AcDbScale
 70
     0
300
1/16" = 1'-0"
140
0.0625
141
12.0
290
     0
  0
SCALE
  5
5D
102
{ACAD_REACTORS
330
47
102
}
330
47
100
AcDbScale
 70
     0
300
3/32" = 1'-0"
140
0.09375
141
12.0
290
     0
  0
SCALE
  5
5E
102
{ACAD_REACTORS
330
47
102
}
330
47
100
AcDbScale
 70
     0
300
1/8" = 1'-0"
140
0.125
141
12.0
290
     0
  0
SCALE
  5
5F
102
{ACAD_REACTORS
330
47
102
}
330
47
100
AcDbScale
 70
     0
300
3/16" = 1'-0"
140
0.1875
141
12.0
290
     0
  0
SCALE
  5
60
102
{ACAD_REACTORS
330
47
102
}
330
47
100
AcDbScale
 70
     0
300
1/4" = 1'-0"
140
0.25
141
12.0
290
     0
  0
SCALE
  5
61
102
{ACAD_REACTORS
330
47
102
}
330
47
100
AcDbScale
 70
     0
300
3/8" = 1'-0"
140
0.375
141
12.0
290
     0
  0
SCALE
  5
62
102
{ACAD_REACTORS
330
47
102
}
330
47
100
AcDbScale
 70
     0
300
1/2" = 1'-0"
140
0.5
141
12.0
290
     0
  0
SCALE
  5
63
102
{ACAD_REACTORS
330
47
102
}
330
47
100
AcDbScale
 70
     0
300
3/4" = 1'-0"
140
0.75
141
12.0
290
     0
  0
SCALE
  5
64
102
{ACAD_REACTORS
330
47
102
}
330
47
100
AcDbScale
 70
     0
300
1" = 1'-0"
140
1.0
141
12.0
290
     0
  0
SCALE
  5
65
102
{ACAD_REACTORS
330
47
102
}
330
47
100
AcDbScale
 70
     0
300
1-1/2" = 1'-0"
140
1.5
141
12.0
290
     0
  0
SCALE
  5
66
102
{ACAD_REACTORS
330
47
102
}
330
47
100
AcDbScale
 70
     0
300
3" = 1'-0"
140
3.0
141
12.0
290
     0
  0
SCALE
  5
67
102
{ACAD_REACTORS
330
47
102
}
330
47
100
AcDbScale
 70
     0
300
6" = 1'-0"
140
6.0
141
12.0
290
     0
  0
SCALE
  5
68
102
{ACAD_REACTORS
330
47
102
}
330
47
100
AcDbScale
 70
     0
300
1'-0" = 1'-0"
140
12.0
141
12.0
290
     0
  0
ENDSEC
  0
EOF
