  0
SECTION
  2
HEADER
  9
$ACADVER
  1
AC1015
  9
$ACADMAINTVER
 70
     6
  9
$DWGCODEPAGE
  3
ANSI_949
  9
$INSBASE
 10
0.0
 20
0.0
 30
0.0
  9
$EXTMIN
 10
-54.06250000000011
 20
-49.97180738881174
 30
0.0
  9
$EXTMAX
 10
96.20662503295506
 20
41.55399999999989
 30
0.0
  9
$LIMMIN
 10
0.0
 20
0.0
  9
$LIMMAX
 10
420.0
 20
297.0
  9
$ORTHOMODE
 70
     1
  9
$REGENMODE
 70
     1
  9
$FILLMODE
 70
     1
  9
$QTEXTMODE
 70
     0
  9
$MIRRTEXT
 70
     1
  9
$LTSCALE
 40
1.0
  9
$ATTMODE
 70
     1
  9
$TEXTSIZE
 40
3.5
  9
$TRACEWID
 40
1.0
  9
$TEXTSTYLE
  7
Standard
  9
$CLAYER
  8
0
  9
$CELTYPE
  6
ByLayer
  9
$CECOLOR
 62
   256
  9
$CELTSCALE
 40
1.0
  9
$DISPSILH
 70
     0
  9
$DIMSCALE
 40
1.0
  9
$DIMASZ
 40
3.302
  9
$DIMEXO
 40
1.0
  9
$DIMDLI
 40
3.75
  9
$DIMRND
 40
0.0
  9
$DIMDLE
 40
0.0
  9
$DIMEXE
 40
1.0
  9
$DIMTP
 40
0.0
  9
$DIMTM
 40
0.0
  9
$DIMTXT
 40
3.5
  9
$DIMCEN
 40
2.5
  9
$DIMTSZ
 40
0.0
  9
$DIMTOL
 70
     0
  9
$DIMLIM
 70
     0
  9
$DIMTIH
 70
     1
  9
$DIMTOH
 70
     1
  9
$DIMSE1
 70
     0
  9
$DIMSE2
 70
     0
  9
$DIMTAD
 70
     1
  9
$DIMZIN
 70
     0
  9
$DIMBLK
  1

  9
$DIMASO
 70
     1
  9
$DIMSHO
 70
     1
  9
$DIMPOST
  1

  9
$DIMAPOST
  1

  9
$DIMALT
 70
     0
  9
$DIMALTD
 70
     3
  9
$DIMALTF
 40
0.0393700787401575
  9
$DIMLFAC
 40
1.0
  9
$DIMTOFL
 70
     1
  9
$DIMTVP
 40
0.0
  9
$DIMTIX
 70
     0
  9
$DIMSOXD
 70
     0
  9
$DIMSAH
 70
     0
  9
$DIMBLK1
  1

  9
$DIMBLK2
  1

  9
$DIMSTYLE
  2
ISO-25
  9
$DIMCLRD
 70
     0
  9
$DIMCLRE
 70
     0
  9
$DIMCLRT
 70
     0
  9
$DIMTFAC
 40
1.0
  9
$DIMGAP
 40
1.524
  9
$DIMJUST
 70
     0
  9
$DIMSD1
 70
     0
  9
$DIMSD2
 70
     0
  9
$DIMTOLJ
 70
     0
  9
$DIMTZIN
 70
     0
  9
$DIMALTZ
 70
     0
  9
$DIMALTTZ
 70
     0
  9
$DIMUPT
 70
     0
  9
$DIMDEC
 70
     2
  9
$DIMTDEC
 70
     2
  9
$DIMALTU
 70
     2
  9
$DIMALTTD
 70
     3
  9
$DIMTXSTY
  7
Standard
  9
$DIMAUNIT
 70
     0
  9
$DIMADEC
 70
     2
  9
$DIMALTRND
 40
0.0
  9
$DIMAZIN
 70
     0
  9
$DIMDSEP
 70
    44
  9
$DIMATFIT
 70
     3
  9
$DIMFRAC
 70
     0
  9
$DIMLDRBLK
  1

  9
$DIMLUNIT
 70
     2
  9
$DIMLWD
 70
    -2
  9
$DIMLWE
 70
    -2
  9
$DIMTMOVE
 70
     0
  9
$LUNITS
 70
     2
  9
$LUPREC
 70
     2
  9
$SKETCHINC
 40
1.0
  9
$FILLETRAD
 40
10.0
  9
$AUNITS
 70
     0
  9
$AUPREC
 70
     2
  9
$MENU
  1
.
  9
$ELEVATION
 40
0.0
  9
$PELEVATION
 40
0.0
  9
$THICKNESS
 40
0.0
  9
$LIMCHECK
 70
     0
  9
$CHAMFERA
 40
0.0
  9
$CHAMFERB
 40
0.0
  9
$CHAMFERC
 40
0.0
  9
$CHAMFERD
 40
0.0
  9
$SKPOLY
 70
     0
  9
$TDCREATE
 40
2458313.396311632
  9
$TDUCREATE
 40
2458313.021311632
  9
$TDUPDATE
 40
2458324.353653368
  9
$TDUUPDATE
 40
2458323.978653368
  9
$TDINDWG
 40
0.0005565162
  9
$TDUSRTIMER
 40
0.0022027662
  9
$USRTIMER
 70
     1
  9
$ANGBASE
 50
0.0
  9
$ANGDIR
 70
     0
  9
$PDMODE
 70
     0
  9
$PDSIZE
 40
-1.0
  9
$PLINEWID
 40
0.0
  9
$SPLFRAME
 70
     0
  9
$SPLINETYPE
 70
     6
  9
$SPLINESEGS
 70
     8
  9
$HANDSEED
  5
258
  9
$SURFTAB1
 70
     6
  9
$SURFTAB2
 70
     6
  9
$SURFTYPE
 70
     6
  9
$SURFU
 70
     6
  9
$SURFV
 70
     6
  9
$UCSBASE
  2

  9
$UCSNAME
  2

  9
$UCSORG
 10
0.0
 20
0.0
 30
0.0
  9
$UCSXDIR
 10
1.0
 20
0.0
 30
0.0
  9
$UCSYDIR
 10
0.0
 20
1.0
 30
0.0
  9
$UCSORTHOREF
  2

  9
$UCSORTHOVIEW
 70
     0
  9
$UCSORGTOP
 10
0.0
 20
0.0
 30
0.0
  9
$UCSORGBOTTOM
 10
0.0
 20
0.0
 30
0.0
  9
$UCSORGLEFT
 10
0.0
 20
0.0
 30
0.0
  9
$UCSORGRIGHT
 10
0.0
 20
0.0
 30
0.0
  9
$UCSORGFRONT
 10
0.0
 20
0.0
 30
0.0
  9
$UCSORGBACK
 10
0.0
 20
0.0
 30
0.0
  9
$PUCSBASE
  2

  9
$PUCSNAME
  2

  9
$PUCSORG
 10
0.0
 20
0.0
 30
0.0
  9
$PUCSXDIR
 10
1.0
 20
0.0
 30
0.0
  9
$PUCSYDIR
 10
0.0
 20
1.0
 30
0.0
  9
$PUCSORTHOREF
  2

  9
$PUCSORTHOVIEW
 70
     0
  9
$PUCSORGTOP
 10
0.0
 20
0.0
 30
0.0
  9
$PUCSORGBOTTOM
 10
0.0
 20
0.0
 30
0.0
  9
$PUCSORGLEFT
 10
0.0
 20
0.0
 30
0.0
  9
$PUCSORGRIGHT
 10
0.0
 20
0.0
 30
0.0
  9
$PUCSORGFRONT
 10
0.0
 20
0.0
 30
0.0
  9
$PUCSORGBACK
 10
0.0
 20
0.0
 30
0.0
  9
$USERI1
 70
     0
  9
$USERI2
 70
     0
  9
$USERI3
 70
     0
  9
$USERI4
 70
     0
  9
$USERI5
 70
     0
  9
$USERR1
 40
0.0
  9
$USERR2
 40
0.0
  9
$USERR3
 40
0.0
  9
$USERR4
 40
0.0
  9
$USERR5
 40
0.0
  9
$WORLDVIEW
 70
     1
  9
$SHADEDGE
 70
     3
  9
$SHADEDIF
 70
    70
  9
$TILEMODE
 70
     1
  9
$MAXACTVP
 70
    64
  9
$PINSBASE
 10
0.0
 20
0.0
 30
0.0
  9
$PLIMCHECK
 70
     0
  9
$PEXTMIN
 10
1.000000000000000E+20
 20
1.000000000000000E+20
 30
1.000000000000000E+20
  9
$PEXTMAX
 10
-1.000000000000000E+20
 20
-1.000000000000000E+20
 30
-1.000000000000000E+20
  9
$PLIMMIN
 10
0.0
 20
0.0
  9
$PLIMMAX
 10
0.0
 20
0.0
  9
$UNITMODE
 70
     0
  9
$VISRETAIN
 70
     1
  9
$PLINEGEN
 70
     0
  9
$PSLTSCALE
 70
     1
  9
$TREEDEPTH
 70
  3020
  9
$CMLSTYLE
  2
Standard
  9
$CMLJUST
 70
     0
  9
$CMLSCALE
 40
20.0
  9
$PROXYGRAPHICS
 70
     1
  9
$MEASUREMENT
 70
     1
  9
$CELWEIGHT
370
    -1
  9
$ENDCAPS
280
     0
  9
$JOINSTYLE
280
     0
  9
$LWDISPLAY
290
     1
  9
$INSUNITS
 70
     4
  9
$HYPERLINKBASE
  1

  9
$STYLESHEET
  1

  9
$XEDIT
290
     1
  9
$CEPSNTYPE
380
     0
  9
$PSTYLEMODE
290
     1
  9
$FINGERPRINTGUID
  2
{29E5362E-2821-42BB-B845-C5128E0B3557}
  9
$VERSIONGUID
  2
{FAEB1C32-E019-11D5-929B-00C0DF256EC4}
  9
$EXTNAMES
290
     1
  9
$PSVPSCALE
 40
0.0
  9
$OLESTARTUP
290
     0
  0
ENDSEC
  0
SECTION
  2
CLASSES
  0
CLASS
  1
ACDBDICTIONARYWDFLT
  2
AcDbDictionaryWithDefault
  3
ObjectDBX Classes
 90
        0
280
     0
281
     0
  0
CLASS
  1
VISUALSTYLE
  2
AcDbVisualStyle
  3
ObjectDBX Classes
 90
     4095
280
     0
281
     0
  0
CLASS
  1
MATERIAL
  2
AcDbMaterial
  3
ObjectDBX Classes
 90
     1153
280
     0
281
     0
  0
CLASS
  1
SCALE
  2
AcDbScale
  3
ObjectDBX Classes
 90
     1153
280
     0
281
     0
  0
CLASS
  1
SUN
  2
AcDbSun
  3
SCENEOE
 90
     1153
280
     0
281
     0
  0
CLASS
  1
ACDBPLACEHOLDER
  2
AcDbPlaceHolder
  3
ObjectDBX Classes
 90
        0
280
     0
281
     0
  0
CLASS
  1
LAYOUT
  2
AcDbLayout
  3
ObjectDBX Classes
 90
        0
280
     0
281
     0
  0
CLASS
  1
TABLESTYLE
  2
AcDbTableStyle
  3
ObjectDBX Classes
 90
     4095
280
     0
281
     0
  0
CLASS
  1
MLEADERSTYLE
  2
AcDbMLeaderStyle
  3
ACDB_MLEADERSTYLE_CLASS
 90
     4095
280
     0
281
     0
  0
CLASS
  1
DICTIONARYVAR
  2
AcDbDictionaryVar
  3
ObjectDBX Classes
 90
        0
280
     0
281
     0
  0
ENDSEC
  0
SECTION
  2
TABLES
  0
TABLE
  2
VPORT
  5
8
330
0
100
AcDbSymbolTable
 70
     1
  0
VPORT
  5
29
330
8
100
AcDbSymbolTableRecord
100
AcDbViewportTableRecord
  2
*Active
 70
     0
 10
0.0
 20
0.0
 11
1.0
 21
1.0
 12
21.07206251647747
 22
-4.208903694405926
 13
0.0
 23
0.0
 14
10.0
 24
10.0
 15
10.0
 25
10.0
 16
0.0
 26
0.0
 36
1.0
 17
0.0
 27
0.0
 37
0.0
 40
93.35632353658787
 41
1.782762691853601
 42
50.0
 43
0.0
 44
0.0
 50
0.0
 51
0.0
 71
    16
 72
  2000
 73
     1
 74
     3
 75
     0
 76
     0
 77
     0
 78
     0
281
     0
 65
     1
110
0.0
120
0.0
130
0.0
111
1.0
121
0.0
131
0.0
112
0.0
122
1.0
132
0.0
 79
     0
146
0.0
  0
ENDTAB
  0
TABLE
  2
LTYPE
  5
5
330
0
100
AcDbSymbolTable
 70
     6
  0
LTYPE
  5
14
330
5
100
AcDbSymbolTableRecord
100
AcDbLinetypeTableRecord
  2
ByBlock
 70
     0
  3

 72
    65
 73
     0
 40
0.0
  0
LTYPE
  5
15
330
5
100
AcDbSymbolTableRecord
100
AcDbLinetypeTableRecord
  2
ByLayer
 70
     0
  3

 72
    65
 73
     0
 40
0.0
  0
LTYPE
  5
16
330
5
100
AcDbSymbolTableRecord
100
AcDbLinetypeTableRecord
  2
Continuous
 70
     0
  3
Solid line
 72
    65
 73
     0
 40
0.0
  0
LTYPE
  5
6A
330
5
100
AcDbSymbolTableRecord
100
AcDbLinetypeTableRecord
  2
HIDDEN
 70
     0
  3
Hidden __ __ __ __ __ __ __ __ __ __ __ __ __ __
 72
    65
 73
     2
 40
1.905
 49
1.27
 74
     0
 49
-0.635
 74
     0
  0
LTYPE
  5
6B
330
5
100
AcDbSymbolTableRecord
100
AcDbLinetypeTableRecord
  2
PHANTOM
 70
     0
  3
Phantom ______  __  __  ______  __  __  ______
 72
    65
 73
     6
 40
12.7
 49
6.35
 74
     0
 49
-1.27
 74
     0
 49
1.27
 74
     0
 49
-1.27
 74
     0
 49
1.27
 74
     0
 49
-1.27
 74
     0
  0
LTYPE
  5
6C
330
5
100
AcDbSymbolTableRecord
100
AcDbLinetypeTableRecord
  2
CENTER
 70
     0
  3
Center ____ _ ____ _ ____ _ ____ _ ____ _ ____
 72
    65
 73
     4
 40
10.16
 49
6.35
 74
     0
 49
-1.27
 74
     0
 49
1.27
 74
     0
 49
-1.27
 74
     0
  0
LTYPE
  5
6D
330
5
100
AcDbSymbolTableRecord
100
AcDbLinetypeTableRecord
  2
CENTERX2
 70
     0
  3
Center (2x) ________  __  ________  __  _____
 72
    65
 73
     4
 40
20.32
 49
12.7
 74
     0
 49
-2.54
 74
     0
 49
2.54
 74
     0
 49
-2.54
 74
     0
  0
LTYPE
  5
6E
330
5
100
AcDbSymbolTableRecord
100
AcDbLinetypeTableRecord
  2
DOT2
 70
     0
  3
Dot (.5x) ........................................
 72
    65
 73
     2
 40
0.635
 49
0.0
 74
     0
 49
-0.635
 74
     0
  0
ENDTAB
  0
TABLE
  2
LAYER
  5
2
102
{ACAD_XDICTIONARY
360
192
102
}
330
0
100
AcDbSymbolTable
 70
    18
  0
LAYER
  5
10
330
2
100
AcDbSymbolTableRecord
100
AcDbLayerTableRecord
  2
0
 70
     0
 62
     7
  6
Continuous
370
    -3
390
F
  0
LAYER
  5
6F
330
2
100
AcDbSymbolTableRecord
100
AcDbLayerTableRecord
  2
FORMAT
 70
     0
 62
     2
  6
Continuous
370
    -3
390
F
  0
LAYER
  5
70
330
2
100
AcDbSymbolTableRecord
100
AcDbLayerTableRecord
  2
외형선
 70
     0
 62
     4
  6
Continuous
370
    30
390
F
  0
LAYER
  5
71
330
2
100
AcDbSymbolTableRecord
100
AcDbLayerTableRecord
  2
숨은선
 70
     0
 62
     2
  6
HIDDEN
370
    15
390
F
  0
LAYER
  5
72
330
2
100
AcDbSymbolTableRecord
100
AcDbLayerTableRecord
  2
중심선
 70
     0
 62
     1
  6
CENTERX2
370
    -3
390
F
  0
LAYER
  5
73
330
2
100
AcDbSymbolTableRecord
100
AcDbLayerTableRecord
  2
파단선
 70
     0
 62
     4
  6
Continuous
370
    -3
390
F
  0
LAYER
  5
74
330
2
100
AcDbSymbolTableRecord
100
AcDbLayerTableRecord
  2
해칭선
 70
     0
 62
   100
  6
Continuous
370
    -3
390
F
  0
LAYER
  5
75
330
2
100
AcDbSymbolTableRecord
100
AcDbLayerTableRecord
  2
가는실선
 70
     0
 62
     4
  6
Continuous
370
    -3
390
F
  0
LAYER
  5
76
330
2
100
AcDbSymbolTableRecord
100
AcDbLayerTableRecord
  2
치수_보조선
 70
     0
 62
     4
  6
Continuous
370
    -3
390
F
  0
LAYER
  5
77
330
2
100
AcDbSymbolTableRecord
100
AcDbLayerTableRecord
  2
치수문자_일반주서
 70
     0
 62
     7
  6
Continuous
370
    15
390
F
  0
LAYER
  5
78
330
2
100
AcDbSymbolTableRecord
100
AcDbLayerTableRecord
  2
개별주서
 70
     0
 62
   100
  6
Continuous
370
    30
390
F
  0
LAYER
  5
79
330
2
100
AcDbSymbolTableRecord
100
AcDbLayerTableRecord
  2
중간선
 70
     0
 62
     2
  6
Continuous
370
    15
390
F
  0
LAYER
  5
7A
330
2
100
AcDbSymbolTableRecord
100
AcDbLayerTableRecord
  2
윤곽선
 70
     0
 62
     3
  6
Continuous
370
    40
390
F
  0
LAYER
  5
7B
330
2
100
AcDbSymbolTableRecord
100
AcDbLayerTableRecord
  2
중심마크
 70
     0
 62
   100
  6
Continuous
370
    30
390
F
  0
LAYER
  5
7C
330
2
100
AcDbSymbolTableRecord
100
AcDbLayerTableRecord
  2
가상선
 70
     0
 62
     4
  6
PHANTOM
370
    -3
390
F
  0
LAYER
  5
7D
330
2
100
AcDbSymbolTableRecord
100
AcDbLayerTableRecord
  2
특수지정선
 70
     0
 62
     5
  6
CENTERX2
370
    60
390
F
  0
LAYER
  5
7E
330
2
100
AcDbSymbolTableRecord
100
AcDbLayerTableRecord
  2
참조1
 70
     0
 62
    -4
  6
Continuous
370
    -3
390
F
  0
LAYER
  5
15B
330
2
100
AcDbSymbolTableRecord
100
AcDbLayerTableRecord
  2
Defpoints
 70
     0
 62
     7
  6
Continuous
290
     0
370
    -3
390
F
  0
ENDTAB
  0
TABLE
  2
STYLE
  5
3
330
0
100
AcDbSymbolTable
 70
     2
  0
STYLE
  5
11
330
3
100
AcDbSymbolTableRecord
100
AcDbTextStyleTableRecord
  2
Standard
 70
     0
 40
0.0
 41
1.0
 50
0.0
 71
     0
 42
3.5
  3
txt
  4

  0
STYLE
  5
94
330
3
100
AcDbSymbolTableRecord
100
AcDbTextStyleTableRecord
  2
SLDTEXTSTYLE0
 70
     0
 40
0.0
 41
0.75
 50
0.0
 71
     0
 42
3.5
  3
TXT
  4

  0
ENDTAB
  0
TABLE
  2
VIEW
  5
6
330
0
100
AcDbSymbolTable
 70
     0
  0
ENDTAB
  0
TABLE
  2
UCS
  5
7
330
0
100
AcDbSymbolTable
 70
     0
  0
ENDTAB
  0
TABLE
  2
APPID
  5
9
330
0
100
AcDbSymbolTable
 70
     2
  0
APPID
  5
12
330
9
100
AcDbSymbolTableRecord
100
AcDbRegAppTableRecord
  2
ACAD
 70
     0
  0
APPID
  5
162
330
9
100
AcDbSymbolTableRecord
100
AcDbRegAppTableRecord
  2
PE_URL
 70
     0
  0
ENDTAB
  0
TABLE
  2
DIMSTYLE
  5
A
330
0
100
AcDbSymbolTable
 70
     3
100
AcDbDimStyleTable
  0
DIMSTYLE
105
27
330
A
100
AcDbSymbolTableRecord
100
AcDbDimStyleTableRecord
  2
ISO-25
 70
     0
 41
2.5
 42
0.625
 43
3.75
 44
1.25
 73
     0
 74
     0
 77
     1
 78
     8
140
2.5
141
2.5
143
0.03937007874016
147
0.625
171
     3
172
     1
178
     0
271
     2
272
     2
274
     3
278
    44
283
     0
284
     8
340
11
  0
DIMSTYLE
105
DB
102
{ACAD_REACTORS
330
DA
330
181
330
EF
330
103
330
117
102
}
330
A
100
AcDbSymbolTableRecord
100
AcDbDimStyleTableRecord
  2
SLDDIMSTYLE0
 70
     0
 41
3.302
 44
0.0
 45
0.000000001
 73
     0
 74
     0
 77
     1
 78
    12
 79
     3
140
3.5
143
0.0393700787401575
147
0.875
148
0.000000001
170
     1
172
     1
173
     1
178
     0
271
     2
272
     2
276
     2
284
    12
289
     0
340
94
  0
DIMSTYLE
105
F0
330
A
100
AcDbSymbolTableRecord
100
AcDbDimStyleTableRecord
  2
SLDDIMSTYLE1
 70
     0
 41
3.302
 44
0.0
 45
0.000000001
 73
     0
 74
     0
 77
     1
 78
    12
 79
     3
140
3.5
143
0.0393700787401575
147
0.875
148
0.000000001
170
     1
173
     1
178
     0
271
     2
272
     2
276
     2
284
    12
340
94
  0
ENDTAB
  0
TABLE
  2
BLOCK_RECORD
  5
1
330
0
100
AcDbSymbolTable
 70
    11
  0
BLOCK_RECORD
  5
1F
330
1
100
AcDbSymbolTableRecord
100
AcDbBlockTableRecord
  2
*Model_Space
340
22
  0
BLOCK_RECORD
  5
1B
330
1
100
AcDbSymbolTableRecord
100
AcDbBlockTableRecord
  2
*Paper_Space
340
1E
  0
BLOCK_RECORD
  5
23
330
1
100
AcDbSymbolTableRecord
100
AcDbBlockTableRecord
  2
*Paper_Space0
340
26
  0
BLOCK_RECORD
  5
7F
330
1
100
AcDbSymbolTableRecord
100
AcDbBlockTableRecord
  2
블럭10
340
0
102
{BLKREFS
331
D3
102
}
  0
BLOCK_RECORD
  5
DC
330
1
100
AcDbSymbolTableRecord
100
AcDbBlockTableRecord
  2
_D
340
0
  0
BLOCK_RECORD
  5
F1
330
1
100
AcDbSymbolTableRecord
100
AcDbBlockTableRecord
  2
_D_1
340
0
  0
BLOCK_RECORD
  5
104
330
1
100
AcDbSymbolTableRecord
100
AcDbBlockTableRecord
  2
_D_2
340
0
  0
BLOCK_RECORD
  5
118
330
1
100
AcDbSymbolTableRecord
100
AcDbBlockTableRecord
  2
_D_3
340
0
  0
BLOCK_RECORD
  5
131
330
1
100
AcDbSymbolTableRecord
100
AcDbBlockTableRecord
  2
SW_DOWELSYMBOL_0
340
0
102
{BLKREFS
331
137
102
}
  0
BLOCK_RECORD
  5
196
330
1
100
AcDbSymbolTableRecord
100
AcDbBlockTableRecord
  2
*D8
340
0
  0
BLOCK_RECORD
  5
1A8
330
1
100
AcDbSymbolTableRecord
100
AcDbBlockTableRecord
  2
*D9
340
0
  0
ENDTAB
  0
ENDSEC
  0
SECTION
  2
BLOCKS
  0
BLOCK
  5
20
330
1F
100
AcDbEntity
  8
0
100
AcDbBlockBegin
  2
*Model_Space
 70
     0
 10
0.0
 20
0.0
 30
0.0
  3
*Model_Space
  1

  0
ENDBLK
  5
21
330
1F
100
AcDbEntity
  8
0
100
AcDbBlockEnd
  0
BLOCK
  5
1C
330
1B
100
AcDbEntity
 67
     1
  8
0
100
AcDbBlockBegin
  2
*Paper_Space
 70
     0
 10
0.0
 20
0.0
 30
0.0
  3
*Paper_Space
  1

  0
ENDBLK
  5
1D
330
1B
100
AcDbEntity
 67
     1
  8
0
100
AcDbBlockEnd
  0
BLOCK
  5
24
330
23
100
AcDbEntity
  8
0
100
AcDbBlockBegin
  2
*Paper_Space0
 70
     0
 10
0.0
 20
0.0
 30
0.0
  3
*Paper_Space0
  1

  0
ENDBLK
  5
25
330
23
100
AcDbEntity
  8
0
100
AcDbBlockEnd
  0
BLOCK
  5
80
330
7F
100
AcDbEntity
  8
0
100
AcDbBlockBegin
  2
블럭10
 70
     2
 10
0.0
 20
0.0
 30
0.0
  3
블럭10
  1

  0
ELLIPSE
  5
82
330
7F
100
AcDbEntity
  8
중심선
100
AcDbEllipse
 10
20.54032771741204
 20
12.0471743016438
 30
0.0
 11
6.600054785286829
 21
-1.261213355974178E-13
 31
0.0
210
0.0
220
0.0
230
1.0
 40
0.636358354079598
 41
0.9219305317359503
 42
6.513795318482858
  0
ELLIPSE
  5
83
330
7F
100
AcDbEntity
  8
중심선
100
AcDbEllipse
 10
20.54032771746488
 20
12.04717430159265
 30
0.0
 11
3.960054785062283
 21
1.540847449632565E-10
 31
0.0
210
0.0
220
0.0
230
1.0
 40
0.3939339440162632
 41
1.131841032648279
 42
5.62031148352944
  0
LINE
  5
84
330
7F
100
AcDbEntity
  8
중심선
100
AcDbLine
 10
2.268634060543552
 20
16.24717430164393
 30
0.0
 11
5.714909304380834
 21
16.24717430164393
 31
0.0
  0
LINE
  5
85
330
7F
100
AcDbEntity
  8
중심선
100
AcDbLine
 10
5.245725140726316
 20
7.84717430164391
 30
0.0
 11
8.692000384563599
 21
7.84717430164391
 31
0.0
  0
LINE
  5
86
330
7F
100
AcDbEntity
  8
중심선
100
AcDbLine
 10
15.74043728645272
 20
16.24717430164393
 30
0.0
 11
8.692000384563599
 21
7.84717430164391
 31
0.0
  0
LINE
  5
87
330
7F
100
AcDbEntity
  8
중심선
100
AcDbLine
 10
0.1404042013395286
 20
13.71084872107135
 30
0.0
 11
3.58671253028996
 21
13.71088815037384
 31
0.0
  0
LINE
  5
88
330
7F
100
AcDbEntity
  8
중심선
100
AcDbLine
 10
2.750260043222114
 20
10.84717430164391
 30
0.0
 11
6.196535287059397
 21
10.84717430164391
 31
0.0
  0
LINE
  5
89
330
7F
100
AcDbEntity
  8
중심선
100
AcDbLine
 10
12.29416204261559
 20
16.24717430164393
 30
0.0
 11
5.245725140726316
 21
7.84717430164391
 31
0.0
  0
LINE
  5
8A
330
7F
100
AcDbEntity
  8
중심선
100
AcDbLine
 10
10.72767329541681
 20
16.24717430164393
 30
0.0
 11
6.196535287059397
 21
10.84717430164391
 31
0.0
  0
LINE
  5
8B
330
7F
100
AcDbEntity
  8
중심선
100
AcDbLine
 10
7.28139805157953
 20
16.24717430164393
 30
0.0
 11
2.750260043222114
 21
10.84717430164391
 31
0.0
  0
LINE
  5
8C
330
7F
100
AcDbEntity
  8
중심선
100
AcDbLine
 10
5.714909304380834
 20
16.24717430164393
 30
0.0
 11
3.58671253028996
 21
13.71088815037384
 31
0.0
  0
LINE
  5
8D
330
7F
100
AcDbEntity
  8
중심선
100
AcDbLine
 10
2.268634060543552
 20
16.24717430164393
 30
0.0
 11
0.1404042013395286
 21
13.71084872107135
 31
0.0
  0
LINE
  5
8E
330
7F
100
AcDbEntity
  8
중심선
100
AcDbLine
 10
7.28139805157953
 20
16.24717430164393
 30
0.0
 11
10.72767329541681
 21
16.24717430164393
 31
0.0
  0
LINE
  5
8F
330
7F
100
AcDbEntity
  8
중심선
100
AcDbLine
 10
12.29416204261559
 20
16.24717430164393
 30
0.0
 11
15.74043728645272
 21
16.24717430164393
 31
0.0
  0
LINE
  5
90
330
7F
100
AcDbEntity
  8
중심선
100
AcDbLine
 10
19.22036997980202
 20
11.08717430171403
 30
0.0
 11
23.66174974927406
 21
11.08717430171406
 31
0.0
  0
LINE
  5
91
330
7F
100
AcDbEntity
  8
중심선
100
AcDbLine
 10
19.22039502424796
 20
13.00717430171391
 30
0.0
 11
19.22036997980202
 21
11.08717430171403
 31
0.0
  0
LINE
  5
92
330
7F
100
AcDbEntity
  8
중심선
100
AcDbLine
 10
19.22039502424796
 20
13.00717430171391
 30
0.0
 11
26.96566020931264
 21
13.00717430171391
 31
0.0
  0
LINE
  5
93
330
7F
100
AcDbEntity
  8
중심선
100
AcDbLine
 10
22.22332737316547
 20
13.45928029700563
 30
0.0
 11
24.52862924686651
 21
15.39360700705356
 31
0.0
  0
ATTDEF
  5
95
330
7F
100
AcDbEntity
  8
FORMAT
 62
     2
100
AcDbText
 10
4.408487351596664
 20
2.075366912832191
 30
0.0
 40
4.233333333333333
  1
E1050020
 41
0.75
  7
SLDTEXTSTYLE0
 11
4.408487351596664
 21
-0.0412997538344756
 31
0.0
100
AcDbAttributeDefinition
  3

  2
AUTOATTR0
 70
     0
 74
     1
  0
ENDBLK
  5
81
330
7F
100
AcDbEntity
  8
0
100
AcDbBlockEnd
  0
BLOCK
  5
DD
330
DC
100
AcDbEntity
  8
0
100
AcDbBlockBegin
  2
_D
 70
     0
 10
0.0
 20
0.0
 30
0.0
  3
_D
  1

  0
LINE
  5
DF
330
DC
100
AcDbEntity
  8
치수문자_일반주서
 62
     0
370
    -2
100
AcDbLine
 10
-21.50018467149223
 20
4.762499999999994
 30
0.0
 11
-49.68749999999999
 21
4.762499999999886
 31
0.0
  0
LINE
  5
E0
330
DC
100
AcDbEntity
  8
치수문자_일반주서
 62
     0
370
    -2
100
AcDbLine
 10
-21.50018467149221
 20
-4.76250000000001
 30
0.0
 11
-49.68749999999995
 21
-4.762500000000113
 31
0.0
  0
LINE
  5
E1
330
DC
100
AcDbEntity
  8
치수문자_일반주서
 62
     0
370
    -2
100
AcDbLine
 10
-49.68749999999999
 20
4.762499999999886
 30
0.0
 11
-49.68750000000012
 21
41.55399999999989
 31
0.0
  0
LINE
  5
E2
330
DC
100
AcDbEntity
  8
치수문자_일반주서
 62
     0
370
    -2
100
AcDbLine
 10
-49.68749999999999
 20
4.762499999999886
 30
0.0
 11
-49.68749999999995
 21
-4.762500000000113
 31
0.0
  0
LINE
  5
E3
330
DC
100
AcDbEntity
  8
치수문자_일반주서
 62
     0
370
    -2
100
AcDbLine
 10
-49.6875
 20
8.064499999999885
 30
0.0
 11
-49.68750000000001
 21
11.36649999999988
 31
0.0
  0
LINE
  5
E4
330
DC
100
AcDbEntity
  8
치수문자_일반주서
 62
     0
370
    -2
100
AcDbLine
 10
-49.68749999999994
 20
-8.064500000000113
 30
0.0
 11
-49.68749999999992
 21
-11.36650000000011
 31
0.0
  0
SOLID
  5
E5
330
DC
100
AcDbEntity
  8
치수문자_일반주서
 62
     0
100
AcDbTrace
 10
-50.23783333333333
 20
8.064499999999883
 30
0.0
 11
-49.13716666666667
 21
8.064499999999887
 31
0.0
 12
-49.68749999999999
 22
4.762499999999886
 32
0.0
 13
-49.68749999999999
 23
4.762499999999886
 33
0.0
  0
SOLID
  5
E6
330
DC
100
AcDbEntity
  8
치수문자_일반주서
 62
     0
100
AcDbTrace
 10
-49.1371666666666
 20
-8.06450000000011
 30
0.0
 11
-50.23783333333327
 21
-8.064500000000114
 31
0.0
 12
-49.68749999999995
 22
-4.762500000000113
 32
0.0
 13
-49.68749999999995
 23
-4.762500000000113
 33
0.0
  0
MTEXT
  5
E7
330
DC
100
AcDbEntity
  8
치수문자_일반주서
 62
     0
100
AcDbMText
 10
-54.06250000000007
 20
28.42899999999987
 30
0.0
 40
3.5
 41
0.0
 71
     2
 72
     1
  1
\A1;%%c9.53 [3/8]
  7
SLDTEXTSTYLE0
 11
-3.729883127349606E-15
 21
1.0
 31
0.0
 73
     1
 44
1.0
  0
POINT
  5
1E5
330
DC
100
AcDbEntity
  8
Defpoints
 62
     0
100
AcDbPoint
 10
-21.43768467149223
 20
4.762499999999994
 30
0.0
  0
POINT
  5
1E6
330
DC
100
AcDbEntity
  8
Defpoints
 62
     0
100
AcDbPoint
 10
-21.43768467149221
 20
-4.76250000000001
 30
0.0
  0
POINT
  5
1E7
330
DC
100
AcDbEntity
  8
Defpoints
 62
     0
100
AcDbPoint
 10
-49.68749999999995
 20
-4.762500000000116
 30
0.0
  0
ENDBLK
  5
DE
330
DC
100
AcDbEntity
  8
0
100
AcDbBlockEnd
  0
BLOCK
  5
F2
330
F1
100
AcDbEntity
  8
0
100
AcDbBlockBegin
  2
_D_1
 70
     0
 10
0.0
 20
0.0
 30
0.0
  3
_D_1
  1

  0
LINE
  5
F4
330
F1
100
AcDbEntity
  8
치수문자_일반주서
 62
     0
370
    -2
100
AcDbLine
 10
39.75000000000002
 20
-3.965395672942648
 30
0.0
 11
80.19588768624106
 21
-3.965395672942499
 31
0.0
  0
LINE
  5
F5
330
F1
100
AcDbEntity
  8
치수문자_일반주서
 62
     0
370
    -2
100
AcDbLine
 10
39.75000000000002
 20
3.965395672942649
 30
0.0
 11
80.19588768624104
 21
3.965395672942797
 31
0.0
  0
LINE
  5
F6
330
F1
100
AcDbEntity
  8
치수문자_일반주서
 62
     0
370
    -2
100
AcDbLine
 10
80.19588768624104
 20
3.965395672942797
 30
0.0
 11
80.19588768624091
 21
38.5693956729428
 31
0.0
  0
LINE
  5
F7
330
F1
100
AcDbEntity
  8
치수문자_일반주서
 62
     0
370
    -2
100
AcDbLine
 10
80.19588768624106
 20
-3.965395672942499
 30
0.0
 11
80.19588768624104
 21
3.965395672942797
 31
0.0
  0
LINE
  5
F8
330
F1
100
AcDbEntity
  8
치수문자_일반주서
 62
     0
370
    -2
100
AcDbLine
 10
80.19588768624108
 20
-7.267395672942499
 30
0.0
 11
80.1958876862411
 21
-10.5693956729425
 31
0.0
  0
LINE
  5
F9
330
F1
100
AcDbEntity
  8
치수문자_일반주서
 62
     0
370
    -2
100
AcDbLine
 10
80.19588768624102
 20
7.267395672942797
 30
0.0
 11
80.19588768624101
 21
10.5693956729428
 31
0.0
  0
SOLID
  5
FA
330
F1
100
AcDbEntity
  8
치수문자_일반주서
 62
     0
100
AcDbTrace
 10
80.7462210195744
 20
-7.267395672942497
 30
0.0
 11
79.64555435290775
 21
-7.2673956729425
 31
0.0
 12
80.19588768624106
 22
-3.965395672942499
 32
0.0
 13
80.19588768624106
 23
-3.965395672942499
 33
0.0
  0
SOLID
  5
FB
330
F1
100
AcDbEntity
  8
치수문자_일반주서
 62
     0
100
AcDbTrace
 10
79.6455543529077
 20
7.267395672942795
 30
0.0
 11
80.74622101957435
 21
7.267395672942799
 31
0.0
 12
80.19588768624104
 22
3.965395672942797
 32
0.0
 13
80.19588768624104
 23
3.965395672942797
 33
0.0
  0
MTEXT
  5
FC
330
F1
100
AcDbEntity
  8
치수문자_일반주서
 62
     0
100
AcDbMText
 10
75.82088768624097
 20
24.56939567294278
 30
0.0
 40
3.5
 41
0.0
 71
     2
 72
     1
  1
\A1;%%c7.93 [5/16]
  7
SLDTEXTSTYLE0
 11
-3.583716705035991E-15
 21
1.0
 31
0.0
 73
     1
 44
1.0
  0
POINT
  5
FD
330
F1
100
AcDbEntity
  8
Defpoints
 62
     0
100
AcDbPoint
 10
39.68750000000002
 20
-3.965395672942649
 30
0.0
  0
POINT
  5
FE
330
F1
100
AcDbEntity
  8
Defpoints
 62
     0
100
AcDbPoint
 10
39.68750000000002
 20
3.965395672942648
 30
0.0
  0
POINT
  5
FF
330
F1
100
AcDbEntity
  8
Defpoints
 62
     0
100
AcDbPoint
 10
80.19588768624104
 20
3.9653956729428
 30
0.0
  0
ENDBLK
  5
F3
330
F1
100
AcDbEntity
  8
0
100
AcDbBlockEnd
  0
BLOCK
  5
105
330
104
100
AcDbEntity
  8
0
100
AcDbBlockBegin
  2
_D_2
 70
     0
 10
0.0
 20
0.0
 30
0.0
  3
_D_2
  1

  0
LINE
  5
107
330
104
100
AcDbEntity
  8
치수문자_일반주서
 62
     0
370
    -2
100
AcDbLine
 10
39.68750000000002
 20
4.027895672942648
 30
0.0
 11
39.68750000000002
 21
14.76249999999999
 31
0.0
  0
LINE
  5
108
330
104
100
AcDbEntity
  8
치수문자_일반주서
 62
     0
370
    -2
100
AcDbLine
 10
25.40000000000002
 20
3.167931349309291
 30
0.0
 11
25.40000000000002
 21
14.76249999999999
 31
0.0
  0
LINE
  5
109
330
104
100
AcDbEntity
  8
치수문자_일반주서
 62
     0
370
    -2
100
AcDbLine
 10
39.68750000000002
 20
14.76249999999999
 30
0.0
 11
73.41650000000001
 21
14.76249999999999
 31
0.0
  0
LINE
  5
10A
330
104
100
AcDbEntity
  8
치수문자_일반주서
 62
     0
370
    -2
100
AcDbLine
 10
39.68750000000002
 20
14.76249999999999
 30
0.0
 11
25.40000000000002
 21
14.76249999999999
 31
0.0
  0
LINE
  5
10B
330
104
100
AcDbEntity
  8
치수문자_일반주서
 62
     0
370
    -2
100
AcDbLine
 10
42.98950000000002
 20
14.76249999999999
 30
0.0
 11
46.29150000000002
 21
14.76249999999999
 31
0.0
  0
LINE
  5
10C
330
104
100
AcDbEntity
  8
치수문자_일반주서
 62
     0
370
    -2
100
AcDbLine
 10
22.09800000000002
 20
14.76249999999999
 30
0.0
 11
18.79600000000002
 21
14.76249999999999
 31
0.0
  0
SOLID
  5
10D
330
104
100
AcDbEntity
  8
치수문자_일반주서
 62
     0
100
AcDbTrace
 10
42.98950000000002
 20
15.31283333333332
 30
0.0
 11
42.98950000000002
 21
14.21216666666666
 31
0.0
 12
39.68750000000002
 22
14.76249999999999
 32
0.0
 13
39.68750000000002
 23
14.76249999999999
 33
0.0
  0
SOLID
  5
10E
330
104
100
AcDbEntity
  8
치수문자_일반주서
 62
     0
100
AcDbTrace
 10
22.09800000000002
 20
14.21216666666666
 30
0.0
 11
22.09800000000002
 21
15.31283333333332
 31
0.0
 12
25.40000000000002
 22
14.76249999999999
 32
0.0
 13
25.40000000000002
 23
14.76249999999999
 33
0.0
  0
MTEXT
  5
10F
330
104
100
AcDbEntity
  8
치수문자_일반주서
 62
     0
100
AcDbMText
 10
59.85400000000002
 20
19.13749999999999
 30
0.0
 40
3.5
 41
0.0
 71
     2
 72
     1
  1
\A1;14.29 [9/16]
  7
SLDTEXTSTYLE0
 73
     1
 44
1.0
  0
POINT
  5
110
330
104
100
AcDbEntity
  8
Defpoints
 62
     0
100
AcDbPoint
 10
39.68750000000002
 20
3.965395672942648
 30
0.0
  0
POINT
  5
111
330
104
100
AcDbEntity
  8
Defpoints
 62
     0
100
AcDbPoint
 10
25.40000000000002
 20
3.105431349309291
 30
0.0
  0
POINT
  5
112
330
104
100
AcDbEntity
  8
Defpoints
 62
     0
100
AcDbPoint
 10
25.40000000000002
 20
14.76249999999999
 30
0.0
  0
ENDBLK
  5
106
330
104
100
AcDbEntity
  8
0
100
AcDbBlockEnd
  0
BLOCK
  5
119
330
118
100
AcDbEntity
  8
0
100
AcDbBlockBegin
  2
_D_3
 70
     0
 10
0.0
 20
0.0
 30
0.0
  3
_D_3
  1

  0
LINE
  5
11B
330
118
100
AcDbEntity
  8
치수문자_일반주서
 62
     0
370
    -2
100
AcDbLine
 10
-39.68750000000001
 20
4.027895672942623
 30
0.0
 11
-39.68750000000001
 21
24.7625
 31
0.0
  0
LINE
  5
11C
330
118
100
AcDbEntity
  8
치수문자_일반주서
 62
     0
370
    -2
100
AcDbLine
 10
39.68750000000002
 20
4.027895672942648
 30
0.0
 11
39.68750000000002
 21
24.7625
 31
0.0
  0
LINE
  5
11D
330
118
100
AcDbEntity
  8
치수문자_일반주서
 62
     0
370
    -2
100
AcDbLine
 10
-36.38550000000001
 20
24.7625
 30
0.0
 11
36.38550000000002
 21
24.7625
 31
0.0
  0
SOLID
  5
11E
330
118
100
AcDbEntity
  8
치수문자_일반주서
 62
     0
100
AcDbTrace
 10
-36.38550000000001
 20
25.31283333333333
 30
0.0
 11
-36.38550000000001
 21
24.21216666666666
 31
0.0
 12
-39.68750000000001
 22
24.7625
 32
0.0
 13
-39.68750000000001
 23
24.7625
 33
0.0
  0
SOLID
  5
11F
330
118
100
AcDbEntity
  8
치수문자_일반주서
 62
     0
100
AcDbTrace
 10
36.38550000000002
 20
24.21216666666666
 30
0.0
 11
36.38550000000002
 21
25.31283333333333
 31
0.0
 12
39.68750000000002
 22
24.7625
 32
0.0
 13
39.68750000000002
 23
24.7625
 33
0.0
  0
MTEXT
  5
120
330
118
100
AcDbEntity
  8
치수문자_일반주서
 62
     0
100
AcDbMText
 10
0.0000000000000071
 20
29.1375
 30
0.0
 40
3.5
 41
0.0
 71
     2
 72
     1
  1
\A1;79.38 [3 1/8]
  7
SLDTEXTSTYLE0
 73
     1
 44
1.0
  0
POINT
  5
121
330
118
100
AcDbEntity
  8
Defpoints
 62
     0
100
AcDbPoint
 10
-39.68750000000001
 20
3.965395672942623
 30
0.0
  0
POINT
  5
122
330
118
100
AcDbEntity
  8
Defpoints
 62
     0
100
AcDbPoint
 10
39.68750000000002
 20
3.965395672942648
 30
0.0
  0
POINT
  5
123
330
118
100
AcDbEntity
  8
Defpoints
 62
     0
100
AcDbPoint
 10
39.68750000000002
 20
24.7625
 30
0.0
  0
ENDBLK
  5
11A
330
118
100
AcDbEntity
  8
0
100
AcDbBlockEnd
  0
BLOCK
  5
132
330
131
100
AcDbEntity
  8
0
100
AcDbBlockBegin
  2
SW_DOWELSYMBOL_0
 70
     0
 10
0.0
 20
0.0
 30
0.0
  3
SW_DOWELSYMBOL_0
  1

  0
CIRCLE
  5
134
330
131
100
AcDbEntity
  8
해칭선
 62
     0
100
AcDbCircle
 10
0.0
 20
0.0
 30
0.0
 40
3.000000000000001
  0
HATCH
  5
135
330
131
100
AcDbEntity
  8
0
  6
Continuous
 62
     0
370
     0
100
AcDbHatch
 10
0.0
 20
0.0
 30
0.0
210
0.0
220
0.0
230
1.0
  2
SOLID
 70
     1
 71
     0
 91
        1
 92
        0
 93
        3
 72
     2
 10
0.0
 20
0.0
 40
3.000000000000001
 50
0.0
 51
90.0
 73
     1
 72
     1
 10
0.0
 20
3.000000000000001
 11
0.0
 21
0.0
 72
     1
 10
0.0
 20
0.0
 11
3.000000000000001
 21
0.0
 97
        0
 75
     0
 76
     1
 98
        1
 10
0.0
 20
0.0
  0
HATCH
  5
136
330
131
100
AcDbEntity
  8
0
  6
Continuous
 62
     0
370
     0
100
AcDbHatch
 10
0.0
 20
0.0
 30
0.0
210
0.0
220
0.0
230
1.0
  2
SOLID
 70
     1
 71
     0
 91
        1
 92
        0
 93
        3
 72
     2
 10
0.0
 20
0.0
 40
3.000000000000001
 50
180.0
 51
270.0000000000008
 73
     1
 72
     1
 10
0.0
 20
-3.000000000000001
 11
0.0
 21
0.0
 72
     1
 10
0.0
 20
0.0
 11
-3.000000000000001
 21
0.0
 97
        0
 75
     0
 76
     1
 98
        1
 10
0.0
 20
0.0
  0
ENDBLK
  5
133
330
131
100
AcDbEntity
  8
0
100
AcDbBlockEnd
  0
BLOCK
  5
197
330
196
100
AcDbEntity
  8
0
100
AcDbBlockBegin
  2
*D8
 70
     1
 10
0.0
 20
0.0
 30
0.0
  3
*D8
  1

  0
LINE
  5
199
330
196
100
AcDbEntity
  8
치수문자_일반주서
 62
     0
370
    -2
100
AcDbLine
 10
16.129
 20
3.155101899082702
 30
0.0
 11
16.129
 21
16.26894362990562
 31
0.0
  0
LINE
  5
19A
330
196
100
AcDbEntity
  8
치수문자_일반주서
 62
     0
370
    -2
100
AcDbLine
 10
6.603999999999999
 20
2.633059590344415
 30
0.0
 11
6.603999999999999
 21
16.26894362990562
 31
0.0
  0
LINE
  5
19B
330
196
100
AcDbEntity
  8
치수문자_일반주서
 62
     0
370
    -2
100
AcDbLine
 10
16.129
 20
16.26894362990562
 30
0.0
 11
46.358
 21
16.26894362990562
 31
0.0
  0
LINE
  5
19C
330
196
100
AcDbEntity
  8
치수문자_일반주서
 62
     0
370
    -2
100
AcDbLine
 10
16.129
 20
16.26894362990562
 30
0.0
 11
6.603999999999999
 21
16.26894362990562
 31
0.0
  0
LINE
  5
19D
330
196
100
AcDbEntity
  8
치수문자_일반주서
 62
     0
370
    -2
100
AcDbLine
 10
19.431
 20
16.26894362990562
 30
0.0
 11
22.733
 21
16.26894362990562
 31
0.0
  0
LINE
  5
19E
330
196
100
AcDbEntity
  8
치수문자_일반주서
 62
     0
370
    -2
100
AcDbLine
 10
3.302
 20
16.26894362990562
 30
0.0
 11
0.0
 21
16.26894362990562
 31
0.0
  0
SOLID
  5
19F
330
196
100
AcDbEntity
  8
치수문자_일반주서
 62
     0
100
AcDbTrace
 10
19.431
 20
16.81927696323896
 30
0.0
 11
19.431
 21
15.71861029657229
 31
0.0
 12
16.129
 22
16.26894362990562
 32
0.0
 13
16.129
 23
16.26894362990562
 33
0.0
  0
SOLID
  5
1A0
330
196
100
AcDbEntity
  8
치수문자_일반주서
 62
     0
100
AcDbTrace
 10
3.302
 20
15.71861029657229
 30
0.0
 11
3.302
 21
16.81927696323896
 31
0.0
 12
6.603999999999999
 22
16.26894362990562
 32
0.0
 13
6.603999999999999
 23
16.26894362990562
 33
0.0
  0
MTEXT
  5
1A1
330
196
100
AcDbEntity
  8
치수문자_일반주서
 62
     0
100
AcDbMText
 10
34.5455
 20
20.64394362990562
 30
0.0
 40
3.5
 41
0.0
 71
     2
 72
     1
  1
\A1;9.53 [3/8]
  7
SLDTEXTSTYLE0
 73
     1
 44
1.0
  0
POINT
  5
1A2
330
196
100
AcDbEntity
  8
Defpoints
 62
     0
100
AcDbPoint
 10
16.129
 20
3.092601899082702
 30
0.0
  0
POINT
  5
1A3
330
196
100
AcDbEntity
  8
Defpoints
 62
     0
100
AcDbPoint
 10
6.603999999999999
 20
2.570559590344415
 30
0.0
  0
POINT
  5
1A4
330
196
100
AcDbEntity
  8
Defpoints
 62
     0
100
AcDbPoint
 10
6.603999999999999
 20
16.26894362990562
 30
0.0
  0
ENDBLK
  5
198
330
196
100
AcDbEntity
  8
0
100
AcDbBlockEnd
  0
BLOCK
  5
1A9
330
1A8
100
AcDbEntity
  8
0
100
AcDbBlockBegin
  2
*D9
 70
     1
 10
0.0
 20
0.0
 30
0.0
  3
*D9
  1

  0
LINE
  5
1AB
330
1A8
100
AcDbEntity
  8
치수문자_일반주서
 62
     0
370
    -2
100
AcDbLine
 10
90.506707150326
 20
-16.62984344180646
 30
0.0
 11
90.506707150326
 21
-3.516001710983545
 31
0.0
  0
LINE
  5
1AC
330
1A8
100
AcDbEntity
  8
치수문자_일반주서
 62
     0
370
    -2
100
AcDbLine
 10
80.98170715032599
 20
-17.15188575054475
 30
0.0
 11
80.98170715032599
 21
-3.516001710983545
 31
0.0
  0
LINE
  5
1AD
330
1A8
100
AcDbEntity
  8
치수문자_일반주서
 62
     0
370
    -2
100
AcDbLine
 10
90.506707150326
 20
-3.516001710983545
 30
0.0
 11
120.735707150326
 21
-3.516001710983545
 31
0.0
  0
LINE
  5
1AE
330
1A8
100
AcDbEntity
  8
치수문자_일반주서
 62
     0
370
    -2
100
AcDbLine
 10
90.506707150326
 20
-3.516001710983545
 30
0.0
 11
80.98170715032599
 21
-3.516001710983545
 31
0.0
  0
LINE
  5
1AF
330
1A8
100
AcDbEntity
  8
치수문자_일반주서
 62
     0
370
    -2
100
AcDbLine
 10
93.808707150326
 20
-3.516001710983545
 30
0.0
 11
97.110707150326
 21
-3.516001710983545
 31
0.0
  0
LINE
  5
1B0
330
1A8
100
AcDbEntity
  8
치수문자_일반주서
 62
     0
370
    -2
100
AcDbLine
 10
77.67970715032598
 20
-3.516001710983545
 30
0.0
 11
74.37770715032599
 21
-3.516001710983545
 31
0.0
  0
SOLID
  5
1B1
330
1A8
100
AcDbEntity
  8
치수문자_일반주서
 62
     0
100
AcDbTrace
 10
93.808707150326
 20
-2.965668377650212
 30
0.0
 11
93.808707150326
 21
-4.066335044316879
 31
0.0
 12
90.506707150326
 22
-3.516001710983545
 32
0.0
 13
90.506707150326
 23
-3.516001710983545
 33
0.0
  0
SOLID
  5
1B2
330
1A8
100
AcDbEntity
  8
치수문자_일반주서
 62
     0
100
AcDbTrace
 10
77.67970715032598
 20
-4.066335044316879
 30
0.0
 11
77.67970715032598
 21
-2.965668377650212
 31
0.0
 12
80.98170715032599
 22
-3.516001710983545
 32
0.0
 13
80.98170715032599
 23
-3.516001710983545
 33
0.0
  0
MTEXT
  5
1B3
330
1A8
100
AcDbEntity
  8
치수문자_일반주서
 62
     0
100
AcDbMText
 10
108.923207150326
 20
0.8589982890164549
 30
0.0
 40
3.5
 41
0.0
 71
     2
 72
     1
  1
\A1;9.53 [3/8]
  7
SLDTEXTSTYLE0
 73
     1
 44
1.0
  0
POINT
  5
1B4
330
1A8
100
AcDbEntity
  8
Defpoints
 62
     0
100
AcDbPoint
 10
90.506707150326
 20
-16.69234344180646
 30
0.0
  0
POINT
  5
1B5
330
1A8
100
AcDbEntity
  8
Defpoints
 62
     0
100
AcDbPoint
 10
80.98170715032599
 20
-17.21438575054475
 30
0.0
  0
POINT
  5
1B6
330
1A8
100
AcDbEntity
  8
Defpoints
 62
     0
100
AcDbPoint
 10
80.98170715032599
 20
-3.516001710983545
 30
0.0
  0
ENDBLK
  5
1AA
330
1A8
100
AcDbEntity
  8
0
100
AcDbBlockEnd
  0
ENDSEC
  0
SECTION
  2
ENTITIES
  0
LINE
  5
96
330
1F
100
AcDbEntity
  8
외형선
  6
Continuous
370
    15
100
AcDbLine
 10
21.43768467149223
 20
4.762499999999997
 30
0.0
 11
4.838700000000159
 21
4.762499999999996
 31
0.0
  0
LINE
  5
97
330
1F
100
AcDbEntity
  8
외형선
  6
Continuous
370
    15
100
AcDbLine
 10
-21.4376846714922
 20
-4.762500000000001
 30
0.0
 11
21.43768467149223
 21
-4.762499999999998
 31
0.0
  0
LINE
  5
98
330
1F
100
AcDbEntity
  8
외형선
  6
Continuous
370
    15
100
AcDbLine
 10
21.43768467149223
 20
-4.7625
 30
0.0
 11
23.87999110115105
 21
-4.10808596450358
 31
0.0
  0
LINE
  5
99
330
1F
100
AcDbEntity
  8
외형선
  6
Continuous
370
    15
100
AcDbLine
 10
23.87999110115105
 20
4.108085964503579
 30
0.0
 11
21.43768467149223
 21
4.7625
 31
0.0
  0
LINE
  5
9C
330
1F
100
AcDbEntity
  8
외형선
  6
Continuous
370
    15
100
AcDbLine
 10
25.40000000000001
 20
3.105431209760984
 30
0.0
 11
24.87848976721385
 21
3.119001649029713
 31
0.0
  0
SPLINE
  5
9D
330
1F
100
AcDbEntity
  8
외형선
  6
Continuous
370
    15
100
AcDbSpline
210
0.0
220
0.0
230
1.0
 70
     8
 71
     3
 72
     9
 73
     5
 74
     0
 42
0.000000001
 43
0.00000001
 40
0.0
 40
0.0
 40
0.0
 40
0.0
 40
0.4416838558858603
 40
1.0
 40
1.0
 40
1.0
 40
1.0
 10
23.87998769505035
 20
-3.163002313038786
 30
0.0
 10
24.10140444281656
 20
-3.15123057425372
 30
0.0
 10
24.60270587101146
 20
-3.12457861804523
 30
0.0
 10
25.11434411078712
 20
-3.112291375590247
 30
0.0
 10
25.40000000000001
 20
-3.105431209760986
 30
0.0
  0
SPLINE
  5
9E
330
1F
100
AcDbEntity
  8
외형선
  6
Continuous
370
    15
100
AcDbSpline
210
0.0
220
0.0
230
1.0
 70
     8
 71
     3
 72
    12
 73
     8
 74
     0
 42
0.000000001
 43
0.00000001
 40
0.0
 40
0.0
 40
0.0
 40
0.0
 40
0.4395262250408297
 40
0.612596460568167
 40
0.7566906426020275
 40
0.8826288164092628
 40
1.0
 40
1.0
 40
1.0
 40
1.0
 10
24.00065675298639
 20
3.474000140503549
 30
0.0
 10
23.97404320504137
 20
3.501711637205296
 30
0.0
 10
23.93695016179288
 20
3.540334963481126
 30
0.0
 10
23.90399990643002
 20
3.579411791797998
 30
0.0
 10
23.8890750172218
 20
3.597893736210651
 30
0.0
 10
23.88118046156165
 20
3.608764437674771
 30
0.0
 10
23.8803781379419
 20
3.610842261540882
 30
0.0
 10
23.87999110115105
 20
3.611844593095519
 30
0.0
  0
LINE
  5
9F
330
1F
100
AcDbEntity
  8
0
  6
Continuous
 62
     1
370
    15
100
AcDbLine
 10
27.23623911528627
 20
1.103421738957733
 30
0.0
 11
27.16759161447198
 21
1.141037754031443
 31
0.0
1001
PE_URL
1000

  0
LINE
  5
A0
330
1F
100
AcDbEntity
  8
0
  6
Continuous
 62
     1
370
    15
100
AcDbLine
 10
29.40611087840449
 20
1.016994091279342
 30
0.0
 11
28.30350891275747
 21
1.56780984232085
 31
0.0
1001
PE_URL
1000

  0
SPLINE
  5
A1
330
1F
100
AcDbEntity
  8
0
  6
Continuous
 62
     1
370
    15
100
AcDbSpline
210
0.0
220
0.0
230
1.0
 70
     8
 71
     3
 72
     9
 73
     5
 74
     0
 42
0.000000001
 43
0.00000001
 40
0.0
 40
0.0
 40
0.0
 40
0.0
 40
0.4625536222818169
 40
1.0
 40
1.0
 40
1.0
 40
1.0
 10
28.09329027591723
 20
3.15372207905655
 30
0.0
 10
27.68114836023848
 20
3.134853938162836
 30
0.0
 10
26.79013400898206
 20
3.094062687192548
 30
0.0
 10
25.88595027345222
 20
3.1014571061025
 30
0.0
 10
25.40000000000001
 20
3.105431209760984
 30
0.0
1001
PE_URL
1000

  0
SPLINE
  5
A2
330
1F
100
AcDbEntity
  8
0
  6
Continuous
 62
     1
370
    15
100
AcDbSpline
210
0.0
220
0.0
230
1.0
 70
     8
 71
     3
 72
    23
 73
    19
 74
     0
 42
0.000000001
 43
0.00000001
 40
0.0
 40
0.0
 40
0.0
 40
0.0
 40
0.096928844640446
 40
0.1718195030897175
 40
0.2379411365051612
 40
0.2942059647650157
 40
0.350163256845156
 40
0.4222058930717793
 40
0.4916513086784499
 40
0.5491350090960532
 40
0.6026452825836256
 40
0.6708756996023847
 40
0.7401896378117856
 40
0.7790571822816696
 40
0.8100547638593006
 40
0.846889695974963
 40
0.9103236270863437
 40
1.0
 40
1.0
 40
1.0
 40
1.0
 10
38.21205480898561
 20
2.714430133978213
 30
0.0
 10
37.99508438784321
 20
2.696877891883184
 30
0.0
 10
37.61047493454639
 20
2.665764165870403
 30
0.0
 10
37.04485473885876
 20
2.636887807412274
 30
0.0
 10
36.58673739726754
 20
2.620700303465898
 30
0.0
 10
36.17540441896539
 20
2.612743719197052
 30
0.0
 10
35.74899180141068
 20
2.610667065169098
 30
0.0
 10
35.2925430383974
 20
2.615942989011166
 30
0.0
 10
34.83261584026307
 20
2.629589184761178
 30
0.0
 10
34.41570953592607
 20
2.64882180699823
 30
0.0
 10
34.00124582729134
 20
2.673607157339051
 30
0.0
 10
33.55972596458795
 20
2.706614456708542
 30
0.0
 10
33.15184428702019
 20
2.744033252022507
 30
0.0
 10
32.83025520174122
 20
2.777829771657968
 30
0.0
 10
32.5862582474149
 20
2.805287451286137
 30
0.0
 10
32.28519459494582
 20
2.841453938650465
 30
0.0
 10
31.84444836786452
 20
2.898855951842997
 30
0.0
 10
31.48851802359023
 20
2.953204316990586
 30
0.0
 10
31.28005039309551
 20
2.985036036555493
 30
0.0
1001
PE_URL
1000

  0
SPLINE
  5
A3
330
1F
100
AcDbEntity
  8
0
  6
Continuous
 62
     1
370
    15
100
AcDbSpline
210
0.0
220
0.0
230
1.0
 70
     8
 71
     3
 72
    14
 73
    10
 74
     0
 42
0.000000001
 43
0.00000001
 40
0.0
 40
0.0
 40
0.0
 40
0.0
 40
0.2122489145580529
 40
0.3642698832181654
 40
0.5043892933961989
 40
0.6388081456662112
 40
0.7477704850288716
 40
0.8672085682395476
 40
0.9999999999999999
 40
0.9999999999999999
 40
0.9999999999999999
 40
0.9999999999999999
 10
31.28005039309551
 20
-2.985036036555495
 30
0.0
 10
31.48634883006853
 20
-2.953410900805238
 30
0.0
 10
31.84040627107229
 20
-2.899134606716803
 30
0.0
 10
32.34886475158754
 20
-2.833192358023641
 30
0.0
 10
32.77671475788678
 20
-2.783095415094123
 30
0.0
 10
33.15629967676924
 20
-2.743649146041483
 30
0.0
 10
33.51669254615112
 20
-2.71095045678111
 30
0.0
 10
33.87550256739924
 20
-2.682350833716638
 30
0.0
 10
34.12598447342219
 20
-2.666826207686861
 30
0.0
 10
34.25785584039795
 20
-2.658652948033741
 30
0.0
1001
PE_URL
1000

  0
SPLINE
  5
A4
330
1F
100
AcDbEntity
  8
0
  6
Continuous
 62
     1
370
    15
100
AcDbSpline
210
0.0
220
0.0
230
1.0
 70
     8
 71
     3
 72
     9
 73
     5
 74
     0
 42
0.000000001
 43
0.00000001
 40
0.0
 40
0.0
 40
0.0
 40
0.0
 40
0.4579817771598771
 40
1.0
 40
1.0
 40
1.0
 40
1.0
 10
25.40000000000001
 20
-3.105431209760985
 30
0.0
 10
25.80991253872632
 20
-3.101422793114716
 30
0.0
 10
26.70495369356948
 20
-3.09267044346638
 30
0.0
 10
27.60529103186025
 20
-3.132262475963717
 30
0.0
 10
28.09329027591723
 20
-3.153722079056552
 30
0.0
1001
PE_URL
1000

  0
LINE
  5
A5
330
1F
100
AcDbEntity
  8
외형선
  6
Continuous
370
    15
100
AcDbLine
 10
21.43768467149223
 20
4.7625
 30
0.0
 11
21.43768467149223
 21
-4.762500000000004
 31
0.0
  0
SPLINE
  5
A7
330
1F
100
AcDbEntity
  8
외형선
  6
Continuous
370
    15
100
AcDbSpline
210
0.0
220
0.0
230
1.0
 70
     8
 71
     3
 72
     8
 73
     4
 74
     0
 42
0.000000001
 43
0.00000001
 40
0.0
 40
0.0
 40
0.0
 40
0.0
 40
1.0
 40
1.0
 40
1.0
 40
1.0
 10
24.40000000000002
 20
3.283130047972937
 30
0.0
 10
24.22630469291887
 20
3.366739210583989
 30
0.0
 10
24.05296592168612
 20
3.44943636122121
 30
0.0
 10
23.87998177048107
 20
3.53114055234934
 30
0.0
  0
LINE
  5
A8
330
1F
100
AcDbEntity
  8
외형선
  6
Continuous
370
    15
100
AcDbLine
 10
24.40000000000002
 20
3.283130047972928
 30
0.0
 11
24.40000000000002
 21
2.539605546712165
 31
0.0
  0
SPLINE
  5
A9
330
1F
100
AcDbEntity
  8
외형선
  6
Continuous
370
    15
100
AcDbSpline
210
0.0
220
0.0
230
1.0
 70
     8
 71
     3
 72
     8
 73
     4
 74
     0
 42
0.000000001
 43
0.00000001
 40
0.0
 40
0.0
 40
0.0
 40
0.0
 40
0.0005964939769275
 40
0.0005964939769275
 40
0.0005964939769275
 40
0.0005964939769275
 10
23.87999110115105
 20
2.824173400180741
 30
0.0
 10
24.05349153786349
 20
2.730292256283751
 30
0.0
 10
24.22686121655252
 20
2.635417856677987
 30
0.0
 10
24.39999999999929
 20
2.539605546712101
 30
0.0
  0
LINE
  5
AA
330
1F
100
AcDbEntity
  8
외형선
  6
Continuous
370
    15
100
AcDbLine
 10
23.87999110115105
 20
-4.10808596450358
 30
0.0
 11
23.87999110115105
 21
2.824219416959318
 31
0.0
  0
SPLINE
  5
AB
330
1F
100
AcDbEntity
  8
외형선
  6
Continuous
370
    15
100
AcDbSpline
210
0.0
220
0.0
230
1.0
 70
     8
 71
     3
 72
     8
 73
     4
 74
     0
 42
0.000000001
 43
0.00000001
 40
0.0
 40
0.0
 40
0.0
 40
0.0
 40
1.0
 40
1.0
 40
1.0
 40
1.0
 10
24.40000000000002
 20
-3.283130047972938
 30
0.0
 10
24.22630469291887
 20
-3.36673921058399
 30
0.0
 10
24.05296592168612
 20
-3.449436361221212
 30
0.0
 10
23.87998177048107
 20
-3.531140552349342
 30
0.0
  0
LINE
  5
AC
330
1F
100
AcDbEntity
  8
외형선
  6
Continuous
370
    15
100
AcDbLine
 10
23.87999110115105
 20
3.531196320488459
 30
0.0
 11
23.87999110115105
 21
4.108085964503579
 31
0.0
  0
SPLINE
  5
AE
330
1F
100
AcDbEntity
  8
외형선
  6
Continuous
370
    15
100
AcDbSpline
210
0.0
220
0.0
230
1.0
 70
    24
 71
     3
 72
    10
 73
     6
 74
     0
 42
0.000000001
 43
0.00000001
 40
0.0
 40
0.0
 40
0.0
 40
0.0
 40
0.5
 40
0.5
 40
1.0
 40
1.0
 40
1.0
 40
1.0
 10
25.40000000000001
 20
2.070098802638428
 30
0.0
 10
25.40000000000001
 20
2.017928533352485
 30
0.0
 10
25.40000000000001
 20
1.92453085321417
 30
0.0
 10
25.40000000000002
 20
1.673730083750921
 30
0.0
 10
25.40000000000001
 20
1.51724031659754
 30
0.0
 10
25.40000000000001
 20
1.35041352110558
 30
0.0
  0
SPLINE
  5
AF
330
1F
100
AcDbEntity
  8
외형선
  6
Continuous
370
    15
100
AcDbSpline
210
0.0
220
0.0
230
1.0
 70
     8
 71
     3
 72
     8
 73
     4
 74
     0
 42
0.000000001
 43
0.00000001
 40
0.0
 40
0.0
 40
0.0
 40
0.0
 40
1.0
 40
1.0
 40
1.0
 40
1.0
 10
25.40000000000001
 20
1.35041352110558
 30
0.0
 10
24.89153674774053
 20
1.529612027581965
 30
0.0
 10
24.38867159938365
 20
1.697125416933136
 30
0.0
 10
23.87998885406697
 20
1.85011528672554
 30
0.0
  0
SPLINE
  5
B0
330
1F
100
AcDbEntity
  8
외형선
  6
Continuous
370
    15
100
AcDbSpline
210
0.0
220
0.0
230
1.0
 70
     8
 71
     3
 72
     8
 73
     4
 74
     0
 42
0.000000001
 43
0.00000001
 40
0.0
 40
0.0
 40
0.0
 40
0.0
 40
1.0
 40
1.0
 40
1.0
 40
1.0
 10
25.40000000000002
 20
2.070098802638424
 30
0.0
 10
25.06500900818541
 20
2.234759222702693
 30
0.0
 10
24.73384757955859
 20
2.391466850688106
 30
0.0
 10
24.40000000000002
 20
2.539605546712165
 30
0.0
  0
SPLINE
  5
B1
330
1F
100
AcDbEntity
  8
외형선
  6
Continuous
370
    15
100
AcDbSpline
210
0.0
220
0.0
230
1.0
 70
     8
 71
     3
 72
     8
 73
     4
 74
     0
 42
0.000000001
 43
0.00000001
 40
0.0
 40
0.0
 40
0.0
 40
0.0
 40
1.0
 40
1.0
 40
1.0
 40
1.0
 10
25.40000000000001
 20
2.92475926266986
 30
0.0
 10
25.0650090081854
 20
3.05521345840524
 30
0.0
 10
24.73384757955858
 20
3.174821720836836
 30
0.0
 10
24.40000000000002
 20
3.28313004797293
 30
0.0
  0
LINE
  5
B2
330
1F
100
AcDbEntity
  8
외형선
  6
Continuous
370
    15
100
AcDbLine
 10
25.40000000000001
 20
2.924759262669857
 30
0.0
 11
25.40000000000001
 21
2.070098802638427
 31
0.0
  0
SPLINE
  5
B3
330
1F
100
AcDbEntity
  8
외형선
  6
Continuous
370
    15
100
AcDbSpline
210
0.0
220
0.0
230
1.0
 70
     8
 71
     3
 72
     8
 73
     4
 74
     0
 42
0.000000001
 43
0.00000001
 40
0.0
 40
0.0
 40
0.0
 40
0.0
 40
1.0
 40
1.0
 40
1.0
 40
1.0
 10
25.40000000000001
 20
-2.77466364061493
 30
0.0
 10
24.89153636156835
 20
-2.660750180415061
 30
0.0
 10
24.38867082621887
 20
-2.524602776008148
 30
0.0
 10
23.87998769505035
 20
-2.368514740418178
 30
0.0
  0
SPLINE
  5
B4
330
1F
100
AcDbEntity
  8
외형선
  6
Continuous
370
    15
100
AcDbSpline
210
0.0
220
0.0
230
1.0
 70
    24
 71
     3
 72
    14
 73
    10
 74
     0
 42
0.000000001
 43
0.00000001
 40
0.0
 40
0.0
 40
0.0
 40
0.0
 40
0.2500000000000001
 40
0.2500000000000001
 40
0.5000000000000001
 40
0.5000000000000001
 40
0.75
 40
0.75
 40
1.0
 40
1.0
 40
1.0
 40
1.0
 10
25.40000000000001
 20
1.35041352110558
 30
0.0
 10
25.40000000000002
 20
1.013834083788248
 30
0.0
 10
25.40000000000002
 20
0.6539968672316674
 30
0.0
 10
25.40000000000001
 20
-0.0828272400569077
 30
0.0
 10
25.40000000000002
 20
-0.4594892805477153
 30
0.0
 10
25.40000000000002
 20
-1.192634422739212
 30
0.0
 10
25.40000000000001
 20
-1.548726874056648
 30
0.0
 10
25.40000000000001
 20
-2.207174200427496
 30
0.0
 10
25.40000000000001
 20
-2.509314309657536
 30
0.0
 10
25.40000000000001
 20
-2.774663640614931
 30
0.0
  0
SPLINE
  5
B5
330
1F
100
AcDbEntity
  8
외형선
  6
Continuous
370
    15
100
AcDbSpline
210
0.0
220
0.0
230
1.0
 70
    24
 71
     3
 72
    10
 73
     6
 74
     0
 42
0.000000001
 43
0.00000001
 40
0.0
 40
0.0
 40
0.0
 40
0.0
 40
0.007853943621258
 40
0.7546673226188724
 40
1.0
 40
1.0
 40
1.0
 40
1.0
 10
25.40000000000001
 20
3.104786258177272
 30
0.0
 10
25.40000000000001
 20
3.104999238469602
 30
0.0
 10
25.40000000000002
 20
3.125464023389624
 30
0.0
 10
25.40000000000001
 20
3.085675477031474
 30
0.0
 10
25.40000000000001
 20
3.000726389897016
 30
0.0
 10
25.40000000000001
 20
2.979720624814558
 30
0.0
  0
SPLINE
  5
B6
330
1F
100
AcDbEntity
  8
외형선
  6
Continuous
370
    15
100
AcDbSpline
210
0.0
220
0.0
230
1.0
 70
    24
 71
     3
 72
    10
 73
     6
 74
     0
 42
0.000000001
 43
0.00000001
 40
0.0
 40
0.0
 40
0.0
 40
0.0
 40
0.2882553383184785
 40
0.5802831823970389
 40
1.0
 40
1.0
 40
1.0
 40
1.0
 10
25.40000000000002
 20
-2.77466364061493
 30
0.0
 10
25.40000000000001
 20
-2.832297158520481
 30
0.0
 10
25.40000000000001
 20
-2.94831846580333
 30
0.0
 10
25.40000000000001
 20
-3.075103733598575
 30
0.0
 10
25.40000000000001
 20
-3.093865852883783
 30
0.0
 10
25.40000000000001
 20
-3.104929900739471
 30
0.0
  0
SPLINE
  5
B7
330
1F
100
AcDbEntity
  8
외형선
  6
Continuous
370
    15
100
AcDbSpline
210
0.0
220
0.0
230
1.0
 70
     8
 71
     3
 72
     9
 73
     5
 74
     0
 42
0.000000001
 43
0.00000001
 40
0.0
 40
0.0
 40
0.0
 40
0.0
 40
0.072701817343324
 40
1.0
 40
1.0
 40
1.0
 40
1.0
 10
24.87342909470814
 20
-3.120886553758893
 30
0.0
 10
24.86194815127156
 20
-3.125176146919577
 30
0.0
 10
24.70402990581194
 20
-3.184178704454367
 30
0.0
 10
24.54628062313849
 20
-3.235520704570906
 30
0.0
 10
24.40000000000002
 20
-3.283130047972931
 30
0.0
  0
SPLINE
  5
B8
330
1F
100
AcDbEntity
  8
0
  6
Continuous
 62
     1
370
    15
100
AcDbSpline
210
0.0
220
0.0
230
1.0
 70
     8
 71
     3
 72
    36
 73
    32
 74
     0
 42
0.000000001
 43
0.00000001
 40
0.0
 40
0.0
 40
0.0
 40
0.0
 40
0.0625
 40
0.0625
 40
0.125
 40
0.125
 40
0.1875
 40
0.1875
 40
0.25
 40
0.25
 40
0.3125
 40
0.3125
 40
0.375
 40
0.375
 40
0.4375
 40
0.4375
 40
0.5
 40
0.5
 40
0.5625
 40
0.5625
 40
0.625
 40
0.625
 40
0.6875
 40
0.6875
 40
0.75
 40
0.75
 40
0.875
 40
0.875
 40
0.9375
 40
0.9375
 40
1.0
 40
1.0
 40
1.0
 40
1.0
 10
39.68750000000002
 20
-3.965395672942649
 30
0.0
 10
39.39202610691319
 20
-3.958349093875065
 30
0.0
 10
39.09305569076751
 20
-3.94013025279573
 30
0.0
 10
38.49562641859347
 20
-3.881566276426316
 30
0.0
 10
38.19872583974246
 20
-3.841314565704144
 30
0.0
 10
37.60597609447962
 20
-3.739603348307103
 30
0.0
 10
37.30662104029196
 20
-3.677903325254245
 30
0.0
 10
36.70948715843417
 20
-3.534217266304189
 30
0.0
 10
36.4139866333961
 20
-3.452480081875537
 30
0.0
 10
35.81972264448224
 20
-3.269829751849886
 30
0.0
 10
35.52013169297557
 20
-3.168772127106688
 30
0.0
 10
34.92358810509909
 20
-2.949672851690137
 30
0.0
 10
34.62881555848612
 20
-2.831965781638489
 30
0.0
 10
34.03332751678838
 20
-2.580544300914721
 30
0.0
 10
33.73364980155496
 20
-2.446918486783449
 30
0.0
 10
33.13799043970528
 20
-2.167205206298936
 30
0.0
 10
32.84327260329077
 20
-2.02136681629252
 30
0.0
 10
32.24685270636088
 20
-1.718013452771252
 30
0.0
 10
31.94723750558767
 20
-1.560813945520416
 30
0.0
 10
31.35275484857783
 20
-1.239365810853057
 30
0.0
 10
31.05741836445779
 20
-1.075058842584229
 30
0.0
 10
30.46036034089569
 20
-0.7401455131917659
 30
0.0
 10
30.16095682858194
 20
-0.5699601795346161
 30
0.0
 10
29.56794142538813
 20
-0.2284484403516053
 30
0.0
 10
29.27131394945069
 20
-0.0565484066959554
 30
0.0
 10
28.37521189226488
 20
0.4593773531410602
 30
0.0
 10
27.78374556474536
 20
0.8008711388015991
 30
0.0
 10
26.88757150222336
 20
1.295637347279928
 30
0.0
 10
26.59038013917195
 20
1.457083697850079
 30
0.0
 10
25.99790364708117
 20
1.770581254841713
 30
0.0
 10
25.69860097756305
 20
1.923325415895122
 30
0.0
 10
25.40000000000002
 20
2.070098802638427
 30
0.0
1001
PE_URL
1000

  0
SPLINE
  5
B9
330
1F
100
AcDbEntity
  8
0
  6
Continuous
 62
     1
370
    15
100
AcDbSpline
210
0.0
220
0.0
230
1.0
 70
     8
 71
     3
 72
    10
 73
     6
 74
     0
 42
0.000000001
 43
0.00000001
 40
0.0
 40
0.0
 40
0.0
 40
0.0
 40
0.2918976540037628
 40
0.6459555370597464
 40
1.0
 40
1.0
 40
1.0
 40
1.0
 10
29.83815449370424
 20
-0.3814616808300956
 30
0.0
 10
29.40632287134749
 20
-0.2078458803751411
 30
0.0
 10
28.45070016005553
 20
0.176357576167515
 30
0.0
 10
26.97131644700634
 20
0.7752174528361256
 30
0.0
 10
25.92376553119487
 20
1.15868392086349
 30
0.0
 10
25.40000000000001
 20
1.35041352110558
 30
0.0
1001
PE_URL
1000

  0
SPLINE
  5
BA
330
1F
100
AcDbEntity
  8
외형선
  6
Continuous
370
    15
100
AcDbSpline
210
0.0
220
0.0
230
1.0
 70
    24
 71
     3
 72
    10
 73
     6
 74
     0
 42
0.000000001
 43
0.00000001
 40
0.0
 40
0.0
 40
0.0
 40
0.0
 40
0.5
 40
0.5
 40
1.0
 40
1.0
 40
1.0
 40
1.0
 10
25.40000000000001
 20
2.070098802638428
 30
0.0
 10
25.40000000000001
 20
2.017928533352486
 30
0.0
 10
25.40000000000001
 20
1.924530853214171
 30
0.0
 10
25.40000000000002
 20
1.673730083750922
 30
0.0
 10
25.40000000000001
 20
1.517240316597541
 30
0.0
 10
25.40000000000001
 20
1.35041352110558
 30
0.0
  0
SPLINE
  5
BB
330
1F
100
AcDbEntity
  8
0
  6
Continuous
 62
     1
370
    15
100
AcDbSpline
210
0.0
220
0.0
230
1.0
 70
     8
 71
     3
 72
    36
 73
    32
 74
     0
 42
0.000000001
 43
0.00000001
 40
0.0
 40
0.0
 40
0.0
 40
0.0
 40
0.0625
 40
0.0625
 40
0.125
 40
0.125
 40
0.1874999999999999
 40
0.1874999999999999
 40
0.2499999999999999
 40
0.2499999999999999
 40
0.3124999999999998
 40
0.3124999999999998
 40
0.3749999999999998
 40
0.3749999999999998
 40
0.4374999999999997
 40
0.4374999999999997
 40
0.4999999999999997
 40
0.4999999999999997
 40
0.5624999999999997
 40
0.5624999999999997
 40
0.6249999999999997
 40
0.6249999999999997
 40
0.6874999999999997
 40
0.6874999999999997
 40
0.7499999999999997
 40
0.7499999999999997
 40
0.8749999999999998
 40
0.8749999999999998
 40
0.9374999999999999
 40
0.9374999999999999
 40
1.0
 40
1.0
 40
1.0
 40
1.0
 10
39.68750000000001
 20
-3.766109074764104
 30
0.0
 10
39.39202610691314
 20
-3.712031734356845
 30
0.0
 10
39.0930556907674
 20
-3.647157233818763
 30
0.0
 10
38.49562641859326
 20
-3.497223356861672
 30
0.0
 10
38.19872583974219
 20
-3.412335031990293
 30
0.0
 10
37.60597609447923
 20
-3.224052283565679
 30
0.0
 10
37.30662104029152
 20
-3.120251852310212
 30
0.0
 10
36.70948715843363
 20
-2.895819227121495
 30
0.0
 10
36.41398663339551
 20
-2.775529108818972
 30
0.0
 10
35.81972264448154
 20
-2.519640186724169
 30
0.0
 10
35.52013169297481
 20
-2.383875609845794
 30
0.0
 10
34.92358810509823
 20
-2.1000792635233
 30
0.0
 10
34.62881555848521
 20
-1.952443883188326
 30
0.0
 10
34.03332751678735
 20
-1.64606853354548
 30
0.0
 10
33.73364980155387
 20
-1.487468744203349
 30
0.0
 10
33.1379904397041
 20
-1.163445266300298
 30
0.0
 10
32.84327260328953
 20
-0.9982807714050103
 30
0.0
 10
32.24685270635953
 20
-0.6619804472495416
 30
0.0
 10
31.94723750558625
 20
-0.4912214090552686
 30
0.0
 10
31.35275484857632
 20
-0.148804923883883
 30
0.0
 10
31.05741836445623
 20
0.0229364744133401
 30
0.0
 10
30.46036034089401
 20
0.366552185453332
 30
0.0
 10
30.16095682858021
 20
0.5379735823702619
 30
0.0
 10
29.56794142538632
 20
0.8757380805242808
 30
0.0
 10
29.27131394944879
 20
1.042661740462702
 30
0.0
 10
28.37521189226281
 20
1.534375045090481
 30
0.0
 10
27.78374556474319
 20
1.847463657693202
 30
0.0
 10
26.88757150222103
 20
2.282372302990401
 30
0.0
 10
26.5903801391696
 20
2.421059975718692
 30
0.0
 10
25.99790364707868
 20
2.683827024712719
 30
0.0
 10
25.69860097756051
 20
2.808476283947277
 30
0.0
 10
25.39999999999742
 20
2.924759262670871
 30
0.0
1001
PE_URL
1000

  0
SPLINE
  5
BC
330
1F
100
AcDbEntity
  8
0
  6
Continuous
 62
     1
370
    15
100
AcDbSpline
210
0.0
220
0.0
230
1.0
 70
     8
 71
     3
 72
    15
 73
    11
 74
     0
 42
0.000000001
 43
0.00000001
 40
0.0
 40
0.0
 40
0.0
 40
0.0
 40
0.127686388451153
 40
0.255218540715814
 40
0.3827052808526137
 40
0.5102559731541779
 40
0.6379716925580493
 40
0.765624305023861
 40
0.8931410537902582
 40
1.0
 40
1.0
 40
1.0
 40
1.0
 10
39.68750000000001
 20
-3.131233674211358
 30
0.0
 10
39.24799633355161
 20
-3.039954223321872
 30
0.0
 10
38.36951989020604
 20
-2.857505580706631
 30
0.0
 10
37.05257366368359
 20
-2.4482706407929
 30
0.0
 10
35.73612556306448
 20
-1.957687351212564
 30
0.0
 10
34.41899329046989
 20
-1.39311524728951
 30
0.0
 10
33.10087901304492
 20
-0.7783687466791
 30
0.0
 10
31.7830619477479
 20
-0.135696777738195
 30
0.0
 10
30.53728422827657
 20
0.4806879326771411
 30
0.0
 10
29.73076943791778
 20
0.8612339591620285
 30
0.0
 10
29.36305502704814
 20
1.034736366818332
 30
0.0
1001
PE_URL
1000

  0
LINE
  5
BD
330
1F
100
AcDbEntity
  8
0
  6
Continuous
 62
     1
370
    15
100
AcDbLine
 10
39.68749999999994
 20
-3.766109074764104
 30
0.0
 11
39.68750000000001
 21
-3.131233674211358
 31
0.0
1001
PE_URL
1000

  0
LINE
  5
BE
330
1F
100
AcDbEntity
  8
0
  6
Continuous
 62
     1
370
    15
100
AcDbLine
 10
39.68750000000002
 20
-3.965395672942649
 30
0.0
 11
39.68750000000007
 21
-3.766109074764099
 31
0.0
1001
PE_URL
1000

  0
SPLINE
  5
BF
330
1F
100
AcDbEntity
  8
0
  6
Continuous
 62
     1
370
    15
100
AcDbSpline
210
0.0
220
0.0
230
1.0
 70
     8
 71
     3
 72
     8
 73
     4
 74
     0
 42
0.000000001
 43
0.00000001
 40
0.0
 40
0.0
 40
0.0
 40
0.0
 40
1.0
 40
1.0
 40
1.0
 40
1.0
 10
37.23155668758469
 20
1.11041021678252
 30
0.0
 10
37.09053207403765
 20
1.277501323937803
 30
0.0
 10
36.96477381134768
 20
1.438197945001899
 30
0.0
 10
36.85782467218495
 20
1.591016149022652
 30
0.0
1001
PE_URL
1000

  0
LINE
  5
C0
330
1F
100
AcDbEntity
  8
0
  6
Continuous
 62
     1
370
    15
100
AcDbLine
 10
36.90797195234585
 20
1.633094713309127
 30
0.0
 11
39.68750000000001
 21
0.0000000000000014
 31
0.0
1001
PE_URL
1000

  0
LINE
  5
C1
330
1F
100
AcDbEntity
  8
0
  6
Continuous
 62
     1
370
    15
100
AcDbLine
 10
39.68750000000001
 20
0.0000000000000014
 30
0.0
 11
39.68750000000001
 21
-1.060620442055151
 31
0.0
1001
PE_URL
1000

  0
SPLINE
  5
C2
330
1F
100
AcDbEntity
  8
0
  6
Continuous
 62
     1
370
    15
100
AcDbSpline
210
0.0
220
0.0
230
1.0
 70
     8
 71
     3
 72
    10
 73
     6
 74
     0
 42
0.000000001
 43
0.00000001
 40
0.0
 40
0.0
 40
0.0
 40
0.0
 40
0.5
 40
0.5
 40
1.0
 40
1.0
 40
1.0
 40
1.0
 10
39.68750000000002
 20
-1.060620442055153
 30
0.0
 10
39.2623645628908
 20
-0.7263914625886172
 30
0.0
 10
38.84433223809891
 20
-0.3784565810895904
 30
0.0
 10
38.02283386371224
 20
0.3455197261823825
 30
0.0
 10
37.61553440035841
 20
0.72535972558586
 30
0.0
 10
37.23155668758469
 20
1.110410216782522
 30
0.0
1001
PE_URL
1000

  0
SPLINE
  5
C3
330
1F
100
AcDbEntity
  8
0
  6
Continuous
 62
     1
370
    15
100
AcDbSpline
210
0.0
220
0.0
230
1.0
 70
     8
 71
     3
 72
    13
 73
     9
 74
     0
 42
0.000000001
 43
0.00000001
 40
0.0
 40
0.0
 40
0.0
 40
0.0
 40
0.1811909765649923
 40
0.3623819561100248
 40
0.5435729389931555
 40
0.724763925572434
 40
0.9146030502357185
 40
1.0
 40
1.0
 40
1.0
 40
1.0
 10
37.23155668758469
 20
1.110410216782518
 30
0.0
 10
36.67945652292808
 20
1.343113732301064
 30
0.0
 10
35.5752561845345
 20
1.808520767165419
 30
0.0
 10
33.91895877372656
 20
2.384244810648996
 30
0.0
 10
32.26264886473443
 20
2.829643011468868
 30
0.0
 10
30.5800348497531
 20
3.104034213575726
 30
0.0
 10
29.18915459920846
 20
3.211106635568991
 30
0.0
 10
28.35044506067288
 20
3.148249892461175
 30
0.0
 10
28.09022031913743
 20
3.128747455708697
 30
0.0
1001
PE_URL
1000

  0
SPLINE
  5
C4
330
1F
100
AcDbEntity
  8
0
  6
Continuous
 62
     1
370
    15
100
AcDbSpline
210
0.0
220
0.0
230
1.0
 70
    24
 71
     3
 72
    10
 73
     6
 74
     0
 42
0.000000001
 43
0.00000001
 40
0.0
 40
0.0
 40
0.0
 40
0.0
 40
0.5
 40
0.5
 40
1.0
 40
1.0
 40
1.0
 40
1.0
 10
39.68750000000001
 20
-3.131233674211357
 30
0.0
 10
39.68750000000001
 20
-2.891200200108851
 30
0.0
 10
39.68750000000002
 20
-2.587908701753798
 30
0.0
 10
39.68750000000002
 20
-1.882785156629261
 30
0.0
 10
39.68750000000001
 20
-1.481563914609886
 30
0.0
 10
39.68750000000001
 20
-1.06062044205528
 30
0.0
1001
PE_URL
1000

  0
SPLINE
  5
C5
330
1F
100
AcDbEntity
  8
외형선
  6
Continuous
370
    15
100
AcDbSpline
210
0.0
220
0.0
230
1.0
 70
    24
 71
     3
 72
    10
 73
     6
 74
     0
 42
0.000000001
 43
0.00000001
 40
0.0
 40
0.0
 40
0.0
 40
0.0
 40
0.0098842331475895
 40
0.755169361973011
 40
1.0
 40
1.0
 40
1.0
 40
1.0
 10
25.40000000000001
 20
3.104620867225965
 30
0.0
 10
25.40000000000001
 20
3.10489004432171
 30
0.0
 10
25.40000000000001
 20
3.125455554322974
 30
0.0
 10
25.40000000000001
 20
3.085686714081143
 30
0.0
 10
25.40000000000001
 20
3.000728617664982
 30
0.0
 10
25.40000000000001
 20
2.979720624814558
 30
0.0
  0
SPLINE
  5
C6
330
1F
100
AcDbEntity
  8
0
  6
Continuous
 62
     1
370
    15
100
AcDbSpline
210
0.0
220
0.0
230
1.0
 70
    24
 71
     3
 72
     8
 73
     4
 74
     0
 42
0.000000001
 43
0.00000001
 40
0.0
 40
0.0
 40
0.0
 40
0.0
 40
1.0
 40
1.0
 40
1.0
 40
1.0
 10
37.27191137504136
 20
1.938476148661926
 30
0.0
 10
37.14094732515212
 20
1.828584262702384
 30
0.0
 10
37.00247707856492
 20
1.712393929863892
 30
0.0
 10
36.8578246721855
 20
1.591016149022016
 30
0.0
1001
PE_URL
1000

  0
LINE
  5
C7
330
1F
100
AcDbEntity
  8
0
  6
Continuous
 62
     1
370
    15
100
AcDbLine
 10
39.68750000000001
 20
2.778124999999999
 30
0.0
 11
38.21101261021903
 21
2.708992689661404
 31
0.0
1001
PE_URL
1000

  0
SPLINE
  5
C8
330
1F
100
AcDbEntity
  8
0
  6
Continuous
 62
     1
370
    15
100
AcDbSpline
210
0.0
220
0.0
230
1.0
 70
     8
 71
     3
 72
    10
 73
     6
 74
     0
 42
0.000000001
 43
0.00000001
 40
0.0
 40
0.0
 40
0.0
 40
0.0
 40
0.5
 40
0.5
 40
1.0
 40
1.0
 40
1.0
 40
1.0
 10
39.68750000000001
 20
2.778125000000001
 30
0.0
 10
39.27927549857942
 20
2.667364671134634
 30
0.0
 10
38.87353188369548
 20
2.543114387779075
 30
0.0
 10
38.06750353443585
 20
2.264930863570461
 30
0.0
 10
37.66715765574473
 20
2.111487272305856
 30
0.0
 10
37.27191137504002
 20
1.938476148662667
 30
0.0
1001
PE_URL
1000

  0
SPLINE
  5
C9
330
1F
100
AcDbEntity
  8
0
  6
Continuous
 62
     1
370
    15
100
AcDbSpline
210
0.0
220
0.0
230
1.0
 70
     8
 71
     3
 72
    11
 73
     7
 74
     0
 42
0.000000001
 43
0.00000001
 40
0.0
 40
0.0
 40
0.0
 40
0.0
 40
0.1159432217680273
 40
0.4106299526985937
 40
0.7053161918643792
 40
1.0
 40
1.0
 40
1.0
 40
1.0
 10
31.28912424072796
 20
-2.962711764549526
 30
0.0
 10
31.0615371818517
 20
-3.003724391027705
 30
0.0
 10
30.25550417883449
 20
-3.148976632719547
 30
0.0
 10
28.87088662859777
 20
-3.199787335262066
 30
0.0
 10
27.13544737242657
 20
-3.114679797913111
 30
0.0
 10
25.97848086672595
 20
-2.888002048047966
 30
0.0
 10
25.40000000000001
 20
-2.77466364061493
 30
0.0
1001
PE_URL
1000

  0
SPLINE
  5
CA
330
1F
100
AcDbEntity
  8
외형선
  6
Continuous
370
    15
100
AcDbSpline
210
0.0
220
0.0
230
1.0
 70
    24
 71
     3
 72
    14
 73
    10
 74
     0
 42
0.000000001
 43
0.00000001
 40
0.0
 40
0.0
 40
0.0
 40
0.0
 40
0.2500000000000001
 40
0.2500000000000001
 40
0.5000000000000001
 40
0.5000000000000001
 40
0.75
 40
0.75
 40
1.0
 40
1.0
 40
1.0
 40
1.0
 10
25.40000000000001
 20
1.35041352110558
 30
0.0
 10
25.40000000000002
 20
1.013834083788248
 30
0.0
 10
25.40000000000002
 20
0.6539968672316674
 30
0.0
 10
25.40000000000001
 20
-0.0828272400569077
 30
0.0
 10
25.40000000000002
 20
-0.4594892805477153
 30
0.0
 10
25.40000000000002
 20
-1.192634422739212
 30
0.0
 10
25.40000000000001
 20
-1.548726874056648
 30
0.0
 10
25.40000000000001
 20
-2.207174200427496
 30
0.0
 10
25.40000000000001
 20
-2.509314309657536
 30
0.0
 10
25.40000000000001
 20
-2.774663640614931
 30
0.0
  0
LINE
  5
CB
330
1F
100
AcDbEntity
  8
0
  6
Continuous
 62
     1
370
    15
100
AcDbLine
 10
39.68750000000001
 20
0.0000000000000014
 30
0.0
 11
39.68750000000001
 21
2.778125000000001
 31
0.0
1001
PE_URL
1000

  0
SPLINE
  5
CC
330
1F
100
AcDbEntity
  8
외형선
  6
Continuous
370
    15
100
AcDbSpline
210
0.0
220
0.0
230
1.0
 70
    24
 71
     3
 72
    10
 73
     6
 74
     0
 42
0.000000001
 43
0.00000001
 40
0.0
 40
0.0
 40
0.0
 40
0.0
 40
0.2890752833311987
 40
0.5819338033504871
 40
1.0
 40
1.0
 40
1.0
 40
1.0
 10
25.40000000000002
 20
-2.774663640614931
 30
0.0
 10
25.40000000000002
 20
-2.832293008983763
 30
0.0
 10
25.40000000000002
 20
-2.948305962886632
 30
0.0
 10
25.40000000000001
 20
-3.074803947923441
 30
0.0
 10
25.40000000000001
 20
-3.093527214282763
 30
0.0
 10
25.40000000000001
 20
-3.104537613235239
 30
0.0
  0
SPLINE
  5
CD
330
1F
100
AcDbEntity
  8
0
  6
Continuous
 62
     1
370
    15
100
AcDbSpline
210
0.0
220
0.0
230
1.0
 70
     8
 71
     3
 72
    11
 73
     7
 74
     0
 42
0.000000001
 43
0.00000001
 40
0.0
 40
0.0
 40
0.0
 40
0.0
 40
0.1313381080554483
 40
0.4208654532333943
 40
0.7104182690787152
 40
1.0
 40
1.0
 40
1.0
 40
1.0
 10
34.25871978653655
 20
2.659024005824142
 30
0.0
 10
34.49638095575808
 20
2.76419521772932
 30
0.0
 10
35.25795257561252
 20
3.10121034929259
 30
0.0
 10
36.54350584494085
 20
3.509023194067946
 30
0.0
 10
38.1154327772844
 20
3.86923265484965
 30
0.0
 10
39.16346015042998
 20
3.933340266654993
 30
0.0
 10
39.68750000000002
 20
3.965395672942648
 30
0.0
1001
PE_URL
1000

  0
SPLINE
  5
CE
330
1F
100
AcDbEntity
  8
0
  6
Continuous
 62
     1
370
    15
100
AcDbSpline
210
0.0
220
0.0
230
1.0
 70
    24
 71
     3
 72
    10
 73
     6
 74
     0
 42
0.000000001
 43
0.00000001
 40
0.0
 40
0.0
 40
0.0
 40
0.0
 40
0.5
 40
0.5
 40
1.0
 40
1.0
 40
1.0
 40
1.0
 10
39.68750000000001
 20
2.778124999999999
 30
0.0
 10
39.68750000000002
 20
2.946528019204026
 30
0.0
 10
39.68750000000003
 20
3.14222792331637
 30
0.0
 10
39.68750000000002
 20
3.552805795063394
 30
0.0
 10
39.68750000000001
 20
3.766635198337092
 30
0.0
 10
39.68750000000001
 20
3.965395672942648
 30
0.0
1001
PE_URL
1000

  0
LINE
  5
CF
330
1F
100
AcDbEntity
  8
중심선
 62
     1
100
AcDbLine
 10
-42.68750000000001
 20
-0.0000000000000052
 30
0.0
 11
42.6875
 21
0.0000000000000052
 31
0.0
  0
LINE
  5
D0
330
1F
100
AcDbEntity
  8
참조1
100
AcDbLine
 10
-0.0000000000000018
 20
-0.0000000000000048
 30
0.0
 11
0.0000000000000036
 21
-40.00000000000001
 31
0.0
  0
LINE
  5
D1
330
1F
100
AcDbEntity
  8
참조1
100
AcDbLine
 10
0.0000000000000036
 20
-40.00000000000001
 30
0.0
 11
-14.46571559669921
 21
-40.0
 31
0.0
  0
CIRCLE
  5
D2
330
1F
100
AcDbEntity
  8
해칭선
100
AcDbCircle
 10
-0.0000000000000018
 20
0.0
 30
0.0
 40
3.000000000000001
  0
INSERT
  5
D3
330
1F
100
AcDbEntity
  8
0
  6
Continuous
 62
     7
100
AcDbBlockReference
 66
     1
  2
블럭10
 10
-13.94027293212521
 20
-52.04717430164393
 30
0.0
  0
ATTRIB
  5
D4
330
D3
100
AcDbEntity
  8
FORMAT
 62
     2
100
AcDbText
 10
-23.12156822086649
 20
-49.97180738881175
 30
0.0
 40
4.233333333333333
  1
E1050020 [ 2 FLUTE ]
 41
0.75
  7
SLDTEXTSTYLE0
 11
-23.12156822086649
 21
-52.08847405547841
 31
0.0
100
AcDbAttribute
  2
AUTOATTR0
 70
     0
 74
     1
  0
SEQEND
  5
D5
330
D3
100
AcDbEntity
  8
0
  6
Continuous
 62
     7
  0
HATCH
  5
D6
330
1F
100
AcDbEntity
  8
중심선
100
AcDbHatch
 10
0.0
 20
0.0
 30
0.0
210
0.0
220
0.0
230
1.0
  2
SOLID
 70
     1
 71
     0
 91
        1
 92
        0
 93
        4
 72
     1
 10
-8.225363627744372
 20
-35.8
 11
-11.67163887158165
 21
-35.8
 72
     1
 10
-11.67163887158165
 20
-35.8
 11
-13.79986873078568
 21
-38.3363255805726
 72
     1
 10
-13.79986873078568
 20
-38.3363255805726
 11
-10.35356040183525
 21
-38.33628615127011
 72
     1
 10
-10.35356040183525
 20
-38.33628615127011
 11
-8.225363627744372
 21
-35.8
 97
        0
 75
     0
 76
     1
 98
        1
 10
14.99421167873052
 20
-0.001074928723894
  0
HATCH
  5
D7
330
1F
100
AcDbEntity
  8
중심선
100
AcDbHatch
 10
0.0
 20
0.0
 30
0.0
210
0.0
220
0.0
230
1.0
  2
SOLID
 70
     1
 71
     0
 91
        1
 92
        0
 93
        4
 72
     1
 10
-3.212599636708418
 20
-35.80000000000003
 11
-6.658874880545675
 21
-35.8
 72
     1
 10
-6.658874880545675
 20
-35.8
 11
-11.19001288890309
 21
-41.20000000000002
 72
     1
 10
-11.19001288890309
 20
-41.20000000000002
 11
-7.743737645065806
 21
-41.20000000000002
 72
     1
 10
-7.743737645065806
 20
-41.20000000000002
 11
-3.212599636708418
 21
-35.80000000000003
 97
        0
 75
     0
 76
     1
 98
        1
 10
14.99421167873052
 20
-0.001074928723894
  0
HATCH
  5
D8
330
1F
100
AcDbEntity
  8
중심선
100
AcDbHatch
 10
0.0
 20
0.0
 30
0.0
210
0.0
220
0.0
230
1.0
  2
SOLID
 70
     1
 71
     0
 91
        1
 92
        0
 93
        4
 72
     1
 10
1.800164354327476
 20
-35.8
 11
-1.646110889509639
 21
-35.8
 72
     1
 10
-1.646110889509639
 20
-35.8
 11
-8.69454779139889
 21
-44.20000000000002
 72
     1
 10
-8.69454779139889
 20
-44.20000000000002
 11
-5.248272547561605
 21
-44.20000000000002
 72
     1
 10
-5.248272547561605
 20
-44.20000000000002
 11
1.800164354327476
 21
-35.8
 97
        0
 75
     0
 76
     1
 98
        1
 10
14.99421167873052
 20
-0.001074928723894
  0
HATCH
  5
D9
330
1F
100
AcDbEntity
  8
중심선
100
AcDbHatch
 10
0.0
 20
0.0
 30
0.0
210
0.0
220
0.0
230
1.0
  2
SOLID
 70
     1
 71
     0
 91
        1
 92
        0
 93
        6
 72
     3
 10
6.600054785339676
 20
-40.00000000005127
 11
3.960054785062283
 21
1.540882976769353E-10
 40
0.3939339440162628
 50
17.09539180608437
 51
320.0019657685077
 73
     0
 72
     1
 10
8.283054441040242
 20
-38.5878940046383
 11
10.58835631474131
 21
-36.65356729459035
 72
     3
 10
6.600054785286829
 20
-40.00000000000015
 11
6.600054785286829
 21
-1.278976924368180E-13
 40
0.636358354079598
 50
39.99873849337431
 51
368.4976242363725
 73
     1
 72
     1
 10
13.02538727718744
 20
-39.03999999993002
 11
5.280122092122751
 21
-39.03999999993
 72
     1
 10
5.280122092122751
 20
-39.03999999993
 11
5.280097047676817
 21
-40.95999999992991
 72
     1
 10
5.280097047676817
 20
-40.95999999992991
 11
9.721476817148854
 21
-40.95999999992988
 97
        0
 75
     0
 76
     1
 98
        1
 10
14.99421167873052
 20
-0.001074928723894
  0
DIMENSION
  5
DA
330
1F
100
AcDbEntity
  8
치수문자_일반주서
100
AcDbDimension
  2
_D
 10
-49.68749999999995
 20
-4.762500000000113
 30
0.0
 11
-49.68750000000007
 21
28.42899999999988
 31
0.0
 70
   160
  1
%%c<>
 71
     2
 42
9.525000000000004
 52
-270.0
  3
SLDDIMSTYLE0
100
AcDbAlignedDimension
 13
-21.43768467149223
 23
4.762499999999994
 33
0.0
 14
-21.43768467149221
 24
-4.76250000000001
 34
0.0
 50
90.0000000000002
100
AcDbRotatedDimension
1001
PE_URL
1000

1001
ACAD
1000
DSTYLE
1002
{
1070
   171
1070
     8
1070
   273
1070
     7
1002
}
  0
DIMENSION
  5
EF
330
1F
100
AcDbEntity
  8
치수문자_일반주서
100
AcDbDimension
  2
_D_1
 10
80.19588768624104
 20
3.965395672942797
 30
0.0
 11
80.19588768624097
 21
24.5693956729428
 31
0.0
 70
   160
  1
%%c<>
 71
     2
 42
7.930791345885297
 52
-270.0
  3
SLDDIMSTYLE0
100
AcDbAlignedDimension
 13
39.68750000000002
 23
-3.965395672942649
 33
0.0
 14
39.68750000000002
 24
3.965395672942648
 34
0.0
 50
90.0000000000002
100
AcDbRotatedDimension
1001
PE_URL
1000

1001
ACAD
1000
DSTYLE
1002
{
1070
   171
1070
     8
1070
   273
1070
     7
1002
}
  0
DIMENSION
  5
103
330
1F
100
AcDbEntity
  8
치수문자_일반주서
100
AcDbDimension
  2
_D_2
 10
25.40000000000002
 20
14.76249999999999
 30
0.0
 11
59.85400000000002
 21
14.76249999999999
 31
0.0
 70
   160
  1
<>
 71
     2
 42
14.2875
  3
SLDDIMSTYLE0
100
AcDbAlignedDimension
 13
39.68750000000002
 23
3.965395672942648
 33
0.0
 14
25.40000000000002
 24
3.105431349309291
 34
0.0
 50
0.0000000000000142
100
AcDbRotatedDimension
1001
PE_URL
1000

1001
ACAD
1000
DSTYLE
1002
{
1070
   171
1070
     8
1070
   273
1070
     7
1002
}
  0
DIMENSION
  5
117
330
1F
100
AcDbEntity
  8
치수문자_일반주서
100
AcDbDimension
  2
_D_3
 10
39.68750000000002
 20
24.7625
 30
0.0
 11
0.0000000000000071
 21
24.7625
 31
0.0
 70
   160
  1
<>
 71
     2
 42
79.37500000000003
  3
SLDDIMSTYLE0
100
AcDbAlignedDimension
 13
-39.68750000000001
 23
3.965395672942623
 33
0.0
 14
39.68750000000002
 24
3.965395672942648
 34
0.0
100
AcDbRotatedDimension
1001
PE_URL
1000

1001
ACAD
1000
DSTYLE
1002
{
1070
   171
1070
     8
1070
   273
1070
     7
1002
}
  0
LINE
  5
12A
330
1F
100
AcDbEntity
  8
참조1
100
AcDbLine
 10
83.50662503295506
 20
7.440000000000001
 30
0.0
 11
83.50662503295506
 21
-7.440000000000003
 31
0.0
  0
LINE
  5
12B
330
1F
100
AcDbEntity
  8
참조1
100
AcDbLine
 10
96.20662503295506
 20
5.440000000000001
 30
0.0
 11
83.50662503295506
 21
5.440000000000001
 31
0.0
  0
SOLID
  5
12C
330
1F
100
AcDbEntity
  8
참조1
100
AcDbTrace
 10
83.50662503295506
 20
5.440000000000001
 30
0.0
 11
89.85662503295505
 21
4.424000000000001
 31
0.0
 12
89.85662503295505
 22
6.456000000000001
 32
0.0
 13
89.85662503295505
 23
6.456000000000001
 33
0.0
  0
LINE
  5
12D
330
1F
100
AcDbEntity
  8
참조1
100
AcDbLine
 10
96.20662503295506
 20
-5.440000000000003
 30
0.0
 11
83.50662503295506
 21
-5.440000000000003
 31
0.0
  0
SOLID
  5
12E
330
1F
100
AcDbEntity
  8
참조1
100
AcDbTrace
 10
83.50662503295506
 20
-5.440000000000003
 30
0.0
 11
89.85662503295505
 21
-6.456000000000003
 31
0.0
 12
89.85662503295505
 22
-4.424000000000003
 32
0.0
 13
89.85662503295505
 23
-4.424000000000003
 33
0.0
  0
MTEXT
  5
12F
330
1F
100
AcDbEntity
  8
참조1
100
AcDbMText
 10
92.89097516558105
 20
11.01029177718833
 30
0.0
 40
3.5
 41
0.0
 71
     1
 72
     1
  1
A
  7
SLDTEXTSTYLE0
 73
     1
 44
1.0
  0
MTEXT
  5
130
330
1F
100
AcDbEntity
  8
참조1
100
AcDbMText
 10
92.89097516558105
 20
0.1302917771883252
 30
0.0
 40
3.5
 41
0.0
 71
     1
 72
     1
  1
A
  7
SLDTEXTSTYLE0
 73
     1
 44
1.0
  0
INSERT
  5
137
330
1F
100
AcDbEntity
  8
해칭선
100
AcDbBlockReference
  2
SW_DOWELSYMBOL_0
 10
-0.0000000000000018
 20
0.0
 30
0.0
  0
LINE
  5
1DF
330
1F
100
AcDbEntity
  8
외형선
  6
Continuous
370
    15
100
AcDbLine
 10
-3.568700000000064
 20
3.492500000000014
 30
0.0
 11
3.568700000000064
 21
3.492500000000014
 31
0.0
1001
PE_URL
1000

  0
LINE
  5
1E0
330
1F
100
AcDbEntity
  8
외형선
  6
Continuous
370
    15
100
AcDbLine
 10
-3.568700000000064
 20
3.492500000000014
 30
0.0
 11
-4.838700000000046
 21
4.762499999999996
 31
0.0
1001
PE_URL
1000

  0
LINE
  5
1E1
330
1F
100
AcDbEntity
  8
외형선
  6
Continuous
370
    15
100
AcDbLine
 10
3.568700000000064
 20
3.492500000000014
 30
0.0
 11
4.838700000000159
 21
4.762499999999996
 31
0.0
1001
PE_URL
1000

  0
LINE
  5
21B
330
1F
100
AcDbEntity
  8
외형선
  6
Continuous
370
    15
100
AcDbLine
 10
-21.43768467149222
 20
4.762499999999989
 30
0.0
 11
-23.87999110115104
 21
4.108085964503568
 31
0.0
  0
LINE
  5
21C
330
1F
100
AcDbEntity
  8
외형선
  6
Continuous
370
    15
100
AcDbLine
 10
-23.87999110115103
 20
-4.108085964503591
 30
0.0
 11
-21.43768467149221
 21
-4.76250000000001
 31
0.0
  0
LINE
  5
21D
330
1F
100
AcDbEntity
  8
외형선
  6
Continuous
370
    15
100
AcDbLine
 10
-25.4
 20
-3.105431209760997
 30
0.0
 11
-24.87848976721383
 21
-3.119001649029727
 31
0.0
  0
SPLINE
  5
21E
330
1F
100
AcDbEntity
  8
외형선
  6
Continuous
370
    15
100
AcDbSpline
210
0.0
220
0.0
230
1.0
 70
     8
 71
     3
 72
     9
 73
     5
 74
     0
 42
0.000000001
 43
0.00000001
 40
0.0
 40
0.0
 40
0.0
 40
0.0
 40
0.4416838558858603
 40
1.0
 40
1.0
 40
1.0
 40
1.0
 10
-23.87998769505034
 20
3.163002313038772
 30
0.0
 10
-24.10140444281655
 20
3.151230574253708
 30
0.0
 10
-24.60270587101146
 20
3.124578618045218
 30
0.0
 10
-25.11434411078712
 20
3.112291375590235
 30
0.0
 10
-25.40000000000001
 20
3.105431209760974
 30
0.0
  0
SPLINE
  5
21F
330
1F
100
AcDbEntity
  8
외형선
  6
Continuous
370
    15
100
AcDbSpline
210
0.0
220
0.0
230
1.0
 70
     8
 71
     3
 72
    12
 73
     8
 74
     0
 42
0.000000001
 43
0.00000001
 40
0.0
 40
0.0
 40
0.0
 40
0.0
 40
0.4395262250408297
 40
0.612596460568167
 40
0.7566906426020275
 40
0.8826288164092628
 40
1.0
 40
1.0
 40
1.0
 40
1.0
 10
-24.00065675298638
 20
-3.474000140503559
 30
0.0
 10
-23.97404320504135
 20
-3.501711637205307
 30
0.0
 10
-23.93695016179286
 20
-3.540334963481136
 30
0.0
 10
-23.90399990643001
 20
-3.579411791798009
 30
0.0
 10
-23.88907501722178
 20
-3.597893736210661
 30
0.0
 10
-23.88118046156163
 20
-3.608764437674782
 30
0.0
 10
-23.88037813794189
 20
-3.610842261540892
 30
0.0
 10
-23.87999110115103
 20
-3.61184459309553
 30
0.0
  0
LINE
  5
220
330
1F
100
AcDbEntity
  8
0
  6
Continuous
 62
     1
370
    15
100
AcDbLine
 10
-27.23623911528626
 20
-1.103421738957746
 30
0.0
 11
-27.16759161447197
 21
-1.141037754031458
 31
0.0
1001
PE_URL
1000

  0
LINE
  5
221
330
1F
100
AcDbEntity
  8
0
  6
Continuous
 62
     1
370
    15
100
AcDbLine
 10
-29.40611087840448
 20
-1.016994091279361
 30
0.0
 11
-28.30350891275746
 21
-1.567809842320862
 31
0.0
1001
PE_URL
1000

  0
SPLINE
  5
222
330
1F
100
AcDbEntity
  8
0
  6
Continuous
 62
     1
370
    15
100
AcDbSpline
210
0.0
220
0.0
230
1.0
 70
     8
 71
     3
 72
     9
 73
     5
 74
     0
 42
0.000000001
 43
0.00000001
 40
0.0
 40
0.0
 40
0.0
 40
0.0
 40
0.4625536222818169
 40
1.0
 40
1.0
 40
1.0
 40
1.0
 10
-28.09329027591721
 20
-3.153722079056564
 30
0.0
 10
-27.68114836023847
 20
-3.134853938162848
 30
0.0
 10
-26.79013400898205
 20
-3.094062687192562
 30
0.0
 10
-25.88595027345221
 20
-3.101457106102515
 30
0.0
 10
-25.4
 20
-3.105431209760997
 30
0.0
1001
PE_URL
1000

  0
SPLINE
  5
223
330
1F
100
AcDbEntity
  8
0
  6
Continuous
 62
     1
370
    15
100
AcDbSpline
210
0.0
220
0.0
230
1.0
 70
     8
 71
     3
 72
    23
 73
    19
 74
     0
 42
0.000000001
 43
0.00000001
 40
0.0
 40
0.0
 40
0.0
 40
0.0
 40
0.096928844640446
 40
0.1718195030897175
 40
0.2379411365051612
 40
0.2942059647650157
 40
0.350163256845156
 40
0.4222058930717793
 40
0.4916513086784499
 40
0.5491350090960532
 40
0.6026452825836256
 40
0.6708756996023847
 40
0.7401896378117856
 40
0.7790571822816696
 40
0.8100547638593006
 40
0.846889695974963
 40
0.9103236270863437
 40
1.0
 40
1.0
 40
1.0
 40
1.0
 10
-38.2120548089856
 20
-2.714430133978237
 30
0.0
 10
-37.99508438784319
 20
-2.696877891883208
 30
0.0
 10
-37.61047493454637
 20
-2.665764165870424
 30
0.0
 10
-37.04485473885875
 20
-2.636887807412293
 30
0.0
 10
-36.58673739726753
 20
-2.62070030346592
 30
0.0
 10
-36.17540441896537
 20
-2.612743719197073
 30
0.0
 10
-35.74899180141067
 20
-2.610667065169118
 30
0.0
 10
-35.29254303839739
 20
-2.615942989011188
 30
0.0
 10
-34.83261584026306
 20
-2.629589184761198
 30
0.0
 10
-34.41570953592606
 20
-2.648821806998253
 30
0.0
 10
-34.00124582729133
 20
-2.673607157339074
 30
0.0
 10
-33.55972596458793
 20
-2.706614456708564
 30
0.0
 10
-33.15184428702018
 20
-2.744033252022525
 30
0.0
 10
-32.83025520174121
 20
-2.777829771657984
 30
0.0
 10
-32.58625824741489
 20
-2.805287451286155
 30
0.0
 10
-32.28519459494581
 20
-2.841453938650485
 30
0.0
 10
-31.8444483678645
 20
-2.898855951843014
 30
0.0
 10
-31.48851802359022
 20
-2.953204316990604
 30
0.0
 10
-31.28005039309549
 20
-2.98503603655551
 30
0.0
1001
PE_URL
1000

  0
SPLINE
  5
224
330
1F
100
AcDbEntity
  8
0
  6
Continuous
 62
     1
370
    15
100
AcDbSpline
210
0.0
220
0.0
230
1.0
 70
     8
 71
     3
 72
    14
 73
    10
 74
     0
 42
0.000000001
 43
0.00000001
 40
0.0
 40
0.0
 40
0.0
 40
0.0
 40
0.2122489145580529
 40
0.3642698832181654
 40
0.5043892933961989
 40
0.6388081456662112
 40
0.7477704850288716
 40
0.8672085682395476
 40
0.9999999999999999
 40
0.9999999999999999
 40
0.9999999999999999
 40
0.9999999999999999
 10
-31.2800503930955
 20
2.985036036555478
 30
0.0
 10
-31.48634883006852
 20
2.953410900805221
 30
0.0
 10
-31.84040627107228
 20
2.899134606716785
 30
0.0
 10
-32.34886475158753
 20
2.833192358023622
 30
0.0
 10
-32.77671475788677
 20
2.783095415094104
 30
0.0
 10
-33.15629967676922
 20
2.743649146041465
 30
0.0
 10
-33.51669254615111
 20
2.71095045678109
 30
0.0
 10
-33.87550256739923
 20
2.682350833716617
 30
0.0
 10
-34.12598447342218
 20
2.666826207686842
 30
0.0
 10
-34.25785584039794
 20
2.658652948033721
 30
0.0
1001
PE_URL
1000

  0
SPLINE
  5
225
330
1F
100
AcDbEntity
  8
0
  6
Continuous
 62
     1
370
    15
100
AcDbSpline
210
0.0
220
0.0
230
1.0
 70
     8
 71
     3
 72
     9
 73
     5
 74
     0
 42
0.000000001
 43
0.00000001
 40
0.0
 40
0.0
 40
0.0
 40
0.0
 40
0.4579817771598771
 40
1.0
 40
1.0
 40
1.0
 40
1.0
 10
-25.40000000000001
 20
3.105431209760972
 30
0.0
 10
-25.80991253872631
 20
3.1014227931147
 30
0.0
 10
-26.70495369356948
 20
3.092670443466366
 30
0.0
 10
-27.60529103186025
 20
3.132262475963703
 30
0.0
 10
-28.09329027591722
 20
3.153722079056536
 30
0.0
1001
PE_URL
1000

  0
LINE
  5
226
330
1F
100
AcDbEntity
  8
외형선
  6
Continuous
370
    15
100
AcDbLine
 10
-21.43768467149221
 20
-4.76250000000001
 30
0.0
 11
-21.43768467149222
 21
4.762499999999992
 31
0.0
  0
SPLINE
  5
227
330
1F
100
AcDbEntity
  8
외형선
  6
Continuous
370
    15
100
AcDbSpline
210
0.0
220
0.0
230
1.0
 70
     8
 71
     3
 72
     8
 73
     4
 74
     0
 42
0.000000001
 43
0.00000001
 40
0.0
 40
0.0
 40
0.0
 40
0.0
 40
1.0
 40
1.0
 40
1.0
 40
1.0
 10
-24.40000000000001
 20
-3.283130047972946
 30
0.0
 10
-24.22630469291886
 20
-3.366739210584001
 30
0.0
 10
-24.05296592168611
 20
-3.44943636122122
 30
0.0
 10
-23.87998177048105
 20
-3.531140552349353
 30
0.0
  0
LINE
  5
228
330
1F
100
AcDbEntity
  8
외형선
  6
Continuous
370
    15
100
AcDbLine
 10
-24.40000000000001
 20
-3.283130047972939
 30
0.0
 11
-24.40000000000001
 21
-2.539605546712178
 31
0.0
  0
SPLINE
  5
229
330
1F
100
AcDbEntity
  8
외형선
  6
Continuous
370
    15
100
AcDbSpline
210
0.0
220
0.0
230
1.0
 70
     8
 71
     3
 72
     8
 73
     4
 74
     0
 42
0.000000001
 43
0.00000001
 40
0.0
 40
0.0
 40
0.0
 40
0.0
 40
0.0005964939769275
 40
0.0005964939769275
 40
0.0005964939769275
 40
0.0005964939769275
 10
-23.87999110115103
 20
-2.824173400180751
 30
0.0
 10
-24.05349153786347
 20
-2.730292256283761
 30
0.0
 10
-24.22686121655251
 20
-2.635417856677996
 30
0.0
 10
-24.39999999999928
 20
-2.539605546712114
 30
0.0
  0
LINE
  5
22A
330
1F
100
AcDbEntity
  8
외형선
  6
Continuous
370
    15
100
AcDbLine
 10
-23.87999110115104
 20
4.108085964503568
 30
0.0
 11
-23.87999110115103
 21
-2.824219416959327
 31
0.0
  0
SPLINE
  5
22B
330
1F
100
AcDbEntity
  8
외형선
  6
Continuous
370
    15
100
AcDbSpline
210
0.0
220
0.0
230
1.0
 70
     8
 71
     3
 72
     8
 73
     4
 74
     0
 42
0.000000001
 43
0.00000001
 40
0.0
 40
0.0
 40
0.0
 40
0.0
 40
1.0
 40
1.0
 40
1.0
 40
1.0
 10
-24.40000000000001
 20
3.283130047972925
 30
0.0
 10
-24.22630469291887
 20
3.366739210583978
 30
0.0
 10
-24.05296592168612
 20
3.449436361221199
 30
0.0
 10
-23.87998177048106
 20
3.53114055234933
 30
0.0
  0
LINE
  5
22C
330
1F
100
AcDbEntity
  8
외형선
  6
Continuous
370
    15
100
AcDbLine
 10
-23.87999110115103
 20
-3.531196320488469
 30
0.0
 11
-23.87999110115103
 21
-4.108085964503591
 31
0.0
  0
SPLINE
  5
22D
330
1F
100
AcDbEntity
  8
외형선
  6
Continuous
370
    15
100
AcDbSpline
210
0.0
220
0.0
230
1.0
 70
    24
 71
     3
 72
    10
 73
     6
 74
     0
 42
0.000000001
 43
0.00000001
 40
0.0
 40
0.0
 40
0.0
 40
0.0
 40
0.5
 40
0.5
 40
1.0
 40
1.0
 40
1.0
 40
1.0
 10
-25.4
 20
-2.070098802638441
 30
0.0
 10
-25.4
 20
-2.017928533352499
 30
0.0
 10
-25.4
 20
-1.924530853214183
 30
0.0
 10
-25.40000000000001
 20
-1.673730083750936
 30
0.0
 10
-25.4
 20
-1.517240316597555
 30
0.0
 10
-25.4
 20
-1.350413521105594
 30
0.0
  0
SPLINE
  5
22E
330
1F
100
AcDbEntity
  8
외형선
  6
Continuous
370
    15
100
AcDbSpline
210
0.0
220
0.0
230
1.0
 70
     8
 71
     3
 72
     8
 73
     4
 74
     0
 42
0.000000001
 43
0.00000001
 40
0.0
 40
0.0
 40
0.0
 40
0.0
 40
1.0
 40
1.0
 40
1.0
 40
1.0
 10
-25.4
 20
-1.350413521105594
 30
0.0
 10
-24.89153674774052
 20
-1.52961202758198
 30
0.0
 10
-24.38867159938364
 20
-1.697125416933147
 30
0.0
 10
-23.87998885406696
 20
-1.850115286725551
 30
0.0
  0
SPLINE
  5
22F
330
1F
100
AcDbEntity
  8
외형선
  6
Continuous
370
    15
100
AcDbSpline
210
0.0
220
0.0
230
1.0
 70
     8
 71
     3
 72
     8
 73
     4
 74
     0
 42
0.000000001
 43
0.00000001
 40
0.0
 40
0.0
 40
0.0
 40
0.0
 40
1.0
 40
1.0
 40
1.0
 40
1.0
 10
-25.40000000000001
 20
-2.070098802638437
 30
0.0
 10
-25.0650090081854
 20
-2.234759222702706
 30
0.0
 10
-24.73384757955857
 20
-2.391466850688118
 30
0.0
 10
-24.40000000000001
 20
-2.539605546712178
 30
0.0
  0
SPLINE
  5
230
330
1F
100
AcDbEntity
  8
외형선
  6
Continuous
370
    15
100
AcDbSpline
210
0.0
220
0.0
230
1.0
 70
     8
 71
     3
 72
     8
 73
     4
 74
     0
 42
0.000000001
 43
0.00000001
 40
0.0
 40
0.0
 40
0.0
 40
0.0
 40
1.0
 40
1.0
 40
1.0
 40
1.0
 10
-25.4
 20
-2.924759262669873
 30
0.0
 10
-25.06500900818539
 20
-3.055213458405255
 30
0.0
 10
-24.73384757955856
 20
-3.174821720836849
 30
0.0
 10
-24.40000000000001
 20
-3.283130047972939
 30
0.0
  0
LINE
  5
231
330
1F
100
AcDbEntity
  8
외형선
  6
Continuous
370
    15
100
AcDbLine
 10
-25.4
 20
-2.924759262669873
 30
0.0
 11
-25.4
 21
-2.070098802638441
 31
0.0
  0
SPLINE
  5
232
330
1F
100
AcDbEntity
  8
외형선
  6
Continuous
370
    15
100
AcDbSpline
210
0.0
220
0.0
230
1.0
 70
     8
 71
     3
 72
     8
 73
     4
 74
     0
 42
0.000000001
 43
0.00000001
 40
0.0
 40
0.0
 40
0.0
 40
0.0
 40
1.0
 40
1.0
 40
1.0
 40
1.0
 10
-25.40000000000001
 20
2.774663640614918
 30
0.0
 10
-24.89153636156835
 20
2.660750180415048
 30
0.0
 10
-24.38867082621887
 20
2.524602776008136
 30
0.0
 10
-23.87998769505034
 20
2.368514740418165
 30
0.0
  0
SPLINE
  5
233
330
1F
100
AcDbEntity
  8
외형선
  6
Continuous
370
    15
100
AcDbSpline
210
0.0
220
0.0
230
1.0
 70
    24
 71
     3
 72
    14
 73
    10
 74
     0
 42
0.000000001
 43
0.00000001
 40
0.0
 40
0.0
 40
0.0
 40
0.0
 40
0.2500000000000001
 40
0.2500000000000001
 40
0.5000000000000001
 40
0.5000000000000001
 40
0.75
 40
0.75
 40
1.0
 40
1.0
 40
1.0
 40
1.0
 10
-25.4
 20
-1.350413521105594
 30
0.0
 10
-25.40000000000001
 20
-1.013834083788261
 30
0.0
 10
-25.40000000000001
 20
-0.6539968672316832
 30
0.0
 10
-25.4
 20
0.0828272400568935
 30
0.0
 10
-25.40000000000001
 20
0.4594892805477002
 30
0.0
 10
-25.40000000000001
 20
1.192634422739197
 30
0.0
 10
-25.4
 20
1.548726874056635
 30
0.0
 10
-25.40000000000001
 20
2.207174200427483
 30
0.0
 10
-25.40000000000001
 20
2.509314309657524
 30
0.0
 10
-25.40000000000001
 20
2.774663640614918
 30
0.0
  0
SPLINE
  5
234
330
1F
100
AcDbEntity
  8
외형선
  6
Continuous
370
    15
100
AcDbSpline
210
0.0
220
0.0
230
1.0
 70
    24
 71
     3
 72
    10
 73
     6
 74
     0
 42
0.000000001
 43
0.00000001
 40
0.0
 40
0.0
 40
0.0
 40
0.0
 40
0.007853943621258
 40
0.7546673226188724
 40
1.0
 40
1.0
 40
1.0
 40
1.0
 10
-25.4
 20
-3.104786258177285
 30
0.0
 10
-25.4
 20
-3.104999238469617
 30
0.0
 10
-25.40000000000001
 20
-3.12546402338964
 30
0.0
 10
-25.4
 20
-3.085675477031486
 30
0.0
 10
-25.4
 20
-3.000726389897029
 30
0.0
 10
-25.4
 20
-2.979720624814572
 30
0.0
  0
SPLINE
  5
235
330
1F
100
AcDbEntity
  8
외형선
  6
Continuous
370
    15
100
AcDbSpline
210
0.0
220
0.0
230
1.0
 70
    24
 71
     3
 72
    10
 73
     6
 74
     0
 42
0.000000001
 43
0.00000001
 40
0.0
 40
0.0
 40
0.0
 40
0.0
 40
0.2882553383184785
 40
0.5802831823970389
 40
1.0
 40
1.0
 40
1.0
 40
1.0
 10
-25.40000000000001
 20
2.774663640614918
 30
0.0
 10
-25.40000000000001
 20
2.832297158520468
 30
0.0
 10
-25.40000000000001
 20
2.948318465803318
 30
0.0
 10
-25.40000000000001
 20
3.075103733598562
 30
0.0
 10
-25.40000000000001
 20
3.09386585288377
 30
0.0
 10
-25.40000000000001
 20
3.104929900739458
 30
0.0
  0
SPLINE
  5
236
330
1F
100
AcDbEntity
  8
외형선
  6
Continuous
370
    15
100
AcDbSpline
210
0.0
220
0.0
230
1.0
 70
     8
 71
     3
 72
     9
 73
     5
 74
     0
 42
0.000000001
 43
0.00000001
 40
0.0
 40
0.0
 40
0.0
 40
0.0
 40
0.072701817343324
 40
1.0
 40
1.0
 40
1.0
 40
1.0
 10
-24.87342909470814
 20
3.120886553758881
 30
0.0
 10
-24.86194815127155
 20
3.125176146919564
 30
0.0
 10
-24.70402990581193
 20
3.184178704454355
 30
0.0
 10
-24.54628062313849
 20
3.235520704570893
 30
0.0
 10
-24.40000000000001
 20
3.28313004797292
 30
0.0
  0
SPLINE
  5
237
330
1F
100
AcDbEntity
  8
0
  6
Continuous
 62
     1
370
    15
100
AcDbSpline
210
0.0
220
0.0
230
1.0
 70
     8
 71
     3
 72
    36
 73
    32
 74
     0
 42
0.000000001
 43
0.00000001
 40
0.0
 40
0.0
 40
0.0
 40
0.0
 40
0.0625
 40
0.0625
 40
0.125
 40
0.125
 40
0.1875
 40
0.1875
 40
0.25
 40
0.25
 40
0.3125
 40
0.3125
 40
0.375
 40
0.375
 40
0.4375
 40
0.4375
 40
0.5
 40
0.5
 40
0.5625
 40
0.5625
 40
0.625
 40
0.625
 40
0.6875
 40
0.6875
 40
0.75
 40
0.75
 40
0.875
 40
0.875
 40
0.9375
 40
0.9375
 40
1.0
 40
1.0
 40
1.0
 40
1.0
 10
-39.68750000000001
 20
3.965395672942623
 30
0.0
 10
-39.39202610691318
 20
3.958349093875039
 30
0.0
 10
-39.09305569076749
 20
3.940130252795704
 30
0.0
 10
-38.49562641859346
 20
3.881566276426293
 30
0.0
 10
-38.19872583974244
 20
3.841314565704121
 30
0.0
 10
-37.6059760944796
 20
3.73960334830708
 30
0.0
 10
-37.30662104029194
 20
3.677903325254222
 30
0.0
 10
-36.70948715843416
 20
3.534217266304166
 30
0.0
 10
-36.41398663339609
 20
3.452480081875516
 30
0.0
 10
-35.81972264448223
 20
3.269829751849864
 30
0.0
 10
-35.52013169297556
 20
3.168772127106667
 30
0.0
 10
-34.92358810509908
 20
2.949672851690115
 30
0.0
 10
-34.62881555848611
 20
2.831965781638468
 30
0.0
 10
-34.03332751678836
 20
2.580544300914701
 30
0.0
 10
-33.73364980155495
 20
2.44691848678343
 30
0.0
 10
-33.13799043970527
 20
2.167205206298917
 30
0.0
 10
-32.84327260329076
 20
2.021366816292501
 30
0.0
 10
-32.24685270636087
 20
1.718013452771233
 30
0.0
 10
-31.94723750558765
 20
1.560813945520398
 30
0.0
 10
-31.35275484857782
 20
1.239365810853041
 30
0.0
 10
-31.05741836445778
 20
1.075058842584212
 30
0.0
 10
-30.46036034089568
 20
0.7401455131917487
 30
0.0
 10
-30.16095682858193
 20
0.569960179534597
 30
0.0
 10
-29.56794142538812
 20
0.2284484403515883
 30
0.0
 10
-29.27131394945068
 20
0.0565484066959385
 30
0.0
 10
-28.37521189226486
 20
-0.4593773531410754
 30
0.0
 10
-27.78374556474535
 20
-0.8008711388016145
 30
0.0
 10
-26.88757150222335
 20
-1.295637347279943
 30
0.0
 10
-26.59038013917194
 20
-1.457083697850095
 30
0.0
 10
-25.99790364708116
 20
-1.770581254841726
 30
0.0
 10
-25.69860097756304
 20
-1.923325415895135
 30
0.0
 10
-25.40000000000001
 20
-2.070098802638441
 30
0.0
1001
PE_URL
1000

  0
SPLINE
  5
238
330
1F
100
AcDbEntity
  8
0
  6
Continuous
 62
     1
370
    15
100
AcDbSpline
210
0.0
220
0.0
230
1.0
 70
     8
 71
     3
 72
    10
 73
     6
 74
     0
 42
0.000000001
 43
0.00000001
 40
0.0
 40
0.0
 40
0.0
 40
0.0
 40
0.2918976540037628
 40
0.6459555370597464
 40
1.0
 40
1.0
 40
1.0
 40
1.0
 10
-29.83815449370423
 20
0.3814616808300784
 30
0.0
 10
-29.40632287134748
 20
0.2078458803751246
 30
0.0
 10
-28.45070016005552
 20
-0.1763575761675291
 30
0.0
 10
-26.97131644700633
 20
-0.7752174528361415
 30
0.0
 10
-25.92376553119486
 20
-1.158683920863503
 30
0.0
 10
-25.4
 20
-1.350413521105594
 30
0.0
1001
PE_URL
1000

  0
SPLINE
  5
239
330
1F
100
AcDbEntity
  8
외형선
  6
Continuous
370
    15
100
AcDbSpline
210
0.0
220
0.0
230
1.0
 70
    24
 71
     3
 72
    10
 73
     6
 74
     0
 42
0.000000001
 43
0.00000001
 40
0.0
 40
0.0
 40
0.0
 40
0.0
 40
0.5
 40
0.5
 40
1.0
 40
1.0
 40
1.0
 40
1.0
 10
-25.4
 20
-2.070098802638441
 30
0.0
 10
-25.4
 20
-2.017928533352499
 30
0.0
 10
-25.4
 20
-1.924530853214186
 30
0.0
 10
-25.40000000000001
 20
-1.673730083750936
 30
0.0
 10
-25.4
 20
-1.517240316597555
 30
0.0
 10
-25.4
 20
-1.350413521105594
 30
0.0
  0
SPLINE
  5
23A
330
1F
100
AcDbEntity
  8
0
  6
Continuous
 62
     1
370
    15
100
AcDbSpline
210
0.0
220
0.0
230
1.0
 70
     8
 71
     3
 72
    36
 73
    32
 74
     0
 42
0.000000001
 43
0.00000001
 40
0.0
 40
0.0
 40
0.0
 40
0.0
 40
0.0625
 40
0.0625
 40
0.125
 40
0.125
 40
0.1874999999999999
 40
0.1874999999999999
 40
0.2499999999999999
 40
0.2499999999999999
 40
0.3124999999999998
 40
0.3124999999999998
 40
0.3749999999999998
 40
0.3749999999999998
 40
0.4374999999999997
 40
0.4374999999999997
 40
0.4999999999999997
 40
0.4999999999999997
 40
0.5624999999999997
 40
0.5624999999999997
 40
0.6249999999999997
 40
0.6249999999999997
 40
0.6874999999999997
 40
0.6874999999999997
 40
0.7499999999999997
 40
0.7499999999999997
 40
0.8749999999999998
 40
0.8749999999999998
 40
0.9374999999999999
 40
0.9374999999999999
 40
1.0
 40
1.0
 40
1.0
 40
1.0
 10
-39.6875
 20
3.766109074764078
 30
0.0
 10
-39.39202610691312
 20
3.71203173435682
 30
0.0
 10
-39.09305569076739
 20
3.647157233818739
 30
0.0
 10
-38.49562641859325
 20
3.49722335686165
 30
0.0
 10
-38.19872583974217
 20
3.412335031990271
 30
0.0
 10
-37.60597609447922
 20
3.224052283565657
 30
0.0
 10
-37.30662104029151
 20
3.120251852310188
 30
0.0
 10
-36.70948715843362
 20
2.895819227121473
 30
0.0
 10
-36.4139866333955
 20
2.775529108818951
 30
0.0
 10
-35.81972264448153
 20
2.519640186724148
 30
0.0
 10
-35.5201316929748
 20
2.383875609845774
 30
0.0
 10
-34.92358810509822
 20
2.100079263523279
 30
0.0
 10
-34.6288155584852
 20
1.952443883188305
 30
0.0
 10
-34.03332751678734
 20
1.646068533545462
 30
0.0
 10
-33.73364980155386
 20
1.48746874420333
 30
0.0
 10
-33.13799043970409
 20
1.163445266300279
 30
0.0
 10
-32.84327260328951
 20
0.9982807714049926
 30
0.0
 10
-32.24685270635952
 20
0.6619804472495225
 30
0.0
 10
-31.94723750558624
 20
0.4912214090552496
 30
0.0
 10
-31.35275484857631
 20
0.1488049238838656
 30
0.0
 10
-31.05741836445622
 20
-0.0229364744133562
 30
0.0
 10
-30.460360340894
 20
-0.3665521854533509
 30
0.0
 10
-30.1609568285802
 20
-0.5379735823702809
 30
0.0
 10
-29.56794142538631
 20
-0.8757380805243002
 30
0.0
 10
-29.27131394944878
 20
-1.042661740462719
 30
0.0
 10
-28.3752118922628
 20
-1.534375045090496
 30
0.0
 10
-27.78374556474317
 20
-1.847463657693215
 30
0.0
 10
-26.88757150222102
 20
-2.282372302990417
 30
0.0
 10
-26.59038013916959
 20
-2.421059975718705
 30
0.0
 10
-25.99790364707867
 20
-2.683827024712734
 30
0.0
 10
-25.69860097756049
 20
-2.808476283947293
 30
0.0
 10
-25.39999999999741
 20
-2.924759262670886
 30
0.0
1001
PE_URL
1000

  0
SPLINE
  5
23B
330
1F
100
AcDbEntity
  8
0
  6
Continuous
 62
     1
370
    15
100
AcDbSpline
210
0.0
220
0.0
230
1.0
 70
     8
 71
     3
 72
    15
 73
    11
 74
     0
 42
0.000000001
 43
0.00000001
 40
0.0
 40
0.0
 40
0.0
 40
0.0
 40
0.127686388451153
 40
0.255218540715814
 40
0.3827052808526137
 40
0.5102559731541779
 40
0.6379716925580493
 40
0.765624305023861
 40
0.8931410537902582
 40
1.0
 40
1.0
 40
1.0
 40
1.0
 10
-39.6875
 20
3.131233674211334
 30
0.0
 10
-39.2479963335516
 20
3.039954223321848
 30
0.0
 10
-38.36951989020602
 20
2.857505580706608
 30
0.0
 10
-37.05257366368357
 20
2.448270640792877
 30
0.0
 10
-35.73612556306447
 20
1.957687351212543
 30
0.0
 10
-34.41899329046988
 20
1.393115247289488
 30
0.0
 10
-33.10087901304491
 20
0.7783687466790816
 30
0.0
 10
-31.78306194774789
 20
0.135696777738179
 30
0.0
 10
-30.53728422827656
 20
-0.48068793267716
 30
0.0
 10
-29.73076943791777
 20
-0.8612339591620461
 30
0.0
 10
-29.36305502704813
 20
-1.03473636681835
 30
0.0
1001
PE_URL
1000

  0
LINE
  5
23C
330
1F
100
AcDbEntity
  8
0
  6
Continuous
 62
     1
370
    15
100
AcDbLine
 10
-39.68749999999993
 20
3.76610907476408
 30
0.0
 11
-39.6875
 21
3.131233674211334
 31
0.0
1001
PE_URL
1000

  0
LINE
  5
23D
330
1F
100
AcDbEntity
  8
0
  6
Continuous
 62
     1
370
    15
100
AcDbLine
 10
-39.68750000000001
 20
3.965395672942623
 30
0.0
 11
-39.68750000000006
 21
3.766109074764074
 31
0.0
1001
PE_URL
1000

  0
SPLINE
  5
23E
330
1F
100
AcDbEntity
  8
0
  6
Continuous
 62
     1
370
    15
100
AcDbSpline
210
0.0
220
0.0
230
1.0
 70
     8
 71
     3
 72
     8
 73
     4
 74
     0
 42
0.000000001
 43
0.00000001
 40
0.0
 40
0.0
 40
0.0
 40
0.0
 40
1.0
 40
1.0
 40
1.0
 40
1.0
 10
-37.23155668758467
 20
-1.11041021678254
 30
0.0
 10
-37.09053207403763
 20
-1.277501323937823
 30
0.0
 10
-36.96477381134767
 20
-1.438197945001921
 30
0.0
 10
-36.85782467218493
 20
-1.591016149022675
 30
0.0
1001
PE_URL
1000

  0
LINE
  5
23F
330
1F
100
AcDbEntity
  8
0
  6
Continuous
 62
     1
370
    15
100
AcDbLine
 10
-36.90797195234583
 20
-1.633094713309148
 30
0.0
 11
-39.6875
 21
-0.0000000000000249
 31
0.0
1001
PE_URL
1000

  0
LINE
  5
240
330
1F
100
AcDbEntity
  8
0
  6
Continuous
 62
     1
370
    15
100
AcDbLine
 10
-39.6875
 20
-0.0000000000000249
 30
0.0
 11
-39.6875
 21
1.060620442055125
 31
0.0
1001
PE_URL
1000

  0
SPLINE
  5
241
330
1F
100
AcDbEntity
  8
0
  6
Continuous
 62
     1
370
    15
100
AcDbSpline
210
0.0
220
0.0
230
1.0
 70
     8
 71
     3
 72
    10
 73
     6
 74
     0
 42
0.000000001
 43
0.00000001
 40
0.0
 40
0.0
 40
0.0
 40
0.0
 40
0.5
 40
0.5
 40
1.0
 40
1.0
 40
1.0
 40
1.0
 10
-39.68750000000001
 20
1.060620442055129
 30
0.0
 10
-39.26236456289079
 20
0.726391462588591
 30
0.0
 10
-38.8443322380989
 20
0.3784565810895657
 30
0.0
 10
-38.02283386371222
 20
-0.3455197261824061
 30
0.0
 10
-37.6155344003584
 20
-0.7253597255858821
 30
0.0
 10
-37.23155668758467
 20
-1.110410216782544
 30
0.0
1001
PE_URL
1000

  0
SPLINE
  5
242
330
1F
100
AcDbEntity
  8
0
  6
Continuous
 62
     1
370
    15
100
AcDbSpline
210
0.0
220
0.0
230
1.0
 70
     8
 71
     3
 72
    13
 73
     9
 74
     0
 42
0.000000001
 43
0.00000001
 40
0.0
 40
0.0
 40
0.0
 40
0.0
 40
0.1811909765649923
 40
0.3623819561100248
 40
0.5435729389931555
 40
0.724763925572434
 40
0.9146030502357185
 40
1.0
 40
1.0
 40
1.0
 40
1.0
 10
-37.23155668758467
 20
-1.11041021678254
 30
0.0
 10
-36.67945652292806
 20
-1.343113732301084
 30
0.0
 10
-35.57525618453448
 20
-1.80852076716544
 30
0.0
 10
-33.91895877372654
 20
-2.384244810649019
 30
0.0
 10
-32.26264886473442
 20
-2.829643011468885
 30
0.0
 10
-30.58003484975309
 20
-3.104034213575744
 30
0.0
 10
-29.18915459920844
 20
-3.21110663556901
 30
0.0
 10
-28.35044506067287
 20
-3.148249892461191
 30
0.0
 10
-28.09022031913741
 20
-3.128747455708712
 30
0.0
1001
PE_URL
1000

  0
SPLINE
  5
243
330
1F
100
AcDbEntity
  8
0
  6
Continuous
 62
     1
370
    15
100
AcDbSpline
210
0.0
220
0.0
230
1.0
 70
    24
 71
     3
 72
    10
 73
     6
 74
     0
 42
0.000000001
 43
0.00000001
 40
0.0
 40
0.0
 40
0.0
 40
0.0
 40
0.5
 40
0.5
 40
1.0
 40
1.0
 40
1.0
 40
1.0
 10
-39.6875
 20
3.131233674211332
 30
0.0
 10
-39.6875
 20
2.891200200108827
 30
0.0
 10
-39.68750000000001
 20
2.587908701753774
 30
0.0
 10
-39.68750000000001
 20
1.882785156629236
 30
0.0
 10
-39.6875
 20
1.481563914609861
 30
0.0
 10
-39.6875
 20
1.060620442055257
 30
0.0
1001
PE_URL
1000

  0
SPLINE
  5
244
330
1F
100
AcDbEntity
  8
외형선
  6
Continuous
370
    15
100
AcDbSpline
210
0.0
220
0.0
230
1.0
 70
    24
 71
     3
 72
    10
 73
     6
 74
     0
 42
0.000000001
 43
0.00000001
 40
0.0
 40
0.0
 40
0.0
 40
0.0
 40
0.0098842331475895
 40
0.755169361973011
 40
1.0
 40
1.0
 40
1.0
 40
1.0
 10
-25.4
 20
-3.104620867225979
 30
0.0
 10
-25.4
 20
-3.104890044321724
 30
0.0
 10
-25.4
 20
-3.12545555432299
 30
0.0
 10
-25.4
 20
-3.085686714081156
 30
0.0
 10
-25.4
 20
-3.000728617664997
 30
0.0
 10
-25.4
 20
-2.979720624814572
 30
0.0
  0
SPLINE
  5
245
330
1F
100
AcDbEntity
  8
0
  6
Continuous
 62
     1
370
    15
100
AcDbSpline
210
0.0
220
0.0
230
1.0
 70
    24
 71
     3
 72
     8
 73
     4
 74
     0
 42
0.000000001
 43
0.00000001
 40
0.0
 40
0.0
 40
0.0
 40
0.0
 40
1.0
 40
1.0
 40
1.0
 40
1.0
 10
-37.27191137504134
 20
-1.938476148661948
 30
0.0
 10
-37.1409473251521
 20
-1.828584262702407
 30
0.0
 10
-37.0024770785649
 20
-1.712393929863914
 30
0.0
 10
-36.85782467218549
 20
-1.591016149022039
 30
0.0
1001
PE_URL
1000

  0
LINE
  5
246
330
1F
100
AcDbEntity
  8
0
  6
Continuous
 62
     1
370
    15
100
AcDbLine
 10
-39.6875
 20
-2.778125000000024
 30
0.0
 11
-38.21101261021902
 21
-2.708992689661429
 31
0.0
1001
PE_URL
1000

  0
SPLINE
  5
247
330
1F
100
AcDbEntity
  8
0
  6
Continuous
 62
     1
370
    15
100
AcDbSpline
210
0.0
220
0.0
230
1.0
 70
     8
 71
     3
 72
    10
 73
     6
 74
     0
 42
0.000000001
 43
0.00000001
 40
0.0
 40
0.0
 40
0.0
 40
0.0
 40
0.5
 40
0.5
 40
1.0
 40
1.0
 40
1.0
 40
1.0
 10
-39.6875
 20
-2.778125000000024
 30
0.0
 10
-39.2792754985794
 20
-2.66736467113466
 30
0.0
 10
-38.87353188369546
 20
-2.543114387779099
 30
0.0
 10
-38.06750353443584
 20
-2.264930863570484
 30
0.0
 10
-37.66715765574472
 20
-2.111487272305876
 30
0.0
 10
-37.27191137504001
 20
-1.938476148662687
 30
0.0
1001
PE_URL
1000

  0
SPLINE
  5
248
330
1F
100
AcDbEntity
  8
0
  6
Continuous
 62
     1
370
    15
100
AcDbSpline
210
0.0
220
0.0
230
1.0
 70
     8
 71
     3
 72
    11
 73
     7
 74
     0
 42
0.000000001
 43
0.00000001
 40
0.0
 40
0.0
 40
0.0
 40
0.0
 40
0.1159432217680273
 40
0.4106299526985937
 40
0.7053161918643792
 40
1.0
 40
1.0
 40
1.0
 40
1.0
 10
-31.28912424072796
 20
2.962711764549507
 30
0.0
 10
-31.06153718185169
 20
3.003724391027689
 30
0.0
 10
-30.25550417883448
 20
3.148976632719529
 30
0.0
 10
-28.87088662859777
 20
3.19978733526205
 30
0.0
 10
-27.13544737242656
 20
3.114679797913096
 30
0.0
 10
-25.97848086672594
 20
2.888002048047952
 30
0.0
 10
-25.40000000000001
 20
2.774663640614918
 30
0.0
1001
PE_URL
1000

  0
SPLINE
  5
249
330
1F
100
AcDbEntity
  8
외형선
  6
Continuous
370
    15
100
AcDbSpline
210
0.0
220
0.0
230
1.0
 70
    24
 71
     3
 72
    14
 73
    10
 74
     0
 42
0.000000001
 43
0.00000001
 40
0.0
 40
0.0
 40
0.0
 40
0.0
 40
0.2500000000000001
 40
0.2500000000000001
 40
0.5000000000000001
 40
0.5000000000000001
 40
0.75
 40
0.75
 40
1.0
 40
1.0
 40
1.0
 40
1.0
 10
-25.4
 20
-1.350413521105594
 30
0.0
 10
-25.40000000000001
 20
-1.013834083788261
 30
0.0
 10
-25.40000000000001
 20
-0.6539968672316832
 30
0.0
 10
-25.4
 20
0.0828272400568935
 30
0.0
 10
-25.40000000000001
 20
0.4594892805477002
 30
0.0
 10
-25.40000000000001
 20
1.192634422739197
 30
0.0
 10
-25.4
 20
1.548726874056635
 30
0.0
 10
-25.40000000000001
 20
2.207174200427483
 30
0.0
 10
-25.40000000000001
 20
2.509314309657524
 30
0.0
 10
-25.40000000000001
 20
2.774663640614918
 30
0.0
  0
LINE
  5
24A
330
1F
100
AcDbEntity
  8
0
  6
Continuous
 62
     1
370
    15
100
AcDbLine
 10
-39.6875
 20
-0.0000000000000249
 30
0.0
 11
-39.6875
 21
-2.778125000000024
 31
0.0
1001
PE_URL
1000

  0
SPLINE
  5
24B
330
1F
100
AcDbEntity
  8
외형선
  6
Continuous
370
    15
100
AcDbSpline
210
0.0
220
0.0
230
1.0
 70
    24
 71
     3
 72
    10
 73
     6
 74
     0
 42
0.000000001
 43
0.00000001
 40
0.0
 40
0.0
 40
0.0
 40
0.0
 40
0.2890752833311987
 40
0.5819338033504871
 40
1.0
 40
1.0
 40
1.0
 40
1.0
 10
-25.40000000000001
 20
2.774663640614918
 30
0.0
 10
-25.40000000000001
 20
2.832293008983751
 30
0.0
 10
-25.40000000000001
 20
2.94830596288662
 30
0.0
 10
-25.40000000000001
 20
3.074803947923428
 30
0.0
 10
-25.40000000000001
 20
3.093527214282751
 30
0.0
 10
-25.40000000000001
 20
3.104537613235227
 30
0.0
  0
SPLINE
  5
24C
330
1F
100
AcDbEntity
  8
0
  6
Continuous
 62
     1
370
    15
100
AcDbSpline
210
0.0
220
0.0
230
1.0
 70
     8
 71
     3
 72
    11
 73
     7
 74
     0
 42
0.000000001
 43
0.00000001
 40
0.0
 40
0.0
 40
0.0
 40
0.0
 40
0.1313381080554483
 40
0.4208654532333943
 40
0.7104182690787152
 40
1.0
 40
1.0
 40
1.0
 40
1.0
 10
-34.25871978653653
 20
-2.659024005824165
 30
0.0
 10
-34.49638095575807
 20
-2.764195217729341
 30
0.0
 10
-35.25795257561251
 20
-3.101210349292611
 30
0.0
 10
-36.54350584494084
 20
-3.509023194067968
 30
0.0
 10
-38.11543277728438
 20
-3.869232654849675
 30
0.0
 10
-39.16346015042997
 20
-3.933340266655019
 30
0.0
 10
-39.68750000000001
 20
-3.965395672942673
 30
0.0
1001
PE_URL
1000

  0
SPLINE
  5
24D
330
1F
100
AcDbEntity
  8
0
  6
Continuous
 62
     1
370
    15
100
AcDbSpline
210
0.0
220
0.0
230
1.0
 70
    24
 71
     3
 72
    10
 73
     6
 74
     0
 42
0.000000001
 43
0.00000001
 40
0.0
 40
0.0
 40
0.0
 40
0.0
 40
0.5
 40
0.5
 40
1.0
 40
1.0
 40
1.0
 40
1.0
 10
-39.6875
 20
-2.778125000000024
 30
0.0
 10
-39.68750000000001
 20
-2.946528019204049
 30
0.0
 10
-39.68750000000001
 20
-3.142227923316394
 30
0.0
 10
-39.68750000000001
 20
-3.552805795063417
 30
0.0
 10
-39.6875
 20
-3.766635198337116
 30
0.0
 10
-39.6875
 20
-3.965395672942673
 30
0.0
1001
PE_URL
1000

  0
LINE
  5
256
330
1F
100
AcDbEntity
  8
외형선
  6
Continuous
370
    15
100
AcDbLine
 10
-4.838700000000049
 20
4.762499999999995
 30
0.0
 11
-21.43768467149223
 21
4.762499999999994
 31
0.0
  0
ENDSEC
  0
SECTION
  2
OBJECTS
  0
DICTIONARY
  5
C
330
0
100
AcDbDictionary
281
     1
  3
ACAD_DETAILVIEWSTYLE
350
254
  3
ACAD_GROUP
350
D
  3
ACAD_LAYOUT
350
1A
  3
ACAD_MLINESTYLE
350
17
  3
ACAD_PLOTSETTINGS
350
19
  3
ACAD_PLOTSTYLENAME
350
E
  3
ACAD_SCALELIST
350
47
  3
ACAD_SECTIONVIEWSTYLE
350
255
  3
AcDbVariableDictionary
350
24F
  3
APPDATA
350
159
  3
DWGPROPS
350
257
  0
DICTIONARY
  5
192
330
2
100
AcDbDictionary
280
     1
281
     1
  3
ACAD_LAYERSTATES
360
193
  0
DICTIONARY
  5
254
102
{ACAD_REACTORS
330
C
102
}
330
C
100
AcDbDictionary
281
     1
  0
DICTIONARY
  5
D
102
{ACAD_REACTORS
330
C
102
}
330
C
100
AcDbDictionary
281
     1
  0
DICTIONARY
  5
1A
102
{ACAD_REACTORS
330
C
102
}
330
C
100
AcDbDictionary
281
     1
  3
Layout1
350
1E
  3
Layout2
350
26
  3
Model
350
22
  0
DICTIONARY
  5
17
102
{ACAD_REACTORS
330
C
102
}
330
C
100
AcDbDictionary
281
     1
  3
Standard
350
18
  0
DICTIONARY
  5
19
102
{ACAD_REACTORS
330
C
102
}
330
C
100
AcDbDictionary
281
     1
  0
ACDBDICTIONARYWDFLT
  5
E
102
{ACAD_REACTORS
330
C
102
}
330
C
100
AcDbDictionary
281
     1
  3
Normal
350
F
100
AcDbDictionaryWithDefault
340
F
  0
DICTIONARY
  5
47
102
{ACAD_REACTORS
330
C
102
}
330
C
100
AcDbDictionary
281
     1
  3
A0
350
48
  3
A1
350
49
  3
A2
350
4A
  3
A3
350
4B
  3
A4
350
4C
  3
A5
350
4D
  3
A6
350
4E
  3
A7
350
4F
  3
A8
350
50
  3
A9
350
51
  3
B0
350
52
  3
B1
350
53
  3
B2
350
54
  3
B3
350
55
  3
B4
350
56
  3
B5
350
57
  3
B6
350
58
  3
B7
350
59
  3
B8
350
5A
  3
B9
350
5B
  3
C0
350
5C
  3
C1
350
5D
  3
C2
350
5E
  3
C3
350
5F
  3
C4
350
60
  3
C5
350
61
  3
C6
350
62
  3
C7
350
63
  3
C8
350
64
  3
C9
350
65
  3
D0
350
66
  3
D1
350
67
  3
D2
350
68
  0
DICTIONARY
  5
255
102
{ACAD_REACTORS
330
C
102
}
330
C
100
AcDbDictionary
281
     1
  0
DICTIONARY
  5
24F
102
{ACAD_REACTORS
330
C
102
}
330
C
100
AcDbDictionary
281
     1
  0
DICTIONARY
  5
159
102
{ACAD_REACTORS
330
C
102
}
330
C
100
AcDbDictionary
281
     1
  0
XRECORD
  5
257
102
{ACAD_REACTORS
330
C
102
}
330
C
100
AcDbXrecord
280
     1
  1
DWGPROPS COOKIE
  2

  3

  4

  6

  7

  8
120170442
  9

300
=
301
=
302
=
303
=
304
=
305
=
306
=
307
=
308
=
309
=
 40
0.0
 41
2458313.021311632
 42
2458323.978653368
  1

 90
        0
  0
DICTIONARY
  5
193
102
{ACAD_REACTORS
330
192
102
}
330
192
100
AcDbDictionary
281
     1
  0
LAYOUT
  5
1E
102
{ACAD_REACTORS
330
1A
102
}
330
1A
100
AcDbPlotSettings
  1

  2
none_device
  4

  6

 40
0.0
 41
0.0
 42
0.0
 43
0.0
 44
0.0
 45
0.0
 46
0.0
 47
0.0
 48
0.0
 49
0.0
140
0.0
141
0.0
142
1.0
143
1.0
 70
   688
 72
     1
 73
     0
 74
     5
  7

 75
    16
147
1.0
148
0.0
149
0.0
100
AcDbLayout
  1
Layout1
 70
     1
 71
     1
 10
0.0
 20
0.0
 11
420.0
 21
297.0
 12
0.0
 22
0.0
 32
0.0
 14
1.000000000000000E+20
 24
1.000000000000000E+20
 34
1.000000000000000E+20
 15
-1.000000000000000E+20
 25
-1.000000000000000E+20
 35
-1.000000000000000E+20
146
0.0
 13
0.0
 23
0.0
 33
0.0
 16
1.0
 26
0.0
 36
0.0
 17
0.0
 27
1.0
 37
0.0
 76
     0
330
1B
  0
LAYOUT
  5
26
102
{ACAD_REACTORS
330
1A
102
}
330
1A
100
AcDbPlotSettings
  1

  2
none_device
  4

  6

 40
0.0
 41
0.0
 42
0.0
 43
0.0
 44
0.0
 45
0.0
 46
0.0
 47
0.0
 48
0.0
 49
0.0
140
0.0
141
0.0
142
1.0
143
1.0
 70
   688
 72
     1
 73
     0
 74
     5
  7

 75
    16
147
1.0
148
0.0
149
0.0
100
AcDbLayout
  1
Layout2
 70
     1
 71
     2
 10
0.0
 20
0.0
 11
0.0
 21
0.0
 12
0.0
 22
0.0
 32
0.0
 14
0.0
 24
0.0
 34
0.0
 15
0.0
 25
0.0
 35
0.0
146
0.0
 13
0.0
 23
0.0
 33
0.0
 16
1.0
 26
0.0
 36
0.0
 17
0.0
 27
1.0
 37
0.0
 76
     0
330
23
  0
LAYOUT
  5
22
102
{ACAD_REACTORS
330
1A
102
}
330
1A
100
AcDbPlotSettings
  1

  2
none_device
  4
ANSI_A_(11.00_x_8.50_Inches)
  6

 40
6.35
 41
19.05
 42
6.35000508
 43
19.05000254
 44
279.4
 45
215.9
 46
82.27280351928637
 47
56.84928209740681
 48
0.0
 49
0.0
140
0.0
141
0.0
142
0.0439734263724029
143
1.0
 70
  1696
 72
     0
 73
     0
 74
     0
  7

 75
     0
147
0.0235690232323232
148
0.0
149
0.0
100
AcDbLayout
  1
Model
 70
     1
 71
     0
 10
0.0
 20
0.0
 11
420.0
 21
297.0
 12
0.0
 22
0.0
 32
0.0
 14
-54.06250000000011
 24
-49.97180738881174
 34
0.0
 15
96.20662503295506
 25
41.55399999999989
 35
0.0
146
0.0
 13
0.0
 23
0.0
 33
0.0
 16
1.0
 26
0.0
 36
0.0
 17
0.0
 27
1.0
 37
0.0
 76
     0
330
1F
331
29
  0
MLINESTYLE
  5
18
102
{ACAD_REACTORS
330
17
102
}
330
17
100
AcDbMlineStyle
  2
Standard
 70
     0
  3

 62
   256
 51
90.0
 52
90.0
 71
     2
 49
0.5
 62
   256
  6
BYLAYER
 49
-0.5
 62
   256
  6
BYLAYER
  0
ACDBPLACEHOLDER
  5
F
102
{ACAD_REACTORS
330
E
102
}
330
E
  0
SCALE
  5
48
102
{ACAD_REACTORS
330
47
102
}
330
47
100
AcDbScale
 70
     0
300
1:1
140
1.0
141
1.0
290
     1
  0
SCALE
  5
49
102
{ACAD_REACTORS
330
47
102
}
330
47
100
AcDbScale
 70
     0
300
1:2
140
1.0
141
2.0
290
     0
  0
SCALE
  5
4A
102
{ACAD_REACTORS
330
47
102
}
330
47
100
AcDbScale
 70
     0
300
1:4
140
1.0
141
4.0
290
     0
  0
SCALE
  5
4B
102
{ACAD_REACTORS
330
47
102
}
330
47
100
AcDbScale
 70
     0
300
1:5
140
1.0
141
5.0
290
     0
  0
SCALE
  5
4C
102
{ACAD_REACTORS
330
47
102
}
330
47
100
AcDbScale
 70
     0
300
1:8
140
1.0
141
8.0
290
     0
  0
SCALE
  5
4D
102
{ACAD_REACTORS
330
47
102
}
330
47
100
AcDbScale
 70
     0
300
1:10
140
1.0
141
10.0
290
     0
  0
SCALE
  5
4E
102
{ACAD_REACTORS
330
47
102
}
330
47
100
AcDbScale
 70
     0
300
1:16
140
1.0
141
16.0
290
     0
  0
SCALE
  5
4F
102
{ACAD_REACTORS
330
47
102
}
330
47
100
AcDbScale
 70
     0
300
1:20
140
1.0
141
20.0
290
     0
  0
SCALE
  5
50
102
{ACAD_REACTORS
330
47
102
}
330
47
100
AcDbScale
 70
     0
300
1:30
140
1.0
141
30.0
290
     0
  0
SCALE
  5
51
102
{ACAD_REACTORS
330
47
102
}
330
47
100
AcDbScale
 70
     0
300
1:40
140
1.0
141
40.0
290
     0
  0
SCALE
  5
52
102
{ACAD_REACTORS
330
47
102
}
330
47
100
AcDbScale
 70
     0
300
1:50
140
1.0
141
50.0
290
     0
  0
SCALE
  5
53
102
{ACAD_REACTORS
330
47
102
}
330
47
100
AcDbScale
 70
     0
300
1:100
140
1.0
141
100.0
290
     0
  0
SCALE
  5
54
102
{ACAD_REACTORS
330
47
102
}
330
47
100
AcDbScale
 70
     0
300
2:1
140
2.0
141
1.0
290
     0
  0
SCALE
  5
55
102
{ACAD_REACTORS
330
47
102
}
330
47
100
AcDbScale
 70
     0
300
4:1
140
4.0
141
1.0
290
     0
  0
SCALE
  5
56
102
{ACAD_REACTORS
330
47
102
}
330
47
100
AcDbScale
 70
     0
300
8:1
140
8.0
141
1.0
290
     0
  0
SCALE
  5
57
102
{ACAD_REACTORS
330
47
102
}
330
47
100
AcDbScale
 70
     0
300
10:1
140
10.0
141
1.0
290
     0
  0
SCALE
  5
58
102
{ACAD_REACTORS
330
47
102
}
330
47
100
AcDbScale
 70
     0
300
100:1
140
100.0
141
1.0
290
     0
  0
SCALE
  5
59
102
{ACAD_REACTORS
330
47
102
}
330
47
100
AcDbScale
 70
     0
300
1/128" = 1'-0"
140
0.0078125
141
12.0
290
     0
  0
SCALE
  5
5A
102
{ACAD_REACTORS
330
47
102
}
330
47
100
AcDbScale
 70
     0
300
1/64" = 1'-0"
140
0.015625
141
12.0
290
     0
  0
SCALE
  5
5B
102
{ACAD_REACTORS
330
47
102
}
330
47
100
AcDbScale
 70
     0
300
1/32" = 1'-0"
140
0.03125
141
12.0
290
     0
  0
SCALE
  5
5C
102
{ACAD_REACTORS
330
47
102
}
330
47
100
AcDbScale
 70
     0
300
1/16" = 1'-0"
140
0.0625
141
12.0
290
     0
  0
SCALE
  5
5D
102
{ACAD_REACTORS
330
47
102
}
330
47
100
AcDbScale
 70
     0
300
3/32" = 1'-0"
140
0.09375
141
12.0
290
     0
  0
SCALE
  5
5E
102
{ACAD_REACTORS
330
47
102
}
330
47
100
AcDbScale
 70
     0
300
1/8" = 1'-0"
140
0.125
141
12.0
290
     0
  0
SCALE
  5
5F
102
{ACAD_REACTORS
330
47
102
}
330
47
100
AcDbScale
 70
     0
300
3/16" = 1'-0"
140
0.1875
141
12.0
290
     0
  0
SCALE
  5
60
102
{ACAD_REACTORS
330
47
102
}
330
47
100
AcDbScale
 70
     0
300
1/4" = 1'-0"
140
0.25
141
12.0
290
     0
  0
SCALE
  5
61
102
{ACAD_REACTORS
330
47
102
}
330
47
100
AcDbScale
 70
     0
300
3/8" = 1'-0"
140
0.375
141
12.0
290
     0
  0
SCALE
  5
62
102
{ACAD_REACTORS
330
47
102
}
330
47
100
AcDbScale
 70
     0
300
1/2" = 1'-0"
140
0.5
141
12.0
290
     0
  0
SCALE
  5
63
102
{ACAD_REACTORS
330
47
102
}
330
47
100
AcDbScale
 70
     0
300
3/4" = 1'-0"
140
0.75
141
12.0
290
     0
  0
SCALE
  5
64
102
{ACAD_REACTORS
330
47
102
}
330
47
100
AcDbScale
 70
     0
300
1" = 1'-0"
140
1.0
141
12.0
290
     0
  0
SCALE
  5
65
102
{ACAD_REACTORS
330
47
102
}
330
47
100
AcDbScale
 70
     0
300
1-1/2" = 1'-0"
140
1.5
141
12.0
290
     0
  0
SCALE
  5
66
102
{ACAD_REACTORS
330
47
102
}
330
47
100
AcDbScale
 70
     0
300
3" = 1'-0"
140
3.0
141
12.0
290
     0
  0
SCALE
  5
67
102
{ACAD_REACTORS
330
47
102
}
330
47
100
AcDbScale
 70
     0
300
6" = 1'-0"
140
6.0
141
12.0
290
     0
  0
SCALE
  5
68
102
{ACAD_REACTORS
330
47
102
}
330
47
100
AcDbScale
 70
     0
300
1'-0" = 1'-0"
140
12.0
141
12.0
290
     0
  0
ENDSEC
  0
EOF
