  0
SECTION
  2
HEADER
  9
$ACADVER
  1
AC1015
  9
$ACADMAINTVER
 70
     6
  9
$DWGCODEPAGE
  3
ANSI_949
  9
$INSBASE
 10
0.0
 20
0.0
 30
0.0
  9
$EXTMIN
 10
-54.06250000000009
 20
-49.97180738881175
 30
0.0
  9
$EXTMAX
 10
96.20662503295506
 20
40.99612588929558
 30
0.0
  9
$LIMMIN
 10
0.0
 20
0.0
  9
$LIMMAX
 10
420.0
 20
297.0
  9
$ORTHOMODE
 70
     1
  9
$REGENMODE
 70
     1
  9
$FILLMODE
 70
     1
  9
$QTEXTMODE
 70
     0
  9
$MIRRTEXT
 70
     1
  9
$LTSCALE
 40
1.0
  9
$ATTMODE
 70
     1
  9
$TEXTSIZE
 40
3.5
  9
$TRACEWID
 40
1.0
  9
$TEXTSTYLE
  7
Standard
  9
$CLAYER
  8
0
  9
$CELTYPE
  6
ByLayer
  9
$CECOLOR
 62
   256
  9
$CELTSCALE
 40
1.0
  9
$DISPSILH
 70
     0
  9
$DIMSCALE
 40
1.0
  9
$DIMASZ
 40
3.302
  9
$DIMEXO
 40
1.0
  9
$DIMDLI
 40
3.75
  9
$DIMRND
 40
0.0
  9
$DIMDLE
 40
0.0
  9
$DIMEXE
 40
1.0
  9
$DIMTP
 40
0.0
  9
$DIMTM
 40
0.0
  9
$DIMTXT
 40
3.5
  9
$DIMCEN
 40
2.5
  9
$DIMTSZ
 40
0.0
  9
$DIMTOL
 70
     0
  9
$DIMLIM
 70
     0
  9
$DIMTIH
 70
     1
  9
$DIMTOH
 70
     1
  9
$DIMSE1
 70
     0
  9
$DIMSE2
 70
     0
  9
$DIMTAD
 70
     1
  9
$DIMZIN
 70
     0
  9
$DIMBLK
  1

  9
$DIMASO
 70
     1
  9
$DIMSHO
 70
     1
  9
$DIMPOST
  1

  9
$DIMAPOST
  1

  9
$DIMALT
 70
     0
  9
$DIMALTD
 70
     3
  9
$DIMALTF
 40
0.0393700787401575
  9
$DIMLFAC
 40
1.0
  9
$DIMTOFL
 70
     1
  9
$DIMTVP
 40
0.0
  9
$DIMTIX
 70
     0
  9
$DIMSOXD
 70
     0
  9
$DIMSAH
 70
     0
  9
$DIMBLK1
  1

  9
$DIMBLK2
  1

  9
$DIMSTYLE
  2
ISO-25
  9
$DIMCLRD
 70
     0
  9
$DIMCLRE
 70
     0
  9
$DIMCLRT
 70
     0
  9
$DIMTFAC
 40
1.0
  9
$DIMGAP
 40
1.524
  9
$DIMJUST
 70
     0
  9
$DIMSD1
 70
     0
  9
$DIMSD2
 70
     0
  9
$DIMTOLJ
 70
     0
  9
$DIMTZIN
 70
     0
  9
$DIMALTZ
 70
     0
  9
$DIMALTTZ
 70
     0
  9
$DIMUPT
 70
     0
  9
$DIMDEC
 70
     2
  9
$DIMTDEC
 70
     2
  9
$DIMALTU
 70
     2
  9
$DIMALTTD
 70
     3
  9
$DIMTXSTY
  7
Standard
  9
$DIMAUNIT
 70
     0
  9
$DIMADEC
 70
     2
  9
$DIMALTRND
 40
0.0
  9
$DIMAZIN
 70
     0
  9
$DIMDSEP
 70
    44
  9
$DIMATFIT
 70
     3
  9
$DIMFRAC
 70
     0
  9
$DIMLDRBLK
  1

  9
$DIMLUNIT
 70
     2
  9
$DIMLWD
 70
    -2
  9
$DIMLWE
 70
    -2
  9
$DIMTMOVE
 70
     0
  9
$LUNITS
 70
     2
  9
$LUPREC
 70
     2
  9
$SKETCHINC
 40
1.0
  9
$FILLETRAD
 40
10.0
  9
$AUNITS
 70
     0
  9
$AUPREC
 70
     2
  9
$MENU
  1
.
  9
$ELEVATION
 40
0.0
  9
$PELEVATION
 40
0.0
  9
$THICKNESS
 40
0.0
  9
$LIMCHECK
 70
     0
  9
$CHAMFERA
 40
0.0
  9
$CHAMFERB
 40
0.0
  9
$CHAMFERC
 40
0.0
  9
$CHAMFERD
 40
0.0
  9
$SKPOLY
 70
     0
  9
$TDCREATE
 40
2458313.396100012
  9
$TDUCREATE
 40
2458313.021100012
  9
$TDUPDATE
 40
2458324.381824352
  9
$TDUUPDATE
 40
2458324.006824352
  9
$TDINDWG
 40
0.0009579051
  9
$TDUSRTIMER
 40
0.0240620486
  9
$USRTIMER
 70
     1
  9
$ANGBASE
 50
0.0
  9
$ANGDIR
 70
     0
  9
$PDMODE
 70
     0
  9
$PDSIZE
 40
-1.0
  9
$PLINEWID
 40
0.0
  9
$SPLFRAME
 70
     0
  9
$SPLINETYPE
 70
     6
  9
$SPLINESEGS
 70
     8
  9
$HANDSEED
  5
252
  9
$SURFTAB1
 70
     6
  9
$SURFTAB2
 70
     6
  9
$SURFTYPE
 70
     6
  9
$SURFU
 70
     6
  9
$SURFV
 70
     6
  9
$UCSBASE
  2

  9
$UCSNAME
  2

  9
$UCSORG
 10
0.0
 20
0.0
 30
0.0
  9
$UCSXDIR
 10
1.0
 20
0.0
 30
0.0
  9
$UCSYDIR
 10
0.0
 20
1.0
 30
0.0
  9
$UCSORTHOREF
  2

  9
$UCSORTHOVIEW
 70
     0
  9
$UCSORGTOP
 10
0.0
 20
0.0
 30
0.0
  9
$UCSORGBOTTOM
 10
0.0
 20
0.0
 30
0.0
  9
$UCSORGLEFT
 10
0.0
 20
0.0
 30
0.0
  9
$UCSORGRIGHT
 10
0.0
 20
0.0
 30
0.0
  9
$UCSORGFRONT
 10
0.0
 20
0.0
 30
0.0
  9
$UCSORGBACK
 10
0.0
 20
0.0
 30
0.0
  9
$PUCSBASE
  2

  9
$PUCSNAME
  2

  9
$PUCSORG
 10
0.0
 20
0.0
 30
0.0
  9
$PUCSXDIR
 10
1.0
 20
0.0
 30
0.0
  9
$PUCSYDIR
 10
0.0
 20
1.0
 30
0.0
  9
$PUCSORTHOREF
  2

  9
$PUCSORTHOVIEW
 70
     0
  9
$PUCSORGTOP
 10
0.0
 20
0.0
 30
0.0
  9
$PUCSORGBOTTOM
 10
0.0
 20
0.0
 30
0.0
  9
$PUCSORGLEFT
 10
0.0
 20
0.0
 30
0.0
  9
$PUCSORGRIGHT
 10
0.0
 20
0.0
 30
0.0
  9
$PUCSORGFRONT
 10
0.0
 20
0.0
 30
0.0
  9
$PUCSORGBACK
 10
0.0
 20
0.0
 30
0.0
  9
$USERI1
 70
     0
  9
$USERI2
 70
     0
  9
$USERI3
 70
     0
  9
$USERI4
 70
     0
  9
$USERI5
 70
     0
  9
$USERR1
 40
0.0
  9
$USERR2
 40
0.0
  9
$USERR3
 40
0.0
  9
$USERR4
 40
0.0
  9
$USERR5
 40
0.0
  9
$WORLDVIEW
 70
     1
  9
$SHADEDGE
 70
     3
  9
$SHADEDIF
 70
    70
  9
$TILEMODE
 70
     1
  9
$MAXACTVP
 70
    64
  9
$PINSBASE
 10
0.0
 20
0.0
 30
0.0
  9
$PLIMCHECK
 70
     0
  9
$PEXTMIN
 10
1.000000000000000E+20
 20
1.000000000000000E+20
 30
1.000000000000000E+20
  9
$PEXTMAX
 10
-1.000000000000000E+20
 20
-1.000000000000000E+20
 30
-1.000000000000000E+20
  9
$PLIMMIN
 10
0.0
 20
0.0
  9
$PLIMMAX
 10
0.0
 20
0.0
  9
$UNITMODE
 70
     0
  9
$VISRETAIN
 70
     1
  9
$PLINEGEN
 70
     0
  9
$PSLTSCALE
 70
     1
  9
$TREEDEPTH
 70
  3020
  9
$CMLSTYLE
  2
Standard
  9
$CMLJUST
 70
     0
  9
$CMLSCALE
 40
20.0
  9
$PROXYGRAPHICS
 70
     1
  9
$MEASUREMENT
 70
     1
  9
$CELWEIGHT
370
    -1
  9
$ENDCAPS
280
     0
  9
$JOINSTYLE
280
     0
  9
$LWDISPLAY
290
     1
  9
$INSUNITS
 70
     4
  9
$HYPERLINKBASE
  1

  9
$STYLESHEET
  1

  9
$XEDIT
290
     1
  9
$CEPSNTYPE
380
     0
  9
$PSTYLEMODE
290
     1
  9
$FINGERPRINTGUID
  2
{9F484A65-C914-402E-A442-5181428E7F44}
  9
$VERSIONGUID
  2
{FAEB1C32-E019-11D5-929B-00C0DF256EC4}
  9
$EXTNAMES
290
     1
  9
$PSVPSCALE
 40
0.0
  9
$OLESTARTUP
290
     0
  0
ENDSEC
  0
SECTION
  2
CLASSES
  0
CLASS
  1
ACDBDICTIONARYWDFLT
  2
AcDbDictionaryWithDefault
  3
ObjectDBX Classes
 90
        0
280
     0
281
     0
  0
CLASS
  1
VISUALSTYLE
  2
AcDbVisualStyle
  3
ObjectDBX Classes
 90
     4095
280
     0
281
     0
  0
CLASS
  1
MATERIAL
  2
AcDbMaterial
  3
ObjectDBX Classes
 90
     1153
280
     0
281
     0
  0
CLASS
  1
SCALE
  2
AcDbScale
  3
ObjectDBX Classes
 90
     1153
280
     0
281
     0
  0
CLASS
  1
SUN
  2
AcDbSun
  3
SCENEOE
 90
     1153
280
     0
281
     0
  0
CLASS
  1
ACDBPLACEHOLDER
  2
AcDbPlaceHolder
  3
ObjectDBX Classes
 90
        0
280
     0
281
     0
  0
CLASS
  1
LAYOUT
  2
AcDbLayout
  3
ObjectDBX Classes
 90
        0
280
     0
281
     0
  0
CLASS
  1
TABLESTYLE
  2
AcDbTableStyle
  3
ObjectDBX Classes
 90
     4095
280
     0
281
     0
  0
CLASS
  1
MLEADERSTYLE
  2
AcDbMLeaderStyle
  3
ACDB_MLEADERSTYLE_CLASS
 90
     4095
280
     0
281
     0
  0
CLASS
  1
DICTIONARYVAR
  2
AcDbDictionaryVar
  3
ObjectDBX Classes
 90
        0
280
     0
281
     0
  0
ENDSEC
  0
SECTION
  2
TABLES
  0
TABLE
  2
VPORT
  5
8
330
0
100
AcDbSymbolTable
 70
     1
  0
VPORT
  5
29
330
8
100
AcDbSymbolTableRecord
100
AcDbViewportTableRecord
  2
*Active
 70
     0
 10
0.0
 20
0.0
 11
1.0
 21
1.0
 12
21.07206251647749
 22
-4.487840749758043
 13
0.0
 23
0.0
 14
10.0
 24
10.0
 15
10.0
 25
10.0
 16
0.0
 26
0.0
 36
1.0
 17
0.0
 27
0.0
 37
0.0
 40
92.78729194366957
 41
1.782762691853601
 42
50.0
 43
0.0
 44
0.0
 50
0.0
 51
0.0
 71
    16
 72
  2000
 73
     1
 74
     3
 75
     0
 76
     0
 77
     0
 78
     0
281
     0
 65
     1
110
0.0
120
0.0
130
0.0
111
1.0
121
0.0
131
0.0
112
0.0
122
1.0
132
0.0
 79
     0
146
0.0
  0
ENDTAB
  0
TABLE
  2
LTYPE
  5
5
330
0
100
AcDbSymbolTable
 70
     6
  0
LTYPE
  5
14
330
5
100
AcDbSymbolTableRecord
100
AcDbLinetypeTableRecord
  2
ByBlock
 70
     0
  3

 72
    65
 73
     0
 40
0.0
  0
LTYPE
  5
15
330
5
100
AcDbSymbolTableRecord
100
AcDbLinetypeTableRecord
  2
ByLayer
 70
     0
  3

 72
    65
 73
     0
 40
0.0
  0
LTYPE
  5
16
330
5
100
AcDbSymbolTableRecord
100
AcDbLinetypeTableRecord
  2
Continuous
 70
     0
  3
Solid line
 72
    65
 73
     0
 40
0.0
  0
LTYPE
  5
6A
330
5
100
AcDbSymbolTableRecord
100
AcDbLinetypeTableRecord
  2
HIDDEN
 70
     0
  3
Hidden __ __ __ __ __ __ __ __ __ __ __ __ __ __
 72
    65
 73
     2
 40
1.905
 49
1.27
 74
     0
 49
-0.635
 74
     0
  0
LTYPE
  5
6B
330
5
100
AcDbSymbolTableRecord
100
AcDbLinetypeTableRecord
  2
PHANTOM
 70
     0
  3
Phantom ______  __  __  ______  __  __  ______
 72
    65
 73
     6
 40
12.7
 49
6.35
 74
     0
 49
-1.27
 74
     0
 49
1.27
 74
     0
 49
-1.27
 74
     0
 49
1.27
 74
     0
 49
-1.27
 74
     0
  0
LTYPE
  5
6C
330
5
100
AcDbSymbolTableRecord
100
AcDbLinetypeTableRecord
  2
CENTER
 70
     0
  3
Center ____ _ ____ _ ____ _ ____ _ ____ _ ____
 72
    65
 73
     4
 40
10.16
 49
6.35
 74
     0
 49
-1.27
 74
     0
 49
1.27
 74
     0
 49
-1.27
 74
     0
  0
LTYPE
  5
6D
330
5
100
AcDbSymbolTableRecord
100
AcDbLinetypeTableRecord
  2
CENTERX2
 70
     0
  3
Center (2x) ________  __  ________  __  _____
 72
    65
 73
     4
 40
20.32
 49
12.7
 74
     0
 49
-2.54
 74
     0
 49
2.54
 74
     0
 49
-2.54
 74
     0
  0
LTYPE
  5
6E
330
5
100
AcDbSymbolTableRecord
100
AcDbLinetypeTableRecord
  2
DOT2
 70
     0
  3
Dot (.5x) ........................................
 72
    65
 73
     2
 40
0.635
 49
0.0
 74
     0
 49
-0.635
 74
     0
  0
ENDTAB
  0
TABLE
  2
LAYER
  5
2
102
{ACAD_XDICTIONARY
360
190
102
}
330
0
100
AcDbSymbolTable
 70
    18
  0
LAYER
  5
10
330
2
100
AcDbSymbolTableRecord
100
AcDbLayerTableRecord
  2
0
 70
     0
 62
     7
  6
Continuous
370
    -3
390
F
  0
LAYER
  5
6F
330
2
100
AcDbSymbolTableRecord
100
AcDbLayerTableRecord
  2
FORMAT
 70
     0
 62
     2
  6
Continuous
370
    -3
390
F
  0
LAYER
  5
70
330
2
100
AcDbSymbolTableRecord
100
AcDbLayerTableRecord
  2
외형선
 70
     0
 62
     4
  6
Continuous
370
    30
390
F
  0
LAYER
  5
71
330
2
100
AcDbSymbolTableRecord
100
AcDbLayerTableRecord
  2
숨은선
 70
     0
 62
     2
  6
HIDDEN
370
    15
390
F
  0
LAYER
  5
72
330
2
100
AcDbSymbolTableRecord
100
AcDbLayerTableRecord
  2
중심선
 70
     0
 62
     1
  6
CENTERX2
370
    -3
390
F
  0
LAYER
  5
73
330
2
100
AcDbSymbolTableRecord
100
AcDbLayerTableRecord
  2
파단선
 70
     0
 62
     4
  6
Continuous
370
    -3
390
F
  0
LAYER
  5
74
330
2
100
AcDbSymbolTableRecord
100
AcDbLayerTableRecord
  2
해칭선
 70
     0
 62
   100
  6
Continuous
370
    -3
390
F
  0
LAYER
  5
75
330
2
100
AcDbSymbolTableRecord
100
AcDbLayerTableRecord
  2
가는실선
 70
     0
 62
     4
  6
Continuous
370
    -3
390
F
  0
LAYER
  5
76
330
2
100
AcDbSymbolTableRecord
100
AcDbLayerTableRecord
  2
치수_보조선
 70
     0
 62
     4
  6
Continuous
370
    -3
390
F
  0
LAYER
  5
77
330
2
100
AcDbSymbolTableRecord
100
AcDbLayerTableRecord
  2
치수문자_일반주서
 70
     0
 62
     7
  6
Continuous
370
    15
390
F
  0
LAYER
  5
78
330
2
100
AcDbSymbolTableRecord
100
AcDbLayerTableRecord
  2
개별주서
 70
     0
 62
   100
  6
Continuous
370
    30
390
F
  0
LAYER
  5
79
330
2
100
AcDbSymbolTableRecord
100
AcDbLayerTableRecord
  2
중간선
 70
     0
 62
     2
  6
Continuous
370
    15
390
F
  0
LAYER
  5
7A
330
2
100
AcDbSymbolTableRecord
100
AcDbLayerTableRecord
  2
윤곽선
 70
     0
 62
     3
  6
Continuous
370
    40
390
F
  0
LAYER
  5
7B
330
2
100
AcDbSymbolTableRecord
100
AcDbLayerTableRecord
  2
중심마크
 70
     0
 62
   100
  6
Continuous
370
    30
390
F
  0
LAYER
  5
7C
330
2
100
AcDbSymbolTableRecord
100
AcDbLayerTableRecord
  2
가상선
 70
     0
 62
     4
  6
PHANTOM
370
    -3
390
F
  0
LAYER
  5
7D
330
2
100
AcDbSymbolTableRecord
100
AcDbLayerTableRecord
  2
특수지정선
 70
     0
 62
     5
  6
CENTERX2
370
    60
390
F
  0
LAYER
  5
7E
330
2
100
AcDbSymbolTableRecord
100
AcDbLayerTableRecord
  2
참조1
 70
     0
 62
    -4
  6
Continuous
370
    -3
390
F
  0
LAYER
  5
159
330
2
100
AcDbSymbolTableRecord
100
AcDbLayerTableRecord
  2
Defpoints
 70
     0
 62
     7
  6
Continuous
290
     0
370
    -3
390
F
  0
ENDTAB
  0
TABLE
  2
STYLE
  5
3
330
0
100
AcDbSymbolTable
 70
     2
  0
STYLE
  5
11
330
3
100
AcDbSymbolTableRecord
100
AcDbTextStyleTableRecord
  2
Standard
 70
     0
 40
0.0
 41
1.0
 50
0.0
 71
     0
 42
3.5
  3
txt
  4

  0
STYLE
  5
94
330
3
100
AcDbSymbolTableRecord
100
AcDbTextStyleTableRecord
  2
SLDTEXTSTYLE0
 70
     0
 40
0.0
 41
0.75
 50
0.0
 71
     0
 42
3.5
  3
TXT
  4

  0
ENDTAB
  0
TABLE
  2
VIEW
  5
6
330
0
100
AcDbSymbolTable
 70
     0
  0
ENDTAB
  0
TABLE
  2
UCS
  5
7
330
0
100
AcDbSymbolTable
 70
     0
  0
ENDTAB
  0
TABLE
  2
APPID
  5
9
330
0
100
AcDbSymbolTable
 70
     2
  0
APPID
  5
12
330
9
100
AcDbSymbolTableRecord
100
AcDbRegAppTableRecord
  2
ACAD
 70
     0
  0
APPID
  5
160
330
9
100
AcDbSymbolTableRecord
100
AcDbRegAppTableRecord
  2
PE_URL
 70
     0
  0
ENDTAB
  0
TABLE
  2
DIMSTYLE
  5
A
330
0
100
AcDbSymbolTable
 70
     3
100
AcDbDimStyleTable
  0
DIMSTYLE
105
27
330
A
100
AcDbSymbolTableRecord
100
AcDbDimStyleTableRecord
  2
ISO-25
 70
     0
 41
2.5
 42
0.625
 43
3.75
 44
1.25
 73
     0
 74
     0
 77
     1
 78
     8
140
2.5
141
2.5
143
0.03937007874016
147
0.625
171
     3
172
     1
178
     0
271
     2
272
     2
274
     3
278
    44
283
     0
284
     8
340
11
  0
DIMSTYLE
105
D9
102
{ACAD_REACTORS
330
D8
330
17F
330
ED
330
101
330
115
102
}
330
A
100
AcDbSymbolTableRecord
100
AcDbDimStyleTableRecord
  2
SLDDIMSTYLE0
 70
     0
 41
3.302
 44
0.0
 45
0.000000001
 73
     0
 74
     0
 77
     1
 78
    12
 79
     3
140
3.5
143
0.0393700787401575
147
0.875
148
0.000000001
170
     1
172
     1
173
     1
178
     0
271
     2
272
     2
276
     2
284
    12
289
     0
340
94
  0
DIMSTYLE
105
EE
330
A
100
AcDbSymbolTableRecord
100
AcDbDimStyleTableRecord
  2
SLDDIMSTYLE1
 70
     0
 41
3.302
 44
0.0
 45
0.000000001
 73
     0
 74
     0
 77
     1
 78
    12
 79
     3
140
3.5
143
0.0393700787401575
147
0.875
148
0.000000001
170
     1
173
     1
178
     0
271
     2
272
     2
276
     2
284
    12
340
94
  0
ENDTAB
  0
TABLE
  2
BLOCK_RECORD
  5
1
330
0
100
AcDbSymbolTable
 70
    11
  0
BLOCK_RECORD
  5
1F
330
1
100
AcDbSymbolTableRecord
100
AcDbBlockTableRecord
  2
*Model_Space
340
22
  0
BLOCK_RECORD
  5
1B
330
1
100
AcDbSymbolTableRecord
100
AcDbBlockTableRecord
  2
*Paper_Space
340
1E
  0
BLOCK_RECORD
  5
23
330
1
100
AcDbSymbolTableRecord
100
AcDbBlockTableRecord
  2
*Paper_Space0
340
26
  0
BLOCK_RECORD
  5
7F
330
1
100
AcDbSymbolTableRecord
100
AcDbBlockTableRecord
  2
블럭10
340
0
102
{BLKREFS
331
D1
102
}
  0
BLOCK_RECORD
  5
DA
330
1
100
AcDbSymbolTableRecord
100
AcDbBlockTableRecord
  2
_D
340
0
  0
BLOCK_RECORD
  5
EF
330
1
100
AcDbSymbolTableRecord
100
AcDbBlockTableRecord
  2
_D_1
340
0
  0
BLOCK_RECORD
  5
102
330
1
100
AcDbSymbolTableRecord
100
AcDbBlockTableRecord
  2
_D_2
340
0
  0
BLOCK_RECORD
  5
116
330
1
100
AcDbSymbolTableRecord
100
AcDbBlockTableRecord
  2
_D_3
340
0
  0
BLOCK_RECORD
  5
12F
330
1
100
AcDbSymbolTableRecord
100
AcDbBlockTableRecord
  2
SW_DOWELSYMBOL_0
340
0
102
{BLKREFS
331
135
102
}
  0
BLOCK_RECORD
  5
194
330
1
100
AcDbSymbolTableRecord
100
AcDbBlockTableRecord
  2
*D8
340
0
  0
BLOCK_RECORD
  5
1A6
330
1
100
AcDbSymbolTableRecord
100
AcDbBlockTableRecord
  2
*D9
340
0
  0
ENDTAB
  0
ENDSEC
  0
SECTION
  2
BLOCKS
  0
BLOCK
  5
20
330
1F
100
AcDbEntity
  8
0
100
AcDbBlockBegin
  2
*Model_Space
 70
     0
 10
0.0
 20
0.0
 30
0.0
  3
*Model_Space
  1

  0
ENDBLK
  5
21
330
1F
100
AcDbEntity
  8
0
100
AcDbBlockEnd
  0
BLOCK
  5
1C
330
1B
100
AcDbEntity
 67
     1
  8
0
100
AcDbBlockBegin
  2
*Paper_Space
 70
     0
 10
0.0
 20
0.0
 30
0.0
  3
*Paper_Space
  1

  0
ENDBLK
  5
1D
330
1B
100
AcDbEntity
 67
     1
  8
0
100
AcDbBlockEnd
  0
BLOCK
  5
24
330
23
100
AcDbEntity
  8
0
100
AcDbBlockBegin
  2
*Paper_Space0
 70
     0
 10
0.0
 20
0.0
 30
0.0
  3
*Paper_Space0
  1

  0
ENDBLK
  5
25
330
23
100
AcDbEntity
  8
0
100
AcDbBlockEnd
  0
BLOCK
  5
80
330
7F
100
AcDbEntity
  8
0
100
AcDbBlockBegin
  2
블럭10
 70
     2
 10
0.0
 20
0.0
 30
0.0
  3
블럭10
  1

  0
ELLIPSE
  5
82
330
7F
100
AcDbEntity
  8
중심선
100
AcDbEllipse
 10
20.54032771741204
 20
12.0471743016438
 30
0.0
 11
6.600054785286829
 21
-1.261213355974178E-13
 31
0.0
210
0.0
220
0.0
230
1.0
 40
0.636358354079598
 41
0.9219305317359503
 42
6.513795318482858
  0
ELLIPSE
  5
83
330
7F
100
AcDbEntity
  8
중심선
100
AcDbEllipse
 10
20.54032771746488
 20
12.04717430159265
 30
0.0
 11
3.960054785062283
 21
1.540847449632565E-10
 31
0.0
210
0.0
220
0.0
230
1.0
 40
0.3939339440162632
 41
1.131841032648279
 42
5.62031148352944
  0
LINE
  5
84
330
7F
100
AcDbEntity
  8
중심선
100
AcDbLine
 10
2.268634060543552
 20
16.24717430164393
 30
0.0
 11
5.714909304380834
 21
16.24717430164393
 31
0.0
  0
LINE
  5
85
330
7F
100
AcDbEntity
  8
중심선
100
AcDbLine
 10
5.245725140726316
 20
7.84717430164391
 30
0.0
 11
8.692000384563599
 21
7.84717430164391
 31
0.0
  0
LINE
  5
86
330
7F
100
AcDbEntity
  8
중심선
100
AcDbLine
 10
15.74043728645272
 20
16.24717430164393
 30
0.0
 11
8.692000384563599
 21
7.84717430164391
 31
0.0
  0
LINE
  5
87
330
7F
100
AcDbEntity
  8
중심선
100
AcDbLine
 10
0.1404042013395286
 20
13.71084872107135
 30
0.0
 11
3.58671253028996
 21
13.71088815037384
 31
0.0
  0
LINE
  5
88
330
7F
100
AcDbEntity
  8
중심선
100
AcDbLine
 10
2.750260043222114
 20
10.84717430164391
 30
0.0
 11
6.196535287059397
 21
10.84717430164391
 31
0.0
  0
LINE
  5
89
330
7F
100
AcDbEntity
  8
중심선
100
AcDbLine
 10
12.29416204261559
 20
16.24717430164393
 30
0.0
 11
5.245725140726316
 21
7.84717430164391
 31
0.0
  0
LINE
  5
8A
330
7F
100
AcDbEntity
  8
중심선
100
AcDbLine
 10
10.72767329541681
 20
16.24717430164393
 30
0.0
 11
6.196535287059397
 21
10.84717430164391
 31
0.0
  0
LINE
  5
8B
330
7F
100
AcDbEntity
  8
중심선
100
AcDbLine
 10
7.28139805157953
 20
16.24717430164393
 30
0.0
 11
2.750260043222114
 21
10.84717430164391
 31
0.0
  0
LINE
  5
8C
330
7F
100
AcDbEntity
  8
중심선
100
AcDbLine
 10
5.714909304380834
 20
16.24717430164393
 30
0.0
 11
3.58671253028996
 21
13.71088815037384
 31
0.0
  0
LINE
  5
8D
330
7F
100
AcDbEntity
  8
중심선
100
AcDbLine
 10
2.268634060543552
 20
16.24717430164393
 30
0.0
 11
0.1404042013395286
 21
13.71084872107135
 31
0.0
  0
LINE
  5
8E
330
7F
100
AcDbEntity
  8
중심선
100
AcDbLine
 10
7.28139805157953
 20
16.24717430164393
 30
0.0
 11
10.72767329541681
 21
16.24717430164393
 31
0.0
  0
LINE
  5
8F
330
7F
100
AcDbEntity
  8
중심선
100
AcDbLine
 10
12.29416204261559
 20
16.24717430164393
 30
0.0
 11
15.74043728645272
 21
16.24717430164393
 31
0.0
  0
LINE
  5
90
330
7F
100
AcDbEntity
  8
중심선
100
AcDbLine
 10
19.22036997980202
 20
11.08717430171403
 30
0.0
 11
23.66174974927406
 21
11.08717430171406
 31
0.0
  0
LINE
  5
91
330
7F
100
AcDbEntity
  8
중심선
100
AcDbLine
 10
19.22039502424796
 20
13.00717430171391
 30
0.0
 11
19.22036997980202
 21
11.08717430171403
 31
0.0
  0
LINE
  5
92
330
7F
100
AcDbEntity
  8
중심선
100
AcDbLine
 10
19.22039502424796
 20
13.00717430171391
 30
0.0
 11
26.96566020931264
 21
13.00717430171391
 31
0.0
  0
LINE
  5
93
330
7F
100
AcDbEntity
  8
중심선
100
AcDbLine
 10
22.22332737316547
 20
13.45928029700563
 30
0.0
 11
24.52862924686651
 21
15.39360700705356
 31
0.0
  0
ATTDEF
  5
95
330
7F
100
AcDbEntity
  8
FORMAT
 62
     2
100
AcDbText
 10
4.408487351596664
 20
2.075366912832191
 30
0.0
 40
4.233333333333333
  1
E1050019
 41
0.75
  7
SLDTEXTSTYLE0
 11
4.408487351596664
 21
-0.0412997538344756
 31
0.0
100
AcDbAttributeDefinition
  3

  2
AUTOATTR0
 70
     0
 74
     1
  0
ENDBLK
  5
81
330
7F
100
AcDbEntity
  8
0
100
AcDbBlockEnd
  0
BLOCK
  5
DB
330
DA
100
AcDbEntity
  8
0
100
AcDbBlockBegin
  2
_D
 70
     0
 10
0.0
 20
0.0
 30
0.0
  3
_D
  1

  0
LINE
  5
DD
330
DA
100
AcDbEntity
  8
치수문자_일반주서
 62
     0
370
    -2
100
AcDbLine
 10
-20.7596058393653
 20
4.762499999999994
 30
0.0
 11
-49.68749999999997
 21
4.762499999999882
 31
0.0
  0
LINE
  5
DE
330
DA
100
AcDbEntity
  8
치수문자_일반주서
 62
     0
370
    -2
100
AcDbLine
 10
-20.7596058393653
 20
-4.762500000000006
 30
0.0
 11
-49.68749999999994
 21
-4.762500000000117
 31
0.0
  0
LINE
  5
DF
330
DA
100
AcDbEntity
  8
치수문자_일반주서
 62
     0
370
    -2
100
AcDbLine
 10
-49.68749999999997
 20
4.762499999999882
 30
0.0
 11
-49.68750000000009
 21
37.61649999999996
 31
0.0
  0
LINE
  5
E0
330
DA
100
AcDbEntity
  8
치수문자_일반주서
 62
     0
370
    -2
100
AcDbLine
 10
-49.68749999999997
 20
4.762499999999882
 30
0.0
 11
-49.68749999999994
 21
-4.762500000000117
 31
0.0
  0
LINE
  5
E1
330
DA
100
AcDbEntity
  8
치수문자_일반주서
 62
     0
370
    -2
100
AcDbLine
 10
-49.68749999999999
 20
8.064499999999882
 30
0.0
 11
-49.6875
 21
11.36649999999988
 31
0.0
  0
LINE
  5
E2
330
DA
100
AcDbEntity
  8
치수문자_일반주서
 62
     0
370
    -2
100
AcDbLine
 10
-49.68749999999992
 20
-8.064500000000116
 30
0.0
 11
-49.68749999999991
 21
-11.36650000000012
 31
0.0
  0
SOLID
  5
E3
330
DA
100
AcDbEntity
  8
치수문자_일반주서
 62
     0
100
AcDbTrace
 10
-50.23783333333332
 20
8.06449999999988
 30
0.0
 11
-49.13716666666665
 21
8.064499999999883
 31
0.0
 12
-49.68749999999997
 22
4.762499999999882
 32
0.0
 13
-49.68749999999997
 23
4.762499999999882
 33
0.0
  0
SOLID
  5
E4
330
DA
100
AcDbEntity
  8
치수문자_일반주서
 62
     0
100
AcDbTrace
 10
-49.13716666666659
 20
-8.064500000000114
 30
0.0
 11
-50.23783333333326
 21
-8.064500000000118
 31
0.0
 12
-49.68749999999994
 22
-4.762500000000117
 32
0.0
 13
-49.68749999999994
 23
-4.762500000000117
 33
0.0
  0
MTEXT
  5
E5
330
DA
100
AcDbEntity
  8
치수문자_일반주서
 62
     0
100
AcDbMText
 10
-54.06250000000004
 20
24.49149999999995
 30
0.0
 40
3.5
 41
0.0
 71
     2
 72
     1
  1
\A1;%%c9.53 [3/8]
  7
SLDTEXTSTYLE0
 11
-3.729883127349607E-15
 21
1.0
 31
0.0
 73
     1
 44
1.0
  0
POINT
  5
1EA
330
DA
100
AcDbEntity
  8
Defpoints
 62
     0
100
AcDbPoint
 10
-20.6971058393653
 20
4.762499999999994
 30
0.0
  0
POINT
  5
1EB
330
DA
100
AcDbEntity
  8
Defpoints
 62
     0
100
AcDbPoint
 10
-20.6971058393653
 20
-4.762500000000006
 30
0.0
  0
POINT
  5
1EC
330
DA
100
AcDbEntity
  8
Defpoints
 62
     0
100
AcDbPoint
 10
-49.68749999999994
 20
-4.762500000000115
 30
0.0
  0
ENDBLK
  5
DC
330
DA
100
AcDbEntity
  8
0
100
AcDbBlockEnd
  0
BLOCK
  5
F0
330
EF
100
AcDbEntity
  8
0
100
AcDbBlockBegin
  2
_D_1
 70
     0
 10
0.0
 20
0.0
 30
0.0
  3
_D_1
  1

  0
LINE
  5
F2
330
EF
100
AcDbEntity
  8
치수문자_일반주서
 62
     0
370
    -2
100
AcDbLine
 10
39.75000000000001
 20
-3.767125889295518
 30
0.0
 11
80.71320815135005
 21
-3.767125889295365
 31
0.0
  0
LINE
  5
F3
330
EF
100
AcDbEntity
  8
치수문자_일반주서
 62
     0
370
    -2
100
AcDbLine
 10
39.75000000000001
 20
3.767125889295518
 30
0.0
 11
80.71320815135002
 21
3.76712588929567
 31
0.0
  0
LINE
  5
F4
330
EF
100
AcDbEntity
  8
치수문자_일반주서
 62
     0
370
    -2
100
AcDbLine
 10
80.71320815135002
 20
3.76712588929567
 30
0.0
 11
80.71320815134987
 21
40.99612588929567
 31
0.0
  0
LINE
  5
F5
330
EF
100
AcDbEntity
  8
치수문자_일반주서
 62
     0
370
    -2
100
AcDbLine
 10
80.71320815135005
 20
-3.767125889295365
 30
0.0
 11
80.71320815135002
 21
3.76712588929567
 31
0.0
  0
LINE
  5
F6
330
EF
100
AcDbEntity
  8
치수문자_일반주서
 62
     0
370
    -2
100
AcDbLine
 10
80.71320815135006
 20
-7.069125889295364
 30
0.0
 11
80.71320815135007
 21
-10.37112588929536
 31
0.0
  0
LINE
  5
F7
330
EF
100
AcDbEntity
  8
치수문자_일반주서
 62
     0
370
    -2
100
AcDbLine
 10
80.71320815135
 20
7.06912588929567
 30
0.0
 11
80.71320815134999
 21
10.37112588929567
 31
0.0
  0
SOLID
  5
F8
330
EF
100
AcDbEntity
  8
치수문자_일반주서
 62
     0
100
AcDbTrace
 10
81.26354148468339
 20
-7.069125889295362
 30
0.0
 11
80.16287481801673
 21
-7.069125889295366
 31
0.0
 12
80.71320815135005
 22
-3.767125889295365
 32
0.0
 13
80.71320815135005
 23
-3.767125889295365
 33
0.0
  0
SOLID
  5
F9
330
EF
100
AcDbEntity
  8
치수문자_일반주서
 62
     0
100
AcDbTrace
 10
80.16287481801668
 20
7.069125889295668
 30
0.0
 11
81.26354148468333
 21
7.069125889295671
 31
0.0
 12
80.71320815135002
 22
3.76712588929567
 32
0.0
 13
80.71320815135002
 23
3.76712588929567
 33
0.0
  0
MTEXT
  5
FA
330
EF
100
AcDbEntity
  8
치수문자_일반주서
 62
     0
100
AcDbMText
 10
76.33820815134993
 20
25.68362588929565
 30
0.0
 40
3.5
 41
0.0
 71
     2
 72
     1
  1
\A1;%%c7.53 [19/64]
  7
SLDTEXTSTYLE0
 11
-3.772333373722094E-15
 21
1.0
 31
0.0
 73
     1
 44
1.0
  0
POINT
  5
FB
330
EF
100
AcDbEntity
  8
Defpoints
 62
     0
100
AcDbPoint
 10
39.68750000000001
 20
-3.767125889295519
 30
0.0
  0
POINT
  5
FC
330
EF
100
AcDbEntity
  8
Defpoints
 62
     0
100
AcDbPoint
 10
39.68750000000001
 20
3.767125889295517
 30
0.0
  0
POINT
  5
FD
330
EF
100
AcDbEntity
  8
Defpoints
 62
     0
100
AcDbPoint
 10
80.71320815135002
 20
3.76712588929567
 30
0.0
  0
ENDBLK
  5
F1
330
EF
100
AcDbEntity
  8
0
100
AcDbBlockEnd
  0
BLOCK
  5
103
330
102
100
AcDbEntity
  8
0
100
AcDbBlockBegin
  2
_D_2
 70
     0
 10
0.0
 20
0.0
 30
0.0
  3
_D_2
  1

  0
LINE
  5
105
330
102
100
AcDbEntity
  8
치수문자_일반주서
 62
     0
370
    -2
100
AcDbLine
 10
39.68750000000001
 20
3.829625889295517
 30
0.0
 11
39.68750000000001
 21
14.86003317930672
 31
0.0
  0
LINE
  5
106
330
102
100
AcDbEntity
  8
치수문자_일반주서
 62
     0
370
    -2
100
AcDbLine
 10
25.40000000000002
 20
3.102894865973882
 30
0.0
 11
25.40000000000002
 21
14.86003317930672
 31
0.0
  0
LINE
  5
107
330
102
100
AcDbEntity
  8
치수문자_일반주서
 62
     0
370
    -2
100
AcDbLine
 10
39.68750000000001
 20
14.86003317930672
 30
0.0
 11
73.41650000000001
 21
14.86003317930672
 31
0.0
  0
LINE
  5
108
330
102
100
AcDbEntity
  8
치수문자_일반주서
 62
     0
370
    -2
100
AcDbLine
 10
39.68750000000001
 20
14.86003317930672
 30
0.0
 11
25.40000000000002
 21
14.86003317930672
 31
0.0
  0
LINE
  5
109
330
102
100
AcDbEntity
  8
치수문자_일반주서
 62
     0
370
    -2
100
AcDbLine
 10
42.98950000000001
 20
14.86003317930672
 30
0.0
 11
46.29150000000001
 21
14.86003317930672
 31
0.0
  0
LINE
  5
10A
330
102
100
AcDbEntity
  8
치수문자_일반주서
 62
     0
370
    -2
100
AcDbLine
 10
22.09800000000002
 20
14.86003317930672
 30
0.0
 11
18.79600000000002
 21
14.86003317930672
 31
0.0
  0
SOLID
  5
10B
330
102
100
AcDbEntity
  8
치수문자_일반주서
 62
     0
100
AcDbTrace
 10
42.98950000000001
 20
15.41036651264005
 30
0.0
 11
42.98950000000001
 21
14.30969984597339
 31
0.0
 12
39.68750000000001
 22
14.86003317930672
 32
0.0
 13
39.68750000000001
 23
14.86003317930672
 33
0.0
  0
SOLID
  5
10C
330
102
100
AcDbEntity
  8
치수문자_일반주서
 62
     0
100
AcDbTrace
 10
22.09800000000002
 20
14.30969984597339
 30
0.0
 11
22.09800000000002
 21
15.41036651264005
 31
0.0
 12
25.40000000000002
 22
14.86003317930672
 32
0.0
 13
25.40000000000002
 23
14.86003317930672
 33
0.0
  0
MTEXT
  5
10D
330
102
100
AcDbEntity
  8
치수문자_일반주서
 62
     0
100
AcDbMText
 10
59.85400000000001
 20
19.23503317930672
 30
0.0
 40
3.5
 41
0.0
 71
     2
 72
     1
  1
\A1;14.29 [9/16]
  7
SLDTEXTSTYLE0
 73
     1
 44
1.0
  0
POINT
  5
10E
330
102
100
AcDbEntity
  8
Defpoints
 62
     0
100
AcDbPoint
 10
39.68750000000001
 20
3.767125889295517
 30
0.0
  0
POINT
  5
10F
330
102
100
AcDbEntity
  8
Defpoints
 62
     0
100
AcDbPoint
 10
25.40000000000002
 20
3.040394865973882
 30
0.0
  0
POINT
  5
110
330
102
100
AcDbEntity
  8
Defpoints
 62
     0
100
AcDbPoint
 10
25.40000000000002
 20
14.86003317930672
 30
0.0
  0
ENDBLK
  5
104
330
102
100
AcDbEntity
  8
0
100
AcDbBlockEnd
  0
BLOCK
  5
117
330
116
100
AcDbEntity
  8
0
100
AcDbBlockBegin
  2
_D_3
 70
     0
 10
0.0
 20
0.0
 30
0.0
  3
_D_3
  1

  0
LINE
  5
119
330
116
100
AcDbEntity
  8
치수문자_일반주서
 62
     0
370
    -2
100
AcDbLine
 10
-39.68750000000003
 20
3.829625889295526
 30
0.0
 11
-39.68750000000003
 21
24.76249999999999
 31
0.0
  0
LINE
  5
11A
330
116
100
AcDbEntity
  8
치수문자_일반주서
 62
     0
370
    -2
100
AcDbLine
 10
39.68750000000001
 20
3.829625889295517
 30
0.0
 11
39.68750000000001
 21
24.76249999999999
 31
0.0
  0
LINE
  5
11B
330
116
100
AcDbEntity
  8
치수문자_일반주서
 62
     0
370
    -2
100
AcDbLine
 10
-36.38550000000003
 20
24.76249999999999
 30
0.0
 11
36.38550000000001
 21
24.76249999999999
 31
0.0
  0
SOLID
  5
11C
330
116
100
AcDbEntity
  8
치수문자_일반주서
 62
     0
100
AcDbTrace
 10
-36.38550000000003
 20
25.31283333333333
 30
0.0
 11
-36.38550000000003
 21
24.21216666666666
 31
0.0
 12
-39.68750000000003
 22
24.76249999999999
 32
0.0
 13
-39.68750000000003
 23
24.76249999999999
 33
0.0
  0
SOLID
  5
11D
330
116
100
AcDbEntity
  8
치수문자_일반주서
 62
     0
100
AcDbTrace
 10
36.38550000000001
 20
24.21216666666666
 30
0.0
 11
36.38550000000001
 21
25.31283333333333
 31
0.0
 12
39.68750000000001
 22
24.76249999999999
 32
0.0
 13
39.68750000000001
 23
24.76249999999999
 33
0.0
  0
MTEXT
  5
11E
330
116
100
AcDbEntity
  8
치수문자_일반주서
 62
     0
100
AcDbMText
 10
0.0000000000000142
 20
29.13749999999999
 30
0.0
 40
3.5
 41
0.0
 71
     2
 72
     1
  1
\A1;79.38 [3 1/8]
  7
SLDTEXTSTYLE0
 73
     1
 44
1.0
  0
POINT
  5
11F
330
116
100
AcDbEntity
  8
Defpoints
 62
     0
100
AcDbPoint
 10
-39.68750000000003
 20
3.767125889295526
 30
0.0
  0
POINT
  5
120
330
116
100
AcDbEntity
  8
Defpoints
 62
     0
100
AcDbPoint
 10
39.68750000000001
 20
3.767125889295517
 30
0.0
  0
POINT
  5
121
330
116
100
AcDbEntity
  8
Defpoints
 62
     0
100
AcDbPoint
 10
39.68750000000001
 20
24.76249999999999
 30
0.0
  0
ENDBLK
  5
118
330
116
100
AcDbEntity
  8
0
100
AcDbBlockEnd
  0
BLOCK
  5
130
330
12F
100
AcDbEntity
  8
0
100
AcDbBlockBegin
  2
SW_DOWELSYMBOL_0
 70
     0
 10
0.0
 20
0.0
 30
0.0
  3
SW_DOWELSYMBOL_0
  1

  0
CIRCLE
  5
132
330
12F
100
AcDbEntity
  8
해칭선
 62
     0
100
AcDbCircle
 10
0.0
 20
0.0
 30
0.0
 40
3.000000000000001
  0
HATCH
  5
133
330
12F
100
AcDbEntity
  8
0
  6
Continuous
 62
     0
370
     0
100
AcDbHatch
 10
0.0
 20
0.0
 30
0.0
210
0.0
220
0.0
230
1.0
  2
SOLID
 70
     1
 71
     0
 91
        1
 92
        0
 93
        3
 72
     2
 10
0.0
 20
0.0
 40
3.000000000000001
 50
0.0
 51
90.0
 73
     1
 72
     1
 10
0.0
 20
3.000000000000001
 11
0.0
 21
0.0
 72
     1
 10
0.0
 20
0.0
 11
3.000000000000001
 21
0.0
 97
        0
 75
     0
 76
     1
 98
        1
 10
0.0
 20
0.0
  0
HATCH
  5
134
330
12F
100
AcDbEntity
  8
0
  6
Continuous
 62
     0
370
     0
100
AcDbHatch
 10
0.0
 20
0.0
 30
0.0
210
0.0
220
0.0
230
1.0
  2
SOLID
 70
     1
 71
     0
 91
        1
 92
        0
 93
        3
 72
     2
 10
0.0
 20
0.0
 40
3.000000000000001
 50
180.0
 51
270.0000000000008
 73
     1
 72
     1
 10
0.0
 20
-3.000000000000001
 11
0.0
 21
0.0
 72
     1
 10
0.0
 20
0.0
 11
-3.000000000000001
 21
0.0
 97
        0
 75
     0
 76
     1
 98
        1
 10
0.0
 20
0.0
  0
ENDBLK
  5
131
330
12F
100
AcDbEntity
  8
0
100
AcDbBlockEnd
  0
BLOCK
  5
195
330
194
100
AcDbEntity
  8
0
100
AcDbBlockBegin
  2
*D8
 70
     1
 10
0.0
 20
0.0
 30
0.0
  3
*D8
  1

  0
LINE
  5
197
330
194
100
AcDbEntity
  8
치수문자_일반주서
 62
     0
370
    -2
100
AcDbLine
 10
16.129
 20
3.155101899082702
 30
0.0
 11
16.129
 21
16.26894362990562
 31
0.0
  0
LINE
  5
198
330
194
100
AcDbEntity
  8
치수문자_일반주서
 62
     0
370
    -2
100
AcDbLine
 10
6.603999999999999
 20
2.633059590344415
 30
0.0
 11
6.603999999999999
 21
16.26894362990562
 31
0.0
  0
LINE
  5
199
330
194
100
AcDbEntity
  8
치수문자_일반주서
 62
     0
370
    -2
100
AcDbLine
 10
16.129
 20
16.26894362990562
 30
0.0
 11
46.358
 21
16.26894362990562
 31
0.0
  0
LINE
  5
19A
330
194
100
AcDbEntity
  8
치수문자_일반주서
 62
     0
370
    -2
100
AcDbLine
 10
16.129
 20
16.26894362990562
 30
0.0
 11
6.603999999999999
 21
16.26894362990562
 31
0.0
  0
LINE
  5
19B
330
194
100
AcDbEntity
  8
치수문자_일반주서
 62
     0
370
    -2
100
AcDbLine
 10
19.431
 20
16.26894362990562
 30
0.0
 11
22.733
 21
16.26894362990562
 31
0.0
  0
LINE
  5
19C
330
194
100
AcDbEntity
  8
치수문자_일반주서
 62
     0
370
    -2
100
AcDbLine
 10
3.302
 20
16.26894362990562
 30
0.0
 11
0.0
 21
16.26894362990562
 31
0.0
  0
SOLID
  5
19D
330
194
100
AcDbEntity
  8
치수문자_일반주서
 62
     0
100
AcDbTrace
 10
19.431
 20
16.81927696323896
 30
0.0
 11
19.431
 21
15.71861029657229
 31
0.0
 12
16.129
 22
16.26894362990562
 32
0.0
 13
16.129
 23
16.26894362990562
 33
0.0
  0
SOLID
  5
19E
330
194
100
AcDbEntity
  8
치수문자_일반주서
 62
     0
100
AcDbTrace
 10
3.302
 20
15.71861029657229
 30
0.0
 11
3.302
 21
16.81927696323896
 31
0.0
 12
6.603999999999999
 22
16.26894362990562
 32
0.0
 13
6.603999999999999
 23
16.26894362990562
 33
0.0
  0
MTEXT
  5
19F
330
194
100
AcDbEntity
  8
치수문자_일반주서
 62
     0
100
AcDbMText
 10
34.5455
 20
20.64394362990562
 30
0.0
 40
3.5
 41
0.0
 71
     2
 72
     1
  1
\A1;9.53 [3/8]
  7
SLDTEXTSTYLE0
 73
     1
 44
1.0
  0
POINT
  5
1A0
330
194
100
AcDbEntity
  8
Defpoints
 62
     0
100
AcDbPoint
 10
16.129
 20
3.092601899082702
 30
0.0
  0
POINT
  5
1A1
330
194
100
AcDbEntity
  8
Defpoints
 62
     0
100
AcDbPoint
 10
6.603999999999999
 20
2.570559590344415
 30
0.0
  0
POINT
  5
1A2
330
194
100
AcDbEntity
  8
Defpoints
 62
     0
100
AcDbPoint
 10
6.603999999999999
 20
16.26894362990562
 30
0.0
  0
ENDBLK
  5
196
330
194
100
AcDbEntity
  8
0
100
AcDbBlockEnd
  0
BLOCK
  5
1A7
330
1A6
100
AcDbEntity
  8
0
100
AcDbBlockBegin
  2
*D9
 70
     1
 10
0.0
 20
0.0
 30
0.0
  3
*D9
  1

  0
LINE
  5
1A9
330
1A6
100
AcDbEntity
  8
치수문자_일반주서
 62
     0
370
    -2
100
AcDbLine
 10
99.97347697438683
 20
-14.61148825025473
 30
0.0
 11
99.97347697438683
 21
-1.497646519431811
 31
0.0
  0
LINE
  5
1AA
330
1A6
100
AcDbEntity
  8
치수문자_일반주서
 62
     0
370
    -2
100
AcDbLine
 10
90.44847697438682
 20
-15.13353055899302
 30
0.0
 11
90.44847697438682
 21
-1.497646519431811
 31
0.0
  0
LINE
  5
1AB
330
1A6
100
AcDbEntity
  8
치수문자_일반주서
 62
     0
370
    -2
100
AcDbLine
 10
99.97347697438683
 20
-1.497646519431811
 30
0.0
 11
130.2024769743868
 21
-1.497646519431811
 31
0.0
  0
LINE
  5
1AC
330
1A6
100
AcDbEntity
  8
치수문자_일반주서
 62
     0
370
    -2
100
AcDbLine
 10
99.97347697438683
 20
-1.497646519431811
 30
0.0
 11
90.44847697438682
 21
-1.497646519431811
 31
0.0
  0
LINE
  5
1AD
330
1A6
100
AcDbEntity
  8
치수문자_일반주서
 62
     0
370
    -2
100
AcDbLine
 10
103.2754769743868
 20
-1.497646519431811
 30
0.0
 11
106.5774769743868
 21
-1.497646519431811
 31
0.0
  0
LINE
  5
1AE
330
1A6
100
AcDbEntity
  8
치수문자_일반주서
 62
     0
370
    -2
100
AcDbLine
 10
87.14647697438681
 20
-1.497646519431811
 30
0.0
 11
83.84447697438682
 21
-1.497646519431811
 31
0.0
  0
SOLID
  5
1AF
330
1A6
100
AcDbEntity
  8
치수문자_일반주서
 62
     0
100
AcDbTrace
 10
103.2754769743868
 20
-0.9473131860984777
 30
0.0
 11
103.2754769743868
 21
-2.047979852765144
 31
0.0
 12
99.97347697438683
 22
-1.497646519431811
 32
0.0
 13
99.97347697438683
 23
-1.497646519431811
 33
0.0
  0
SOLID
  5
1B0
330
1A6
100
AcDbEntity
  8
치수문자_일반주서
 62
     0
100
AcDbTrace
 10
87.14647697438681
 20
-2.047979852765144
 30
0.0
 11
87.14647697438681
 21
-0.9473131860984777
 31
0.0
 12
90.44847697438682
 22
-1.497646519431811
 32
0.0
 13
90.44847697438682
 23
-1.497646519431811
 33
0.0
  0
MTEXT
  5
1B1
330
1A6
100
AcDbEntity
  8
치수문자_일반주서
 62
     0
100
AcDbMText
 10
118.3899769743868
 20
2.877353480568189
 30
0.0
 40
3.5
 41
0.0
 71
     2
 72
     1
  1
\A1;9.53 [3/8]
  7
SLDTEXTSTYLE0
 73
     1
 44
1.0
  0
POINT
  5
1B2
330
1A6
100
AcDbEntity
  8
Defpoints
 62
     0
100
AcDbPoint
 10
99.97347697438683
 20
-14.67398825025473
 30
0.0
  0
POINT
  5
1B3
330
1A6
100
AcDbEntity
  8
Defpoints
 62
     0
100
AcDbPoint
 10
90.44847697438682
 20
-15.19603055899302
 30
0.0
  0
POINT
  5
1B4
330
1A6
100
AcDbEntity
  8
Defpoints
 62
     0
100
AcDbPoint
 10
90.44847697438682
 20
-1.497646519431811
 30
0.0
  0
ENDBLK
  5
1A8
330
1A6
100
AcDbEntity
  8
0
100
AcDbBlockEnd
  0
ENDSEC
  0
SECTION
  2
ENTITIES
  0
LINE
  5
96
330
1F
100
AcDbEntity
  8
외형선
  6
Continuous
370
    15
100
AcDbLine
 10
20.69710583936528
 20
4.762499999999997
 30
0.0
 11
4.838700000000141
 21
4.762499999999996
 31
0.0
  0
LINE
  5
97
330
1F
100
AcDbEntity
  8
외형선
  6
Continuous
370
    15
100
AcDbLine
 10
-20.6971058393653
 20
-4.762500000000001
 30
0.0
 11
20.69710583936529
 21
-4.762499999999998
 31
0.0
  0
LINE
  5
98
330
1F
100
AcDbEntity
  8
외형선
  6
Continuous
370
    15
100
AcDbLine
 10
20.69710583936529
 20
-4.7625
 30
0.0
 11
23.88001712826287
 21
-3.909641490559984
 31
0.0
  0
LINE
  5
99
330
1F
100
AcDbEntity
  8
외형선
  6
Continuous
370
    15
100
AcDbLine
 10
23.88001712826287
 20
3.909641490559984
 30
0.0
 11
20.69710583936528
 21
4.762499999999998
 31
0.0
  0
SPLINE
  5
9C
330
1F
100
AcDbEntity
  8
외형선
  6
Continuous
370
    15
100
AcDbSpline
210
0.0
220
0.0
230
1.0
 70
     8
 71
     3
 72
     9
 73
     5
 74
     0
 42
0.000000001
 43
0.00000001
 40
0.0
 40
0.0
 40
0.0
 40
0.0
 40
0.4377612306070438
 40
1.0
 40
1.0
 40
1.0
 40
1.0
 10
23.88002366685182
 20
-3.058898978748332
 30
0.0
 10
24.10123625719921
 20
-3.042477558743534
 30
0.0
 10
24.60656330509844
 20
-3.004965282971586
 30
0.0
 10
25.11444770180298
 20
-2.982686781466182
 30
0.0
 10
25.40000000000002
 20
-2.970160944195864
 30
0.0
  0
SPLINE
  5
9D
330
1F
100
AcDbEntity
  8
0
  6
Continuous
 62
     1
370
    15
100
AcDbSpline
210
0.0
220
0.0
230
1.0
 70
     8
 71
     3
 72
     9
 73
     5
 74
     0
 42
0.000000001
 43
0.00000001
 40
0.0
 40
0.0
 40
0.0
 40
0.0
 40
0.4370256636386555
 40
0.9999999999999999
 40
0.9999999999999999
 40
0.9999999999999999
 40
0.9999999999999999
 10
29.92023155401917
 20
0.9661204111081656
 30
0.0
 10
29.7676542529405
 20
1.038594204980529
 30
0.0
 10
29.41852761399595
 20
1.204428387964086
 30
0.0
 10
29.0694314157292
 20
1.386702442508912
 30
0.0
 10
28.8728992151837
 20
1.489318057402177
 30
0.0
1001
PE_URL
1000

  0
SPLINE
  5
9E
330
1F
100
AcDbEntity
  8
0
  6
Continuous
 62
     1
370
    15
100
AcDbSpline
210
0.0
220
0.0
230
1.0
 70
     8
 71
     3
 72
    10
 73
     6
 74
     0
 42
0.000000001
 43
0.00000001
 40
0.0
 40
0.0
 40
0.0
 40
0.0
 40
0.2243280802259885
 40
0.5079690088064158
 40
1.0
 40
1.0
 40
1.0
 40
1.0
 10
28.67290342024093
 20
2.996030755959523
 30
0.0
 10
28.44120312154229
 20
2.985029644458259
 30
0.0
 10
27.91654044466506
 20
2.960118702861307
 30
0.0
 10
26.8947459087123
 20
2.936130011608431
 30
0.0
 10
26.09634679595141
 20
2.955320341927187
 30
0.0
 10
25.5898992930764
 20
2.9674933199703
 30
0.0
1001
PE_URL
1000

  0
SPLINE
  5
9F
330
1F
100
AcDbEntity
  8
0
  6
Continuous
 62
     1
370
    15
100
AcDbSpline
210
0.0
220
0.0
230
1.0
 70
     8
 71
     3
 72
    26
 73
    22
 74
     0
 42
0.000000001
 43
0.00000001
 40
0.0
 40
0.0
 40
0.0
 40
0.0
 40
0.0724111577320918
 40
0.1268349170954084
 40
0.1689270811424127
 40
0.2155293181340259
 40
0.2658563667575825
 40
0.3088067591870469
 40
0.3494140098008747
 40
0.3898874042314624
 40
0.4366217526276654
 40
0.5005482794949838
 40
0.5648131082347055
 40
0.6109870386725788
 40
0.6516361727230489
 40
0.6937057096566143
 40
0.7480332558841718
 40
0.8069012558468718
 40
0.8576224545423365
 40
0.9157390348141832
 40
1.0
 40
1.0
 40
1.0
 40
1.0
 10
38.285887031043
 20
2.578713796775034
 30
0.0
 10
38.12955799434715
 20
2.565947300320095
 30
0.0
 10
37.85573306142336
 20
2.543585587427009
 30
0.0
 10
37.48568446475869
 20
2.521005641877461
 30
0.0
 10
37.16562132703007
 20
2.505255961604935
 30
0.0
 10
36.85842595354786
 20
2.493547981221711
 30
0.0
 10
36.5515457578131
 20
2.485606947142874
 30
0.0
 10
36.25791218725954
 20
2.481542813442803
 30
0.0
 10
35.98556500266685
 20
2.480716984989271
 30
0.0
 10
35.70486226286867
 20
2.482781740012661
 30
0.0
 10
35.37291308293439
 20
2.488923036057512
 30
0.0
 10
34.9889493177792
 20
2.501501426575092
 30
0.0
 10
34.60636547000176
 20
2.520340203951517
 30
0.0
 10
34.27434191865486
 20
2.541181562007763
 30
0.0
 10
33.99172813651859
 20
2.561948328549294
 30
0.0
 10
33.69202912299566
 20
2.586979323081771
 30
0.0
 10
33.35099908941366
 20
2.619597534205714
 30
0.0
 10
32.99030552600274
 20
2.658916272568386
 30
0.0
 10
32.61714707718083
 20
2.704123701202084
 30
0.0
 10
32.19111879408596
 20
2.760533827592835
 30
0.0
 10
31.88286100287271
 20
2.807806514394721
 30
0.0
 10
31.70042985524909
 20
2.835783132505743
 30
0.0
1001
PE_URL
1000

  0
SPLINE
  5
A0
330
1F
100
AcDbEntity
  8
0
  6
Continuous
 62
     1
370
    15
100
AcDbSpline
210
0.0
220
0.0
230
1.0
 70
     8
 71
     3
 72
    16
 73
    12
 74
     0
 42
0.000000001
 43
0.00000001
 40
0.0
 40
0.0
 40
0.0
 40
0.0
 40
0.171661457032142
 40
0.2992987497468557
 40
0.3965820627522927
 40
0.5054845166586608
 40
0.6244990617870316
 40
0.7266730114300384
 40
0.8225543998598354
 40
0.916333566061356
 40
1.0
 40
1.0
 40
1.0
 40
1.0
 10
31.70042985524909
 20
-2.835783132505745
 30
0.0
 10
31.85895696201535
 20
-2.811382350251158
 30
0.0
 10
32.13535543652698
 20
-2.768838591460415
 30
0.0
 10
32.50565200201861
 20
-2.718633032584777
 30
0.0
 10
32.8228397445279
 20
-2.678881825253175
 30
0.0
 10
33.1291344745005
 20
-2.64346303315909
 30
0.0
 10
33.43844162410123
 20
-2.610998703095761
 30
0.0
 10
33.73508810996614
 20
-2.583291891207849
 30
0.0
 10
34.00700816734521
 20
-2.560826388793906
 30
0.0
 10
34.26246606295463
 20
-2.541923574611768
 30
0.0
 10
34.42858582676318
 20
-2.531900436985984
 30
0.0
 10
34.50691207567333
 20
-2.527174480516152
 30
0.0
1001
PE_URL
1000

  0
SPLINE
  5
A1
330
1F
100
AcDbEntity
  8
0
  6
Continuous
 62
     1
370
    15
100
AcDbSpline
210
0.0
220
0.0
230
1.0
 70
     8
 71
     3
 72
    17
 73
    13
 74
     0
 42
0.000000001
 43
0.00000001
 40
0.0
 40
0.0
 40
0.0
 40
0.0
 40
0.1472399711743609
 40
0.2495424539165315
 40
0.3148609234401705
 40
0.378535090502522
 40
0.4444666553439089
 40
0.5114527170514274
 40
0.5821161820155357
 40
0.6813533944793506
 40
0.8210088332470694
 40
1.0
 40
1.0
 40
1.0
 40
1.0
 10
25.39999999999992
 20
-2.970160944195867
 30
0.0
 10
25.56106994708047
 20
-2.964644595473695
 30
0.0
 10
25.83405145832437
 20
-2.95529548201075
 30
0.0
 10
26.17842049403268
 20
-2.948736086394729
 30
0.0
 10
26.43193803936503
 20
-2.945659477535853
 30
0.0
 10
26.63880452202229
 20
-2.944413353144195
 30
0.0
 10
26.8382259168804
 20
-2.943542974999295
 30
0.0
 10
27.06089516765014
 20
-2.94446157973838
 30
0.0
 10
27.32485623001804
 20
-2.948426100708696
 30
0.0
 10
27.66765398469903
 20
-2.955477328726302
 30
0.0
 10
28.12744133458146
 20
-2.969324928127014
 30
0.0
 10
28.47671072633505
 20
-2.9864251601845
 30
0.0
 10
28.67290342024093
 20
-2.996030755959525
 30
0.0
1001
PE_URL
1000

  0
LINE
  5
A2
330
1F
100
AcDbEntity
  8
외형선
  6
Continuous
370
    15
100
AcDbLine
 10
20.69710583936528
 20
4.762499999999998
 30
0.0
 11
20.69710583936529
 21
-4.762500000000004
 31
0.0
  0
SPLINE
  5
A4
330
1F
100
AcDbEntity
  8
외형선
  6
Continuous
370
    15
100
AcDbSpline
210
0.0
220
0.0
230
1.0
 70
     8
 71
     3
 72
     8
 73
     4
 74
     0
 42
0.000000001
 43
0.00000001
 40
0.0
 40
0.0
 40
0.0
 40
0.0
 40
1.0
 40
1.0
 40
1.0
 40
1.0
 10
24.40000000000002
 20
3.344651942907744
 30
0.0
 10
24.22612518460603
 20
3.423005725415291
 30
0.0
 10
24.05283955547362
 20
3.500181288072082
 30
0.0
 10
23.88003501745648
 20
3.575945414696832
 30
0.0
  0
LINE
  5
A5
330
1F
100
AcDbEntity
  8
외형선
  6
Continuous
370
    15
100
AcDbLine
 10
24.40000000000002
 20
3.34465194290771
 30
0.0
 11
24.40000000000002
 21
2.733933360483347
 31
0.0
  0
SPLINE
  5
A6
330
1F
100
AcDbEntity
  8
외형선
  6
Continuous
370
    15
100
AcDbSpline
210
0.0
220
0.0
230
1.0
 70
     8
 71
     3
 72
     8
 73
     4
 74
     0
 42
0.000000001
 43
0.00000001
 40
0.0
 40
0.0
 40
0.0
 40
0.0
 40
0.0005968371017009
 40
0.0005968371017009
 40
0.0005968371017009
 40
0.0005968371017009
 10
23.88001712826287
 20
3.009196019723176
 30
0.0
 10
24.05336752808647
 20
2.91863141666548
 30
0.0
 10
24.22670299162616
 20
2.826807019005828
 30
0.0
 10
24.39999999999971
 20
2.733933360482917
 30
0.0
  0
LINE
  5
A7
330
1F
100
AcDbEntity
  8
외형선
  6
Continuous
370
    15
100
AcDbLine
 10
23.88001712826287
 20
-3.909641490559984
 30
0.0
 11
23.88001712826287
 21
3.009237119060843
 31
0.0
  0
SPLINE
  5
A8
330
1F
100
AcDbEntity
  8
외형선
  6
Continuous
370
    15
100
AcDbSpline
210
0.0
220
0.0
230
1.0
 70
     8
 71
     3
 72
     8
 73
     4
 74
     0
 42
0.000000001
 43
0.00000001
 40
0.0
 40
0.0
 40
0.0
 40
0.0
 40
1.0
 40
1.0
 40
1.0
 40
1.0
 10
24.40000000000002
 20
-3.344651942907745
 30
0.0
 10
24.22612518460603
 20
-3.423005725415293
 30
0.0
 10
24.05283955547362
 20
-3.500181288072084
 30
0.0
 10
23.88003501745648
 20
-3.575945414696834
 30
0.0
  0
LINE
  5
A9
330
1F
100
AcDbEntity
  8
외형선
  6
Continuous
370
    15
100
AcDbLine
 10
23.88001712826287
 20
3.575990453147299
 30
0.0
 11
23.88001712826287
 21
3.909641490559984
 31
0.0
  0
SPLINE
  5
AB
330
1F
100
AcDbEntity
  8
외형선
  6
Continuous
370
    15
100
AcDbSpline
210
0.0
220
0.0
230
1.0
 70
    24
 71
     3
 72
    10
 73
     6
 74
     0
 42
0.000000001
 43
0.00000001
 40
0.0
 40
0.0
 40
0.0
 40
0.0
 40
0.5
 40
0.5
 40
1.0
 40
1.0
 40
1.0
 40
1.0
 10
25.40000000000002
 20
2.306359576090423
 30
0.0
 10
25.40000000000002
 20
2.23649472727085
 30
0.0
 10
25.40000000000002
 20
2.128288999355961
 30
0.0
 10
25.40000000000002
 20
1.857161914882554
 30
0.0
 10
25.40000000000002
 20
1.695174844798947
 30
0.0
 10
25.40000000000002
 20
1.527266199131214
 30
0.0
  0
SPLINE
  5
AC
330
1F
100
AcDbEntity
  8
외형선
  6
Continuous
370
    15
100
AcDbSpline
210
0.0
220
0.0
230
1.0
 70
     8
 71
     3
 72
     8
 73
     4
 74
     0
 42
0.000000001
 43
0.00000001
 40
0.0
 40
0.0
 40
0.0
 40
0.0
 40
1.0
 40
1.0
 40
1.0
 40
1.0
 10
25.40000000000002
 20
1.527266199131214
 30
0.0
 10
24.89602456920045
 20
1.69394250267881
 30
0.0
 10
24.38323575427285
 20
1.84765911859909
 30
0.0
 10
23.88002144302249
 20
1.98249925089029
 30
0.0
  0
SPLINE
  5
AD
330
1F
100
AcDbEntity
  8
외형선
  6
Continuous
370
    15
100
AcDbSpline
210
0.0
220
0.0
230
1.0
 70
     8
 71
     3
 72
     8
 73
     4
 74
     0
 42
0.000000001
 43
0.00000001
 40
0.0
 40
0.0
 40
0.0
 40
0.0
 40
1.0
 40
1.0
 40
1.0
 40
1.0
 10
25.3999999999997
 20
2.306359576090569
 30
0.0
 10
25.06883887041241
 20
2.45812480121663
 30
0.0
 10
24.73355857988994
 20
2.601506317466444
 30
0.0
 10
24.40000000000002
 20
2.733933360483347
 30
0.0
  0
SPLINE
  5
AE
330
1F
100
AcDbEntity
  8
외형선
  6
Continuous
370
    15
100
AcDbSpline
210
0.0
220
0.0
230
1.0
 70
     8
 71
     3
 72
     8
 73
     4
 74
     0
 42
0.000000001
 43
0.00000001
 40
0.0
 40
0.0
 40
0.0
 40
0.0
 40
1.0
 40
1.0
 40
1.0
 40
1.0
 10
25.40000000000002
 20
3.040394865973882
 30
0.0
 10
25.06883887041262
 20
3.153846002957216
 30
0.0
 10
24.73355857989005
 20
3.255887926041121
 30
0.0
 10
24.40000000000002
 20
3.344651942907711
 30
0.0
  0
LINE
  5
AF
330
1F
100
AcDbEntity
  8
외형선
  6
Continuous
370
    15
100
AcDbLine
 10
25.40000000000002
 20
3.04039486597388
 30
0.0
 11
25.40000000000002
 21
2.306359576090423
 31
0.0
  0
SPLINE
  5
B0
330
1F
100
AcDbEntity
  8
외형선
  6
Continuous
370
    15
100
AcDbSpline
210
0.0
220
0.0
230
1.0
 70
     8
 71
     3
 72
     8
 73
     4
 74
     0
 42
0.000000001
 43
0.00000001
 40
0.0
 40
0.0
 40
0.0
 40
0.0
 40
1.0
 40
1.0
 40
1.0
 40
1.0
 10
25.40000000000002
 20
-2.459914335284385
 30
0.0
 10
24.89602531159811
 20
-2.324753187415987
 30
0.0
 10
24.38323720656378
 20
-2.166417925300105
 30
0.0
 10
23.88002366685182
 20
-1.991057458606111
 30
0.0
  0
SPLINE
  5
B1
330
1F
100
AcDbEntity
  8
외형선
  6
Continuous
370
    15
100
AcDbSpline
210
0.0
220
0.0
230
1.0
 70
    24
 71
     3
 72
    14
 73
    10
 74
     0
 42
0.000000001
 43
0.00000001
 40
0.0
 40
0.0
 40
0.0
 40
0.0
 40
0.25
 40
0.25
 40
0.5
 40
0.5
 40
0.75
 40
0.75
 40
1.0
 40
1.0
 40
1.0
 40
1.0
 10
25.40000000000001
 20
1.527266199131218
 30
0.0
 10
25.40000000000001
 20
1.219975457332716
 30
0.0
 10
25.40000000000001
 20
0.8867775265287354
 30
0.0
 10
25.40000000000001
 20
0.1944315529852419
 30
0.0
 10
25.40000000000001
 20
-0.1644303749897366
 30
0.0
 10
25.40000000000001
 20
-0.8730673107963086
 30
0.0
 10
25.40000000000001
 20
-1.222464727241655
 30
0.0
 10
25.40000000000001
 20
-1.878747853812417
 30
0.0
 10
25.40000000000001
 20
-2.185398101387732
 30
0.0
 10
25.40000000000001
 20
-2.459914335284382
 30
0.0
  0
SPLINE
  5
B2
330
1F
100
AcDbEntity
  8
외형선
  6
Continuous
370
    15
100
AcDbSpline
210
0.0
220
0.0
230
1.0
 70
    24
 71
     3
 72
    10
 73
     6
 74
     0
 42
0.000000001
 43
0.00000001
 40
0.0
 40
0.0
 40
0.0
 40
0.0
 40
0.4535879491363562
 40
0.7849722667810168
 40
1.0
 40
1.0
 40
1.0
 40
1.0
 10
25.40000000000002
 20
-2.459914335284385
 30
0.0
 10
25.40000000000002
 20
-2.591990615528748
 30
0.0
 10
25.40000000000002
 20
-2.820559776788047
 30
0.0
 10
25.40000000000002
 20
-2.958776460257082
 30
0.0
 10
25.40000000000002
 20
-2.956804487135034
 30
0.0
 10
25.40000000000002
 20
-2.956028463052598
 30
0.0
  0
SPLINE
  5
B3
330
1F
100
AcDbEntity
  8
외형선
  6
Continuous
370
    15
100
AcDbSpline
210
0.0
220
0.0
230
1.0
 70
     8
 71
     3
 72
     8
 73
     4
 74
     0
 42
0.000000001
 43
0.00000001
 40
0.0
 40
0.0
 40
0.0
 40
0.0
 40
1.0
 40
1.0
 40
1.0
 40
1.0
 10
25.40000000000002
 20
-3.040394865973883
 30
0.0
 10
25.06883887041262
 20
-3.153846002957218
 30
0.0
 10
24.73355857989005
 20
-3.255887926041122
 30
0.0
 10
24.40000000000002
 20
-3.344651942907712
 30
0.0
  0
LINE
  5
B4
330
1F
100
AcDbEntity
  8
외형선
  6
Continuous
370
    15
100
AcDbLine
 10
25.40000000000002
 20
-3.010919352456901
 30
0.0
 11
25.40000000000002
 21
-3.040394865958747
 31
0.0
  0
SPLINE
  5
B5
330
1F
100
AcDbEntity
  8
0
  6
Continuous
 62
     1
370
    15
100
AcDbSpline
210
0.0
220
0.0
230
1.0
 70
     8
 71
     3
 72
    36
 73
    32
 74
     0
 42
0.000000001
 43
0.00000001
 40
0.0
 40
0.0
 40
0.0
 40
0.0
 40
0.0625
 40
0.0625
 40
0.125
 40
0.125
 40
0.1875
 40
0.1875
 40
0.25
 40
0.25
 40
0.3125
 40
0.3125
 40
0.375
 40
0.375
 40
0.4375
 40
0.4375
 40
0.5
 40
0.5
 40
0.5625
 40
0.5625
 40
0.625
 40
0.625
 40
0.6875
 40
0.6875
 40
0.75
 40
0.75
 40
0.8125
 40
0.8125
 40
0.875
 40
0.875
 40
1.0
 40
1.0
 40
1.0
 40
1.0
 10
39.68750000000002
 20
-3.767125889295516
 30
0.0
 10
39.39200319196591
 20
-3.760078763743142
 30
0.0
 10
39.09282431287129
 20
-3.741264178143071
 30
0.0
 10
38.49542554678831
 20
-3.680374935453072
 30
0.0
 10
38.19945107533319
 20
-3.638445851653203
 30
0.0
 10
37.60548510087912
 20
-3.532182292295436
 30
0.0
 10
37.30577831951793
 20
-3.467679736099295
 30
0.0
 10
36.70928890112896
 20
-3.317643695422077
 30
0.0
 10
36.41457687163876
 20
-3.232372149745008
 30
0.0
 10
35.81853053425165
 20
-3.041623985843493
 30
0.0
 10
35.51875561380741
 20
-2.936234537726955
 30
0.0
 10
34.92408028229751
 20
-2.708413304711524
 30
0.0
 10
34.62868235882943
 20
-2.585979689054384
 30
0.0
 10
34.03145815529754
 20
-2.324870866945307
 30
0.0
 10
33.73207520892844
 20
-2.186502870029585
 30
0.0
 10
33.1401095354288
 20
-1.898125717618388
 30
0.0
 10
32.84208084399813
 20
-1.747247851745184
 30
0.0
 10
32.24458723668015
 20
-1.435267501995751
 30
0.0
 10
31.94786596817539
 20
-1.274660687547309
 30
0.0
 10
31.35468755020482
 20
-0.9465913801895695
 30
0.0
 10
31.05508921494764
 20
-0.7785350245304954
 30
0.0
 10
30.45823603267977
 20
-0.4390405811801202
 30
0.0
 10
30.16335319542
 20
-0.2680714146171145
 30
0.0
 10
29.56782905948672
 20
0.0755697349545037
 30
0.0
 10
29.26802633767566
 20
0.2480813969473642
 30
0.0
 10
28.67272016214357
 20
0.5896649190936348
 30
0.0
 10
28.37772828252551
 20
0.7586478635796381
 30
0.0
 10
27.78075828521161
 20
1.092155220397164
 30
0.0
 10
27.48121143282597
 20
1.256200155584683
 30
0.0
 10
26.5919208127751
 20
1.733411315889105
 30
0.0
 10
25.99231300970069
 20
2.034913113233053
 30
0.0
 10
25.40000000000001
 20
2.306359576090424
 30
0.0
1001
PE_URL
1000

  0
SPLINE
  5
B6
330
1F
100
AcDbEntity
  8
0
  6
Continuous
 62
     1
370
    15
100
AcDbSpline
210
0.0
220
0.0
230
1.0
 70
     8
 71
     3
 72
    11
 73
     7
 74
     0
 42
0.000000001
 43
0.00000001
 40
0.0
 40
0.0
 40
0.0
 40
0.0
 40
0.0408954466853412
 40
0.3605967777094435
 40
0.6802982949124254
 40
1.0
 40
1.0
 40
1.0
 40
1.0
 10
30.31619091639095
 20
-0.3553873972650674
 30
0.0
 10
30.24917431644352
 20
-0.3290996703854993
 30
0.0
 10
29.65825351834044
 20
-0.0973068823273611
 30
0.0
 10
28.54342812696009
 20
0.3613407438962039
 30
0.0
 10
26.97171443472453
 20
0.9831479754053717
 30
0.0
 10
25.92390491420559
 20
1.345893422359115
 30
0.0
 10
25.40000000000002
 20
1.527266199131214
 30
0.0
1001
PE_URL
1000

  0
SPLINE
  5
B7
330
1F
100
AcDbEntity
  8
외형선
  6
Continuous
370
    15
100
AcDbSpline
210
0.0
220
0.0
230
1.0
 70
    24
 71
     3
 72
    10
 73
     6
 74
     0
 42
0.000000001
 43
0.00000001
 40
0.0
 40
0.0
 40
0.0
 40
0.0
 40
0.5
 40
0.5
 40
1.0
 40
1.0
 40
1.0
 40
1.0
 10
25.40000000000002
 20
2.306359576090424
 30
0.0
 10
25.40000000000002
 20
2.236494727270851
 30
0.0
 10
25.40000000000002
 20
2.128288999355961
 30
0.0
 10
25.40000000000002
 20
1.857161914882553
 30
0.0
 10
25.40000000000002
 20
1.695174844798947
 30
0.0
 10
25.40000000000002
 20
1.527266199131214
 30
0.0
  0
SPLINE
  5
B8
330
1F
100
AcDbEntity
  8
0
  6
Continuous
 62
     1
370
    15
100
AcDbSpline
210
0.0
220
0.0
230
1.0
 70
     8
 71
     3
 72
    36
 73
    32
 74
     0
 42
0.000000001
 43
0.00000001
 40
0.0
 40
0.0
 40
0.0
 40
0.0
 40
0.0625
 40
0.0625
 40
0.125
 40
0.125
 40
0.1874999999999999
 40
0.1874999999999999
 40
0.2499999999999999
 40
0.2499999999999999
 40
0.3124999999999999
 40
0.3124999999999999
 40
0.3749999999999999
 40
0.3749999999999999
 40
0.4374999999999999
 40
0.4374999999999999
 40
0.4999999999999999
 40
0.4999999999999999
 40
0.5624999999999999
 40
0.5624999999999999
 40
0.6249999999999999
 40
0.6249999999999999
 40
0.6874999999999999
 40
0.6874999999999999
 40
0.7499999999999998
 40
0.7499999999999998
 40
0.8124999999999998
 40
0.8124999999999998
 40
0.8749999999999999
 40
0.8749999999999999
 40
1.0
 40
1.0
 40
1.0
 40
1.0
 10
39.68750000000001
 20
-3.577803621025898
 30
0.0
 10
39.39200319196581
 20
-3.523722086747587
 30
0.0
 10
39.09282431287106
 20
-3.458268295039065
 30
0.0
 10
38.49542554678789
 20
-3.306209428687057
 30
0.0
 10
38.19945107533266
 20
-3.219859917005068
 30
0.0
 10
37.60548510087837
 20
-3.027528445097637
 30
0.0
 10
37.30577831951706
 20
-2.921304189143533
 30
0.0
 10
36.70928890112789
 20
-2.691628970118518
 30
0.0
 10
36.4145768716376
 20
-2.568517813171501
 30
0.0
 10
35.81853053425026
 20
-2.306174695355588
 30
0.0
 10
35.51875561380591
 20
-2.167110735544676
 30
0.0
 10
34.9240802822958
 20
-1.877116920640442
 30
0.0
 10
34.62868235882762
 20
-1.726150649041323
 30
0.0
 10
34.0314581552955
 20
-1.41331009714502
 30
0.0
 10
33.73207520892629
 20
-1.251833626902187
 30
0.0
 10
33.14010953542648
 20
-0.9233488760770429
 30
0.0
 10
32.84208084399565
 20
-0.7553428794879935
 30
0.0
 10
32.24458723667745
 20
-0.4153841565175715
 30
0.0
 10
31.94786596817264
 20
-0.2439629534691875
 30
0.0
 10
31.35468755020181
 20
0.0992756270240958
 30
0.0
 10
31.05508921494451
 20
0.2716989475210853
 30
0.0
 10
30.45823603267645
 20
0.6133299114642677
 30
0.0
 10
30.16335319541659
 20
0.7820916800917742
 30
0.0
 10
29.56782905948306
 20
1.114790785758811
 30
0.0
 10
29.26802633767189
 20
1.278547224244975
 30
0.0
 10
28.67272016213963
 20
1.596298984154771
 30
0.0
 10
28.37772828252144
 20
1.750236773317053
 30
0.0
 10
27.78075828520731
 20
2.047451771568459
 30
0.0
 10
27.48121143282156
 20
2.190275890028742
 30
0.0
 10
26.59192081277047
 20
2.595550338499613
 30
0.0
 10
25.99231300969587
 20
2.837476774458544
 30
0.0
 10
25.3999999999949
 20
3.040394865975633
 30
0.0
1001
PE_URL
1000

  0
SPLINE
  5
B9
330
1F
100
AcDbEntity
  8
0
  6
Continuous
 62
     1
370
    15
100
AcDbSpline
210
0.0
220
0.0
230
1.0
 70
     8
 71
     3
 72
    15
 73
    11
 74
     0
 42
0.000000001
 43
0.00000001
 40
0.0
 40
0.0
 40
0.0
 40
0.0
 40
0.134718072737411
 40
0.2693236628938381
 40
0.4038720907056055
 40
0.5384191119295425
 40
0.673020493054946
 40
0.8077315863444202
 40
0.9424563527999821
 40
1.0
 40
1.0
 40
1.0
 40
1.0
 10
39.68750000000001
 20
-2.974671990500791
 30
0.0
 10
39.24803105108998
 20
-2.882796674062227
 30
0.0
 10
38.36946008697547
 20
-2.6991227522938
 30
0.0
 10
37.05220174833697
 20
-2.281701889566856
 30
0.0
 10
35.73556815810214
 20
-1.780437024770503
 30
0.0
 10
34.41895181966765
 20
-1.204839460194975
 30
0.0
 10
33.1017362760619
 20
-0.5802427314592014
 30
0.0
 10
31.78373738306432
 20
0.0655299744943163
 30
0.0
 10
30.71704752183501
 20
0.5930805615367881
 30
0.0
 10
30.08994697574541
 20
0.882317403198922
 30
0.0
 10
29.9022632481012
 20
0.9688825464661258
 30
0.0
1001
PE_URL
1000

  0
LINE
  5
BA
330
1F
100
AcDbEntity
  8
0
  6
Continuous
 62
     1
370
    15
100
AcDbLine
 10
39.68749999999994
 20
-3.5778036210259
 30
0.0
 11
39.68750000000001
 21
-2.974671990500791
 31
0.0
1001
PE_URL
1000

  0
LINE
  5
BB
330
1F
100
AcDbEntity
  8
0
  6
Continuous
 62
     1
370
    15
100
AcDbLine
 10
39.68750000000001
 20
-3.767125889295519
 30
0.0
 11
39.68749999999993
 21
-3.577803621025895
 31
0.0
1001
PE_URL
1000

  0
SPLINE
  5
BC
330
1F
100
AcDbEntity
  8
0
  6
Continuous
 62
     1
370
    15
100
AcDbSpline
210
0.0
220
0.0
230
1.0
 70
     8
 71
     3
 72
     8
 73
     4
 74
     0
 42
0.000000001
 43
0.00000001
 40
0.0
 40
0.0
 40
0.0
 40
0.0
 40
1.0
 40
1.0
 40
1.0
 40
1.0
 10
37.35435385320545
 20
1.054889705943393
 30
0.0
 10
37.22039512798979
 20
1.213608890817665
 30
0.0
 10
37.10092203757046
 20
1.366271020008696
 30
0.0
 10
36.99930843857582
 20
1.511465341571371
 30
0.0
1001
PE_URL
1000

  0
LINE
  5
BD
330
1F
100
AcDbEntity
  8
0
  6
Continuous
 62
     1
370
    15
100
AcDbLine
 10
37.04694835472856
 20
1.551439977643671
 30
0.0
 11
39.68750000000001
 21
0.0000000000000014
 31
0.0
1001
PE_URL
1000

  0
LINE
  5
BE
330
1F
100
AcDbEntity
  8
0
  6
Continuous
 62
     1
370
    15
100
AcDbLine
 10
39.68750000000001
 20
0.0000000000000014
 30
0.0
 11
39.68750000000001
 21
-1.007589419952395
 31
0.0
1001
PE_URL
1000

  0
SPLINE
  5
BF
330
1F
100
AcDbEntity
  8
0
  6
Continuous
 62
     1
370
    15
100
AcDbSpline
210
0.0
220
0.0
230
1.0
 70
     8
 71
     3
 72
    10
 73
     6
 74
     0
 42
0.000000001
 43
0.00000001
 40
0.0
 40
0.0
 40
0.0
 40
0.0
 40
0.5
 40
0.5
 40
1.0
 40
1.0
 40
1.0
 40
1.0
 10
39.68750000000001
 20
-1.007589419952394
 30
0.0
 10
39.28362133474626
 20
-0.6900718894591856
 30
0.0
 10
38.88649062619397
 20
-0.3595337520351097
 30
0.0
 10
38.10606717052663
 20
0.3282437398732633
 30
0.0
 10
37.71913268034049
 20
0.6890917393065641
 30
0.0
 10
37.35435385320545
 20
1.054889705943393
 30
0.0
1001
PE_URL
1000

  0
SPLINE
  5
C0
330
1F
100
AcDbEntity
  8
0
  6
Continuous
 62
     1
370
    15
100
AcDbSpline
210
0.0
220
0.0
230
1.0
 70
     8
 71
     3
 72
    13
 73
     9
 74
     0
 42
0.000000001
 43
0.00000001
 40
0.0
 40
0.0
 40
0.0
 40
0.0
 40
0.1927664293130478
 40
0.3855308366207336
 40
0.5782900880013472
 40
0.7710410549345512
 40
0.9224274423144676
 40
0.9999999999999999
 40
0.9999999999999999
 40
0.9999999999999999
 40
0.9999999999999999
 10
37.35435385320547
 20
1.054889705943387
 30
0.0
 10
36.79635013755969
 20
1.289633497111665
 30
0.0
 10
35.68034855939574
 20
1.759118617125264
 30
0.0
 10
34.00635130659823
 20
2.32935701104664
 30
0.0
 10
32.33246373379428
 20
2.754713854896755
 30
0.0
 10
30.77815377941187
 20
2.973108090337607
 30
0.0
 10
29.55785333487543
 20
3.039201277823003
 30
0.0
 10
28.89526902645668
 20
2.995537801665208
 30
0.0
 10
28.67078179591127
 20
2.980744374301918
 30
0.0
1001
PE_URL
1000

  0
SPLINE
  5
C1
330
1F
100
AcDbEntity
  8
0
  6
Continuous
 62
     1
370
    15
100
AcDbSpline
210
0.0
220
0.0
230
1.0
 70
    24
 71
     3
 72
    10
 73
     6
 74
     0
 42
0.000000001
 43
0.00000001
 40
0.0
 40
0.0
 40
0.0
 40
0.0
 40
0.5000000000000001
 40
0.5000000000000001
 40
1.0
 40
1.0
 40
1.0
 40
1.0
 10
39.68750000000001
 20
-2.974671990500791
 30
0.0
 10
39.68750000000002
 20
-2.746640190103411
 30
0.0
 10
39.68750000000001
 20
-2.458513266666108
 30
0.0
 10
39.68750000000001
 20
-1.788645898797798
 30
0.0
 10
39.68750000000001
 20
-1.407485718879392
 30
0.0
 10
39.68750000000002
 20
-1.007589419952516
 30
0.0
1001
PE_URL
1000

  0
SPLINE
  5
C2
330
1F
100
AcDbEntity
  8
0
  6
Continuous
 62
     1
370
    15
100
AcDbSpline
210
0.0
220
0.0
230
1.0
 70
    24
 71
     3
 72
     8
 73
     4
 74
     0
 42
0.000000001
 43
0.00000001
 40
0.0
 40
0.0
 40
0.0
 40
0.0
 40
1.0
 40
1.0
 40
1.0
 40
1.0
 10
37.39269080628792
 20
1.841552341229463
 30
0.0
 10
37.26842522674303
 20
1.73728113926532
 30
0.0
 10
37.13652309682098
 20
1.626602110696094
 30
0.0
 10
36.99930843857626
 20
1.51146534157083
 30
0.0
1001
PE_URL
1000

  0
LINE
  5
C3
330
1F
100
AcDbEntity
  8
0
  6
Continuous
 62
     1
370
    15
100
AcDbLine
 10
39.68750000000001
 20
2.63921875
 30
0.0
 11
38.28414358092354
 21
2.570072701477654
 31
0.0
1001
PE_URL
1000

  0
SPLINE
  5
C4
330
1F
100
AcDbEntity
  8
0
  6
Continuous
 62
     1
370
    15
100
AcDbSpline
210
0.0
220
0.0
230
1.0
 70
     8
 71
     3
 72
    10
 73
     6
 74
     0
 42
0.000000001
 43
0.00000001
 40
0.0
 40
0.0
 40
0.0
 40
0.0
 40
0.5
 40
0.5
 40
1.0
 40
1.0
 40
1.0
 40
1.0
 10
39.68750000000001
 20
2.639218750000002
 30
0.0
 10
39.2997334709553
 20
2.534009121154812
 30
0.0
 10
38.9140624384176
 20
2.415904570409895
 30
0.0
 10
38.14838042091199
 20
2.151638057665423
 30
0.0
 10
37.7681355681876
 20
2.005895747589675
 30
0.0
 10
37.39269080628792
 20
1.841552341229467
 30
0.0
1001
PE_URL
1000

  0
SPLINE
  5
C5
330
1F
100
AcDbEntity
  8
0
  6
Continuous
 62
     1
370
    15
100
AcDbSpline
210
0.0
220
0.0
230
1.0
 70
     8
 71
     3
 72
    12
 73
     8
 74
     0
 42
0.000000001
 43
0.00000001
 40
0.0
 40
0.0
 40
0.0
 40
0.0
 40
0.1665589632013622
 40
0.3748729610013313
 40
0.5831578254291921
 40
0.7915036366862597
 40
1.0
 40
1.0
 40
1.0
 40
1.0
 10
31.70968018103385
 20
-2.812283483032668
 30
0.0
 10
31.3592797770376
 20
-2.869490448085935
 30
0.0
 10
30.57063631734379
 20
-2.998245718695368
 30
0.0
 10
29.34431842957039
 20
-3.033331268974942
 30
0.0
 10
28.03001313577165
 20
-2.96690042891743
 30
0.0
 10
26.71532337085576
 20
-2.78221717290254
 30
0.0
 10
25.83854667958371
 20
-2.567374479603031
 30
0.0
 10
25.40000000000002
 20
-2.459914335284385
 30
0.0
1001
PE_URL
1000

  0
SPLINE
  5
C6
330
1F
100
AcDbEntity
  8
외형선
  6
Continuous
370
    15
100
AcDbSpline
210
0.0
220
0.0
230
1.0
 70
    24
 71
     3
 72
    14
 73
    10
 74
     0
 42
0.000000001
 43
0.00000001
 40
0.0
 40
0.0
 40
0.0
 40
0.0
 40
0.25
 40
0.25
 40
0.5
 40
0.5
 40
0.75
 40
0.75
 40
1.0
 40
1.0
 40
1.0
 40
1.0
 10
25.40000000000001
 20
1.527266199131218
 30
0.0
 10
25.40000000000001
 20
1.219975457332716
 30
0.0
 10
25.40000000000001
 20
0.8867775265287354
 30
0.0
 10
25.40000000000001
 20
0.1944315529852419
 30
0.0
 10
25.40000000000001
 20
-0.1644303749897366
 30
0.0
 10
25.40000000000001
 20
-0.8730673107963086
 30
0.0
 10
25.40000000000001
 20
-1.222464727241655
 30
0.0
 10
25.40000000000001
 20
-1.878747853812417
 30
0.0
 10
25.40000000000001
 20
-2.185398101387732
 30
0.0
 10
25.40000000000001
 20
-2.459914335284382
 30
0.0
  0
LINE
  5
C7
330
1F
100
AcDbEntity
  8
0
  6
Continuous
 62
     1
370
    15
100
AcDbLine
 10
39.68750000000001
 20
0.0000000000000014
 30
0.0
 11
39.68750000000001
 21
2.63921875
 31
0.0
1001
PE_URL
1000

  0
SPLINE
  5
C8
330
1F
100
AcDbEntity
  8
외형선
  6
Continuous
370
    15
100
AcDbSpline
210
0.0
220
0.0
230
1.0
 70
    24
 71
     3
 72
    10
 73
     6
 74
     0
 42
0.000000001
 43
0.00000001
 40
0.0
 40
0.0
 40
0.0
 40
0.0
 40
0.4541987330395792
 40
0.7860292799268452
 40
1.0
 40
1.0
 40
1.0
 40
1.0
 10
25.40000000000002
 20
-2.459914335284385
 30
0.0
 10
25.40000000000002
 20
-2.591980710033301
 30
0.0
 10
25.40000000000002
 20
-2.820532728995873
 30
0.0
 10
25.40000000000002
 20
-2.95865496233203
 30
0.0
 10
25.40000000000002
 20
-2.956724693277728
 30
0.0
 10
25.40000000000002
 20
-2.955967969018395
 30
0.0
  0
SPLINE
  5
C9
330
1F
100
AcDbEntity
  8
0
  6
Continuous
 62
     1
370
    15
100
AcDbSpline
210
0.0
220
0.0
230
1.0
 70
     8
 71
     3
 72
    12
 73
     8
 74
     0
 42
0.000000001
 43
0.00000001
 40
0.0
 40
0.0
 40
0.0
 40
0.0
 40
0.0293990446846377
 40
0.2720139380547059
 40
0.5145274871186917
 40
0.7571272973919906
 40
1.0
 40
1.0
 40
1.0
 40
1.0
 10
34.50687779118238
 20
2.527158917815091
 30
0.0
 10
34.55765701251963
 20
2.550386764805812
 30
0.0
 10
35.02749050933777
 20
2.765301847940457
 30
0.0
 10
35.91588402192445
 20
3.085343004049158
 30
0.0
 10
37.17243291496688
 20
3.454110906780885
 30
0.0
 10
38.42944699940035
 20
3.696517009157733
 30
0.0
 10
39.26799187969956
 20
3.743580777468746
 30
0.0
 10
39.68750000000002
 20
3.767125889295514
 30
0.0
1001
PE_URL
1000

  0
SPLINE
  5
CA
330
1F
100
AcDbEntity
  8
0
  6
Continuous
 62
     1
370
    15
100
AcDbSpline
210
0.0
220
0.0
230
1.0
 70
    24
 71
     3
 72
    10
 73
     6
 74
     0
 42
0.000000001
 43
0.00000001
 40
0.0
 40
0.0
 40
0.0
 40
0.0
 40
0.5
 40
0.5
 40
1.0
 40
1.0
 40
1.0
 40
1.0
 10
39.68750000000001
 20
2.63921875
 30
0.0
 10
39.68750000000002
 20
2.799201618243824
 30
0.0
 10
39.68750000000001
 20
2.985116527150552
 30
0.0
 10
39.68750000000001
 20
3.375165505310225
 30
0.0
 10
39.68750000000001
 20
3.578303438420239
 30
0.0
 10
39.68750000000001
 20
3.767125889295517
 30
0.0
1001
PE_URL
1000

  0
LINE
  5
CB
330
1F
100
AcDbEntity
  8
0
  6
Continuous
 62
     1
370
    15
100
AcDbLine
 10
25.5991678417946
 20
-2.963935162802794
 30
0.0
 11
25.3999999999949
 21
-3.040394865975634
 31
0.0
1001
PE_URL
1000

  0
LINE
  5
CC
330
1F
100
AcDbEntity
  8
외형선
  6
Continuous
370
    15
100
AcDbLine
 10
25.40000000000002
 20
-3.010919352456901
 30
0.0
 11
25.40000000000002
 21
-3.040394865958747
 31
0.0
  0
LINE
  5
CD
330
1F
100
AcDbEntity
  8
중심선
 62
     1
100
AcDbLine
 10
-42.68750000000001
 20
-0.0000000000000052
 30
0.0
 11
42.6875
 21
0.0000000000000052
 31
0.0
  0
LINE
  5
CE
330
1F
100
AcDbEntity
  8
참조1
100
AcDbLine
 10
-0.0000000000000018
 20
-0.0000000000000048
 30
0.0
 11
0.0000000000000036
 21
-40.00000000000001
 31
0.0
  0
LINE
  5
CF
330
1F
100
AcDbEntity
  8
참조1
100
AcDbLine
 10
0.0000000000000036
 20
-40.00000000000001
 30
0.0
 11
-14.46571559669921
 21
-40.0
 31
0.0
  0
CIRCLE
  5
D0
330
1F
100
AcDbEntity
  8
해칭선
100
AcDbCircle
 10
-0.0000000000000018
 20
0.0
 30
0.0
 40
3.000000000000001
  0
INSERT
  5
D1
330
1F
100
AcDbEntity
  8
0
  6
Continuous
 62
     7
100
AcDbBlockReference
 66
     1
  2
블럭10
 10
-13.94027293212521
 20
-52.04717430164393
 30
0.0
  0
ATTRIB
  5
D2
330
D1
100
AcDbEntity
  8
FORMAT
 62
     2
100
AcDbText
 10
-23.12156822086649
 20
-49.97180738881175
 30
0.0
 40
4.233333333333333
  1
E1050019 [ 2 FLUTE ]
 41
0.75
  7
SLDTEXTSTYLE0
 11
-23.12156822086649
 21
-52.08847405547841
 31
0.0
100
AcDbAttribute
  2
AUTOATTR0
 70
     0
 74
     1
  0
SEQEND
  5
D3
330
D1
100
AcDbEntity
  8
0
  6
Continuous
 62
     7
  0
HATCH
  5
D4
330
1F
100
AcDbEntity
  8
중심선
100
AcDbHatch
 10
0.0
 20
0.0
 30
0.0
210
0.0
220
0.0
230
1.0
  2
SOLID
 70
     1
 71
     0
 91
        1
 92
        0
 93
        4
 72
     1
 10
-8.225363627744372
 20
-35.8
 11
-11.67163887158165
 21
-35.8
 72
     1
 10
-11.67163887158165
 20
-35.8
 11
-13.79986873078568
 21
-38.3363255805726
 72
     1
 10
-13.79986873078568
 20
-38.3363255805726
 11
-10.35356040183525
 21
-38.33628615127011
 72
     1
 10
-10.35356040183525
 20
-38.33628615127011
 11
-8.225363627744372
 21
-35.8
 97
        0
 75
     0
 76
     1
 98
        1
 10
14.99421167873052
 20
-0.001074928723894
  0
HATCH
  5
D5
330
1F
100
AcDbEntity
  8
중심선
100
AcDbHatch
 10
0.0
 20
0.0
 30
0.0
210
0.0
220
0.0
230
1.0
  2
SOLID
 70
     1
 71
     0
 91
        1
 92
        0
 93
        4
 72
     1
 10
-3.212599636708418
 20
-35.80000000000003
 11
-6.658874880545675
 21
-35.8
 72
     1
 10
-6.658874880545675
 20
-35.8
 11
-11.19001288890309
 21
-41.20000000000002
 72
     1
 10
-11.19001288890309
 20
-41.20000000000002
 11
-7.743737645065806
 21
-41.20000000000002
 72
     1
 10
-7.743737645065806
 20
-41.20000000000002
 11
-3.212599636708418
 21
-35.80000000000003
 97
        0
 75
     0
 76
     1
 98
        1
 10
14.99421167873052
 20
-0.001074928723894
  0
HATCH
  5
D6
330
1F
100
AcDbEntity
  8
중심선
100
AcDbHatch
 10
0.0
 20
0.0
 30
0.0
210
0.0
220
0.0
230
1.0
  2
SOLID
 70
     1
 71
     0
 91
        1
 92
        0
 93
        4
 72
     1
 10
1.800164354327476
 20
-35.8
 11
-1.646110889509639
 21
-35.8
 72
     1
 10
-1.646110889509639
 20
-35.8
 11
-8.69454779139889
 21
-44.20000000000002
 72
     1
 10
-8.69454779139889
 20
-44.20000000000002
 11
-5.248272547561605
 21
-44.20000000000002
 72
     1
 10
-5.248272547561605
 20
-44.20000000000002
 11
1.800164354327476
 21
-35.8
 97
        0
 75
     0
 76
     1
 98
        1
 10
14.99421167873052
 20
-0.001074928723894
  0
HATCH
  5
D7
330
1F
100
AcDbEntity
  8
중심선
100
AcDbHatch
 10
0.0
 20
0.0
 30
0.0
210
0.0
220
0.0
230
1.0
  2
SOLID
 70
     1
 71
     0
 91
        1
 92
        0
 93
        6
 72
     3
 10
6.600054785339676
 20
-40.00000000005127
 11
3.960054785062283
 21
1.540882976769353E-10
 40
0.3939339440162628
 50
17.09539180608437
 51
320.0019657685077
 73
     0
 72
     1
 10
8.283054441040242
 20
-38.5878940046383
 11
10.58835631474131
 21
-36.65356729459035
 72
     3
 10
6.600054785286829
 20
-40.00000000000015
 11
6.600054785286829
 21
-1.278976924368180E-13
 40
0.636358354079598
 50
39.99873849337431
 51
368.4976242363725
 73
     1
 72
     1
 10
13.02538727718744
 20
-39.03999999993002
 11
5.280122092122751
 21
-39.03999999993
 72
     1
 10
5.280122092122751
 20
-39.03999999993
 11
5.280097047676817
 21
-40.95999999992991
 72
     1
 10
5.280097047676817
 20
-40.95999999992991
 11
9.721476817148854
 21
-40.95999999992988
 97
        0
 75
     0
 76
     1
 98
        1
 10
14.99421167873052
 20
-0.001074928723894
  0
DIMENSION
  5
D8
330
1F
100
AcDbEntity
  8
치수문자_일반주서
100
AcDbDimension
  2
_D
 10
-49.68749999999994
 20
-4.762500000000117
 30
0.0
 11
-49.68750000000004
 21
24.49149999999996
 31
0.0
 70
   160
  1
%%c<>
 71
     2
 42
9.525
 52
-270.0
  3
SLDDIMSTYLE0
100
AcDbAlignedDimension
 13
-20.6971058393653
 23
4.762499999999994
 33
0.0
 14
-20.6971058393653
 24
-4.762500000000006
 34
0.0
 50
90.0000000000002
100
AcDbRotatedDimension
1001
PE_URL
1000

1001
ACAD
1000
DSTYLE
1002
{
1070
   171
1070
     8
1070
   273
1070
     7
1002
}
  0
DIMENSION
  5
ED
330
1F
100
AcDbEntity
  8
치수문자_일반주서
100
AcDbDimension
  2
_D_1
 10
80.71320815135002
 20
3.76712588929567
 30
0.0
 11
80.71320815134993
 21
25.68362588929567
 31
0.0
 70
   160
  1
%%c<>
 71
     2
 42
7.534251778591036
 52
-270.0
  3
SLDDIMSTYLE0
100
AcDbAlignedDimension
 13
39.68750000000001
 23
-3.767125889295519
 33
0.0
 14
39.68750000000001
 24
3.767125889295517
 34
0.0
 50
90.0000000000002
100
AcDbRotatedDimension
1001
PE_URL
1000

1001
ACAD
1000
DSTYLE
1002
{
1070
   171
1070
     8
1070
   273
1070
     7
1002
}
  0
DIMENSION
  5
101
330
1F
100
AcDbEntity
  8
치수문자_일반주서
100
AcDbDimension
  2
_D_2
 10
25.40000000000002
 20
14.86003317930672
 30
0.0
 11
59.85400000000001
 21
14.86003317930672
 31
0.0
 70
   160
  1
<>
 71
     2
 42
14.28749999999999
  3
SLDDIMSTYLE0
100
AcDbAlignedDimension
 13
39.68750000000001
 23
3.767125889295517
 33
0.0
 14
25.40000000000002
 24
3.040394865973882
 34
0.0
 50
0.0000000000000142
100
AcDbRotatedDimension
1001
PE_URL
1000

1001
ACAD
1000
DSTYLE
1002
{
1070
   171
1070
     8
1070
   273
1070
     7
1002
}
  0
DIMENSION
  5
115
330
1F
100
AcDbEntity
  8
치수문자_일반주서
100
AcDbDimension
  2
_D_3
 10
39.68750000000001
 20
24.76249999999999
 30
0.0
 11
0.0000000000000142
 21
24.76249999999999
 31
0.0
 70
   160
  1
<>
 71
     2
 42
79.37500000000004
  3
SLDDIMSTYLE0
100
AcDbAlignedDimension
 13
-39.68750000000003
 23
3.767125889295526
 33
0.0
 14
39.68750000000001
 24
3.767125889295517
 34
0.0
100
AcDbRotatedDimension
1001
PE_URL
1000

1001
ACAD
1000
DSTYLE
1002
{
1070
   171
1070
     8
1070
   273
1070
     7
1002
}
  0
LINE
  5
128
330
1F
100
AcDbEntity
  8
참조1
100
AcDbLine
 10
83.50662503295506
 20
7.440000000000001
 30
0.0
 11
83.50662503295506
 21
-7.440000000000003
 31
0.0
  0
LINE
  5
129
330
1F
100
AcDbEntity
  8
참조1
100
AcDbLine
 10
96.20662503295506
 20
5.440000000000001
 30
0.0
 11
83.50662503295506
 21
5.440000000000001
 31
0.0
  0
SOLID
  5
12A
330
1F
100
AcDbEntity
  8
참조1
100
AcDbTrace
 10
83.50662503295506
 20
5.440000000000001
 30
0.0
 11
89.85662503295505
 21
4.424000000000001
 31
0.0
 12
89.85662503295505
 22
6.456000000000001
 32
0.0
 13
89.85662503295505
 23
6.456000000000001
 33
0.0
  0
LINE
  5
12B
330
1F
100
AcDbEntity
  8
참조1
100
AcDbLine
 10
96.20662503295506
 20
-5.440000000000003
 30
0.0
 11
83.50662503295506
 21
-5.440000000000003
 31
0.0
  0
SOLID
  5
12C
330
1F
100
AcDbEntity
  8
참조1
100
AcDbTrace
 10
83.50662503295506
 20
-5.440000000000003
 30
0.0
 11
89.85662503295505
 21
-6.456000000000003
 31
0.0
 12
89.85662503295505
 22
-4.424000000000003
 32
0.0
 13
89.85662503295505
 23
-4.424000000000003
 33
0.0
  0
MTEXT
  5
12D
330
1F
100
AcDbEntity
  8
참조1
100
AcDbMText
 10
92.89097516558105
 20
11.01029177718833
 30
0.0
 40
3.5
 41
0.0
 71
     1
 72
     1
  1
A
  7
SLDTEXTSTYLE0
 73
     1
 44
1.0
  0
MTEXT
  5
12E
330
1F
100
AcDbEntity
  8
참조1
100
AcDbMText
 10
92.89097516558105
 20
0.1302917771883252
 30
0.0
 40
3.5
 41
0.0
 71
     1
 72
     1
  1
A
  7
SLDTEXTSTYLE0
 73
     1
 44
1.0
  0
INSERT
  5
135
330
1F
100
AcDbEntity
  8
해칭선
100
AcDbBlockReference
  2
SW_DOWELSYMBOL_0
 10
-0.0000000000000018
 20
0.0
 30
0.0
  0
LINE
  5
1DD
330
1F
100
AcDbEntity
  8
외형선
  6
Continuous
370
    15
100
AcDbLine
 10
-3.56870000000008
 20
3.492500000000014
 30
0.0
 11
3.568700000000048
 21
3.492500000000014
 31
0.0
1001
PE_URL
1000

  0
LINE
  5
1DE
330
1F
100
AcDbEntity
  8
외형선
  6
Continuous
370
    15
100
AcDbLine
 10
-3.56870000000008
 20
3.492500000000014
 30
0.0
 11
-4.838700000000062
 21
4.762499999999996
 31
0.0
1001
PE_URL
1000

  0
LINE
  5
1DF
330
1F
100
AcDbEntity
  8
외형선
  6
Continuous
370
    15
100
AcDbLine
 10
3.568700000000048
 20
3.492500000000014
 30
0.0
 11
4.838700000000143
 21
4.762499999999996
 31
0.0
1001
PE_URL
1000

  0
LINE
  5
21E
330
1F
100
AcDbEntity
  8
외형선
  6
Continuous
370
    15
100
AcDbLine
 10
-20.6971058393653
 20
4.762499999999994
 30
0.0
 11
-23.88001712826289
 21
3.909641490559981
 31
0.0
  0
LINE
  5
21F
330
1F
100
AcDbEntity
  8
외형선
  6
Continuous
370
    15
100
AcDbLine
 10
-23.88001712826289
 20
-3.909641490559988
 30
0.0
 11
-20.6971058393653
 21
-4.762500000000006
 31
0.0
  0
SPLINE
  5
220
330
1F
100
AcDbEntity
  8
외형선
  6
Continuous
370
    15
100
AcDbSpline
210
0.0
220
0.0
230
1.0
 70
     8
 71
     3
 72
     9
 73
     5
 74
     0
 42
0.000000001
 43
0.00000001
 40
0.0
 40
0.0
 40
0.0
 40
0.0
 40
0.4377612306070438
 40
1.0
 40
1.0
 40
1.0
 40
1.0
 10
-23.88002366685183
 20
3.058898978748328
 30
0.0
 10
-24.10123625719922
 20
3.04247755874353
 30
0.0
 10
-24.60656330509845
 20
3.004965282971582
 30
0.0
 10
-25.11444770180299
 20
2.982686781466178
 30
0.0
 10
-25.40000000000003
 20
2.970160944195861
 30
0.0
  0
SPLINE
  5
221
330
1F
100
AcDbEntity
  8
0
  6
Continuous
 62
     1
370
    15
100
AcDbSpline
210
0.0
220
0.0
230
1.0
 70
     8
 71
     3
 72
     9
 73
     5
 74
     0
 42
0.000000001
 43
0.00000001
 40
0.0
 40
0.0
 40
0.0
 40
0.0
 40
0.4370256636386555
 40
0.9999999999999999
 40
0.9999999999999999
 40
0.9999999999999999
 40
0.9999999999999999
 10
-29.92023155401918
 20
-0.9661204111081663
 30
0.0
 10
-29.76765425294051
 20
-1.03859420498053
 30
0.0
 10
-29.41852761399596
 20
-1.204428387964086
 30
0.0
 10
-29.06943141572921
 20
-1.386702442508913
 30
0.0
 10
-28.87289921518372
 20
-1.489318057402176
 30
0.0
1001
PE_URL
1000

  0
SPLINE
  5
222
330
1F
100
AcDbEntity
  8
0
  6
Continuous
 62
     1
370
    15
100
AcDbSpline
210
0.0
220
0.0
230
1.0
 70
     8
 71
     3
 72
    10
 73
     6
 74
     0
 42
0.000000001
 43
0.00000001
 40
0.0
 40
0.0
 40
0.0
 40
0.0
 40
0.2243280802259885
 40
0.5079690088064158
 40
1.0
 40
1.0
 40
1.0
 40
1.0
 10
-28.67290342024095
 20
-2.996030755959524
 30
0.0
 10
-28.4412031215423
 20
-2.985029644458258
 30
0.0
 10
-27.91654044466507
 20
-2.960118702861308
 30
0.0
 10
-26.89474590871232
 20
-2.936130011608432
 30
0.0
 10
-26.09634679595143
 20
-2.955320341927189
 30
0.0
 10
-25.58989929307641
 20
-2.967493319970302
 30
0.0
1001
PE_URL
1000

  0
SPLINE
  5
223
330
1F
100
AcDbEntity
  8
0
  6
Continuous
 62
     1
370
    15
100
AcDbSpline
210
0.0
220
0.0
230
1.0
 70
     8
 71
     3
 72
    26
 73
    22
 74
     0
 42
0.000000001
 43
0.00000001
 40
0.0
 40
0.0
 40
0.0
 40
0.0
 40
0.0724111577320918
 40
0.1268349170954084
 40
0.1689270811424127
 40
0.2155293181340259
 40
0.2658563667575825
 40
0.3088067591870469
 40
0.3494140098008747
 40
0.3898874042314624
 40
0.4366217526276654
 40
0.5005482794949838
 40
0.5648131082347055
 40
0.6109870386725788
 40
0.6516361727230489
 40
0.6937057096566143
 40
0.7480332558841718
 40
0.8069012558468718
 40
0.8576224545423365
 40
0.9157390348141832
 40
1.0
 40
1.0
 40
1.0
 40
1.0
 10
-38.28588703104302
 20
-2.578713796775027
 30
0.0
 10
-38.12955799434717
 20
-2.565947300320088
 30
0.0
 10
-37.85573306142338
 20
-2.543585587427001
 30
0.0
 10
-37.48568446475871
 20
-2.521005641877457
 30
0.0
 10
-37.16562132703008
 20
-2.505255961604929
 30
0.0
 10
-36.85842595354788
 20
-2.493547981221706
 30
0.0
 10
-36.55154575781312
 20
-2.485606947142868
 30
0.0
 10
-36.25791218725956
 20
-2.481542813442797
 30
0.0
 10
-35.98556500266686
 20
-2.480716984989266
 30
0.0
 10
-35.70486226286869
 20
-2.482781740012655
 30
0.0
 10
-35.3729130829344
 20
-2.488923036057507
 30
0.0
 10
-34.98894931777922
 20
-2.501501426575089
 30
0.0
 10
-34.60636547000178
 20
-2.520340203951513
 30
0.0
 10
-34.27434191865487
 20
-2.541181562007759
 30
0.0
 10
-33.9917281365186
 20
-2.56194832854929
 30
0.0
 10
-33.69202912299568
 20
-2.586979323081767
 30
0.0
 10
-33.35099908941368
 20
-2.61959753420571
 30
0.0
 10
-32.99030552600276
 20
-2.658916272568382
 30
0.0
 10
-32.61714707718085
 20
-2.704123701202082
 30
0.0
 10
-32.19111879408598
 20
-2.760533827592834
 30
0.0
 10
-31.88286100287273
 20
-2.80780651439472
 30
0.0
 10
-31.70042985524911
 20
-2.835783132505741
 30
0.0
1001
PE_URL
1000

  0
SPLINE
  5
224
330
1F
100
AcDbEntity
  8
0
  6
Continuous
 62
     1
370
    15
100
AcDbSpline
210
0.0
220
0.0
230
1.0
 70
     8
 71
     3
 72
    16
 73
    12
 74
     0
 42
0.000000001
 43
0.00000001
 40
0.0
 40
0.0
 40
0.0
 40
0.0
 40
0.171661457032142
 40
0.2992987497468557
 40
0.3965820627522927
 40
0.5054845166586608
 40
0.6244990617870316
 40
0.7266730114300384
 40
0.8225543998598354
 40
0.916333566061356
 40
1.0
 40
1.0
 40
1.0
 40
1.0
 10
-31.7004298552491
 20
2.835783132505746
 30
0.0
 10
-31.85895696201536
 20
2.81138235025116
 30
0.0
 10
-32.13535543652699
 20
2.768838591460417
 30
0.0
 10
-32.50565200201862
 20
2.718633032584778
 30
0.0
 10
-32.82283974452791
 20
2.678881825253177
 30
0.0
 10
-33.12913447450052
 20
2.643463033159094
 30
0.0
 10
-33.43844162410124
 20
2.610998703095765
 30
0.0
 10
-33.73508810996614
 20
2.583291891207853
 30
0.0
 10
-34.00700816734522
 20
2.56082638879391
 30
0.0
 10
-34.26246606295464
 20
2.541923574611772
 30
0.0
 10
-34.42858582676318
 20
2.531900436985987
 30
0.0
 10
-34.50691207567334
 20
2.527174480516155
 30
0.0
1001
PE_URL
1000

  0
SPLINE
  5
225
330
1F
100
AcDbEntity
  8
0
  6
Continuous
 62
     1
370
    15
100
AcDbSpline
210
0.0
220
0.0
230
1.0
 70
     8
 71
     3
 72
    17
 73
    13
 74
     0
 42
0.000000001
 43
0.00000001
 40
0.0
 40
0.0
 40
0.0
 40
0.0
 40
0.1472399711743609
 40
0.2495424539165315
 40
0.3148609234401705
 40
0.378535090502522
 40
0.4444666553439089
 40
0.5114527170514274
 40
0.5821161820155357
 40
0.6813533944793506
 40
0.8210088332470694
 40
1.0
 40
1.0
 40
1.0
 40
1.0
 10
-25.39999999999993
 20
2.970160944195865
 30
0.0
 10
-25.56106994708048
 20
2.964644595473693
 30
0.0
 10
-25.83405145832438
 20
2.955295482010749
 30
0.0
 10
-26.17842049403269
 20
2.948736086394726
 30
0.0
 10
-26.43193803936504
 20
2.94565947753585
 30
0.0
 10
-26.6388045220223
 20
2.944413353144194
 30
0.0
 10
-26.83822591688041
 20
2.943542974999293
 30
0.0
 10
-27.06089516765015
 20
2.944461579738379
 30
0.0
 10
-27.32485623001805
 20
2.948426100708694
 30
0.0
 10
-27.66765398469904
 20
2.9554773287263
 30
0.0
 10
-28.12744133458147
 20
2.969324928127014
 30
0.0
 10
-28.47671072633506
 20
2.986425160184499
 30
0.0
 10
-28.67290342024094
 20
2.996030755959524
 30
0.0
1001
PE_URL
1000

  0
LINE
  5
226
330
1F
100
AcDbEntity
  8
외형선
  6
Continuous
370
    15
100
AcDbLine
 10
-20.6971058393653
 20
-4.762500000000006
 30
0.0
 11
-20.6971058393653
 21
4.762499999999998
 31
0.0
  0
SPLINE
  5
227
330
1F
100
AcDbEntity
  8
외형선
  6
Continuous
370
    15
100
AcDbSpline
210
0.0
220
0.0
230
1.0
 70
     8
 71
     3
 72
     8
 73
     4
 74
     0
 42
0.000000001
 43
0.00000001
 40
0.0
 40
0.0
 40
0.0
 40
0.0
 40
1.0
 40
1.0
 40
1.0
 40
1.0
 10
-24.40000000000003
 20
-3.344651942907747
 30
0.0
 10
-24.22612518460605
 20
-3.423005725415294
 30
0.0
 10
-24.05283955547364
 20
-3.500181288072085
 30
0.0
 10
-23.88003501745649
 20
-3.575945414696836
 30
0.0
  0
LINE
  5
228
330
1F
100
AcDbEntity
  8
외형선
  6
Continuous
370
    15
100
AcDbLine
 10
-24.40000000000003
 20
-3.344651942907714
 30
0.0
 11
-24.40000000000003
 21
-2.73393336048335
 31
0.0
  0
SPLINE
  5
229
330
1F
100
AcDbEntity
  8
외형선
  6
Continuous
370
    15
100
AcDbSpline
210
0.0
220
0.0
230
1.0
 70
     8
 71
     3
 72
     8
 73
     4
 74
     0
 42
0.000000001
 43
0.00000001
 40
0.0
 40
0.0
 40
0.0
 40
0.0
 40
0.0005968371017009
 40
0.0005968371017009
 40
0.0005968371017009
 40
0.0005968371017009
 10
-23.88001712826289
 20
-3.009196019723181
 30
0.0
 10
-24.05336752808649
 20
-2.918631416665484
 30
0.0
 10
-24.22670299162618
 20
-2.82680701900583
 30
0.0
 10
-24.39999999999973
 20
-2.73393336048292
 30
0.0
  0
LINE
  5
22A
330
1F
100
AcDbEntity
  8
외형선
  6
Continuous
370
    15
100
AcDbLine
 10
-23.88001712826289
 20
3.909641490559981
 30
0.0
 11
-23.88001712826289
 21
-3.009237119060847
 31
0.0
  0
SPLINE
  5
22B
330
1F
100
AcDbEntity
  8
외형선
  6
Continuous
370
    15
100
AcDbSpline
210
0.0
220
0.0
230
1.0
 70
     8
 71
     3
 72
     8
 73
     4
 74
     0
 42
0.000000001
 43
0.00000001
 40
0.0
 40
0.0
 40
0.0
 40
0.0
 40
1.0
 40
1.0
 40
1.0
 40
1.0
 10
-24.40000000000003
 20
3.344651942907742
 30
0.0
 10
-24.22612518460604
 20
3.423005725415289
 30
0.0
 10
-24.05283955547364
 20
3.50018128807208
 30
0.0
 10
-23.88003501745649
 20
3.575945414696831
 30
0.0
  0
LINE
  5
22C
330
1F
100
AcDbEntity
  8
외형선
  6
Continuous
370
    15
100
AcDbLine
 10
-23.88001712826289
 20
-3.575990453147302
 30
0.0
 11
-23.88001712826289
 21
-3.909641490559988
 31
0.0
  0
SPLINE
  5
22D
330
1F
100
AcDbEntity
  8
외형선
  6
Continuous
370
    15
100
AcDbSpline
210
0.0
220
0.0
230
1.0
 70
    24
 71
     3
 72
    10
 73
     6
 74
     0
 42
0.000000001
 43
0.00000001
 40
0.0
 40
0.0
 40
0.0
 40
0.0
 40
0.5
 40
0.5
 40
1.0
 40
1.0
 40
1.0
 40
1.0
 10
-25.40000000000003
 20
-2.306359576090426
 30
0.0
 10
-25.40000000000003
 20
-2.236494727270854
 30
0.0
 10
-25.40000000000003
 20
-2.128288999355965
 30
0.0
 10
-25.40000000000003
 20
-1.857161914882557
 30
0.0
 10
-25.40000000000003
 20
-1.695174844798951
 30
0.0
 10
-25.40000000000003
 20
-1.527266199131217
 30
0.0
  0
SPLINE
  5
22E
330
1F
100
AcDbEntity
  8
외형선
  6
Continuous
370
    15
100
AcDbSpline
210
0.0
220
0.0
230
1.0
 70
     8
 71
     3
 72
     8
 73
     4
 74
     0
 42
0.000000001
 43
0.00000001
 40
0.0
 40
0.0
 40
0.0
 40
0.0
 40
1.0
 40
1.0
 40
1.0
 40
1.0
 10
-25.40000000000003
 20
-1.527266199131217
 30
0.0
 10
-24.89602456920046
 20
-1.693942502678814
 30
0.0
 10
-24.38323575427287
 20
-1.847659118599093
 30
0.0
 10
-23.8800214430225
 20
-1.982499250890294
 30
0.0
  0
SPLINE
  5
22F
330
1F
100
AcDbEntity
  8
외형선
  6
Continuous
370
    15
100
AcDbSpline
210
0.0
220
0.0
230
1.0
 70
     8
 71
     3
 72
     8
 73
     4
 74
     0
 42
0.000000001
 43
0.00000001
 40
0.0
 40
0.0
 40
0.0
 40
0.0
 40
1.0
 40
1.0
 40
1.0
 40
1.0
 10
-25.39999999999971
 20
-2.306359576090571
 30
0.0
 10
-25.06883887041242
 20
-2.458124801216634
 30
0.0
 10
-24.73355857988996
 20
-2.601506317466448
 30
0.0
 10
-24.40000000000003
 20
-2.73393336048335
 30
0.0
  0
SPLINE
  5
230
330
1F
100
AcDbEntity
  8
외형선
  6
Continuous
370
    15
100
AcDbSpline
210
0.0
220
0.0
230
1.0
 70
     8
 71
     3
 72
     8
 73
     4
 74
     0
 42
0.000000001
 43
0.00000001
 40
0.0
 40
0.0
 40
0.0
 40
0.0
 40
1.0
 40
1.0
 40
1.0
 40
1.0
 10
-25.40000000000003
 20
-3.040394865973886
 30
0.0
 10
-25.06883887041263
 20
-3.15384600295722
 30
0.0
 10
-24.73355857989007
 20
-3.255887926041124
 30
0.0
 10
-24.40000000000003
 20
-3.344651942907714
 30
0.0
  0
LINE
  5
231
330
1F
100
AcDbEntity
  8
외형선
  6
Continuous
370
    15
100
AcDbLine
 10
-25.40000000000003
 20
-3.040394865973884
 30
0.0
 11
-25.40000000000003
 21
-2.306359576090427
 31
0.0
  0
SPLINE
  5
232
330
1F
100
AcDbEntity
  8
외형선
  6
Continuous
370
    15
100
AcDbSpline
210
0.0
220
0.0
230
1.0
 70
     8
 71
     3
 72
     8
 73
     4
 74
     0
 42
0.000000001
 43
0.00000001
 40
0.0
 40
0.0
 40
0.0
 40
0.0
 40
1.0
 40
1.0
 40
1.0
 40
1.0
 10
-25.40000000000003
 20
2.459914335284381
 30
0.0
 10
-24.89602531159812
 20
2.324753187415983
 30
0.0
 10
-24.38323720656379
 20
2.166417925300101
 30
0.0
 10
-23.88002366685183
 20
1.991057458606107
 30
0.0
  0
SPLINE
  5
233
330
1F
100
AcDbEntity
  8
외형선
  6
Continuous
370
    15
100
AcDbSpline
210
0.0
220
0.0
230
1.0
 70
    24
 71
     3
 72
    14
 73
    10
 74
     0
 42
0.000000001
 43
0.00000001
 40
0.0
 40
0.0
 40
0.0
 40
0.0
 40
0.25
 40
0.25
 40
0.5
 40
0.5
 40
0.75
 40
0.75
 40
1.0
 40
1.0
 40
1.0
 40
1.0
 10
-25.40000000000002
 20
-1.527266199131221
 30
0.0
 10
-25.40000000000002
 20
-1.219975457332719
 30
0.0
 10
-25.40000000000002
 20
-0.8867775265287392
 30
0.0
 10
-25.40000000000002
 20
-0.1944315529852449
 30
0.0
 10
-25.40000000000002
 20
0.1644303749897329
 30
0.0
 10
-25.40000000000002
 20
0.873067310796305
 30
0.0
 10
-25.40000000000002
 20
1.22246472724165
 30
0.0
 10
-25.40000000000002
 20
1.878747853812413
 30
0.0
 10
-25.40000000000002
 20
2.185398101387728
 30
0.0
 10
-25.40000000000002
 20
2.459914335284379
 30
0.0
  0
SPLINE
  5
234
330
1F
100
AcDbEntity
  8
외형선
  6
Continuous
370
    15
100
AcDbSpline
210
0.0
220
0.0
230
1.0
 70
    24
 71
     3
 72
    10
 73
     6
 74
     0
 42
0.000000001
 43
0.00000001
 40
0.0
 40
0.0
 40
0.0
 40
0.0
 40
0.4535879491363562
 40
0.7849722667810168
 40
1.0
 40
1.0
 40
1.0
 40
1.0
 10
-25.40000000000003
 20
2.459914335284381
 30
0.0
 10
-25.40000000000003
 20
2.591990615528744
 30
0.0
 10
-25.40000000000003
 20
2.820559776788043
 30
0.0
 10
-25.40000000000003
 20
2.958776460257079
 30
0.0
 10
-25.40000000000003
 20
2.956804487135031
 30
0.0
 10
-25.40000000000003
 20
2.956028463052595
 30
0.0
  0
SPLINE
  5
235
330
1F
100
AcDbEntity
  8
외형선
  6
Continuous
370
    15
100
AcDbSpline
210
0.0
220
0.0
230
1.0
 70
     8
 71
     3
 72
     8
 73
     4
 74
     0
 42
0.000000001
 43
0.00000001
 40
0.0
 40
0.0
 40
0.0
 40
0.0
 40
1.0
 40
1.0
 40
1.0
 40
1.0
 10
-25.40000000000003
 20
3.04039486597388
 30
0.0
 10
-25.06883887041263
 20
3.153846002957215
 30
0.0
 10
-24.73355857989006
 20
3.255887926041119
 30
0.0
 10
-24.40000000000003
 20
3.344651942907708
 30
0.0
  0
LINE
  5
236
330
1F
100
AcDbEntity
  8
외형선
  6
Continuous
370
    15
100
AcDbLine
 10
-25.40000000000003
 20
3.010919352456899
 30
0.0
 11
-25.40000000000003
 21
3.040394865958744
 31
0.0
  0
SPLINE
  5
237
330
1F
100
AcDbEntity
  8
0
  6
Continuous
 62
     1
370
    15
100
AcDbSpline
210
0.0
220
0.0
230
1.0
 70
     8
 71
     3
 72
    36
 73
    32
 74
     0
 42
0.000000001
 43
0.00000001
 40
0.0
 40
0.0
 40
0.0
 40
0.0
 40
0.0625
 40
0.0625
 40
0.125
 40
0.125
 40
0.1875
 40
0.1875
 40
0.25
 40
0.25
 40
0.3125
 40
0.3125
 40
0.375
 40
0.375
 40
0.4375
 40
0.4375
 40
0.5
 40
0.5
 40
0.5625
 40
0.5625
 40
0.625
 40
0.625
 40
0.6875
 40
0.6875
 40
0.75
 40
0.75
 40
0.8125
 40
0.8125
 40
0.875
 40
0.875
 40
1.0
 40
1.0
 40
1.0
 40
1.0
 10
-39.68750000000003
 20
3.767125889295523
 30
0.0
 10
-39.39200319196593
 20
3.760078763743149
 30
0.0
 10
-39.0928243128713
 20
3.741264178143078
 30
0.0
 10
-38.49542554678833
 20
3.680374935453079
 30
0.0
 10
-38.1994510753332
 20
3.638445851653209
 30
0.0
 10
-37.60548510087914
 20
3.53218229229544
 30
0.0
 10
-37.30577831951794
 20
3.467679736099301
 30
0.0
 10
-36.70928890112897
 20
3.317643695422083
 30
0.0
 10
-36.41457687163877
 20
3.232372149745013
 30
0.0
 10
-35.81853053425166
 20
3.041623985843499
 30
0.0
 10
-35.51875561380743
 20
2.936234537726961
 30
0.0
 10
-34.92408028229752
 20
2.708413304711527
 30
0.0
 10
-34.62868235882944
 20
2.585979689054387
 30
0.0
 10
-34.03145815529756
 20
2.324870866945311
 30
0.0
 10
-33.73207520892845
 20
2.186502870029589
 30
0.0
 10
-33.14010953542881
 20
1.898125717618392
 30
0.0
 10
-32.84208084399815
 20
1.747247851745188
 30
0.0
 10
-32.24458723668016
 20
1.435267501995753
 30
0.0
 10
-31.9478659681754
 20
1.274660687547311
 30
0.0
 10
-31.35468755020483
 20
0.946591380189572
 30
0.0
 10
-31.05508921494765
 20
0.7785350245304965
 30
0.0
 10
-30.45823603267978
 20
0.4390405811801212
 30
0.0
 10
-30.16335319542001
 20
0.2680714146171148
 30
0.0
 10
-29.56782905948673
 20
-0.0755697349545041
 30
0.0
 10
-29.26802633767567
 20
-0.2480813969473648
 30
0.0
 10
-28.67272016214358
 20
-0.589664919093634
 30
0.0
 10
-28.37772828252552
 20
-0.7586478635796379
 30
0.0
 10
-27.78075828521163
 20
-1.092155220397165
 30
0.0
 10
-27.48121143282598
 20
-1.256200155584684
 30
0.0
 10
-26.59192081277511
 20
-1.733411315889107
 30
0.0
 10
-25.99231300970071
 20
-2.034913113233054
 30
0.0
 10
-25.40000000000003
 20
-2.306359576090427
 30
0.0
1001
PE_URL
1000

  0
SPLINE
  5
238
330
1F
100
AcDbEntity
  8
0
  6
Continuous
 62
     1
370
    15
100
AcDbSpline
210
0.0
220
0.0
230
1.0
 70
     8
 71
     3
 72
    11
 73
     7
 74
     0
 42
0.000000001
 43
0.00000001
 40
0.0
 40
0.0
 40
0.0
 40
0.0
 40
0.0408954466853412
 40
0.3605967777094435
 40
0.6802982949124254
 40
1.0
 40
1.0
 40
1.0
 40
1.0
 10
-30.31619091639096
 20
0.3553873972650674
 30
0.0
 10
-30.24917431644353
 20
0.3290996703854994
 30
0.0
 10
-29.65825351834045
 20
0.0973068823273611
 30
0.0
 10
-28.54342812696011
 20
-0.3613407438962035
 30
0.0
 10
-26.97171443472455
 20
-0.9831479754053731
 30
0.0
 10
-25.9239049142056
 20
-1.345893422359117
 30
0.0
 10
-25.40000000000003
 20
-1.527266199131217
 30
0.0
1001
PE_URL
1000

  0
SPLINE
  5
239
330
1F
100
AcDbEntity
  8
외형선
  6
Continuous
370
    15
100
AcDbSpline
210
0.0
220
0.0
230
1.0
 70
    24
 71
     3
 72
    10
 73
     6
 74
     0
 42
0.000000001
 43
0.00000001
 40
0.0
 40
0.0
 40
0.0
 40
0.0
 40
0.5
 40
0.5
 40
1.0
 40
1.0
 40
1.0
 40
1.0
 10
-25.40000000000003
 20
-2.306359576090427
 30
0.0
 10
-25.40000000000003
 20
-2.236494727270854
 30
0.0
 10
-25.40000000000003
 20
-2.128288999355965
 30
0.0
 10
-25.40000000000003
 20
-1.857161914882557
 30
0.0
 10
-25.40000000000003
 20
-1.695174844798951
 30
0.0
 10
-25.40000000000003
 20
-1.527266199131217
 30
0.0
  0
SPLINE
  5
23A
330
1F
100
AcDbEntity
  8
0
  6
Continuous
 62
     1
370
    15
100
AcDbSpline
210
0.0
220
0.0
230
1.0
 70
     8
 71
     3
 72
    36
 73
    32
 74
     0
 42
0.000000001
 43
0.00000001
 40
0.0
 40
0.0
 40
0.0
 40
0.0
 40
0.0625
 40
0.0625
 40
0.125
 40
0.125
 40
0.1874999999999999
 40
0.1874999999999999
 40
0.2499999999999999
 40
0.2499999999999999
 40
0.3124999999999999
 40
0.3124999999999999
 40
0.3749999999999999
 40
0.3749999999999999
 40
0.4374999999999999
 40
0.4374999999999999
 40
0.4999999999999999
 40
0.4999999999999999
 40
0.5624999999999999
 40
0.5624999999999999
 40
0.6249999999999999
 40
0.6249999999999999
 40
0.6874999999999999
 40
0.6874999999999999
 40
0.7499999999999998
 40
0.7499999999999998
 40
0.8124999999999998
 40
0.8124999999999998
 40
0.8749999999999999
 40
0.8749999999999999
 40
1.0
 40
1.0
 40
1.0
 40
1.0
 10
-39.68750000000003
 20
3.577803621025906
 30
0.0
 10
-39.39200319196581
 20
3.523722086747593
 30
0.0
 10
-39.09282431287107
 20
3.458268295039073
 30
0.0
 10
-38.4954255467879
 20
3.306209428687065
 30
0.0
 10
-38.19945107533268
 20
3.219859917005074
 30
0.0
 10
-37.60548510087838
 20
3.027528445097643
 30
0.0
 10
-37.30577831951707
 20
2.921304189143537
 30
0.0
 10
-36.70928890112791
 20
2.691628970118524
 30
0.0
 10
-36.41457687163761
 20
2.568517813171507
 30
0.0
 10
-35.81853053425027
 20
2.306174695355592
 30
0.0
 10
-35.51875561380592
 20
2.16711073554468
 30
0.0
 10
-34.92408028229582
 20
1.877116920640445
 30
0.0
 10
-34.62868235882763
 20
1.726150649041326
 30
0.0
 10
-34.03145815529551
 20
1.413310097145024
 30
0.0
 10
-33.7320752089263
 20
1.25183362690219
 30
0.0
 10
-33.14010953542649
 20
0.9233488760770463
 30
0.0
 10
-32.84208084399566
 20
0.7553428794879977
 30
0.0
 10
-32.24458723667746
 20
0.4153841565175735
 30
0.0
 10
-31.94786596817265
 20
0.2439629534691896
 30
0.0
 10
-31.35468755020183
 20
-0.0992756270240935
 30
0.0
 10
-31.05508921494453
 20
-0.2716989475210827
 30
0.0
 10
-30.45823603267646
 20
-0.6133299114642661
 30
0.0
 10
-30.1633531954166
 20
-0.7820916800917743
 30
0.0
 10
-29.56782905948307
 20
-1.11479078575881
 30
0.0
 10
-29.2680263376719
 20
-1.278547224244974
 30
0.0
 10
-28.67272016213964
 20
-1.596298984154771
 30
0.0
 10
-28.37772828252145
 20
-1.750236773317054
 30
0.0
 10
-27.78075828520732
 20
-2.047451771568461
 30
0.0
 10
-27.48121143282157
 20
-2.190275890028744
 30
0.0
 10
-26.59192081277048
 20
-2.595550338499615
 30
0.0
 10
-25.99231300969588
 20
-2.837476774458546
 30
0.0
 10
-25.39999999999492
 20
-3.040394865975637
 30
0.0
1001
PE_URL
1000

  0
SPLINE
  5
23B
330
1F
100
AcDbEntity
  8
0
  6
Continuous
 62
     1
370
    15
100
AcDbSpline
210
0.0
220
0.0
230
1.0
 70
     8
 71
     3
 72
    15
 73
    11
 74
     0
 42
0.000000001
 43
0.00000001
 40
0.0
 40
0.0
 40
0.0
 40
0.0
 40
0.134718072737411
 40
0.2693236628938381
 40
0.4038720907056055
 40
0.5384191119295425
 40
0.673020493054946
 40
0.8077315863444202
 40
0.9424563527999821
 40
1.0
 40
1.0
 40
1.0
 40
1.0
 10
-39.68750000000003
 20
2.974671990500799
 30
0.0
 10
-39.24803105109
 20
2.882796674062234
 30
0.0
 10
-38.36946008697548
 20
2.699122752293807
 30
0.0
 10
-37.05220174833698
 20
2.281701889566861
 30
0.0
 10
-35.73556815810215
 20
1.780437024770508
 30
0.0
 10
-34.41895181966767
 20
1.204839460194979
 30
0.0
 10
-33.10173627606191
 20
0.5802427314592045
 30
0.0
 10
-31.78373738306433
 20
-0.0655299744943143
 30
0.0
 10
-30.71704752183502
 20
-0.5930805615367856
 30
0.0
 10
-30.08994697574542
 20
-0.8823174031989218
 30
0.0
 10
-29.90226324810121
 20
-0.9688825464661264
 30
0.0
1001
PE_URL
1000

  0
LINE
  5
23C
330
1F
100
AcDbEntity
  8
0
  6
Continuous
 62
     1
370
    15
100
AcDbLine
 10
-39.68749999999996
 20
3.577803621025907
 30
0.0
 11
-39.68750000000003
 21
2.974671990500799
 31
0.0
1001
PE_URL
1000

  0
LINE
  5
23D
330
1F
100
AcDbEntity
  8
0
  6
Continuous
 62
     1
370
    15
100
AcDbLine
 10
-39.68750000000003
 20
3.767125889295526
 30
0.0
 11
-39.68749999999994
 21
3.577803621025902
 31
0.0
1001
PE_URL
1000

  0
SPLINE
  5
23E
330
1F
100
AcDbEntity
  8
0
  6
Continuous
 62
     1
370
    15
100
AcDbSpline
210
0.0
220
0.0
230
1.0
 70
     8
 71
     3
 72
     8
 73
     4
 74
     0
 42
0.000000001
 43
0.00000001
 40
0.0
 40
0.0
 40
0.0
 40
0.0
 40
1.0
 40
1.0
 40
1.0
 40
1.0
 10
-37.35435385320547
 20
-1.054889705943387
 30
0.0
 10
-37.2203951279898
 20
-1.21360889081766
 30
0.0
 10
-37.10092203757047
 20
-1.366271020008691
 30
0.0
 10
-36.99930843857582
 20
-1.511465341571366
 30
0.0
1001
PE_URL
1000

  0
LINE
  5
23F
330
1F
100
AcDbEntity
  8
0
  6
Continuous
 62
     1
370
    15
100
AcDbLine
 10
-37.04694835472857
 20
-1.551439977643666
 30
0.0
 11
-39.68750000000003
 21
0.0000000000000053
 31
0.0
1001
PE_URL
1000

  0
LINE
  5
240
330
1F
100
AcDbEntity
  8
0
  6
Continuous
 62
     1
370
    15
100
AcDbLine
 10
-39.68750000000003
 20
0.0000000000000053
 30
0.0
 11
-39.68750000000003
 21
1.007589419952401
 31
0.0
1001
PE_URL
1000

  0
SPLINE
  5
241
330
1F
100
AcDbEntity
  8
0
  6
Continuous
 62
     1
370
    15
100
AcDbSpline
210
0.0
220
0.0
230
1.0
 70
     8
 71
     3
 72
    10
 73
     6
 74
     0
 42
0.000000001
 43
0.00000001
 40
0.0
 40
0.0
 40
0.0
 40
0.0
 40
0.5
 40
0.5
 40
1.0
 40
1.0
 40
1.0
 40
1.0
 10
-39.68750000000003
 20
1.007589419952401
 30
0.0
 10
-39.28362133474627
 20
0.6900718894591922
 30
0.0
 10
-38.88649062619398
 20
0.3595337520351176
 30
0.0
 10
-38.10606717052664
 20
-0.3282437398732565
 30
0.0
 10
-37.71913268034051
 20
-0.6890917393065568
 30
0.0
 10
-37.35435385320547
 20
-1.054889705943387
 30
0.0
1001
PE_URL
1000

  0
SPLINE
  5
242
330
1F
100
AcDbEntity
  8
0
  6
Continuous
 62
     1
370
    15
100
AcDbSpline
210
0.0
220
0.0
230
1.0
 70
     8
 71
     3
 72
    13
 73
     9
 74
     0
 42
0.000000001
 43
0.00000001
 40
0.0
 40
0.0
 40
0.0
 40
0.0
 40
0.1927664293130478
 40
0.3855308366207336
 40
0.5782900880013472
 40
0.7710410549345512
 40
0.9224274423144676
 40
0.9999999999999999
 40
0.9999999999999999
 40
0.9999999999999999
 40
0.9999999999999999
 10
-37.35435385320548
 20
-1.054889705943381
 30
0.0
 10
-36.7963501375597
 20
-1.289633497111661
 30
0.0
 10
-35.68034855939575
 20
-1.759118617125258
 30
0.0
 10
-34.00635130659825
 20
-2.329357011046636
 30
0.0
 10
-32.3324637337943
 20
-2.754713854896753
 30
0.0
 10
-30.77815377941188
 20
-2.973108090337606
 30
0.0
 10
-29.55785333487545
 20
-3.039201277823004
 30
0.0
 10
-28.8952690264567
 20
-2.995537801665208
 30
0.0
 10
-28.67078179591129
 20
-2.980744374301917
 30
0.0
1001
PE_URL
1000

  0
SPLINE
  5
243
330
1F
100
AcDbEntity
  8
0
  6
Continuous
 62
     1
370
    15
100
AcDbSpline
210
0.0
220
0.0
230
1.0
 70
    24
 71
     3
 72
    10
 73
     6
 74
     0
 42
0.000000001
 43
0.00000001
 40
0.0
 40
0.0
 40
0.0
 40
0.0
 40
0.5000000000000001
 40
0.5000000000000001
 40
1.0
 40
1.0
 40
1.0
 40
1.0
 10
-39.68750000000003
 20
2.974671990500799
 30
0.0
 10
-39.68750000000003
 20
2.746640190103417
 30
0.0
 10
-39.68750000000003
 20
2.458513266666115
 30
0.0
 10
-39.68750000000003
 20
1.788645898797805
 30
0.0
 10
-39.68750000000003
 20
1.4074857188794
 30
0.0
 10
-39.68750000000003
 20
1.007589419952524
 30
0.0
1001
PE_URL
1000

  0
SPLINE
  5
244
330
1F
100
AcDbEntity
  8
0
  6
Continuous
 62
     1
370
    15
100
AcDbSpline
210
0.0
220
0.0
230
1.0
 70
    24
 71
     3
 72
     8
 73
     4
 74
     0
 42
0.000000001
 43
0.00000001
 40
0.0
 40
0.0
 40
0.0
 40
0.0
 40
1.0
 40
1.0
 40
1.0
 40
1.0
 10
-37.39269080628793
 20
-1.841552341229457
 30
0.0
 10
-37.26842522674305
 20
-1.737281139265315
 30
0.0
 10
-37.13652309682099
 20
-1.626602110696089
 30
0.0
 10
-36.99930843857628
 20
-1.511465341570824
 30
0.0
1001
PE_URL
1000

  0
LINE
  5
245
330
1F
100
AcDbEntity
  8
0
  6
Continuous
 62
     1
370
    15
100
AcDbLine
 10
-39.68750000000003
 20
-2.639218749999992
 30
0.0
 11
-38.28414358092355
 21
-2.570072701477647
 31
0.0
1001
PE_URL
1000

  0
SPLINE
  5
246
330
1F
100
AcDbEntity
  8
0
  6
Continuous
 62
     1
370
    15
100
AcDbSpline
210
0.0
220
0.0
230
1.0
 70
     8
 71
     3
 72
    10
 73
     6
 74
     0
 42
0.000000001
 43
0.00000001
 40
0.0
 40
0.0
 40
0.0
 40
0.0
 40
0.5
 40
0.5
 40
1.0
 40
1.0
 40
1.0
 40
1.0
 10
-39.68750000000003
 20
-2.639218749999994
 30
0.0
 10
-39.29973347095532
 20
-2.534009121154805
 30
0.0
 10
-38.91406243841762
 20
-2.415904570409888
 30
0.0
 10
-38.14838042091201
 20
-2.151638057665416
 30
0.0
 10
-37.7681355681876
 20
-2.005895747589669
 30
0.0
 10
-37.39269080628793
 20
-1.841552341229461
 30
0.0
1001
PE_URL
1000

  0
SPLINE
  5
247
330
1F
100
AcDbEntity
  8
0
  6
Continuous
 62
     1
370
    15
100
AcDbSpline
210
0.0
220
0.0
230
1.0
 70
     8
 71
     3
 72
    12
 73
     8
 74
     0
 42
0.000000001
 43
0.00000001
 40
0.0
 40
0.0
 40
0.0
 40
0.0
 40
0.1665589632013622
 40
0.3748729610013313
 40
0.5831578254291921
 40
0.7915036366862597
 40
1.0
 40
1.0
 40
1.0
 40
1.0
 10
-31.70968018103386
 20
2.812283483032671
 30
0.0
 10
-31.35927977703761
 20
2.869490448085937
 30
0.0
 10
-30.5706363173438
 20
2.998245718695371
 30
0.0
 10
-29.3443184295704
 20
3.033331268974942
 30
0.0
 10
-28.03001313577166
 20
2.96690042891743
 30
0.0
 10
-26.71532337085577
 20
2.782217172902538
 30
0.0
 10
-25.83854667958373
 20
2.56737447960303
 30
0.0
 10
-25.40000000000003
 20
2.459914335284381
 30
0.0
1001
PE_URL
1000

  0
SPLINE
  5
248
330
1F
100
AcDbEntity
  8
외형선
  6
Continuous
370
    15
100
AcDbSpline
210
0.0
220
0.0
230
1.0
 70
    24
 71
     3
 72
    14
 73
    10
 74
     0
 42
0.000000001
 43
0.00000001
 40
0.0
 40
0.0
 40
0.0
 40
0.0
 40
0.25
 40
0.25
 40
0.5
 40
0.5
 40
0.75
 40
0.75
 40
1.0
 40
1.0
 40
1.0
 40
1.0
 10
-25.40000000000002
 20
-1.527266199131221
 30
0.0
 10
-25.40000000000002
 20
-1.219975457332719
 30
0.0
 10
-25.40000000000002
 20
-0.8867775265287392
 30
0.0
 10
-25.40000000000002
 20
-0.1944315529852449
 30
0.0
 10
-25.40000000000002
 20
0.1644303749897329
 30
0.0
 10
-25.40000000000002
 20
0.873067310796305
 30
0.0
 10
-25.40000000000002
 20
1.22246472724165
 30
0.0
 10
-25.40000000000002
 20
1.878747853812413
 30
0.0
 10
-25.40000000000002
 20
2.185398101387728
 30
0.0
 10
-25.40000000000002
 20
2.459914335284379
 30
0.0
  0
LINE
  5
249
330
1F
100
AcDbEntity
  8
0
  6
Continuous
 62
     1
370
    15
100
AcDbLine
 10
-39.68750000000003
 20
0.0000000000000053
 30
0.0
 11
-39.68750000000003
 21
-2.639218749999994
 31
0.0
1001
PE_URL
1000

  0
SPLINE
  5
24A
330
1F
100
AcDbEntity
  8
외형선
  6
Continuous
370
    15
100
AcDbSpline
210
0.0
220
0.0
230
1.0
 70
    24
 71
     3
 72
    10
 73
     6
 74
     0
 42
0.000000001
 43
0.00000001
 40
0.0
 40
0.0
 40
0.0
 40
0.0
 40
0.4541987330395792
 40
0.7860292799268452
 40
1.0
 40
1.0
 40
1.0
 40
1.0
 10
-25.40000000000003
 20
2.459914335284381
 30
0.0
 10
-25.40000000000003
 20
2.591980710033297
 30
0.0
 10
-25.40000000000003
 20
2.82053272899587
 30
0.0
 10
-25.40000000000003
 20
2.958654962332027
 30
0.0
 10
-25.40000000000003
 20
2.956724693277724
 30
0.0
 10
-25.40000000000003
 20
2.955967969018392
 30
0.0
  0
SPLINE
  5
24B
330
1F
100
AcDbEntity
  8
0
  6
Continuous
 62
     1
370
    15
100
AcDbSpline
210
0.0
220
0.0
230
1.0
 70
     8
 71
     3
 72
    12
 73
     8
 74
     0
 42
0.000000001
 43
0.00000001
 40
0.0
 40
0.0
 40
0.0
 40
0.0
 40
0.0293990446846377
 40
0.2720139380547059
 40
0.5145274871186917
 40
0.7571272973919906
 40
1.0
 40
1.0
 40
1.0
 40
1.0
 10
-34.50687779118239
 20
-2.527158917815088
 30
0.0
 10
-34.55765701251964
 20
-2.550386764805808
 30
0.0
 10
-35.02749050933778
 20
-2.765301847940453
 30
0.0
 10
-35.91588402192447
 20
-3.085343004049152
 30
0.0
 10
-37.17243291496689
 20
-3.45411090678088
 30
0.0
 10
-38.42944699940037
 20
-3.696517009157725
 30
0.0
 10
-39.26799187969958
 20
-3.743580777468738
 30
0.0
 10
-39.68750000000004
 20
-3.767125889295507
 30
0.0
1001
PE_URL
1000

  0
SPLINE
  5
24C
330
1F
100
AcDbEntity
  8
0
  6
Continuous
 62
     1
370
    15
100
AcDbSpline
210
0.0
220
0.0
230
1.0
 70
    24
 71
     3
 72
    10
 73
     6
 74
     0
 42
0.000000001
 43
0.00000001
 40
0.0
 40
0.0
 40
0.0
 40
0.0
 40
0.5
 40
0.5
 40
1.0
 40
1.0
 40
1.0
 40
1.0
 10
-39.68750000000003
 20
-2.639218749999992
 30
0.0
 10
-39.68750000000004
 20
-2.799201618243817
 30
0.0
 10
-39.68750000000003
 20
-2.985116527150545
 30
0.0
 10
-39.68750000000003
 20
-3.375165505310218
 30
0.0
 10
-39.68750000000003
 20
-3.578303438420232
 30
0.0
 10
-39.68750000000003
 20
-3.76712588929551
 30
0.0
1001
PE_URL
1000

  0
LINE
  5
24D
330
1F
100
AcDbEntity
  8
0
  6
Continuous
 62
     1
370
    15
100
AcDbLine
 10
-25.59916784179461
 20
2.963935162802793
 30
0.0
 11
-25.39999999999491
 21
3.040394865975632
 31
0.0
1001
PE_URL
1000

  0
LINE
  5
24E
330
1F
100
AcDbEntity
  8
외형선
  6
Continuous
370
    15
100
AcDbLine
 10
-25.40000000000003
 20
3.010919352456897
 30
0.0
 11
-25.40000000000003
 21
3.040394865958744
 31
0.0
  0
LINE
  5
250
330
1F
100
AcDbEntity
  8
외형선
  6
Continuous
370
    15
100
AcDbLine
 10
-4.83870000000006
 20
4.762499999999995
 30
0.0
 11
-20.6971058393653
 21
4.762499999999994
 31
0.0
  0
ENDSEC
  0
SECTION
  2
OBJECTS
  0
DICTIONARY
  5
C
330
0
100
AcDbDictionary
281
     1
  3
ACAD_DETAILVIEWSTYLE
350
1E5
  3
ACAD_GROUP
350
D
  3
ACAD_LAYOUT
350
1A
  3
ACAD_MLINESTYLE
350
17
  3
ACAD_PLOTSETTINGS
350
19
  3
ACAD_PLOTSTYLENAME
350
E
  3
ACAD_SCALELIST
350
47
  3
ACAD_SECTIONVIEWSTYLE
350
1E6
  3
AcDbVariableDictionary
350
1E0
  3
APPDATA
350
157
  3
DWGPROPS
350
251
  0
DICTIONARY
  5
190
330
2
100
AcDbDictionary
280
     1
281
     1
  3
ACAD_LAYERSTATES
360
191
  0
DICTIONARY
  5
1E5
102
{ACAD_REACTORS
330
C
102
}
330
C
100
AcDbDictionary
281
     1
  0
DICTIONARY
  5
D
102
{ACAD_REACTORS
330
C
102
}
330
C
100
AcDbDictionary
281
     1
  0
DICTIONARY
  5
1A
102
{ACAD_REACTORS
330
C
102
}
330
C
100
AcDbDictionary
281
     1
  3
Layout1
350
1E
  3
Layout2
350
26
  3
Model
350
22
  0
DICTIONARY
  5
17
102
{ACAD_REACTORS
330
C
102
}
330
C
100
AcDbDictionary
281
     1
  3
Standard
350
18
  0
DICTIONARY
  5
19
102
{ACAD_REACTORS
330
C
102
}
330
C
100
AcDbDictionary
281
     1
  0
ACDBDICTIONARYWDFLT
  5
E
102
{ACAD_REACTORS
330
C
102
}
330
C
100
AcDbDictionary
281
     1
  3
Normal
350
F
100
AcDbDictionaryWithDefault
340
F
  0
DICTIONARY
  5
47
102
{ACAD_REACTORS
330
C
102
}
330
C
100
AcDbDictionary
281
     1
  3
A0
350
48
  3
A1
350
49
  3
A2
350
4A
  3
A3
350
4B
  3
A4
350
4C
  3
A5
350
4D
  3
A6
350
4E
  3
A7
350
4F
  3
A8
350
50
  3
A9
350
51
  3
B0
350
52
  3
B1
350
53
  3
B2
350
54
  3
B3
350
55
  3
B4
350
56
  3
B5
350
57
  3
B6
350
58
  3
B7
350
59
  3
B8
350
5A
  3
B9
350
5B
  3
C0
350
5C
  3
C1
350
5D
  3
C2
350
5E
  3
C3
350
5F
  3
C4
350
60
  3
C5
350
61
  3
C6
350
62
  3
C7
350
63
  3
C8
350
64
  3
C9
350
65
  3
D0
350
66
  3
D1
350
67
  3
D2
350
68
  0
DICTIONARY
  5
1E6
102
{ACAD_REACTORS
330
C
102
}
330
C
100
AcDbDictionary
281
     1
  0
DICTIONARY
  5
1E0
102
{ACAD_REACTORS
330
C
102
}
330
C
100
AcDbDictionary
281
     1
  0
DICTIONARY
  5
157
102
{ACAD_REACTORS
330
C
102
}
330
C
100
AcDbDictionary
281
     1
  0
XRECORD
  5
251
102
{ACAD_REACTORS
330
C
102
}
330
C
100
AcDbXrecord
280
     1
  1
DWGPROPS COOKIE
  2

  3

  4

  6

  7

  8
120170442
  9

300
=
301
=
302
=
303
=
304
=
305
=
306
=
307
=
308
=
309
=
 40
0.0
 41
2458313.021100012
 42
2458324.006824352
  1

 90
        0
  0
DICTIONARY
  5
191
102
{ACAD_REACTORS
330
190
102
}
330
190
100
AcDbDictionary
281
     1
  0
LAYOUT
  5
1E
102
{ACAD_REACTORS
330
1A
102
}
330
1A
100
AcDbPlotSettings
  1

  2
none_device
  4

  6

 40
0.0
 41
0.0
 42
0.0
 43
0.0
 44
0.0
 45
0.0
 46
0.0
 47
0.0
 48
0.0
 49
0.0
140
0.0
141
0.0
142
1.0
143
1.0
 70
   688
 72
     1
 73
     0
 74
     5
  7

 75
    16
147
1.0
148
0.0
149
0.0
100
AcDbLayout
  1
Layout1
 70
     1
 71
     1
 10
0.0
 20
0.0
 11
420.0
 21
297.0
 12
0.0
 22
0.0
 32
0.0
 14
1.000000000000000E+20
 24
1.000000000000000E+20
 34
1.000000000000000E+20
 15
-1.000000000000000E+20
 25
-1.000000000000000E+20
 35
-1.000000000000000E+20
146
0.0
 13
0.0
 23
0.0
 33
0.0
 16
1.0
 26
0.0
 36
0.0
 17
0.0
 27
1.0
 37
0.0
 76
     0
330
1B
  0
LAYOUT
  5
26
102
{ACAD_REACTORS
330
1A
102
}
330
1A
100
AcDbPlotSettings
  1

  2
none_device
  4

  6

 40
0.0
 41
0.0
 42
0.0
 43
0.0
 44
0.0
 45
0.0
 46
0.0
 47
0.0
 48
0.0
 49
0.0
140
0.0
141
0.0
142
1.0
143
1.0
 70
   688
 72
     1
 73
     0
 74
     5
  7

 75
    16
147
1.0
148
0.0
149
0.0
100
AcDbLayout
  1
Layout2
 70
     1
 71
     2
 10
0.0
 20
0.0
 11
0.0
 21
0.0
 12
0.0
 22
0.0
 32
0.0
 14
0.0
 24
0.0
 34
0.0
 15
0.0
 25
0.0
 35
0.0
146
0.0
 13
0.0
 23
0.0
 33
0.0
 16
1.0
 26
0.0
 36
0.0
 17
0.0
 27
1.0
 37
0.0
 76
     0
330
23
  0
LAYOUT
  5
22
102
{ACAD_REACTORS
330
1A
102
}
330
1A
100
AcDbPlotSettings
  1

  2
none_device
  4
ANSI_A_(11.00_x_8.50_Inches)
  6

 40
6.35
 41
19.05
 42
6.35000508
 43
19.05000254
 44
279.4
 45
215.9
 46
82.27280351928638
 47
59.66783402256612
 48
0.0
 49
0.0
140
0.0
141
0.0
142
0.043973426372403
143
1.0
 70
  1696
 72
     0
 73
     0
 74
     0
  7

 75
     0
147
0.0235690232323232
148
0.0
149
0.0
100
AcDbLayout
  1
Model
 70
     1
 71
     0
 10
0.0
 20
0.0
 11
420.0
 21
297.0
 12
0.0
 22
0.0
 32
0.0
 14
-54.06250000000009
 24
-49.97180738881175
 34
0.0
 15
96.20662503295506
 25
40.99612588929558
 35
0.0
146
0.0
 13
0.0
 23
0.0
 33
0.0
 16
1.0
 26
0.0
 36
0.0
 17
0.0
 27
1.0
 37
0.0
 76
     0
330
1F
331
29
  0
MLINESTYLE
  5
18
102
{ACAD_REACTORS
330
17
102
}
330
17
100
AcDbMlineStyle
  2
Standard
 70
     0
  3

 62
   256
 51
90.0
 52
90.0
 71
     2
 49
0.5
 62
   256
  6
BYLAYER
 49
-0.5
 62
   256
  6
BYLAYER
  0
ACDBPLACEHOLDER
  5
F
102
{ACAD_REACTORS
330
E
102
}
330
E
  0
SCALE
  5
48
102
{ACAD_REACTORS
330
47
102
}
330
47
100
AcDbScale
 70
     0
300
1:1
140
1.0
141
1.0
290
     1
  0
SCALE
  5
49
102
{ACAD_REACTORS
330
47
102
}
330
47
100
AcDbScale
 70
     0
300
1:2
140
1.0
141
2.0
290
     0
  0
SCALE
  5
4A
102
{ACAD_REACTORS
330
47
102
}
330
47
100
AcDbScale
 70
     0
300
1:4
140
1.0
141
4.0
290
     0
  0
SCALE
  5
4B
102
{ACAD_REACTORS
330
47
102
}
330
47
100
AcDbScale
 70
     0
300
1:5
140
1.0
141
5.0
290
     0
  0
SCALE
  5
4C
102
{ACAD_REACTORS
330
47
102
}
330
47
100
AcDbScale
 70
     0
300
1:8
140
1.0
141
8.0
290
     0
  0
SCALE
  5
4D
102
{ACAD_REACTORS
330
47
102
}
330
47
100
AcDbScale
 70
     0
300
1:10
140
1.0
141
10.0
290
     0
  0
SCALE
  5
4E
102
{ACAD_REACTORS
330
47
102
}
330
47
100
AcDbScale
 70
     0
300
1:16
140
1.0
141
16.0
290
     0
  0
SCALE
  5
4F
102
{ACAD_REACTORS
330
47
102
}
330
47
100
AcDbScale
 70
     0
300
1:20
140
1.0
141
20.0
290
     0
  0
SCALE
  5
50
102
{ACAD_REACTORS
330
47
102
}
330
47
100
AcDbScale
 70
     0
300
1:30
140
1.0
141
30.0
290
     0
  0
SCALE
  5
51
102
{ACAD_REACTORS
330
47
102
}
330
47
100
AcDbScale
 70
     0
300
1:40
140
1.0
141
40.0
290
     0
  0
SCALE
  5
52
102
{ACAD_REACTORS
330
47
102
}
330
47
100
AcDbScale
 70
     0
300
1:50
140
1.0
141
50.0
290
     0
  0
SCALE
  5
53
102
{ACAD_REACTORS
330
47
102
}
330
47
100
AcDbScale
 70
     0
300
1:100
140
1.0
141
100.0
290
     0
  0
SCALE
  5
54
102
{ACAD_REACTORS
330
47
102
}
330
47
100
AcDbScale
 70
     0
300
2:1
140
2.0
141
1.0
290
     0
  0
SCALE
  5
55
102
{ACAD_REACTORS
330
47
102
}
330
47
100
AcDbScale
 70
     0
300
4:1
140
4.0
141
1.0
290
     0
  0
SCALE
  5
56
102
{ACAD_REACTORS
330
47
102
}
330
47
100
AcDbScale
 70
     0
300
8:1
140
8.0
141
1.0
290
     0
  0
SCALE
  5
57
102
{ACAD_REACTORS
330
47
102
}
330
47
100
AcDbScale
 70
     0
300
10:1
140
10.0
141
1.0
290
     0
  0
SCALE
  5
58
102
{ACAD_REACTORS
330
47
102
}
330
47
100
AcDbScale
 70
     0
300
100:1
140
100.0
141
1.0
290
     0
  0
SCALE
  5
59
102
{ACAD_REACTORS
330
47
102
}
330
47
100
AcDbScale
 70
     0
300
1/128" = 1'-0"
140
0.0078125
141
12.0
290
     0
  0
SCALE
  5
5A
102
{ACAD_REACTORS
330
47
102
}
330
47
100
AcDbScale
 70
     0
300
1/64" = 1'-0"
140
0.015625
141
12.0
290
     0
  0
SCALE
  5
5B
102
{ACAD_REACTORS
330
47
102
}
330
47
100
AcDbScale
 70
     0
300
1/32" = 1'-0"
140
0.03125
141
12.0
290
     0
  0
SCALE
  5
5C
102
{ACAD_REACTORS
330
47
102
}
330
47
100
AcDbScale
 70
     0
300
1/16" = 1'-0"
140
0.0625
141
12.0
290
     0
  0
SCALE
  5
5D
102
{ACAD_REACTORS
330
47
102
}
330
47
100
AcDbScale
 70
     0
300
3/32" = 1'-0"
140
0.09375
141
12.0
290
     0
  0
SCALE
  5
5E
102
{ACAD_REACTORS
330
47
102
}
330
47
100
AcDbScale
 70
     0
300
1/8" = 1'-0"
140
0.125
141
12.0
290
     0
  0
SCALE
  5
5F
102
{ACAD_REACTORS
330
47
102
}
330
47
100
AcDbScale
 70
     0
300
3/16" = 1'-0"
140
0.1875
141
12.0
290
     0
  0
SCALE
  5
60
102
{ACAD_REACTORS
330
47
102
}
330
47
100
AcDbScale
 70
     0
300
1/4" = 1'-0"
140
0.25
141
12.0
290
     0
  0
SCALE
  5
61
102
{ACAD_REACTORS
330
47
102
}
330
47
100
AcDbScale
 70
     0
300
3/8" = 1'-0"
140
0.375
141
12.0
290
     0
  0
SCALE
  5
62
102
{ACAD_REACTORS
330
47
102
}
330
47
100
AcDbScale
 70
     0
300
1/2" = 1'-0"
140
0.5
141
12.0
290
     0
  0
SCALE
  5
63
102
{ACAD_REACTORS
330
47
102
}
330
47
100
AcDbScale
 70
     0
300
3/4" = 1'-0"
140
0.75
141
12.0
290
     0
  0
SCALE
  5
64
102
{ACAD_REACTORS
330
47
102
}
330
47
100
AcDbScale
 70
     0
300
1" = 1'-0"
140
1.0
141
12.0
290
     0
  0
SCALE
  5
65
102
{ACAD_REACTORS
330
47
102
}
330
47
100
AcDbScale
 70
     0
300
1-1/2" = 1'-0"
140
1.5
141
12.0
290
     0
  0
SCALE
  5
66
102
{ACAD_REACTORS
330
47
102
}
330
47
100
AcDbScale
 70
     0
300
3" = 1'-0"
140
3.0
141
12.0
290
     0
  0
SCALE
  5
67
102
{ACAD_REACTORS
330
47
102
}
330
47
100
AcDbScale
 70
     0
300
6" = 1'-0"
140
6.0
141
12.0
290
     0
  0
SCALE
  5
68
102
{ACAD_REACTORS
330
47
102
}
330
47
100
AcDbScale
 70
     0
300
1'-0" = 1'-0"
140
12.0
141
12.0
290
     0
  0
ENDSEC
  0
EOF
