  0
SECTION
  2
HEADER
  9
$ACADVER
  1
AC1015
  9
$ACADMAINTVER
 70
     6
  9
$DWGCODEPAGE
  3
ANSI_949
  9
$INSBASE
 10
0.0
 20
0.0
 30
0.0
  9
$EXTMIN
 10
-54.06250000000009
 20
-49.97180738881175
 30
0.0
  9
$EXTMAX
 10
97.79412503295507
 20
37.61649999999996
 30
0.0
  9
$LIMMIN
 10
0.0
 20
0.0
  9
$LIMMAX
 10
420.0
 20
297.0
  9
$ORTHOMODE
 70
     1
  9
$REGENMODE
 70
     1
  9
$FILLMODE
 70
     1
  9
$QTEXTMODE
 70
     0
  9
$MIRRTEXT
 70
     1
  9
$LTSCALE
 40
1.0
  9
$ATTMODE
 70
     1
  9
$TEXTSIZE
 40
3.5
  9
$TRACEWID
 40
1.0
  9
$TEXTSTYLE
  7
Standard
  9
$CLAYER
  8
0
  9
$CELTYPE
  6
ByLayer
  9
$CECOLOR
 62
   256
  9
$CELTSCALE
 40
1.0
  9
$DISPSILH
 70
     0
  9
$DIMSCALE
 40
1.0
  9
$DIMASZ
 40
3.302
  9
$DIMEXO
 40
1.0
  9
$DIMDLI
 40
3.75
  9
$DIMRND
 40
0.0
  9
$DIMDLE
 40
0.0
  9
$DIMEXE
 40
1.0
  9
$DIMTP
 40
0.0
  9
$DIMTM
 40
0.0
  9
$DIMTXT
 40
3.5
  9
$DIMCEN
 40
2.5
  9
$DIMTSZ
 40
0.0
  9
$DIMTOL
 70
     0
  9
$DIMLIM
 70
     0
  9
$DIMTIH
 70
     1
  9
$DIMTOH
 70
     1
  9
$DIMSE1
 70
     0
  9
$DIMSE2
 70
     0
  9
$DIMTAD
 70
     1
  9
$DIMZIN
 70
     0
  9
$DIMBLK
  1

  9
$DIMASO
 70
     1
  9
$DIMSHO
 70
     1
  9
$DIMPOST
  1

  9
$DIMAPOST
  1

  9
$DIMALT
 70
     0
  9
$DIMALTD
 70
     3
  9
$DIMALTF
 40
0.0393700787401575
  9
$DIMLFAC
 40
1.0
  9
$DIMTOFL
 70
     1
  9
$DIMTVP
 40
0.0
  9
$DIMTIX
 70
     0
  9
$DIMSOXD
 70
     0
  9
$DIMSAH
 70
     0
  9
$DIMBLK1
  1

  9
$DIMBLK2
  1

  9
$DIMSTYLE
  2
ISO-25
  9
$DIMCLRD
 70
     0
  9
$DIMCLRE
 70
     0
  9
$DIMCLRT
 70
     0
  9
$DIMTFAC
 40
1.0
  9
$DIMGAP
 40
1.524
  9
$DIMJUST
 70
     0
  9
$DIMSD1
 70
     0
  9
$DIMSD2
 70
     0
  9
$DIMTOLJ
 70
     0
  9
$DIMTZIN
 70
     0
  9
$DIMALTZ
 70
     0
  9
$DIMALTTZ
 70
     0
  9
$DIMUPT
 70
     0
  9
$DIMDEC
 70
     2
  9
$DIMTDEC
 70
     2
  9
$DIMALTU
 70
     2
  9
$DIMALTTD
 70
     3
  9
$DIMTXSTY
  7
Standard
  9
$DIMAUNIT
 70
     0
  9
$DIMADEC
 70
     2
  9
$DIMALTRND
 40
0.0
  9
$DIMAZIN
 70
     0
  9
$DIMDSEP
 70
    44
  9
$DIMATFIT
 70
     3
  9
$DIMFRAC
 70
     0
  9
$DIMLDRBLK
  1

  9
$DIMLUNIT
 70
     2
  9
$DIMLWD
 70
    -2
  9
$DIMLWE
 70
    -2
  9
$DIMTMOVE
 70
     0
  9
$LUNITS
 70
     2
  9
$LUPREC
 70
     2
  9
$SKETCHINC
 40
1.0
  9
$FILLETRAD
 40
10.0
  9
$AUNITS
 70
     0
  9
$AUPREC
 70
     2
  9
$MENU
  1
.
  9
$ELEVATION
 40
0.0
  9
$PELEVATION
 40
0.0
  9
$THICKNESS
 40
0.0
  9
$LIMCHECK
 70
     0
  9
$CHAMFERA
 40
0.0
  9
$CHAMFERB
 40
0.0
  9
$CHAMFERC
 40
0.0
  9
$CHAMFERD
 40
0.0
  9
$SKPOLY
 70
     0
  9
$TDCREATE
 40
2458313.395464456
  9
$TDUCREATE
 40
2458313.020464456
  9
$TDUPDATE
 40
2458324.350660579
  9
$TDUUPDATE
 40
2458323.975660579
  9
$TDINDWG
 40
0.0023830787
  9
$TDUSRTIMER
 40
0.0023830671
  9
$USRTIMER
 70
     1
  9
$ANGBASE
 50
0.0
  9
$ANGDIR
 70
     0
  9
$PDMODE
 70
     0
  9
$PDSIZE
 40
-1.0
  9
$PLINEWID
 40
0.0
  9
$SPLFRAME
 70
     0
  9
$SPLINETYPE
 70
     6
  9
$SPLINESEGS
 70
     8
  9
$HANDSEED
  5
257
  9
$SURFTAB1
 70
     6
  9
$SURFTAB2
 70
     6
  9
$SURFTYPE
 70
     6
  9
$SURFU
 70
     6
  9
$SURFV
 70
     6
  9
$UCSBASE
  2

  9
$UCSNAME
  2

  9
$UCSORG
 10
0.0
 20
0.0
 30
0.0
  9
$UCSXDIR
 10
1.0
 20
0.0
 30
0.0
  9
$UCSYDIR
 10
0.0
 20
1.0
 30
0.0
  9
$UCSORTHOREF
  2

  9
$UCSORTHOVIEW
 70
     0
  9
$UCSORGTOP
 10
0.0
 20
0.0
 30
0.0
  9
$UCSORGBOTTOM
 10
0.0
 20
0.0
 30
0.0
  9
$UCSORGLEFT
 10
0.0
 20
0.0
 30
0.0
  9
$UCSORGRIGHT
 10
0.0
 20
0.0
 30
0.0
  9
$UCSORGFRONT
 10
0.0
 20
0.0
 30
0.0
  9
$UCSORGBACK
 10
0.0
 20
0.0
 30
0.0
  9
$PUCSBASE
  2

  9
$PUCSNAME
  2

  9
$PUCSORG
 10
0.0
 20
0.0
 30
0.0
  9
$PUCSXDIR
 10
1.0
 20
0.0
 30
0.0
  9
$PUCSYDIR
 10
0.0
 20
1.0
 30
0.0
  9
$PUCSORTHOREF
  2

  9
$PUCSORTHOVIEW
 70
     0
  9
$PUCSORGTOP
 10
0.0
 20
0.0
 30
0.0
  9
$PUCSORGBOTTOM
 10
0.0
 20
0.0
 30
0.0
  9
$PUCSORGLEFT
 10
0.0
 20
0.0
 30
0.0
  9
$PUCSORGRIGHT
 10
0.0
 20
0.0
 30
0.0
  9
$PUCSORGFRONT
 10
0.0
 20
0.0
 30
0.0
  9
$PUCSORGBACK
 10
0.0
 20
0.0
 30
0.0
  9
$USERI1
 70
     0
  9
$USERI2
 70
     0
  9
$USERI3
 70
     0
  9
$USERI4
 70
     0
  9
$USERI5
 70
     0
  9
$USERR1
 40
0.0
  9
$USERR2
 40
0.0
  9
$USERR3
 40
0.0
  9
$USERR4
 40
0.0
  9
$USERR5
 40
0.0
  9
$WORLDVIEW
 70
     1
  9
$SHADEDGE
 70
     3
  9
$SHADEDIF
 70
    70
  9
$TILEMODE
 70
     1
  9
$MAXACTVP
 70
    64
  9
$PINSBASE
 10
0.0
 20
0.0
 30
0.0
  9
$PLIMCHECK
 70
     0
  9
$PEXTMIN
 10
1.000000000000000E+20
 20
1.000000000000000E+20
 30
1.000000000000000E+20
  9
$PEXTMAX
 10
-1.000000000000000E+20
 20
-1.000000000000000E+20
 30
-1.000000000000000E+20
  9
$PLIMMIN
 10
0.0
 20
0.0
  9
$PLIMMAX
 10
0.0
 20
0.0
  9
$UNITMODE
 70
     0
  9
$VISRETAIN
 70
     1
  9
$PLINEGEN
 70
     0
  9
$PSLTSCALE
 70
     1
  9
$TREEDEPTH
 70
  3020
  9
$CMLSTYLE
  2
Standard
  9
$CMLJUST
 70
     0
  9
$CMLSCALE
 40
20.0
  9
$PROXYGRAPHICS
 70
     1
  9
$MEASUREMENT
 70
     1
  9
$CELWEIGHT
370
    -1
  9
$ENDCAPS
280
     0
  9
$JOINSTYLE
280
     0
  9
$LWDISPLAY
290
     1
  9
$INSUNITS
 70
     4
  9
$HYPERLINKBASE
  1

  9
$STYLESHEET
  1

  9
$XEDIT
290
     1
  9
$CEPSNTYPE
380
     0
  9
$PSTYLEMODE
290
     1
  9
$FINGERPRINTGUID
  2
{F48B22A1-2795-4129-90F4-14AFB6128CC5}
  9
$VERSIONGUID
  2
{FAEB1C32-E019-11D5-929B-00C0DF256EC4}
  9
$EXTNAMES
290
     1
  9
$PSVPSCALE
 40
0.0
  9
$OLESTARTUP
290
     0
  0
ENDSEC
  0
SECTION
  2
CLASSES
  0
CLASS
  1
ACDBDICTIONARYWDFLT
  2
AcDbDictionaryWithDefault
  3
ObjectDBX Classes
 90
        0
280
     0
281
     0
  0
CLASS
  1
VISUALSTYLE
  2
AcDbVisualStyle
  3
ObjectDBX Classes
 90
     4095
280
     0
281
     0
  0
CLASS
  1
MATERIAL
  2
AcDbMaterial
  3
ObjectDBX Classes
 90
     1153
280
     0
281
     0
  0
CLASS
  1
SCALE
  2
AcDbScale
  3
ObjectDBX Classes
 90
     1153
280
     0
281
     0
  0
CLASS
  1
SUN
  2
AcDbSun
  3
SCENEOE
 90
     1153
280
     0
281
     0
  0
CLASS
  1
ACDBPLACEHOLDER
  2
AcDbPlaceHolder
  3
ObjectDBX Classes
 90
        0
280
     0
281
     0
  0
CLASS
  1
LAYOUT
  2
AcDbLayout
  3
ObjectDBX Classes
 90
        0
280
     0
281
     0
  0
CLASS
  1
TABLESTYLE
  2
AcDbTableStyle
  3
ObjectDBX Classes
 90
     4095
280
     0
281
     0
  0
CLASS
  1
MLEADERSTYLE
  2
AcDbMLeaderStyle
  3
ACDB_MLEADERSTYLE_CLASS
 90
     4095
280
     0
281
     0
  0
CLASS
  1
DICTIONARYVAR
  2
AcDbDictionaryVar
  3
ObjectDBX Classes
 90
        0
280
     0
281
     0
  0
ENDSEC
  0
SECTION
  2
TABLES
  0
TABLE
  2
VPORT
  5
8
330
0
100
AcDbSymbolTable
 70
     1
  0
VPORT
  5
29
330
8
100
AcDbSymbolTableRecord
100
AcDbViewportTableRecord
  2
*Active
 70
     0
 10
0.0
 20
0.0
 11
1.0
 21
1.0
 12
21.86581251647749
 22
-6.177653694405898
 13
0.0
 23
0.0
 14
10.0
 24
10.0
 15
10.0
 25
10.0
 16
0.0
 26
0.0
 36
1.0
 17
0.0
 27
0.0
 37
0.0
 40
89.34007353658795
 41
1.782762691853601
 42
50.0
 43
0.0
 44
0.0
 50
0.0
 51
0.0
 71
    16
 72
  2000
 73
     1
 74
     3
 75
     0
 76
     0
 77
     0
 78
     0
281
     0
 65
     1
110
0.0
120
0.0
130
0.0
111
1.0
121
0.0
131
0.0
112
0.0
122
1.0
132
0.0
 79
     0
146
0.0
  0
ENDTAB
  0
TABLE
  2
LTYPE
  5
5
330
0
100
AcDbSymbolTable
 70
     6
  0
LTYPE
  5
14
330
5
100
AcDbSymbolTableRecord
100
AcDbLinetypeTableRecord
  2
ByBlock
 70
     0
  3

 72
    65
 73
     0
 40
0.0
  0
LTYPE
  5
15
330
5
100
AcDbSymbolTableRecord
100
AcDbLinetypeTableRecord
  2
ByLayer
 70
     0
  3

 72
    65
 73
     0
 40
0.0
  0
LTYPE
  5
16
330
5
100
AcDbSymbolTableRecord
100
AcDbLinetypeTableRecord
  2
Continuous
 70
     0
  3
Solid line
 72
    65
 73
     0
 40
0.0
  0
LTYPE
  5
6A
330
5
100
AcDbSymbolTableRecord
100
AcDbLinetypeTableRecord
  2
HIDDEN
 70
     0
  3
Hidden __ __ __ __ __ __ __ __ __ __ __ __ __ __
 72
    65
 73
     2
 40
1.905
 49
1.27
 74
     0
 49
-0.635
 74
     0
  0
LTYPE
  5
6B
330
5
100
AcDbSymbolTableRecord
100
AcDbLinetypeTableRecord
  2
PHANTOM
 70
     0
  3
Phantom ______  __  __  ______  __  __  ______
 72
    65
 73
     6
 40
12.7
 49
6.35
 74
     0
 49
-1.27
 74
     0
 49
1.27
 74
     0
 49
-1.27
 74
     0
 49
1.27
 74
     0
 49
-1.27
 74
     0
  0
LTYPE
  5
6C
330
5
100
AcDbSymbolTableRecord
100
AcDbLinetypeTableRecord
  2
CENTER
 70
     0
  3
Center ____ _ ____ _ ____ _ ____ _ ____ _ ____
 72
    65
 73
     4
 40
10.16
 49
6.35
 74
     0
 49
-1.27
 74
     0
 49
1.27
 74
     0
 49
-1.27
 74
     0
  0
LTYPE
  5
6D
330
5
100
AcDbSymbolTableRecord
100
AcDbLinetypeTableRecord
  2
CENTERX2
 70
     0
  3
Center (2x) ________  __  ________  __  _____
 72
    65
 73
     4
 40
20.32
 49
12.7
 74
     0
 49
-2.54
 74
     0
 49
2.54
 74
     0
 49
-2.54
 74
     0
  0
LTYPE
  5
6E
330
5
100
AcDbSymbolTableRecord
100
AcDbLinetypeTableRecord
  2
DOT2
 70
     0
  3
Dot (.5x) ........................................
 72
    65
 73
     2
 40
0.635
 49
0.0
 74
     0
 49
-0.635
 74
     0
  0
ENDTAB
  0
TABLE
  2
LAYER
  5
2
102
{ACAD_XDICTIONARY
360
193
102
}
330
0
100
AcDbSymbolTable
 70
    18
  0
LAYER
  5
10
330
2
100
AcDbSymbolTableRecord
100
AcDbLayerTableRecord
  2
0
 70
     0
 62
     7
  6
Continuous
370
    -3
390
F
  0
LAYER
  5
6F
330
2
100
AcDbSymbolTableRecord
100
AcDbLayerTableRecord
  2
FORMAT
 70
     0
 62
     2
  6
Continuous
370
    -3
390
F
  0
LAYER
  5
70
330
2
100
AcDbSymbolTableRecord
100
AcDbLayerTableRecord
  2
외형선
 70
     0
 62
     4
  6
Continuous
370
    30
390
F
  0
LAYER
  5
71
330
2
100
AcDbSymbolTableRecord
100
AcDbLayerTableRecord
  2
숨은선
 70
     0
 62
     2
  6
HIDDEN
370
    15
390
F
  0
LAYER
  5
72
330
2
100
AcDbSymbolTableRecord
100
AcDbLayerTableRecord
  2
중심선
 70
     0
 62
     1
  6
CENTERX2
370
    -3
390
F
  0
LAYER
  5
73
330
2
100
AcDbSymbolTableRecord
100
AcDbLayerTableRecord
  2
파단선
 70
     0
 62
     4
  6
Continuous
370
    -3
390
F
  0
LAYER
  5
74
330
2
100
AcDbSymbolTableRecord
100
AcDbLayerTableRecord
  2
해칭선
 70
     0
 62
   100
  6
Continuous
370
    -3
390
F
  0
LAYER
  5
75
330
2
100
AcDbSymbolTableRecord
100
AcDbLayerTableRecord
  2
가는실선
 70
     0
 62
     4
  6
Continuous
370
    -3
390
F
  0
LAYER
  5
76
330
2
100
AcDbSymbolTableRecord
100
AcDbLayerTableRecord
  2
치수_보조선
 70
     0
 62
     4
  6
Continuous
370
    -3
390
F
  0
LAYER
  5
77
330
2
100
AcDbSymbolTableRecord
100
AcDbLayerTableRecord
  2
치수문자_일반주서
 70
     0
 62
     7
  6
Continuous
370
    15
390
F
  0
LAYER
  5
78
330
2
100
AcDbSymbolTableRecord
100
AcDbLayerTableRecord
  2
개별주서
 70
     0
 62
   100
  6
Continuous
370
    30
390
F
  0
LAYER
  5
79
330
2
100
AcDbSymbolTableRecord
100
AcDbLayerTableRecord
  2
중간선
 70
     0
 62
     2
  6
Continuous
370
    15
390
F
  0
LAYER
  5
7A
330
2
100
AcDbSymbolTableRecord
100
AcDbLayerTableRecord
  2
윤곽선
 70
     0
 62
     3
  6
Continuous
370
    40
390
F
  0
LAYER
  5
7B
330
2
100
AcDbSymbolTableRecord
100
AcDbLayerTableRecord
  2
중심마크
 70
     0
 62
   100
  6
Continuous
370
    30
390
F
  0
LAYER
  5
7C
330
2
100
AcDbSymbolTableRecord
100
AcDbLayerTableRecord
  2
가상선
 70
     0
 62
     4
  6
PHANTOM
370
    -3
390
F
  0
LAYER
  5
7D
330
2
100
AcDbSymbolTableRecord
100
AcDbLayerTableRecord
  2
특수지정선
 70
     0
 62
     5
  6
CENTERX2
370
    60
390
F
  0
LAYER
  5
7E
330
2
100
AcDbSymbolTableRecord
100
AcDbLayerTableRecord
  2
참조1
 70
     0
 62
    -4
  6
Continuous
370
    -3
390
F
  0
LAYER
  5
15C
330
2
100
AcDbSymbolTableRecord
100
AcDbLayerTableRecord
  2
Defpoints
 70
     0
 62
     7
  6
Continuous
290
     0
370
    -3
390
F
  0
ENDTAB
  0
TABLE
  2
STYLE
  5
3
330
0
100
AcDbSymbolTable
 70
     2
  0
STYLE
  5
11
330
3
100
AcDbSymbolTableRecord
100
AcDbTextStyleTableRecord
  2
Standard
 70
     0
 40
0.0
 41
1.0
 50
0.0
 71
     0
 42
3.5
  3
txt
  4

  0
STYLE
  5
94
330
3
100
AcDbSymbolTableRecord
100
AcDbTextStyleTableRecord
  2
SLDTEXTSTYLE0
 70
     0
 40
0.0
 41
0.75
 50
0.0
 71
     0
 42
3.5
  3
TXT
  4

  0
ENDTAB
  0
TABLE
  2
VIEW
  5
6
330
0
100
AcDbSymbolTable
 70
     0
  0
ENDTAB
  0
TABLE
  2
UCS
  5
7
330
0
100
AcDbSymbolTable
 70
     0
  0
ENDTAB
  0
TABLE
  2
APPID
  5
9
330
0
100
AcDbSymbolTable
 70
     2
  0
APPID
  5
12
330
9
100
AcDbSymbolTableRecord
100
AcDbRegAppTableRecord
  2
ACAD
 70
     0
  0
APPID
  5
163
330
9
100
AcDbSymbolTableRecord
100
AcDbRegAppTableRecord
  2
PE_URL
 70
     0
  0
ENDTAB
  0
TABLE
  2
DIMSTYLE
  5
A
330
0
100
AcDbSymbolTable
 70
     4
100
AcDbDimStyleTable
  0
DIMSTYLE
105
27
330
A
100
AcDbSymbolTableRecord
100
AcDbDimStyleTableRecord
  2
ISO-25
 70
     0
 41
2.5
 42
0.625
 43
3.75
 44
1.25
 73
     0
 74
     0
 77
     1
 78
     8
140
2.5
141
2.5
143
0.03937007874016
147
0.625
171
     3
172
     1
178
     0
271
     2
272
     2
274
     3
278
    44
283
     0
284
     8
340
11
  0
DIMSTYLE
105
DA
102
{ACAD_REACTORS
330
D9
330
EE
330
182
330
102
330
117
102
}
330
A
100
AcDbSymbolTableRecord
100
AcDbDimStyleTableRecord
  2
SLDDIMSTYLE0
 70
     0
 41
3.302
 44
0.0
 45
0.000000001
 73
     0
 74
     0
 77
     1
 78
    12
 79
     3
140
3.5
143
0.0393700787401575
147
0.875
148
0.000000001
170
     1
172
     1
173
     1
178
     0
271
     2
272
     2
276
     2
284
    12
289
     0
340
94
  0
DIMSTYLE
105
103
330
A
100
AcDbSymbolTableRecord
100
AcDbDimStyleTableRecord
  2
SLDDIMSTYLE1
 70
     0
 41
3.302
 44
0.0
 45
0.000000001
 73
     0
 74
     0
 77
     1
 78
     4
 79
     1
140
3.5
143
0.0393700787401575
147
0.875
148
0.000000001
170
     1
173
     1
178
     0
271
     2
272
     2
276
     2
284
    12
340
94
  0
DIMSTYLE
105
118
330
A
100
AcDbSymbolTableRecord
100
AcDbDimStyleTableRecord
  2
SLDDIMSTYLE2
 70
     0
 41
3.302
 44
0.0
 45
0.000000001
 73
     0
 74
     0
 77
     1
 78
    12
 79
     3
140
3.5
143
0.0393700787401575
147
0.875
148
0.000000001
170
     1
173
     1
178
     0
271
     2
272
     2
276
     2
284
    12
340
94
  0
ENDTAB
  0
TABLE
  2
BLOCK_RECORD
  5
1
330
0
100
AcDbSymbolTable
 70
    11
  0
BLOCK_RECORD
  5
1F
330
1
100
AcDbSymbolTableRecord
100
AcDbBlockTableRecord
  2
*Model_Space
340
22
  0
BLOCK_RECORD
  5
1B
330
1
100
AcDbSymbolTableRecord
100
AcDbBlockTableRecord
  2
*Paper_Space
340
1E
  0
BLOCK_RECORD
  5
23
330
1
100
AcDbSymbolTableRecord
100
AcDbBlockTableRecord
  2
*Paper_Space0
340
26
  0
BLOCK_RECORD
  5
7F
330
1
100
AcDbSymbolTableRecord
100
AcDbBlockTableRecord
  2
블럭10
340
0
102
{BLKREFS
331
D2
102
}
  0
BLOCK_RECORD
  5
DB
330
1
100
AcDbSymbolTableRecord
100
AcDbBlockTableRecord
  2
_D
340
0
  0
BLOCK_RECORD
  5
EF
330
1
100
AcDbSymbolTableRecord
100
AcDbBlockTableRecord
  2
_D_1
340
0
  0
BLOCK_RECORD
  5
104
330
1
100
AcDbSymbolTableRecord
100
AcDbBlockTableRecord
  2
_D_2
340
0
  0
BLOCK_RECORD
  5
119
330
1
100
AcDbSymbolTableRecord
100
AcDbBlockTableRecord
  2
_D_3
340
0
  0
BLOCK_RECORD
  5
132
330
1
100
AcDbSymbolTableRecord
100
AcDbBlockTableRecord
  2
SW_DOWELSYMBOL_0
340
0
102
{BLKREFS
331
138
102
}
  0
BLOCK_RECORD
  5
197
330
1
100
AcDbSymbolTableRecord
100
AcDbBlockTableRecord
  2
*D8
340
0
  0
BLOCK_RECORD
  5
1A9
330
1
100
AcDbSymbolTableRecord
100
AcDbBlockTableRecord
  2
*D9
340
0
  0
ENDTAB
  0
ENDSEC
  0
SECTION
  2
BLOCKS
  0
BLOCK
  5
20
330
1F
100
AcDbEntity
  8
0
100
AcDbBlockBegin
  2
*Model_Space
 70
     0
 10
0.0
 20
0.0
 30
0.0
  3
*Model_Space
  1

  0
ENDBLK
  5
21
330
1F
100
AcDbEntity
  8
0
100
AcDbBlockEnd
  0
BLOCK
  5
1C
330
1B
100
AcDbEntity
 67
     1
  8
0
100
AcDbBlockBegin
  2
*Paper_Space
 70
     0
 10
0.0
 20
0.0
 30
0.0
  3
*Paper_Space
  1

  0
ENDBLK
  5
1D
330
1B
100
AcDbEntity
 67
     1
  8
0
100
AcDbBlockEnd
  0
BLOCK
  5
24
330
23
100
AcDbEntity
  8
0
100
AcDbBlockBegin
  2
*Paper_Space0
 70
     0
 10
0.0
 20
0.0
 30
0.0
  3
*Paper_Space0
  1

  0
ENDBLK
  5
25
330
23
100
AcDbEntity
  8
0
100
AcDbBlockEnd
  0
BLOCK
  5
80
330
7F
100
AcDbEntity
  8
0
100
AcDbBlockBegin
  2
블럭10
 70
     2
 10
0.0
 20
0.0
 30
0.0
  3
블럭10
  1

  0
ELLIPSE
  5
82
330
7F
100
AcDbEntity
  8
중심선
100
AcDbEllipse
 10
20.54032771741204
 20
12.0471743016438
 30
0.0
 11
6.600054785286829
 21
-1.261213355974178E-13
 31
0.0
210
0.0
220
0.0
230
1.0
 40
0.636358354079598
 41
0.9219305317359503
 42
6.513795318482858
  0
ELLIPSE
  5
83
330
7F
100
AcDbEntity
  8
중심선
100
AcDbEllipse
 10
20.54032771746488
 20
12.04717430159265
 30
0.0
 11
3.960054785062283
 21
1.540847449632565E-10
 31
0.0
210
0.0
220
0.0
230
1.0
 40
0.3939339440162632
 41
1.131841032648279
 42
5.62031148352944
  0
LINE
  5
84
330
7F
100
AcDbEntity
  8
중심선
100
AcDbLine
 10
2.268634060543552
 20
16.24717430164393
 30
0.0
 11
5.714909304380834
 21
16.24717430164393
 31
0.0
  0
LINE
  5
85
330
7F
100
AcDbEntity
  8
중심선
100
AcDbLine
 10
5.245725140726316
 20
7.84717430164391
 30
0.0
 11
8.692000384563599
 21
7.84717430164391
 31
0.0
  0
LINE
  5
86
330
7F
100
AcDbEntity
  8
중심선
100
AcDbLine
 10
15.74043728645272
 20
16.24717430164393
 30
0.0
 11
8.692000384563599
 21
7.84717430164391
 31
0.0
  0
LINE
  5
87
330
7F
100
AcDbEntity
  8
중심선
100
AcDbLine
 10
0.1404042013395286
 20
13.71084872107135
 30
0.0
 11
3.58671253028996
 21
13.71088815037384
 31
0.0
  0
LINE
  5
88
330
7F
100
AcDbEntity
  8
중심선
100
AcDbLine
 10
2.750260043222114
 20
10.84717430164391
 30
0.0
 11
6.196535287059397
 21
10.84717430164391
 31
0.0
  0
LINE
  5
89
330
7F
100
AcDbEntity
  8
중심선
100
AcDbLine
 10
12.29416204261559
 20
16.24717430164393
 30
0.0
 11
5.245725140726316
 21
7.84717430164391
 31
0.0
  0
LINE
  5
8A
330
7F
100
AcDbEntity
  8
중심선
100
AcDbLine
 10
10.72767329541681
 20
16.24717430164393
 30
0.0
 11
6.196535287059397
 21
10.84717430164391
 31
0.0
  0
LINE
  5
8B
330
7F
100
AcDbEntity
  8
중심선
100
AcDbLine
 10
7.28139805157953
 20
16.24717430164393
 30
0.0
 11
2.750260043222114
 21
10.84717430164391
 31
0.0
  0
LINE
  5
8C
330
7F
100
AcDbEntity
  8
중심선
100
AcDbLine
 10
5.714909304380834
 20
16.24717430164393
 30
0.0
 11
3.58671253028996
 21
13.71088815037384
 31
0.0
  0
LINE
  5
8D
330
7F
100
AcDbEntity
  8
중심선
100
AcDbLine
 10
2.268634060543552
 20
16.24717430164393
 30
0.0
 11
0.1404042013395286
 21
13.71084872107135
 31
0.0
  0
LINE
  5
8E
330
7F
100
AcDbEntity
  8
중심선
100
AcDbLine
 10
7.28139805157953
 20
16.24717430164393
 30
0.0
 11
10.72767329541681
 21
16.24717430164393
 31
0.0
  0
LINE
  5
8F
330
7F
100
AcDbEntity
  8
중심선
100
AcDbLine
 10
12.29416204261559
 20
16.24717430164393
 30
0.0
 11
15.74043728645272
 21
16.24717430164393
 31
0.0
  0
LINE
  5
90
330
7F
100
AcDbEntity
  8
중심선
100
AcDbLine
 10
19.22036997980202
 20
11.08717430171403
 30
0.0
 11
23.66174974927406
 21
11.08717430171406
 31
0.0
  0
LINE
  5
91
330
7F
100
AcDbEntity
  8
중심선
100
AcDbLine
 10
19.22039502424796
 20
13.00717430171391
 30
0.0
 11
19.22036997980202
 21
11.08717430171403
 31
0.0
  0
LINE
  5
92
330
7F
100
AcDbEntity
  8
중심선
100
AcDbLine
 10
19.22039502424796
 20
13.00717430171391
 30
0.0
 11
26.96566020931264
 21
13.00717430171391
 31
0.0
  0
LINE
  5
93
330
7F
100
AcDbEntity
  8
중심선
100
AcDbLine
 10
22.22332737316547
 20
13.45928029700563
 30
0.0
 11
24.52862924686651
 21
15.39360700705356
 31
0.0
  0
ATTDEF
  5
95
330
7F
100
AcDbEntity
  8
FORMAT
 62
     2
100
AcDbText
 10
4.408487351596664
 20
2.075366912832191
 30
0.0
 40
4.233333333333333
  1
E1050016
 41
0.75
  7
SLDTEXTSTYLE0
 11
4.408487351596664
 21
-0.0412997538344756
 31
0.0
100
AcDbAttributeDefinition
  3

  2
AUTOATTR0
 70
     0
 74
     1
  0
ENDBLK
  5
81
330
7F
100
AcDbEntity
  8
0
100
AcDbBlockEnd
  0
BLOCK
  5
DC
330
DB
100
AcDbEntity
  8
0
100
AcDbBlockBegin
  2
_D
 70
     0
 10
0.0
 20
0.0
 30
0.0
  3
_D
  1

  0
LINE
  5
DE
330
DB
100
AcDbEntity
  8
치수문자_일반주서
 62
     0
370
    -2
100
AcDbLine
 10
-20.12536934298443
 20
4.762499999999998
 30
0.0
 11
-49.68749999999998
 21
4.762499999999889
 31
0.0
  0
LINE
  5
DF
330
DB
100
AcDbEntity
  8
치수문자_일반주서
 62
     0
370
    -2
100
AcDbLine
 10
-20.12536934298443
 20
-4.762500000000003
 30
0.0
 11
-49.68749999999994
 21
-4.762500000000113
 31
0.0
  0
LINE
  5
E0
330
DB
100
AcDbEntity
  8
치수문자_일반주서
 62
     0
370
    -2
100
AcDbLine
 10
-49.68749999999998
 20
4.762499999999889
 30
0.0
 11
-49.6875000000001
 21
37.61649999999996
 31
0.0
  0
LINE
  5
E1
330
DB
100
AcDbEntity
  8
치수문자_일반주서
 62
     0
370
    -2
100
AcDbLine
 10
-49.68749999999998
 20
4.762499999999889
 30
0.0
 11
-49.68749999999994
 21
-4.762500000000113
 31
0.0
  0
LINE
  5
E2
330
DB
100
AcDbEntity
  8
치수문자_일반주서
 62
     0
370
    -2
100
AcDbLine
 10
-49.68749999999999
 20
8.064499999999889
 30
0.0
 11
-49.68750000000001
 21
11.36649999999989
 31
0.0
  0
LINE
  5
E3
330
DB
100
AcDbEntity
  8
치수문자_일반주서
 62
     0
370
    -2
100
AcDbLine
 10
-49.68749999999993
 20
-8.064500000000113
 30
0.0
 11
-49.68749999999991
 21
-11.36650000000011
 31
0.0
  0
SOLID
  5
E4
330
DB
100
AcDbEntity
  8
치수문자_일반주서
 62
     0
100
AcDbTrace
 10
-50.23783333333333
 20
8.064499999999887
 30
0.0
 11
-49.13716666666666
 21
8.06449999999989
 31
0.0
 12
-49.68749999999998
 22
4.762499999999889
 32
0.0
 13
-49.68749999999998
 23
4.762499999999889
 33
0.0
  0
SOLID
  5
E5
330
DB
100
AcDbEntity
  8
치수문자_일반주서
 62
     0
100
AcDbTrace
 10
-49.13716666666659
 20
-8.06450000000011
 30
0.0
 11
-50.23783333333326
 21
-8.064500000000114
 31
0.0
 12
-49.68749999999994
 22
-4.762500000000113
 32
0.0
 13
-49.68749999999994
 23
-4.762500000000113
 33
0.0
  0
MTEXT
  5
E6
330
DB
100
AcDbEntity
  8
치수문자_일반주서
 62
     0
100
AcDbMText
 10
-54.06250000000005
 20
24.49149999999995
 30
0.0
 40
3.5
 41
0.0
 71
     2
 72
     1
  1
\A1;%%c9.53 [3/8]
  7
SLDTEXTSTYLE0
 11
-3.729883127349606E-15
 21
1.0
 31
0.0
 73
     1
 44
1.0
  0
POINT
  5
1ED
330
DB
100
AcDbEntity
  8
Defpoints
 62
     0
100
AcDbPoint
 10
-20.06286934298443
 20
4.762499999999998
 30
0.0
  0
POINT
  5
1EE
330
DB
100
AcDbEntity
  8
Defpoints
 62
     0
100
AcDbPoint
 10
-20.06286934298443
 20
-4.762500000000003
 30
0.0
  0
POINT
  5
1EF
330
DB
100
AcDbEntity
  8
Defpoints
 62
     0
100
AcDbPoint
 10
-49.68749999999994
 20
-4.762500000000114
 30
0.0
  0
ENDBLK
  5
DD
330
DB
100
AcDbEntity
  8
0
100
AcDbBlockEnd
  0
BLOCK
  5
F0
330
EF
100
AcDbEntity
  8
0
100
AcDbBlockBegin
  2
_D_1
 70
     0
 10
0.0
 20
0.0
 30
0.0
  3
_D_1
  1

  0
LINE
  5
F2
330
EF
100
AcDbEntity
  8
치수문자_일반주서
 62
     0
370
    -2
100
AcDbLine
 10
39.75000000000002
 20
-3.172316538354119
 30
0.0
 11
74.3072335196216
 21
-3.172316538353993
 31
0.0
  0
LINE
  5
F3
330
EF
100
AcDbEntity
  8
치수문자_일반주서
 62
     0
370
    -2
100
AcDbLine
 10
39.75000000000002
 20
3.172316538354118
 30
0.0
 11
74.30723351962158
 21
3.172316538354245
 31
0.0
  0
LINE
  5
F4
330
EF
100
AcDbEntity
  8
치수문자_일반주서
 62
     0
370
    -2
100
AcDbLine
 10
74.30723351962158
 20
3.172316538354245
 30
0.0
 11
74.30723351962143
 21
35.15131653835425
 31
0.0
  0
LINE
  5
F5
330
EF
100
AcDbEntity
  8
치수문자_일반주서
 62
     0
370
    -2
100
AcDbLine
 10
74.3072335196216
 20
-3.172316538353993
 30
0.0
 11
74.30723351962158
 21
3.172316538354245
 31
0.0
  0
LINE
  5
F6
330
EF
100
AcDbEntity
  8
치수문자_일반주서
 62
     0
370
    -2
100
AcDbLine
 10
74.30723351962162
 20
-6.474316538353992
 30
0.0
 11
74.30723351962163
 21
-9.776316538353992
 31
0.0
  0
LINE
  5
F7
330
EF
100
AcDbEntity
  8
치수문자_일반주서
 62
     0
370
    -2
100
AcDbLine
 10
74.30723351962156
 20
6.474316538354245
 30
0.0
 11
74.30723351962155
 21
9.776316538354244
 31
0.0
  0
SOLID
  5
F8
330
EF
100
AcDbEntity
  8
치수문자_일반주서
 62
     0
100
AcDbTrace
 10
74.85756685295495
 20
-6.47431653835399
 30
0.0
 11
73.75690018628829
 21
-6.474316538353995
 31
0.0
 12
74.3072335196216
 22
-3.172316538353993
 32
0.0
 13
74.3072335196216
 23
-3.172316538353993
 33
0.0
  0
SOLID
  5
F9
330
EF
100
AcDbEntity
  8
치수문자_일반주서
 62
     0
100
AcDbTrace
 10
73.75690018628823
 20
6.474316538354242
 30
0.0
 11
74.85756685295489
 21
6.474316538354247
 31
0.0
 12
74.30723351962158
 22
3.172316538354245
 32
0.0
 13
74.30723351962158
 23
3.172316538354245
 33
0.0
  0
MTEXT
  5
FA
330
EF
100
AcDbEntity
  8
치수문자_일반주서
 62
     0
100
AcDbMText
 10
69.93223351962149
 20
22.46381653835423
 30
0.0
 40
3.5
 41
0.0
 71
     2
 72
     1
  1
\A1;%%c6.34 [1/4]
  7
SLDTEXTSTYLE0
 11
-4.479645881294989E-15
 21
1.0
 31
0.0
 73
     1
 44
1.0
  0
POINT
  5
FB
330
EF
100
AcDbEntity
  8
Defpoints
 62
     0
100
AcDbPoint
 10
39.68750000000002
 20
-3.172316538354119
 30
0.0
  0
POINT
  5
FC
330
EF
100
AcDbEntity
  8
Defpoints
 62
     0
100
AcDbPoint
 10
39.68750000000002
 20
3.172316538354118
 30
0.0
  0
POINT
  5
FD
330
EF
100
AcDbEntity
  8
Defpoints
 62
     0
100
AcDbPoint
 10
74.30723351962156
 20
3.172316538354247
 30
0.0
  0
ENDBLK
  5
F1
330
EF
100
AcDbEntity
  8
0
100
AcDbBlockEnd
  0
BLOCK
  5
105
330
104
100
AcDbEntity
  8
0
100
AcDbBlockBegin
  2
_D_2
 70
     0
 10
0.0
 20
0.0
 30
0.0
  3
_D_2
  1

  0
LINE
  5
107
330
104
100
AcDbEntity
  8
치수문자_일반주서
 62
     0
370
    -2
100
AcDbLine
 10
39.68750000000002
 20
3.234816538354118
 30
0.0
 11
39.68750000000002
 21
14.76249999999999
 31
0.0
  0
LINE
  5
108
330
104
100
AcDbEntity
  8
치수문자_일반주서
 62
     0
370
    -2
100
AcDbLine
 10
26.98750000000002
 20
2.831294427342308
 30
0.0
 11
26.98750000000002
 21
14.76249999999999
 31
0.0
  0
LINE
  5
109
330
104
100
AcDbEntity
  8
치수문자_일반주서
 62
     0
370
    -2
100
AcDbLine
 10
39.68750000000002
 20
14.76249999999999
 30
0.0
 11
68.16650000000001
 21
14.76249999999999
 31
0.0
  0
LINE
  5
10A
330
104
100
AcDbEntity
  8
치수문자_일반주서
 62
     0
370
    -2
100
AcDbLine
 10
39.68750000000002
 20
14.76249999999999
 30
0.0
 11
26.98750000000002
 21
14.76249999999999
 31
0.0
  0
LINE
  5
10B
330
104
100
AcDbEntity
  8
치수문자_일반주서
 62
     0
370
    -2
100
AcDbLine
 10
42.98950000000002
 20
14.76249999999999
 30
0.0
 11
46.29150000000002
 21
14.76249999999999
 31
0.0
  0
LINE
  5
10C
330
104
100
AcDbEntity
  8
치수문자_일반주서
 62
     0
370
    -2
100
AcDbLine
 10
23.68550000000002
 20
14.76249999999999
 30
0.0
 11
20.38350000000002
 21
14.76249999999999
 31
0.0
  0
SOLID
  5
10D
330
104
100
AcDbEntity
  8
치수문자_일반주서
 62
     0
100
AcDbTrace
 10
42.98950000000002
 20
15.31283333333332
 30
0.0
 11
42.98950000000002
 21
14.21216666666665
 31
0.0
 12
39.68750000000002
 22
14.76249999999999
 32
0.0
 13
39.68750000000002
 23
14.76249999999999
 33
0.0
  0
SOLID
  5
10E
330
104
100
AcDbEntity
  8
치수문자_일반주서
 62
     0
100
AcDbTrace
 10
23.68550000000002
 20
14.21216666666665
 30
0.0
 11
23.68550000000002
 21
15.31283333333332
 31
0.0
 12
26.98750000000002
 22
14.76249999999999
 32
0.0
 13
26.98750000000002
 23
14.76249999999999
 33
0.0
  0
MTEXT
  5
10F
330
104
100
AcDbEntity
  8
치수문자_일반주서
 62
     0
100
AcDbMText
 10
57.22900000000002
 20
19.13749999999999
 30
0.0
 40
3.5
 41
0.0
 71
     2
 72
     1
  1
\A1;12.7 [1/2]
  7
SLDTEXTSTYLE0
 73
     1
 44
1.0
  0
POINT
  5
110
330
104
100
AcDbEntity
  8
Defpoints
 62
     0
100
AcDbPoint
 10
39.68750000000002
 20
3.172316538354118
 30
0.0
  0
POINT
  5
111
330
104
100
AcDbEntity
  8
Defpoints
 62
     0
100
AcDbPoint
 10
26.98750000000002
 20
2.768794427342308
 30
0.0
  0
POINT
  5
112
330
104
100
AcDbEntity
  8
Defpoints
 62
     0
100
AcDbPoint
 10
26.98750000000002
 20
14.76249999999999
 30
0.0
  0
ENDBLK
  5
106
330
104
100
AcDbEntity
  8
0
100
AcDbBlockEnd
  0
BLOCK
  5
11A
330
119
100
AcDbEntity
  8
0
100
AcDbBlockBegin
  2
_D_3
 70
     0
 10
0.0
 20
0.0
 30
0.0
  3
_D_3
  1

  0
LINE
  5
11C
330
119
100
AcDbEntity
  8
치수문자_일반주서
 62
     0
370
    -2
100
AcDbLine
 10
-39.68750000000002
 20
3.234816538354114
 30
0.0
 11
-39.68750000000002
 21
24.76249999999999
 31
0.0
  0
LINE
  5
11D
330
119
100
AcDbEntity
  8
치수문자_일반주서
 62
     0
370
    -2
100
AcDbLine
 10
39.68750000000002
 20
3.234816538354118
 30
0.0
 11
39.68750000000002
 21
24.76249999999999
 31
0.0
  0
LINE
  5
11E
330
119
100
AcDbEntity
  8
치수문자_일반주서
 62
     0
370
    -2
100
AcDbLine
 10
-36.38550000000002
 20
24.76249999999999
 30
0.0
 11
36.38550000000002
 21
24.76249999999999
 31
0.0
  0
SOLID
  5
11F
330
119
100
AcDbEntity
  8
치수문자_일반주서
 62
     0
100
AcDbTrace
 10
-36.38550000000002
 20
25.31283333333332
 30
0.0
 11
-36.38550000000002
 21
24.21216666666665
 31
0.0
 12
-39.68750000000002
 22
24.76249999999999
 32
0.0
 13
-39.68750000000002
 23
24.76249999999999
 33
0.0
  0
SOLID
  5
120
330
119
100
AcDbEntity
  8
치수문자_일반주서
 62
     0
100
AcDbTrace
 10
36.38550000000002
 20
24.21216666666665
 30
0.0
 11
36.38550000000002
 21
25.31283333333332
 31
0.0
 12
39.68750000000002
 22
24.76249999999999
 32
0.0
 13
39.68750000000002
 23
24.76249999999999
 33
0.0
  0
MTEXT
  5
121
330
119
100
AcDbEntity
  8
치수문자_일반주서
 62
     0
100
AcDbMText
 10
0.0000000000000071
 20
29.13749999999999
 30
0.0
 40
3.5
 41
0.0
 71
     2
 72
     1
  1
\A1;79.38 [3 1/8]
  7
SLDTEXTSTYLE0
 73
     1
 44
1.0
  0
POINT
  5
122
330
119
100
AcDbEntity
  8
Defpoints
 62
     0
100
AcDbPoint
 10
-39.68750000000002
 20
3.172316538354114
 30
0.0
  0
POINT
  5
123
330
119
100
AcDbEntity
  8
Defpoints
 62
     0
100
AcDbPoint
 10
39.68750000000002
 20
3.172316538354118
 30
0.0
  0
POINT
  5
124
330
119
100
AcDbEntity
  8
Defpoints
 62
     0
100
AcDbPoint
 10
39.68750000000002
 20
24.76249999999999
 30
0.0
  0
ENDBLK
  5
11B
330
119
100
AcDbEntity
  8
0
100
AcDbBlockEnd
  0
BLOCK
  5
133
330
132
100
AcDbEntity
  8
0
100
AcDbBlockBegin
  2
SW_DOWELSYMBOL_0
 70
     0
 10
0.0
 20
0.0
 30
0.0
  3
SW_DOWELSYMBOL_0
  1

  0
CIRCLE
  5
135
330
132
100
AcDbEntity
  8
해칭선
 62
     0
100
AcDbCircle
 10
0.0
 20
0.0
 30
0.0
 40
3.000000000000001
  0
HATCH
  5
136
330
132
100
AcDbEntity
  8
0
  6
Continuous
 62
     0
370
     0
100
AcDbHatch
 10
0.0
 20
0.0
 30
0.0
210
0.0
220
0.0
230
1.0
  2
SOLID
 70
     1
 71
     0
 91
        1
 92
        0
 93
        3
 72
     2
 10
0.0
 20
0.0
 40
3.000000000000001
 50
0.0
 51
90.0
 73
     1
 72
     1
 10
0.0
 20
3.000000000000001
 11
0.0
 21
0.0
 72
     1
 10
0.0
 20
0.0
 11
3.000000000000001
 21
0.0
 97
        0
 75
     0
 76
     1
 98
        1
 10
0.0
 20
0.0
  0
HATCH
  5
137
330
132
100
AcDbEntity
  8
0
  6
Continuous
 62
     0
370
     0
100
AcDbHatch
 10
0.0
 20
0.0
 30
0.0
210
0.0
220
0.0
230
1.0
  2
SOLID
 70
     1
 71
     0
 91
        1
 92
        0
 93
        3
 72
     2
 10
0.0
 20
0.0
 40
3.000000000000001
 50
180.0
 51
270.0000000000008
 73
     1
 72
     1
 10
0.0
 20
-3.000000000000001
 11
0.0
 21
0.0
 72
     1
 10
0.0
 20
0.0
 11
-3.000000000000001
 21
0.0
 97
        0
 75
     0
 76
     1
 98
        1
 10
0.0
 20
0.0
  0
ENDBLK
  5
134
330
132
100
AcDbEntity
  8
0
100
AcDbBlockEnd
  0
BLOCK
  5
198
330
197
100
AcDbEntity
  8
0
100
AcDbBlockBegin
  2
*D8
 70
     1
 10
0.0
 20
0.0
 30
0.0
  3
*D8
  1

  0
LINE
  5
19A
330
197
100
AcDbEntity
  8
치수문자_일반주서
 62
     0
370
    -2
100
AcDbLine
 10
16.129
 20
3.155101899082702
 30
0.0
 11
16.129
 21
16.26894362990562
 31
0.0
  0
LINE
  5
19B
330
197
100
AcDbEntity
  8
치수문자_일반주서
 62
     0
370
    -2
100
AcDbLine
 10
6.603999999999999
 20
2.633059590344415
 30
0.0
 11
6.603999999999999
 21
16.26894362990562
 31
0.0
  0
LINE
  5
19C
330
197
100
AcDbEntity
  8
치수문자_일반주서
 62
     0
370
    -2
100
AcDbLine
 10
16.129
 20
16.26894362990562
 30
0.0
 11
46.358
 21
16.26894362990562
 31
0.0
  0
LINE
  5
19D
330
197
100
AcDbEntity
  8
치수문자_일반주서
 62
     0
370
    -2
100
AcDbLine
 10
16.129
 20
16.26894362990562
 30
0.0
 11
6.603999999999999
 21
16.26894362990562
 31
0.0
  0
LINE
  5
19E
330
197
100
AcDbEntity
  8
치수문자_일반주서
 62
     0
370
    -2
100
AcDbLine
 10
19.431
 20
16.26894362990562
 30
0.0
 11
22.733
 21
16.26894362990562
 31
0.0
  0
LINE
  5
19F
330
197
100
AcDbEntity
  8
치수문자_일반주서
 62
     0
370
    -2
100
AcDbLine
 10
3.302
 20
16.26894362990562
 30
0.0
 11
0.0
 21
16.26894362990562
 31
0.0
  0
SOLID
  5
1A0
330
197
100
AcDbEntity
  8
치수문자_일반주서
 62
     0
100
AcDbTrace
 10
19.431
 20
16.81927696323896
 30
0.0
 11
19.431
 21
15.71861029657229
 31
0.0
 12
16.129
 22
16.26894362990562
 32
0.0
 13
16.129
 23
16.26894362990562
 33
0.0
  0
SOLID
  5
1A1
330
197
100
AcDbEntity
  8
치수문자_일반주서
 62
     0
100
AcDbTrace
 10
3.302
 20
15.71861029657229
 30
0.0
 11
3.302
 21
16.81927696323896
 31
0.0
 12
6.603999999999999
 22
16.26894362990562
 32
0.0
 13
6.603999999999999
 23
16.26894362990562
 33
0.0
  0
MTEXT
  5
1A2
330
197
100
AcDbEntity
  8
치수문자_일반주서
 62
     0
100
AcDbMText
 10
34.5455
 20
20.64394362990562
 30
0.0
 40
3.5
 41
0.0
 71
     2
 72
     1
  1
\A1;9.53 [3/8]
  7
SLDTEXTSTYLE0
 73
     1
 44
1.0
  0
POINT
  5
1A3
330
197
100
AcDbEntity
  8
Defpoints
 62
     0
100
AcDbPoint
 10
16.129
 20
3.092601899082702
 30
0.0
  0
POINT
  5
1A4
330
197
100
AcDbEntity
  8
Defpoints
 62
     0
100
AcDbPoint
 10
6.603999999999999
 20
2.570559590344415
 30
0.0
  0
POINT
  5
1A5
330
197
100
AcDbEntity
  8
Defpoints
 62
     0
100
AcDbPoint
 10
6.603999999999999
 20
16.26894362990562
 30
0.0
  0
ENDBLK
  5
199
330
197
100
AcDbEntity
  8
0
100
AcDbBlockEnd
  0
BLOCK
  5
1AA
330
1A9
100
AcDbEntity
  8
0
100
AcDbBlockBegin
  2
*D9
 70
     1
 10
0.0
 20
0.0
 30
0.0
  3
*D9
  1

  0
LINE
  5
1AC
330
1A9
100
AcDbEntity
  8
치수문자_일반주서
 62
     0
370
    -2
100
AcDbLine
 10
87.22882638189762
 20
2.945643179531765
 30
0.0
 11
87.22882638189762
 21
16.05948491035468
 31
0.0
  0
LINE
  5
1AD
330
1A9
100
AcDbEntity
  8
치수문자_일반주서
 62
     0
370
    -2
100
AcDbLine
 10
77.70382638189761
 20
2.423600870793477
 30
0.0
 11
77.70382638189761
 21
16.05948491035468
 31
0.0
  0
LINE
  5
1AE
330
1A9
100
AcDbEntity
  8
치수문자_일반주서
 62
     0
370
    -2
100
AcDbLine
 10
87.22882638189762
 20
16.05948491035468
 30
0.0
 11
117.4578263818976
 21
16.05948491035468
 31
0.0
  0
LINE
  5
1AF
330
1A9
100
AcDbEntity
  8
치수문자_일반주서
 62
     0
370
    -2
100
AcDbLine
 10
87.22882638189762
 20
16.05948491035468
 30
0.0
 11
77.70382638189761
 21
16.05948491035468
 31
0.0
  0
LINE
  5
1B0
330
1A9
100
AcDbEntity
  8
치수문자_일반주서
 62
     0
370
    -2
100
AcDbLine
 10
90.53082638189761
 20
16.05948491035468
 30
0.0
 11
93.8328263818976
 21
16.05948491035468
 31
0.0
  0
LINE
  5
1B1
330
1A9
100
AcDbEntity
  8
치수문자_일반주서
 62
     0
370
    -2
100
AcDbLine
 10
74.40182638189762
 20
16.05948491035468
 30
0.0
 11
71.09982638189763
 21
16.05948491035468
 31
0.0
  0
SOLID
  5
1B2
330
1A9
100
AcDbEntity
  8
치수문자_일반주서
 62
     0
100
AcDbTrace
 10
90.53082638189761
 20
16.60981824368802
 30
0.0
 11
90.53082638189761
 21
15.50915157702135
 31
0.0
 12
87.22882638189762
 22
16.05948491035468
 32
0.0
 13
87.22882638189762
 23
16.05948491035468
 33
0.0
  0
SOLID
  5
1B3
330
1A9
100
AcDbEntity
  8
치수문자_일반주서
 62
     0
100
AcDbTrace
 10
74.40182638189762
 20
15.50915157702135
 30
0.0
 11
74.40182638189762
 21
16.60981824368802
 31
0.0
 12
77.70382638189761
 22
16.05948491035468
 32
0.0
 13
77.70382638189761
 23
16.05948491035468
 33
0.0
  0
MTEXT
  5
1B4
330
1A9
100
AcDbEntity
  8
치수문자_일반주서
 62
     0
100
AcDbMText
 10
105.6453263818976
 20
20.43448491035468
 30
0.0
 40
3.5
 41
0.0
 71
     2
 72
     1
  1
\A1;9.53 [3/8]
  7
SLDTEXTSTYLE0
 73
     1
 44
1.0
  0
POINT
  5
1B5
330
1A9
100
AcDbEntity
  8
Defpoints
 62
     0
100
AcDbPoint
 10
87.22882638189762
 20
2.883143179531765
 30
0.0
  0
POINT
  5
1B6
330
1A9
100
AcDbEntity
  8
Defpoints
 62
     0
100
AcDbPoint
 10
77.70382638189761
 20
2.361100870793477
 30
0.0
  0
POINT
  5
1B7
330
1A9
100
AcDbEntity
  8
Defpoints
 62
     0
100
AcDbPoint
 10
77.70382638189761
 20
16.05948491035468
 30
0.0
  0
ENDBLK
  5
1AB
330
1A9
100
AcDbEntity
  8
0
100
AcDbBlockEnd
  0
ENDSEC
  0
SECTION
  2
ENTITIES
  0
LINE
  5
96
330
1F
100
AcDbEntity
  8
외형선
  6
Continuous
370
    15
100
AcDbLine
 10
20.06286934298443
 20
4.762499999999997
 30
0.0
 11
4.838700000000159
 21
4.762499999999996
 31
0.0
  0
LINE
  5
97
330
1F
100
AcDbEntity
  8
외형선
  6
Continuous
370
    15
100
AcDbLine
 10
-20.06286934298443
 20
-4.762500000000001
 30
0.0
 11
20.06286934298443
 21
-4.762499999999998
 31
0.0
  0
LINE
  5
98
330
1F
100
AcDbEntity
  8
외형선
  6
Continuous
370
    15
100
AcDbLine
 10
20.06286934298443
 20
-4.7625
 30
0.0
 11
25.46740564388539
 21
-3.314358862708899
 31
0.0
  0
LINE
  5
99
330
1F
100
AcDbEntity
  8
외형선
  6
Continuous
370
    15
100
AcDbLine
 10
25.46740564388539
 20
3.314358862708898
 30
0.0
 11
20.06286934298443
 21
4.762499999999998
 31
0.0
  0
SPLINE
  5
9C
330
1F
100
AcDbEntity
  8
외형선
  6
Continuous
370
    15
100
AcDbSpline
210
0.0
220
0.0
230
1.0
 70
     8
 71
     3
 72
     9
 73
     5
 74
     0
 42
0.000000001
 43
0.00000001
 40
0.0
 40
0.0
 40
0.0
 40
0.0
 40
0.5248284408705052
 40
1.0
 40
1.0
 40
1.0
 40
1.0
 10
25.73057961278722
 20
-2.632216849089482
 30
0.0
 10
25.95060976684334
 20
-2.612014311248606
 30
0.0
 10
26.36985182181117
 20
-2.573520707877251
 30
0.0
 10
26.78854765035149
 20
-2.546535336418978
 30
0.0
 10
26.98750000000002
 20
-2.533712655389463
 30
0.0
  0
LINE
  5
9D
330
1F
100
AcDbEntity
  8
0
  6
Continuous
 62
     1
370
    15
100
AcDbLine
 10
31.46106676894649
 20
0.8135882936885827
 30
0.0
 11
30.58177468241563
 21
1.254109323031228
 31
0.0
1001
PE_URL
1000

  0
SPLINE
  5
9E
330
1F
100
AcDbEntity
  8
0
  6
Continuous
 62
     1
370
    15
100
AcDbSpline
210
0.0
220
0.0
230
1.0
 70
     8
 71
     3
 72
    17
 73
    13
 74
     0
 42
0.000000001
 43
0.00000001
 40
0.0
 40
0.0
 40
0.0
 40
0.0
 40
0.1566910572226031
 40
0.2668367420891019
 40
0.3731376020806149
 40
0.5042684681937984
 40
0.6337720245052929
 40
0.7208664730157305
 40
0.8006603805951058
 40
0.875230123907651
 40
0.9468529035033246
 40
1.0
 40
1.0
 40
1.0
 40
1.0
 10
30.41247926504481
 20
2.522977002531423
 30
0.0
 10
30.27633301395115
 20
2.516195392669985
 30
0.0
 10
30.04448301093618
 20
2.504646662872504
 30
0.0
 10
29.71404346789357
 20
2.493180103515797
 30
0.0
 10
29.40528892425146
 20
2.485153447076913
 30
0.0
 10
29.08311266310601
 20
2.480216965997736
 30
0.0
 10
28.77238710045441
 20
2.479064909828125
 30
0.0
 10
28.50695103190594
 20
2.47985844396397
 30
0.0
 10
28.2922478633776
 20
2.482755766664727
 30
0.0
 10
28.10601175849467
 20
2.487286455409425
 30
0.0
 10
27.93671933058984
 20
2.491623915588282
 30
0.0
 10
27.82682396019174
 20
2.495302674747416
 30
0.0
 10
27.78001282245555
 20
2.496869682539215
 30
0.0
1001
PE_URL
1000

  0
SPLINE
  5
9F
330
1F
100
AcDbEntity
  8
0
  6
Continuous
 62
     1
370
    15
100
AcDbSpline
210
0.0
220
0.0
230
1.0
 70
     8
 71
     3
 72
    25
 73
    21
 74
     0
 42
0.000000001
 43
0.00000001
 40
0.0
 40
0.0
 40
0.0
 40
0.0
 40
0.0751780827641087
 40
0.1288112256399871
 40
0.1640618511671268
 40
0.2055163247459015
 40
0.2575251638600918
 40
0.3075343152208532
 40
0.3712883137922424
 40
0.4254900990986345
 40
0.4793694326301058
 40
0.5521738861851221
 40
0.635783151479861
 40
0.7103855945691517
 40
0.740329391564146
 40
0.7679041459134595
 40
0.7957450773634248
 40
0.8417333618929126
 40
0.9097915821276393
 40
1.0
 40
1.0
 40
1.0
 40
1.0
 10
38.50692889839153
 20
2.17154955474661
 30
0.0
 10
38.36852033780868
 20
2.160304077758729
 30
0.0
 10
38.13136908744113
 20
2.141035913149367
 30
0.0
 10
37.82910920209827
 20
2.122858134872131
 30
0.0
 10
37.58604597932698
 20
2.11076453757183
 30
0.0
 10
37.3470128543342
 20
2.101240545592908
 30
0.0
 10
37.08159035527245
 20
2.093789866620114
 30
0.0
 10
36.7754536579492
 20
2.089171712286429
 30
0.0
 10
36.465138239401
 20
2.089072896852867
 30
0.0
 10
36.14735608493662
 20
2.093775869573359
 30
0.0
 10
35.81268836597826
 20
2.103334064766313
 30
0.0
 10
35.42423450936892
 20
2.120722863674545
 30
0.0
 10
34.99361194257558
 20
2.148617876964265
 30
0.0
 10
34.64428576146476
 20
2.177932627258241
 30
0.0
 10
34.40386903744477
 20
2.201145512947143
 30
0.0
 10
34.24797573665355
 20
2.217224431020318
 30
0.0
 10
34.06250258708216
 20
2.237544567442067
 30
0.0
 10
33.80059934502727
 20
2.268723774747798
 30
0.0
 10
33.42246804152084
 20
2.317932438404618
 30
0.0
 10
33.12829113443556
 20
2.362577630274775
 30
0.0
 10
32.96061692539101
 20
2.38802438375601
 30
0.0
1001
PE_URL
1000

  0
SPLINE
  5
A0
330
1F
100
AcDbEntity
  8
0
  6
Continuous
 62
     1
370
    15
100
AcDbSpline
210
0.0
220
0.0
230
1.0
 70
     8
 71
     3
 72
    14
 73
    10
 74
     0
 42
0.000000001
 43
0.00000001
 40
0.0
 40
0.0
 40
0.0
 40
0.0
 40
0.2183713420819382
 40
0.3554147770333057
 40
0.4838524349332787
 40
0.648569980765721
 40
0.7900863769632445
 40
0.9019821787685717
 40
1.0
 40
1.0
 40
1.0
 40
1.0
 10
32.96061692539101
 20
-2.388024383756012
 30
0.0
 10
33.13124366651344
 20
-2.362121733418817
 30
0.0
 10
33.40895073454617
 20
-2.319963341175613
 30
0.0
 10
33.79110407930158
 20
-2.269958686270227
 30
0.0
 10
34.13213255397902
 20
-2.22909903667398
 30
0.0
 10
34.47385723031241
 20
-2.193501324347906
 30
0.0
 10
34.80285547631349
 20
-2.164390567094893
 30
0.0
 10
35.07932628696011
 20
-2.143276486346339
 30
0.0
 10
35.24364481673987
 20
-2.1330051834383
 30
0.0
 10
35.32037230133072
 20
-2.128209064359941
 30
0.0
1001
PE_URL
1000

  0
SPLINE
  5
A1
330
1F
100
AcDbEntity
  8
0
  6
Continuous
 62
     1
370
    15
100
AcDbSpline
210
0.0
220
0.0
230
1.0
 70
     8
 71
     3
 72
    19
 73
    15
 74
     0
 42
0.000000001
 43
0.00000001
 40
0.0
 40
0.0
 40
0.0
 40
0.0
 40
0.1279210845279273
 40
0.2156449677958903
 40
0.2717233517495744
 40
0.3268123710358039
 40
0.384168062209817
 40
0.4455419454684511
 40
0.5125310763120237
 40
0.6121393846121674
 40
0.712999346388426
 40
0.7947611847207776
 40
0.8794802893430719
 40
1.0
 40
1.0
 40
1.0
 40
1.0
 10
26.98750000000002
 20
-2.533712655389463
 30
0.0
 10
27.13397264848807
 20
-2.525588603210128
 30
0.0
 10
27.38089120521191
 20
-2.511893355260581
 30
0.0
 10
27.69171816112986
 20
-2.499551418318744
 30
0.0
 10
27.91976046142698
 20
-2.492147728645574
 30
0.0
 10
28.10606050374748
 20
-2.487260426781793
 30
0.0
 10
28.29223359479893
 20
-2.482763385694273
 30
0.0
 10
28.50695531188679
 20
-2.479856158571621
 30
0.0
 10
28.77238525560382
 20
-2.479065894927728
 30
0.0
 10
29.08311324881326
 20
-2.480216653246134
 30
0.0
 10
29.40528879968971
 20
-2.485153513589472
 30
0.0
 10
29.7140434990159
 20
-2.493180086897327
 30
0.0
 10
30.04448299905737
 20
-2.504646669215471
 30
0.0
 10
30.27633300955639
 20
-2.51619539501667
 30
0.0
 10
30.41247926504481
 20
-2.522977002531424
 30
0.0
1001
PE_URL
1000

  0
LINE
  5
A2
330
1F
100
AcDbEntity
  8
외형선
  6
Continuous
370
    15
100
AcDbLine
 10
20.06286934298443
 20
4.762499999999998
 30
0.0
 11
20.06286934298443
 21
-4.762500000000004
 31
0.0
  0
SPLINE
  5
A4
330
1F
100
AcDbEntity
  8
외형선
  6
Continuous
370
    15
100
AcDbSpline
210
0.0
220
0.0
230
1.0
 70
     8
 71
     3
 72
     8
 73
     4
 74
     0
 42
0.000000001
 43
0.00000001
 40
0.0
 40
0.0
 40
0.0
 40
0.0
 40
1.0
 40
1.0
 40
1.0
 40
1.0
 10
25.98750000000002
 20
3.004274749336495
 30
0.0
 10
25.81350609897954
 20
3.074309465700655
 30
0.0
 10
25.64011068389488
 20
3.142272268130853
 30
0.0
 10
25.4673069607665
 20
3.207916702440869
 30
0.0
  0
LINE
  5
A5
330
1F
100
AcDbEntity
  8
외형선
  6
Continuous
370
    15
100
AcDbLine
 10
25.98750000000002
 20
3.004274749336485
 30
0.0
 11
25.98750000000002
 21
2.603757129490788
 31
0.0
  0
SPLINE
  5
A6
330
1F
100
AcDbEntity
  8
외형선
  6
Continuous
370
    15
100
AcDbSpline
210
0.0
220
0.0
230
1.0
 70
     8
 71
     3
 72
     8
 73
     4
 74
     0
 42
0.000000001
 43
0.00000001
 40
0.0
 40
0.0
 40
0.0
 40
0.0
 40
1.0
 40
1.0
 40
1.0
 40
1.0
 10
25.46740564388539
 20
2.859518764106339
 30
0.0
 10
25.64085120366263
 20
2.776200479368955
 30
0.0
 10
25.81421105379037
 20
2.690949345773019
 30
0.0
 10
25.98750000000099
 20
2.603757129487481
 30
0.0
  0
LINE
  5
A7
330
1F
100
AcDbEntity
  8
외형선
  6
Continuous
370
    15
100
AcDbLine
 10
25.46740564388539
 20
-3.314358862708899
 30
0.0
 11
25.46740564388539
 21
2.859551617663787
 31
0.0
  0
SPLINE
  5
A8
330
1F
100
AcDbEntity
  8
외형선
  6
Continuous
370
    15
100
AcDbSpline
210
0.0
220
0.0
230
1.0
 70
     8
 71
     3
 72
     8
 73
     4
 74
     0
 42
0.000000001
 43
0.00000001
 40
0.0
 40
0.0
 40
0.0
 40
0.0
 40
1.0
 40
1.0
 40
1.0
 40
1.0
 10
25.98750000000002
 20
-3.004274749336497
 30
0.0
 10
25.81350609897954
 20
-3.074309465700657
 30
0.0
 10
25.64011068389488
 20
-3.142272268130855
 30
0.0
 10
25.4673069607665
 20
-3.20791670244087
 30
0.0
  0
LINE
  5
A9
330
1F
100
AcDbEntity
  8
외형선
  6
Continuous
370
    15
100
AcDbLine
 10
25.46740564388539
 20
3.207912835961425
 30
0.0
 11
25.46740564388539
 21
3.314358862708898
 31
0.0
  0
SPLINE
  5
AB
330
1F
100
AcDbEntity
  8
외형선
  6
Continuous
370
    15
100
AcDbSpline
210
0.0
220
0.0
230
1.0
 70
    24
 71
     3
 72
    14
 73
    10
 74
     0
 42
0.000000001
 43
0.00000001
 40
0.0
 40
0.0
 40
0.0
 40
0.0
 40
0.25
 40
0.25
 40
0.5
 40
0.5
 40
0.75
 40
0.75
 40
1.0
 40
1.0
 40
1.0
 40
1.0
 10
26.98749999999995
 20
1.496081162151949
 30
0.0
 10
26.98749999999995
 20
1.252552437000431
 30
0.0
 10
26.98749999999995
 20
0.9839561750914678
 30
0.0
 10
26.98749999999995
 20
0.4162076291787957
 30
0.0
 10
26.98749999999996
 20
0.1172719318615424
 30
0.0
 10
26.98749999999995
 20
-0.4824599364965075
 30
0.0
 10
26.98749999999995
 20
-0.7829365453241204
 30
0.0
 10
26.98749999999995
 20
-1.356556461969729
 30
0.0
 10
26.98749999999996
 20
-1.62947493644427
 30
0.0
 10
26.98749999999995
 20
-1.878339659794344
 30
0.0
  0
SPLINE
  5
AC
330
1F
100
AcDbEntity
  8
외형선
  6
Continuous
370
    15
100
AcDbSpline
210
0.0
220
0.0
230
1.0
 70
     8
 71
     3
 72
    10
 73
     6
 74
     0
 42
0.000000001
 43
0.00000001
 40
0.0
 40
0.0
 40
0.0
 40
0.0
 40
0.5
 40
0.5
 40
1.0
 40
1.0
 40
1.0
 40
1.0
 10
26.98750000000002
 20
-1.878339659794364
 30
0.0
 10
26.73437296969198
 20
-1.799585587481913
 30
0.0
 10
26.48354073518107
 20
-1.715110904793586
 30
0.0
 10
25.97520261986808
 20
-1.53503537157113
 30
0.0
 10
25.7199884744422
 20
-1.439665811615324
 30
0.0
 10
25.46736959074704
 20
-1.340354765861658
 30
0.0
  0
SPLINE
  5
AD
330
1F
100
AcDbEntity
  8
외형선
  6
Continuous
370
    15
100
AcDbSpline
210
0.0
220
0.0
230
1.0
 70
     8
 71
     3
 72
    10
 73
     6
 74
     0
 42
0.000000001
 43
0.00000001
 40
0.0
 40
0.0
 40
0.0
 40
0.0
 40
0.5
 40
0.5
 40
1.0
 40
1.0
 40
1.0
 40
1.0
 10
26.98750000000002
 20
1.496081162151931
 30
0.0
 10
26.73437501782657
 20
1.571782679748011
 30
0.0
 10
26.48354483134731
 20
1.642511469148489
 30
0.0
 10
25.97521086309725
 20
1.773679569618408
 30
0.0
 10
25.71999877826047
 20
1.83387558752397
 30
0.0
 10
25.46738185488707
 20
1.887859124245307
 30
0.0
  0
SPLINE
  5
AE
330
1F
100
AcDbEntity
  8
외형선
  6
Continuous
370
    15
100
AcDbSpline
210
0.0
220
0.0
230
1.0
 70
    24
 71
     3
 72
    10
 73
     6
 74
     0
 42
0.000000001
 43
0.00000001
 40
0.0
 40
0.0
 40
0.0
 40
0.0
 40
0.5
 40
0.5
 40
1.0
 40
1.0
 40
1.0
 40
1.0
 10
26.98750000000002
 20
2.231964840261908
 30
0.0
 10
26.98750000000002
 20
2.155015399527993
 30
0.0
 10
26.98750000000002
 20
2.047000276413187
 30
0.0
 10
26.98750000000002
 20
1.791218608228983
 30
0.0
 10
26.98750000000002
 20
1.644289978200767
 30
0.0
 10
26.98750000000002
 20
1.496081162151931
 30
0.0
  0
SPLINE
  5
AF
330
1F
100
AcDbEntity
  8
외형선
  6
Continuous
370
    15
100
AcDbSpline
210
0.0
220
0.0
230
1.0
 70
     8
 71
     3
 72
    10
 73
     6
 74
     0
 42
0.000000001
 43
0.00000001
 40
0.0
 40
0.0
 40
0.0
 40
0.0
 40
0.5
 40
0.5
 40
1.0
 40
1.0
 40
1.0
 40
1.0
 10
25.98750000000002
 20
2.603757129490787
 30
0.0
 10
26.15505931802711
 20
2.548555156529056
 30
0.0
 10
26.32266475443485
 20
2.489735638123954
 30
0.0
 10
26.65589079257454
 20
2.3656310068971
 30
0.0
 10
26.82082296506719
 20
2.30045116738154
 30
0.0
 10
26.98750000000002
 20
2.231964840261908
 30
0.0
  0
SPLINE
  5
B0
330
1F
100
AcDbEntity
  8
외형선
  6
Continuous
370
    15
100
AcDbSpline
210
0.0
220
0.0
230
1.0
 70
     8
 71
     3
 72
    10
 73
     6
 74
     0
 42
0.000000001
 43
0.00000001
 40
0.0
 40
0.0
 40
0.0
 40
0.0
 40
0.5
 40
0.5
 40
1.0
 40
1.0
 40
1.0
 40
1.0
 10
26.98750000000002
 20
2.768794427342308
 30
0.0
 10
26.82082296506719
 20
2.815921231469539
 30
0.0
 10
26.65589079257454
 20
2.859078157030646
 30
0.0
 10
26.32266475443485
 20
2.937690609505052
 30
0.0
 10
26.15505931802711
 20
2.973068281510258
 30
0.0
 10
25.98750000000002
 20
3.004274749336487
 30
0.0
  0
LINE
  5
B1
330
1F
100
AcDbEntity
  8
외형선
  6
Continuous
370
    15
100
AcDbLine
 10
26.98750000000002
 20
2.768794427342307
 30
0.0
 11
26.98750000000002
 21
2.231964840261908
 31
0.0
  0
LINE
  5
B2
330
1F
100
AcDbEntity
  8
외형선
  6
Continuous
370
    15
100
AcDbLine
 10
25.73420915997519
 20
-2.617514024344702
 30
0.0
 11
25.4673069607665
 21
-2.657702478819023
 31
0.0
  0
SPLINE
  5
B3
330
1F
100
AcDbEntity
  8
외형선
  6
Continuous
370
    15
100
AcDbSpline
210
0.0
220
0.0
230
1.0
 70
    24
 71
     3
 72
    12
 73
     8
 74
     0
 42
0.000000001
 43
0.00000001
 40
0.0
 40
0.0
 40
0.0
 40
0.0
 40
0.181784339636165
 40
0.365953990420187
 40
0.6325353106314248
 40
0.90684750718829
 40
1.0
 40
1.0
 40
1.0
 40
1.0
 10
26.98750000000002
 20
-1.878339659794364
 30
0.0
 10
26.98750000000002
 20
-1.951705240434101
 30
0.0
 10
26.98750000000002
 20
-2.099399079454237
 30
0.0
 10
26.98750000000001
 20
-2.298623578139776
 30
0.0
 10
26.98750000000001
 20
-2.457181101791627
 30
0.0
 10
26.98750000000002
 20
-2.5361776953263
 30
0.0
 10
26.98750000000001
 20
-2.526801221471914
 30
0.0
 10
26.98750000000001
 20
-2.524424280398145
 30
0.0
  0
SPLINE
  5
B4
330
1F
100
AcDbEntity
  8
외형선
  6
Continuous
370
    15
100
AcDbSpline
210
0.0
220
0.0
230
1.0
 70
     8
 71
     3
 72
    10
 73
     6
 74
     0
 42
0.000000001
 43
0.00000001
 40
0.0
 40
0.0
 40
0.0
 40
0.0
 40
0.5
 40
0.5
 40
1.0
 40
1.0
 40
1.0
 40
1.0
 10
26.98750000000002
 20
-2.768794427342309
 30
0.0
 10
26.82082296506719
 20
-2.81592123146954
 30
0.0
 10
26.65589079257454
 20
-2.859078157030647
 30
0.0
 10
26.32266475443485
 20
-2.937690609505053
 30
0.0
 10
26.15505931802711
 20
-2.973068281510259
 30
0.0
 10
25.98750000000002
 20
-3.004274749336489
 30
0.0
  0
SPLINE
  5
B5
330
1F
100
AcDbEntity
  8
외형선
  6
Continuous
370
    15
100
AcDbSpline
210
0.0
220
0.0
230
1.0
 70
    24
 71
     3
 72
    10
 73
     6
 74
     0
 42
0.000000001
 43
0.00000001
 40
0.0
 40
0.0
 40
0.0
 40
0.0
 40
0.010587279174765
 40
0.7502600479687757
 40
1.0
 40
1.0
 40
1.0
 40
1.0
 10
26.98750000000002
 20
-2.579434574813763
 30
0.0
 10
26.98750000000002
 20
-2.580164038612067
 30
0.0
 10
26.98750000000002
 20
-2.631856974565923
 30
0.0
 10
26.98750000000001
 20
-2.694067719332066
 30
0.0
 10
26.98750000000002
 20
-2.753733938915493
 30
0.0
 10
26.98750000000002
 20
-2.768794427327467
 30
0.0
  0
SPLINE
  5
B6
330
1F
100
AcDbEntity
  8
0
  6
Continuous
 62
     1
370
    15
100
AcDbSpline
210
0.0
220
0.0
230
1.0
 70
     8
 71
     3
 72
    38
 73
    34
 74
     0
 42
0.000000001
 43
0.00000001
 40
0.0
 40
0.0
 40
0.0
 40
0.0
 40
0.0624999999999999
 40
0.0624999999999999
 40
0.1249999999999999
 40
0.1249999999999999
 40
0.1874999999999998
 40
0.1874999999999998
 40
0.2499999999999998
 40
0.2499999999999998
 40
0.3124999999999997
 40
0.3124999999999997
 40
0.3749999999999997
 40
0.3749999999999997
 40
0.4374999999999996
 40
0.4374999999999996
 40
0.4999999999999996
 40
0.4999999999999996
 40
0.5624999999999996
 40
0.5624999999999996
 40
0.6249999999999997
 40
0.6249999999999997
 40
0.6874999999999997
 40
0.6874999999999997
 40
0.7499999999999998
 40
0.7499999999999998
 40
0.8124999999999998
 40
0.8124999999999998
 40
0.8749999999999999
 40
0.8749999999999999
 40
0.9374999999999999
 40
0.9374999999999999
 40
1.0
 40
1.0
 40
1.0
 40
1.0
 10
39.68750000000002
 20
-3.012887259811282
 30
0.0
 10
39.42520429339174
 20
-2.964841278716665
 30
0.0
 10
39.15916862598939
 20
-2.906113518316467
 30
0.0
 10
38.62784949754213
 20
-2.768860570882286
 30
0.0
 10
38.36458998991598
 20
-2.690569563635991
 30
0.0
 10
37.83750651384545
 20
-2.51590821272208
 30
0.0
 10
37.57097920649883
 20
-2.419187891501782
 30
0.0
 10
37.04023589485529
 20
-2.209858950346705
 30
0.0
 10
36.77848659669916
 20
-2.0976489846448
 30
0.0
 10
36.24947165053042
 20
-1.858718201417661
 30
0.0
 10
35.98274372376704
 20
-1.732018482701203
 30
0.0
 10
35.45314996734588
 20
-1.468081000721472
 30
0.0
 10
35.19163951153314
 20
-1.331121826130145
 30
0.0
 10
34.66126061175811
 20
-1.047655241216509
 30
0.0
 10
34.39462382058383
 20
-0.9015104209769828
 30
0.0
 10
33.86674921676856
 20
-0.6049774772476916
 30
0.0
 10
33.60420537872032
 20
-0.454363950654314
 30
0.0
 10
33.07303494985153
 20
-0.1498708356277511
 30
0.0
 10
32.80678071553518
 20
0.0035559240616436
 30
0.0
 10
32.28118868928996
 20
0.3079966871606586
 30
0.0
 10
32.01634295278716
 20
0.4600728081717648
 30
0.0
 10
31.4849562746402
 20
0.7602926704943037
 30
0.0
 10
31.22080268753528
 20
0.9079816221641505
 30
0.0
 10
30.69458934295975
 20
1.195690018594253
 30
0.0
 10
30.42821253309472
 20
1.336480598763127
 30
0.0
 10
29.89718566647135
 20
1.607477963356681
 30
0.0
 10
29.63501835246493
 20
1.737297548017211
 30
0.0
 10
29.10666219633351
 20
1.98468736059438
 30
0.0
 10
28.8399753867646
 20
2.102283423883227
 30
0.0
 10
28.30988309321853
 20
2.321571435903733
 30
0.0
 10
28.04843218536762
 20
2.423064246749422
 30
0.0
 10
27.51849836912851
 20
2.609458448580786
 30
0.0
 10
27.25179316427361
 20
2.694067322976123
 30
0.0
 10
26.98749999999584
 20
2.768794427343487
 30
0.0
1001
PE_URL
1000

  0
SPLINE
  5
B7
330
1F
100
AcDbEntity
  8
0
  6
Continuous
 62
     1
370
    15
100
AcDbSpline
210
0.0
220
0.0
230
1.0
 70
     8
 71
     3
 72
    14
 73
    10
 74
     0
 42
0.000000001
 43
0.00000001
 40
0.0
 40
0.0
 40
0.0
 40
0.0
 40
0.1435603764052037
 40
0.2869628788213575
 40
0.4302936662292894
 40
0.573639631727628
 40
0.7170875128548948
 40
0.8606934515089865
 40
1.0
 40
1.0
 40
1.0
 40
1.0
 10
39.68750000000002
 20
-2.504986939369087
 30
0.0
 10
39.29212010509706
 20
-2.421623219022567
 30
0.0
 10
38.50179511633277
 20
-2.254987453786242
 30
0.0
 10
37.31699534555176
 20
-1.869514944146685
 30
0.0
 10
36.13285517820567
 20
-1.406026075396436
 30
0.0
 10
34.94856923991293
 20
-0.875074849406051
 30
0.0
 10
33.76342773440322
 20
-0.3048509359330845
 30
0.0
 10
32.58907371296126
 20
0.2763560272059161
 30
0.0
 10
31.81001694436573
 20
0.6468853899288807
 30
0.0
 10
31.42640818037384
 20
0.829334624165179
 30
0.0
1001
PE_URL
1000

  0
LINE
  5
B8
330
1F
100
AcDbEntity
  8
0
  6
Continuous
 62
     1
370
    15
100
AcDbLine
 10
39.68749999999994
 20
-3.012887259811283
 30
0.0
 11
39.68750000000002
 21
-2.504986939369087
 31
0.0
1001
PE_URL
1000

  0
SPLINE
  5
B9
330
1F
100
AcDbEntity
  8
0
  6
Continuous
 62
     1
370
    15
100
AcDbSpline
210
0.0
220
0.0
230
1.0
 70
     8
 71
     3
 72
    38
 73
    34
 74
     0
 42
0.000000001
 43
0.00000001
 40
0.0
 40
0.0
 40
0.0
 40
0.0
 40
0.0625
 40
0.0625
 40
0.125
 40
0.125
 40
0.1875
 40
0.1875
 40
0.25
 40
0.25
 40
0.3125
 40
0.3125
 40
0.375
 40
0.375
 40
0.4375
 40
0.4375
 40
0.5
 40
0.5
 40
0.5625
 40
0.5625
 40
0.625
 40
0.625
 40
0.6875
 40
0.6875
 40
0.75
 40
0.75
 40
0.8125
 40
0.8125
 40
0.875
 40
0.875
 40
0.9375
 40
0.9375
 40
1.0
 40
1.0
 40
1.0
 40
1.0
 10
26.98749999999783
 20
2.231964840262231
 30
0.0
 10
27.25179316427557
 20
2.123368787353758
 30
0.0
 10
27.51849836913043
 20
2.006660697049222
 30
0.0
 10
28.04843218536945
 20
1.76061699267282
 30
0.0
 10
28.30988309322031
 20
1.631620358978263
 30
0.0
 10
28.83997538676632
 20
1.362047612871074
 30
0.0
 10
29.10666219633518
 20
1.221756379067355
 30
0.0
 10
29.63501835246649
 20
0.9345600078193811
 30
0.0
 10
29.89718566647289
 20
0.7875949247689883
 30
0.0
 10
30.42821253309618
 20
0.4879758101013143
 30
0.0
 10
30.69458934296117
 20
0.3357772306713526
 30
0.0
 10
31.2208026875366
 20
0.0313596750203859
 30
0.0
 10
31.4849562746415
 20
-0.1216877419608235
 30
0.0
 10
32.01634295278837
 20
-0.4264683389511286
 30
0.0
 10
32.2811886892911
 20
-0.5777354086323465
 30
0.0
 10
32.80678071553626
 20
-0.8744654222213408
 30
0.0
 10
33.07303494985257
 20
-1.020956103752629
 30
0.0
 10
33.60420537872128
 20
-1.30556761841647
 30
0.0
 10
33.86674921676947
 20
-1.443287160697218
 30
0.0
 10
34.39462382058467
 20
-1.708286313901751
 30
0.0
 10
34.66126061175891
 20
-1.835744805792691
 30
0.0
 10
35.19163951153385
 20
-2.076555354740422
 30
0.0
 10
35.45314996734655
 20
-2.189629986588006
 30
0.0
 10
35.98274372376762
 20
-2.400770803586612
 30
0.0
 10
36.24947165053096
 20
-2.498581268553812
 30
0.0
 10
36.77848659669962
 20
-2.675655956122653
 30
0.0
 10
37.0402358948557
 20
-2.754938916388857
 30
0.0
 10
37.57097920649917
 20
-2.89455923281738
 30
0.0
 10
37.83750651384574
 20
-2.954591437449464
 30
0.0
 10
38.36458998991618
 20
-3.053371998094645
 30
0.0
 10
38.6278494975423
 20
-3.092348717076542
 30
0.0
 10
39.15916862598948
 20
-3.148758134570777
 30
0.0
 10
39.42520429339177
 20
-3.166055879043248
 30
0.0
 10
39.68750000000002
 20
-3.172316538352934
 30
0.0
1001
PE_URL
1000

  0
SPLINE
  5
BA
330
1F
100
AcDbEntity
  8
0
  6
Continuous
 62
     1
370
    15
100
AcDbSpline
210
0.0
220
0.0
230
1.0
 70
     8
 71
     3
 72
    12
 73
     8
 74
     0
 42
0.000000001
 43
0.00000001
 40
0.0
 40
0.0
 40
0.0
 40
0.0
 40
0.0834307298539226
 40
0.3298866152343287
 40
0.5762683841167497
 40
0.7878950309839261
 40
1.0
 40
1.0
 40
1.0
 40
1.0
 10
31.79278083832352
 20
-0.2980093545572137
 30
0.0
 10
31.65913370250973
 20
-0.2450427478533262
 30
0.0
 10
31.13069050961705
 20
-0.0356118266976982
 30
0.0
 10
30.20771441590952
 20
0.3421923315072903
 30
0.0
 10
29.07935666316655
 20
0.7838339084678209
 30
0.0
 10
28.00617614450811
 20
1.177407889310234
 30
0.0
 10
27.32731415539737
 20
1.389776828196311
 30
0.0
 10
26.98750000000002
 20
1.496081162151931
 30
0.0
1001
PE_URL
1000

  0
SPLINE
  5
BB
330
1F
100
AcDbEntity
  8
외형선
  6
Continuous
370
    15
100
AcDbSpline
210
0.0
220
0.0
230
1.0
 70
    24
 71
     3
 72
    10
 73
     6
 74
     0
 42
0.000000001
 43
0.00000001
 40
0.0
 40
0.0
 40
0.0
 40
0.0
 40
0.4999999999999997
 40
0.4999999999999997
 40
1.0
 40
1.0
 40
1.0
 40
1.0
 10
26.98750000000002
 20
2.231964840261908
 30
0.0
 10
26.98750000000002
 20
2.155015399527993
 30
0.0
 10
26.98750000000002
 20
2.047000276413187
 30
0.0
 10
26.98750000000002
 20
1.791218608228983
 30
0.0
 10
26.98750000000002
 20
1.644289978200767
 30
0.0
 10
26.98750000000002
 20
1.496081162151931
 30
0.0
  0
LINE
  5
BC
330
1F
100
AcDbEntity
  8
0
  6
Continuous
 62
     1
370
    15
100
AcDbLine
 10
39.68750000000002
 20
-3.172316538354119
 30
0.0
 11
39.68750000000001
 21
-3.012887259811278
 31
0.0
1001
PE_URL
1000

  0
SPLINE
  5
BD
330
1F
100
AcDbEntity
  8
0
  6
Continuous
 62
     1
370
    15
100
AcDbSpline
210
0.0
220
0.0
230
1.0
 70
     8
 71
     3
 72
     8
 73
     4
 74
     0
 42
0.000000001
 43
0.00000001
 40
0.0
 40
0.0
 40
0.0
 40
0.0
 40
1.0
 40
1.0
 40
1.0
 40
1.0
 10
37.7224247330212
 20
0.8886594965445297
 30
0.0
 10
37.60976898477534
 20
1.022151308112282
 30
0.0
 10
37.50926042916738
 20
1.150592603090892
 30
0.0
 10
37.42374464654572
 20
1.272800256195025
 30
0.0
1001
PE_URL
1000

  0
LINE
  5
BE
330
1F
100
AcDbEntity
  8
0
  6
Continuous
 62
     1
370
    15
100
AcDbLine
 10
37.46387756187669
 20
1.306475770647301
 30
0.0
 11
39.68750000000002
 21
0.0000000000000012
 31
0.0
1001
PE_URL
1000

  0
LINE
  5
BF
330
1F
100
AcDbEntity
  8
0
  6
Continuous
 62
     1
370
    15
100
AcDbLine
 10
39.68750000000002
 20
0.0000000000000012
 30
0.0
 11
39.68750000000002
 21
-0.8484963536441213
 31
0.0
1001
PE_URL
1000

  0
SPLINE
  5
C0
330
1F
100
AcDbEntity
  8
0
  6
Continuous
 62
     1
370
    15
100
AcDbSpline
210
0.0
220
0.0
230
1.0
 70
     8
 71
     3
 72
    10
 73
     6
 74
     0
 42
0.000000001
 43
0.00000001
 40
0.0
 40
0.0
 40
0.0
 40
0.0
 40
0.5
 40
0.5
 40
1.0
 40
1.0
 40
1.0
 40
1.0
 10
39.68750000000002
 20
-0.8484963536441213
 30
0.0
 10
39.34733158573035
 20
-0.5810651575656126
 30
0.0
 10
39.01284861431049
 20
-0.3026650804819435
 30
0.0
 10
38.3555371575733
 20
0.2766199837640519
 30
0.0
 10
38.02964858914632
 20
0.5805576266506036
 30
0.0
 10
37.7224247330212
 20
0.8886594965445318
 30
0.0
1001
PE_URL
1000

  0
SPLINE
  5
C1
330
1F
100
AcDbEntity
  8
0
  6
Continuous
 62
     1
370
    15
100
AcDbSpline
210
0.0
220
0.0
230
1.0
 70
     8
 71
     3
 72
    14
 73
    10
 74
     0
 42
0.000000001
 43
0.00000001
 40
0.0
 40
0.0
 40
0.0
 40
0.0
 40
0.1088646862601167
 40
0.2174245622443397
 40
0.3793781285648083
 40
0.5414484656626682
 40
0.7036998693141964
 40
0.8658247969951504
 40
1.0
 40
1.0
 40
1.0
 40
1.0
 10
37.72242473301786
 20
0.8886594965459716
 30
0.0
 10
37.45705517883347
 20
1.001476412179302
 30
0.0
 10
36.92705907877901
 20
1.226794367321564
 30
0.0
 10
36.00290264496057
 20
1.585591781254341
 30
0.0
 10
34.94855081931735
 20
1.942954185062807
 30
0.0
 10
33.76344942568439
 20
2.254980097219074
 30
0.0
 10
32.57758177079961
 20
2.459359267164145
 30
0.0
 10
31.45993221143954
 20
2.556594496300098
 30
0.0
 10
30.73784102843261
 20
2.52767096314394
 30
0.0
 10
30.41085254265733
 20
2.514573361992491
 30
0.0
1001
PE_URL
1000

  0
SPLINE
  5
C2
330
1F
100
AcDbEntity
  8
0
  6
Continuous
 62
     1
370
    15
100
AcDbSpline
210
0.0
220
0.0
230
1.0
 70
    24
 71
     3
 72
    10
 73
     6
 74
     0
 42
0.000000001
 43
0.00000001
 40
0.0
 40
0.0
 40
0.0
 40
0.0
 40
0.5
 40
0.5
 40
1.0
 40
1.0
 40
1.0
 40
1.0
 10
39.68750000000002
 20
-2.504986939369086
 30
0.0
 10
39.68750000000002
 20
-2.312960160087081
 30
0.0
 10
39.68750000000001
 20
-2.070326961403038
 30
0.0
 10
39.68750000000001
 20
-1.506228125303409
 30
0.0
 10
39.68750000000001
 20
-1.185251131687908
 30
0.0
 10
39.68750000000001
 20
-0.8484963536442233
 30
0.0
1001
PE_URL
1000

  0
SPLINE
  5
C3
330
1F
100
AcDbEntity
  8
0
  6
Continuous
 62
     1
370
    15
100
AcDbSpline
210
0.0
220
0.0
230
1.0
 70
    24
 71
     3
 72
     8
 73
     4
 74
     0
 42
0.000000001
 43
0.00000001
 40
0.0
 40
0.0
 40
0.0
 40
0.0
 40
1.0
 40
1.0
 40
1.0
 40
1.0
 10
37.75514952997062
 20
1.550881971644896
 30
0.0
 10
37.65035635986844
 20
1.462950061262264
 30
0.0
 10
37.53953778886606
 20
1.369962239208862
 30
0.0
 10
37.42374464654577
 20
1.27280025619506
 30
0.0
1001
PE_URL
1000

  0
LINE
  5
C4
330
1F
100
AcDbEntity
  8
0
  6
Continuous
 62
     1
370
    15
100
AcDbLine
 10
39.68750000000002
 20
2.222499999999999
 30
0.0
 11
38.50686963831414
 21
2.171310096074023
 31
0.0
1001
PE_URL
1000

  0
SPLINE
  5
C5
330
1F
100
AcDbEntity
  8
0
  6
Continuous
 62
     1
370
    15
100
AcDbSpline
210
0.0
220
0.0
230
1.0
 70
     8
 71
     3
 72
     8
 73
     4
 74
     0
 42
0.000000001
 43
0.00000001
 40
0.0
 40
0.0
 40
0.0
 40
0.0
 40
1.0
 40
1.0
 40
1.0
 40
1.0
 10
39.68750000000002
 20
2.222500000000001
 30
0.0
 10
39.03439482157158
 20
2.045248916505807
 30
0.0
 10
38.38751459685841
 20
1.827618470580116
 30
0.0
 10
37.75514952997555
 20
1.550881971648697
 30
0.0
1001
PE_URL
1000

  0
SPLINE
  5
C6
330
1F
100
AcDbEntity
  8
0
  6
Continuous
 62
     1
370
    15
100
AcDbSpline
210
0.0
220
0.0
230
1.0
 70
     8
 71
     3
 72
    13
 73
     9
 74
     0
 42
0.000000001
 43
0.00000001
 40
0.0
 40
0.0
 40
0.0
 40
0.0
 40
0.0651218310610255
 40
0.2633736465758643
 40
0.4614462390559192
 40
0.6594608158576131
 40
0.8295431950687416
 40
1.0
 40
1.0
 40
1.0
 40
1.0
 10
32.96675658943089
 20
-2.375040601623067
 30
0.0
 10
32.83694027219259
 20
-2.398862722933261
 30
0.0
 10
32.31192129930682
 20
-2.495207049504157
 30
0.0
 10
31.3921669529124
 20
-2.549856723609629
 30
0.0
 10
30.20769755310891
 20
-2.531386934204098
 30
0.0
 10
29.07934163908113
 20
-2.393442688609879
 30
0.0
 10
28.00620742049998
 20
-2.175968215724966
 30
0.0
 10
27.32731795507434
 20
-1.977621872933072
 30
0.0
 10
26.98750000000002
 20
-1.878339659794365
 30
0.0
1001
PE_URL
1000

  0
SPLINE
  5
C7
330
1F
100
AcDbEntity
  8
외형선
  6
Continuous
370
    15
100
AcDbSpline
210
0.0
220
0.0
230
1.0
 70
    24
 71
     3
 72
    14
 73
    10
 74
     0
 42
0.000000001
 43
0.00000001
 40
0.0
 40
0.0
 40
0.0
 40
0.0
 40
0.25
 40
0.25
 40
0.5
 40
0.5
 40
0.75
 40
0.75
 40
1.0
 40
1.0
 40
1.0
 40
1.0
 10
26.98749999999995
 20
1.496081162151949
 30
0.0
 10
26.98749999999995
 20
1.252552437000431
 30
0.0
 10
26.98749999999995
 20
0.9839561750914678
 30
0.0
 10
26.98749999999995
 20
0.4162076291787957
 30
0.0
 10
26.98749999999996
 20
0.1172719318615424
 30
0.0
 10
26.98749999999995
 20
-0.4824599364965075
 30
0.0
 10
26.98749999999995
 20
-0.7829365453241204
 30
0.0
 10
26.98749999999995
 20
-1.356556461969729
 30
0.0
 10
26.98749999999996
 20
-1.62947493644427
 30
0.0
 10
26.98749999999995
 20
-1.878339659794344
 30
0.0
  0
LINE
  5
C8
330
1F
100
AcDbEntity
  8
0
  6
Continuous
 62
     1
370
    15
100
AcDbLine
 10
39.68750000000002
 20
0.0000000000000012
 30
0.0
 11
39.68750000000002
 21
2.2225
 31
0.0
1001
PE_URL
1000

  0
SPLINE
  5
C9
330
1F
100
AcDbEntity
  8
외형선
  6
Continuous
370
    15
100
AcDbSpline
210
0.0
220
0.0
230
1.0
 70
    24
 71
     3
 72
    12
 73
     8
 74
     0
 42
0.000000001
 43
0.00000001
 40
0.0
 40
0.0
 40
0.0
 40
0.0
 40
0.1820624866085962
 40
0.3665139341132923
 40
0.6335031485758826
 40
0.9082350683450225
 40
1.0
 40
1.0
 40
1.0
 40
1.0
 10
26.98750000000002
 20
-1.878339659794364
 30
0.0
 10
26.98750000000002
 20
-1.951704789231662
 30
0.0
 10
26.98750000000001
 20
-2.099397719926397
 30
0.0
 10
26.98750000000001
 20
-2.298630130416635
 30
0.0
 10
26.98750000000002
 20
-2.457143520884477
 30
0.0
 10
26.98750000000001
 20
-2.536089926415039
 30
0.0
 10
26.98750000000001
 20
-2.526807312784075
 30
0.0
 10
26.98750000000001
 20
-2.524483095257744
 30
0.0
  0
SPLINE
  5
CA
330
1F
100
AcDbEntity
  8
0
  6
Continuous
 62
     1
370
    15
100
AcDbSpline
210
0.0
220
0.0
230
1.0
 70
    24
 71
     3
 72
    10
 73
     6
 74
     0
 42
0.000000001
 43
0.00000001
 40
0.0
 40
0.0
 40
0.0
 40
0.0
 40
0.5
 40
0.5
 40
1.0
 40
1.0
 40
1.0
 40
1.0
 10
39.68750000000002
 20
2.222499999999999
 30
0.0
 10
39.68750000000001
 20
2.35722241536322
 30
0.0
 10
39.68750000000002
 20
2.513782338653096
 30
0.0
 10
39.68750000000001
 20
2.842244636050714
 30
0.0
 10
39.68750000000002
 20
3.013308158669674
 30
0.0
 10
39.68750000000002
 20
3.172316538354118
 30
0.0
1001
PE_URL
1000

  0
SPLINE
  5
CB
330
1F
100
AcDbEntity
  8
0
  6
Continuous
 62
     1
370
    15
100
AcDbSpline
210
0.0
220
0.0
230
1.0
 70
     8
 71
     3
 72
    16
 73
    12
 74
     0
 42
0.000000001
 43
0.00000001
 40
0.0
 40
0.0
 40
0.0
 40
0.0
 40
0.0187058060452776
 40
0.1236010680936676
 40
0.2288586304217098
 40
0.3239244567797955
 40
0.5144643979858937
 40
0.6099728626987964
 40
0.7072519006751152
 40
0.902246776331017
 40
1.0
 40
1.0
 40
1.0
 40
1.0
 10
35.32209770561037
 20
2.128969986961211
 30
0.0
 10
35.34932448864666
 20
2.141386477017911
 30
0.0
 10
35.52922903036449
 20
2.223430064408253
 30
0.0
 10
35.86189698181693
 20
2.353037149766681
 30
0.0
 10
36.30660019882974
 20
2.518832497045199
 30
0.0
 10
36.87502295484011
 20
2.708235883365461
 30
0.0
 10
37.42955632281862
 20
2.863131535418288
 30
0.0
 10
37.98781922827783
 20
2.984967289026685
 30
0.0
 10
38.55109500637211
 20
3.085219876773744
 30
0.0
 10
39.11972167061529
 20
3.15105997805564
 30
0.0
 10
39.54536946481696
 20
3.166995436552565
 30
0.0
 10
39.6874999999998
 20
3.172316538354114
 30
0.0
1001
PE_URL
1000

  0
LINE
  5
CC
330
1F
100
AcDbEntity
  8
0
  6
Continuous
 62
     1
370
    15
100
AcDbLine
 10
27.78001282245554
 20
-2.496869682539218
 30
0.0
 11
26.98749999999584
 21
-2.76879442734349
 31
0.0
1001
PE_URL
1000

  0
SPLINE
  5
CD
330
1F
100
AcDbEntity
  8
외형선
  6
Continuous
370
    15
100
AcDbSpline
210
0.0
220
0.0
230
1.0
 70
    24
 71
     3
 72
    11
 73
     7
 74
     0
 42
0.000000001
 43
0.00000001
 40
0.0
 40
0.0
 40
0.0
 40
0.0
 40
0.010772389060525
 40
0.3803362911943511
 40
0.7503341499553144
 40
0.9999999999999999
 40
0.9999999999999999
 40
0.9999999999999999
 40
0.9999999999999999
 10
26.98750000000001
 20
-2.579434574813763
 30
0.0
 10
26.98750000000001
 20
-2.580164049221068
 30
0.0
 10
26.98750000000001
 20
-2.605919300821839
 30
0.0
 10
26.98750000000002
 20
-2.65419371303823
 30
0.0
 10
26.98750000000001
 20
-2.716560406928084
 30
0.0
 10
26.98750000000002
 20
-2.753793153102408
 30
0.0
 10
26.98750000000002
 20
-2.768794427327468
 30
0.0
  0
LINE
  5
CE
330
1F
100
AcDbEntity
  8
중심선
 62
     1
100
AcDbLine
 10
-42.68750000000001
 20
-0.0000000000000052
 30
0.0
 11
42.68750000000001
 21
0.0000000000000052
 31
0.0
  0
LINE
  5
CF
330
1F
100
AcDbEntity
  8
참조1
100
AcDbLine
 10
0.0
 20
-0.0000000000000048
 30
0.0
 11
0.0000000000000071
 21
-40.00000000000001
 31
0.0
  0
LINE
  5
D0
330
1F
100
AcDbEntity
  8
참조1
100
AcDbLine
 10
0.0000000000000071
 20
-40.00000000000001
 30
0.0
 11
-12.87821559669921
 21
-40.0
 31
0.0
  0
CIRCLE
  5
D1
330
1F
100
AcDbEntity
  8
해칭선
100
AcDbCircle
 10
0.0
 20
0.0
 30
0.0
 40
3.000000000000001
  0
INSERT
  5
D2
330
1F
100
AcDbEntity
  8
0
  6
Continuous
 62
     7
100
AcDbBlockReference
 66
     1
  2
블럭10
 10
-13.94027293212521
 20
-52.04717430164393
 30
0.0
  0
ATTRIB
  5
D3
330
D2
100
AcDbEntity
  8
FORMAT
 62
     2
100
AcDbText
 10
-23.12156822086649
 20
-49.97180738881175
 30
0.0
 40
4.233333333333333
  1
E1050016 [ 2 FLUTE ]
 41
0.75
  7
SLDTEXTSTYLE0
 11
-23.12156822086649
 21
-52.08847405547841
 31
0.0
100
AcDbAttribute
  2
AUTOATTR0
 70
     0
 74
     1
  0
SEQEND
  5
D4
330
D2
100
AcDbEntity
  8
0
  6
Continuous
 62
     7
  0
HATCH
  5
D5
330
1F
100
AcDbEntity
  8
중심선
100
AcDbHatch
 10
0.0
 20
0.0
 30
0.0
210
0.0
220
0.0
230
1.0
  2
SOLID
 70
     1
 71
     0
 91
        1
 92
        0
 93
        4
 72
     1
 10
-8.225363627744365
 20
-35.8
 11
-11.67163887158165
 21
-35.8
 72
     1
 10
-11.67163887158165
 20
-35.8
 11
-13.79986873078567
 21
-38.33632558057257
 72
     1
 10
-13.79986873078567
 20
-38.33632558057257
 11
-10.35356040183524
 21
-38.33628615127008
 72
     1
 10
-10.35356040183524
 20
-38.33628615127008
 11
-8.225363627744365
 21
-35.8
 97
        0
 75
     0
 76
     1
 98
        1
 10
16.58171167873052
 20
-0.001074928723894
  0
HATCH
  5
D6
330
1F
100
AcDbEntity
  8
중심선
100
AcDbHatch
 10
0.0
 20
0.0
 30
0.0
210
0.0
220
0.0
230
1.0
  2
SOLID
 70
     1
 71
     0
 91
        1
 92
        0
 93
        4
 72
     1
 10
-3.212599636708386
 20
-35.8
 11
-6.658874880545639
 21
-35.8
 72
     1
 10
-6.658874880545639
 20
-35.8
 11
-11.19001288890308
 21
-41.20000000000002
 72
     1
 10
-11.19001288890308
 20
-41.20000000000002
 11
-7.743737645065799
 21
-41.20000000000002
 72
     1
 10
-7.743737645065799
 20
-41.20000000000002
 11
-3.212599636708386
 21
-35.8
 97
        0
 75
     0
 76
     1
 98
        1
 10
16.58171167873052
 20
-0.001074928723894
  0
HATCH
  5
D7
330
1F
100
AcDbEntity
  8
중심선
100
AcDbHatch
 10
0.0
 20
0.0
 30
0.0
210
0.0
220
0.0
230
1.0
  2
SOLID
 70
     1
 71
     0
 91
        1
 92
        0
 93
        4
 72
     1
 10
1.80016435432751
 20
-35.80000000000003
 11
-1.646110889509604
 21
-35.8
 72
     1
 10
-1.646110889509604
 20
-35.8
 11
-8.694547791398882
 21
-44.20000000000002
 72
     1
 10
-8.694547791398882
 20
-44.20000000000002
 11
-5.248272547561598
 21
-44.20000000000002
 72
     1
 10
-5.248272547561598
 20
-44.20000000000002
 11
1.80016435432751
 21
-35.80000000000003
 97
        0
 75
     0
 76
     1
 98
        1
 10
16.58171167873052
 20
-0.001074928723894
  0
HATCH
  5
D8
330
1F
100
AcDbEntity
  8
중심선
100
AcDbHatch
 10
0.0
 20
0.0
 30
0.0
210
0.0
220
0.0
230
1.0
  2
SOLID
 70
     1
 71
     0
 91
        1
 92
        0
 93
        6
 72
     3
 10
6.600054785339681
 20
-40.00000000005127
 11
3.960054785062283
 21
1.540882976769353E-10
 40
0.3939339440162628
 50
17.09539180608437
 51
320.0019657685077
 73
     0
 72
     1
 10
8.28305444104025
 20
-38.5878940046383
 11
10.58835631474131
 21
-36.65356729459035
 72
     3
 10
6.600054785286835
 20
-40.00000000000015
 11
6.600054785286829
 21
-1.278976924368180E-13
 40
0.636358354079598
 50
39.9987384933743
 51
368.4976242363725
 73
     1
 72
     1
 10
13.02538727718744
 20
-39.03999999993002
 11
5.280122092122758
 21
-39.03999999993
 72
     1
 10
5.280122092122758
 20
-39.03999999993
 11
5.280097047676824
 21
-40.95999999992991
 72
     1
 10
5.280097047676824
 20
-40.95999999992991
 11
9.721476817148861
 21
-40.95999999992988
 97
        0
 75
     0
 76
     1
 98
        1
 10
16.58171167873052
 20
-0.001074928723894
  0
DIMENSION
  5
D9
330
1F
100
AcDbEntity
  8
치수문자_일반주서
100
AcDbDimension
  2
_D
 10
-49.68749999999994
 20
-4.762500000000113
 30
0.0
 11
-49.68750000000005
 21
24.49149999999996
 31
0.0
 70
   160
  1
%%c<>
 71
     2
 42
9.525
 52
-270.0
  3
SLDDIMSTYLE0
100
AcDbAlignedDimension
 13
-20.06286934298443
 23
4.762499999999998
 33
0.0
 14
-20.06286934298443
 24
-4.762500000000003
 34
0.0
 50
90.0000000000002
100
AcDbRotatedDimension
1001
PE_URL
1000

1001
ACAD
1000
DSTYLE
1002
{
1070
   171
1070
     8
1070
   273
1070
     7
1002
}
  0
DIMENSION
  5
EE
330
1F
100
AcDbEntity
  8
치수문자_일반주서
100
AcDbDimension
  2
_D_1
 10
74.30723351962158
 20
3.172316538354245
 30
0.0
 11
74.30723351962149
 21
22.46381653835425
 31
0.0
 70
   160
  1
%%c<>
 71
     2
 42
6.344633076708236
 52
-270.0
  3
SLDDIMSTYLE0
100
AcDbAlignedDimension
 13
39.68750000000002
 23
-3.172316538354119
 33
0.0
 14
39.68750000000002
 24
3.172316538354118
 34
0.0
 50
90.0000000000002
100
AcDbRotatedDimension
1001
PE_URL
1000

1001
ACAD
1000
DSTYLE
1002
{
1070
   171
1070
     8
1070
   273
1070
     7
1002
}
  0
DIMENSION
  5
102
330
1F
100
AcDbEntity
  8
치수문자_일반주서
100
AcDbDimension
  2
_D_2
 10
26.98750000000002
 20
14.76249999999999
 30
0.0
 11
57.22900000000002
 21
14.76249999999999
 31
0.0
 70
   160
  1
<>
 71
     2
 42
12.7
  3
SLDDIMSTYLE0
100
AcDbAlignedDimension
 13
39.68750000000002
 23
3.172316538354118
 33
0.0
 14
26.98750000000002
 24
2.768794427342308
 34
0.0
100
AcDbRotatedDimension
1001
PE_URL
1000

1001
ACAD
1000
DSTYLE
1002
{
1070
   171
1070
     8
1070
   273
1070
     7
1002
}
  0
DIMENSION
  5
117
330
1F
100
AcDbEntity
  8
치수문자_일반주서
100
AcDbDimension
  2
_D_3
 10
39.68750000000002
 20
24.76249999999999
 30
0.0
 11
0.0000000000000071
 21
24.76249999999999
 31
0.0
 70
   160
  1
<>
 71
     2
 42
79.37500000000004
  3
SLDDIMSTYLE0
100
AcDbAlignedDimension
 13
-39.68750000000002
 23
3.172316538354114
 33
0.0
 14
39.68750000000002
 24
3.172316538354118
 34
0.0
100
AcDbRotatedDimension
1001
PE_URL
1000

1001
ACAD
1000
DSTYLE
1002
{
1070
   171
1070
     8
1070
   273
1070
     7
1002
}
  0
LINE
  5
12B
330
1F
100
AcDbEntity
  8
참조1
100
AcDbLine
 10
85.09412503295505
 20
7.440000000000001
 30
0.0
 11
85.09412503295505
 21
-7.440000000000003
 31
0.0
  0
LINE
  5
12C
330
1F
100
AcDbEntity
  8
참조1
100
AcDbLine
 10
97.79412503295507
 20
5.440000000000001
 30
0.0
 11
85.09412503295505
 21
5.440000000000001
 31
0.0
  0
SOLID
  5
12D
330
1F
100
AcDbEntity
  8
참조1
100
AcDbTrace
 10
85.09412503295505
 20
5.440000000000001
 30
0.0
 11
91.44412503295504
 21
4.424000000000001
 31
0.0
 12
91.44412503295504
 22
6.456000000000001
 32
0.0
 13
91.44412503295504
 23
6.456000000000001
 33
0.0
  0
LINE
  5
12E
330
1F
100
AcDbEntity
  8
참조1
100
AcDbLine
 10
97.79412503295507
 20
-5.440000000000003
 30
0.0
 11
85.09412503295505
 21
-5.440000000000003
 31
0.0
  0
SOLID
  5
12F
330
1F
100
AcDbEntity
  8
참조1
100
AcDbTrace
 10
85.09412503295505
 20
-5.440000000000003
 30
0.0
 11
91.44412503295504
 21
-6.456000000000003
 31
0.0
 12
91.44412503295504
 22
-4.424000000000003
 32
0.0
 13
91.44412503295504
 23
-4.424000000000003
 33
0.0
  0
MTEXT
  5
130
330
1F
100
AcDbEntity
  8
참조1
100
AcDbMText
 10
94.47847516558105
 20
11.01029177718833
 30
0.0
 40
3.5
 41
0.0
 71
     1
 72
     1
  1
A
  7
SLDTEXTSTYLE0
 73
     1
 44
1.0
  0
MTEXT
  5
131
330
1F
100
AcDbEntity
  8
참조1
100
AcDbMText
 10
94.47847516558105
 20
0.1302917771883252
 30
0.0
 40
3.5
 41
0.0
 71
     1
 72
     1
  1
A
  7
SLDTEXTSTYLE0
 73
     1
 44
1.0
  0
INSERT
  5
138
330
1F
100
AcDbEntity
  8
해칭선
100
AcDbBlockReference
  2
SW_DOWELSYMBOL_0
 10
0.0
 20
0.0
 30
0.0
  0
LINE
  5
1E0
330
1F
100
AcDbEntity
  8
외형선
  6
Continuous
370
    15
100
AcDbLine
 10
-3.568700000000064
 20
3.492500000000014
 30
0.0
 11
3.568700000000064
 21
3.492500000000014
 31
0.0
1001
PE_URL
1000

  0
LINE
  5
1E1
330
1F
100
AcDbEntity
  8
외형선
  6
Continuous
370
    15
100
AcDbLine
 10
-3.568700000000064
 20
3.492500000000014
 30
0.0
 11
-4.838700000000046
 21
4.762499999999996
 31
0.0
1001
PE_URL
1000

  0
LINE
  5
1E2
330
1F
100
AcDbEntity
  8
외형선
  6
Continuous
370
    15
100
AcDbLine
 10
3.568700000000064
 20
3.492500000000014
 30
0.0
 11
4.838700000000159
 21
4.762499999999996
 31
0.0
1001
PE_URL
1000

  0
LINE
  5
222
330
1F
100
AcDbEntity
  8
외형선
  6
Continuous
370
    15
100
AcDbLine
 10
-20.06286934298443
 20
4.762499999999994
 30
0.0
 11
-25.46740564388539
 21
3.314358862708895
 31
0.0
  0
LINE
  5
223
330
1F
100
AcDbEntity
  8
외형선
  6
Continuous
370
    15
100
AcDbLine
 10
-25.46740564388539
 20
-3.3143588627089
 30
0.0
 11
-20.06286934298443
 21
-4.762500000000003
 31
0.0
  0
SPLINE
  5
224
330
1F
100
AcDbEntity
  8
외형선
  6
Continuous
370
    15
100
AcDbSpline
210
0.0
220
0.0
230
1.0
 70
     8
 71
     3
 72
     9
 73
     5
 74
     0
 42
0.000000001
 43
0.00000001
 40
0.0
 40
0.0
 40
0.0
 40
0.0
 40
0.5248284408705052
 40
1.0
 40
1.0
 40
1.0
 40
1.0
 10
-25.73057961278722
 20
2.632216849089478
 30
0.0
 10
-25.95060976684334
 20
2.612014311248601
 30
0.0
 10
-26.36985182181117
 20
2.573520707877245
 30
0.0
 10
-26.78854765035149
 20
2.546535336418973
 30
0.0
 10
-26.98750000000002
 20
2.533712655389458
 30
0.0
  0
LINE
  5
225
330
1F
100
AcDbEntity
  8
0
  6
Continuous
 62
     1
370
    15
100
AcDbLine
 10
-31.46106676894649
 20
-0.8135882936885874
 30
0.0
 11
-30.58177468241563
 21
-1.254109323031237
 31
0.0
1001
PE_URL
1000

  0
SPLINE
  5
226
330
1F
100
AcDbEntity
  8
0
  6
Continuous
 62
     1
370
    15
100
AcDbSpline
210
0.0
220
0.0
230
1.0
 70
     8
 71
     3
 72
    17
 73
    13
 74
     0
 42
0.000000001
 43
0.00000001
 40
0.0
 40
0.0
 40
0.0
 40
0.0
 40
0.1566910572226031
 40
0.2668367420891019
 40
0.3731376020806149
 40
0.5042684681937984
 40
0.6337720245052929
 40
0.7208664730157305
 40
0.8006603805951058
 40
0.875230123907651
 40
0.9468529035033246
 40
1.0
 40
1.0
 40
1.0
 40
1.0
 10
-30.41247926504481
 20
-2.52297700253143
 30
0.0
 10
-30.27633301395115
 20
-2.516195392669992
 30
0.0
 10
-30.04448301093618
 20
-2.50464666287251
 30
0.0
 10
-29.71404346789357
 20
-2.493180103515805
 30
0.0
 10
-29.40528892425146
 20
-2.485153447076918
 30
0.0
 10
-29.08311266310601
 20
-2.480216965997741
 30
0.0
 10
-28.77238710045441
 20
-2.479064909828129
 30
0.0
 10
-28.50695103190594
 20
-2.479858443963973
 30
0.0
 10
-28.2922478633776
 20
-2.482755766664731
 30
0.0
 10
-28.10601175849467
 20
-2.487286455409428
 30
0.0
 10
-27.93671933058984
 20
-2.491623915588285
 30
0.0
 10
-27.82682396019174
 20
-2.495302674747418
 30
0.0
 10
-27.78001282245555
 20
-2.49686968253922
 30
0.0
1001
PE_URL
1000

  0
SPLINE
  5
227
330
1F
100
AcDbEntity
  8
0
  6
Continuous
 62
     1
370
    15
100
AcDbSpline
210
0.0
220
0.0
230
1.0
 70
     8
 71
     3
 72
    25
 73
    21
 74
     0
 42
0.000000001
 43
0.00000001
 40
0.0
 40
0.0
 40
0.0
 40
0.0
 40
0.0751780827641087
 40
0.1288112256399871
 40
0.1640618511671268
 40
0.2055163247459015
 40
0.2575251638600918
 40
0.3075343152208532
 40
0.3712883137922424
 40
0.4254900990986345
 40
0.4793694326301058
 40
0.5521738861851221
 40
0.635783151479861
 40
0.7103855945691517
 40
0.740329391564146
 40
0.7679041459134595
 40
0.7957450773634248
 40
0.8417333618929126
 40
0.9097915821276393
 40
1.0
 40
1.0
 40
1.0
 40
1.0
 10
-38.50692889839153
 20
-2.171549554746619
 30
0.0
 10
-38.36852033780868
 20
-2.160304077758738
 30
0.0
 10
-38.13136908744113
 20
-2.141035913149373
 30
0.0
 10
-37.82910920209827
 20
-2.122858134872139
 30
0.0
 10
-37.58604597932698
 20
-2.110764537571836
 30
0.0
 10
-37.3470128543342
 20
-2.101240545592916
 30
0.0
 10
-37.08159035527245
 20
-2.093789866620121
 30
0.0
 10
-36.7754536579492
 20
-2.089171712286436
 30
0.0
 10
-36.465138239401
 20
-2.089072896852876
 30
0.0
 10
-36.14735608493662
 20
-2.093775869573367
 30
0.0
 10
-35.81268836597826
 20
-2.103334064766322
 30
0.0
 10
-35.42423450936892
 20
-2.120722863674551
 30
0.0
 10
-34.99361194257558
 20
-2.148617876964273
 30
0.0
 10
-34.64428576146476
 20
-2.177932627258247
 30
0.0
 10
-34.40386903744477
 20
-2.20114551294715
 30
0.0
 10
-34.24797573665355
 20
-2.217224431020327
 30
0.0
 10
-34.06250258708216
 20
-2.237544567442075
 30
0.0
 10
-33.80059934502727
 20
-2.268723774747805
 30
0.0
 10
-33.42246804152084
 20
-2.317932438404625
 30
0.0
 10
-33.12829113443556
 20
-2.362577630274782
 30
0.0
 10
-32.96061692539101
 20
-2.388024383756019
 30
0.0
1001
PE_URL
1000

  0
SPLINE
  5
228
330
1F
100
AcDbEntity
  8
0
  6
Continuous
 62
     1
370
    15
100
AcDbSpline
210
0.0
220
0.0
230
1.0
 70
     8
 71
     3
 72
    14
 73
    10
 74
     0
 42
0.000000001
 43
0.00000001
 40
0.0
 40
0.0
 40
0.0
 40
0.0
 40
0.2183713420819382
 40
0.3554147770333057
 40
0.4838524349332787
 40
0.648569980765721
 40
0.7900863769632445
 40
0.9019821787685717
 40
1.0
 40
1.0
 40
1.0
 40
1.0
 10
-32.96061692539101
 20
2.388024383756006
 30
0.0
 10
-33.13124366651344
 20
2.362121733418812
 30
0.0
 10
-33.40895073454617
 20
2.319963341175606
 30
0.0
 10
-33.79110407930158
 20
2.269958686270222
 30
0.0
 10
-34.13213255397902
 20
2.229099036673976
 30
0.0
 10
-34.47385723031241
 20
2.193501324347901
 30
0.0
 10
-34.80285547631349
 20
2.164390567094888
 30
0.0
 10
-35.07932628696011
 20
2.143276486346334
 30
0.0
 10
-35.24364481673987
 20
2.133005183438295
 30
0.0
 10
-35.32037230133072
 20
2.128209064359936
 30
0.0
1001
PE_URL
1000

  0
SPLINE
  5
229
330
1F
100
AcDbEntity
  8
0
  6
Continuous
 62
     1
370
    15
100
AcDbSpline
210
0.0
220
0.0
230
1.0
 70
     8
 71
     3
 72
    19
 73
    15
 74
     0
 42
0.000000001
 43
0.00000001
 40
0.0
 40
0.0
 40
0.0
 40
0.0
 40
0.1279210845279273
 40
0.2156449677958903
 40
0.2717233517495744
 40
0.3268123710358039
 40
0.384168062209817
 40
0.4455419454684511
 40
0.5125310763120237
 40
0.6121393846121674
 40
0.712999346388426
 40
0.7947611847207776
 40
0.8794802893430719
 40
1.0
 40
1.0
 40
1.0
 40
1.0
 10
-26.98750000000002
 20
2.533712655389458
 30
0.0
 10
-27.13397264848807
 20
2.525588603210123
 30
0.0
 10
-27.38089120521191
 20
2.511893355260575
 30
0.0
 10
-27.69171816112986
 20
2.499551418318738
 30
0.0
 10
-27.91976046142698
 20
2.492147728645568
 30
0.0
 10
-28.10606050374748
 20
2.487260426781788
 30
0.0
 10
-28.29223359479893
 20
2.482763385694268
 30
0.0
 10
-28.50695531188679
 20
2.479856158571616
 30
0.0
 10
-28.77238525560382
 20
2.479065894927723
 30
0.0
 10
-29.08311324881326
 20
2.48021665324613
 30
0.0
 10
-29.40528879968971
 20
2.485153513589466
 30
0.0
 10
-29.7140434990159
 20
2.493180086897322
 30
0.0
 10
-30.04448299905737
 20
2.504646669215466
 30
0.0
 10
-30.27633300955639
 20
2.516195395016664
 30
0.0
 10
-30.41247926504481
 20
2.522977002531418
 30
0.0
1001
PE_URL
1000

  0
LINE
  5
22A
330
1F
100
AcDbEntity
  8
외형선
  6
Continuous
370
    15
100
AcDbLine
 10
-20.06286934298443
 20
-4.762500000000003
 30
0.0
 11
-20.06286934298443
 21
4.762499999999998
 31
0.0
  0
SPLINE
  5
22B
330
1F
100
AcDbEntity
  8
외형선
  6
Continuous
370
    15
100
AcDbSpline
210
0.0
220
0.0
230
1.0
 70
     8
 71
     3
 72
     8
 73
     4
 74
     0
 42
0.000000001
 43
0.00000001
 40
0.0
 40
0.0
 40
0.0
 40
0.0
 40
1.0
 40
1.0
 40
1.0
 40
1.0
 10
-25.98750000000002
 20
-3.004274749336499
 30
0.0
 10
-25.81350609897954
 20
-3.074309465700658
 30
0.0
 10
-25.64011068389488
 20
-3.142272268130856
 30
0.0
 10
-25.4673069607665
 20
-3.207916702440873
 30
0.0
  0
LINE
  5
22C
330
1F
100
AcDbEntity
  8
외형선
  6
Continuous
370
    15
100
AcDbLine
 10
-25.98750000000002
 20
-3.004274749336489
 30
0.0
 11
-25.98750000000002
 21
-2.603757129490791
 31
0.0
  0
SPLINE
  5
22D
330
1F
100
AcDbEntity
  8
외형선
  6
Continuous
370
    15
100
AcDbSpline
210
0.0
220
0.0
230
1.0
 70
     8
 71
     3
 72
     8
 73
     4
 74
     0
 42
0.000000001
 43
0.00000001
 40
0.0
 40
0.0
 40
0.0
 40
0.0
 40
1.0
 40
1.0
 40
1.0
 40
1.0
 10
-25.46740564388539
 20
-2.859518764106344
 30
0.0
 10
-25.64085120366263
 20
-2.776200479368956
 30
0.0
 10
-25.81421105379037
 20
-2.690949345773024
 30
0.0
 10
-25.98750000000099
 20
-2.603757129487484
 30
0.0
  0
LINE
  5
22E
330
1F
100
AcDbEntity
  8
외형선
  6
Continuous
370
    15
100
AcDbLine
 10
-25.46740564388539
 20
3.314358862708895
 30
0.0
 11
-25.46740564388539
 21
-2.85955161766379
 31
0.0
  0
SPLINE
  5
22F
330
1F
100
AcDbEntity
  8
외형선
  6
Continuous
370
    15
100
AcDbSpline
210
0.0
220
0.0
230
1.0
 70
     8
 71
     3
 72
     8
 73
     4
 74
     0
 42
0.000000001
 43
0.00000001
 40
0.0
 40
0.0
 40
0.0
 40
0.0
 40
1.0
 40
1.0
 40
1.0
 40
1.0
 10
-25.98750000000002
 20
3.00427474933649
 30
0.0
 10
-25.81350609897954
 20
3.074309465700651
 30
0.0
 10
-25.64011068389488
 20
3.142272268130849
 30
0.0
 10
-25.4673069607665
 20
3.207916702440864
 30
0.0
  0
LINE
  5
230
330
1F
100
AcDbEntity
  8
외형선
  6
Continuous
370
    15
100
AcDbLine
 10
-25.46740564388539
 20
-3.207912835961427
 30
0.0
 11
-25.46740564388539
 21
-3.3143588627089
 31
0.0
  0
SPLINE
  5
231
330
1F
100
AcDbEntity
  8
외형선
  6
Continuous
370
    15
100
AcDbSpline
210
0.0
220
0.0
230
1.0
 70
    24
 71
     3
 72
    14
 73
    10
 74
     0
 42
0.000000001
 43
0.00000001
 40
0.0
 40
0.0
 40
0.0
 40
0.0
 40
0.25
 40
0.25
 40
0.5
 40
0.5
 40
0.75
 40
0.75
 40
1.0
 40
1.0
 40
1.0
 40
1.0
 10
-26.98749999999995
 20
-1.496081162151953
 30
0.0
 10
-26.98749999999995
 20
-1.252552437000436
 30
0.0
 10
-26.98749999999995
 20
-0.9839561750914729
 30
0.0
 10
-26.98749999999995
 20
-0.4162076291788015
 30
0.0
 10
-26.98749999999996
 20
-0.1172719318615485
 30
0.0
 10
-26.98749999999995
 20
0.4824599364965021
 30
0.0
 10
-26.98749999999995
 20
0.7829365453241142
 30
0.0
 10
-26.98749999999995
 20
1.356556461969724
 30
0.0
 10
-26.98749999999996
 20
1.629474936444264
 30
0.0
 10
-26.98749999999995
 20
1.878339659794339
 30
0.0
  0
SPLINE
  5
232
330
1F
100
AcDbEntity
  8
외형선
  6
Continuous
370
    15
100
AcDbSpline
210
0.0
220
0.0
230
1.0
 70
     8
 71
     3
 72
    10
 73
     6
 74
     0
 42
0.000000001
 43
0.00000001
 40
0.0
 40
0.0
 40
0.0
 40
0.0
 40
0.5
 40
0.5
 40
1.0
 40
1.0
 40
1.0
 40
1.0
 10
-26.98750000000002
 20
1.878339659794358
 30
0.0
 10
-26.73437296969198
 20
1.799585587481909
 30
0.0
 10
-26.48354073518107
 20
1.715110904793582
 30
0.0
 10
-25.97520261986808
 20
1.535035371571125
 30
0.0
 10
-25.7199884744422
 20
1.439665811615319
 30
0.0
 10
-25.46736959074704
 20
1.340354765861653
 30
0.0
  0
SPLINE
  5
233
330
1F
100
AcDbEntity
  8
외형선
  6
Continuous
370
    15
100
AcDbSpline
210
0.0
220
0.0
230
1.0
 70
     8
 71
     3
 72
    10
 73
     6
 74
     0
 42
0.000000001
 43
0.00000001
 40
0.0
 40
0.0
 40
0.0
 40
0.0
 40
0.5
 40
0.5
 40
1.0
 40
1.0
 40
1.0
 40
1.0
 10
-26.98750000000002
 20
-1.496081162151935
 30
0.0
 10
-26.73437501782657
 20
-1.571782679748015
 30
0.0
 10
-26.48354483134731
 20
-1.642511469148491
 30
0.0
 10
-25.97521086309725
 20
-1.773679569618412
 30
0.0
 10
-25.71999877826047
 20
-1.833875587523973
 30
0.0
 10
-25.46738185488707
 20
-1.88785912424531
 30
0.0
  0
SPLINE
  5
234
330
1F
100
AcDbEntity
  8
외형선
  6
Continuous
370
    15
100
AcDbSpline
210
0.0
220
0.0
230
1.0
 70
    24
 71
     3
 72
    10
 73
     6
 74
     0
 42
0.000000001
 43
0.00000001
 40
0.0
 40
0.0
 40
0.0
 40
0.0
 40
0.5
 40
0.5
 40
1.0
 40
1.0
 40
1.0
 40
1.0
 10
-26.98750000000002
 20
-2.231964840261913
 30
0.0
 10
-26.98750000000002
 20
-2.155015399527997
 30
0.0
 10
-26.98750000000002
 20
-2.04700027641319
 30
0.0
 10
-26.98750000000002
 20
-1.791218608228988
 30
0.0
 10
-26.98750000000002
 20
-1.644289978200771
 30
0.0
 10
-26.98750000000002
 20
-1.496081162151935
 30
0.0
  0
SPLINE
  5
235
330
1F
100
AcDbEntity
  8
외형선
  6
Continuous
370
    15
100
AcDbSpline
210
0.0
220
0.0
230
1.0
 70
     8
 71
     3
 72
    10
 73
     6
 74
     0
 42
0.000000001
 43
0.00000001
 40
0.0
 40
0.0
 40
0.0
 40
0.0
 40
0.5
 40
0.5
 40
1.0
 40
1.0
 40
1.0
 40
1.0
 10
-25.98750000000002
 20
-2.603757129490791
 30
0.0
 10
-26.15505931802711
 20
-2.548555156529059
 30
0.0
 10
-26.32266475443485
 20
-2.489735638123957
 30
0.0
 10
-26.65589079257454
 20
-2.365631006897104
 30
0.0
 10
-26.82082296506719
 20
-2.300451167381542
 30
0.0
 10
-26.98750000000002
 20
-2.231964840261913
 30
0.0
  0
SPLINE
  5
236
330
1F
100
AcDbEntity
  8
외형선
  6
Continuous
370
    15
100
AcDbSpline
210
0.0
220
0.0
230
1.0
 70
     8
 71
     3
 72
    10
 73
     6
 74
     0
 42
0.000000001
 43
0.00000001
 40
0.0
 40
0.0
 40
0.0
 40
0.0
 40
0.5
 40
0.5
 40
1.0
 40
1.0
 40
1.0
 40
1.0
 10
-26.98750000000002
 20
-2.768794427342311
 30
0.0
 10
-26.82082296506719
 20
-2.815921231469542
 30
0.0
 10
-26.65589079257454
 20
-2.859078157030648
 30
0.0
 10
-26.32266475443485
 20
-2.937690609505054
 30
0.0
 10
-26.15505931802711
 20
-2.973068281510262
 30
0.0
 10
-25.98750000000002
 20
-3.004274749336492
 30
0.0
  0
LINE
  5
237
330
1F
100
AcDbEntity
  8
외형선
  6
Continuous
370
    15
100
AcDbLine
 10
-26.98750000000002
 20
-2.768794427342311
 30
0.0
 11
-26.98750000000002
 21
-2.231964840261913
 31
0.0
  0
LINE
  5
238
330
1F
100
AcDbEntity
  8
외형선
  6
Continuous
370
    15
100
AcDbLine
 10
-25.73420915997519
 20
2.617514024344697
 30
0.0
 11
-25.4673069607665
 21
2.657702478819017
 31
0.0
  0
SPLINE
  5
239
330
1F
100
AcDbEntity
  8
외형선
  6
Continuous
370
    15
100
AcDbSpline
210
0.0
220
0.0
230
1.0
 70
    24
 71
     3
 72
    12
 73
     8
 74
     0
 42
0.000000001
 43
0.00000001
 40
0.0
 40
0.0
 40
0.0
 40
0.0
 40
0.181784339636165
 40
0.365953990420187
 40
0.6325353106314248
 40
0.90684750718829
 40
1.0
 40
1.0
 40
1.0
 40
1.0
 10
-26.98750000000002
 20
1.878339659794358
 30
0.0
 10
-26.98750000000002
 20
1.951705240434096
 30
0.0
 10
-26.98750000000002
 20
2.099399079454232
 30
0.0
 10
-26.98750000000001
 20
2.29862357813977
 30
0.0
 10
-26.98750000000001
 20
2.457181101791621
 30
0.0
 10
-26.98750000000002
 20
2.536177695326295
 30
0.0
 10
-26.98750000000001
 20
2.526801221471908
 30
0.0
 10
-26.98750000000001
 20
2.52442428039814
 30
0.0
  0
SPLINE
  5
23A
330
1F
100
AcDbEntity
  8
외형선
  6
Continuous
370
    15
100
AcDbSpline
210
0.0
220
0.0
230
1.0
 70
     8
 71
     3
 72
    10
 73
     6
 74
     0
 42
0.000000001
 43
0.00000001
 40
0.0
 40
0.0
 40
0.0
 40
0.0
 40
0.5
 40
0.5
 40
1.0
 40
1.0
 40
1.0
 40
1.0
 10
-26.98750000000002
 20
2.768794427342304
 30
0.0
 10
-26.82082296506719
 20
2.815921231469535
 30
0.0
 10
-26.65589079257454
 20
2.859078157030641
 30
0.0
 10
-26.32266475443485
 20
2.937690609505047
 30
0.0
 10
-26.15505931802711
 20
2.973068281510253
 30
0.0
 10
-25.98750000000002
 20
3.004274749336483
 30
0.0
  0
SPLINE
  5
23B
330
1F
100
AcDbEntity
  8
외형선
  6
Continuous
370
    15
100
AcDbSpline
210
0.0
220
0.0
230
1.0
 70
    24
 71
     3
 72
    10
 73
     6
 74
     0
 42
0.000000001
 43
0.00000001
 40
0.0
 40
0.0
 40
0.0
 40
0.0
 40
0.010587279174765
 40
0.7502600479687757
 40
1.0
 40
1.0
 40
1.0
 40
1.0
 10
-26.98750000000002
 20
2.579434574813758
 30
0.0
 10
-26.98750000000002
 20
2.580164038612061
 30
0.0
 10
-26.98750000000002
 20
2.631856974565917
 30
0.0
 10
-26.98750000000001
 20
2.694067719332061
 30
0.0
 10
-26.98750000000002
 20
2.753733938915488
 30
0.0
 10
-26.98750000000002
 20
2.768794427327462
 30
0.0
  0
SPLINE
  5
23C
330
1F
100
AcDbEntity
  8
0
  6
Continuous
 62
     1
370
    15
100
AcDbSpline
210
0.0
220
0.0
230
1.0
 70
     8
 71
     3
 72
    38
 73
    34
 74
     0
 42
0.000000001
 43
0.00000001
 40
0.0
 40
0.0
 40
0.0
 40
0.0
 40
0.0624999999999999
 40
0.0624999999999999
 40
0.1249999999999999
 40
0.1249999999999999
 40
0.1874999999999998
 40
0.1874999999999998
 40
0.2499999999999998
 40
0.2499999999999998
 40
0.3124999999999997
 40
0.3124999999999997
 40
0.3749999999999997
 40
0.3749999999999997
 40
0.4374999999999996
 40
0.4374999999999996
 40
0.4999999999999996
 40
0.4999999999999996
 40
0.5624999999999996
 40
0.5624999999999996
 40
0.6249999999999997
 40
0.6249999999999997
 40
0.6874999999999997
 40
0.6874999999999997
 40
0.7499999999999998
 40
0.7499999999999998
 40
0.8124999999999998
 40
0.8124999999999998
 40
0.8749999999999999
 40
0.8749999999999999
 40
0.9374999999999999
 40
0.9374999999999999
 40
1.0
 40
1.0
 40
1.0
 40
1.0
 10
-39.68750000000002
 20
3.012887259811277
 30
0.0
 10
-39.42520429339174
 20
2.96484127871666
 30
0.0
 10
-39.15916862598939
 20
2.906113518316461
 30
0.0
 10
-38.62784949754213
 20
2.76886057088228
 30
0.0
 10
-38.36458998991598
 20
2.690569563635986
 30
0.0
 10
-37.83750651384545
 20
2.515908212722076
 30
0.0
 10
-37.57097920649883
 20
2.419187891501776
 30
0.0
 10
-37.04023589485529
 20
2.2098589503467
 30
0.0
 10
-36.77848659669916
 20
2.097648984644795
 30
0.0
 10
-36.24947165053042
 20
1.858718201417656
 30
0.0
 10
-35.98274372376704
 20
1.732018482701198
 30
0.0
 10
-35.45314996734588
 20
1.468081000721467
 30
0.0
 10
-35.19163951153314
 20
1.33112182613014
 30
0.0
 10
-34.66126061175811
 20
1.047655241216503
 30
0.0
 10
-34.39462382058383
 20
0.9015104209769778
 30
0.0
 10
-33.86674921676856
 20
0.6049774772476866
 30
0.0
 10
-33.60420537872032
 20
0.454363950654308
 30
0.0
 10
-33.07303494985153
 20
0.1498708356277465
 30
0.0
 10
-32.80678071553518
 20
-0.003555924061649
 30
0.0
 10
-32.28118868928996
 20
-0.3079966871606636
 30
0.0
 10
-32.01634295278716
 20
-0.4600728081717698
 30
0.0
 10
-31.4849562746402
 20
-0.7602926704943087
 30
0.0
 10
-31.22080268753528
 20
-0.9079816221641561
 30
0.0
 10
-30.69458934295975
 20
-1.195690018594259
 30
0.0
 10
-30.42821253309472
 20
-1.336480598763135
 30
0.0
 10
-29.89718566647135
 20
-1.607477963356686
 30
0.0
 10
-29.63501835246493
 20
-1.737297548017214
 30
0.0
 10
-29.10666219633351
 20
-1.984687360594382
 30
0.0
 10
-28.8399753867646
 20
-2.102283423883232
 30
0.0
 10
-28.30988309321853
 20
-2.321571435903738
 30
0.0
 10
-28.04843218536762
 20
-2.423064246749426
 30
0.0
 10
-27.51849836912851
 20
-2.609458448580789
 30
0.0
 10
-27.25179316427361
 20
-2.694067322976128
 30
0.0
 10
-26.98749999999584
 20
-2.76879442734349
 30
0.0
1001
PE_URL
1000

  0
SPLINE
  5
23D
330
1F
100
AcDbEntity
  8
0
  6
Continuous
 62
     1
370
    15
100
AcDbSpline
210
0.0
220
0.0
230
1.0
 70
     8
 71
     3
 72
    14
 73
    10
 74
     0
 42
0.000000001
 43
0.00000001
 40
0.0
 40
0.0
 40
0.0
 40
0.0
 40
0.1435603764052037
 40
0.2869628788213575
 40
0.4302936662292894
 40
0.573639631727628
 40
0.7170875128548948
 40
0.8606934515089865
 40
1.0
 40
1.0
 40
1.0
 40
1.0
 10
-39.68750000000002
 20
2.504986939369081
 30
0.0
 10
-39.29212010509706
 20
2.421623219022562
 30
0.0
 10
-38.50179511633277
 20
2.254987453786237
 30
0.0
 10
-37.31699534555176
 20
1.86951494414668
 30
0.0
 10
-36.13285517820567
 20
1.406026075396431
 30
0.0
 10
-34.94856923991293
 20
0.8750748494060456
 30
0.0
 10
-33.76342773440322
 20
0.3048509359330787
 30
0.0
 10
-32.58907371296126
 20
-0.2763560272059209
 30
0.0
 10
-31.81001694436573
 20
-0.6468853899288867
 30
0.0
 10
-31.42640818037384
 20
-0.8293346241651847
 30
0.0
1001
PE_URL
1000

  0
LINE
  5
23E
330
1F
100
AcDbEntity
  8
0
  6
Continuous
 62
     1
370
    15
100
AcDbLine
 10
-39.68749999999994
 20
3.012887259811277
 30
0.0
 11
-39.68750000000002
 21
2.504986939369081
 31
0.0
1001
PE_URL
1000

  0
SPLINE
  5
23F
330
1F
100
AcDbEntity
  8
0
  6
Continuous
 62
     1
370
    15
100
AcDbSpline
210
0.0
220
0.0
230
1.0
 70
     8
 71
     3
 72
    38
 73
    34
 74
     0
 42
0.000000001
 43
0.00000001
 40
0.0
 40
0.0
 40
0.0
 40
0.0
 40
0.0625
 40
0.0625
 40
0.125
 40
0.125
 40
0.1875
 40
0.1875
 40
0.25
 40
0.25
 40
0.3125
 40
0.3125
 40
0.375
 40
0.375
 40
0.4375
 40
0.4375
 40
0.5
 40
0.5
 40
0.5625
 40
0.5625
 40
0.625
 40
0.625
 40
0.6875
 40
0.6875
 40
0.75
 40
0.75
 40
0.8125
 40
0.8125
 40
0.875
 40
0.875
 40
0.9375
 40
0.9375
 40
1.0
 40
1.0
 40
1.0
 40
1.0
 10
-26.98749999999783
 20
-2.231964840262236
 30
0.0
 10
-27.25179316427557
 20
-2.123368787353762
 30
0.0
 10
-27.51849836913043
 20
-2.006660697049227
 30
0.0
 10
-28.04843218536945
 20
-1.760616992672823
 30
0.0
 10
-28.30988309322031
 20
-1.631620358978267
 30
0.0
 10
-28.83997538676632
 20
-1.362047612871077
 30
0.0
 10
-29.10666219633518
 20
-1.221756379067358
 30
0.0
 10
-29.63501835246649
 20
-0.9345600078193872
 30
0.0
 10
-29.89718566647289
 20
-0.7875949247689942
 30
0.0
 10
-30.42821253309618
 20
-0.4879758101013199
 30
0.0
 10
-30.69458934296117
 20
-0.3357772306713578
 30
0.0
 10
-31.2208026875366
 20
-0.0313596750203917
 30
0.0
 10
-31.4849562746415
 20
0.1216877419608178
 30
0.0
 10
-32.01634295278837
 20
0.426468338951123
 30
0.0
 10
-32.2811886892911
 20
0.577735408632341
 30
0.0
 10
-32.80678071553626
 20
0.8744654222213359
 30
0.0
 10
-33.07303494985257
 20
1.020956103752624
 30
0.0
 10
-33.60420537872128
 20
1.305567618416465
 30
0.0
 10
-33.86674921676947
 20
1.443287160697212
 30
0.0
 10
-34.39462382058467
 20
1.708286313901747
 30
0.0
 10
-34.66126061175891
 20
1.835744805792686
 30
0.0
 10
-35.19163951153385
 20
2.076555354740416
 30
0.0
 10
-35.45314996734655
 20
2.189629986588001
 30
0.0
 10
-35.98274372376762
 20
2.400770803586607
 30
0.0
 10
-36.24947165053096
 20
2.498581268553806
 30
0.0
 10
-36.77848659669962
 20
2.675655956122649
 30
0.0
 10
-37.0402358948557
 20
2.754938916388852
 30
0.0
 10
-37.57097920649917
 20
2.894559232817375
 30
0.0
 10
-37.83750651384574
 20
2.954591437449459
 30
0.0
 10
-38.36458998991618
 20
3.05337199809464
 30
0.0
 10
-38.6278494975423
 20
3.092348717076536
 30
0.0
 10
-39.15916862598948
 20
3.148758134570771
 30
0.0
 10
-39.42520429339177
 20
3.166055879043244
 30
0.0
 10
-39.68750000000002
 20
3.172316538352929
 30
0.0
1001
PE_URL
1000

  0
SPLINE
  5
240
330
1F
100
AcDbEntity
  8
0
  6
Continuous
 62
     1
370
    15
100
AcDbSpline
210
0.0
220
0.0
230
1.0
 70
     8
 71
     3
 72
    12
 73
     8
 74
     0
 42
0.000000001
 43
0.00000001
 40
0.0
 40
0.0
 40
0.0
 40
0.0
 40
0.0834307298539226
 40
0.3298866152343287
 40
0.5762683841167497
 40
0.7878950309839261
 40
1.0
 40
1.0
 40
1.0
 40
1.0
 10
-31.79278083832352
 20
0.2980093545572089
 30
0.0
 10
-31.65913370250973
 20
0.2450427478533204
 30
0.0
 10
-31.13069050961705
 20
0.0356118266976928
 30
0.0
 10
-30.20771441590952
 20
-0.3421923315072952
 30
0.0
 10
-29.07935666316655
 20
-0.7838339084678267
 30
0.0
 10
-28.00617614450811
 20
-1.177407889310238
 30
0.0
 10
-27.32731415539737
 20
-1.389776828196315
 30
0.0
 10
-26.98750000000002
 20
-1.496081162151935
 30
0.0
1001
PE_URL
1000

  0
SPLINE
  5
241
330
1F
100
AcDbEntity
  8
외형선
  6
Continuous
370
    15
100
AcDbSpline
210
0.0
220
0.0
230
1.0
 70
    24
 71
     3
 72
    10
 73
     6
 74
     0
 42
0.000000001
 43
0.00000001
 40
0.0
 40
0.0
 40
0.0
 40
0.0
 40
0.4999999999999997
 40
0.4999999999999997
 40
1.0
 40
1.0
 40
1.0
 40
1.0
 10
-26.98750000000002
 20
-2.231964840261913
 30
0.0
 10
-26.98750000000002
 20
-2.155015399527997
 30
0.0
 10
-26.98750000000002
 20
-2.04700027641319
 30
0.0
 10
-26.98750000000002
 20
-1.791218608228988
 30
0.0
 10
-26.98750000000002
 20
-1.644289978200771
 30
0.0
 10
-26.98750000000002
 20
-1.496081162151935
 30
0.0
  0
LINE
  5
242
330
1F
100
AcDbEntity
  8
0
  6
Continuous
 62
     1
370
    15
100
AcDbLine
 10
-39.68750000000002
 20
3.172316538354114
 30
0.0
 11
-39.68750000000001
 21
3.012887259811272
 31
0.0
1001
PE_URL
1000

  0
SPLINE
  5
243
330
1F
100
AcDbEntity
  8
0
  6
Continuous
 62
     1
370
    15
100
AcDbSpline
210
0.0
220
0.0
230
1.0
 70
     8
 71
     3
 72
     8
 73
     4
 74
     0
 42
0.000000001
 43
0.00000001
 40
0.0
 40
0.0
 40
0.0
 40
0.0
 40
1.0
 40
1.0
 40
1.0
 40
1.0
 10
-37.7224247330212
 20
-0.8886594965445358
 30
0.0
 10
-37.60976898477534
 20
-1.022151308112287
 30
0.0
 10
-37.50926042916738
 20
-1.1505926030909
 30
0.0
 10
-37.42374464654572
 20
-1.272800256195033
 30
0.0
1001
PE_URL
1000

  0
LINE
  5
244
330
1F
100
AcDbEntity
  8
0
  6
Continuous
 62
     1
370
    15
100
AcDbLine
 10
-37.46387756187669
 20
-1.306475770647307
 30
0.0
 11
-39.68750000000002
 21
-0.0000000000000071
 31
0.0
1001
PE_URL
1000

  0
LINE
  5
245
330
1F
100
AcDbEntity
  8
0
  6
Continuous
 62
     1
370
    15
100
AcDbLine
 10
-39.68750000000002
 20
-0.0000000000000071
 30
0.0
 11
-39.68750000000002
 21
0.8484963536441157
 31
0.0
1001
PE_URL
1000

  0
SPLINE
  5
246
330
1F
100
AcDbEntity
  8
0
  6
Continuous
 62
     1
370
    15
100
AcDbSpline
210
0.0
220
0.0
230
1.0
 70
     8
 71
     3
 72
    10
 73
     6
 74
     0
 42
0.000000001
 43
0.00000001
 40
0.0
 40
0.0
 40
0.0
 40
0.0
 40
0.5
 40
0.5
 40
1.0
 40
1.0
 40
1.0
 40
1.0
 10
-39.68750000000002
 20
0.8484963536441157
 30
0.0
 10
-39.34733158573035
 20
0.5810651575656074
 30
0.0
 10
-39.01284861431049
 20
0.3026650804819386
 30
0.0
 10
-38.3555371575733
 20
-0.2766199837640571
 30
0.0
 10
-38.02964858914632
 20
-0.5805576266506094
 30
0.0
 10
-37.7224247330212
 20
-0.8886594965445376
 30
0.0
1001
PE_URL
1000

  0
SPLINE
  5
247
330
1F
100
AcDbEntity
  8
0
  6
Continuous
 62
     1
370
    15
100
AcDbSpline
210
0.0
220
0.0
230
1.0
 70
     8
 71
     3
 72
    14
 73
    10
 74
     0
 42
0.000000001
 43
0.00000001
 40
0.0
 40
0.0
 40
0.0
 40
0.0
 40
0.1088646862601167
 40
0.2174245622443397
 40
0.3793781285648083
 40
0.5414484656626682
 40
0.7036998693141964
 40
0.8658247969951504
 40
1.0
 40
1.0
 40
1.0
 40
1.0
 10
-37.72242473301786
 20
-0.8886594965459764
 30
0.0
 10
-37.45705517883347
 20
-1.001476412179308
 30
0.0
 10
-36.92705907877901
 20
-1.22679436732157
 30
0.0
 10
-36.00290264496057
 20
-1.585591781254347
 30
0.0
 10
-34.94855081931735
 20
-1.942954185062813
 30
0.0
 10
-33.76344942568439
 20
-2.254980097219082
 30
0.0
 10
-32.57758177079961
 20
-2.459359267164153
 30
0.0
 10
-31.45993221143954
 20
-2.556594496300107
 30
0.0
 10
-30.73784102843261
 20
-2.527670963143947
 30
0.0
 10
-30.41085254265733
 20
-2.514573361992497
 30
0.0
1001
PE_URL
1000

  0
SPLINE
  5
248
330
1F
100
AcDbEntity
  8
0
  6
Continuous
 62
     1
370
    15
100
AcDbSpline
210
0.0
220
0.0
230
1.0
 70
    24
 71
     3
 72
    10
 73
     6
 74
     0
 42
0.000000001
 43
0.00000001
 40
0.0
 40
0.0
 40
0.0
 40
0.0
 40
0.5
 40
0.5
 40
1.0
 40
1.0
 40
1.0
 40
1.0
 10
-39.68750000000002
 20
2.504986939369081
 30
0.0
 10
-39.68750000000002
 20
2.312960160087075
 30
0.0
 10
-39.68750000000001
 20
2.070326961403033
 30
0.0
 10
-39.68750000000001
 20
1.506228125303403
 30
0.0
 10
-39.68750000000001
 20
1.185251131687902
 30
0.0
 10
-39.68750000000001
 20
0.8484963536442187
 30
0.0
1001
PE_URL
1000

  0
SPLINE
  5
249
330
1F
100
AcDbEntity
  8
0
  6
Continuous
 62
     1
370
    15
100
AcDbSpline
210
0.0
220
0.0
230
1.0
 70
    24
 71
     3
 72
     8
 73
     4
 74
     0
 42
0.000000001
 43
0.00000001
 40
0.0
 40
0.0
 40
0.0
 40
0.0
 40
1.0
 40
1.0
 40
1.0
 40
1.0
 10
-37.75514952997062
 20
-1.550881971644902
 30
0.0
 10
-37.65035635986844
 20
-1.462950061262273
 30
0.0
 10
-37.53953778886606
 20
-1.369962239208867
 30
0.0
 10
-37.42374464654577
 20
-1.272800256195069
 30
0.0
1001
PE_URL
1000

  0
LINE
  5
24A
330
1F
100
AcDbEntity
  8
0
  6
Continuous
 62
     1
370
    15
100
AcDbLine
 10
-39.68750000000002
 20
-2.222500000000007
 30
0.0
 11
-38.50686963831414
 21
-2.171310096074031
 31
0.0
1001
PE_URL
1000

  0
SPLINE
  5
24B
330
1F
100
AcDbEntity
  8
0
  6
Continuous
 62
     1
370
    15
100
AcDbSpline
210
0.0
220
0.0
230
1.0
 70
     8
 71
     3
 72
     8
 73
     4
 74
     0
 42
0.000000001
 43
0.00000001
 40
0.0
 40
0.0
 40
0.0
 40
0.0
 40
1.0
 40
1.0
 40
1.0
 40
1.0
 10
-39.68750000000002
 20
-2.222500000000007
 30
0.0
 10
-39.03439482157158
 20
-2.045248916505813
 30
0.0
 10
-38.38751459685841
 20
-1.827618470580123
 30
0.0
 10
-37.75514952997555
 20
-1.550881971648703
 30
0.0
1001
PE_URL
1000

  0
SPLINE
  5
24C
330
1F
100
AcDbEntity
  8
0
  6
Continuous
 62
     1
370
    15
100
AcDbSpline
210
0.0
220
0.0
230
1.0
 70
     8
 71
     3
 72
    13
 73
     9
 74
     0
 42
0.000000001
 43
0.00000001
 40
0.0
 40
0.0
 40
0.0
 40
0.0
 40
0.0651218310610255
 40
0.2633736465758643
 40
0.4614462390559192
 40
0.6594608158576131
 40
0.8295431950687416
 40
1.0
 40
1.0
 40
1.0
 40
1.0
 10
-32.96675658943089
 20
2.375040601623061
 30
0.0
 10
-32.83694027219259
 20
2.398862722933256
 30
0.0
 10
-32.31192129930682
 20
2.495207049504151
 30
0.0
 10
-31.3921669529124
 20
2.549856723609624
 30
0.0
 10
-30.20769755310891
 20
2.531386934204093
 30
0.0
 10
-29.07934163908113
 20
2.393442688609873
 30
0.0
 10
-28.00620742049998
 20
2.175968215724961
 30
0.0
 10
-27.32731795507434
 20
1.977621872933067
 30
0.0
 10
-26.98750000000002
 20
1.87833965979436
 30
0.0
1001
PE_URL
1000

  0
SPLINE
  5
24D
330
1F
100
AcDbEntity
  8
외형선
  6
Continuous
370
    15
100
AcDbSpline
210
0.0
220
0.0
230
1.0
 70
    24
 71
     3
 72
    14
 73
    10
 74
     0
 42
0.000000001
 43
0.00000001
 40
0.0
 40
0.0
 40
0.0
 40
0.0
 40
0.25
 40
0.25
 40
0.5
 40
0.5
 40
0.75
 40
0.75
 40
1.0
 40
1.0
 40
1.0
 40
1.0
 10
-26.98749999999995
 20
-1.496081162151953
 30
0.0
 10
-26.98749999999995
 20
-1.252552437000436
 30
0.0
 10
-26.98749999999995
 20
-0.9839561750914729
 30
0.0
 10
-26.98749999999995
 20
-0.4162076291788015
 30
0.0
 10
-26.98749999999996
 20
-0.1172719318615485
 30
0.0
 10
-26.98749999999995
 20
0.4824599364965021
 30
0.0
 10
-26.98749999999995
 20
0.7829365453241142
 30
0.0
 10
-26.98749999999995
 20
1.356556461969724
 30
0.0
 10
-26.98749999999996
 20
1.629474936444264
 30
0.0
 10
-26.98749999999995
 20
1.878339659794339
 30
0.0
  0
LINE
  5
24E
330
1F
100
AcDbEntity
  8
0
  6
Continuous
 62
     1
370
    15
100
AcDbLine
 10
-39.68750000000002
 20
-0.0000000000000071
 30
0.0
 11
-39.68750000000002
 21
-2.222500000000007
 31
0.0
1001
PE_URL
1000

  0
SPLINE
  5
24F
330
1F
100
AcDbEntity
  8
외형선
  6
Continuous
370
    15
100
AcDbSpline
210
0.0
220
0.0
230
1.0
 70
    24
 71
     3
 72
    12
 73
     8
 74
     0
 42
0.000000001
 43
0.00000001
 40
0.0
 40
0.0
 40
0.0
 40
0.0
 40
0.1820624866085962
 40
0.3665139341132923
 40
0.6335031485758826
 40
0.9082350683450225
 40
1.0
 40
1.0
 40
1.0
 40
1.0
 10
-26.98750000000002
 20
1.878339659794358
 30
0.0
 10
-26.98750000000002
 20
1.951704789231657
 30
0.0
 10
-26.98750000000001
 20
2.099397719926392
 30
0.0
 10
-26.98750000000001
 20
2.29863013041663
 30
0.0
 10
-26.98750000000002
 20
2.457143520884472
 30
0.0
 10
-26.98750000000001
 20
2.536089926415034
 30
0.0
 10
-26.98750000000001
 20
2.52680731278407
 30
0.0
 10
-26.98750000000001
 20
2.524483095257738
 30
0.0
  0
SPLINE
  5
250
330
1F
100
AcDbEntity
  8
0
  6
Continuous
 62
     1
370
    15
100
AcDbSpline
210
0.0
220
0.0
230
1.0
 70
    24
 71
     3
 72
    10
 73
     6
 74
     0
 42
0.000000001
 43
0.00000001
 40
0.0
 40
0.0
 40
0.0
 40
0.0
 40
0.5
 40
0.5
 40
1.0
 40
1.0
 40
1.0
 40
1.0
 10
-39.68750000000002
 20
-2.222500000000007
 30
0.0
 10
-39.68750000000001
 20
-2.357222415363228
 30
0.0
 10
-39.68750000000002
 20
-2.513782338653101
 30
0.0
 10
-39.68750000000001
 20
-2.842244636050722
 30
0.0
 10
-39.68750000000002
 20
-3.01330815866968
 30
0.0
 10
-39.68750000000002
 20
-3.172316538354124
 30
0.0
1001
PE_URL
1000

  0
SPLINE
  5
251
330
1F
100
AcDbEntity
  8
0
  6
Continuous
 62
     1
370
    15
100
AcDbSpline
210
0.0
220
0.0
230
1.0
 70
     8
 71
     3
 72
    16
 73
    12
 74
     0
 42
0.000000001
 43
0.00000001
 40
0.0
 40
0.0
 40
0.0
 40
0.0
 40
0.0187058060452776
 40
0.1236010680936676
 40
0.2288586304217098
 40
0.3239244567797955
 40
0.5144643979858937
 40
0.6099728626987964
 40
0.7072519006751152
 40
0.902246776331017
 40
1.0
 40
1.0
 40
1.0
 40
1.0
 10
-35.32209770561037
 20
-2.128969986961216
 30
0.0
 10
-35.34932448864666
 20
-2.141386477017917
 30
0.0
 10
-35.52922903036449
 20
-2.223430064408259
 30
0.0
 10
-35.86189698181693
 20
-2.353037149766688
 30
0.0
 10
-36.30660019882974
 20
-2.518832497045207
 30
0.0
 10
-36.87502295484011
 20
-2.708235883365468
 30
0.0
 10
-37.42955632281862
 20
-2.863131535418294
 30
0.0
 10
-37.98781922827783
 20
-2.984967289026692
 30
0.0
 10
-38.55109500637211
 20
-3.085219876773753
 30
0.0
 10
-39.11972167061529
 20
-3.151059978055649
 30
0.0
 10
-39.54536946481696
 20
-3.166995436552572
 30
0.0
 10
-39.6874999999998
 20
-3.172316538354121
 30
0.0
1001
PE_URL
1000

  0
LINE
  5
252
330
1F
100
AcDbEntity
  8
0
  6
Continuous
 62
     1
370
    15
100
AcDbLine
 10
-27.78001282245554
 20
2.496869682539213
 30
0.0
 11
-26.98749999999584
 21
2.768794427343485
 31
0.0
1001
PE_URL
1000

  0
SPLINE
  5
253
330
1F
100
AcDbEntity
  8
외형선
  6
Continuous
370
    15
100
AcDbSpline
210
0.0
220
0.0
230
1.0
 70
    24
 71
     3
 72
    11
 73
     7
 74
     0
 42
0.000000001
 43
0.00000001
 40
0.0
 40
0.0
 40
0.0
 40
0.0
 40
0.010772389060525
 40
0.3803362911943511
 40
0.7503341499553144
 40
0.9999999999999999
 40
0.9999999999999999
 40
0.9999999999999999
 40
0.9999999999999999
 10
-26.98750000000001
 20
2.579434574813758
 30
0.0
 10
-26.98750000000001
 20
2.580164049221063
 30
0.0
 10
-26.98750000000001
 20
2.605919300821833
 30
0.0
 10
-26.98750000000002
 20
2.654193713038223
 30
0.0
 10
-26.98750000000001
 20
2.71656040692808
 30
0.0
 10
-26.98750000000002
 20
2.753793153102402
 30
0.0
 10
-26.98750000000002
 20
2.768794427327462
 30
0.0
  0
LINE
  5
255
330
1F
100
AcDbEntity
  8
외형선
  6
Continuous
370
    15
100
AcDbLine
 10
-4.838700000000046
 20
4.762499999999995
 30
0.0
 11
-20.06286934298443
 21
4.762499999999994
 31
0.0
  0
ENDSEC
  0
SECTION
  2
OBJECTS
  0
DICTIONARY
  5
C
330
0
100
AcDbDictionary
281
     1
  3
ACAD_DETAILVIEWSTYLE
350
1E8
  3
ACAD_GROUP
350
D
  3
ACAD_LAYOUT
350
1A
  3
ACAD_MLINESTYLE
350
17
  3
ACAD_PLOTSETTINGS
350
19
  3
ACAD_PLOTSTYLENAME
350
E
  3
ACAD_SCALELIST
350
47
  3
ACAD_SECTIONVIEWSTYLE
350
1E9
  3
AcDbVariableDictionary
350
1E3
  3
APPDATA
350
15A
  3
DWGPROPS
350
256
  0
DICTIONARY
  5
193
330
2
100
AcDbDictionary
280
     1
281
     1
  3
ACAD_LAYERSTATES
360
194
  0
DICTIONARY
  5
1E8
102
{ACAD_REACTORS
330
C
102
}
330
C
100
AcDbDictionary
281
     1
  0
DICTIONARY
  5
D
102
{ACAD_REACTORS
330
C
102
}
330
C
100
AcDbDictionary
281
     1
  0
DICTIONARY
  5
1A
102
{ACAD_REACTORS
330
C
102
}
330
C
100
AcDbDictionary
281
     1
  3
Layout1
350
1E
  3
Layout2
350
26
  3
Model
350
22
  0
DICTIONARY
  5
17
102
{ACAD_REACTORS
330
C
102
}
330
C
100
AcDbDictionary
281
     1
  3
Standard
350
18
  0
DICTIONARY
  5
19
102
{ACAD_REACTORS
330
C
102
}
330
C
100
AcDbDictionary
281
     1
  0
ACDBDICTIONARYWDFLT
  5
E
102
{ACAD_REACTORS
330
C
102
}
330
C
100
AcDbDictionary
281
     1
  3
Normal
350
F
100
AcDbDictionaryWithDefault
340
F
  0
DICTIONARY
  5
47
102
{ACAD_REACTORS
330
C
102
}
330
C
100
AcDbDictionary
281
     1
  3
A0
350
48
  3
A1
350
49
  3
A2
350
4A
  3
A3
350
4B
  3
A4
350
4C
  3
A5
350
4D
  3
A6
350
4E
  3
A7
350
4F
  3
A8
350
50
  3
A9
350
51
  3
B0
350
52
  3
B1
350
53
  3
B2
350
54
  3
B3
350
55
  3
B4
350
56
  3
B5
350
57
  3
B6
350
58
  3
B7
350
59
  3
B8
350
5A
  3
B9
350
5B
  3
C0
350
5C
  3
C1
350
5D
  3
C2
350
5E
  3
C3
350
5F
  3
C4
350
60
  3
C5
350
61
  3
C6
350
62
  3
C7
350
63
  3
C8
350
64
  3
C9
350
65
  3
D0
350
66
  3
D1
350
67
  3
D2
350
68
  0
DICTIONARY
  5
1E9
102
{ACAD_REACTORS
330
C
102
}
330
C
100
AcDbDictionary
281
     1
  0
DICTIONARY
  5
1E3
102
{ACAD_REACTORS
330
C
102
}
330
C
100
AcDbDictionary
281
     1
  0
DICTIONARY
  5
15A
102
{ACAD_REACTORS
330
C
102
}
330
C
100
AcDbDictionary
281
     1
  0
XRECORD
  5
256
102
{ACAD_REACTORS
330
C
102
}
330
C
100
AcDbXrecord
280
     1
  1
DWGPROPS COOKIE
  2

  3

  4

  6

  7

  8
120170442
  9

300
=
301
=
302
=
303
=
304
=
305
=
306
=
307
=
308
=
309
=
 40
0.0
 41
2458313.020464456
 42
2458323.975660579
  1

 90
        0
  0
DICTIONARY
  5
194
102
{ACAD_REACTORS
330
193
102
}
330
193
100
AcDbDictionary
281
     1
  0
LAYOUT
  5
1E
102
{ACAD_REACTORS
330
1A
102
}
330
1A
100
AcDbPlotSettings
  1

  2
none_device
  4

  6

 40
0.0
 41
0.0
 42
0.0
 43
0.0
 44
0.0
 45
0.0
 46
0.0
 47
0.0
 48
0.0
 49
0.0
140
0.0
141
0.0
142
1.0
143
1.0
 70
   688
 72
     1
 73
     0
 74
     5
  7

 75
    16
147
1.0
148
0.0
149
0.0
100
AcDbLayout
  1
Layout1
 70
     1
 71
     1
 10
0.0
 20
0.0
 11
420.0
 21
297.0
 12
0.0
 22
0.0
 32
0.0
 14
1.000000000000000E+20
 24
1.000000000000000E+20
 34
1.000000000000000E+20
 15
-1.000000000000000E+20
 25
-1.000000000000000E+20
 35
-1.000000000000000E+20
146
0.0
 13
0.0
 23
0.0
 33
0.0
 16
1.0
 26
0.0
 36
0.0
 17
0.0
 27
1.0
 37
0.0
 76
     0
330
1B
  0
LAYOUT
  5
26
102
{ACAD_REACTORS
330
1A
102
}
330
1A
100
AcDbPlotSettings
  1

  2
none_device
  4

  6

 40
0.0
 41
0.0
 42
0.0
 43
0.0
 44
0.0
 45
0.0
 46
0.0
 47
0.0
 48
0.0
 49
0.0
140
0.0
141
0.0
142
1.0
143
1.0
 70
   688
 72
     1
 73
     0
 74
     5
  7

 75
    16
147
1.0
148
0.0
149
0.0
100
AcDbLayout
  1
Layout2
 70
     1
 71
     2
 10
0.0
 20
0.0
 11
0.0
 21
0.0
 12
0.0
 22
0.0
 32
0.0
 14
0.0
 24
0.0
 34
0.0
 15
0.0
 25
0.0
 35
0.0
146
0.0
 13
0.0
 23
0.0
 33
0.0
 16
1.0
 26
0.0
 36
0.0
 17
0.0
 27
1.0
 37
0.0
 76
     0
330
23
  0
LAYOUT
  5
22
102
{ACAD_REACTORS
330
1A
102
}
330
1A
100
AcDbPlotSettings
  1

  2
none_device
  4
ANSI_A_(11.00_x_8.50_Inches)
  6

 40
6.35
 41
19.05
 42
6.35000508
 43
19.05000254
 44
279.4
 45
215.9
 46
89.87060011157284
 47
66.76373767358142
 48
0.0
 49
0.0
140
0.0
141
0.0
142
0.0468513381585266
143
1.0
 70
  1696
 72
     0
 73
     0
 74
     0
  7

 75
     0
147
0.0235690232323232
148
0.0
149
0.0
100
AcDbLayout
  1
Model
 70
     1
 71
     0
 10
0.0
 20
0.0
 11
420.0
 21
297.0
 12
0.0
 22
0.0
 32
0.0
 14
-54.06250000000009
 24
-49.97180738881175
 34
0.0
 15
97.79412503295507
 25
37.61649999999996
 35
0.0
146
0.0
 13
0.0
 23
0.0
 33
0.0
 16
1.0
 26
0.0
 36
0.0
 17
0.0
 27
1.0
 37
0.0
 76
     0
330
1F
331
29
  0
MLINESTYLE
  5
18
102
{ACAD_REACTORS
330
17
102
}
330
17
100
AcDbMlineStyle
  2
Standard
 70
     0
  3

 62
   256
 51
90.0
 52
90.0
 71
     2
 49
0.5
 62
   256
  6
BYLAYER
 49
-0.5
 62
   256
  6
BYLAYER
  0
ACDBPLACEHOLDER
  5
F
102
{ACAD_REACTORS
330
E
102
}
330
E
  0
SCALE
  5
48
102
{ACAD_REACTORS
330
47
102
}
330
47
100
AcDbScale
 70
     0
300
1:1
140
1.0
141
1.0
290
     1
  0
SCALE
  5
49
102
{ACAD_REACTORS
330
47
102
}
330
47
100
AcDbScale
 70
     0
300
1:2
140
1.0
141
2.0
290
     0
  0
SCALE
  5
4A
102
{ACAD_REACTORS
330
47
102
}
330
47
100
AcDbScale
 70
     0
300
1:4
140
1.0
141
4.0
290
     0
  0
SCALE
  5
4B
102
{ACAD_REACTORS
330
47
102
}
330
47
100
AcDbScale
 70
     0
300
1:5
140
1.0
141
5.0
290
     0
  0
SCALE
  5
4C
102
{ACAD_REACTORS
330
47
102
}
330
47
100
AcDbScale
 70
     0
300
1:8
140
1.0
141
8.0
290
     0
  0
SCALE
  5
4D
102
{ACAD_REACTORS
330
47
102
}
330
47
100
AcDbScale
 70
     0
300
1:10
140
1.0
141
10.0
290
     0
  0
SCALE
  5
4E
102
{ACAD_REACTORS
330
47
102
}
330
47
100
AcDbScale
 70
     0
300
1:16
140
1.0
141
16.0
290
     0
  0
SCALE
  5
4F
102
{ACAD_REACTORS
330
47
102
}
330
47
100
AcDbScale
 70
     0
300
1:20
140
1.0
141
20.0
290
     0
  0
SCALE
  5
50
102
{ACAD_REACTORS
330
47
102
}
330
47
100
AcDbScale
 70
     0
300
1:30
140
1.0
141
30.0
290
     0
  0
SCALE
  5
51
102
{ACAD_REACTORS
330
47
102
}
330
47
100
AcDbScale
 70
     0
300
1:40
140
1.0
141
40.0
290
     0
  0
SCALE
  5
52
102
{ACAD_REACTORS
330
47
102
}
330
47
100
AcDbScale
 70
     0
300
1:50
140
1.0
141
50.0
290
     0
  0
SCALE
  5
53
102
{ACAD_REACTORS
330
47
102
}
330
47
100
AcDbScale
 70
     0
300
1:100
140
1.0
141
100.0
290
     0
  0
SCALE
  5
54
102
{ACAD_REACTORS
330
47
102
}
330
47
100
AcDbScale
 70
     0
300
2:1
140
2.0
141
1.0
290
     0
  0
SCALE
  5
55
102
{ACAD_REACTORS
330
47
102
}
330
47
100
AcDbScale
 70
     0
300
4:1
140
4.0
141
1.0
290
     0
  0
SCALE
  5
56
102
{ACAD_REACTORS
330
47
102
}
330
47
100
AcDbScale
 70
     0
300
8:1
140
8.0
141
1.0
290
     0
  0
SCALE
  5
57
102
{ACAD_REACTORS
330
47
102
}
330
47
100
AcDbScale
 70
     0
300
10:1
140
10.0
141
1.0
290
     0
  0
SCALE
  5
58
102
{ACAD_REACTORS
330
47
102
}
330
47
100
AcDbScale
 70
     0
300
100:1
140
100.0
141
1.0
290
     0
  0
SCALE
  5
59
102
{ACAD_REACTORS
330
47
102
}
330
47
100
AcDbScale
 70
     0
300
1/128" = 1'-0"
140
0.0078125
141
12.0
290
     0
  0
SCALE
  5
5A
102
{ACAD_REACTORS
330
47
102
}
330
47
100
AcDbScale
 70
     0
300
1/64" = 1'-0"
140
0.015625
141
12.0
290
     0
  0
SCALE
  5
5B
102
{ACAD_REACTORS
330
47
102
}
330
47
100
AcDbScale
 70
     0
300
1/32" = 1'-0"
140
0.03125
141
12.0
290
     0
  0
SCALE
  5
5C
102
{ACAD_REACTORS
330
47
102
}
330
47
100
AcDbScale
 70
     0
300
1/16" = 1'-0"
140
0.0625
141
12.0
290
     0
  0
SCALE
  5
5D
102
{ACAD_REACTORS
330
47
102
}
330
47
100
AcDbScale
 70
     0
300
3/32" = 1'-0"
140
0.09375
141
12.0
290
     0
  0
SCALE
  5
5E
102
{ACAD_REACTORS
330
47
102
}
330
47
100
AcDbScale
 70
     0
300
1/8" = 1'-0"
140
0.125
141
12.0
290
     0
  0
SCALE
  5
5F
102
{ACAD_REACTORS
330
47
102
}
330
47
100
AcDbScale
 70
     0
300
3/16" = 1'-0"
140
0.1875
141
12.0
290
     0
  0
SCALE
  5
60
102
{ACAD_REACTORS
330
47
102
}
330
47
100
AcDbScale
 70
     0
300
1/4" = 1'-0"
140
0.25
141
12.0
290
     0
  0
SCALE
  5
61
102
{ACAD_REACTORS
330
47
102
}
330
47
100
AcDbScale
 70
     0
300
3/8" = 1'-0"
140
0.375
141
12.0
290
     0
  0
SCALE
  5
62
102
{ACAD_REACTORS
330
47
102
}
330
47
100
AcDbScale
 70
     0
300
1/2" = 1'-0"
140
0.5
141
12.0
290
     0
  0
SCALE
  5
63
102
{ACAD_REACTORS
330
47
102
}
330
47
100
AcDbScale
 70
     0
300
3/4" = 1'-0"
140
0.75
141
12.0
290
     0
  0
SCALE
  5
64
102
{ACAD_REACTORS
330
47
102
}
330
47
100
AcDbScale
 70
     0
300
1" = 1'-0"
140
1.0
141
12.0
290
     0
  0
SCALE
  5
65
102
{ACAD_REACTORS
330
47
102
}
330
47
100
AcDbScale
 70
     0
300
1-1/2" = 1'-0"
140
1.5
141
12.0
290
     0
  0
SCALE
  5
66
102
{ACAD_REACTORS
330
47
102
}
330
47
100
AcDbScale
 70
     0
300
3" = 1'-0"
140
3.0
141
12.0
290
     0
  0
SCALE
  5
67
102
{ACAD_REACTORS
330
47
102
}
330
47
100
AcDbScale
 70
     0
300
6" = 1'-0"
140
6.0
141
12.0
290
     0
  0
SCALE
  5
68
102
{ACAD_REACTORS
330
47
102
}
330
47
100
AcDbScale
 70
     0
300
1'-0" = 1'-0"
140
12.0
141
12.0
290
     0
  0
ENDSEC
  0
EOF
