  0
SECTION
  2
HEADER
  9
$ACADVER
  1
AC1015
  9
$ACADMAINTVER
 70
     6
  9
$DWGCODEPAGE
  3
ANSI_949
  9
$INSBASE
 10
0.0
 20
0.0
 30
0.0
  9
$EXTMIN
 10
-54.06250000000009
 20
-49.97180738881175
 30
0.0
  9
$EXTMAX
 10
97.79412503295507
 20
40.20304675470712
 30
0.0
  9
$LIMMIN
 10
0.0
 20
0.0
  9
$LIMMAX
 10
420.0
 20
297.0
  9
$ORTHOMODE
 70
     1
  9
$REGENMODE
 70
     1
  9
$FILLMODE
 70
     1
  9
$QTEXTMODE
 70
     0
  9
$MIRRTEXT
 70
     1
  9
$LTSCALE
 40
1.0
  9
$ATTMODE
 70
     1
  9
$TEXTSIZE
 40
3.5
  9
$TRACEWID
 40
1.0
  9
$TEXTSTYLE
  7
Standard
  9
$CLAYER
  8
0
  9
$CELTYPE
  6
ByLayer
  9
$CECOLOR
 62
   256
  9
$CELTSCALE
 40
1.0
  9
$DISPSILH
 70
     0
  9
$DIMSCALE
 40
1.0
  9
$DIMASZ
 40
3.302
  9
$DIMEXO
 40
1.0
  9
$DIMDLI
 40
3.75
  9
$DIMRND
 40
0.0
  9
$DIMDLE
 40
0.0
  9
$DIMEXE
 40
1.0
  9
$DIMTP
 40
0.0
  9
$DIMTM
 40
0.0
  9
$DIMTXT
 40
3.5
  9
$DIMCEN
 40
2.5
  9
$DIMTSZ
 40
0.0
  9
$DIMTOL
 70
     0
  9
$DIMLIM
 70
     0
  9
$DIMTIH
 70
     1
  9
$DIMTOH
 70
     1
  9
$DIMSE1
 70
     0
  9
$DIMSE2
 70
     0
  9
$DIMTAD
 70
     1
  9
$DIMZIN
 70
     0
  9
$DIMBLK
  1

  9
$DIMASO
 70
     1
  9
$DIMSHO
 70
     1
  9
$DIMPOST
  1

  9
$DIMAPOST
  1

  9
$DIMALT
 70
     0
  9
$DIMALTD
 70
     3
  9
$DIMALTF
 40
0.0393700787401575
  9
$DIMLFAC
 40
1.0
  9
$DIMTOFL
 70
     1
  9
$DIMTVP
 40
0.0
  9
$DIMTIX
 70
     0
  9
$DIMSOXD
 70
     0
  9
$DIMSAH
 70
     0
  9
$DIMBLK1
  1

  9
$DIMBLK2
  1

  9
$DIMSTYLE
  2
ISO-25
  9
$DIMCLRD
 70
     0
  9
$DIMCLRE
 70
     0
  9
$DIMCLRT
 70
     0
  9
$DIMTFAC
 40
1.0
  9
$DIMGAP
 40
1.524
  9
$DIMJUST
 70
     0
  9
$DIMSD1
 70
     0
  9
$DIMSD2
 70
     0
  9
$DIMTOLJ
 70
     0
  9
$DIMTZIN
 70
     0
  9
$DIMALTZ
 70
     0
  9
$DIMALTTZ
 70
     0
  9
$DIMUPT
 70
     0
  9
$DIMDEC
 70
     2
  9
$DIMTDEC
 70
     2
  9
$DIMALTU
 70
     2
  9
$DIMALTTD
 70
     3
  9
$DIMTXSTY
  7
Standard
  9
$DIMAUNIT
 70
     0
  9
$DIMADEC
 70
     2
  9
$DIMALTRND
 40
0.0
  9
$DIMAZIN
 70
     0
  9
$DIMDSEP
 70
    44
  9
$DIMATFIT
 70
     3
  9
$DIMFRAC
 70
     0
  9
$DIMLDRBLK
  1

  9
$DIMLUNIT
 70
     2
  9
$DIMLWD
 70
    -2
  9
$DIMLWE
 70
    -2
  9
$DIMTMOVE
 70
     0
  9
$LUNITS
 70
     2
  9
$LUPREC
 70
     2
  9
$SKETCHINC
 40
1.0
  9
$FILLETRAD
 40
10.0
  9
$AUNITS
 70
     0
  9
$AUPREC
 70
     2
  9
$MENU
  1
.
  9
$ELEVATION
 40
0.0
  9
$PELEVATION
 40
0.0
  9
$THICKNESS
 40
0.0
  9
$LIMCHECK
 70
     0
  9
$CHAMFERA
 40
0.0
  9
$CHAMFERB
 40
0.0
  9
$CHAMFERC
 40
0.0
  9
$CHAMFERD
 40
0.0
  9
$SKPOLY
 70
     0
  9
$TDCREATE
 40
2458313.395252847
  9
$TDUCREATE
 40
2458313.020252847
  9
$TDUPDATE
 40
2458324.348275567
  9
$TDUUPDATE
 40
2458323.973275567
  9
$TDINDWG
 40
0.0021214583
  9
$TDUSRTIMER
 40
0.0021214468
  9
$USRTIMER
 70
     1
  9
$ANGBASE
 50
0.0
  9
$ANGDIR
 70
     0
  9
$PDMODE
 70
     0
  9
$PDSIZE
 40
-1.0
  9
$PLINEWID
 40
0.0
  9
$SPLFRAME
 70
     0
  9
$SPLINETYPE
 70
     6
  9
$SPLINESEGS
 70
     8
  9
$HANDSEED
  5
257
  9
$SURFTAB1
 70
     6
  9
$SURFTAB2
 70
     6
  9
$SURFTYPE
 70
     6
  9
$SURFU
 70
     6
  9
$SURFV
 70
     6
  9
$UCSBASE
  2

  9
$UCSNAME
  2

  9
$UCSORG
 10
0.0
 20
0.0
 30
0.0
  9
$UCSXDIR
 10
1.0
 20
0.0
 30
0.0
  9
$UCSYDIR
 10
0.0
 20
1.0
 30
0.0
  9
$UCSORTHOREF
  2

  9
$UCSORTHOVIEW
 70
     0
  9
$UCSORGTOP
 10
0.0
 20
0.0
 30
0.0
  9
$UCSORGBOTTOM
 10
0.0
 20
0.0
 30
0.0
  9
$UCSORGLEFT
 10
0.0
 20
0.0
 30
0.0
  9
$UCSORGRIGHT
 10
0.0
 20
0.0
 30
0.0
  9
$UCSORGFRONT
 10
0.0
 20
0.0
 30
0.0
  9
$UCSORGBACK
 10
0.0
 20
0.0
 30
0.0
  9
$PUCSBASE
  2

  9
$PUCSNAME
  2

  9
$PUCSORG
 10
0.0
 20
0.0
 30
0.0
  9
$PUCSXDIR
 10
1.0
 20
0.0
 30
0.0
  9
$PUCSYDIR
 10
0.0
 20
1.0
 30
0.0
  9
$PUCSORTHOREF
  2

  9
$PUCSORTHOVIEW
 70
     0
  9
$PUCSORGTOP
 10
0.0
 20
0.0
 30
0.0
  9
$PUCSORGBOTTOM
 10
0.0
 20
0.0
 30
0.0
  9
$PUCSORGLEFT
 10
0.0
 20
0.0
 30
0.0
  9
$PUCSORGRIGHT
 10
0.0
 20
0.0
 30
0.0
  9
$PUCSORGFRONT
 10
0.0
 20
0.0
 30
0.0
  9
$PUCSORGBACK
 10
0.0
 20
0.0
 30
0.0
  9
$USERI1
 70
     0
  9
$USERI2
 70
     0
  9
$USERI3
 70
     0
  9
$USERI4
 70
     0
  9
$USERI5
 70
     0
  9
$USERR1
 40
0.0
  9
$USERR2
 40
0.0
  9
$USERR3
 40
0.0
  9
$USERR4
 40
0.0
  9
$USERR5
 40
0.0
  9
$WORLDVIEW
 70
     1
  9
$SHADEDGE
 70
     3
  9
$SHADEDIF
 70
    70
  9
$TILEMODE
 70
     1
  9
$MAXACTVP
 70
    64
  9
$PINSBASE
 10
0.0
 20
0.0
 30
0.0
  9
$PLIMCHECK
 70
     0
  9
$PEXTMIN
 10
1.000000000000000E+20
 20
1.000000000000000E+20
 30
1.000000000000000E+20
  9
$PEXTMAX
 10
-1.000000000000000E+20
 20
-1.000000000000000E+20
 30
-1.000000000000000E+20
  9
$PLIMMIN
 10
0.0
 20
0.0
  9
$PLIMMAX
 10
0.0
 20
0.0
  9
$UNITMODE
 70
     0
  9
$VISRETAIN
 70
     1
  9
$PLINEGEN
 70
     0
  9
$PSLTSCALE
 70
     1
  9
$TREEDEPTH
 70
  3020
  9
$CMLSTYLE
  2
Standard
  9
$CMLJUST
 70
     0
  9
$CMLSCALE
 40
20.0
  9
$PROXYGRAPHICS
 70
     1
  9
$MEASUREMENT
 70
     1
  9
$CELWEIGHT
370
    -1
  9
$ENDCAPS
280
     0
  9
$JOINSTYLE
280
     0
  9
$LWDISPLAY
290
     1
  9
$INSUNITS
 70
     4
  9
$HYPERLINKBASE
  1

  9
$STYLESHEET
  1

  9
$XEDIT
290
     1
  9
$CEPSNTYPE
380
     0
  9
$PSTYLEMODE
290
     1
  9
$FINGERPRINTGUID
  2
{B1983EA5-1B5E-44C5-B747-C4CE7AC74BE0}
  9
$VERSIONGUID
  2
{FAEB1C32-E019-11D5-929B-00C0DF256EC4}
  9
$EXTNAMES
290
     1
  9
$PSVPSCALE
 40
0.0
  9
$OLESTARTUP
290
     0
  0
ENDSEC
  0
SECTION
  2
CLASSES
  0
CLASS
  1
ACDBDICTIONARYWDFLT
  2
AcDbDictionaryWithDefault
  3
ObjectDBX Classes
 90
        0
280
     0
281
     0
  0
CLASS
  1
VISUALSTYLE
  2
AcDbVisualStyle
  3
ObjectDBX Classes
 90
     4095
280
     0
281
     0
  0
CLASS
  1
MATERIAL
  2
AcDbMaterial
  3
ObjectDBX Classes
 90
     1153
280
     0
281
     0
  0
CLASS
  1
SCALE
  2
AcDbScale
  3
ObjectDBX Classes
 90
     1153
280
     0
281
     0
  0
CLASS
  1
SUN
  2
AcDbSun
  3
SCENEOE
 90
     1153
280
     0
281
     0
  0
CLASS
  1
ACDBPLACEHOLDER
  2
AcDbPlaceHolder
  3
ObjectDBX Classes
 90
        0
280
     0
281
     0
  0
CLASS
  1
LAYOUT
  2
AcDbLayout
  3
ObjectDBX Classes
 90
        0
280
     0
281
     0
  0
CLASS
  1
TABLESTYLE
  2
AcDbTableStyle
  3
ObjectDBX Classes
 90
     4095
280
     0
281
     0
  0
CLASS
  1
MLEADERSTYLE
  2
AcDbMLeaderStyle
  3
ACDB_MLEADERSTYLE_CLASS
 90
     4095
280
     0
281
     0
  0
CLASS
  1
DICTIONARYVAR
  2
AcDbDictionaryVar
  3
ObjectDBX Classes
 90
        0
280
     0
281
     0
  0
ENDSEC
  0
SECTION
  2
TABLES
  0
TABLE
  2
VPORT
  5
8
330
0
100
AcDbSymbolTable
 70
     1
  0
VPORT
  5
29
330
8
100
AcDbSymbolTableRecord
100
AcDbViewportTableRecord
  2
*Active
 70
     0
 10
0.0
 20
0.0
 11
1.0
 21
1.0
 12
21.86581251647749
 22
-4.884380317052319
 13
0.0
 23
0.0
 14
10.0
 24
10.0
 15
10.0
 25
10.0
 16
0.0
 26
0.0
 36
1.0
 17
0.0
 27
0.0
 37
0.0
 40
91.97835122638925
 41
1.782762691853601
 42
50.0
 43
0.0
 44
0.0
 50
0.0
 51
0.0
 71
    16
 72
  2000
 73
     1
 74
     3
 75
     0
 76
     0
 77
     0
 78
     0
281
     0
 65
     1
110
0.0
120
0.0
130
0.0
111
1.0
121
0.0
131
0.0
112
0.0
122
1.0
132
0.0
 79
     0
146
0.0
  0
ENDTAB
  0
TABLE
  2
LTYPE
  5
5
330
0
100
AcDbSymbolTable
 70
     6
  0
LTYPE
  5
14
330
5
100
AcDbSymbolTableRecord
100
AcDbLinetypeTableRecord
  2
ByBlock
 70
     0
  3

 72
    65
 73
     0
 40
0.0
  0
LTYPE
  5
15
330
5
100
AcDbSymbolTableRecord
100
AcDbLinetypeTableRecord
  2
ByLayer
 70
     0
  3

 72
    65
 73
     0
 40
0.0
  0
LTYPE
  5
16
330
5
100
AcDbSymbolTableRecord
100
AcDbLinetypeTableRecord
  2
Continuous
 70
     0
  3
Solid line
 72
    65
 73
     0
 40
0.0
  0
LTYPE
  5
6A
330
5
100
AcDbSymbolTableRecord
100
AcDbLinetypeTableRecord
  2
HIDDEN
 70
     0
  3
Hidden __ __ __ __ __ __ __ __ __ __ __ __ __ __
 72
    65
 73
     2
 40
1.905
 49
1.27
 74
     0
 49
-0.635
 74
     0
  0
LTYPE
  5
6B
330
5
100
AcDbSymbolTableRecord
100
AcDbLinetypeTableRecord
  2
PHANTOM
 70
     0
  3
Phantom ______  __  __  ______  __  __  ______
 72
    65
 73
     6
 40
12.7
 49
6.35
 74
     0
 49
-1.27
 74
     0
 49
1.27
 74
     0
 49
-1.27
 74
     0
 49
1.27
 74
     0
 49
-1.27
 74
     0
  0
LTYPE
  5
6C
330
5
100
AcDbSymbolTableRecord
100
AcDbLinetypeTableRecord
  2
CENTER
 70
     0
  3
Center ____ _ ____ _ ____ _ ____ _ ____ _ ____
 72
    65
 73
     4
 40
10.16
 49
6.35
 74
     0
 49
-1.27
 74
     0
 49
1.27
 74
     0
 49
-1.27
 74
     0
  0
LTYPE
  5
6D
330
5
100
AcDbSymbolTableRecord
100
AcDbLinetypeTableRecord
  2
CENTERX2
 70
     0
  3
Center (2x) ________  __  ________  __  _____
 72
    65
 73
     4
 40
20.32
 49
12.7
 74
     0
 49
-2.54
 74
     0
 49
2.54
 74
     0
 49
-2.54
 74
     0
  0
LTYPE
  5
6E
330
5
100
AcDbSymbolTableRecord
100
AcDbLinetypeTableRecord
  2
DOT2
 70
     0
  3
Dot (.5x) ........................................
 72
    65
 73
     2
 40
0.635
 49
0.0
 74
     0
 49
-0.635
 74
     0
  0
ENDTAB
  0
TABLE
  2
LAYER
  5
2
102
{ACAD_XDICTIONARY
360
193
102
}
330
0
100
AcDbSymbolTable
 70
    18
  0
LAYER
  5
10
330
2
100
AcDbSymbolTableRecord
100
AcDbLayerTableRecord
  2
0
 70
     0
 62
     7
  6
Continuous
370
    -3
390
F
  0
LAYER
  5
6F
330
2
100
AcDbSymbolTableRecord
100
AcDbLayerTableRecord
  2
FORMAT
 70
     0
 62
     2
  6
Continuous
370
    -3
390
F
  0
LAYER
  5
70
330
2
100
AcDbSymbolTableRecord
100
AcDbLayerTableRecord
  2
외형선
 70
     0
 62
     4
  6
Continuous
370
    30
390
F
  0
LAYER
  5
71
330
2
100
AcDbSymbolTableRecord
100
AcDbLayerTableRecord
  2
숨은선
 70
     0
 62
     2
  6
HIDDEN
370
    15
390
F
  0
LAYER
  5
72
330
2
100
AcDbSymbolTableRecord
100
AcDbLayerTableRecord
  2
중심선
 70
     0
 62
     1
  6
CENTERX2
370
    -3
390
F
  0
LAYER
  5
73
330
2
100
AcDbSymbolTableRecord
100
AcDbLayerTableRecord
  2
파단선
 70
     0
 62
     4
  6
Continuous
370
    -3
390
F
  0
LAYER
  5
74
330
2
100
AcDbSymbolTableRecord
100
AcDbLayerTableRecord
  2
해칭선
 70
     0
 62
   100
  6
Continuous
370
    -3
390
F
  0
LAYER
  5
75
330
2
100
AcDbSymbolTableRecord
100
AcDbLayerTableRecord
  2
가는실선
 70
     0
 62
     4
  6
Continuous
370
    -3
390
F
  0
LAYER
  5
76
330
2
100
AcDbSymbolTableRecord
100
AcDbLayerTableRecord
  2
치수_보조선
 70
     0
 62
     4
  6
Continuous
370
    -3
390
F
  0
LAYER
  5
77
330
2
100
AcDbSymbolTableRecord
100
AcDbLayerTableRecord
  2
치수문자_일반주서
 70
     0
 62
     7
  6
Continuous
370
    15
390
F
  0
LAYER
  5
78
330
2
100
AcDbSymbolTableRecord
100
AcDbLayerTableRecord
  2
개별주서
 70
     0
 62
   100
  6
Continuous
370
    30
390
F
  0
LAYER
  5
79
330
2
100
AcDbSymbolTableRecord
100
AcDbLayerTableRecord
  2
중간선
 70
     0
 62
     2
  6
Continuous
370
    15
390
F
  0
LAYER
  5
7A
330
2
100
AcDbSymbolTableRecord
100
AcDbLayerTableRecord
  2
윤곽선
 70
     0
 62
     3
  6
Continuous
370
    40
390
F
  0
LAYER
  5
7B
330
2
100
AcDbSymbolTableRecord
100
AcDbLayerTableRecord
  2
중심마크
 70
     0
 62
   100
  6
Continuous
370
    30
390
F
  0
LAYER
  5
7C
330
2
100
AcDbSymbolTableRecord
100
AcDbLayerTableRecord
  2
가상선
 70
     0
 62
     4
  6
PHANTOM
370
    -3
390
F
  0
LAYER
  5
7D
330
2
100
AcDbSymbolTableRecord
100
AcDbLayerTableRecord
  2
특수지정선
 70
     0
 62
     5
  6
CENTERX2
370
    60
390
F
  0
LAYER
  5
7E
330
2
100
AcDbSymbolTableRecord
100
AcDbLayerTableRecord
  2
참조1
 70
     0
 62
    -4
  6
Continuous
370
    -3
390
F
  0
LAYER
  5
15C
330
2
100
AcDbSymbolTableRecord
100
AcDbLayerTableRecord
  2
Defpoints
 70
     0
 62
     7
  6
Continuous
290
     0
370
    -3
390
F
  0
ENDTAB
  0
TABLE
  2
STYLE
  5
3
330
0
100
AcDbSymbolTable
 70
     2
  0
STYLE
  5
11
330
3
100
AcDbSymbolTableRecord
100
AcDbTextStyleTableRecord
  2
Standard
 70
     0
 40
0.0
 41
1.0
 50
0.0
 71
     0
 42
3.5
  3
txt
  4

  0
STYLE
  5
94
330
3
100
AcDbSymbolTableRecord
100
AcDbTextStyleTableRecord
  2
SLDTEXTSTYLE0
 70
     0
 40
0.0
 41
0.75
 50
0.0
 71
     0
 42
3.5
  3
TXT
  4

  0
ENDTAB
  0
TABLE
  2
VIEW
  5
6
330
0
100
AcDbSymbolTable
 70
     0
  0
ENDTAB
  0
TABLE
  2
UCS
  5
7
330
0
100
AcDbSymbolTable
 70
     0
  0
ENDTAB
  0
TABLE
  2
APPID
  5
9
330
0
100
AcDbSymbolTable
 70
     2
  0
APPID
  5
12
330
9
100
AcDbSymbolTableRecord
100
AcDbRegAppTableRecord
  2
ACAD
 70
     0
  0
APPID
  5
163
330
9
100
AcDbSymbolTableRecord
100
AcDbRegAppTableRecord
  2
PE_URL
 70
     0
  0
ENDTAB
  0
TABLE
  2
DIMSTYLE
  5
A
330
0
100
AcDbSymbolTable
 70
     4
100
AcDbDimStyleTable
  0
DIMSTYLE
105
27
330
A
100
AcDbSymbolTableRecord
100
AcDbDimStyleTableRecord
  2
ISO-25
 70
     0
 41
2.5
 42
0.625
 43
3.75
 44
1.25
 73
     0
 74
     0
 77
     1
 78
     8
140
2.5
141
2.5
143
0.03937007874016
147
0.625
171
     3
172
     1
178
     0
271
     2
272
     2
274
     3
278
    44
283
     0
284
     8
340
11
  0
DIMSTYLE
105
DA
102
{ACAD_REACTORS
330
D9
330
EE
330
182
330
102
330
117
102
}
330
A
100
AcDbSymbolTableRecord
100
AcDbDimStyleTableRecord
  2
SLDDIMSTYLE0
 70
     0
 41
3.302
 44
0.0
 45
0.000000001
 73
     0
 74
     0
 77
     1
 78
    12
 79
     3
140
3.5
143
0.0393700787401575
147
0.875
148
0.000000001
170
     1
172
     1
173
     1
178
     0
271
     2
272
     2
276
     2
284
    12
289
     0
340
94
  0
DIMSTYLE
105
103
330
A
100
AcDbSymbolTableRecord
100
AcDbDimStyleTableRecord
  2
SLDDIMSTYLE1
 70
     0
 41
3.302
 44
0.0
 45
0.000000001
 73
     0
 74
     0
 77
     1
 78
     4
 79
     1
140
3.5
143
0.0393700787401575
147
0.875
148
0.000000001
170
     1
173
     1
178
     0
271
     2
272
     2
276
     2
284
    12
340
94
  0
DIMSTYLE
105
118
330
A
100
AcDbSymbolTableRecord
100
AcDbDimStyleTableRecord
  2
SLDDIMSTYLE2
 70
     0
 41
3.302
 44
0.0
 45
0.000000001
 73
     0
 74
     0
 77
     1
 78
    12
 79
     3
140
3.5
143
0.0393700787401575
147
0.875
148
0.000000001
170
     1
173
     1
178
     0
271
     2
272
     2
276
     2
284
    12
340
94
  0
ENDTAB
  0
TABLE
  2
BLOCK_RECORD
  5
1
330
0
100
AcDbSymbolTable
 70
    11
  0
BLOCK_RECORD
  5
1F
330
1
100
AcDbSymbolTableRecord
100
AcDbBlockTableRecord
  2
*Model_Space
340
22
  0
BLOCK_RECORD
  5
1B
330
1
100
AcDbSymbolTableRecord
100
AcDbBlockTableRecord
  2
*Paper_Space
340
1E
  0
BLOCK_RECORD
  5
23
330
1
100
AcDbSymbolTableRecord
100
AcDbBlockTableRecord
  2
*Paper_Space0
340
26
  0
BLOCK_RECORD
  5
7F
330
1
100
AcDbSymbolTableRecord
100
AcDbBlockTableRecord
  2
블럭10
340
0
102
{BLKREFS
331
D2
102
}
  0
BLOCK_RECORD
  5
DB
330
1
100
AcDbSymbolTableRecord
100
AcDbBlockTableRecord
  2
_D
340
0
  0
BLOCK_RECORD
  5
EF
330
1
100
AcDbSymbolTableRecord
100
AcDbBlockTableRecord
  2
_D_1
340
0
  0
BLOCK_RECORD
  5
104
330
1
100
AcDbSymbolTableRecord
100
AcDbBlockTableRecord
  2
_D_2
340
0
  0
BLOCK_RECORD
  5
119
330
1
100
AcDbSymbolTableRecord
100
AcDbBlockTableRecord
  2
_D_3
340
0
  0
BLOCK_RECORD
  5
132
330
1
100
AcDbSymbolTableRecord
100
AcDbBlockTableRecord
  2
SW_DOWELSYMBOL_0
340
0
102
{BLKREFS
331
138
102
}
  0
BLOCK_RECORD
  5
197
330
1
100
AcDbSymbolTableRecord
100
AcDbBlockTableRecord
  2
*D8
340
0
  0
BLOCK_RECORD
  5
1A9
330
1
100
AcDbSymbolTableRecord
100
AcDbBlockTableRecord
  2
*D9
340
0
  0
ENDTAB
  0
ENDSEC
  0
SECTION
  2
BLOCKS
  0
BLOCK
  5
20
330
1F
100
AcDbEntity
  8
0
100
AcDbBlockBegin
  2
*Model_Space
 70
     0
 10
0.0
 20
0.0
 30
0.0
  3
*Model_Space
  1

  0
ENDBLK
  5
21
330
1F
100
AcDbEntity
  8
0
100
AcDbBlockEnd
  0
BLOCK
  5
1C
330
1B
100
AcDbEntity
 67
     1
  8
0
100
AcDbBlockBegin
  2
*Paper_Space
 70
     0
 10
0.0
 20
0.0
 30
0.0
  3
*Paper_Space
  1

  0
ENDBLK
  5
1D
330
1B
100
AcDbEntity
 67
     1
  8
0
100
AcDbBlockEnd
  0
BLOCK
  5
24
330
23
100
AcDbEntity
  8
0
100
AcDbBlockBegin
  2
*Paper_Space0
 70
     0
 10
0.0
 20
0.0
 30
0.0
  3
*Paper_Space0
  1

  0
ENDBLK
  5
25
330
23
100
AcDbEntity
  8
0
100
AcDbBlockEnd
  0
BLOCK
  5
80
330
7F
100
AcDbEntity
  8
0
100
AcDbBlockBegin
  2
블럭10
 70
     2
 10
0.0
 20
0.0
 30
0.0
  3
블럭10
  1

  0
ELLIPSE
  5
82
330
7F
100
AcDbEntity
  8
중심선
100
AcDbEllipse
 10
20.54032771741204
 20
12.0471743016438
 30
0.0
 11
6.600054785286829
 21
-1.261213355974178E-13
 31
0.0
210
0.0
220
0.0
230
1.0
 40
0.636358354079598
 41
0.9219305317359503
 42
6.513795318482858
  0
ELLIPSE
  5
83
330
7F
100
AcDbEntity
  8
중심선
100
AcDbEllipse
 10
20.54032771746488
 20
12.04717430159265
 30
0.0
 11
3.960054785062283
 21
1.540847449632565E-10
 31
0.0
210
0.0
220
0.0
230
1.0
 40
0.3939339440162632
 41
1.131841032648279
 42
5.62031148352944
  0
LINE
  5
84
330
7F
100
AcDbEntity
  8
중심선
100
AcDbLine
 10
2.268634060543552
 20
16.24717430164393
 30
0.0
 11
5.714909304380834
 21
16.24717430164393
 31
0.0
  0
LINE
  5
85
330
7F
100
AcDbEntity
  8
중심선
100
AcDbLine
 10
5.245725140726316
 20
7.84717430164391
 30
0.0
 11
8.692000384563599
 21
7.84717430164391
 31
0.0
  0
LINE
  5
86
330
7F
100
AcDbEntity
  8
중심선
100
AcDbLine
 10
15.74043728645272
 20
16.24717430164393
 30
0.0
 11
8.692000384563599
 21
7.84717430164391
 31
0.0
  0
LINE
  5
87
330
7F
100
AcDbEntity
  8
중심선
100
AcDbLine
 10
0.1404042013395286
 20
13.71084872107135
 30
0.0
 11
3.58671253028996
 21
13.71088815037384
 31
0.0
  0
LINE
  5
88
330
7F
100
AcDbEntity
  8
중심선
100
AcDbLine
 10
2.750260043222114
 20
10.84717430164391
 30
0.0
 11
6.196535287059397
 21
10.84717430164391
 31
0.0
  0
LINE
  5
89
330
7F
100
AcDbEntity
  8
중심선
100
AcDbLine
 10
12.29416204261559
 20
16.24717430164393
 30
0.0
 11
5.245725140726316
 21
7.84717430164391
 31
0.0
  0
LINE
  5
8A
330
7F
100
AcDbEntity
  8
중심선
100
AcDbLine
 10
10.72767329541681
 20
16.24717430164393
 30
0.0
 11
6.196535287059397
 21
10.84717430164391
 31
0.0
  0
LINE
  5
8B
330
7F
100
AcDbEntity
  8
중심선
100
AcDbLine
 10
7.28139805157953
 20
16.24717430164393
 30
0.0
 11
2.750260043222114
 21
10.84717430164391
 31
0.0
  0
LINE
  5
8C
330
7F
100
AcDbEntity
  8
중심선
100
AcDbLine
 10
5.714909304380834
 20
16.24717430164393
 30
0.0
 11
3.58671253028996
 21
13.71088815037384
 31
0.0
  0
LINE
  5
8D
330
7F
100
AcDbEntity
  8
중심선
100
AcDbLine
 10
2.268634060543552
 20
16.24717430164393
 30
0.0
 11
0.1404042013395286
 21
13.71084872107135
 31
0.0
  0
LINE
  5
8E
330
7F
100
AcDbEntity
  8
중심선
100
AcDbLine
 10
7.28139805157953
 20
16.24717430164393
 30
0.0
 11
10.72767329541681
 21
16.24717430164393
 31
0.0
  0
LINE
  5
8F
330
7F
100
AcDbEntity
  8
중심선
100
AcDbLine
 10
12.29416204261559
 20
16.24717430164393
 30
0.0
 11
15.74043728645272
 21
16.24717430164393
 31
0.0
  0
LINE
  5
90
330
7F
100
AcDbEntity
  8
중심선
100
AcDbLine
 10
19.22036997980202
 20
11.08717430171403
 30
0.0
 11
23.66174974927406
 21
11.08717430171406
 31
0.0
  0
LINE
  5
91
330
7F
100
AcDbEntity
  8
중심선
100
AcDbLine
 10
19.22039502424796
 20
13.00717430171391
 30
0.0
 11
19.22036997980202
 21
11.08717430171403
 31
0.0
  0
LINE
  5
92
330
7F
100
AcDbEntity
  8
중심선
100
AcDbLine
 10
19.22039502424796
 20
13.00717430171391
 30
0.0
 11
26.96566020931264
 21
13.00717430171391
 31
0.0
  0
LINE
  5
93
330
7F
100
AcDbEntity
  8
중심선
100
AcDbLine
 10
22.22332737316547
 20
13.45928029700563
 30
0.0
 11
24.52862924686651
 21
15.39360700705356
 31
0.0
  0
ATTDEF
  5
95
330
7F
100
AcDbEntity
  8
FORMAT
 62
     2
100
AcDbText
 10
4.408487351596664
 20
2.075366912832191
 30
0.0
 40
4.233333333333333
  1
E1050015
 41
0.75
  7
SLDTEXTSTYLE0
 11
4.408487351596664
 21
-0.0412997538344756
 31
0.0
100
AcDbAttributeDefinition
  3

  2
AUTOATTR0
 70
     0
 74
     1
  0
ENDBLK
  5
81
330
7F
100
AcDbEntity
  8
0
100
AcDbBlockEnd
  0
BLOCK
  5
DC
330
DB
100
AcDbEntity
  8
0
100
AcDbBlockBegin
  2
_D
 70
     0
 10
0.0
 20
0.0
 30
0.0
  3
_D
  1

  0
LINE
  5
DE
330
DB
100
AcDbEntity
  8
치수문자_일반주서
 62
     0
370
    -2
100
AcDbLine
 10
-19.38479051085748
 20
4.762499999999996
 30
0.0
 11
-49.68749999999998
 21
4.762499999999882
 31
0.0
  0
LINE
  5
DF
330
DB
100
AcDbEntity
  8
치수문자_일반주서
 62
     0
370
    -2
100
AcDbLine
 10
-19.38479051085747
 20
-4.762500000000006
 30
0.0
 11
-49.68749999999994
 21
-4.76250000000012
 31
0.0
  0
LINE
  5
E0
330
DB
100
AcDbEntity
  8
치수문자_일반주서
 62
     0
370
    -2
100
AcDbLine
 10
-49.68749999999998
 20
4.762499999999882
 30
0.0
 11
-49.6875000000001
 21
37.61649999999996
 31
0.0
  0
LINE
  5
E1
330
DB
100
AcDbEntity
  8
치수문자_일반주서
 62
     0
370
    -2
100
AcDbLine
 10
-49.68749999999998
 20
4.762499999999882
 30
0.0
 11
-49.68749999999994
 21
-4.76250000000012
 31
0.0
  0
LINE
  5
E2
330
DB
100
AcDbEntity
  8
치수문자_일반주서
 62
     0
370
    -2
100
AcDbLine
 10
-49.68749999999999
 20
8.064499999999882
 30
0.0
 11
-49.68750000000001
 21
11.36649999999988
 31
0.0
  0
LINE
  5
E3
330
DB
100
AcDbEntity
  8
치수문자_일반주서
 62
     0
370
    -2
100
AcDbLine
 10
-49.68749999999993
 20
-8.06450000000012
 30
0.0
 11
-49.68749999999991
 21
-11.36650000000012
 31
0.0
  0
SOLID
  5
E4
330
DB
100
AcDbEntity
  8
치수문자_일반주서
 62
     0
100
AcDbTrace
 10
-50.23783333333333
 20
8.06449999999988
 30
0.0
 11
-49.13716666666666
 21
8.064499999999883
 31
0.0
 12
-49.68749999999998
 22
4.762499999999882
 32
0.0
 13
-49.68749999999998
 23
4.762499999999882
 33
0.0
  0
SOLID
  5
E5
330
DB
100
AcDbEntity
  8
치수문자_일반주서
 62
     0
100
AcDbTrace
 10
-49.13716666666659
 20
-8.064500000000118
 30
0.0
 11
-50.23783333333326
 21
-8.064500000000121
 31
0.0
 12
-49.68749999999994
 22
-4.76250000000012
 32
0.0
 13
-49.68749999999994
 23
-4.76250000000012
 33
0.0
  0
MTEXT
  5
E6
330
DB
100
AcDbEntity
  8
치수문자_일반주서
 62
     0
100
AcDbMText
 10
-54.06250000000005
 20
24.49149999999995
 30
0.0
 40
3.5
 41
0.0
 71
     2
 72
     1
  1
\A1;%%c9.53 [3/8]
  7
SLDTEXTSTYLE0
 11
-3.729883127349606E-15
 21
1.0
 31
0.0
 73
     1
 44
1.0
  0
POINT
  5
1ED
330
DB
100
AcDbEntity
  8
Defpoints
 62
     0
100
AcDbPoint
 10
-19.32229051085748
 20
4.762499999999996
 30
0.0
  0
POINT
  5
1EE
330
DB
100
AcDbEntity
  8
Defpoints
 62
     0
100
AcDbPoint
 10
-19.32229051085747
 20
-4.762500000000006
 30
0.0
  0
POINT
  5
1EF
330
DB
100
AcDbEntity
  8
Defpoints
 62
     0
100
AcDbPoint
 10
-49.68749999999994
 20
-4.76250000000012
 30
0.0
  0
ENDBLK
  5
DD
330
DB
100
AcDbEntity
  8
0
100
AcDbBlockEnd
  0
BLOCK
  5
F0
330
EF
100
AcDbEntity
  8
0
100
AcDbBlockBegin
  2
_D_1
 70
     0
 10
0.0
 20
0.0
 30
0.0
  3
_D_1
  1

  0
LINE
  5
F2
330
EF
100
AcDbEntity
  8
치수문자_일반주서
 62
     0
370
    -2
100
AcDbLine
 10
39.75000000000002
 20
-2.974046754706987
 30
0.0
 11
75.78129308043042
 21
-2.974046754706851
 31
0.0
  0
LINE
  5
F3
330
EF
100
AcDbEntity
  8
치수문자_일반주서
 62
     0
370
    -2
100
AcDbLine
 10
39.75000000000002
 20
2.974046754706987
 30
0.0
 11
75.7812930804304
 21
2.974046754707121
 31
0.0
  0
LINE
  5
F4
330
EF
100
AcDbEntity
  8
치수문자_일반주서
 62
     0
370
    -2
100
AcDbLine
 10
75.7812930804304
 20
2.974046754707121
 30
0.0
 11
75.7812930804303
 21
40.20304675470712
 31
0.0
  0
LINE
  5
F5
330
EF
100
AcDbEntity
  8
치수문자_일반주서
 62
     0
370
    -2
100
AcDbLine
 10
75.78129308043042
 20
-2.974046754706851
 30
0.0
 11
75.7812930804304
 21
2.974046754707121
 31
0.0
  0
LINE
  5
F6
330
EF
100
AcDbEntity
  8
치수문자_일반주서
 62
     0
370
    -2
100
AcDbLine
 10
75.78129308043043
 20
-6.276046754706851
 30
0.0
 11
75.78129308043044
 21
-9.57804675470685
 31
0.0
  0
LINE
  5
F7
330
EF
100
AcDbEntity
  8
치수문자_일반주서
 62
     0
370
    -2
100
AcDbLine
 10
75.78129308043039
 20
6.276046754707121
 30
0.0
 11
75.78129308043037
 21
9.57804675470712
 31
0.0
  0
SOLID
  5
F8
330
EF
100
AcDbEntity
  8
치수문자_일반주서
 62
     0
100
AcDbTrace
 10
76.33162641376376
 20
-6.27604675470685
 30
0.0
 11
75.2309597470971
 21
-6.276046754706852
 31
0.0
 12
75.78129308043042
 22
-2.974046754706851
 32
0.0
 13
75.78129308043042
 23
-2.974046754706851
 33
0.0
  0
SOLID
  5
F9
330
EF
100
AcDbEntity
  8
치수문자_일반주서
 62
     0
100
AcDbTrace
 10
75.23095974709706
 20
6.27604675470712
 30
0.0
 11
76.33162641376371
 21
6.276046754707122
 31
0.0
 12
75.7812930804304
 22
2.974046754707121
 32
0.0
 13
75.7812930804304
 23
2.974046754707121
 33
0.0
  0
MTEXT
  5
FA
330
EF
100
AcDbEntity
  8
치수문자_일반주서
 62
     0
100
AcDbMText
 10
71.40629308043034
 20
24.89054675470711
 30
0.0
 40
3.5
 41
0.0
 71
     2
 72
     1
  1
\A1;%%c5.95 [15/64]
  7
SLDTEXTSTYLE0
 11
-2.389144470023993E-15
 21
1.0
 31
0.0
 73
     1
 44
1.0
  0
POINT
  5
FB
330
EF
100
AcDbEntity
  8
Defpoints
 62
     0
100
AcDbPoint
 10
39.68750000000002
 20
-2.974046754706988
 30
0.0
  0
POINT
  5
FC
330
EF
100
AcDbEntity
  8
Defpoints
 62
     0
100
AcDbPoint
 10
39.68750000000002
 20
2.974046754706986
 30
0.0
  0
POINT
  5
FD
330
EF
100
AcDbEntity
  8
Defpoints
 62
     0
100
AcDbPoint
 10
75.78129308043043
 20
2.974046754707121
 30
0.0
  0
ENDBLK
  5
F1
330
EF
100
AcDbEntity
  8
0
100
AcDbBlockEnd
  0
BLOCK
  5
105
330
104
100
AcDbEntity
  8
0
100
AcDbBlockBegin
  2
_D_2
 70
     0
 10
0.0
 20
0.0
 30
0.0
  3
_D_2
  1

  0
LINE
  5
107
330
104
100
AcDbEntity
  8
치수문자_일반주서
 62
     0
370
    -2
100
AcDbLine
 10
39.68750000000002
 20
3.036546754706986
 30
0.0
 11
39.68750000000002
 21
14.76249999999997
 31
0.0
  0
LINE
  5
108
330
104
100
AcDbEntity
  8
치수문자_일반주서
 62
     0
370
    -2
100
AcDbLine
 10
26.98750000000002
 20
2.851148236901256
 30
0.0
 11
26.98750000000002
 21
14.76249999999997
 31
0.0
  0
LINE
  5
109
330
104
100
AcDbEntity
  8
치수문자_일반주서
 62
     0
370
    -2
100
AcDbLine
 10
39.68750000000002
 20
14.76249999999997
 30
0.0
 11
68.16650000000001
 21
14.76249999999997
 31
0.0
  0
LINE
  5
10A
330
104
100
AcDbEntity
  8
치수문자_일반주서
 62
     0
370
    -2
100
AcDbLine
 10
39.68750000000002
 20
14.76249999999997
 30
0.0
 11
26.98750000000002
 21
14.76249999999997
 31
0.0
  0
LINE
  5
10B
330
104
100
AcDbEntity
  8
치수문자_일반주서
 62
     0
370
    -2
100
AcDbLine
 10
42.98950000000002
 20
14.76249999999997
 30
0.0
 11
46.29150000000002
 21
14.76249999999997
 31
0.0
  0
LINE
  5
10C
330
104
100
AcDbEntity
  8
치수문자_일반주서
 62
     0
370
    -2
100
AcDbLine
 10
23.68550000000002
 20
14.76249999999997
 30
0.0
 11
20.38350000000002
 21
14.76249999999997
 31
0.0
  0
SOLID
  5
10D
330
104
100
AcDbEntity
  8
치수문자_일반주서
 62
     0
100
AcDbTrace
 10
42.98950000000002
 20
15.31283333333331
 30
0.0
 11
42.98950000000002
 21
14.21216666666664
 31
0.0
 12
39.68750000000002
 22
14.76249999999997
 32
0.0
 13
39.68750000000002
 23
14.76249999999997
 33
0.0
  0
SOLID
  5
10E
330
104
100
AcDbEntity
  8
치수문자_일반주서
 62
     0
100
AcDbTrace
 10
23.68550000000002
 20
14.21216666666664
 30
0.0
 11
23.68550000000002
 21
15.31283333333331
 31
0.0
 12
26.98750000000002
 22
14.76249999999997
 32
0.0
 13
26.98750000000002
 23
14.76249999999997
 33
0.0
  0
MTEXT
  5
10F
330
104
100
AcDbEntity
  8
치수문자_일반주서
 62
     0
100
AcDbMText
 10
57.22900000000002
 20
19.13749999999997
 30
0.0
 40
3.5
 41
0.0
 71
     2
 72
     1
  1
\A1;12.7 [1/2]
  7
SLDTEXTSTYLE0
 73
     1
 44
1.0
  0
POINT
  5
110
330
104
100
AcDbEntity
  8
Defpoints
 62
     0
100
AcDbPoint
 10
39.68750000000002
 20
2.974046754706986
 30
0.0
  0
POINT
  5
111
330
104
100
AcDbEntity
  8
Defpoints
 62
     0
100
AcDbPoint
 10
26.98750000000002
 20
2.788648236901256
 30
0.0
  0
POINT
  5
112
330
104
100
AcDbEntity
  8
Defpoints
 62
     0
100
AcDbPoint
 10
26.98750000000002
 20
14.76249999999997
 30
0.0
  0
ENDBLK
  5
106
330
104
100
AcDbEntity
  8
0
100
AcDbBlockEnd
  0
BLOCK
  5
11A
330
119
100
AcDbEntity
  8
0
100
AcDbBlockBegin
  2
_D_3
 70
     0
 10
0.0
 20
0.0
 30
0.0
  3
_D_3
  1

  0
LINE
  5
11C
330
119
100
AcDbEntity
  8
치수문자_일반주서
 62
     0
370
    -2
100
AcDbLine
 10
-39.6875
 20
3.036546754706958
 30
0.0
 11
-39.68750000000001
 21
24.76249999999999
 31
0.0
  0
LINE
  5
11D
330
119
100
AcDbEntity
  8
치수문자_일반주서
 62
     0
370
    -2
100
AcDbLine
 10
39.68750000000002
 20
3.036546754706986
 30
0.0
 11
39.68750000000001
 21
24.76249999999999
 31
0.0
  0
LINE
  5
11E
330
119
100
AcDbEntity
  8
치수문자_일반주서
 62
     0
370
    -2
100
AcDbLine
 10
-36.38550000000001
 20
24.76249999999999
 30
0.0
 11
36.38550000000001
 21
24.76249999999999
 31
0.0
  0
SOLID
  5
11F
330
119
100
AcDbEntity
  8
치수문자_일반주서
 62
     0
100
AcDbTrace
 10
-36.38550000000001
 20
25.31283333333333
 30
0.0
 11
-36.38550000000001
 21
24.21216666666666
 31
0.0
 12
-39.68750000000001
 22
24.76249999999999
 32
0.0
 13
-39.68750000000001
 23
24.76249999999999
 33
0.0
  0
SOLID
  5
120
330
119
100
AcDbEntity
  8
치수문자_일반주서
 62
     0
100
AcDbTrace
 10
36.38550000000001
 20
24.21216666666666
 30
0.0
 11
36.38550000000001
 21
25.31283333333333
 31
0.0
 12
39.68750000000001
 22
24.76249999999999
 32
0.0
 13
39.68750000000001
 23
24.76249999999999
 33
0.0
  0
MTEXT
  5
121
330
119
100
AcDbEntity
  8
치수문자_일반주서
 62
     0
100
AcDbMText
 10
0.0000000000000071
 20
29.13749999999999
 30
0.0
 40
3.5
 41
0.0
 71
     2
 72
     1
  1
\A1;79.38 [3 1/8]
  7
SLDTEXTSTYLE0
 73
     1
 44
1.0
  0
POINT
  5
122
330
119
100
AcDbEntity
  8
Defpoints
 62
     0
100
AcDbPoint
 10
-39.6875
 20
2.974046754706958
 30
0.0
  0
POINT
  5
123
330
119
100
AcDbEntity
  8
Defpoints
 62
     0
100
AcDbPoint
 10
39.68750000000002
 20
2.974046754706986
 30
0.0
  0
POINT
  5
124
330
119
100
AcDbEntity
  8
Defpoints
 62
     0
100
AcDbPoint
 10
39.68750000000002
 20
24.76249999999999
 30
0.0
  0
ENDBLK
  5
11B
330
119
100
AcDbEntity
  8
0
100
AcDbBlockEnd
  0
BLOCK
  5
133
330
132
100
AcDbEntity
  8
0
100
AcDbBlockBegin
  2
SW_DOWELSYMBOL_0
 70
     0
 10
0.0
 20
0.0
 30
0.0
  3
SW_DOWELSYMBOL_0
  1

  0
CIRCLE
  5
135
330
132
100
AcDbEntity
  8
해칭선
 62
     0
100
AcDbCircle
 10
0.0
 20
0.0
 30
0.0
 40
3.000000000000003
  0
HATCH
  5
136
330
132
100
AcDbEntity
  8
0
  6
Continuous
 62
     0
370
     0
100
AcDbHatch
 10
0.0
 20
0.0
 30
0.0
210
0.0
220
0.0
230
1.0
  2
SOLID
 70
     1
 71
     0
 91
        1
 92
        0
 93
        3
 72
     2
 10
0.0
 20
0.0
 40
3.000000000000003
 50
0.0
 51
90.0
 73
     1
 72
     1
 10
0.0
 20
3.000000000000003
 11
0.0
 21
0.0
 72
     1
 10
0.0
 20
0.0
 11
3.000000000000003
 21
0.0
 97
        0
 75
     0
 76
     1
 98
        1
 10
0.0
 20
0.0
  0
HATCH
  5
137
330
132
100
AcDbEntity
  8
0
  6
Continuous
 62
     0
370
     0
100
AcDbHatch
 10
0.0
 20
0.0
 30
0.0
210
0.0
220
0.0
230
1.0
  2
SOLID
 70
     1
 71
     0
 91
        1
 92
        0
 93
        3
 72
     2
 10
0.0
 20
0.0
 40
3.000000000000003
 50
180.0
 51
270.0000000000008
 73
     1
 72
     1
 10
0.0
 20
-3.000000000000003
 11
0.0
 21
0.0
 72
     1
 10
0.0
 20
0.0
 11
-3.000000000000003
 21
0.0
 97
        0
 75
     0
 76
     1
 98
        1
 10
0.0
 20
0.0
  0
ENDBLK
  5
134
330
132
100
AcDbEntity
  8
0
100
AcDbBlockEnd
  0
BLOCK
  5
198
330
197
100
AcDbEntity
  8
0
100
AcDbBlockBegin
  2
*D8
 70
     1
 10
0.0
 20
0.0
 30
0.0
  3
*D8
  1

  0
LINE
  5
19A
330
197
100
AcDbEntity
  8
치수문자_일반주서
 62
     0
370
    -2
100
AcDbLine
 10
16.129
 20
3.155101899082702
 30
0.0
 11
16.129
 21
16.26894362990562
 31
0.0
  0
LINE
  5
19B
330
197
100
AcDbEntity
  8
치수문자_일반주서
 62
     0
370
    -2
100
AcDbLine
 10
6.603999999999999
 20
2.633059590344415
 30
0.0
 11
6.603999999999999
 21
16.26894362990562
 31
0.0
  0
LINE
  5
19C
330
197
100
AcDbEntity
  8
치수문자_일반주서
 62
     0
370
    -2
100
AcDbLine
 10
16.129
 20
16.26894362990562
 30
0.0
 11
46.358
 21
16.26894362990562
 31
0.0
  0
LINE
  5
19D
330
197
100
AcDbEntity
  8
치수문자_일반주서
 62
     0
370
    -2
100
AcDbLine
 10
16.129
 20
16.26894362990562
 30
0.0
 11
6.603999999999999
 21
16.26894362990562
 31
0.0
  0
LINE
  5
19E
330
197
100
AcDbEntity
  8
치수문자_일반주서
 62
     0
370
    -2
100
AcDbLine
 10
19.431
 20
16.26894362990562
 30
0.0
 11
22.733
 21
16.26894362990562
 31
0.0
  0
LINE
  5
19F
330
197
100
AcDbEntity
  8
치수문자_일반주서
 62
     0
370
    -2
100
AcDbLine
 10
3.302
 20
16.26894362990562
 30
0.0
 11
0.0
 21
16.26894362990562
 31
0.0
  0
SOLID
  5
1A0
330
197
100
AcDbEntity
  8
치수문자_일반주서
 62
     0
100
AcDbTrace
 10
19.431
 20
16.81927696323896
 30
0.0
 11
19.431
 21
15.71861029657229
 31
0.0
 12
16.129
 22
16.26894362990562
 32
0.0
 13
16.129
 23
16.26894362990562
 33
0.0
  0
SOLID
  5
1A1
330
197
100
AcDbEntity
  8
치수문자_일반주서
 62
     0
100
AcDbTrace
 10
3.302
 20
15.71861029657229
 30
0.0
 11
3.302
 21
16.81927696323896
 31
0.0
 12
6.603999999999999
 22
16.26894362990562
 32
0.0
 13
6.603999999999999
 23
16.26894362990562
 33
0.0
  0
MTEXT
  5
1A2
330
197
100
AcDbEntity
  8
치수문자_일반주서
 62
     0
100
AcDbMText
 10
34.5455
 20
20.64394362990562
 30
0.0
 40
3.5
 41
0.0
 71
     2
 72
     1
  1
\A1;9.53 [3/8]
  7
SLDTEXTSTYLE0
 73
     1
 44
1.0
  0
POINT
  5
1A3
330
197
100
AcDbEntity
  8
Defpoints
 62
     0
100
AcDbPoint
 10
16.129
 20
3.092601899082702
 30
0.0
  0
POINT
  5
1A4
330
197
100
AcDbEntity
  8
Defpoints
 62
     0
100
AcDbPoint
 10
6.603999999999999
 20
2.570559590344415
 30
0.0
  0
POINT
  5
1A5
330
197
100
AcDbEntity
  8
Defpoints
 62
     0
100
AcDbPoint
 10
6.603999999999999
 20
16.26894362990562
 30
0.0
  0
ENDBLK
  5
199
330
197
100
AcDbEntity
  8
0
100
AcDbBlockEnd
  0
BLOCK
  5
1AA
330
1A9
100
AcDbEntity
  8
0
100
AcDbBlockBegin
  2
*D9
 70
     1
 10
0.0
 20
0.0
 30
0.0
  3
*D9
  1

  0
LINE
  5
1AC
330
1A9
100
AcDbEntity
  8
치수문자_일반주서
 62
     0
370
    -2
100
AcDbLine
 10
85.33277695767207
 20
-3.8001844562936
 30
0.0
 11
85.33277695767207
 21
9.31365727452932
 31
0.0
  0
LINE
  5
1AD
330
1A9
100
AcDbEntity
  8
치수문자_일반주서
 62
     0
370
    -2
100
AcDbLine
 10
75.80777695767206
 20
-4.322226765031887
 30
0.0
 11
75.80777695767206
 21
9.31365727452932
 31
0.0
  0
LINE
  5
1AE
330
1A9
100
AcDbEntity
  8
치수문자_일반주서
 62
     0
370
    -2
100
AcDbLine
 10
85.33277695767207
 20
9.31365727452932
 30
0.0
 11
115.5617769576721
 21
9.31365727452932
 31
0.0
  0
LINE
  5
1AF
330
1A9
100
AcDbEntity
  8
치수문자_일반주서
 62
     0
370
    -2
100
AcDbLine
 10
85.33277695767207
 20
9.31365727452932
 30
0.0
 11
75.80777695767206
 21
9.31365727452932
 31
0.0
  0
LINE
  5
1B0
330
1A9
100
AcDbEntity
  8
치수문자_일반주서
 62
     0
370
    -2
100
AcDbLine
 10
88.63477695767207
 20
9.31365727452932
 30
0.0
 11
91.93677695767207
 21
9.31365727452932
 31
0.0
  0
LINE
  5
1B1
330
1A9
100
AcDbEntity
  8
치수문자_일반주서
 62
     0
370
    -2
100
AcDbLine
 10
72.50577695767205
 20
9.31365727452932
 30
0.0
 11
69.20377695767206
 21
9.31365727452932
 31
0.0
  0
SOLID
  5
1B2
330
1A9
100
AcDbEntity
  8
치수문자_일반주서
 62
     0
100
AcDbTrace
 10
88.63477695767207
 20
9.863990607862652
 30
0.0
 11
88.63477695767207
 21
8.763323941195987
 31
0.0
 12
85.33277695767207
 22
9.31365727452932
 32
0.0
 13
85.33277695767207
 23
9.31365727452932
 33
0.0
  0
SOLID
  5
1B3
330
1A9
100
AcDbEntity
  8
치수문자_일반주서
 62
     0
100
AcDbTrace
 10
72.50577695767205
 20
8.763323941195987
 30
0.0
 11
72.50577695767205
 21
9.863990607862652
 31
0.0
 12
75.80777695767206
 22
9.31365727452932
 32
0.0
 13
75.80777695767206
 23
9.31365727452932
 33
0.0
  0
MTEXT
  5
1B4
330
1A9
100
AcDbEntity
  8
치수문자_일반주서
 62
     0
100
AcDbMText
 10
103.7492769576721
 20
13.68865727452932
 30
0.0
 40
3.5
 41
0.0
 71
     2
 72
     1
  1
\A1;9.53 [3/8]
  7
SLDTEXTSTYLE0
 73
     1
 44
1.0
  0
POINT
  5
1B5
330
1A9
100
AcDbEntity
  8
Defpoints
 62
     0
100
AcDbPoint
 10
85.33277695767207
 20
-3.8626844562936
 30
0.0
  0
POINT
  5
1B6
330
1A9
100
AcDbEntity
  8
Defpoints
 62
     0
100
AcDbPoint
 10
75.80777695767206
 20
-4.384726765031887
 30
0.0
  0
POINT
  5
1B7
330
1A9
100
AcDbEntity
  8
Defpoints
 62
     0
100
AcDbPoint
 10
75.80777695767206
 20
9.31365727452932
 30
0.0
  0
ENDBLK
  5
1AB
330
1A9
100
AcDbEntity
  8
0
100
AcDbBlockEnd
  0
ENDSEC
  0
SECTION
  2
ENTITIES
  0
LINE
  5
96
330
1F
100
AcDbEntity
  8
외형선
  6
Continuous
370
    15
100
AcDbLine
 10
19.32229051085749
 20
4.762499999999997
 30
0.0
 11
4.838700000000159
 21
4.762499999999996
 31
0.0
  0
LINE
  5
97
330
1F
100
AcDbEntity
  8
외형선
  6
Continuous
370
    15
100
AcDbLine
 10
-19.32229051085747
 20
-4.762500000000001
 30
0.0
 11
19.32229051085749
 21
-4.762499999999998
 31
0.0
  0
LINE
  5
98
330
1F
100
AcDbEntity
  8
외형선
  6
Continuous
370
    15
100
AcDbLine
 10
19.32229051085749
 20
-4.7625
 30
0.0
 11
25.98750000000002
 21
-2.976562500000001
 31
0.0
  0
LINE
  5
99
330
1F
100
AcDbEntity
  8
외형선
  6
Continuous
370
    15
100
AcDbLine
 10
25.98750000000002
 20
2.9765625
 30
0.0
 11
19.32229051085749
 21
4.762499999999998
 31
0.0
  0
LINE
  5
9C
330
1F
100
AcDbEntity
  8
외형선
  6
Continuous
370
    15
100
AcDbLine
 10
26.09756020742193
 20
2.9765625
 30
0.0
 11
25.98750000000002
 21
2.9765625
 31
0.0
  0
LINE
  5
9D
330
1F
100
AcDbEntity
  8
외형선
  6
Continuous
370
    15
100
AcDbLine
 10
25.98750000000002
 20
-2.976562500000001
 30
0.0
 11
26.09756020742193
 21
-2.976562500000001
 31
0.0
  0
SPLINE
  5
9E
330
1F
100
AcDbEntity
  8
외형선
  6
Continuous
370
    15
100
AcDbSpline
210
0.0
220
0.0
230
1.0
 70
     8
 71
     3
 72
     9
 73
     5
 74
     0
 42
0.000000001
 43
0.00000001
 40
0.0
 40
0.0
 40
0.0
 40
0.0
 40
0.4993099122651122
 40
1.0
 40
1.0
 40
1.0
 40
1.0
 10
26.51438386696897
 20
-2.476914293228762
 30
0.0
 10
26.59320105799607
 20
-2.469176016342429
 30
0.0
 10
26.75105330384785
 20
-2.453678072688097
 30
0.0
 10
26.90861194842386
 20
-2.439920530606876
 30
0.0
 10
26.98750000000002
 20
-2.433032265655212
 30
0.0
  0
SPLINE
  5
9F
330
1F
100
AcDbEntity
  8
0
  6
Continuous
 62
     1
370
    15
100
AcDbSpline
210
0.0
220
0.0
230
1.0
 70
     8
 71
     3
 72
    11
 73
     7
 74
     0
 42
0.000000001
 43
0.00000001
 40
0.0
 40
0.0
 40
0.0
 40
0.0
 40
0.3124902818016735
 40
0.4991595321688106
 40
0.6867762627735402
 40
1.0
 40
1.0
 40
1.0
 40
1.0
 10
31.97500907111473
 20
0.7628370548221783
 30
0.0
 10
31.88911617913153
 20
0.8035052046691608
 30
0.0
 10
31.75191429390243
 20
0.8684668877485547
 30
0.0
 10
31.56358980995648
 20
0.962373514506981
 30
0.0
 10
31.3748547304687
 20
1.058159526270614
 30
0.0
 10
31.23715010713861
 20
1.130443314270958
 30
0.0
 10
31.15103015573056
 20
1.175649322316586
 30
0.0
1001
PE_URL
1000

  0
SPLINE
  5
A0
330
1F
100
AcDbEntity
  8
0
  6
Continuous
 62
     1
370
    15
100
AcDbSpline
210
0.0
220
0.0
230
1.0
 70
     8
 71
     3
 72
    15
 73
    11
 74
     0
 42
0.000000001
 43
0.00000001
 40
0.0
 40
0.0
 40
0.0
 40
0.0
 40
0.1727518558969882
 40
0.295158742231897
 40
0.3717927519094213
 40
0.4396044839318436
 40
0.5075460001908738
 40
0.6541434539618706
 40
0.8182721098017106
 40
1.0
 40
1.0
 40
1.0
 40
1.0
 10
30.9922217831781
 20
2.365293799829154
 30
0.0
 10
30.85045720223665
 20
2.358320671448991
 30
0.0
 10
30.60824240699499
 20
2.346406589302532
 30
0.0
 10
30.30397919209405
 20
2.336415748994145
 30
0.0
 10
30.0873588535325
 20
2.330997991823999
 30
0.0
 10
29.91479073753745
 20
2.327803664006455
 30
0.0
 10
29.68479938163029
 20
2.324873989081062
 30
0.0
 10
29.37522687037144
 20
2.323953527953538
 30
0.0
 10
28.97201224409705
 20
2.32755784483619
 30
0.0
 10
28.68953698426887
 20
2.336222759855522
 30
0.0
 10
28.54111234523911
 20
2.3407756785244
 30
0.0
1001
PE_URL
1000

  0
SPLINE
  5
A1
330
1F
100
AcDbEntity
  8
0
  6
Continuous
 62
     1
370
    15
100
AcDbSpline
210
0.0
220
0.0
230
1.0
 70
     8
 71
     3
 72
    23
 73
    19
 74
     0
 42
0.000000001
 43
0.00000001
 40
0.0
 40
0.0
 40
0.0
 40
0.0
 40
0.0656767817646119
 40
0.1172607086295641
 40
0.1790655598967474
 40
0.2278173875875479
 40
0.2829849509306145
 40
0.3447656061131246
 40
0.4109860844349585
 40
0.4664912272447934
 40
0.5129749339335021
 40
0.5833464755347836
 40
0.6676733507684356
 40
0.7685879553243676
 40
0.8215585796773017
 40
0.8622768084018458
 40
0.9181994329900078
 40
1.0
 40
1.0
 40
1.0
 40
1.0
 10
38.58068796590116
 20
2.035825415131524
 30
0.0
 10
38.46643848045747
 20
2.026477851463099
 30
0.0
 10
38.26245504424547
 20
2.009788514527436
 30
0.0
 10
37.95165377972982
 20
1.990306912421056
 30
0.0
 10
37.67286887139056
 20
1.976569658777978
 30
0.0
 10
37.38697021425877
 20
1.966479180004906
 30
0.0
 10
37.09803453948265
 20
1.960093932019236
 30
0.0
 10
36.78031763559065
 20
1.95788038585469
 30
0.0
 10
36.46219031044234
 20
1.960926075261177
 30
0.0
 10
36.17067871326926
 20
1.968235815556213
 30
0.0
 10
35.87202558219585
 20
1.979591691830034
 30
0.0
 10
35.52352255459182
 20
1.99815194496832
 30
0.0
 10
35.08064430513318
 20
2.030188328354487
 30
0.0
 10
34.66790525489559
 20
2.069151045960353
 30
0.0
 10
34.33022093306158
 20
2.10732864837278
 30
0.0
 10
34.06843449103476
 20
2.139867295211408
 30
0.0
 10
33.75970879475732
 20
2.181080027594025
 30
0.0
 10
33.52215629491265
 20
2.217273443567856
 30
0.0
 10
33.38106219916564
 20
2.238770490756004
 30
0.0
1001
PE_URL
1000

  0
SPLINE
  5
A2
330
1F
100
AcDbEntity
  8
0
  6
Continuous
 62
     1
370
    15
100
AcDbSpline
210
0.0
220
0.0
230
1.0
 70
     8
 71
     3
 72
    14
 73
    10
 74
     0
 42
0.000000001
 43
0.00000001
 40
0.0
 40
0.0
 40
0.0
 40
0.0
 40
0.1933984905797524
 40
0.3243113456340782
 40
0.4214319542422396
 40
0.549126905563032
 40
0.694034675560575
 40
0.9380281995718874
 40
1.0
 40
1.0
 40
1.0
 40
1.0
 10
33.38106219916564
 20
-2.238770490756006
 30
0.0
 10
33.52429985482873
 20
-2.216956732421511
 30
0.0
 10
33.76449612892741
 20
-2.18037708126917
 30
0.0
 10
34.07772324904132
 20
-2.138654489603772
 30
0.0
 10
34.34498414955498
 20
-2.105560903159322
 30
0.0
 10
34.62040744808406
 20
-2.074593321508625
 30
0.0
 10
35.00482617727997
 20
-2.037283810060393
 30
0.0
 10
35.34035001495617
 20
-2.009366867736506
 30
0.0
 10
35.56795810919458
 20
-1.997353972605909
 30
0.0
 10
35.61405903065622
 20
-1.994920818649784
 30
0.0
1001
PE_URL
1000

  0
SPLINE
  5
A3
330
1F
100
AcDbEntity
  8
0
  6
Continuous
 62
     1
370
    15
100
AcDbSpline
210
0.0
220
0.0
230
1.0
 70
     8
 71
     3
 72
    18
 73
    14
 74
     0
 42
0.000000001
 43
0.00000001
 40
0.0
 40
0.0
 40
0.0
 40
0.0
 40
0.1193025609634467
 40
0.1929420023785292
 40
0.2428085307447736
 40
0.2979285439959103
 40
0.4988002030309373
 40
0.6251489255629535
 40
0.7337038564058843
 40
0.7744958166668191
 40
0.821358764498103
 40
0.89580663207653
 40
1.0
 40
1.0
 40
1.0
 40
1.0
 10
26.98750000000001
 20
-2.433032265655213
 30
0.0
 10
27.14742645253272
 20
-2.420069275221115
 30
0.0
 10
27.40606742164327
 20
-2.399104885932483
 30
0.0
 10
27.7307564598652
 20
-2.378062840291185
 30
0.0
 10
27.96898817981006
 20
-2.364539922411781
 30
0.0
 10
28.37717156813556
 20
-2.344391835415327
 30
0.0
 10
28.88671315572142
 20
-2.328121562766751
 30
0.0
 10
29.46941901257122
 20
-2.323218807692137
 30
0.0
 10
29.83686088576603
 20
-2.326297811307138
 30
0.0
 10
30.09706787598693
 20
-2.331214999216662
 30
0.0
 10
30.31197447739184
 20
-2.336656822427221
 30
0.0
 10
30.6132847002246
 20
-2.346632113322024
 30
0.0
 10
30.85262524716075
 20
-2.358419025863165
 30
0.0
 10
30.99222178317809
 20
-2.365293799829155
 30
0.0
1001
PE_URL
1000

  0
LINE
  5
A4
330
1F
100
AcDbEntity
  8
외형선
  6
Continuous
370
    15
100
AcDbLine
 10
19.32229051085749
 20
4.762499999999998
 30
0.0
 11
19.32229051085749
 21
-4.762500000000004
 31
0.0
  0
LINE
  5
A6
330
1F
100
AcDbEntity
  8
외형선
  6
Continuous
370
    15
100
AcDbLine
 10
25.98750000000002
 20
2.9765625
 30
0.0
 11
25.98750000000002
 21
-2.976562500000004
 31
0.0
  0
LINE
  5
A8
330
1F
100
AcDbEntity
  8
외형선
  6
Continuous
370
    15
100
AcDbLine
 10
26.98750000000001
 20
2.788648236901254
 30
0.0
 11
26.98750000000002
 21
2.39272342523925
 31
0.0
  0
SPLINE
  5
A9
330
1F
100
AcDbEntity
  8
외형선
  6
Continuous
370
    15
100
AcDbSpline
210
0.0
220
0.0
230
1.0
 70
     8
 71
     3
 72
     8
 73
     4
 74
     0
 42
0.000000001
 43
0.00000001
 40
0.0
 40
0.0
 40
0.0
 40
0.0
 40
1.0
 40
1.0
 40
1.0
 40
1.0
 10
26.98749999999999
 20
2.39272342523926
 30
0.0
 10
26.68965899146818
 20
2.494745555995273
 30
0.0
 10
26.39269035381515
 20
2.584709150242848
 30
0.0
 10
26.09756020742193
 20
2.661297450296242
 30
0.0
  0
LINE
  5
AA
330
1F
100
AcDbEntity
  8
외형선
  6
Continuous
370
    15
100
AcDbLine
 10
26.09756020742193
 20
-2.976562500000001
 30
0.0
 11
26.09756020742193
 21
2.661649246605092
 31
0.0
  0
SPLINE
  5
AB
330
1F
100
AcDbEntity
  8
외형선
  6
Continuous
370
    15
100
AcDbSpline
210
0.0
220
0.0
230
1.0
 70
     8
 71
     3
 72
     8
 73
     4
 74
     0
 42
0.000000001
 43
0.00000001
 40
0.0
 40
0.0
 40
0.0
 40
0.0
 40
1.0
 40
1.0
 40
1.0
 40
1.0
 10
26.98749999999999
 20
-2.788648236901263
 30
0.0
 10
26.68968015532671
 20
-2.848619907916317
 30
0.0
 10
26.3927316825709
 20
-2.894599715660388
 30
0.0
 10
26.09762312105028
 20
-2.925985473659724
 30
0.0
  0
LINE
  5
AC
330
1F
100
AcDbEntity
  8
외형선
  6
Continuous
370
    15
100
AcDbLine
 10
26.09756020742193
 20
2.963789663348126
 30
0.0
 11
26.09756020742193
 21
2.9765625
 31
0.0
  0
SPLINE
  5
AD
330
1F
100
AcDbEntity
  8
외형선
  6
Continuous
370
    15
100
AcDbSpline
210
0.0
220
0.0
230
1.0
 70
     8
 71
     3
 72
    10
 73
     6
 74
     0
 42
0.000000001
 43
0.00000001
 40
0.0
 40
0.0
 40
0.0
 40
0.0
 40
0.400009504839829
 40
0.7716858888610918
 40
1.0
 40
1.0
 40
1.0
 40
1.0
 10
26.12516925880055
 20
2.923012875267189
 30
0.0
 10
26.12055522039321
 20
2.929853987926674
 30
0.0
 10
26.11165396108183
 20
2.943051649581106
 30
0.0
 10
26.10113395433406
 20
2.955800918558499
 30
0.0
 10
26.09854527601079
 20
2.961587643521254
 30
0.0
 10
26.09756020742192
 20
2.963789663348126
 30
0.0
  0
SPLINE
  5
AE
330
1F
100
AcDbEntity
  8
외형선
  6
Continuous
370
    15
100
AcDbSpline
210
0.0
220
0.0
230
1.0
 70
     8
 71
     3
 72
     8
 73
     4
 74
     0
 42
0.000000001
 43
0.00000001
 40
0.0
 40
0.0
 40
0.0
 40
0.0
 40
1.0
 40
1.0
 40
1.0
 40
1.0
 10
26.98749999999999
 20
2.788648236901262
 30
0.0
 10
26.69895084839623
 20
2.846753078137203
 30
0.0
 10
26.41082501153551
 20
2.891740830766817
 30
0.0
 10
26.12516925880055
 20
2.92301287526719
 30
0.0
  0
SPLINE
  5
AF
330
1F
100
AcDbEntity
  8
외형선
  6
Continuous
370
    15
100
AcDbSpline
210
0.0
220
0.0
230
1.0
 70
    24
 71
     3
 72
    14
 73
    10
 74
     0
 42
0.000000001
 43
0.00000001
 40
0.0
 40
0.0
 40
0.0
 40
0.0
 40
0.25
 40
0.25
 40
0.5
 40
0.5
 40
0.75
 40
0.75
 40
1.0
 40
1.0
 40
1.0
 40
1.0
 10
26.98750000000001
 20
1.622545749684458
 30
0.0
 10
26.98750000000001
 20
1.417201588255182
 30
0.0
 10
26.98750000000001
 20
1.184988505503408
 30
0.0
 10
26.98750000000001
 20
0.6821730255303039
 30
0.0
 10
26.98750000000001
 20
0.4117404162516143
 30
0.0
 10
26.98750000000001
 20
-0.1421445170313227
 30
0.0
 10
26.98750000000001
 20
-0.4253017079861729
 30
0.0
 10
26.98750000000001
 20
-0.9766019555400164
 30
0.0
 10
26.98750000000001
 20
-1.244507124724184
 30
0.0
 10
26.98750000000001
 20
-1.49391503961685
 30
0.0
  0
SPLINE
  5
B0
330
1F
100
AcDbEntity
  8
외형선
  6
Continuous
370
    15
100
AcDbSpline
210
0.0
220
0.0
230
1.0
 70
     8
 71
     3
 72
     8
 73
     4
 74
     0
 42
0.000000001
 43
0.00000001
 40
0.0
 40
0.0
 40
0.0
 40
0.0
 40
1.0
 40
1.0
 40
1.0
 40
1.0
 10
26.98749999999997
 20
-1.493915039616834
 30
0.0
 10
26.68966672572205
 20
-1.387066850702303
 30
0.0
 10
26.39270545726882
 20
-1.27286374960214
 30
0.0
 10
26.09758319899007
 20
-1.153182261735537
 30
0.0
  0
SPLINE
  5
B1
330
1F
100
AcDbEntity
  8
외형선
  6
Continuous
370
    15
100
AcDbSpline
210
0.0
220
0.0
230
1.0
 70
     8
 71
     3
 72
     8
 73
     4
 74
     0
 42
0.000000001
 43
0.00000001
 40
0.0
 40
0.0
 40
0.0
 40
0.0
 40
1.0
 40
1.0
 40
1.0
 40
1.0
 10
26.98749999999995
 20
1.622545749684473
 30
0.0
 10
26.68966409506036
 20
1.697866745915019
 30
0.0
 10
26.39270032011339
 20
1.765004693485277
 30
0.0
 10
26.0975753788405
 20
1.822969537632116
 30
0.0
  0
LINE
  5
B2
330
1F
100
AcDbEntity
  8
외형선
  6
Continuous
370
    15
100
AcDbLine
 10
26.5177115704915
 20
-2.467508284565921
 30
0.0
 11
26.09762312105028
 21
-2.510557892158143
 31
0.0
  0
SPLINE
  5
B3
330
1F
100
AcDbEntity
  8
외형선
  6
Continuous
370
    15
100
AcDbSpline
210
0.0
220
0.0
230
1.0
 70
    24
 71
     3
 72
    12
 73
     8
 74
     0
 42
0.000000001
 43
0.00000001
 40
0.0
 40
0.0
 40
0.0
 40
0.0
 40
0.2951883342101447
 40
0.5105701078247119
 40
0.7321979674650991
 40
0.9261504869604227
 40
1.0
 40
1.0
 40
1.0
 40
1.0
 10
26.98750000000002
 20
-1.493915039616851
 30
0.0
 10
26.98750000000002
 20
-1.656853730690682
 30
0.0
 10
26.98750000000002
 20
-1.938679316017367
 30
0.0
 10
26.98750000000002
 20
-2.212953603379652
 30
0.0
 10
26.98750000000002
 20
-2.365798210361761
 30
0.0
 10
26.98750000000002
 20
-2.433604021914416
 30
0.0
 10
26.98750000000002
 20
-2.426134111668327
 30
0.0
 10
26.98750000000002
 20
-2.424074197376783
 30
0.0
  0
SPLINE
  5
B4
330
1F
100
AcDbEntity
  8
외형선
  6
Continuous
370
    15
100
AcDbSpline
210
0.0
220
0.0
230
1.0
 70
    24
 71
     3
 72
    10
 73
     6
 74
     0
 42
0.000000001
 43
0.00000001
 40
0.0
 40
0.0
 40
0.0
 40
0.0
 40
0.5
 40
0.5
 40
1.0
 40
1.0
 40
1.0
 40
1.0
 10
26.98750000000002
 20
2.39272342523925
 30
0.0
 10
26.98750000000002
 20
2.300568346221423
 30
0.0
 10
26.98750000000002
 20
2.181358765228624
 30
0.0
 10
26.98750000000002
 20
1.913983908920458
 30
0.0
 10
26.98750000000002
 20
1.766648359073378
 30
0.0
 10
26.98750000000002
 20
1.622545749684458
 30
0.0
  0
SPLINE
  5
B5
330
1F
100
AcDbEntity
  8
외형선
  6
Continuous
370
    15
100
AcDbSpline
210
0.0
220
0.0
230
1.0
 70
    24
 71
     3
 72
     8
 73
     4
 74
     0
 42
0.000000001
 43
0.00000001
 40
0.0
 40
0.0
 40
0.0
 40
0.0
 40
1.0
 40
1.0
 40
1.0
 40
1.0
 10
26.98750000000023
 20
-2.419365548033598
 30
0.0
 10
26.98750000000023
 20
-2.549790905059002
 30
0.0
 10
26.98750000000023
 20
-2.673708795636478
 30
0.0
 10
26.98750000000023
 20
-2.788648236892686
 30
0.0
  0
SPLINE
  5
B6
330
1F
100
AcDbEntity
  8
0
  6
Continuous
 62
     1
370
    15
100
AcDbSpline
210
0.0
220
0.0
230
1.0
 70
     8
 71
     3
 72
    38
 73
    34
 74
     0
 42
0.000000001
 43
0.00000001
 40
0.0
 40
0.0
 40
0.0
 40
0.0
 40
0.0625
 40
0.0625
 40
0.125
 40
0.125
 40
0.1875
 40
0.1875
 40
0.25
 40
0.25
 40
0.3125
 40
0.3125
 40
0.375
 40
0.375
 40
0.4375
 40
0.4375
 40
0.5
 40
0.5
 40
0.5625
 40
0.5625
 40
0.625
 40
0.625
 40
0.6875
 40
0.6875
 40
0.75
 40
0.75
 40
0.8125
 40
0.8125
 40
0.875
 40
0.875
 40
0.9375
 40
0.9375
 40
1.0
 40
1.0
 40
1.0
 40
1.0
 10
39.68750000000002
 20
-2.824581806073077
 30
0.0
 10
39.42516975551058
 20
-2.776529498506682
 30
0.0
 10
39.15884765065466
 20
-2.717072334192503
 30
0.0
 10
38.62759916360821
 20
-2.577180199258113
 30
0.0
 10
38.36532360612473
 20
-2.497069903724149
 30
0.0
 10
37.83672614289018
 20
-2.317434112016733
 30
0.0
 10
37.56982746416104
 20
-2.217763659076876
 30
0.0
 10
37.04027668616067
 20
-2.002213508817148
 30
0.0
 10
36.77858668294756
 20
-1.886546822510242
 30
0.0
 10
36.24772181585693
 20
-1.640143437137143
 30
0.0
 10
35.9811089427892
 20
-1.509740724088108
 30
0.0
 10
35.45493554318729
 20
-1.239253590916234
 30
0.0
 10
35.19036390007372
 20
-1.098332990839626
 30
0.0
 10
34.6589252557051
 20
-0.8084934170738884
 30
0.0
 10
34.39566974806218
 20
-0.6602492767936401
 30
0.0
 10
33.86821585292657
 20
-0.3595673574731855
 30
0.0
 10
33.60141544808349
 20
-0.206623650677631
 30
0.0
 10
33.07110276046246
 20
0.0990696606185959
 30
0.0
 10
32.80960320838305
 20
0.2514261805707096
 30
0.0
 10
32.2793149582609
 20
0.5543510955370893
 30
0.0
 10
32.01250923840524
 20
0.7045217678299672
 30
0.0
 10
31.48501026415159
 20
0.9969919813413977
 30
0.0
 10
31.22179745569914
 20
1.139777666901244
 30
0.0
 10
30.69036234759891
 20
1.416102950454863
 30
0.0
 10
30.42573367648169
 20
1.548997227525565
 30
0.0
 10
29.89961222444793
 20
1.801068140963346
 30
0.0
 10
29.63300824613049
 20
1.921035097040912
 30
0.0
 10
29.10212597641209
 20
2.144459003876421
 30
0.0
 10
28.84042154219817
 20
2.247627735146584
 30
0.0
 10
28.31090220695825
 20
2.436243898535206
 30
0.0
 10
28.04400179951028
 20
2.521491934776776
 30
0.0
 10
27.51536617987201
 20
2.670882945635206
 30
0.0
 10
27.25311894126472
 20
2.735160828168176
 30
0.0
 10
26.98749999999613
 20
2.788648236902039
 30
0.0
1001
PE_URL
1000

  0
SPLINE
  5
B7
330
1F
100
AcDbEntity
  8
0
  6
Continuous
 62
     1
370
    15
100
AcDbSpline
210
0.0
220
0.0
230
1.0
 70
     8
 71
     3
 72
    14
 73
    10
 74
     0
 42
0.000000001
 43
0.00000001
 40
0.0
 40
0.0
 40
0.0
 40
0.0
 40
0.1466123022628786
 40
0.2930874079198907
 40
0.439490090306886
 40
0.5858857366960654
 40
0.7323397941165836
 40
0.8789172141140411
 40
1.0
 40
1.0
 40
1.0
 40
1.0
 10
39.68750000000002
 20
-2.348425255658518
 30
0.0
 10
39.30962018016446
 20
-2.268534604942467
 30
0.0
 10
38.55421415221561
 20
-2.108828063444896
 30
0.0
 10
37.42168754157128
 20
-1.737512636004735
 30
0.0
 10
36.28978695265211
 20
-1.290934707970642
 30
0.0
 10
35.1579503482827
 20
-0.7798981244940264
 30
0.0
 10
34.02560533246507
 20
-0.2328522384665413
 30
0.0
 10
32.95831830788816
 20
0.2965324564851586
 30
0.0
 10
32.26844506352367
 20
0.6220933961835088
 30
0.0
 10
31.95636365396135
 20
0.7693690265829597
 30
0.0
1001
PE_URL
1000

  0
LINE
  5
B8
330
1F
100
AcDbEntity
  8
0
  6
Continuous
 62
     1
370
    15
100
AcDbLine
 10
39.68749999999995
 20
-2.824581806073078
 30
0.0
 11
39.68750000000002
 21
-2.348425255658518
 31
0.0
1001
PE_URL
1000

  0
SPLINE
  5
B9
330
1F
100
AcDbEntity
  8
0
  6
Continuous
 62
     1
370
    15
100
AcDbSpline
210
0.0
220
0.0
230
1.0
 70
     8
 71
     3
 72
    38
 73
    34
 74
     0
 42
0.000000001
 43
0.00000001
 40
0.0
 40
0.0
 40
0.0
 40
0.0
 40
0.0624999999999999
 40
0.0624999999999999
 40
0.1249999999999999
 40
0.1249999999999999
 40
0.1874999999999998
 40
0.1874999999999998
 40
0.2499999999999998
 40
0.2499999999999998
 40
0.3124999999999997
 40
0.3124999999999997
 40
0.3749999999999997
 40
0.3749999999999997
 40
0.4374999999999996
 40
0.4374999999999996
 40
0.4999999999999996
 40
0.4999999999999996
 40
0.5624999999999996
 40
0.5624999999999996
 40
0.6249999999999997
 40
0.6249999999999997
 40
0.6874999999999997
 40
0.6874999999999997
 40
0.7499999999999998
 40
0.7499999999999998
 40
0.8124999999999998
 40
0.8124999999999998
 40
0.8749999999999999
 40
0.8749999999999999
 40
0.9374999999999999
 40
0.9374999999999999
 40
1.0
 40
1.0
 40
1.0
 40
1.0
 10
39.68750000000002
 20
-2.974046754706986
 30
0.0
 10
39.42516975551067
 20
-2.967785271022759
 30
0.0
 10
39.15884765065482
 20
-2.949739349037941
 30
0.0
 10
38.62759916360854
 20
-2.890427162426115
 30
0.0
 10
38.36532360612513
 20
-2.84935846385737
 30
0.0
 10
37.83672614289075
 20
-2.744925791265847
 30
0.0
 10
37.56982746416169
 20
-2.68143082182545
 30
0.0
 10
37.04027668616147
 20
-2.53409273949633
 30
0.0
 10
36.77858668294844
 20
-2.450439808501164
 30
0.0
 10
36.24772181585799
 20
-2.263660786989224
 30
0.0
 10
35.98110894279032
 20
-2.160748886642643
 30
0.0
 10
35.45493554318855
 20
-1.939672904957115
 30
0.0
 10
35.19036390007509
 20
-1.820838807303615
 30
0.0
 10
34.65892525570663
 20
-1.569338296068609
 30
0.0
 10
34.39566974806376
 20
-1.43726685415866
 30
0.0
 10
33.86821585292834
 20
-1.162719031073828
 30
0.0
 10
33.60141544808534
 20
-1.01975954704298
 30
0.0
 10
33.07110276046446
 20
-0.7274815298423991
 30
0.0
 10
32.80960320838513
 20
-0.5785715545626022
 30
0.0
 10
32.27931495826316
 20
-0.2759995483887031
 30
0.0
 10
32.01250923840757
 20
-0.1227017537657783
 30
0.0
 10
31.48501026415405
 20
0.182484958208438
 30
0.0
 10
31.22179745570171
 20
0.3348591121389382
 30
0.0
 10
30.69036234760165
 20
0.6367156288328866
 30
0.0
 10
30.42573367648446
 20
0.7855036562239766
 30
0.0
 10
29.89961222445091
 20
1.075163149248253
 30
0.0
 10
29.63300824613356
 20
1.21695671196836
 30
0.0
 10
29.1021259764153
 20
1.489377171898417
 30
0.0
 10
28.84042154220144
 20
1.619609791175443
 30
0.0
 10
28.31090220696172
 20
1.867293773701183
 30
0.0
 10
28.04400179951383
 20
1.984534083891631
 30
0.0
 10
27.51536617987568
 20
2.201686738203824
 30
0.0
 10
27.2531189412685
 20
2.301738605885633
 30
0.0
 10
26.98749999999999
 20
2.392723425239259
 30
0.0
1001
PE_URL
1000

  0
SPLINE
  5
BA
330
1F
100
AcDbEntity
  8
0
  6
Continuous
 62
     1
370
    15
100
AcDbSpline
210
0.0
220
0.0
230
1.0
 70
     8
 71
     3
 72
    12
 73
     8
 74
     0
 42
0.000000001
 43
0.00000001
 40
0.0
 40
0.0
 40
0.0
 40
0.0
 40
0.1008567980040505
 40
0.3142975694027713
 40
0.5276072651004825
 40
0.7638024748564711
 40
1.0
 40
1.0
 40
1.0
 40
1.0
 10
32.2939578247536
 20
-0.2822814125447681
 30
0.0
 10
32.1155412424617
 20
-0.2112976835318367
 30
0.0
 10
31.55954601690202
 20
0.0099071726347585
 30
0.0
 10
30.62632794083014
 20
0.3904388053752221
 30
0.0
 10
29.45383311320361
 20
0.8446988260156669
 30
0.0
 10
28.24088263975702
 20
1.276906755153122
 30
0.0
 10
27.40529557843554
 20
1.507332375037677
 30
0.0
 10
26.98750000000002
 20
1.622545749684458
 30
0.0
1001
PE_URL
1000

  0
SPLINE
  5
BB
330
1F
100
AcDbEntity
  8
외형선
  6
Continuous
370
    15
100
AcDbSpline
210
0.0
220
0.0
230
1.0
 70
    24
 71
     3
 72
    10
 73
     6
 74
     0
 42
0.000000001
 43
0.00000001
 40
0.0
 40
0.0
 40
0.0
 40
0.0
 40
0.4999999999999997
 40
0.4999999999999997
 40
1.0
 40
1.0
 40
1.0
 40
1.0
 10
26.98750000000002
 20
2.392723425239249
 30
0.0
 10
26.98750000000002
 20
2.300568346221422
 30
0.0
 10
26.98750000000002
 20
2.181358765228623
 30
0.0
 10
26.98750000000002
 20
1.913983908920458
 30
0.0
 10
26.98750000000002
 20
1.766648359073377
 30
0.0
 10
26.98750000000002
 20
1.622545749684458
 30
0.0
  0
LINE
  5
BC
330
1F
100
AcDbEntity
  8
0
  6
Continuous
 62
     1
370
    15
100
AcDbLine
 10
39.68750000000002
 20
-2.974046754706988
 30
0.0
 11
39.68750000000001
 21
-2.824581806073073
 31
0.0
1001
PE_URL
1000

  0
SPLINE
  5
BD
330
1F
100
AcDbEntity
  8
0
  6
Continuous
 62
     1
370
    15
100
AcDbSpline
210
0.0
220
0.0
230
1.0
 70
     8
 71
     3
 72
     8
 73
     4
 74
     0
 42
0.000000001
 43
0.00000001
 40
0.0
 40
0.0
 40
0.0
 40
0.0
 40
1.0
 40
1.0
 40
1.0
 40
1.0
 10
37.84524193720738
 20
0.8331182780104952
 30
0.0
 10
37.73964292156563
 20
0.958248190307778
 30
0.0
 10
37.64541322656461
 20
1.078662238747311
 30
0.0
 10
37.56522935613662
 20
1.193250240182838
 30
0.0
1001
PE_URL
1000

  0
LINE
  5
BE
330
1F
100
AcDbEntity
  8
0
  6
Continuous
 62
     1
370
    15
100
AcDbLine
 10
37.6028539642594
 20
1.224821034981845
 30
0.0
 11
39.68750000000002
 21
0.0000000000000012
 31
0.0
1001
PE_URL
1000

  0
LINE
  5
BF
330
1F
100
AcDbEntity
  8
0
  6
Continuous
 62
     1
370
    15
100
AcDbLine
 10
39.68750000000002
 20
0.0000000000000012
 30
0.0
 11
39.68750000000002
 21
-0.795465331541364
 31
0.0
1001
PE_URL
1000

  0
SPLINE
  5
C0
330
1F
100
AcDbEntity
  8
0
  6
Continuous
 62
     1
370
    15
100
AcDbSpline
210
0.0
220
0.0
230
1.0
 70
     8
 71
     3
 72
    10
 73
     6
 74
     0
 42
0.000000001
 43
0.00000001
 40
0.0
 40
0.0
 40
0.0
 40
0.0
 40
0.5
 40
0.5
 40
1.0
 40
1.0
 40
1.0
 40
1.0
 10
39.68750000000002
 20
-0.7954653315413637
 30
0.0
 10
39.36859211162221
 20
-0.5447485852177616
 30
0.0
 10
39.05501432591609
 20
-0.2837485129518211
 30
0.0
 10
38.43878483522498
 20
0.2593312347787998
 30
0.0
 10
38.13326430232468
 20
0.5442727749849406
 30
0.0
 10
37.84524193720737
 20
0.8331182780104983
 30
0.0
1001
PE_URL
1000

  0
SPLINE
  5
C1
330
1F
100
AcDbEntity
  8
0
  6
Continuous
 62
     1
370
    15
100
AcDbSpline
210
0.0
220
0.0
230
1.0
 70
     8
 71
     3
 72
    14
 73
    10
 74
     0
 42
0.000000001
 43
0.00000001
 40
0.0
 40
0.0
 40
0.0
 40
0.0
 40
0.1135694061716363
 40
0.2269134711794779
 40
0.3919973873900214
 40
0.5571480868955452
 40
0.7224398324910652
 40
0.8878041305250158
 40
1.0
 40
1.0
 40
1.0
 40
1.0
 10
37.84524193693944
 20
0.8331182781261685
 30
0.0
 10
37.58568290717264
 20
0.9434285346527647
 30
0.0
 10
37.06707985723375
 20
1.163830173253566
 30
0.0
 10
36.17160756554293
 20
1.509127179978323
 30
0.0
 10
35.15791113665234
 20
1.848041855305337
 30
0.0
 10
34.02558434807775
 20
2.138269331265213
 30
0.0
 10
32.89243563164031
 20
2.321525818734542
 30
0.0
 10
31.88019837257556
 20
2.399899766054462
 30
0.0
 10
31.24591395183104
 20
2.366315298174614
 30
0.0
 10
30.989522363951
 20
2.352739724242476
 30
0.0
1001
PE_URL
1000

  0
SPLINE
  5
C2
330
1F
100
AcDbEntity
  8
0
  6
Continuous
 62
     1
370
    15
100
AcDbSpline
210
0.0
220
0.0
230
1.0
 70
    24
 71
     3
 72
    10
 73
     6
 74
     0
 42
0.000000001
 43
0.00000001
 40
0.0
 40
0.0
 40
0.0
 40
0.0
 40
0.5
 40
0.5
 40
1.0
 40
1.0
 40
1.0
 40
1.0
 10
39.68750000000002
 20
-2.348425255658518
 30
0.0
 10
39.68750000000001
 20
-2.168400150081638
 30
0.0
 10
39.68750000000002
 20
-1.940931526315347
 30
0.0
 10
39.68750000000002
 20
-1.412088867471946
 30
0.0
 10
39.68750000000002
 20
-1.111172935957414
 30
0.0
 10
39.68750000000002
 20
-0.7954653315414594
 30
0.0
1001
PE_URL
1000

  0
SPLINE
  5
C3
330
1F
100
AcDbEntity
  8
0
  6
Continuous
 62
     1
370
    15
100
AcDbSpline
210
0.0
220
0.0
230
1.0
 70
    24
 71
     3
 72
     8
 73
     4
 74
     0
 42
0.000000001
 43
0.00000001
 40
0.0
 40
0.0
 40
0.0
 40
0.0
 40
1.0
 40
1.0
 40
1.0
 40
1.0
 10
37.87592143434583
 20
1.453951848417882
 30
0.0
 10
37.77778714597726
 20
1.371607403241971
 30
0.0
 10
37.67360854251189
 20
1.284191175497553
 30
0.0
 10
37.56522935613667
 20
1.193250240182811
 30
0.0
1001
PE_URL
1000

  0
LINE
  5
C4
330
1F
100
AcDbEntity
  8
0
  6
Continuous
 62
     1
370
    15
100
AcDbLine
 10
39.68750000000002
 20
2.083593749999999
 30
0.0
 11
38.58037667055925
 21
2.034660913065553
 31
0.0
1001
PE_URL
1000

  0
SPLINE
  5
C5
330
1F
100
AcDbEntity
  8
0
  6
Continuous
 62
     1
370
    15
100
AcDbSpline
210
0.0
220
0.0
230
1.0
 70
     8
 71
     3
 72
     8
 73
     4
 74
     0
 42
0.000000001
 43
0.00000001
 40
0.0
 40
0.0
 40
0.0
 40
0.0
 40
1.0
 40
1.0
 40
1.0
 40
1.0
 10
39.68750000000002
 20
2.08359375
 30
0.0
 10
39.07528709205737
 20
1.917440724658682
 30
0.0
 10
38.46870220040208
 20
1.713365409386188
 30
0.0
 10
37.87592143435751
 20
1.453951848423
 30
0.0
1001
PE_URL
1000

  0
SPLINE
  5
C6
330
1F
100
AcDbEntity
  8
0
  6
Continuous
 62
     1
370
    15
100
AcDbSpline
210
0.0
220
0.0
230
1.0
 70
     8
 71
     3
 72
    13
 73
     9
 74
     0
 42
0.000000001
 43
0.00000001
 40
0.0
 40
0.0
 40
0.0
 40
0.0
 40
0.0774143864686523
 40
0.2545454578632337
 40
0.4315029780314015
 40
0.6083546598352705
 40
0.8041763950937864
 40
1.0
 40
1.0
 40
1.0
 40
1.0
 10
33.38809984835548
 20
-2.224592047199788
 30
0.0
 10
33.22292892380521
 20
-2.253708548707068
 30
0.0
 10
32.67983208440362
 20
-2.349446221581962
 30
0.0
 10
31.75905003624223
 20
-2.395181205322035
 30
0.0
 10
30.6263222484317
 20
-2.360096937136827
 30
0.0
 10
29.45385585980591
 20
-2.19828990020679
 30
0.0
 10
28.24088336878556
 20
-1.919291189923572
 30
0.0
 10
27.40529578591248
 20
-1.635707540978996
 30
0.0
 10
26.98750000000002
 20
-1.493915039616851
 30
0.0
1001
PE_URL
1000

  0
SPLINE
  5
C7
330
1F
100
AcDbEntity
  8
외형선
  6
Continuous
370
    15
100
AcDbSpline
210
0.0
220
0.0
230
1.0
 70
    24
 71
     3
 72
    14
 73
    10
 74
     0
 42
0.000000001
 43
0.00000001
 40
0.0
 40
0.0
 40
0.0
 40
0.0
 40
0.25
 40
0.25
 40
0.5
 40
0.5
 40
0.75
 40
0.75
 40
1.0
 40
1.0
 40
1.0
 40
1.0
 10
26.98750000000001
 20
1.622545749684458
 30
0.0
 10
26.98750000000001
 20
1.417201588255182
 30
0.0
 10
26.98750000000001
 20
1.184988505503408
 30
0.0
 10
26.98750000000001
 20
0.6821730255303039
 30
0.0
 10
26.98750000000001
 20
0.4117404162516143
 30
0.0
 10
26.98750000000001
 20
-0.1421445170313227
 30
0.0
 10
26.98750000000001
 20
-0.4253017079861729
 30
0.0
 10
26.98750000000001
 20
-0.9766019555400164
 30
0.0
 10
26.98750000000001
 20
-1.244507124724184
 30
0.0
 10
26.98750000000001
 20
-1.49391503961685
 30
0.0
  0
SPLINE
  5
C8
330
1F
100
AcDbEntity
  8
외형선
  6
Continuous
370
    15
100
AcDbSpline
210
0.0
220
0.0
230
1.0
 70
    24
 71
     3
 72
    12
 73
     8
 74
     0
 42
0.000000001
 43
0.00000001
 40
0.0
 40
0.0
 40
0.0
 40
0.0
 40
0.2955016248382243
 40
0.5111119884182902
 40
0.7329750671486617
 40
0.9271334332158456
 40
1.0
 40
1.0
 40
1.0
 40
1.0
 10
26.98750000000002
 20
-1.493915039616851
 30
0.0
 10
26.98750000000002
 20
-1.656852611358526
 30
0.0
 10
26.98750000000002
 20
-1.938676260641427
 30
0.0
 10
26.98750000000002
 20
-2.212962178304923
 30
0.0
 10
26.98750000000002
 20
-2.365766428193724
 30
0.0
 10
26.98750000000002
 20
-2.433532759083929
 30
0.0
 10
26.98750000000002
 20
-2.426133412163357
 30
0.0
 10
26.98750000000002
 20
-2.424114256121299
 30
0.0
  0
LINE
  5
C9
330
1F
100
AcDbEntity
  8
0
  6
Continuous
 62
     1
370
    15
100
AcDbLine
 10
39.68750000000002
 20
0.0000000000000012
 30
0.0
 11
39.68750000000002
 21
2.08359375
 31
0.0
1001
PE_URL
1000

  0
SPLINE
  5
CA
330
1F
100
AcDbEntity
  8
0
  6
Continuous
 62
     1
370
    15
100
AcDbSpline
210
0.0
220
0.0
230
1.0
 70
     8
 71
     3
 72
    11
 73
     7
 74
     0
 42
0.000000001
 43
0.00000001
 40
0.0
 40
0.0
 40
0.0
 40
0.0
 40
0.1771451928187513
 40
0.451250599366375
 40
0.7254876246497934
 40
1.0
 40
1.0
 40
1.0
 40
1.0
 10
35.61294156585151
 20
1.994458752371185
 30
0.0
 10
35.85351485778345
 20
2.097761932391228
 30
0.0
 10
36.46633895110729
 20
2.360911166975269
 30
0.0
 10
37.45155715448523
 20
2.664183757357282
 30
0.0
 10
38.56909610002435
 20
2.907642791771555
 30
0.0
 10
39.31457401200991
 20
2.951904697186716
 30
0.0
 10
39.68750000000002
 20
2.974046754706985
 30
0.0
1001
PE_URL
1000

  0
SPLINE
  5
CB
330
1F
100
AcDbEntity
  8
0
  6
Continuous
 62
     1
370
    15
100
AcDbSpline
210
0.0
220
0.0
230
1.0
 70
    24
 71
     3
 72
    10
 73
     6
 74
     0
 42
0.000000001
 43
0.00000001
 40
0.0
 40
0.0
 40
0.0
 40
0.0
 40
0.5
 40
0.5
 40
1.0
 40
1.0
 40
1.0
 40
1.0
 10
39.68750000000002
 20
2.083593749999999
 30
0.0
 10
39.68750000000001
 20
2.209896014403019
 30
0.0
 10
39.68750000000002
 20
2.356670942487276
 30
0.0
 10
39.68750000000001
 20
2.664604346297544
 30
0.0
 10
39.68750000000002
 20
2.824976398752819
 30
0.0
 10
39.68750000000002
 20
2.974046754706986
 30
0.0
1001
PE_URL
1000

  0
SPLINE
  5
CC
330
1F
100
AcDbEntity
  8
0
  6
Continuous
 62
     1
370
    15
100
AcDbSpline
210
0.0
220
0.0
230
1.0
 70
     8
 71
     3
 72
     9
 73
     5
 74
     0
 42
0.000000001
 43
0.00000001
 40
0.0
 40
0.0
 40
0.0
 40
0.0
 40
0.2782293298072954
 40
1.0
 40
1.0
 40
1.0
 40
1.0
 10
28.53465767429335
 20
-2.343121957578691
 30
0.0
 10
28.39116324016689
 20
-2.397371363987264
 30
0.0
 10
27.87542166027722
 20
-2.592352268574666
 30
0.0
 10
27.35971903178389
 20
-2.706360464744836
 30
0.0
 10
26.98749999999613
 20
-2.788648236902041
 30
0.0
1001
PE_URL
1000

  0
SPLINE
  5
CD
330
1F
100
AcDbEntity
  8
외형선
  6
Continuous
370
    15
100
AcDbSpline
210
0.0
220
0.0
230
1.0
 70
    24
 71
     3
 72
     8
 73
     4
 74
     0
 42
0.000000001
 43
0.00000001
 40
0.0
 40
0.0
 40
0.0
 40
0.0
 40
1.0
 40
1.0
 40
1.0
 40
1.0
 10
26.98750000000023
 20
-2.419365548033598
 30
0.0
 10
26.98750000000023
 20
-2.549790905059004
 30
0.0
 10
26.98750000000023
 20
-2.673708795636481
 30
0.0
 10
26.98750000000023
 20
-2.788648236892691
 30
0.0
  0
LINE
  5
CE
330
1F
100
AcDbEntity
  8
중심선
 62
     1
100
AcDbLine
 10
-42.68750000000001
 20
-0.0000000000000052
 30
0.0
 11
42.68750000000001
 21
0.0000000000000052
 31
0.0
  0
LINE
  5
CF
330
1F
100
AcDbEntity
  8
참조1
100
AcDbLine
 10
0.0
 20
-0.0000000000000048
 30
0.0
 11
0.0000000000000071
 21
-40.00000000000001
 31
0.0
  0
LINE
  5
D0
330
1F
100
AcDbEntity
  8
참조1
100
AcDbLine
 10
0.0000000000000071
 20
-40.00000000000001
 30
0.0
 11
-12.87821559669921
 21
-40.0
 31
0.0
  0
CIRCLE
  5
D1
330
1F
100
AcDbEntity
  8
해칭선
100
AcDbCircle
 10
0.0
 20
0.0
 30
0.0
 40
3.000000000000003
  0
INSERT
  5
D2
330
1F
100
AcDbEntity
  8
0
  6
Continuous
 62
     7
100
AcDbBlockReference
 66
     1
  2
블럭10
 10
-13.94027293212521
 20
-52.04717430164393
 30
0.0
  0
ATTRIB
  5
D3
330
D2
100
AcDbEntity
  8
FORMAT
 62
     2
100
AcDbText
 10
-23.12156822086649
 20
-49.97180738881175
 30
0.0
 40
4.233333333333333
  1
E1050015 [ 2 FLUTE ]
 41
0.75
  7
SLDTEXTSTYLE0
 11
-23.12156822086649
 21
-52.08847405547841
 31
0.0
100
AcDbAttribute
  2
AUTOATTR0
 70
     0
 74
     1
  0
SEQEND
  5
D4
330
D2
100
AcDbEntity
  8
0
  6
Continuous
 62
     7
  0
HATCH
  5
D5
330
1F
100
AcDbEntity
  8
중심선
100
AcDbHatch
 10
0.0
 20
0.0
 30
0.0
210
0.0
220
0.0
230
1.0
  2
SOLID
 70
     1
 71
     0
 91
        1
 92
        0
 93
        4
 72
     1
 10
-8.225363627744365
 20
-35.8
 11
-11.67163887158165
 21
-35.8
 72
     1
 10
-11.67163887158165
 20
-35.8
 11
-13.79986873078567
 21
-38.33632558057257
 72
     1
 10
-13.79986873078567
 20
-38.33632558057257
 11
-10.35356040183524
 21
-38.33628615127008
 72
     1
 10
-10.35356040183524
 20
-38.33628615127008
 11
-8.225363627744365
 21
-35.8
 97
        0
 75
     0
 76
     1
 98
        1
 10
16.58171167873052
 20
-0.001074928723894
  0
HATCH
  5
D6
330
1F
100
AcDbEntity
  8
중심선
100
AcDbHatch
 10
0.0
 20
0.0
 30
0.0
210
0.0
220
0.0
230
1.0
  2
SOLID
 70
     1
 71
     0
 91
        1
 92
        0
 93
        4
 72
     1
 10
-3.212599636708386
 20
-35.8
 11
-6.658874880545639
 21
-35.8
 72
     1
 10
-6.658874880545639
 20
-35.8
 11
-11.19001288890308
 21
-41.20000000000002
 72
     1
 10
-11.19001288890308
 20
-41.20000000000002
 11
-7.743737645065799
 21
-41.20000000000002
 72
     1
 10
-7.743737645065799
 20
-41.20000000000002
 11
-3.212599636708386
 21
-35.8
 97
        0
 75
     0
 76
     1
 98
        1
 10
16.58171167873052
 20
-0.001074928723894
  0
HATCH
  5
D7
330
1F
100
AcDbEntity
  8
중심선
100
AcDbHatch
 10
0.0
 20
0.0
 30
0.0
210
0.0
220
0.0
230
1.0
  2
SOLID
 70
     1
 71
     0
 91
        1
 92
        0
 93
        4
 72
     1
 10
1.80016435432751
 20
-35.80000000000003
 11
-1.646110889509604
 21
-35.8
 72
     1
 10
-1.646110889509604
 20
-35.8
 11
-8.694547791398882
 21
-44.20000000000002
 72
     1
 10
-8.694547791398882
 20
-44.20000000000002
 11
-5.248272547561598
 21
-44.20000000000002
 72
     1
 10
-5.248272547561598
 20
-44.20000000000002
 11
1.80016435432751
 21
-35.80000000000003
 97
        0
 75
     0
 76
     1
 98
        1
 10
16.58171167873052
 20
-0.001074928723894
  0
HATCH
  5
D8
330
1F
100
AcDbEntity
  8
중심선
100
AcDbHatch
 10
0.0
 20
0.0
 30
0.0
210
0.0
220
0.0
230
1.0
  2
SOLID
 70
     1
 71
     0
 91
        1
 92
        0
 93
        6
 72
     3
 10
6.600054785339681
 20
-40.00000000005127
 11
3.960054785062283
 21
1.540882976769353E-10
 40
0.3939339440162628
 50
17.09539180608437
 51
320.0019657685077
 73
     0
 72
     1
 10
8.28305444104025
 20
-38.5878940046383
 11
10.58835631474131
 21
-36.65356729459035
 72
     3
 10
6.600054785286835
 20
-40.00000000000015
 11
6.600054785286829
 21
-1.278976924368180E-13
 40
0.636358354079598
 50
39.9987384933743
 51
368.4976242363725
 73
     1
 72
     1
 10
13.02538727718744
 20
-39.03999999993002
 11
5.280122092122758
 21
-39.03999999993
 72
     1
 10
5.280122092122758
 20
-39.03999999993
 11
5.280097047676824
 21
-40.95999999992991
 72
     1
 10
5.280097047676824
 20
-40.95999999992991
 11
9.721476817148861
 21
-40.95999999992988
 97
        0
 75
     0
 76
     1
 98
        1
 10
16.58171167873052
 20
-0.001074928723894
  0
DIMENSION
  5
D9
330
1F
100
AcDbEntity
  8
치수문자_일반주서
100
AcDbDimension
  2
_D
 10
-49.68749999999994
 20
-4.76250000000012
 30
0.0
 11
-49.68750000000005
 21
24.49149999999996
 31
0.0
 70
   160
  1
%%c<>
 71
     2
 42
9.525000000000002
 52
-270.0
  3
SLDDIMSTYLE0
100
AcDbAlignedDimension
 13
-19.32229051085748
 23
4.762499999999996
 33
0.0
 14
-19.32229051085747
 24
-4.762500000000006
 34
0.0
 50
90.0000000000002
100
AcDbRotatedDimension
1001
PE_URL
1000

1001
ACAD
1000
DSTYLE
1002
{
1070
   171
1070
     8
1070
   273
1070
     7
1002
}
  0
DIMENSION
  5
EE
330
1F
100
AcDbEntity
  8
치수문자_일반주서
100
AcDbDimension
  2
_D_1
 10
75.7812930804304
 20
2.974046754707121
 30
0.0
 11
75.78129308043034
 21
24.89054675470712
 31
0.0
 70
   160
  1
%%c<>
 71
     2
 42
5.948093509413974
 52
-270.0
  3
SLDDIMSTYLE0
100
AcDbAlignedDimension
 13
39.68750000000002
 23
-2.974046754706988
 33
0.0
 14
39.68750000000002
 24
2.974046754706986
 34
0.0
 50
90.0000000000002
100
AcDbRotatedDimension
1001
PE_URL
1000

1001
ACAD
1000
DSTYLE
1002
{
1070
   171
1070
     8
1070
   273
1070
     7
1002
}
  0
DIMENSION
  5
102
330
1F
100
AcDbEntity
  8
치수문자_일반주서
100
AcDbDimension
  2
_D_2
 10
26.98750000000002
 20
14.76249999999997
 30
0.0
 11
57.22900000000002
 21
14.76249999999997
 31
0.0
 70
   160
  1
<>
 71
     2
 42
12.7
  3
SLDDIMSTYLE0
100
AcDbAlignedDimension
 13
39.68750000000002
 23
2.974046754706986
 33
0.0
 14
26.98750000000002
 24
2.788648236901256
 34
0.0
100
AcDbRotatedDimension
1001
PE_URL
1000

1001
ACAD
1000
DSTYLE
1002
{
1070
   171
1070
     8
1070
   273
1070
     7
1002
}
  0
DIMENSION
  5
117
330
1F
100
AcDbEntity
  8
치수문자_일반주서
100
AcDbDimension
  2
_D_3
 10
39.68750000000001
 20
24.76249999999999
 30
0.0
 11
0.0000000000000071
 21
24.76249999999999
 31
0.0
 70
   160
  1
<>
 71
     2
 42
79.37500000000003
  3
SLDDIMSTYLE0
100
AcDbAlignedDimension
 13
-39.6875
 23
2.974046754706958
 33
0.0
 14
39.68750000000002
 24
2.974046754706986
 34
0.0
100
AcDbRotatedDimension
1001
PE_URL
1000

1001
ACAD
1000
DSTYLE
1002
{
1070
   171
1070
     8
1070
   273
1070
     7
1002
}
  0
LINE
  5
12B
330
1F
100
AcDbEntity
  8
참조1
100
AcDbLine
 10
85.09412503295505
 20
7.440000000000001
 30
0.0
 11
85.09412503295505
 21
-7.440000000000003
 31
0.0
  0
LINE
  5
12C
330
1F
100
AcDbEntity
  8
참조1
100
AcDbLine
 10
97.79412503295507
 20
5.440000000000001
 30
0.0
 11
85.09412503295505
 21
5.440000000000001
 31
0.0
  0
SOLID
  5
12D
330
1F
100
AcDbEntity
  8
참조1
100
AcDbTrace
 10
85.09412503295505
 20
5.440000000000001
 30
0.0
 11
91.44412503295504
 21
4.424000000000001
 31
0.0
 12
91.44412503295504
 22
6.456000000000001
 32
0.0
 13
91.44412503295504
 23
6.456000000000001
 33
0.0
  0
LINE
  5
12E
330
1F
100
AcDbEntity
  8
참조1
100
AcDbLine
 10
97.79412503295507
 20
-5.440000000000003
 30
0.0
 11
85.09412503295505
 21
-5.440000000000003
 31
0.0
  0
SOLID
  5
12F
330
1F
100
AcDbEntity
  8
참조1
100
AcDbTrace
 10
85.09412503295505
 20
-5.440000000000003
 30
0.0
 11
91.44412503295504
 21
-6.456000000000003
 31
0.0
 12
91.44412503295504
 22
-4.424000000000003
 32
0.0
 13
91.44412503295504
 23
-4.424000000000003
 33
0.0
  0
MTEXT
  5
130
330
1F
100
AcDbEntity
  8
참조1
100
AcDbMText
 10
94.47847516558105
 20
11.01029177718833
 30
0.0
 40
3.5
 41
0.0
 71
     1
 72
     1
  1
A
  7
SLDTEXTSTYLE0
 73
     1
 44
1.0
  0
MTEXT
  5
131
330
1F
100
AcDbEntity
  8
참조1
100
AcDbMText
 10
94.47847516558105
 20
0.1302917771883252
 30
0.0
 40
3.5
 41
0.0
 71
     1
 72
     1
  1
A
  7
SLDTEXTSTYLE0
 73
     1
 44
1.0
  0
INSERT
  5
138
330
1F
100
AcDbEntity
  8
해칭선
100
AcDbBlockReference
  2
SW_DOWELSYMBOL_0
 10
0.0
 20
0.0
 30
0.0
  0
LINE
  5
1E0
330
1F
100
AcDbEntity
  8
외형선
  6
Continuous
370
    15
100
AcDbLine
 10
-3.568700000000064
 20
3.492500000000014
 30
0.0
 11
3.568700000000064
 21
3.492500000000014
 31
0.0
1001
PE_URL
1000

  0
LINE
  5
1E1
330
1F
100
AcDbEntity
  8
외형선
  6
Continuous
370
    15
100
AcDbLine
 10
-3.568700000000064
 20
3.492500000000014
 30
0.0
 11
-4.838700000000046
 21
4.762499999999996
 31
0.0
1001
PE_URL
1000

  0
LINE
  5
1E2
330
1F
100
AcDbEntity
  8
외형선
  6
Continuous
370
    15
100
AcDbLine
 10
3.568700000000064
 20
3.492500000000014
 30
0.0
 11
4.838700000000159
 21
4.762499999999996
 31
0.0
1001
PE_URL
1000

  0
LINE
  5
222
330
1F
100
AcDbEntity
  8
외형선
  6
Continuous
370
    15
100
AcDbLine
 10
-19.32229051085748
 20
4.762499999999992
 30
0.0
 11
-25.98750000000001
 21
2.976562499999986
 31
0.0
  0
LINE
  5
223
330
1F
100
AcDbEntity
  8
외형선
  6
Continuous
370
    15
100
AcDbLine
 10
-25.9875
 20
-2.976562500000018
 30
0.0
 11
-19.32229051085747
 21
-4.762500000000006
 31
0.0
  0
LINE
  5
224
330
1F
100
AcDbEntity
  8
외형선
  6
Continuous
370
    15
100
AcDbLine
 10
-26.09756020742191
 20
-2.976562500000018
 30
0.0
 11
-25.9875
 21
-2.976562500000018
 31
0.0
  0
LINE
  5
225
330
1F
100
AcDbEntity
  8
외형선
  6
Continuous
370
    15
100
AcDbLine
 10
-25.98750000000001
 20
2.976562499999986
 30
0.0
 11
-26.09756020742192
 21
2.976562499999986
 31
0.0
  0
SPLINE
  5
226
330
1F
100
AcDbEntity
  8
외형선
  6
Continuous
370
    15
100
AcDbSpline
210
0.0
220
0.0
230
1.0
 70
     8
 71
     3
 72
     9
 73
     5
 74
     0
 42
0.000000001
 43
0.00000001
 40
0.0
 40
0.0
 40
0.0
 40
0.0
 40
0.4993099122651122
 40
1.0
 40
1.0
 40
1.0
 40
1.0
 10
-26.51438386696896
 20
2.476914293228745
 30
0.0
 10
-26.59320105799606
 20
2.469176016342413
 30
0.0
 10
-26.75105330384784
 20
2.453678072688081
 30
0.0
 10
-26.90861194842385
 20
2.439920530606859
 30
0.0
 10
-26.98750000000001
 20
2.433032265655196
 30
0.0
  0
SPLINE
  5
227
330
1F
100
AcDbEntity
  8
0
  6
Continuous
 62
     1
370
    15
100
AcDbSpline
210
0.0
220
0.0
230
1.0
 70
     8
 71
     3
 72
    11
 73
     7
 74
     0
 42
0.000000001
 43
0.00000001
 40
0.0
 40
0.0
 40
0.0
 40
0.0
 40
0.3124902818016735
 40
0.4991595321688106
 40
0.6867762627735402
 40
1.0
 40
1.0
 40
1.0
 40
1.0
 10
-31.97500907111472
 20
-0.762837054822203
 30
0.0
 10
-31.88911617913151
 20
-0.8035052046691824
 30
0.0
 10
-31.75191429390242
 20
-0.8684668877485784
 30
0.0
 10
-31.56358980995646
 20
-0.9623735145070036
 30
0.0
 10
-31.37485473046868
 20
-1.058159526270636
 30
0.0
 10
-31.2371501071386
 20
-1.13044331427098
 30
0.0
 10
-31.15103015573055
 20
-1.175649322316609
 30
0.0
1001
PE_URL
1000

  0
SPLINE
  5
228
330
1F
100
AcDbEntity
  8
0
  6
Continuous
 62
     1
370
    15
100
AcDbSpline
210
0.0
220
0.0
230
1.0
 70
     8
 71
     3
 72
    15
 73
    11
 74
     0
 42
0.000000001
 43
0.00000001
 40
0.0
 40
0.0
 40
0.0
 40
0.0
 40
0.1727518558969882
 40
0.295158742231897
 40
0.3717927519094213
 40
0.4396044839318436
 40
0.5075460001908738
 40
0.6541434539618706
 40
0.8182721098017106
 40
1.0
 40
1.0
 40
1.0
 40
1.0
 10
-30.99222178317808
 20
-2.365293799829175
 30
0.0
 10
-30.85045720223664
 20
-2.358320671449015
 30
0.0
 10
-30.60824240699498
 20
-2.34640658930255
 30
0.0
 10
-30.30397919209404
 20
-2.336415748994163
 30
0.0
 10
-30.08735885353249
 20
-2.330997991824017
 30
0.0
 10
-29.91479073753744
 20
-2.327803664006474
 30
0.0
 10
-29.68479938163028
 20
-2.32487398908108
 30
0.0
 10
-29.37522687037142
 20
-2.323953527953556
 30
0.0
 10
-28.97201224409704
 20
-2.327557844836207
 30
0.0
 10
-28.68953698426886
 20
-2.336222759855541
 30
0.0
 10
-28.5411123452391
 20
-2.34077567852442
 30
0.0
1001
PE_URL
1000

  0
SPLINE
  5
229
330
1F
100
AcDbEntity
  8
0
  6
Continuous
 62
     1
370
    15
100
AcDbSpline
210
0.0
220
0.0
230
1.0
 70
     8
 71
     3
 72
    23
 73
    19
 74
     0
 42
0.000000001
 43
0.00000001
 40
0.0
 40
0.0
 40
0.0
 40
0.0
 40
0.0656767817646119
 40
0.1172607086295641
 40
0.1790655598967474
 40
0.2278173875875479
 40
0.2829849509306145
 40
0.3447656061131246
 40
0.4109860844349585
 40
0.4664912272447934
 40
0.5129749339335021
 40
0.5833464755347836
 40
0.6676733507684356
 40
0.7685879553243676
 40
0.8215585796773017
 40
0.8622768084018458
 40
0.9181994329900078
 40
1.0
 40
1.0
 40
1.0
 40
1.0
 10
-38.58068796590115
 20
-2.035825415131555
 30
0.0
 10
-38.46643848045746
 20
-2.026477851463127
 30
0.0
 10
-38.26245504424546
 20
-2.009788514527465
 30
0.0
 10
-37.9516537797298
 20
-1.990306912421087
 30
0.0
 10
-37.67286887139055
 20
-1.976569658778008
 30
0.0
 10
-37.38697021425875
 20
-1.966479180004935
 30
0.0
 10
-37.09803453948263
 20
-1.960093932019266
 30
0.0
 10
-36.78031763559063
 20
-1.957880385854718
 30
0.0
 10
-36.46219031044232
 20
-1.960926075261206
 30
0.0
 10
-36.17067871326924
 20
-1.968235815556238
 30
0.0
 10
-35.87202558219583
 20
-1.979591691830059
 30
0.0
 10
-35.52352255459181
 20
-1.998151944968345
 30
0.0
 10
-35.08064430513316
 20
-2.030188328354512
 30
0.0
 10
-34.66790525489557
 20
-2.069151045960378
 30
0.0
 10
-34.33022093306157
 20
-2.107328648372803
 30
0.0
 10
-34.06843449103475
 20
-2.139867295211431
 30
0.0
 10
-33.7597087947573
 20
-2.181080027594049
 30
0.0
 10
-33.52215629491263
 20
-2.21727344356788
 30
0.0
 10
-33.38106219916563
 20
-2.238770490756028
 30
0.0
1001
PE_URL
1000

  0
SPLINE
  5
22A
330
1F
100
AcDbEntity
  8
0
  6
Continuous
 62
     1
370
    15
100
AcDbSpline
210
0.0
220
0.0
230
1.0
 70
     8
 71
     3
 72
    14
 73
    10
 74
     0
 42
0.000000001
 43
0.00000001
 40
0.0
 40
0.0
 40
0.0
 40
0.0
 40
0.1933984905797524
 40
0.3243113456340782
 40
0.4214319542422396
 40
0.549126905563032
 40
0.694034675560575
 40
0.9380281995718874
 40
1.0
 40
1.0
 40
1.0
 40
1.0
 10
-33.38106219916563
 20
2.238770490755982
 30
0.0
 10
-33.52429985482871
 20
2.216956732421487
 30
0.0
 10
-33.76449612892739
 20
2.180377081269146
 30
0.0
 10
-34.0777232490413
 20
2.138654489603748
 30
0.0
 10
-34.34498414955496
 20
2.105560903159297
 30
0.0
 10
-34.62040744808404
 20
2.074593321508601
 30
0.0
 10
-35.00482617727995
 20
2.037283810060369
 30
0.0
 10
-35.34035001495614
 20
2.009366867736482
 30
0.0
 10
-35.56795810919456
 20
1.997353972605886
 30
0.0
 10
-35.61405903065621
 20
1.99492081864976
 30
0.0
1001
PE_URL
1000

  0
SPLINE
  5
22B
330
1F
100
AcDbEntity
  8
0
  6
Continuous
 62
     1
370
    15
100
AcDbSpline
210
0.0
220
0.0
230
1.0
 70
     8
 71
     3
 72
    18
 73
    14
 74
     0
 42
0.000000001
 43
0.00000001
 40
0.0
 40
0.0
 40
0.0
 40
0.0
 40
0.1193025609634467
 40
0.1929420023785292
 40
0.2428085307447736
 40
0.2979285439959103
 40
0.4988002030309373
 40
0.6251489255629535
 40
0.7337038564058843
 40
0.7744958166668191
 40
0.821358764498103
 40
0.89580663207653
 40
1.0
 40
1.0
 40
1.0
 40
1.0
 10
-26.9875
 20
2.433032265655196
 30
0.0
 10
-27.14742645253271
 20
2.420069275221099
 30
0.0
 10
-27.40606742164326
 20
2.399104885932466
 30
0.0
 10
-27.73075645986519
 20
2.378062840291168
 30
0.0
 10
-27.96898817981005
 20
2.364539922411762
 30
0.0
 10
-28.37717156813555
 20
2.344391835415308
 30
0.0
 10
-28.88671315572141
 20
2.328121562766732
 30
0.0
 10
-29.4694190125712
 20
2.323218807692118
 30
0.0
 10
-29.83686088576602
 20
2.326297811307118
 30
0.0
 10
-30.09706787598692
 20
2.331214999216645
 30
0.0
 10
-30.31197447739182
 20
2.336656822427202
 30
0.0
 10
-30.61328470022459
 20
2.346632113322006
 30
0.0
 10
-30.85262524716074
 20
2.358419025863142
 30
0.0
 10
-30.99222178317808
 20
2.365293799829132
 30
0.0
1001
PE_URL
1000

  0
LINE
  5
22C
330
1F
100
AcDbEntity
  8
외형선
  6
Continuous
370
    15
100
AcDbLine
 10
-19.32229051085747
 20
-4.762500000000006
 30
0.0
 11
-19.32229051085748
 21
4.762499999999996
 31
0.0
  0
LINE
  5
22D
330
1F
100
AcDbEntity
  8
외형선
  6
Continuous
370
    15
100
AcDbLine
 10
-25.9875
 20
-2.976562500000018
 30
0.0
 11
-25.98750000000001
 21
2.976562499999989
 31
0.0
  0
LINE
  5
22E
330
1F
100
AcDbEntity
  8
외형선
  6
Continuous
370
    15
100
AcDbLine
 10
-26.9875
 20
-2.78864823690127
 30
0.0
 11
-26.9875
 21
-2.392723425239268
 31
0.0
  0
SPLINE
  5
22F
330
1F
100
AcDbEntity
  8
외형선
  6
Continuous
370
    15
100
AcDbSpline
210
0.0
220
0.0
230
1.0
 70
     8
 71
     3
 72
     8
 73
     4
 74
     0
 42
0.000000001
 43
0.00000001
 40
0.0
 40
0.0
 40
0.0
 40
0.0
 40
1.0
 40
1.0
 40
1.0
 40
1.0
 10
-26.98749999999997
 20
-2.392723425239279
 30
0.0
 10
-26.68965899146816
 20
-2.494745555995291
 30
0.0
 10
-26.39269035381513
 20
-2.584709150242865
 30
0.0
 10
-26.09756020742191
 20
-2.661297450296257
 30
0.0
  0
LINE
  5
230
330
1F
100
AcDbEntity
  8
외형선
  6
Continuous
370
    15
100
AcDbLine
 10
-26.09756020742192
 20
2.976562499999986
 30
0.0
 11
-26.09756020742191
 21
-2.661649246605108
 31
0.0
  0
SPLINE
  5
231
330
1F
100
AcDbEntity
  8
외형선
  6
Continuous
370
    15
100
AcDbSpline
210
0.0
220
0.0
230
1.0
 70
     8
 71
     3
 72
     8
 73
     4
 74
     0
 42
0.000000001
 43
0.00000001
 40
0.0
 40
0.0
 40
0.0
 40
0.0
 40
1.0
 40
1.0
 40
1.0
 40
1.0
 10
-26.98749999999998
 20
2.788648236901246
 30
0.0
 10
-26.6896801553267
 20
2.848619907916301
 30
0.0
 10
-26.39273168257089
 20
2.894599715660373
 30
0.0
 10
-26.09762312105027
 20
2.925985473659708
 30
0.0
  0
LINE
  5
232
330
1F
100
AcDbEntity
  8
외형선
  6
Continuous
370
    15
100
AcDbLine
 10
-26.09756020742191
 20
-2.963789663348141
 30
0.0
 11
-26.09756020742191
 21
-2.976562500000018
 31
0.0
  0
SPLINE
  5
233
330
1F
100
AcDbEntity
  8
외형선
  6
Continuous
370
    15
100
AcDbSpline
210
0.0
220
0.0
230
1.0
 70
     8
 71
     3
 72
    10
 73
     6
 74
     0
 42
0.000000001
 43
0.00000001
 40
0.0
 40
0.0
 40
0.0
 40
0.0
 40
0.400009504839829
 40
0.7716858888610918
 40
1.0
 40
1.0
 40
1.0
 40
1.0
 10
-26.12516925880053
 20
-2.923012875267204
 30
0.0
 10
-26.1205552203932
 20
-2.929853987926691
 30
0.0
 10
-26.11165396108181
 20
-2.943051649581122
 30
0.0
 10
-26.10113395433405
 20
-2.955800918558516
 30
0.0
 10
-26.09854527601077
 20
-2.96158764352127
 30
0.0
 10
-26.09756020742191
 20
-2.963789663348141
 30
0.0
  0
SPLINE
  5
234
330
1F
100
AcDbEntity
  8
외형선
  6
Continuous
370
    15
100
AcDbSpline
210
0.0
220
0.0
230
1.0
 70
     8
 71
     3
 72
     8
 73
     4
 74
     0
 42
0.000000001
 43
0.00000001
 40
0.0
 40
0.0
 40
0.0
 40
0.0
 40
1.0
 40
1.0
 40
1.0
 40
1.0
 10
-26.98749999999998
 20
-2.788648236901277
 30
0.0
 10
-26.69895084839622
 20
-2.846753078137219
 30
0.0
 10
-26.4108250115355
 20
-2.891740830766832
 30
0.0
 10
-26.12516925880053
 20
-2.923012875267208
 30
0.0
  0
SPLINE
  5
235
330
1F
100
AcDbEntity
  8
외형선
  6
Continuous
370
    15
100
AcDbSpline
210
0.0
220
0.0
230
1.0
 70
    24
 71
     3
 72
    14
 73
    10
 74
     0
 42
0.000000001
 43
0.00000001
 40
0.0
 40
0.0
 40
0.0
 40
0.0
 40
0.25
 40
0.25
 40
0.5
 40
0.5
 40
0.75
 40
0.75
 40
1.0
 40
1.0
 40
1.0
 40
1.0
 10
-26.9875
 20
-1.622545749684473
 30
0.0
 10
-26.9875
 20
-1.4172015882552
 30
0.0
 10
-26.9875
 20
-1.184988505503426
 30
0.0
 10
-26.9875
 20
-0.6821730255303216
 30
0.0
 10
-26.9875
 20
-0.4117404162516323
 30
0.0
 10
-26.9875
 20
0.1421445170313049
 30
0.0
 10
-26.9875
 20
0.4253017079861543
 30
0.0
 10
-26.9875
 20
0.9766019555399978
 30
0.0
 10
-26.9875
 20
1.244507124724166
 30
0.0
 10
-26.9875
 20
1.493915039616834
 30
0.0
  0
SPLINE
  5
236
330
1F
100
AcDbEntity
  8
외형선
  6
Continuous
370
    15
100
AcDbSpline
210
0.0
220
0.0
230
1.0
 70
     8
 71
     3
 72
     8
 73
     4
 74
     0
 42
0.000000001
 43
0.00000001
 40
0.0
 40
0.0
 40
0.0
 40
0.0
 40
1.0
 40
1.0
 40
1.0
 40
1.0
 10
-26.98749999999996
 20
1.493915039616816
 30
0.0
 10
-26.68966672572204
 20
1.387066850702286
 30
0.0
 10
-26.39270545726881
 20
1.272863749602124
 30
0.0
 10
-26.09758319899006
 20
1.15318226173552
 30
0.0
  0
SPLINE
  5
237
330
1F
100
AcDbEntity
  8
외형선
  6
Continuous
370
    15
100
AcDbSpline
210
0.0
220
0.0
230
1.0
 70
     8
 71
     3
 72
     8
 73
     4
 74
     0
 42
0.000000001
 43
0.00000001
 40
0.0
 40
0.0
 40
0.0
 40
0.0
 40
1.0
 40
1.0
 40
1.0
 40
1.0
 10
-26.98749999999994
 20
-1.622545749684491
 30
0.0
 10
-26.68966409506034
 20
-1.697866745915036
 30
0.0
 10
-26.39270032011338
 20
-1.765004693485295
 30
0.0
 10
-26.09757537884048
 20
-1.822969537632133
 30
0.0
  0
LINE
  5
238
330
1F
100
AcDbEntity
  8
외형선
  6
Continuous
370
    15
100
AcDbLine
 10
-26.51771157049149
 20
2.467508284565906
 30
0.0
 11
-26.09762312105027
 21
2.510557892158126
 31
0.0
  0
SPLINE
  5
239
330
1F
100
AcDbEntity
  8
외형선
  6
Continuous
370
    15
100
AcDbSpline
210
0.0
220
0.0
230
1.0
 70
    24
 71
     3
 72
    12
 73
     8
 74
     0
 42
0.000000001
 43
0.00000001
 40
0.0
 40
0.0
 40
0.0
 40
0.0
 40
0.2951883342101447
 40
0.5105701078247119
 40
0.7321979674650991
 40
0.9261504869604227
 40
1.0
 40
1.0
 40
1.0
 40
1.0
 10
-26.98750000000001
 20
1.493915039616834
 30
0.0
 10
-26.98750000000001
 20
1.656853730690663
 30
0.0
 10
-26.98750000000001
 20
1.93867931601735
 30
0.0
 10
-26.98750000000001
 20
2.212953603379635
 30
0.0
 10
-26.98750000000001
 20
2.365798210361746
 30
0.0
 10
-26.98750000000001
 20
2.433604021914398
 30
0.0
 10
-26.98750000000001
 20
2.426134111668311
 30
0.0
 10
-26.98750000000001
 20
2.424074197376765
 30
0.0
  0
SPLINE
  5
23A
330
1F
100
AcDbEntity
  8
외형선
  6
Continuous
370
    15
100
AcDbSpline
210
0.0
220
0.0
230
1.0
 70
    24
 71
     3
 72
    10
 73
     6
 74
     0
 42
0.000000001
 43
0.00000001
 40
0.0
 40
0.0
 40
0.0
 40
0.0
 40
0.5
 40
0.5
 40
1.0
 40
1.0
 40
1.0
 40
1.0
 10
-26.9875
 20
-2.392723425239268
 30
0.0
 10
-26.9875
 20
-2.300568346221439
 30
0.0
 10
-26.9875
 20
-2.181358765228641
 30
0.0
 10
-26.9875
 20
-1.913983908920475
 30
0.0
 10
-26.9875
 20
-1.766648359073393
 30
0.0
 10
-26.9875
 20
-1.622545749684473
 30
0.0
  0
SPLINE
  5
23B
330
1F
100
AcDbEntity
  8
외형선
  6
Continuous
370
    15
100
AcDbSpline
210
0.0
220
0.0
230
1.0
 70
    24
 71
     3
 72
     8
 73
     4
 74
     0
 42
0.000000001
 43
0.00000001
 40
0.0
 40
0.0
 40
0.0
 40
0.0
 40
1.0
 40
1.0
 40
1.0
 40
1.0
 10
-26.98750000000022
 20
2.419365548033582
 30
0.0
 10
-26.98750000000022
 20
2.549790905058984
 30
0.0
 10
-26.98750000000022
 20
2.673708795636461
 30
0.0
 10
-26.98750000000022
 20
2.788648236892669
 30
0.0
  0
SPLINE
  5
23C
330
1F
100
AcDbEntity
  8
0
  6
Continuous
 62
     1
370
    15
100
AcDbSpline
210
0.0
220
0.0
230
1.0
 70
     8
 71
     3
 72
    38
 73
    34
 74
     0
 42
0.000000001
 43
0.00000001
 40
0.0
 40
0.0
 40
0.0
 40
0.0
 40
0.0625
 40
0.0625
 40
0.125
 40
0.125
 40
0.1875
 40
0.1875
 40
0.25
 40
0.25
 40
0.3125
 40
0.3125
 40
0.375
 40
0.375
 40
0.4375
 40
0.4375
 40
0.5
 40
0.5
 40
0.5625
 40
0.5625
 40
0.625
 40
0.625
 40
0.6875
 40
0.6875
 40
0.75
 40
0.75
 40
0.8125
 40
0.8125
 40
0.875
 40
0.875
 40
0.9375
 40
0.9375
 40
1.0
 40
1.0
 40
1.0
 40
1.0
 10
-39.6875
 20
2.824581806073045
 30
0.0
 10
-39.42516975551057
 20
2.776529498506651
 30
0.0
 10
-39.15884765065464
 20
2.717072334192473
 30
0.0
 10
-38.6275991636082
 20
2.577180199258084
 30
0.0
 10
-38.36532360612472
 20
2.497069903724121
 30
0.0
 10
-37.83672614289016
 20
2.317434112016702
 30
0.0
 10
-37.56982746416102
 20
2.217763659076848
 30
0.0
 10
-37.04027668616065
 20
2.002213508817118
 30
0.0
 10
-36.77858668294755
 20
1.886546822510212
 30
0.0
 10
-36.24772181585692
 20
1.64014343713712
 30
0.0
 10
-35.98110894278918
 20
1.509740724088083
 30
0.0
 10
-35.45493554318728
 20
1.23925359091621
 30
0.0
 10
-35.19036390007371
 20
1.098332990839602
 30
0.0
 10
-34.65892525570509
 20
0.8084934170738656
 30
0.0
 10
-34.39566974806216
 20
0.6602492767936177
 30
0.0
 10
-33.86821585292655
 20
0.3595673574731606
 30
0.0
 10
-33.60141544808347
 20
0.2066236506776065
 30
0.0
 10
-33.07110276046244
 20
-0.0990696606186177
 30
0.0
 10
-32.80960320838304
 20
-0.2514261805707321
 30
0.0
 10
-32.27931495826088
 20
-0.5543510955371111
 30
0.0
 10
-32.01250923840523
 20
-0.7045217678299913
 30
0.0
 10
-31.48501026415158
 20
-0.9969919813414201
 30
0.0
 10
-31.22179745569913
 20
-1.139777666901267
 30
0.0
 10
-30.6903623475989
 20
-1.416102950454881
 30
0.0
 10
-30.42573367648168
 20
-1.548997227525586
 30
0.0
 10
-29.89961222444791
 20
-1.801068140963363
 30
0.0
 10
-29.63300824613047
 20
-1.921035097040932
 30
0.0
 10
-29.10212597641208
 20
-2.144459003876438
 30
0.0
 10
-28.84042154219816
 20
-2.247627735146601
 30
0.0
 10
-28.31090220695824
 20
-2.436243898535224
 30
0.0
 10
-28.04400179951027
 20
-2.521491934776794
 30
0.0
 10
-27.515366179872
 20
-2.670882945635224
 30
0.0
 10
-27.25311894126471
 20
-2.735160828168194
 30
0.0
 10
-26.98749999999611
 20
-2.788648236902056
 30
0.0
1001
PE_URL
1000

  0
SPLINE
  5
23D
330
1F
100
AcDbEntity
  8
0
  6
Continuous
 62
     1
370
    15
100
AcDbSpline
210
0.0
220
0.0
230
1.0
 70
     8
 71
     3
 72
    14
 73
    10
 74
     0
 42
0.000000001
 43
0.00000001
 40
0.0
 40
0.0
 40
0.0
 40
0.0
 40
0.1466123022628786
 40
0.2930874079198907
 40
0.439490090306886
 40
0.5858857366960654
 40
0.7323397941165836
 40
0.8789172141140411
 40
1.0
 40
1.0
 40
1.0
 40
1.0
 10
-39.6875
 20
2.348425255658487
 30
0.0
 10
-39.30962018016444
 20
2.268534604942435
 30
0.0
 10
-38.55421415221559
 20
2.108828063444868
 30
0.0
 10
-37.42168754157126
 20
1.737512636004706
 30
0.0
 10
-36.28978695265209
 20
1.290934707970617
 30
0.0
 10
-35.15795034828268
 20
0.7798981244940002
 30
0.0
 10
-34.02560533246505
 20
0.232852238466517
 30
0.0
 10
-32.95831830788815
 20
-0.2965324564851812
 30
0.0
 10
-32.26844506352366
 20
-0.6220933961835335
 30
0.0
 10
-31.95636365396133
 20
-0.7693690265829822
 30
0.0
1001
PE_URL
1000

  0
LINE
  5
23E
330
1F
100
AcDbEntity
  8
0
  6
Continuous
 62
     1
370
    15
100
AcDbLine
 10
-39.68749999999993
 20
2.824581806073049
 30
0.0
 11
-39.6875
 21
2.348425255658487
 31
0.0
1001
PE_URL
1000

  0
SPLINE
  5
23F
330
1F
100
AcDbEntity
  8
0
  6
Continuous
 62
     1
370
    15
100
AcDbSpline
210
0.0
220
0.0
230
1.0
 70
     8
 71
     3
 72
    38
 73
    34
 74
     0
 42
0.000000001
 43
0.00000001
 40
0.0
 40
0.0
 40
0.0
 40
0.0
 40
0.0624999999999999
 40
0.0624999999999999
 40
0.1249999999999999
 40
0.1249999999999999
 40
0.1874999999999998
 40
0.1874999999999998
 40
0.2499999999999998
 40
0.2499999999999998
 40
0.3124999999999997
 40
0.3124999999999997
 40
0.3749999999999997
 40
0.3749999999999997
 40
0.4374999999999996
 40
0.4374999999999996
 40
0.4999999999999996
 40
0.4999999999999996
 40
0.5624999999999996
 40
0.5624999999999996
 40
0.6249999999999997
 40
0.6249999999999997
 40
0.6874999999999997
 40
0.6874999999999997
 40
0.7499999999999998
 40
0.7499999999999998
 40
0.8124999999999998
 40
0.8124999999999998
 40
0.8749999999999999
 40
0.8749999999999999
 40
0.9374999999999999
 40
0.9374999999999999
 40
1.0
 40
1.0
 40
1.0
 40
1.0
 10
-39.6875
 20
2.974046754706958
 30
0.0
 10
-39.42516975551065
 20
2.967785271022731
 30
0.0
 10
-39.15884765065481
 20
2.949739349037912
 30
0.0
 10
-38.62759916360852
 20
2.890427162426086
 30
0.0
 10
-38.36532360612512
 20
2.849358463857339
 30
0.0
 10
-37.83672614289073
 20
2.744925791265818
 30
0.0
 10
-37.56982746416168
 20
2.681430821825419
 30
0.0
 10
-37.04027668616145
 20
2.534092739496302
 30
0.0
 10
-36.77858668294843
 20
2.450439808501134
 30
0.0
 10
-36.24772181585797
 20
2.263660786989199
 30
0.0
 10
-35.9811089427903
 20
2.160748886642619
 30
0.0
 10
-35.45493554318853
 20
1.939672904957089
 30
0.0
 10
-35.19036390007507
 20
1.820838807303591
 30
0.0
 10
-34.65892525570661
 20
1.569338296068587
 30
0.0
 10
-34.39566974806374
 20
1.437266854158636
 30
0.0
 10
-33.86821585292832
 20
1.162719031073806
 30
0.0
 10
-33.60141544808532
 20
1.019759547042955
 30
0.0
 10
-33.07110276046444
 20
0.7274815298423754
 30
0.0
 10
-32.80960320838511
 20
0.5785715545625791
 30
0.0
 10
-32.27931495826314
 20
0.275999548388679
 30
0.0
 10
-32.01250923840756
 20
0.1227017537657566
 30
0.0
 10
-31.48501026415403
 20
-0.1824849582084624
 30
0.0
 10
-31.2217974557017
 20
-0.334859112138961
 30
0.0
 10
-30.69036234760163
 20
-0.6367156288329063
 30
0.0
 10
-30.42573367648444
 20
-0.7855036562239945
 30
0.0
 10
-29.89961222445089
 20
-1.075163149248272
 30
0.0
 10
-29.63300824613354
 20
-1.216956711968379
 30
0.0
 10
-29.10212597641528
 20
-1.489377171898436
 30
0.0
 10
-28.84042154220143
 20
-1.61960979117546
 30
0.0
 10
-28.31090220696171
 20
-1.867293773701199
 30
0.0
 10
-28.04400179951381
 20
-1.984534083891649
 30
0.0
 10
-27.51536617987566
 20
-2.20168673820384
 30
0.0
 10
-27.25311894126848
 20
-2.301738605885649
 30
0.0
 10
-26.98749999999998
 20
-2.392723425239275
 30
0.0
1001
PE_URL
1000

  0
SPLINE
  5
240
330
1F
100
AcDbEntity
  8
0
  6
Continuous
 62
     1
370
    15
100
AcDbSpline
210
0.0
220
0.0
230
1.0
 70
     8
 71
     3
 72
    12
 73
     8
 74
     0
 42
0.000000001
 43
0.00000001
 40
0.0
 40
0.0
 40
0.0
 40
0.0
 40
0.1008567980040505
 40
0.3142975694027713
 40
0.5276072651004825
 40
0.7638024748564711
 40
1.0
 40
1.0
 40
1.0
 40
1.0
 10
-32.29395782475358
 20
0.2822814125447444
 30
0.0
 10
-32.11554124246169
 20
0.2112976835318143
 30
0.0
 10
-31.559546016902
 20
-0.0099071726347795
 30
0.0
 10
-30.62632794083013
 20
-0.3904388053752399
 30
0.0
 10
-29.45383311320359
 20
-0.8446988260156836
 30
0.0
 10
-28.240882639757
 20
-1.276906755153139
 30
0.0
 10
-27.40529557843553
 20
-1.507332375037695
 30
0.0
 10
-26.9875
 20
-1.622545749684473
 30
0.0
1001
PE_URL
1000

  0
SPLINE
  5
241
330
1F
100
AcDbEntity
  8
외형선
  6
Continuous
370
    15
100
AcDbSpline
210
0.0
220
0.0
230
1.0
 70
    24
 71
     3
 72
    10
 73
     6
 74
     0
 42
0.000000001
 43
0.00000001
 40
0.0
 40
0.0
 40
0.0
 40
0.0
 40
0.4999999999999997
 40
0.4999999999999997
 40
1.0
 40
1.0
 40
1.0
 40
1.0
 10
-26.9875
 20
-2.392723425239264
 30
0.0
 10
-26.9875
 20
-2.300568346221439
 30
0.0
 10
-26.9875
 20
-2.181358765228641
 30
0.0
 10
-26.9875
 20
-1.913983908920475
 30
0.0
 10
-26.9875
 20
-1.766648359073393
 30
0.0
 10
-26.9875
 20
-1.622545749684473
 30
0.0
  0
LINE
  5
242
330
1F
100
AcDbEntity
  8
0
  6
Continuous
 62
     1
370
    15
100
AcDbLine
 10
-39.6875
 20
2.974046754706958
 30
0.0
 11
-39.68749999999999
 21
2.824581806073041
 31
0.0
1001
PE_URL
1000

  0
SPLINE
  5
243
330
1F
100
AcDbEntity
  8
0
  6
Continuous
 62
     1
370
    15
100
AcDbSpline
210
0.0
220
0.0
230
1.0
 70
     8
 71
     3
 72
     8
 73
     4
 74
     0
 42
0.000000001
 43
0.00000001
 40
0.0
 40
0.0
 40
0.0
 40
0.0
 40
1.0
 40
1.0
 40
1.0
 40
1.0
 10
-37.84524193720736
 20
-0.8331182780105237
 30
0.0
 10
-37.7396429215656
 20
-0.9582481903078062
 30
0.0
 10
-37.6454132265646
 20
-1.078662238747341
 30
0.0
 10
-37.5652293561366
 20
-1.193250240182866
 30
0.0
1001
PE_URL
1000

  0
LINE
  5
244
330
1F
100
AcDbEntity
  8
0
  6
Continuous
 62
     1
370
    15
100
AcDbLine
 10
-37.60285396425938
 20
-1.224821034981876
 30
0.0
 11
-39.6875
 21
-0.000000000000032
 31
0.0
1001
PE_URL
1000

  0
LINE
  5
245
330
1F
100
AcDbEntity
  8
0
  6
Continuous
 62
     1
370
    15
100
AcDbLine
 10
-39.6875
 20
-0.000000000000032
 30
0.0
 11
-39.6875
 21
0.7954653315413331
 31
0.0
1001
PE_URL
1000

  0
SPLINE
  5
246
330
1F
100
AcDbEntity
  8
0
  6
Continuous
 62
     1
370
    15
100
AcDbSpline
210
0.0
220
0.0
230
1.0
 70
     8
 71
     3
 72
    10
 73
     6
 74
     0
 42
0.000000001
 43
0.00000001
 40
0.0
 40
0.0
 40
0.0
 40
0.0
 40
0.5
 40
0.5
 40
1.0
 40
1.0
 40
1.0
 40
1.0
 10
-39.6875
 20
0.7954653315413331
 30
0.0
 10
-39.36859211162219
 20
0.5447485852177323
 30
0.0
 10
-39.05501432591608
 20
0.2837485129517923
 30
0.0
 10
-38.43878483522496
 20
-0.2593312347788306
 30
0.0
 10
-38.13326430232466
 20
-0.5442727749849716
 30
0.0
 10
-37.84524193720735
 20
-0.8331182780105273
 30
0.0
1001
PE_URL
1000

  0
SPLINE
  5
247
330
1F
100
AcDbEntity
  8
0
  6
Continuous
 62
     1
370
    15
100
AcDbSpline
210
0.0
220
0.0
230
1.0
 70
     8
 71
     3
 72
    14
 73
    10
 74
     0
 42
0.000000001
 43
0.00000001
 40
0.0
 40
0.0
 40
0.0
 40
0.0
 40
0.1135694061716363
 40
0.2269134711794779
 40
0.3919973873900214
 40
0.5571480868955452
 40
0.7224398324910652
 40
0.8878041305250158
 40
1.0
 40
1.0
 40
1.0
 40
1.0
 10
-37.84524193693942
 20
-0.8331182781261965
 30
0.0
 10
-37.58568290717263
 20
-0.9434285346527922
 30
0.0
 10
-37.06707985723374
 20
-1.163830173253594
 30
0.0
 10
-36.17160756554291
 20
-1.50912717997835
 30
0.0
 10
-35.15791113665233
 20
-1.848041855305361
 30
0.0
 10
-34.02558434807773
 20
-2.138269331265235
 30
0.0
 10
-32.8924356316403
 20
-2.321525818734564
 30
0.0
 10
-31.88019837257555
 20
-2.399899766054485
 30
0.0
 10
-31.24591395183103
 20
-2.366315298174637
 30
0.0
 10
-30.98952236395098
 20
-2.3527397242425
 30
0.0
1001
PE_URL
1000

  0
SPLINE
  5
248
330
1F
100
AcDbEntity
  8
0
  6
Continuous
 62
     1
370
    15
100
AcDbSpline
210
0.0
220
0.0
230
1.0
 70
    24
 71
     3
 72
    10
 73
     6
 74
     0
 42
0.000000001
 43
0.00000001
 40
0.0
 40
0.0
 40
0.0
 40
0.0
 40
0.5
 40
0.5
 40
1.0
 40
1.0
 40
1.0
 40
1.0
 10
-39.6875
 20
2.348425255658487
 30
0.0
 10
-39.6875
 20
2.168400150081609
 30
0.0
 10
-39.6875
 20
1.940931526315318
 30
0.0
 10
-39.6875
 20
1.412088867471915
 30
0.0
 10
-39.6875
 20
1.111172935957384
 30
0.0
 10
-39.6875
 20
0.7954653315414291
 30
0.0
1001
PE_URL
1000

  0
SPLINE
  5
249
330
1F
100
AcDbEntity
  8
0
  6
Continuous
 62
     1
370
    15
100
AcDbSpline
210
0.0
220
0.0
230
1.0
 70
    24
 71
     3
 72
     8
 73
     4
 74
     0
 42
0.000000001
 43
0.00000001
 40
0.0
 40
0.0
 40
0.0
 40
0.0
 40
1.0
 40
1.0
 40
1.0
 40
1.0
 10
-37.87592143434581
 20
-1.453951848417912
 30
0.0
 10
-37.77778714597724
 20
-1.371607403241999
 30
0.0
 10
-37.67360854251187
 20
-1.284191175497583
 30
0.0
 10
-37.56522935613665
 20
-1.193250240182842
 30
0.0
1001
PE_URL
1000

  0
LINE
  5
24A
330
1F
100
AcDbEntity
  8
0
  6
Continuous
 62
     1
370
    15
100
AcDbLine
 10
-39.6875
 20
-2.083593750000031
 30
0.0
 11
-38.58037667055923
 21
-2.034660913065583
 31
0.0
1001
PE_URL
1000

  0
SPLINE
  5
24B
330
1F
100
AcDbEntity
  8
0
  6
Continuous
 62
     1
370
    15
100
AcDbSpline
210
0.0
220
0.0
230
1.0
 70
     8
 71
     3
 72
     8
 73
     4
 74
     0
 42
0.000000001
 43
0.00000001
 40
0.0
 40
0.0
 40
0.0
 40
0.0
 40
1.0
 40
1.0
 40
1.0
 40
1.0
 10
-39.6875
 20
-2.083593750000031
 30
0.0
 10
-39.07528709205735
 20
-1.917440724658711
 30
0.0
 10
-38.46870220040206
 20
-1.713365409386217
 30
0.0
 10
-37.87592143435749
 20
-1.453951848423028
 30
0.0
1001
PE_URL
1000

  0
SPLINE
  5
24C
330
1F
100
AcDbEntity
  8
0
  6
Continuous
 62
     1
370
    15
100
AcDbSpline
210
0.0
220
0.0
230
1.0
 70
     8
 71
     3
 72
    13
 73
     9
 74
     0
 42
0.000000001
 43
0.00000001
 40
0.0
 40
0.0
 40
0.0
 40
0.0
 40
0.0774143864686523
 40
0.2545454578632337
 40
0.4315029780314015
 40
0.6083546598352705
 40
0.8041763950937864
 40
1.0
 40
1.0
 40
1.0
 40
1.0
 10
-33.38809984835547
 20
2.224592047199764
 30
0.0
 10
-33.2229289238052
 20
2.253708548707046
 30
0.0
 10
-32.6798320844036
 20
2.349446221581939
 30
0.0
 10
-31.75905003624222
 20
2.395181205322011
 30
0.0
 10
-30.62632224843169
 20
2.360096937136809
 30
0.0
 10
-29.45385585980589
 20
2.19828990020677
 30
0.0
 10
-28.24088336878555
 20
1.919291189923555
 30
0.0
 10
-27.40529578591246
 20
1.635707540978981
 30
0.0
 10
-26.98750000000001
 20
1.493915039616834
 30
0.0
1001
PE_URL
1000

  0
SPLINE
  5
24D
330
1F
100
AcDbEntity
  8
외형선
  6
Continuous
370
    15
100
AcDbSpline
210
0.0
220
0.0
230
1.0
 70
    24
 71
     3
 72
    14
 73
    10
 74
     0
 42
0.000000001
 43
0.00000001
 40
0.0
 40
0.0
 40
0.0
 40
0.0
 40
0.25
 40
0.25
 40
0.5
 40
0.5
 40
0.75
 40
0.75
 40
1.0
 40
1.0
 40
1.0
 40
1.0
 10
-26.9875
 20
-1.622545749684473
 30
0.0
 10
-26.9875
 20
-1.4172015882552
 30
0.0
 10
-26.9875
 20
-1.184988505503426
 30
0.0
 10
-26.9875
 20
-0.6821730255303216
 30
0.0
 10
-26.9875
 20
-0.4117404162516323
 30
0.0
 10
-26.9875
 20
0.1421445170313049
 30
0.0
 10
-26.9875
 20
0.4253017079861543
 30
0.0
 10
-26.9875
 20
0.9766019555399978
 30
0.0
 10
-26.9875
 20
1.244507124724166
 30
0.0
 10
-26.9875
 20
1.493915039616834
 30
0.0
  0
SPLINE
  5
24E
330
1F
100
AcDbEntity
  8
외형선
  6
Continuous
370
    15
100
AcDbSpline
210
0.0
220
0.0
230
1.0
 70
    24
 71
     3
 72
    12
 73
     8
 74
     0
 42
0.000000001
 43
0.00000001
 40
0.0
 40
0.0
 40
0.0
 40
0.0
 40
0.2955016248382243
 40
0.5111119884182902
 40
0.7329750671486617
 40
0.9271334332158456
 40
1.0
 40
1.0
 40
1.0
 40
1.0
 10
-26.98750000000001
 20
1.493915039616834
 30
0.0
 10
-26.98750000000001
 20
1.656852611358509
 30
0.0
 10
-26.98750000000001
 20
1.938676260641412
 30
0.0
 10
-26.98750000000001
 20
2.212962178304906
 30
0.0
 10
-26.98750000000001
 20
2.365766428193709
 30
0.0
 10
-26.98750000000001
 20
2.433532759083914
 30
0.0
 10
-26.98750000000001
 20
2.426133412163342
 30
0.0
 10
-26.98750000000001
 20
2.424114256121282
 30
0.0
  0
LINE
  5
24F
330
1F
100
AcDbEntity
  8
0
  6
Continuous
 62
     1
370
    15
100
AcDbLine
 10
-39.6875
 20
-0.000000000000032
 30
0.0
 11
-39.6875
 21
-2.083593750000031
 31
0.0
1001
PE_URL
1000

  0
SPLINE
  5
250
330
1F
100
AcDbEntity
  8
0
  6
Continuous
 62
     1
370
    15
100
AcDbSpline
210
0.0
220
0.0
230
1.0
 70
     8
 71
     3
 72
    11
 73
     7
 74
     0
 42
0.000000001
 43
0.00000001
 40
0.0
 40
0.0
 40
0.0
 40
0.0
 40
0.1771451928187513
 40
0.451250599366375
 40
0.7254876246497934
 40
1.0
 40
1.0
 40
1.0
 40
1.0
 10
-35.6129415658515
 20
-1.994458752371209
 30
0.0
 10
-35.85351485778344
 20
-2.097761932391254
 30
0.0
 10
-36.46633895110728
 20
-2.360911166975299
 30
0.0
 10
-37.45155715448522
 20
-2.664183757357311
 30
0.0
 10
-38.56909610002432
 20
-2.907642791771583
 30
0.0
 10
-39.3145740120099
 20
-2.951904697186745
 30
0.0
 10
-39.6875
 20
-2.974046754707015
 30
0.0
1001
PE_URL
1000

  0
SPLINE
  5
251
330
1F
100
AcDbEntity
  8
0
  6
Continuous
 62
     1
370
    15
100
AcDbSpline
210
0.0
220
0.0
230
1.0
 70
    24
 71
     3
 72
    10
 73
     6
 74
     0
 42
0.000000001
 43
0.00000001
 40
0.0
 40
0.0
 40
0.0
 40
0.0
 40
0.5
 40
0.5
 40
1.0
 40
1.0
 40
1.0
 40
1.0
 10
-39.6875
 20
-2.083593750000031
 30
0.0
 10
-39.6875
 20
-2.20989601440305
 30
0.0
 10
-39.6875
 20
-2.356670942487305
 30
0.0
 10
-39.6875
 20
-2.664604346297576
 30
0.0
 10
-39.6875
 20
-2.824976398752849
 30
0.0
 10
-39.6875
 20
-2.974046754707015
 30
0.0
1001
PE_URL
1000

  0
SPLINE
  5
252
330
1F
100
AcDbEntity
  8
0
  6
Continuous
 62
     1
370
    15
100
AcDbSpline
210
0.0
220
0.0
230
1.0
 70
     8
 71
     3
 72
     9
 73
     5
 74
     0
 42
0.000000001
 43
0.00000001
 40
0.0
 40
0.0
 40
0.0
 40
0.0
 40
0.2782293298072954
 40
1.0
 40
1.0
 40
1.0
 40
1.0
 10
-28.53465767429334
 20
2.343121957578674
 30
0.0
 10
-28.39116324016688
 20
2.397371363987247
 30
0.0
 10
-27.87542166027721
 20
2.592352268574647
 30
0.0
 10
-27.35971903178388
 20
2.706360464744819
 30
0.0
 10
-26.98749999999612
 20
2.788648236902024
 30
0.0
1001
PE_URL
1000

  0
SPLINE
  5
253
330
1F
100
AcDbEntity
  8
외형선
  6
Continuous
370
    15
100
AcDbSpline
210
0.0
220
0.0
230
1.0
 70
    24
 71
     3
 72
     8
 73
     4
 74
     0
 42
0.000000001
 43
0.00000001
 40
0.0
 40
0.0
 40
0.0
 40
0.0
 40
1.0
 40
1.0
 40
1.0
 40
1.0
 10
-26.98750000000022
 20
2.419365548033582
 30
0.0
 10
-26.98750000000022
 20
2.549790905058988
 30
0.0
 10
-26.98750000000022
 20
2.673708795636465
 30
0.0
 10
-26.98750000000022
 20
2.788648236892673
 30
0.0
  0
LINE
  5
255
330
1F
100
AcDbEntity
  8
외형선
  6
Continuous
370
    15
100
AcDbLine
 10
-4.838700000000049
 20
4.762499999999995
 30
0.0
 11
-19.32229051085747
 21
4.762499999999994
 31
0.0
  0
ENDSEC
  0
SECTION
  2
OBJECTS
  0
DICTIONARY
  5
C
330
0
100
AcDbDictionary
281
     1
  3
ACAD_DETAILVIEWSTYLE
350
1E8
  3
ACAD_GROUP
350
D
  3
ACAD_LAYOUT
350
1A
  3
ACAD_MLINESTYLE
350
17
  3
ACAD_PLOTSETTINGS
350
19
  3
ACAD_PLOTSTYLENAME
350
E
  3
ACAD_SCALELIST
350
47
  3
ACAD_SECTIONVIEWSTYLE
350
1E9
  3
AcDbVariableDictionary
350
1E3
  3
APPDATA
350
15A
  3
DWGPROPS
350
256
  0
DICTIONARY
  5
193
330
2
100
AcDbDictionary
280
     1
281
     1
  3
ACAD_LAYERSTATES
360
194
  0
DICTIONARY
  5
1E8
102
{ACAD_REACTORS
330
C
102
}
330
C
100
AcDbDictionary
281
     1
  0
DICTIONARY
  5
D
102
{ACAD_REACTORS
330
C
102
}
330
C
100
AcDbDictionary
281
     1
  0
DICTIONARY
  5
1A
102
{ACAD_REACTORS
330
C
102
}
330
C
100
AcDbDictionary
281
     1
  3
Layout1
350
1E
  3
Layout2
350
26
  3
Model
350
22
  0
DICTIONARY
  5
17
102
{ACAD_REACTORS
330
C
102
}
330
C
100
AcDbDictionary
281
     1
  3
Standard
350
18
  0
DICTIONARY
  5
19
102
{ACAD_REACTORS
330
C
102
}
330
C
100
AcDbDictionary
281
     1
  0
ACDBDICTIONARYWDFLT
  5
E
102
{ACAD_REACTORS
330
C
102
}
330
C
100
AcDbDictionary
281
     1
  3
Normal
350
F
100
AcDbDictionaryWithDefault
340
F
  0
DICTIONARY
  5
47
102
{ACAD_REACTORS
330
C
102
}
330
C
100
AcDbDictionary
281
     1
  3
A0
350
48
  3
A1
350
49
  3
A2
350
4A
  3
A3
350
4B
  3
A4
350
4C
  3
A5
350
4D
  3
A6
350
4E
  3
A7
350
4F
  3
A8
350
50
  3
A9
350
51
  3
B0
350
52
  3
B1
350
53
  3
B2
350
54
  3
B3
350
55
  3
B4
350
56
  3
B5
350
57
  3
B6
350
58
  3
B7
350
59
  3
B8
350
5A
  3
B9
350
5B
  3
C0
350
5C
  3
C1
350
5D
  3
C2
350
5E
  3
C3
350
5F
  3
C4
350
60
  3
C5
350
61
  3
C6
350
62
  3
C7
350
63
  3
C8
350
64
  3
C9
350
65
  3
D0
350
66
  3
D1
350
67
  3
D2
350
68
  0
DICTIONARY
  5
1E9
102
{ACAD_REACTORS
330
C
102
}
330
C
100
AcDbDictionary
281
     1
  0
DICTIONARY
  5
1E3
102
{ACAD_REACTORS
330
C
102
}
330
C
100
AcDbDictionary
281
     1
  0
DICTIONARY
  5
15A
102
{ACAD_REACTORS
330
C
102
}
330
C
100
AcDbDictionary
281
     1
  0
XRECORD
  5
256
102
{ACAD_REACTORS
330
C
102
}
330
C
100
AcDbXrecord
280
     1
  1
DWGPROPS COOKIE
  2

  3

  4

  6

  7

  8
120170442
  9

300
=
301
=
302
=
303
=
304
=
305
=
306
=
307
=
308
=
309
=
 40
0.0
 41
2458313.020252847
 42
2458323.973275567
  1

 90
        0
  0
DICTIONARY
  5
194
102
{ACAD_REACTORS
330
193
102
}
330
193
100
AcDbDictionary
281
     1
  0
LAYOUT
  5
1E
102
{ACAD_REACTORS
330
1A
102
}
330
1A
100
AcDbPlotSettings
  1

  2
none_device
  4

  6

 40
0.0
 41
0.0
 42
0.0
 43
0.0
 44
0.0
 45
0.0
 46
0.0
 47
0.0
 48
0.0
 49
0.0
140
0.0
141
0.0
142
1.0
143
1.0
 70
   688
 72
     1
 73
     0
 74
     5
  7

 75
    16
147
1.0
148
0.0
149
0.0
100
AcDbLayout
  1
Layout1
 70
     1
 71
     1
 10
0.0
 20
0.0
 11
420.0
 21
297.0
 12
0.0
 22
0.0
 32
0.0
 14
1.000000000000000E+20
 24
1.000000000000000E+20
 34
1.000000000000000E+20
 15
-1.000000000000000E+20
 25
-1.000000000000000E+20
 35
-1.000000000000000E+20
146
0.0
 13
0.0
 23
0.0
 33
0.0
 16
1.0
 26
0.0
 36
0.0
 17
0.0
 27
1.0
 37
0.0
 76
     0
330
1B
  0
LAYOUT
  5
26
102
{ACAD_REACTORS
330
1A
102
}
330
1A
100
AcDbPlotSettings
  1

  2
none_device
  4

  6

 40
0.0
 41
0.0
 42
0.0
 43
0.0
 44
0.0
 45
0.0
 46
0.0
 47
0.0
 48
0.0
 49
0.0
140
0.0
141
0.0
142
1.0
143
1.0
 70
   688
 72
     1
 73
     0
 74
     5
  7

 75
    16
147
1.0
148
0.0
149
0.0
100
AcDbLayout
  1
Layout2
 70
     1
 71
     2
 10
0.0
 20
0.0
 11
0.0
 21
0.0
 12
0.0
 22
0.0
 32
0.0
 14
0.0
 24
0.0
 34
0.0
 15
0.0
 25
0.0
 35
0.0
146
0.0
 13
0.0
 23
0.0
 33
0.0
 16
1.0
 26
0.0
 36
0.0
 17
0.0
 27
1.0
 37
0.0
 76
     0
330
23
  0
LAYOUT
  5
22
102
{ACAD_REACTORS
330
1A
102
}
330
1A
100
AcDbPlotSettings
  1

  2
none_device
  4
ANSI_A_(11.00_x_8.50_Inches)
  6

 40
6.35
 41
19.05
 42
6.35000508
 43
19.05000254
 44
279.4
 45
215.9
 46
89.87060011157284
 47
69.76675427375883
 48
0.0
 49
0.0
140
0.0
141
0.0
142
0.0468513381585266
143
1.0
 70
  1696
 72
     0
 73
     0
 74
     0
  7

 75
     0
147
0.0235690232323232
148
0.0
149
0.0
100
AcDbLayout
  1
Model
 70
     1
 71
     0
 10
0.0
 20
0.0
 11
420.0
 21
297.0
 12
0.0
 22
0.0
 32
0.0
 14
-54.06250000000009
 24
-49.97180738881175
 34
0.0
 15
97.79412503295507
 25
40.20304675470712
 35
0.0
146
0.0
 13
0.0
 23
0.0
 33
0.0
 16
1.0
 26
0.0
 36
0.0
 17
0.0
 27
1.0
 37
0.0
 76
     0
330
1F
331
29
  0
MLINESTYLE
  5
18
102
{ACAD_REACTORS
330
17
102
}
330
17
100
AcDbMlineStyle
  2
Standard
 70
     0
  3

 62
   256
 51
90.0
 52
90.0
 71
     2
 49
0.5
 62
   256
  6
BYLAYER
 49
-0.5
 62
   256
  6
BYLAYER
  0
ACDBPLACEHOLDER
  5
F
102
{ACAD_REACTORS
330
E
102
}
330
E
  0
SCALE
  5
48
102
{ACAD_REACTORS
330
47
102
}
330
47
100
AcDbScale
 70
     0
300
1:1
140
1.0
141
1.0
290
     1
  0
SCALE
  5
49
102
{ACAD_REACTORS
330
47
102
}
330
47
100
AcDbScale
 70
     0
300
1:2
140
1.0
141
2.0
290
     0
  0
SCALE
  5
4A
102
{ACAD_REACTORS
330
47
102
}
330
47
100
AcDbScale
 70
     0
300
1:4
140
1.0
141
4.0
290
     0
  0
SCALE
  5
4B
102
{ACAD_REACTORS
330
47
102
}
330
47
100
AcDbScale
 70
     0
300
1:5
140
1.0
141
5.0
290
     0
  0
SCALE
  5
4C
102
{ACAD_REACTORS
330
47
102
}
330
47
100
AcDbScale
 70
     0
300
1:8
140
1.0
141
8.0
290
     0
  0
SCALE
  5
4D
102
{ACAD_REACTORS
330
47
102
}
330
47
100
AcDbScale
 70
     0
300
1:10
140
1.0
141
10.0
290
     0
  0
SCALE
  5
4E
102
{ACAD_REACTORS
330
47
102
}
330
47
100
AcDbScale
 70
     0
300
1:16
140
1.0
141
16.0
290
     0
  0
SCALE
  5
4F
102
{ACAD_REACTORS
330
47
102
}
330
47
100
AcDbScale
 70
     0
300
1:20
140
1.0
141
20.0
290
     0
  0
SCALE
  5
50
102
{ACAD_REACTORS
330
47
102
}
330
47
100
AcDbScale
 70
     0
300
1:30
140
1.0
141
30.0
290
     0
  0
SCALE
  5
51
102
{ACAD_REACTORS
330
47
102
}
330
47
100
AcDbScale
 70
     0
300
1:40
140
1.0
141
40.0
290
     0
  0
SCALE
  5
52
102
{ACAD_REACTORS
330
47
102
}
330
47
100
AcDbScale
 70
     0
300
1:50
140
1.0
141
50.0
290
     0
  0
SCALE
  5
53
102
{ACAD_REACTORS
330
47
102
}
330
47
100
AcDbScale
 70
     0
300
1:100
140
1.0
141
100.0
290
     0
  0
SCALE
  5
54
102
{ACAD_REACTORS
330
47
102
}
330
47
100
AcDbScale
 70
     0
300
2:1
140
2.0
141
1.0
290
     0
  0
SCALE
  5
55
102
{ACAD_REACTORS
330
47
102
}
330
47
100
AcDbScale
 70
     0
300
4:1
140
4.0
141
1.0
290
     0
  0
SCALE
  5
56
102
{ACAD_REACTORS
330
47
102
}
330
47
100
AcDbScale
 70
     0
300
8:1
140
8.0
141
1.0
290
     0
  0
SCALE
  5
57
102
{ACAD_REACTORS
330
47
102
}
330
47
100
AcDbScale
 70
     0
300
10:1
140
10.0
141
1.0
290
     0
  0
SCALE
  5
58
102
{ACAD_REACTORS
330
47
102
}
330
47
100
AcDbScale
 70
     0
300
100:1
140
100.0
141
1.0
290
     0
  0
SCALE
  5
59
102
{ACAD_REACTORS
330
47
102
}
330
47
100
AcDbScale
 70
     0
300
1/128" = 1'-0"
140
0.0078125
141
12.0
290
     0
  0
SCALE
  5
5A
102
{ACAD_REACTORS
330
47
102
}
330
47
100
AcDbScale
 70
     0
300
1/64" = 1'-0"
140
0.015625
141
12.0
290
     0
  0
SCALE
  5
5B
102
{ACAD_REACTORS
330
47
102
}
330
47
100
AcDbScale
 70
     0
300
1/32" = 1'-0"
140
0.03125
141
12.0
290
     0
  0
SCALE
  5
5C
102
{ACAD_REACTORS
330
47
102
}
330
47
100
AcDbScale
 70
     0
300
1/16" = 1'-0"
140
0.0625
141
12.0
290
     0
  0
SCALE
  5
5D
102
{ACAD_REACTORS
330
47
102
}
330
47
100
AcDbScale
 70
     0
300
3/32" = 1'-0"
140
0.09375
141
12.0
290
     0
  0
SCALE
  5
5E
102
{ACAD_REACTORS
330
47
102
}
330
47
100
AcDbScale
 70
     0
300
1/8" = 1'-0"
140
0.125
141
12.0
290
     0
  0
SCALE
  5
5F
102
{ACAD_REACTORS
330
47
102
}
330
47
100
AcDbScale
 70
     0
300
3/16" = 1'-0"
140
0.1875
141
12.0
290
     0
  0
SCALE
  5
60
102
{ACAD_REACTORS
330
47
102
}
330
47
100
AcDbScale
 70
     0
300
1/4" = 1'-0"
140
0.25
141
12.0
290
     0
  0
SCALE
  5
61
102
{ACAD_REACTORS
330
47
102
}
330
47
100
AcDbScale
 70
     0
300
3/8" = 1'-0"
140
0.375
141
12.0
290
     0
  0
SCALE
  5
62
102
{ACAD_REACTORS
330
47
102
}
330
47
100
AcDbScale
 70
     0
300
1/2" = 1'-0"
140
0.5
141
12.0
290
     0
  0
SCALE
  5
63
102
{ACAD_REACTORS
330
47
102
}
330
47
100
AcDbScale
 70
     0
300
3/4" = 1'-0"
140
0.75
141
12.0
290
     0
  0
SCALE
  5
64
102
{ACAD_REACTORS
330
47
102
}
330
47
100
AcDbScale
 70
     0
300
1" = 1'-0"
140
1.0
141
12.0
290
     0
  0
SCALE
  5
65
102
{ACAD_REACTORS
330
47
102
}
330
47
100
AcDbScale
 70
     0
300
1-1/2" = 1'-0"
140
1.5
141
12.0
290
     0
  0
SCALE
  5
66
102
{ACAD_REACTORS
330
47
102
}
330
47
100
AcDbScale
 70
     0
300
3" = 1'-0"
140
3.0
141
12.0
290
     0
  0
SCALE
  5
67
102
{ACAD_REACTORS
330
47
102
}
330
47
100
AcDbScale
 70
     0
300
6" = 1'-0"
140
6.0
141
12.0
290
     0
  0
SCALE
  5
68
102
{ACAD_REACTORS
330
47
102
}
330
47
100
AcDbScale
 70
     0
300
1'-0" = 1'-0"
140
12.0
141
12.0
290
     0
  0
ENDSEC
  0
EOF
