  0
SECTION
  2
HEADER
  9
$ACADVER
  1
AC1015
  9
$ACADMAINTVER
 70
     6
  9
$DWGCODEPAGE
  3
ANSI_949
  9
$INSBASE
 10
0.0
 20
0.0
 30
0.0
  9
$EXTMIN
 10
-54.06250000000009
 20
-49.97180738881175
 30
0.0
  9
$EXTMAX
 10
99.38162503295506
 20
37.61649999999996
 30
0.0
  9
$LIMMIN
 10
0.0
 20
0.0
  9
$LIMMAX
 10
420.0
 20
297.0
  9
$ORTHOMODE
 70
     1
  9
$REGENMODE
 70
     1
  9
$FILLMODE
 70
     1
  9
$QTEXTMODE
 70
     0
  9
$MIRRTEXT
 70
     1
  9
$LTSCALE
 40
1.0
  9
$ATTMODE
 70
     1
  9
$TEXTSIZE
 40
3.5
  9
$TRACEWID
 40
1.0
  9
$TEXTSTYLE
  7
Standard
  9
$CLAYER
  8
0
  9
$CELTYPE
  6
ByLayer
  9
$CECOLOR
 62
   256
  9
$CELTSCALE
 40
1.0
  9
$DISPSILH
 70
     0
  9
$DIMSCALE
 40
1.0
  9
$DIMASZ
 40
3.302
  9
$DIMEXO
 40
1.0
  9
$DIMDLI
 40
3.75
  9
$DIMRND
 40
0.0
  9
$DIMDLE
 40
0.0
  9
$DIMEXE
 40
1.0
  9
$DIMTP
 40
0.0
  9
$DIMTM
 40
0.0
  9
$DIMTXT
 40
3.5
  9
$DIMCEN
 40
2.5
  9
$DIMTSZ
 40
0.0
  9
$DIMTOL
 70
     0
  9
$DIMLIM
 70
     0
  9
$DIMTIH
 70
     1
  9
$DIMTOH
 70
     1
  9
$DIMSE1
 70
     0
  9
$DIMSE2
 70
     0
  9
$DIMTAD
 70
     1
  9
$DIMZIN
 70
     0
  9
$DIMBLK
  1

  9
$DIMASO
 70
     1
  9
$DIMSHO
 70
     1
  9
$DIMPOST
  1

  9
$DIMAPOST
  1

  9
$DIMALT
 70
     0
  9
$DIMALTD
 70
     3
  9
$DIMALTF
 40
0.0393700787401575
  9
$DIMLFAC
 40
1.0
  9
$DIMTOFL
 70
     1
  9
$DIMTVP
 40
0.0
  9
$DIMTIX
 70
     0
  9
$DIMSOXD
 70
     0
  9
$DIMSAH
 70
     0
  9
$DIMBLK1
  1

  9
$DIMBLK2
  1

  9
$DIMSTYLE
  2
ISO-25
  9
$DIMCLRD
 70
     0
  9
$DIMCLRE
 70
     0
  9
$DIMCLRT
 70
     0
  9
$DIMTFAC
 40
1.0
  9
$DIMGAP
 40
1.524
  9
$DIMJUST
 70
     0
  9
$DIMSD1
 70
     0
  9
$DIMSD2
 70
     0
  9
$DIMTOLJ
 70
     0
  9
$DIMTZIN
 70
     0
  9
$DIMALTZ
 70
     0
  9
$DIMALTTZ
 70
     0
  9
$DIMUPT
 70
     0
  9
$DIMDEC
 70
     2
  9
$DIMTDEC
 70
     2
  9
$DIMALTU
 70
     2
  9
$DIMALTTD
 70
     3
  9
$DIMTXSTY
  7
Standard
  9
$DIMAUNIT
 70
     0
  9
$DIMADEC
 70
     2
  9
$DIMALTRND
 40
0.0
  9
$DIMAZIN
 70
     0
  9
$DIMDSEP
 70
    44
  9
$DIMATFIT
 70
     3
  9
$DIMFRAC
 70
     0
  9
$DIMLDRBLK
  1

  9
$DIMLUNIT
 70
     2
  9
$DIMLWD
 70
    -2
  9
$DIMLWE
 70
    -2
  9
$DIMTMOVE
 70
     0
  9
$LUNITS
 70
     2
  9
$LUPREC
 70
     2
  9
$SKETCHINC
 40
1.0
  9
$FILLETRAD
 40
10.0
  9
$AUNITS
 70
     0
  9
$AUPREC
 70
     2
  9
$MENU
  1
.
  9
$ELEVATION
 40
0.0
  9
$PELEVATION
 40
0.0
  9
$THICKNESS
 40
0.0
  9
$LIMCHECK
 70
     0
  9
$CHAMFERA
 40
0.0
  9
$CHAMFERB
 40
0.0
  9
$CHAMFERC
 40
0.0
  9
$CHAMFERD
 40
0.0
  9
$SKPOLY
 70
     0
  9
$TDCREATE
 40
2458313.394617477
  9
$TDUCREATE
 40
2458313.019617477
  9
$TDUPDATE
 40
2458324.341492997
  9
$TDUUPDATE
 40
2458323.966492997
  9
$TDINDWG
 40
0.0014283912
  9
$TDUSRTIMER
 40
0.0014283796
  9
$USRTIMER
 70
     1
  9
$ANGBASE
 50
0.0
  9
$ANGDIR
 70
     0
  9
$PDMODE
 70
     0
  9
$PDSIZE
 40
-1.0
  9
$PLINEWID
 40
0.0
  9
$SPLFRAME
 70
     0
  9
$SPLINETYPE
 70
     6
  9
$SPLINESEGS
 70
     8
  9
$HANDSEED
  5
256
  9
$SURFTAB1
 70
     6
  9
$SURFTAB2
 70
     6
  9
$SURFTYPE
 70
     6
  9
$SURFU
 70
     6
  9
$SURFV
 70
     6
  9
$UCSBASE
  2

  9
$UCSNAME
  2

  9
$UCSORG
 10
0.0
 20
0.0
 30
0.0
  9
$UCSXDIR
 10
1.0
 20
0.0
 30
0.0
  9
$UCSYDIR
 10
0.0
 20
1.0
 30
0.0
  9
$UCSORTHOREF
  2

  9
$UCSORTHOVIEW
 70
     0
  9
$UCSORGTOP
 10
0.0
 20
0.0
 30
0.0
  9
$UCSORGBOTTOM
 10
0.0
 20
0.0
 30
0.0
  9
$UCSORGLEFT
 10
0.0
 20
0.0
 30
0.0
  9
$UCSORGRIGHT
 10
0.0
 20
0.0
 30
0.0
  9
$UCSORGFRONT
 10
0.0
 20
0.0
 30
0.0
  9
$UCSORGBACK
 10
0.0
 20
0.0
 30
0.0
  9
$PUCSBASE
  2

  9
$PUCSNAME
  2

  9
$PUCSORG
 10
0.0
 20
0.0
 30
0.0
  9
$PUCSXDIR
 10
1.0
 20
0.0
 30
0.0
  9
$PUCSYDIR
 10
0.0
 20
1.0
 30
0.0
  9
$PUCSORTHOREF
  2

  9
$PUCSORTHOVIEW
 70
     0
  9
$PUCSORGTOP
 10
0.0
 20
0.0
 30
0.0
  9
$PUCSORGBOTTOM
 10
0.0
 20
0.0
 30
0.0
  9
$PUCSORGLEFT
 10
0.0
 20
0.0
 30
0.0
  9
$PUCSORGRIGHT
 10
0.0
 20
0.0
 30
0.0
  9
$PUCSORGFRONT
 10
0.0
 20
0.0
 30
0.0
  9
$PUCSORGBACK
 10
0.0
 20
0.0
 30
0.0
  9
$USERI1
 70
     0
  9
$USERI2
 70
     0
  9
$USERI3
 70
     0
  9
$USERI4
 70
     0
  9
$USERI5
 70
     0
  9
$USERR1
 40
0.0
  9
$USERR2
 40
0.0
  9
$USERR3
 40
0.0
  9
$USERR4
 40
0.0
  9
$USERR5
 40
0.0
  9
$WORLDVIEW
 70
     1
  9
$SHADEDGE
 70
     3
  9
$SHADEDIF
 70
    70
  9
$TILEMODE
 70
     1
  9
$MAXACTVP
 70
    64
  9
$PINSBASE
 10
0.0
 20
0.0
 30
0.0
  9
$PLIMCHECK
 70
     0
  9
$PEXTMIN
 10
1.000000000000000E+20
 20
1.000000000000000E+20
 30
1.000000000000000E+20
  9
$PEXTMAX
 10
-1.000000000000000E+20
 20
-1.000000000000000E+20
 30
-1.000000000000000E+20
  9
$PLIMMIN
 10
0.0
 20
0.0
  9
$PLIMMAX
 10
0.0
 20
0.0
  9
$UNITMODE
 70
     0
  9
$VISRETAIN
 70
     1
  9
$PLINEGEN
 70
     0
  9
$PSLTSCALE
 70
     1
  9
$TREEDEPTH
 70
  3020
  9
$CMLSTYLE
  2
Standard
  9
$CMLJUST
 70
     0
  9
$CMLSCALE
 40
20.0
  9
$PROXYGRAPHICS
 70
     1
  9
$MEASUREMENT
 70
     1
  9
$CELWEIGHT
370
    -1
  9
$ENDCAPS
280
     0
  9
$JOINSTYLE
280
     0
  9
$LWDISPLAY
290
     1
  9
$INSUNITS
 70
     4
  9
$HYPERLINKBASE
  1

  9
$STYLESHEET
  1

  9
$XEDIT
290
     1
  9
$CEPSNTYPE
380
     0
  9
$PSTYLEMODE
290
     1
  9
$FINGERPRINTGUID
  2
{2542AC09-84B1-44CB-99D1-CBE9C9B0D675}
  9
$VERSIONGUID
  2
{FAEB1C32-E019-11D5-929B-00C0DF256EC4}
  9
$EXTNAMES
290
     1
  9
$PSVPSCALE
 40
0.0
  9
$OLESTARTUP
290
     0
  0
ENDSEC
  0
SECTION
  2
CLASSES
  0
CLASS
  1
ACDBDICTIONARYWDFLT
  2
AcDbDictionaryWithDefault
  3
ObjectDBX Classes
 90
        0
280
     0
281
     0
  0
CLASS
  1
VISUALSTYLE
  2
AcDbVisualStyle
  3
ObjectDBX Classes
 90
     4095
280
     0
281
     0
  0
CLASS
  1
MATERIAL
  2
AcDbMaterial
  3
ObjectDBX Classes
 90
     1153
280
     0
281
     0
  0
CLASS
  1
SCALE
  2
AcDbScale
  3
ObjectDBX Classes
 90
     1153
280
     0
281
     0
  0
CLASS
  1
SUN
  2
AcDbSun
  3
SCENEOE
 90
     1153
280
     0
281
     0
  0
CLASS
  1
ACDBPLACEHOLDER
  2
AcDbPlaceHolder
  3
ObjectDBX Classes
 90
        0
280
     0
281
     0
  0
CLASS
  1
LAYOUT
  2
AcDbLayout
  3
ObjectDBX Classes
 90
        0
280
     0
281
     0
  0
CLASS
  1
TABLESTYLE
  2
AcDbTableStyle
  3
ObjectDBX Classes
 90
     4095
280
     0
281
     0
  0
CLASS
  1
MLEADERSTYLE
  2
AcDbMLeaderStyle
  3
ACDB_MLEADERSTYLE_CLASS
 90
     4095
280
     0
281
     0
  0
CLASS
  1
DICTIONARYVAR
  2
AcDbDictionaryVar
  3
ObjectDBX Classes
 90
        0
280
     0
281
     0
  0
ENDSEC
  0
SECTION
  2
TABLES
  0
TABLE
  2
VPORT
  5
8
330
0
100
AcDbSymbolTable
 70
     1
  0
VPORT
  5
29
330
8
100
AcDbSymbolTableRecord
100
AcDbViewportTableRecord
  2
*Active
 70
     0
 10
0.0
 20
0.0
 11
1.0
 21
1.0
 12
22.65956251647748
 22
-6.177653694405898
 13
0.0
 23
0.0
 14
10.0
 24
10.0
 15
10.0
 25
10.0
 16
0.0
 26
0.0
 36
1.0
 17
0.0
 27
0.0
 37
0.0
 40
89.34007353658794
 41
1.782762691853601
 42
50.0
 43
0.0
 44
0.0
 50
0.0
 51
0.0
 71
    16
 72
  2000
 73
     1
 74
     3
 75
     0
 76
     0
 77
     0
 78
     0
281
     0
 65
     1
110
0.0
120
0.0
130
0.0
111
1.0
121
0.0
131
0.0
112
0.0
122
1.0
132
0.0
 79
     0
146
0.0
  0
ENDTAB
  0
TABLE
  2
LTYPE
  5
5
330
0
100
AcDbSymbolTable
 70
     6
  0
LTYPE
  5
14
330
5
100
AcDbSymbolTableRecord
100
AcDbLinetypeTableRecord
  2
ByBlock
 70
     0
  3

 72
    65
 73
     0
 40
0.0
  0
LTYPE
  5
15
330
5
100
AcDbSymbolTableRecord
100
AcDbLinetypeTableRecord
  2
ByLayer
 70
     0
  3

 72
    65
 73
     0
 40
0.0
  0
LTYPE
  5
16
330
5
100
AcDbSymbolTableRecord
100
AcDbLinetypeTableRecord
  2
Continuous
 70
     0
  3
Solid line
 72
    65
 73
     0
 40
0.0
  0
LTYPE
  5
6A
330
5
100
AcDbSymbolTableRecord
100
AcDbLinetypeTableRecord
  2
HIDDEN
 70
     0
  3
Hidden __ __ __ __ __ __ __ __ __ __ __ __ __ __
 72
    65
 73
     2
 40
1.905
 49
1.27
 74
     0
 49
-0.635
 74
     0
  0
LTYPE
  5
6B
330
5
100
AcDbSymbolTableRecord
100
AcDbLinetypeTableRecord
  2
PHANTOM
 70
     0
  3
Phantom ______  __  __  ______  __  __  ______
 72
    65
 73
     6
 40
12.7
 49
6.35
 74
     0
 49
-1.27
 74
     0
 49
1.27
 74
     0
 49
-1.27
 74
     0
 49
1.27
 74
     0
 49
-1.27
 74
     0
  0
LTYPE
  5
6C
330
5
100
AcDbSymbolTableRecord
100
AcDbLinetypeTableRecord
  2
CENTER
 70
     0
  3
Center ____ _ ____ _ ____ _ ____ _ ____ _ ____
 72
    65
 73
     4
 40
10.16
 49
6.35
 74
     0
 49
-1.27
 74
     0
 49
1.27
 74
     0
 49
-1.27
 74
     0
  0
LTYPE
  5
6D
330
5
100
AcDbSymbolTableRecord
100
AcDbLinetypeTableRecord
  2
CENTERX2
 70
     0
  3
Center (2x) ________  __  ________  __  _____
 72
    65
 73
     4
 40
20.32
 49
12.7
 74
     0
 49
-2.54
 74
     0
 49
2.54
 74
     0
 49
-2.54
 74
     0
  0
LTYPE
  5
6E
330
5
100
AcDbSymbolTableRecord
100
AcDbLinetypeTableRecord
  2
DOT2
 70
     0
  3
Dot (.5x) ........................................
 72
    65
 73
     2
 40
0.635
 49
0.0
 74
     0
 49
-0.635
 74
     0
  0
ENDTAB
  0
TABLE
  2
LAYER
  5
2
102
{ACAD_XDICTIONARY
360
192
102
}
330
0
100
AcDbSymbolTable
 70
    18
  0
LAYER
  5
10
330
2
100
AcDbSymbolTableRecord
100
AcDbLayerTableRecord
  2
0
 70
     0
 62
     7
  6
Continuous
370
    -3
390
F
  0
LAYER
  5
6F
330
2
100
AcDbSymbolTableRecord
100
AcDbLayerTableRecord
  2
FORMAT
 70
     0
 62
     2
  6
Continuous
370
    -3
390
F
  0
LAYER
  5
70
330
2
100
AcDbSymbolTableRecord
100
AcDbLayerTableRecord
  2
외형선
 70
     0
 62
     4
  6
Continuous
370
    30
390
F
  0
LAYER
  5
71
330
2
100
AcDbSymbolTableRecord
100
AcDbLayerTableRecord
  2
숨은선
 70
     0
 62
     2
  6
HIDDEN
370
    15
390
F
  0
LAYER
  5
72
330
2
100
AcDbSymbolTableRecord
100
AcDbLayerTableRecord
  2
중심선
 70
     0
 62
     1
  6
CENTERX2
370
    -3
390
F
  0
LAYER
  5
73
330
2
100
AcDbSymbolTableRecord
100
AcDbLayerTableRecord
  2
파단선
 70
     0
 62
     4
  6
Continuous
370
    -3
390
F
  0
LAYER
  5
74
330
2
100
AcDbSymbolTableRecord
100
AcDbLayerTableRecord
  2
해칭선
 70
     0
 62
   100
  6
Continuous
370
    -3
390
F
  0
LAYER
  5
75
330
2
100
AcDbSymbolTableRecord
100
AcDbLayerTableRecord
  2
가는실선
 70
     0
 62
     4
  6
Continuous
370
    -3
390
F
  0
LAYER
  5
76
330
2
100
AcDbSymbolTableRecord
100
AcDbLayerTableRecord
  2
치수_보조선
 70
     0
 62
     4
  6
Continuous
370
    -3
390
F
  0
LAYER
  5
77
330
2
100
AcDbSymbolTableRecord
100
AcDbLayerTableRecord
  2
치수문자_일반주서
 70
     0
 62
     7
  6
Continuous
370
    15
390
F
  0
LAYER
  5
78
330
2
100
AcDbSymbolTableRecord
100
AcDbLayerTableRecord
  2
개별주서
 70
     0
 62
   100
  6
Continuous
370
    30
390
F
  0
LAYER
  5
79
330
2
100
AcDbSymbolTableRecord
100
AcDbLayerTableRecord
  2
중간선
 70
     0
 62
     2
  6
Continuous
370
    15
390
F
  0
LAYER
  5
7A
330
2
100
AcDbSymbolTableRecord
100
AcDbLayerTableRecord
  2
윤곽선
 70
     0
 62
     3
  6
Continuous
370
    40
390
F
  0
LAYER
  5
7B
330
2
100
AcDbSymbolTableRecord
100
AcDbLayerTableRecord
  2
중심마크
 70
     0
 62
   100
  6
Continuous
370
    30
390
F
  0
LAYER
  5
7C
330
2
100
AcDbSymbolTableRecord
100
AcDbLayerTableRecord
  2
가상선
 70
     0
 62
     4
  6
PHANTOM
370
    -3
390
F
  0
LAYER
  5
7D
330
2
100
AcDbSymbolTableRecord
100
AcDbLayerTableRecord
  2
특수지정선
 70
     0
 62
     5
  6
CENTERX2
370
    60
390
F
  0
LAYER
  5
7E
330
2
100
AcDbSymbolTableRecord
100
AcDbLayerTableRecord
  2
참조1
 70
     0
 62
    -4
  6
Continuous
370
    -3
390
F
  0
LAYER
  5
15B
330
2
100
AcDbSymbolTableRecord
100
AcDbLayerTableRecord
  2
Defpoints
 70
     0
 62
     7
  6
Continuous
290
     0
370
    -3
390
F
  0
ENDTAB
  0
TABLE
  2
STYLE
  5
3
330
0
100
AcDbSymbolTable
 70
     2
  0
STYLE
  5
11
330
3
100
AcDbSymbolTableRecord
100
AcDbTextStyleTableRecord
  2
Standard
 70
     0
 40
0.0
 41
1.0
 50
0.0
 71
     0
 42
3.5
  3
txt
  4

  0
STYLE
  5
94
330
3
100
AcDbSymbolTableRecord
100
AcDbTextStyleTableRecord
  2
SLDTEXTSTYLE0
 70
     0
 40
0.0
 41
0.75
 50
0.0
 71
     0
 42
3.5
  3
TXT
  4

  0
ENDTAB
  0
TABLE
  2
VIEW
  5
6
330
0
100
AcDbSymbolTable
 70
     0
  0
ENDTAB
  0
TABLE
  2
UCS
  5
7
330
0
100
AcDbSymbolTable
 70
     0
  0
ENDTAB
  0
TABLE
  2
APPID
  5
9
330
0
100
AcDbSymbolTable
 70
     2
  0
APPID
  5
12
330
9
100
AcDbSymbolTableRecord
100
AcDbRegAppTableRecord
  2
ACAD
 70
     0
  0
APPID
  5
162
330
9
100
AcDbSymbolTableRecord
100
AcDbRegAppTableRecord
  2
PE_URL
 70
     0
  0
ENDTAB
  0
TABLE
  2
DIMSTYLE
  5
A
330
0
100
AcDbSymbolTable
 70
     3
100
AcDbDimStyleTable
  0
DIMSTYLE
105
27
330
A
100
AcDbSymbolTableRecord
100
AcDbDimStyleTableRecord
  2
ISO-25
 70
     0
 41
2.5
 42
0.625
 43
3.75
 44
1.25
 73
     0
 74
     0
 77
     1
 78
     8
140
2.5
141
2.5
143
0.03937007874016
147
0.625
171
     3
172
     1
178
     0
271
     2
272
     2
274
     3
278
    44
283
     0
284
     8
340
11
  0
DIMSTYLE
105
DA
102
{ACAD_REACTORS
330
D9
330
EE
330
182
330
102
330
117
102
}
330
A
100
AcDbSymbolTableRecord
100
AcDbDimStyleTableRecord
  2
SLDDIMSTYLE0
 70
     0
 41
3.302
 44
0.0
 45
0.000000001
 73
     0
 74
     0
 77
     1
 78
    12
 79
     3
140
3.5
143
0.0393700787401575
147
0.875
148
0.000000001
170
     1
172
     1
173
     1
178
     0
271
     2
272
     2
276
     2
284
    12
289
     0
340
94
  0
DIMSTYLE
105
103
330
A
100
AcDbSymbolTableRecord
100
AcDbDimStyleTableRecord
  2
SLDDIMSTYLE1
 70
     0
 41
3.302
 44
0.0
 45
0.000000001
 73
     0
 74
     0
 77
     1
 78
    12
 79
     3
140
3.5
143
0.0393700787401575
147
0.875
148
0.000000001
170
     1
173
     1
178
     0
271
     2
272
     2
276
     2
284
    12
340
94
  0
ENDTAB
  0
TABLE
  2
BLOCK_RECORD
  5
1
330
0
100
AcDbSymbolTable
 70
    11
  0
BLOCK_RECORD
  5
1F
330
1
100
AcDbSymbolTableRecord
100
AcDbBlockTableRecord
  2
*Model_Space
340
22
  0
BLOCK_RECORD
  5
1B
330
1
100
AcDbSymbolTableRecord
100
AcDbBlockTableRecord
  2
*Paper_Space
340
1E
  0
BLOCK_RECORD
  5
23
330
1
100
AcDbSymbolTableRecord
100
AcDbBlockTableRecord
  2
*Paper_Space0
340
26
  0
BLOCK_RECORD
  5
7F
330
1
100
AcDbSymbolTableRecord
100
AcDbBlockTableRecord
  2
블럭10
340
0
102
{BLKREFS
331
D2
102
}
  0
BLOCK_RECORD
  5
DB
330
1
100
AcDbSymbolTableRecord
100
AcDbBlockTableRecord
  2
_D
340
0
  0
BLOCK_RECORD
  5
EF
330
1
100
AcDbSymbolTableRecord
100
AcDbBlockTableRecord
  2
_D_1
340
0
  0
BLOCK_RECORD
  5
104
330
1
100
AcDbSymbolTableRecord
100
AcDbBlockTableRecord
  2
_D_2
340
0
  0
BLOCK_RECORD
  5
118
330
1
100
AcDbSymbolTableRecord
100
AcDbBlockTableRecord
  2
_D_3
340
0
  0
BLOCK_RECORD
  5
131
330
1
100
AcDbSymbolTableRecord
100
AcDbBlockTableRecord
  2
SW_DOWELSYMBOL_0
340
0
102
{BLKREFS
331
137
102
}
  0
BLOCK_RECORD
  5
196
330
1
100
AcDbSymbolTableRecord
100
AcDbBlockTableRecord
  2
*D8
340
0
  0
BLOCK_RECORD
  5
1A8
330
1
100
AcDbSymbolTableRecord
100
AcDbBlockTableRecord
  2
*D9
340
0
  0
ENDTAB
  0
ENDSEC
  0
SECTION
  2
BLOCKS
  0
BLOCK
  5
20
330
1F
100
AcDbEntity
  8
0
100
AcDbBlockBegin
  2
*Model_Space
 70
     0
 10
0.0
 20
0.0
 30
0.0
  3
*Model_Space
  1

  0
ENDBLK
  5
21
330
1F
100
AcDbEntity
  8
0
100
AcDbBlockEnd
  0
BLOCK
  5
1C
330
1B
100
AcDbEntity
 67
     1
  8
0
100
AcDbBlockBegin
  2
*Paper_Space
 70
     0
 10
0.0
 20
0.0
 30
0.0
  3
*Paper_Space
  1

  0
ENDBLK
  5
1D
330
1B
100
AcDbEntity
 67
     1
  8
0
100
AcDbBlockEnd
  0
BLOCK
  5
24
330
23
100
AcDbEntity
  8
0
100
AcDbBlockBegin
  2
*Paper_Space0
 70
     0
 10
0.0
 20
0.0
 30
0.0
  3
*Paper_Space0
  1

  0
ENDBLK
  5
25
330
23
100
AcDbEntity
  8
0
100
AcDbBlockEnd
  0
BLOCK
  5
80
330
7F
100
AcDbEntity
  8
0
100
AcDbBlockBegin
  2
블럭10
 70
     2
 10
0.0
 20
0.0
 30
0.0
  3
블럭10
  1

  0
ELLIPSE
  5
82
330
7F
100
AcDbEntity
  8
중심선
100
AcDbEllipse
 10
20.54032771741204
 20
12.0471743016438
 30
0.0
 11
6.600054785286829
 21
-1.261213355974178E-13
 31
0.0
210
0.0
220
0.0
230
1.0
 40
0.636358354079598
 41
0.9219305317359503
 42
6.513795318482858
  0
ELLIPSE
  5
83
330
7F
100
AcDbEntity
  8
중심선
100
AcDbEllipse
 10
20.54032771746488
 20
12.04717430159265
 30
0.0
 11
3.960054785062283
 21
1.540847449632565E-10
 31
0.0
210
0.0
220
0.0
230
1.0
 40
0.3939339440162632
 41
1.131841032648279
 42
5.62031148352944
  0
LINE
  5
84
330
7F
100
AcDbEntity
  8
중심선
100
AcDbLine
 10
2.268634060543552
 20
16.24717430164393
 30
0.0
 11
5.714909304380834
 21
16.24717430164393
 31
0.0
  0
LINE
  5
85
330
7F
100
AcDbEntity
  8
중심선
100
AcDbLine
 10
5.245725140726316
 20
7.84717430164391
 30
0.0
 11
8.692000384563599
 21
7.84717430164391
 31
0.0
  0
LINE
  5
86
330
7F
100
AcDbEntity
  8
중심선
100
AcDbLine
 10
15.74043728645272
 20
16.24717430164393
 30
0.0
 11
8.692000384563599
 21
7.84717430164391
 31
0.0
  0
LINE
  5
87
330
7F
100
AcDbEntity
  8
중심선
100
AcDbLine
 10
0.1404042013395286
 20
13.71084872107135
 30
0.0
 11
3.58671253028996
 21
13.71088815037384
 31
0.0
  0
LINE
  5
88
330
7F
100
AcDbEntity
  8
중심선
100
AcDbLine
 10
2.750260043222114
 20
10.84717430164391
 30
0.0
 11
6.196535287059397
 21
10.84717430164391
 31
0.0
  0
LINE
  5
89
330
7F
100
AcDbEntity
  8
중심선
100
AcDbLine
 10
12.29416204261559
 20
16.24717430164393
 30
0.0
 11
5.245725140726316
 21
7.84717430164391
 31
0.0
  0
LINE
  5
8A
330
7F
100
AcDbEntity
  8
중심선
100
AcDbLine
 10
10.72767329541681
 20
16.24717430164393
 30
0.0
 11
6.196535287059397
 21
10.84717430164391
 31
0.0
  0
LINE
  5
8B
330
7F
100
AcDbEntity
  8
중심선
100
AcDbLine
 10
7.28139805157953
 20
16.24717430164393
 30
0.0
 11
2.750260043222114
 21
10.84717430164391
 31
0.0
  0
LINE
  5
8C
330
7F
100
AcDbEntity
  8
중심선
100
AcDbLine
 10
5.714909304380834
 20
16.24717430164393
 30
0.0
 11
3.58671253028996
 21
13.71088815037384
 31
0.0
  0
LINE
  5
8D
330
7F
100
AcDbEntity
  8
중심선
100
AcDbLine
 10
2.268634060543552
 20
16.24717430164393
 30
0.0
 11
0.1404042013395286
 21
13.71084872107135
 31
0.0
  0
LINE
  5
8E
330
7F
100
AcDbEntity
  8
중심선
100
AcDbLine
 10
7.28139805157953
 20
16.24717430164393
 30
0.0
 11
10.72767329541681
 21
16.24717430164393
 31
0.0
  0
LINE
  5
8F
330
7F
100
AcDbEntity
  8
중심선
100
AcDbLine
 10
12.29416204261559
 20
16.24717430164393
 30
0.0
 11
15.74043728645272
 21
16.24717430164393
 31
0.0
  0
LINE
  5
90
330
7F
100
AcDbEntity
  8
중심선
100
AcDbLine
 10
19.22036997980202
 20
11.08717430171403
 30
0.0
 11
23.66174974927406
 21
11.08717430171406
 31
0.0
  0
LINE
  5
91
330
7F
100
AcDbEntity
  8
중심선
100
AcDbLine
 10
19.22039502424796
 20
13.00717430171391
 30
0.0
 11
19.22036997980202
 21
11.08717430171403
 31
0.0
  0
LINE
  5
92
330
7F
100
AcDbEntity
  8
중심선
100
AcDbLine
 10
19.22039502424796
 20
13.00717430171391
 30
0.0
 11
26.96566020931264
 21
13.00717430171391
 31
0.0
  0
LINE
  5
93
330
7F
100
AcDbEntity
  8
중심선
100
AcDbLine
 10
22.22332737316547
 20
13.45928029700563
 30
0.0
 11
24.52862924686651
 21
15.39360700705356
 31
0.0
  0
ATTDEF
  5
95
330
7F
100
AcDbEntity
  8
FORMAT
 62
     2
100
AcDbText
 10
4.408487351596664
 20
2.075366912832191
 30
0.0
 40
4.233333333333333
  1
E1050012
 41
0.75
  7
SLDTEXTSTYLE0
 11
4.408487351596664
 21
-0.0412997538344756
 31
0.0
100
AcDbAttributeDefinition
  3

  2
AUTOATTR0
 70
     0
 74
     1
  0
ENDBLK
  5
81
330
7F
100
AcDbEntity
  8
0
100
AcDbBlockEnd
  0
BLOCK
  5
DC
330
DB
100
AcDbEntity
  8
0
100
AcDbBlockBegin
  2
_D
 70
     0
 10
0.0
 20
0.0
 30
0.0
  3
_D
  1

  0
LINE
  5
DE
330
DB
100
AcDbEntity
  8
치수문자_일반주서
 62
     0
370
    -2
100
AcDbLine
 10
-18.75055401447665
 20
4.762499999999994
 30
0.0
 11
-49.68749999999997
 21
4.762499999999875
 31
0.0
  0
LINE
  5
DF
330
DB
100
AcDbEntity
  8
치수문자_일반주서
 62
     0
370
    -2
100
AcDbLine
 10
-18.75055401447666
 20
-4.762500000000003
 30
0.0
 11
-49.68749999999994
 21
-4.76250000000012
 31
0.0
  0
LINE
  5
E0
330
DB
100
AcDbEntity
  8
치수문자_일반주서
 62
     0
370
    -2
100
AcDbLine
 10
-49.68749999999997
 20
4.762499999999875
 30
0.0
 11
-49.68750000000009
 21
37.61649999999996
 31
0.0
  0
LINE
  5
E1
330
DB
100
AcDbEntity
  8
치수문자_일반주서
 62
     0
370
    -2
100
AcDbLine
 10
-49.68749999999997
 20
4.762499999999875
 30
0.0
 11
-49.68749999999994
 21
-4.76250000000012
 31
0.0
  0
LINE
  5
E2
330
DB
100
AcDbEntity
  8
치수문자_일반주서
 62
     0
370
    -2
100
AcDbLine
 10
-49.68749999999999
 20
8.064499999999875
 30
0.0
 11
-49.6875
 21
11.36649999999987
 31
0.0
  0
LINE
  5
E3
330
DB
100
AcDbEntity
  8
치수문자_일반주서
 62
     0
370
    -2
100
AcDbLine
 10
-49.68749999999992
 20
-8.06450000000012
 30
0.0
 11
-49.68749999999991
 21
-11.36650000000012
 31
0.0
  0
SOLID
  5
E4
330
DB
100
AcDbEntity
  8
치수문자_일반주서
 62
     0
100
AcDbTrace
 10
-50.23783333333332
 20
8.064499999999873
 30
0.0
 11
-49.13716666666665
 21
8.064499999999876
 31
0.0
 12
-49.68749999999997
 22
4.762499999999875
 32
0.0
 13
-49.68749999999997
 23
4.762499999999875
 33
0.0
  0
SOLID
  5
E5
330
DB
100
AcDbEntity
  8
치수문자_일반주서
 62
     0
100
AcDbTrace
 10
-49.13716666666659
 20
-8.064500000000118
 30
0.0
 11
-50.23783333333326
 21
-8.064500000000121
 31
0.0
 12
-49.68749999999994
 22
-4.76250000000012
 32
0.0
 13
-49.68749999999994
 23
-4.76250000000012
 33
0.0
  0
MTEXT
  5
E6
330
DB
100
AcDbEntity
  8
치수문자_일반주서
 62
     0
100
AcDbMText
 10
-54.06250000000004
 20
24.49149999999995
 30
0.0
 40
3.5
 41
0.0
 71
     2
 72
     1
  1
\A1;%%c9.53 [3/8]
  7
SLDTEXTSTYLE0
 11
-3.729883127349609E-15
 21
1.0
 31
0.0
 73
     1
 44
1.0
  0
POINT
  5
1EC
330
DB
100
AcDbEntity
  8
Defpoints
 62
     0
100
AcDbPoint
 10
-18.68805401447665
 20
4.762499999999994
 30
0.0
  0
POINT
  5
1ED
330
DB
100
AcDbEntity
  8
Defpoints
 62
     0
100
AcDbPoint
 10
-18.68805401447666
 20
-4.762500000000003
 30
0.0
  0
POINT
  5
1EE
330
DB
100
AcDbEntity
  8
Defpoints
 62
     0
100
AcDbPoint
 10
-49.68749999999994
 20
-4.762500000000118
 30
0.0
  0
ENDBLK
  5
DD
330
DB
100
AcDbEntity
  8
0
100
AcDbBlockEnd
  0
BLOCK
  5
F0
330
EF
100
AcDbEntity
  8
0
100
AcDbBlockBegin
  2
_D_1
 70
     0
 10
0.0
 20
0.0
 30
0.0
  3
_D_1
  1

  0
LINE
  5
F2
330
EF
100
AcDbEntity
  8
치수문자_일반주서
 62
     0
370
    -2
100
AcDbLine
 10
39.75000000000002
 20
-2.379237403765591
 30
0.0
 11
77.76655583122574
 21
-2.379237403765448
 31
0.0
  0
LINE
  5
F3
330
EF
100
AcDbEntity
  8
치수문자_일반주서
 62
     0
370
    -2
100
AcDbLine
 10
39.75000000000002
 20
2.37923740376559
 30
0.0
 11
77.76655583122573
 21
2.379237403765732
 31
0.0
  0
LINE
  5
F4
330
EF
100
AcDbEntity
  8
치수문자_일반주서
 62
     0
370
    -2
100
AcDbLine
 10
77.76655583122573
 20
2.379237403765732
 30
0.0
 11
77.76655583122563
 21
36.98323740376573
 31
0.0
  0
LINE
  5
F5
330
EF
100
AcDbEntity
  8
치수문자_일반주서
 62
     0
370
    -2
100
AcDbLine
 10
77.76655583122574
 20
-2.379237403765448
 30
0.0
 11
77.76655583122573
 21
2.379237403765732
 31
0.0
  0
LINE
  5
F6
330
EF
100
AcDbEntity
  8
치수문자_일반주서
 62
     0
370
    -2
100
AcDbLine
 10
77.76655583122576
 20
-5.681237403765447
 30
0.0
 11
77.76655583122577
 21
-8.983237403765447
 31
0.0
  0
LINE
  5
F7
330
EF
100
AcDbEntity
  8
치수문자_일반주서
 62
     0
370
    -2
100
AcDbLine
 10
77.76655583122572
 20
5.681237403765731
 30
0.0
 11
77.7665558312257
 21
8.983237403765731
 31
0.0
  0
SOLID
  5
F8
330
EF
100
AcDbEntity
  8
치수문자_일반주서
 62
     0
100
AcDbTrace
 10
78.31688916455909
 20
-5.681237403765445
 30
0.0
 11
77.21622249789243
 21
-5.681237403765449
 31
0.0
 12
77.76655583122574
 22
-2.379237403765448
 32
0.0
 13
77.76655583122574
 23
-2.379237403765448
 33
0.0
  0
SOLID
  5
F9
330
EF
100
AcDbEntity
  8
치수문자_일반주서
 62
     0
100
AcDbTrace
 10
77.21622249789239
 20
5.68123740376573
 30
0.0
 11
78.31688916455904
 21
5.681237403765733
 31
0.0
 12
77.76655583122573
 22
2.379237403765732
 32
0.0
 13
77.76655583122573
 23
2.379237403765732
 33
0.0
  0
MTEXT
  5
FA
330
EF
100
AcDbEntity
  8
치수문자_일반주서
 62
     0
100
AcDbMText
 10
73.39155583122567
 20
22.98323740376572
 30
0.0
 40
3.5
 41
0.0
 71
     2
 72
     1
  1
\A1;%%c4.76 [3/16]
  7
SLDTEXTSTYLE0
 11
-2.986430587529990E-15
 21
1.0
 31
0.0
 73
     1
 44
1.0
  0
POINT
  5
FB
330
EF
100
AcDbEntity
  8
Defpoints
 62
     0
100
AcDbPoint
 10
39.68750000000002
 20
-2.379237403765591
 30
0.0
  0
POINT
  5
FC
330
EF
100
AcDbEntity
  8
Defpoints
 62
     0
100
AcDbPoint
 10
39.68750000000002
 20
2.37923740376559
 30
0.0
  0
POINT
  5
FD
330
EF
100
AcDbEntity
  8
Defpoints
 62
     0
100
AcDbPoint
 10
77.76655583122573
 20
2.379237403765732
 30
0.0
  0
ENDBLK
  5
F1
330
EF
100
AcDbEntity
  8
0
100
AcDbBlockEnd
  0
BLOCK
  5
105
330
104
100
AcDbEntity
  8
0
100
AcDbBlockBegin
  2
_D_2
 70
     0
 10
0.0
 20
0.0
 30
0.0
  3
_D_2
  1

  0
LINE
  5
107
330
104
100
AcDbEntity
  8
치수문자_일반주서
 62
     0
370
    -2
100
AcDbLine
 10
39.68750000000002
 20
2.44173740376559
 30
0.0
 11
39.68750000000002
 21
14.76249999999999
 31
0.0
  0
LINE
  5
108
330
104
100
AcDbEntity
  8
치수문자_일반주서
 62
     0
370
    -2
100
AcDbLine
 10
28.57500000000002
 20
2.424784755512819
 30
0.0
 11
28.57500000000002
 21
14.76249999999999
 31
0.0
  0
LINE
  5
109
330
104
100
AcDbEntity
  8
치수문자_일반주서
 62
     0
370
    -2
100
AcDbLine
 10
39.68750000000002
 20
14.76249999999999
 30
0.0
 11
70.79150000000001
 21
14.76249999999999
 31
0.0
  0
LINE
  5
10A
330
104
100
AcDbEntity
  8
치수문자_일반주서
 62
     0
370
    -2
100
AcDbLine
 10
39.68750000000002
 20
14.76249999999999
 30
0.0
 11
28.57500000000002
 21
14.76249999999999
 31
0.0
  0
LINE
  5
10B
330
104
100
AcDbEntity
  8
치수문자_일반주서
 62
     0
370
    -2
100
AcDbLine
 10
42.98950000000002
 20
14.76249999999999
 30
0.0
 11
46.29150000000002
 21
14.76249999999999
 31
0.0
  0
LINE
  5
10C
330
104
100
AcDbEntity
  8
치수문자_일반주서
 62
     0
370
    -2
100
AcDbLine
 10
25.27300000000002
 20
14.76249999999999
 30
0.0
 11
21.97100000000002
 21
14.76249999999999
 31
0.0
  0
SOLID
  5
10D
330
104
100
AcDbEntity
  8
치수문자_일반주서
 62
     0
100
AcDbTrace
 10
42.98950000000002
 20
15.31283333333332
 30
0.0
 11
42.98950000000002
 21
14.21216666666666
 31
0.0
 12
39.68750000000002
 22
14.76249999999999
 32
0.0
 13
39.68750000000002
 23
14.76249999999999
 33
0.0
  0
SOLID
  5
10E
330
104
100
AcDbEntity
  8
치수문자_일반주서
 62
     0
100
AcDbTrace
 10
25.27300000000002
 20
14.21216666666666
 30
0.0
 11
25.27300000000002
 21
15.31283333333332
 31
0.0
 12
28.57500000000002
 22
14.76249999999999
 32
0.0
 13
28.57500000000002
 23
14.76249999999999
 33
0.0
  0
MTEXT
  5
10F
330
104
100
AcDbEntity
  8
치수문자_일반주서
 62
     0
100
AcDbMText
 10
58.54150000000002
 20
19.13749999999999
 30
0.0
 40
3.5
 41
0.0
 71
     2
 72
     1
  1
\A1;11.11 [7/16]
  7
SLDTEXTSTYLE0
 73
     1
 44
1.0
  0
POINT
  5
110
330
104
100
AcDbEntity
  8
Defpoints
 62
     0
100
AcDbPoint
 10
39.68750000000002
 20
2.37923740376559
 30
0.0
  0
POINT
  5
111
330
104
100
AcDbEntity
  8
Defpoints
 62
     0
100
AcDbPoint
 10
28.57500000000002
 20
2.362284755512819
 30
0.0
  0
POINT
  5
112
330
104
100
AcDbEntity
  8
Defpoints
 62
     0
100
AcDbPoint
 10
28.57500000000002
 20
14.76249999999999
 30
0.0
  0
ENDBLK
  5
106
330
104
100
AcDbEntity
  8
0
100
AcDbBlockEnd
  0
BLOCK
  5
119
330
118
100
AcDbEntity
  8
0
100
AcDbBlockBegin
  2
_D_3
 70
     0
 10
0.0
 20
0.0
 30
0.0
  3
_D_3
  1

  0
LINE
  5
11B
330
118
100
AcDbEntity
  8
치수문자_일반주서
 62
     0
370
    -2
100
AcDbLine
 10
-39.68750000000002
 20
2.441737403765583
 30
0.0
 11
-39.68750000000002
 21
24.7625
 31
0.0
  0
LINE
  5
11C
330
118
100
AcDbEntity
  8
치수문자_일반주서
 62
     0
370
    -2
100
AcDbLine
 10
39.68750000000002
 20
2.44173740376559
 30
0.0
 11
39.68750000000002
 21
24.7625
 31
0.0
  0
LINE
  5
11D
330
118
100
AcDbEntity
  8
치수문자_일반주서
 62
     0
370
    -2
100
AcDbLine
 10
-36.38550000000002
 20
24.7625
 30
0.0
 11
36.38550000000002
 21
24.7625
 31
0.0
  0
SOLID
  5
11E
330
118
100
AcDbEntity
  8
치수문자_일반주서
 62
     0
100
AcDbTrace
 10
-36.38550000000002
 20
25.31283333333333
 30
0.0
 11
-36.38550000000002
 21
24.21216666666666
 31
0.0
 12
-39.68750000000002
 22
24.7625
 32
0.0
 13
-39.68750000000002
 23
24.7625
 33
0.0
  0
SOLID
  5
11F
330
118
100
AcDbEntity
  8
치수문자_일반주서
 62
     0
100
AcDbTrace
 10
36.38550000000002
 20
24.21216666666666
 30
0.0
 11
36.38550000000002
 21
25.31283333333333
 31
0.0
 12
39.68750000000002
 22
24.7625
 32
0.0
 13
39.68750000000002
 23
24.7625
 33
0.0
  0
MTEXT
  5
120
330
118
100
AcDbEntity
  8
치수문자_일반주서
 62
     0
100
AcDbMText
 10
0.0000000000000142
 20
29.1375
 30
0.0
 40
3.5
 41
0.0
 71
     2
 72
     1
  1
\A1;79.38 [3 1/8]
  7
SLDTEXTSTYLE0
 73
     1
 44
1.0
  0
POINT
  5
121
330
118
100
AcDbEntity
  8
Defpoints
 62
     0
100
AcDbPoint
 10
-39.68750000000002
 20
2.379237403765583
 30
0.0
  0
POINT
  5
122
330
118
100
AcDbEntity
  8
Defpoints
 62
     0
100
AcDbPoint
 10
39.68750000000002
 20
2.37923740376559
 30
0.0
  0
POINT
  5
123
330
118
100
AcDbEntity
  8
Defpoints
 62
     0
100
AcDbPoint
 10
39.68750000000002
 20
24.7625
 30
0.0
  0
ENDBLK
  5
11A
330
118
100
AcDbEntity
  8
0
100
AcDbBlockEnd
  0
BLOCK
  5
132
330
131
100
AcDbEntity
  8
0
100
AcDbBlockBegin
  2
SW_DOWELSYMBOL_0
 70
     0
 10
0.0
 20
0.0
 30
0.0
  3
SW_DOWELSYMBOL_0
  1

  0
CIRCLE
  5
134
330
131
100
AcDbEntity
  8
해칭선
 62
     0
100
AcDbCircle
 10
0.0
 20
0.0
 30
0.0
 40
3.0
  0
HATCH
  5
135
330
131
100
AcDbEntity
  8
0
  6
Continuous
 62
     0
370
     0
100
AcDbHatch
 10
0.0
 20
0.0
 30
0.0
210
0.0
220
0.0
230
1.0
  2
SOLID
 70
     1
 71
     0
 91
        1
 92
        0
 93
        3
 72
     2
 10
0.0
 20
0.0
 40
3.0
 50
0.0
 51
90.0
 73
     1
 72
     1
 10
0.0
 20
3.0
 11
0.0
 21
0.0
 72
     1
 10
0.0
 20
0.0
 11
3.0
 21
0.0
 97
        0
 75
     0
 76
     1
 98
        1
 10
0.0
 20
0.0
  0
HATCH
  5
136
330
131
100
AcDbEntity
  8
0
  6
Continuous
 62
     0
370
     0
100
AcDbHatch
 10
0.0
 20
0.0
 30
0.0
210
0.0
220
0.0
230
1.0
  2
SOLID
 70
     1
 71
     0
 91
        1
 92
        0
 93
        3
 72
     2
 10
0.0
 20
0.0
 40
3.0
 50
180.0
 51
270.0000000000008
 73
     1
 72
     1
 10
0.0
 20
-3.0
 11
0.0
 21
0.0
 72
     1
 10
0.0
 20
0.0
 11
-2.999999999999999
 21
0.0
 97
        0
 75
     0
 76
     1
 98
        1
 10
0.0
 20
0.0
  0
ENDBLK
  5
133
330
131
100
AcDbEntity
  8
0
100
AcDbBlockEnd
  0
BLOCK
  5
197
330
196
100
AcDbEntity
  8
0
100
AcDbBlockBegin
  2
*D8
 70
     1
 10
0.0
 20
0.0
 30
0.0
  3
*D8
  1

  0
LINE
  5
199
330
196
100
AcDbEntity
  8
치수문자_일반주서
 62
     0
370
    -2
100
AcDbLine
 10
16.129
 20
3.155101899082702
 30
0.0
 11
16.129
 21
16.26894362990562
 31
0.0
  0
LINE
  5
19A
330
196
100
AcDbEntity
  8
치수문자_일반주서
 62
     0
370
    -2
100
AcDbLine
 10
6.603999999999999
 20
2.633059590344415
 30
0.0
 11
6.603999999999999
 21
16.26894362990562
 31
0.0
  0
LINE
  5
19B
330
196
100
AcDbEntity
  8
치수문자_일반주서
 62
     0
370
    -2
100
AcDbLine
 10
16.129
 20
16.26894362990562
 30
0.0
 11
46.358
 21
16.26894362990562
 31
0.0
  0
LINE
  5
19C
330
196
100
AcDbEntity
  8
치수문자_일반주서
 62
     0
370
    -2
100
AcDbLine
 10
16.129
 20
16.26894362990562
 30
0.0
 11
6.603999999999999
 21
16.26894362990562
 31
0.0
  0
LINE
  5
19D
330
196
100
AcDbEntity
  8
치수문자_일반주서
 62
     0
370
    -2
100
AcDbLine
 10
19.431
 20
16.26894362990562
 30
0.0
 11
22.733
 21
16.26894362990562
 31
0.0
  0
LINE
  5
19E
330
196
100
AcDbEntity
  8
치수문자_일반주서
 62
     0
370
    -2
100
AcDbLine
 10
3.302
 20
16.26894362990562
 30
0.0
 11
0.0
 21
16.26894362990562
 31
0.0
  0
SOLID
  5
19F
330
196
100
AcDbEntity
  8
치수문자_일반주서
 62
     0
100
AcDbTrace
 10
19.431
 20
16.81927696323896
 30
0.0
 11
19.431
 21
15.71861029657229
 31
0.0
 12
16.129
 22
16.26894362990562
 32
0.0
 13
16.129
 23
16.26894362990562
 33
0.0
  0
SOLID
  5
1A0
330
196
100
AcDbEntity
  8
치수문자_일반주서
 62
     0
100
AcDbTrace
 10
3.302
 20
15.71861029657229
 30
0.0
 11
3.302
 21
16.81927696323896
 31
0.0
 12
6.603999999999999
 22
16.26894362990562
 32
0.0
 13
6.603999999999999
 23
16.26894362990562
 33
0.0
  0
MTEXT
  5
1A1
330
196
100
AcDbEntity
  8
치수문자_일반주서
 62
     0
100
AcDbMText
 10
34.5455
 20
20.64394362990562
 30
0.0
 40
3.5
 41
0.0
 71
     2
 72
     1
  1
\A1;9.53 [3/8]
  7
SLDTEXTSTYLE0
 73
     1
 44
1.0
  0
POINT
  5
1A2
330
196
100
AcDbEntity
  8
Defpoints
 62
     0
100
AcDbPoint
 10
16.129
 20
3.092601899082702
 30
0.0
  0
POINT
  5
1A3
330
196
100
AcDbEntity
  8
Defpoints
 62
     0
100
AcDbPoint
 10
6.603999999999999
 20
2.570559590344415
 30
0.0
  0
POINT
  5
1A4
330
196
100
AcDbEntity
  8
Defpoints
 62
     0
100
AcDbPoint
 10
6.603999999999999
 20
16.26894362990562
 30
0.0
  0
ENDBLK
  5
198
330
196
100
AcDbEntity
  8
0
100
AcDbBlockEnd
  0
BLOCK
  5
1A9
330
1A8
100
AcDbEntity
  8
0
100
AcDbBlockBegin
  2
*D9
 70
     1
 10
0.0
 20
0.0
 30
0.0
  3
*D9
  1

  0
LINE
  5
1AB
330
1A8
100
AcDbEntity
  8
치수문자_일반주서
 62
     0
370
    -2
100
AcDbLine
 10
86.02505564486083
 20
-7.585649782591837
 30
0.0
 11
86.02505564486083
 21
5.528191948231083
 31
0.0
  0
LINE
  5
1AC
330
1A8
100
AcDbEntity
  8
치수문자_일반주서
 62
     0
370
    -2
100
AcDbLine
 10
76.50005564486082
 20
-8.107692091330124
 30
0.0
 11
76.50005564486082
 21
5.528191948231083
 31
0.0
  0
LINE
  5
1AD
330
1A8
100
AcDbEntity
  8
치수문자_일반주서
 62
     0
370
    -2
100
AcDbLine
 10
86.02505564486083
 20
5.528191948231083
 30
0.0
 11
116.2540556448608
 21
5.528191948231083
 31
0.0
  0
LINE
  5
1AE
330
1A8
100
AcDbEntity
  8
치수문자_일반주서
 62
     0
370
    -2
100
AcDbLine
 10
86.02505564486083
 20
5.528191948231083
 30
0.0
 11
76.50005564486082
 21
5.528191948231083
 31
0.0
  0
LINE
  5
1AF
330
1A8
100
AcDbEntity
  8
치수문자_일반주서
 62
     0
370
    -2
100
AcDbLine
 10
89.32705564486082
 20
5.528191948231083
 30
0.0
 11
92.62905564486081
 21
5.528191948231083
 31
0.0
  0
LINE
  5
1B0
330
1A8
100
AcDbEntity
  8
치수문자_일반주서
 62
     0
370
    -2
100
AcDbLine
 10
73.19805564486083
 20
5.528191948231083
 30
0.0
 11
69.89605564486084
 21
5.528191948231083
 31
0.0
  0
SOLID
  5
1B1
330
1A8
100
AcDbEntity
  8
치수문자_일반주서
 62
     0
100
AcDbTrace
 10
89.32705564486082
 20
6.078525281564416
 30
0.0
 11
89.32705564486082
 21
4.977858614897749
 31
0.0
 12
86.02505564486083
 22
5.528191948231083
 32
0.0
 13
86.02505564486083
 23
5.528191948231083
 33
0.0
  0
SOLID
  5
1B2
330
1A8
100
AcDbEntity
  8
치수문자_일반주서
 62
     0
100
AcDbTrace
 10
73.19805564486083
 20
4.977858614897749
 30
0.0
 11
73.19805564486083
 21
6.078525281564416
 31
0.0
 12
76.50005564486082
 22
5.528191948231083
 32
0.0
 13
76.50005564486082
 23
5.528191948231083
 33
0.0
  0
MTEXT
  5
1B3
330
1A8
100
AcDbEntity
  8
치수문자_일반주서
 62
     0
100
AcDbMText
 10
104.4415556448608
 20
9.903191948231083
 30
0.0
 40
3.5
 41
0.0
 71
     2
 72
     1
  1
\A1;9.53 [3/8]
  7
SLDTEXTSTYLE0
 73
     1
 44
1.0
  0
POINT
  5
1B4
330
1A8
100
AcDbEntity
  8
Defpoints
 62
     0
100
AcDbPoint
 10
86.02505564486083
 20
-7.648149782591837
 30
0.0
  0
POINT
  5
1B5
330
1A8
100
AcDbEntity
  8
Defpoints
 62
     0
100
AcDbPoint
 10
76.50005564486082
 20
-8.170192091330124
 30
0.0
  0
POINT
  5
1B6
330
1A8
100
AcDbEntity
  8
Defpoints
 62
     0
100
AcDbPoint
 10
76.50005564486082
 20
5.528191948231083
 30
0.0
  0
ENDBLK
  5
1AA
330
1A8
100
AcDbEntity
  8
0
100
AcDbBlockEnd
  0
ENDSEC
  0
SECTION
  2
ENTITIES
  0
LINE
  5
96
330
1F
100
AcDbEntity
  8
외형선
  6
Continuous
370
    15
100
AcDbLine
 10
18.68805401447665
 20
4.762499999999997
 30
0.0
 11
4.838700000000159
 21
4.762499999999996
 31
0.0
  0
LINE
  5
97
330
1F
100
AcDbEntity
  8
외형선
  6
Continuous
370
    15
100
AcDbLine
 10
-18.68805401447666
 20
-4.762500000000003
 30
0.0
 11
18.68805401447665
 21
-4.7625
 31
0.0
  0
LINE
  5
98
330
1F
100
AcDbEntity
  8
외형선
  6
Continuous
370
    15
100
AcDbLine
 10
18.68805401447665
 20
-4.7625
 30
0.0
 11
27.57500000000002
 21
-2.381250000000001
 31
0.0
  0
LINE
  5
99
330
1F
100
AcDbEntity
  8
외형선
  6
Continuous
370
    15
100
AcDbLine
 10
27.57500000000002
 20
2.38125
 30
0.0
 11
18.68805401447665
 21
4.762499999999998
 31
0.0
  0
LINE
  5
9C
330
1F
100
AcDbEntity
  8
외형선
  6
Continuous
370
    15
100
AcDbLine
 10
28.05340399141422
 20
2.38125
 30
0.0
 11
27.57500000000002
 21
2.38125
 31
0.0
  0
LINE
  5
9D
330
1F
100
AcDbEntity
  8
외형선
  6
Continuous
370
    15
100
AcDbLine
 10
27.57500000000002
 20
-2.381250000000001
 30
0.0
 11
28.05324490981663
 21
-2.381250000000001
 31
0.0
  0
LINE
  5
9E
330
1F
100
AcDbEntity
  8
0
  6
Continuous
 62
     1
370
    15
100
AcDbLine
 10
32.89860697521918
 20
0.9192207017676631
 30
0.0
 11
32.85681541147884
 21
0.9406593020946128
 31
0.0
1001
PE_URL
1000

  0
SPLINE
  5
9F
330
1F
100
AcDbEntity
  8
0
  6
Continuous
 62
     1
370
    15
100
AcDbSpline
210
0.0
220
0.0
230
1.0
 70
     8
 71
     3
 72
     9
 73
     5
 74
     0
 42
0.000000001
 43
0.00000001
 40
0.0
 40
0.0
 40
0.0
 40
0.0
 40
0.4731563573525338
 40
1.0
 40
1.0
 40
1.0
 40
1.0
 10
33.51912773752066
 20
0.6101208647417116
 30
0.0
 10
33.42125000362873
 20
0.6565304933214011
 30
0.0
 10
33.21438871481589
 20
0.7546156777609943
 30
0.0
 10
33.00756875579955
 20
0.8624230651115762
 30
0.0
 10
32.89860697521918
 20
0.9192207017676631
 30
0.0
1001
PE_URL
1000

  0
LINE
  5
A0
330
1F
100
AcDbEntity
  8
0
  6
Continuous
 62
     1
370
    15
100
AcDbLine
 10
32.46917404032712
 20
0.5239112607235008
 30
0.0
 11
32.17635484910505
 21
0.6844858121507826
 31
0.0
1001
PE_URL
1000

  0
SPLINE
  5
A1
330
1F
100
AcDbEntity
  8
0
  6
Continuous
 62
     1
370
    15
100
AcDbSpline
210
0.0
220
0.0
230
1.0
 70
     8
 71
     3
 72
    16
 73
    12
 74
     0
 42
0.000000001
 43
0.00000001
 40
0.0
 40
0.0
 40
0.0
 40
0.0
 40
0.2091607777601417
 40
0.3458941743518331
 40
0.4392426267390973
 40
0.5314725282181084
 40
0.6213796650819159
 40
0.7084690839659321
 40
0.8041138509802334
 40
0.9160418592202875
 40
1.0
 40
1.0
 40
1.0
 40
1.0
 10
32.7305118976485
 20
1.892233235049081
 30
0.0
 10
32.59250940798811
 20
1.885518980029216
 30
0.0
 10
32.36429139440662
 20
1.874415456121174
 30
0.0
 10
32.0757515440612
 20
1.866196596418974
 30
0.0
 10
31.86544151687828
 20
1.862078008562508
 30
0.0
 10
31.68439130733337
 20
1.86001353635111
 30
0.0
 10
31.50749811941693
 20
1.859407299452885
 30
0.0
 10
31.32845602519924
 20
1.860190099254423
 30
0.0
 10
31.1348515413685
 20
1.862664717981364
 30
0.0
 10
30.94328437919498
 20
1.866560196757746
 30
0.0
 10
30.81456074797433
 20
1.870883195611037
 30
0.0
 10
30.75938892084014
 20
1.872736062432563
 30
0.0
1001
PE_URL
1000

  0
SPLINE
  5
A2
330
1F
100
AcDbEntity
  8
0
  6
Continuous
 62
     1
370
    15
100
AcDbSpline
210
0.0
220
0.0
230
1.0
 70
     8
 71
     3
 72
    24
 73
    20
 74
     0
 42
0.000000001
 43
0.00000001
 40
0.0
 40
0.0
 40
0.0
 40
0.0
 40
0.0736405558455516
 40
0.1327494612111148
 40
0.2076444286190576
 40
0.2535317327818791
 40
0.299276379043641
 40
0.3479880095708976
 40
0.4010295894376978
 40
0.4595956227333233
 40
0.5229025423523532
 40
0.5816221458804378
 40
0.633355743376383
 40
0.6815331145837391
 40
0.7271698290025352
 40
0.7689281194447976
 40
0.8157077017419068
 40
0.8923865346469032
 40
1.0
 40
1.0
 40
1.0
 40
1.0
 10
38.80179704451214
 20
1.628653125864029
 30
0.0
 10
38.69894322358924
 20
1.620305856427455
 30
0.0
 10
38.51353194913261
 20
1.605258502322562
 30
0.0
 10
38.22464407757617
 20
1.587968812195308
 30
0.0
 10
37.97562224743548
 20
1.577156315600872
 30
0.0
 10
37.74794969916246
 20
1.570770464652498
 30
0.0
 10
37.55315227614817
 20
1.567515693475993
 30
0.0
 10
37.34877044656392
 20
1.56659491611994
 30
0.0
 10
37.12667136601996
 20
1.568530515167837
 30
0.0
 10
36.88417884600156
 20
1.574104130029963
 30
0.0
 10
36.63378419731866
 20
1.583717646108041
 30
0.0
 10
36.39288815987403
 20
1.596670676982958
 30
0.0
 10
36.17304623791229
 20
1.611613622677288
 30
0.0
 10
35.97144735403943
 20
1.627849804807847
 30
0.0
 10
35.78319104642851
 20
1.645055245889558
 30
0.0
 10
35.5983449474737
 20
1.663818217257861
 30
0.0
 10
35.37147033448903
 20
1.68915018331644
 30
0.0
 10
35.05036922135585
 20
1.729273570892022
 30
0.0
 10
34.79357904446888
 20
1.768243821917666
 30
0.0
 10
34.64363202517055
 20
1.790999649470897
 30
0.0
1001
PE_URL
1000

  0
SPLINE
  5
A3
330
1F
100
AcDbEntity
  8
0
  6
Continuous
 62
     1
370
    15
100
AcDbSpline
210
0.0
220
0.0
230
1.0
 70
     8
 71
     3
 72
    12
 73
     8
 74
     0
 42
0.000000001
 43
0.00000001
 40
0.0
 40
0.0
 40
0.0
 40
0.0
 40
0.2461992789992031
 40
0.4337321202475689
 40
0.66092362987645
 40
0.8773608959528829
 40
1.0
 40
1.0
 40
1.0
 40
1.0
 10
34.64363202517055
 20
-1.790999649470898
 30
0.0
 10
34.78856888042212
 20
-1.768908226811403
 30
0.0
 10
35.04390581636208
 20
-1.729989511743116
 30
0.0
 10
35.44867091109472
 20
-1.679457426422336
 30
0.0
 10
35.82660741773657
 20
-1.639965858226468
 30
0.0
 10
36.16803728541278
 20
-1.610788783669112
 30
0.0
 10
36.37123099638436
 20
-1.599149755413014
 30
0.0
 10
36.44472327380988
 20
-1.594940084309165
 30
0.0
1001
PE_URL
1000

  0
SPLINE
  5
A4
330
1F
100
AcDbEntity
  8
0
  6
Continuous
 62
     1
370
    15
100
AcDbSpline
210
0.0
220
0.0
230
1.0
 70
     8
 71
     3
 72
    20
 73
    16
 74
     0
 42
0.000000001
 43
0.00000001
 40
0.0
 40
0.0
 40
0.0
 40
0.0
 40
0.1273963604824225
 40
0.2113985532668435
 40
0.283053639641427
 40
0.3553204970827001
 40
0.4287497605520274
 40
0.4994396077325823
 40
0.5515847391862654
 40
0.6067069978427193
 40
0.6639875986194943
 40
0.720087817821366
 40
0.7796651359529366
 40
0.8718233257134947
 40
1.0
 40
1.0
 40
1.0
 40
1.0
 10
29.14920449468186
 20
-1.981533755409604
 30
0.0
 10
29.30170613236843
 20
-1.966994253492736
 30
0.0
 10
29.5547637978754
 20
-1.942867742666154
 30
0.0
 10
29.89289629178308
 20
-1.917440416122625
 30
0.0
 10
30.16361021846025
 20
-1.899824555313837
 30
0.0
 10
30.42303078720634
 20
-1.885724637684164
 30
0.0
 10
30.68160611370444
 20
-1.874709138871189
 30
0.0
 10
30.91518612893169
 20
-1.867403142867646
 30
0.0
 10
31.12560094369908
 20
-1.86278515052718
 30
0.0
 10
31.32242590445836
 20
-1.860160753540046
 30
0.0
 10
31.52486815076122
 20
-1.859321470562161
 30
0.0
 10
31.73196753623635
 20
-1.860330160935308
 30
0.0
 10
31.98000954804782
 20
-1.863880939220479
 30
0.0
 10
32.31407742277016
 20
-1.872241404147621
 30
0.0
 10
32.57735431123579
 20
-1.884880576339129
 30
0.0
 10
32.7305118976485
 20
-1.892233235049082
 30
0.0
1001
PE_URL
1000

  0
LINE
  5
A5
330
1F
100
AcDbEntity
  8
외형선
  6
Continuous
370
    15
100
AcDbLine
 10
18.68805401447665
 20
4.762499999999998
 30
0.0
 11
18.68805401447665
 21
-4.762500000000006
 31
0.0
  0
LINE
  5
A7
330
1F
100
AcDbEntity
  8
외형선
  6
Continuous
370
    15
100
AcDbLine
 10
27.57500000000002
 20
2.38125
 30
0.0
 11
27.57500000000002
 21
-2.381250000000001
 31
0.0
  0
LINE
  5
A9
330
1F
100
AcDbEntity
  8
외형선
  6
Continuous
370
    15
100
AcDbLine
 10
28.57500000000002
 20
2.362284755512817
 30
0.0
 11
28.57500000000002
 21
2.187568483741781
 31
0.0
  0
SPLINE
  5
AA
330
1F
100
AcDbEntity
  8
외형선
  6
Continuous
370
    15
100
AcDbSpline
210
0.0
220
0.0
230
1.0
 70
     8
 71
     3
 72
    10
 73
     6
 74
     0
 42
0.000000001
 43
0.00000001
 40
0.0
 40
0.0
 40
0.0
 40
0.0
 40
0.5
 40
0.5
 40
1.0
 40
1.0
 40
1.0
 40
1.0
 10
28.57499999999998
 20
2.187568483741788
 30
0.0
 10
28.4258385629222
 20
2.221479200041704
 30
0.0
 10
28.2764507352587
 20
2.25113017445432
 30
0.0
 10
27.97982834694952
 20
2.301444281019002
 30
0.0
 10
27.83343300962648
 20
2.322094080264647
 30
0.0
 10
27.6851075237614
 20
2.338294847362184
 30
0.0
  0
LINE
  5
AB
330
1F
100
AcDbEntity
  8
외형선
  6
Continuous
370
    15
100
AcDbLine
 10
27.6851075237614
 20
-2.371696738545273
 30
0.0
 11
27.6851075237614
 21
2.338415171460383
 31
0.0
  0
SPLINE
  5
AC
330
1F
100
AcDbEntity
  8
외형선
  6
Continuous
370
    15
100
AcDbSpline
210
0.0
220
0.0
230
1.0
 70
     8
 71
     3
 72
    10
 73
     6
 74
     0
 42
0.000000001
 43
0.00000001
 40
0.0
 40
0.0
 40
0.0
 40
0.0
 40
0.5
 40
0.5
 40
1.0
 40
1.0
 40
1.0
 40
1.0
 10
28.57499999999998
 20
-2.362284755512823
 30
0.0
 10
28.42585742722455
 20
-2.373095765320246
 30
0.0
 10
28.2764885204397
 20
-2.3792951739024
 30
0.0
 10
27.97990310250929
 20
-2.38241514278167
 30
0.0
 10
27.83352626337006
 20
-2.379368404667367
 30
0.0
 10
27.68522007503936
 20
-2.371705868683921
 30
0.0
  0
SPLINE
  5
AD
330
1F
100
AcDbEntity
  8
외형선
  6
Continuous
370
    15
100
AcDbSpline
210
0.0
220
0.0
230
1.0
 70
     8
 71
     3
 72
     9
 73
     5
 74
     0
 42
0.000000001
 43
0.00000001
 40
0.0
 40
0.0
 40
0.0
 40
0.0
 40
0.8547420972217508
 40
1.0
 40
1.0
 40
1.0
 40
1.0
 10
28.57499999999998
 20
2.362284755512822
 30
0.0
 10
28.42625332430672
 20
2.371991497634189
 30
0.0
 10
28.25222811111465
 20
2.38334783793019
 30
0.0
 10
28.07862169528629
 20
2.380251317013411
 30
0.0
 10
28.05340399141422
 20
2.379801522879129
 30
0.0
  0
SPLINE
  5
AE
330
1F
100
AcDbEntity
  8
외형선
  6
Continuous
370
    15
100
AcDbSpline
210
0.0
220
0.0
230
1.0
 70
     8
 71
     3
 72
    10
 73
     6
 74
     0
 42
0.000000001
 43
0.00000001
 40
0.0
 40
0.0
 40
0.0
 40
0.0
 40
0.5
 40
0.5
 40
1.0
 40
1.0
 40
1.0
 40
1.0
 10
28.57499999999996
 20
-2.01965771682013
 30
0.0
 10
28.42585742722454
 20
-2.024468201240827
 30
0.0
 10
28.27648852043968
 20
-2.025333753021017
 30
0.0
 10
27.97990310250928
 20
-2.019204708140084
 30
0.0
 10
27.83352626337005
 20
-2.012246168216068
 30
0.0
 10
27.68522007503936
 20
-2.001373485601014
 30
0.0
  0
SPLINE
  5
AF
330
1F
100
AcDbEntity
  8
외형선
  6
Continuous
370
    15
100
AcDbSpline
210
0.0
220
0.0
230
1.0
 70
     8
 71
     3
 72
    10
 73
     6
 74
     0
 42
0.000000001
 43
0.00000001
 40
0.0
 40
0.0
 40
0.0
 40
0.0
 40
0.5
 40
0.5
 40
1.0
 40
1.0
 40
1.0
 40
1.0
 10
28.57499999999995
 20
-0.8238518408992983
 30
0.0
 10
28.42584545294027
 20
-0.7619357617065663
 30
0.0
 10
28.27646453595963
 20
-0.6983785051263899
 30
0.0
 10
27.97985565072595
 20
-0.5691078288551039
 30
0.0
 10
27.83346706977479
 20
-0.5035257753370295
 30
0.0
 10
27.68514863215871
 20
-0.4368106112104174
 30
0.0
  0
SPLINE
  5
B0
330
1F
100
AcDbEntity
  8
외형선
  6
Continuous
370
    15
100
AcDbSpline
210
0.0
220
0.0
230
1.0
 70
    24
 71
     3
 72
    10
 73
     6
 74
     0
 42
0.000000001
 43
0.00000001
 40
0.0
 40
0.0
 40
0.0
 40
0.0
 40
0.5000000000000001
 40
0.5000000000000001
 40
1.0
 40
1.0
 40
1.0
 40
1.0
 10
28.57500000000001
 20
-0.8238518408993268
 30
0.0
 10
28.57500000000001
 20
-1.134443009157846
 30
0.0
 10
28.57500000000001
 20
-1.416901710604053
 30
0.0
 10
28.57500000000001
 20
-1.834895119454853
 30
0.0
 10
28.57500000000001
 20
-1.968630619822659
 30
0.0
 10
28.57500000000001
 20
-2.019657716820129
 30
0.0
  0
SPLINE
  5
B1
330
1F
100
AcDbEntity
  8
외형선
  6
Continuous
370
    15
100
AcDbSpline
210
0.0
220
0.0
230
1.0
 70
     8
 71
     3
 72
    10
 73
     6
 74
     0
 42
0.000000001
 43
0.00000001
 40
0.0
 40
0.0
 40
0.0
 40
0.0
 40
0.5
 40
0.5
 40
1.0
 40
1.0
 40
1.0
 40
1.0
 10
28.57499999999992
 20
1.502936521801234
 30
0.0
 10
28.42584310893049
 20
1.528922247902436
 30
0.0
 10
28.27645984090995
 20
1.551982895236422
 30
0.0
 10
27.9798463618765
 20
1.59188538855856
 30
0.0
 10
27.83345548239225
 20
1.608713158169827
 30
0.0
 10
27.68513464693524
 20
1.62246495673618
 30
0.0
  0
SPLINE
  5
B2
330
1F
100
AcDbEntity
  8
외형선
  6
Continuous
370
    15
100
AcDbSpline
210
0.0
220
0.0
230
1.0
 70
    24
 71
     3
 72
    14
 73
    10
 74
     0
 42
0.000000001
 43
0.00000001
 40
0.0
 40
0.0
 40
0.0
 40
0.0
 40
0.25
 40
0.25
 40
0.5
 40
0.5
 40
0.75
 40
0.75
 40
1.0
 40
1.0
 40
1.0
 40
1.0
 10
28.57499999999995
 20
1.50293652180123
 30
0.0
 10
28.57499999999995
 20
1.373310446556202
 30
0.0
 10
28.57499999999995
 20
1.219123519150346
 30
0.0
 10
28.57499999999995
 20
0.8697781717975367
 30
0.0
 10
28.57499999999995
 20
0.6747099108335503
 30
0.0
 10
28.57499999999995
 20
0.2611725348902346
 30
0.0
 10
28.57499999999995
 20
0.0429237699140695
 30
0.0
 10
28.57499999999995
 20
-0.394746787495777
 30
0.0
 10
28.57499999999995
 20
-0.6139543634231609
 30
0.0
 10
28.57499999999995
 20
-0.8238518408993011
 30
0.0
  0
SPLINE
  5
B3
330
1F
100
AcDbEntity
  8
외형선
  6
Continuous
370
    15
100
AcDbSpline
210
0.0
220
0.0
230
1.0
 70
    24
 71
     3
 72
    10
 73
     6
 74
     0
 42
0.000000001
 43
0.00000001
 40
0.0
 40
0.0
 40
0.0
 40
0.0
 40
0.5
 40
0.5
 40
1.0
 40
1.0
 40
1.0
 40
1.0
 10
28.57500000000001
 20
2.18756848374178
 30
0.0
 10
28.57500000000001
 20
2.093237688500437
 30
0.0
 10
28.57500000000001
 20
1.980688421241952
 30
0.0
 10
28.57500000000001
 20
1.74336076193383
 30
0.0
 10
28.57500000000001
 20
1.619269477110918
 30
0.0
 10
28.57500000000001
 20
1.502936521801219
 30
0.0
  0
SPLINE
  5
B4
330
1F
100
AcDbEntity
  8
외형선
  6
Continuous
370
    15
100
AcDbSpline
210
0.0
220
0.0
230
1.0
 70
    24
 71
     3
 72
     8
 73
     4
 74
     0
 42
0.000000001
 43
0.00000001
 40
0.0
 40
0.0
 40
0.0
 40
0.0
 40
1.0
 40
1.0
 40
1.0
 40
1.0
 10
28.57500000000002
 20
-2.019657716820129
 30
0.0
 10
28.57500000000002
 20
-2.137677814703553
 30
0.0
 10
28.57500000000002
 20
-2.252637763437767
 30
0.0
 10
28.57500000000002
 20
-2.362284755500042
 30
0.0
  0
SPLINE
  5
B5
330
1F
100
AcDbEntity
  8
0
  6
Continuous
 62
     1
370
    15
100
AcDbSpline
210
0.0
220
0.0
230
1.0
 70
     8
 71
     3
 72
    38
 73
    34
 74
     0
 42
0.000000001
 43
0.00000001
 40
0.0
 40
0.0
 40
0.0
 40
0.0
 40
0.0625
 40
0.0625
 40
0.125
 40
0.125
 40
0.1875
 40
0.1875
 40
0.25
 40
0.25
 40
0.3125
 40
0.3125
 40
0.375
 40
0.375
 40
0.4375
 40
0.4375
 40
0.5
 40
0.5
 40
0.5625
 40
0.5625
 40
0.625
 40
0.625
 40
0.6875
 40
0.6875
 40
0.75
 40
0.75
 40
0.8125
 40
0.8125
 40
0.875
 40
0.875
 40
0.9375
 40
0.9375
 40
1.0
 40
1.0
 40
1.0
 40
1.0
 10
39.68750000000002
 20
-2.259665444858462
 30
0.0
 10
39.45833798969443
 20
-2.217642723812757
 30
0.0
 10
39.22500982050659
 20
-2.164683373962202
 30
0.0
 10
38.75983364516401
 20
-2.038822492450302
 30
0.0
 10
38.53076238314306
 20
-1.966276958106138
 30
0.0
 10
38.06828516802513
 20
-1.802933444065571
 30
0.0
 10
37.83435569064144
 20
-1.711984308669254
 30
0.0
 10
37.3710107912274
 20
-1.515348022785748
 30
0.0
 10
37.14247857833059
 20
-1.409875466725904
 30
0.0
 10
36.67764417602776
 20
-1.185433478211551
 30
0.0
 10
36.44404655325871
 20
-1.066835820522662
 30
0.0
 10
35.98434024824664
 20
-0.8220143103079792
 30
0.0
 10
35.75262220173747
 20
-0.6948156852100147
 30
0.0
 10
35.28725740822784
 20
-0.4346735913090256
 30
0.0
 10
35.05733616422778
 20
-0.3024458166001474
 30
0.0
 10
34.59587683543442
 20
-0.0360898422833315
 30
0.0
 10
34.36202540274407
 20
0.0984882303648566
 30
0.0
 10
33.89796396807559
 20
0.364751459048649
 30
0.0
 10
33.66965928331408
 20
0.49608058587092
 30
0.0
 10
33.20531943383904
 20
0.7542790637188163
 30
0.0
 10
32.97153003108253
 20
0.8806911780447286
 30
0.0
 10
32.51058863399778
 20
1.122852631737376
 30
0.0
 10
32.28017265922434
 20
1.239204644890918
 30
0.0
 10
31.81477260956688
 20
1.459837108421743
 30
0.0
 10
31.58369137728865
 20
1.563482140033402
 30
0.0
 10
31.12339902866907
 20
1.754862359361856
 30
0.0
 10
30.88970359803225
 20
1.843174729500549
 30
0.0
 10
30.42507756083355
 20
2.001153897154843
 30
0.0
 10
30.19668863485038
 20
2.070635663382118
 30
0.0
 10
29.73299557583224
 20
2.190129263234331
 30
0.0
 10
29.4990922810619
 20
2.239900231778411
 30
0.0
 10
29.03706432302564
 20
2.317459780418708
 30
0.0
 10
28.8076409525252
 20
2.345421135873285
 30
0.0
 10
28.57499999999756
 20
2.362284755512997
 30
0.0
1001
PE_URL
1000

  0
SPLINE
  5
B6
330
1F
100
AcDbEntity
  8
0
  6
Continuous
 62
     1
370
    15
100
AcDbSpline
210
0.0
220
0.0
230
1.0
 70
     8
 71
     3
 72
    14
 73
    10
 74
     0
 42
0.000000001
 43
0.00000001
 40
0.0
 40
0.0
 40
0.0
 40
0.0
 40
0.1617984236723538
 40
0.3234358485828022
 40
0.4849813188050642
 40
0.6465046939205442
 40
0.8080760299838344
 40
0.969764956829605
 40
1.0
 40
1.0
 40
1.0
 40
1.0
 10
39.68750000000001
 20
-1.878740204526814
 30
0.0
 10
39.35370170203802
 20
-1.80716405197643
 30
0.0
 10
38.68643725466947
 20
-1.664082969274996
 30
0.0
 10
37.68610055650439
 20
-1.322398369836009
 30
0.0
 10
36.68640015288814
 20
-0.9115498059035786
 30
0.0
 10
35.68686354950198
 20
-0.4442744877387022
 30
0.0
 10
34.68697421710249
 20
0.0447802219034541
 30
0.0
 10
33.95782587699613
 20
0.4095285915978013
 30
0.0
 10
33.56186999390131
 20
0.5878374096982601
 30
0.0
 10
33.49949246378908
 20
0.6159275685902181
 30
0.0
1001
PE_URL
1000

  0
LINE
  5
B7
330
1F
100
AcDbEntity
  8
0
  6
Continuous
 62
     1
370
    15
100
AcDbLine
 10
39.68749999999994
 20
-2.259665444858463
 30
0.0
 11
39.68750000000001
 21
-1.878740204526814
 31
0.0
1001
PE_URL
1000

  0
SPLINE
  5
B8
330
1F
100
AcDbEntity
  8
0
  6
Continuous
 62
     1
370
    15
100
AcDbSpline
210
0.0
220
0.0
230
1.0
 70
     8
 71
     3
 72
    38
 73
    34
 74
     0
 42
0.000000001
 43
0.00000001
 40
0.0
 40
0.0
 40
0.0
 40
0.0
 40
0.0625
 40
0.0625
 40
0.1249999999999999
 40
0.1249999999999999
 40
0.1874999999999999
 40
0.1874999999999999
 40
0.2499999999999998
 40
0.2499999999999998
 40
0.3124999999999998
 40
0.3124999999999998
 40
0.3749999999999998
 40
0.3749999999999998
 40
0.4374999999999998
 40
0.4374999999999998
 40
0.4999999999999997
 40
0.4999999999999997
 40
0.5624999999999997
 40
0.5624999999999997
 40
0.6249999999999997
 40
0.6249999999999997
 40
0.6874999999999996
 40
0.6874999999999996
 40
0.7499999999999996
 40
0.7499999999999996
 40
0.8124999999999997
 40
0.8124999999999997
 40
0.8749999999999997
 40
0.8749999999999997
 40
0.9374999999999999
 40
0.9374999999999999
 40
1.0
 40
1.0
 40
1.0
 40
1.0
 10
39.68750000000002
 20
-2.37923740376559
 30
0.0
 10
39.45833798969447
 20
-2.373761608834598
 30
0.0
 10
39.2250098205067
 20
-2.357004213445156
 30
0.0
 10
38.75983364516422
 20
-2.301305464592707
 30
0.0
 10
38.5307623831433
 20
-2.262588719353915
 30
0.0
 10
38.0682851680255
 20
-2.164008674353705
 30
0.0
 10
37.83435569064185
 20
-2.104002381805771
 30
0.0
 10
37.3710107912279
 20
-1.965058360306139
 30
0.0
 10
37.14247857833114
 20
-1.886320719968825
 30
0.0
 10
36.67764417602842
 20
-1.71089513580356
 30
0.0
 10
36.44404655325941
 20
-1.6144553516038
 30
0.0
 10
35.98434024824743
 20
-1.40836849838565
 30
0.0
 10
35.75262220173833
 20
-1.297913935086699
 30
0.0
 10
35.28725740822881
 20
-1.065429572492057
 30
0.0
 10
35.05733616422877
 20
-0.9440530693001485
 30
0.0
 10
34.59587683543553
 20
-0.6932991639876475
 30
0.0
 10
34.36202540274523
 20
-0.5634728391445147
 30
0.0
 10
33.89796396807684
 20
-0.3003788629892555
 30
0.0
 10
33.66965928331538
 20
-0.1675004833545364
 30
0.0
 10
33.20531943384046
 20
0.1000579540215996
 30
0.0
 10
32.97153003108399
 20
0.2343028462857688
 30
0.0
 10
32.51058863399933
 20
0.4980595810134864
 30
0.0
 10
32.28017265922596
 20
0.6282039634729627
 30
0.0
 10
31.8147726095686
 20
0.8821692012659902
 30
0.0
 10
31.58369137729038
 20
1.005264617295284
 30
0.0
 10
31.12339902867094
 20
1.240543690609522
 30
0.0
 10
30.88970359803418
 20
1.353460232345391
 30
0.0
 10
30.42507756083556
 20
1.564961378381772
 30
0.0
 10
30.19668863485243
 20
1.663236174777145
 30
0.0
 10
29.73299557583442
 20
1.844167716070807
 30
0.0
 10
29.49909228106412
 20
1.926541874218329
 30
0.0
 10
29.03706432302792
 20
2.071686017632931
 30
0.0
 10
28.80764095252756
 20
2.13467933561169
 30
0.0
 10
28.57499999999998
 20
2.18756848374179
 30
0.0
1001
PE_URL
1000

  0
SPLINE
  5
B9
330
1F
100
AcDbEntity
  8
0
  6
Continuous
 62
     1
370
    15
100
AcDbSpline
210
0.0
220
0.0
230
1.0
 70
     8
 71
     3
 72
    13
 73
     9
 74
     0
 42
0.000000001
 43
0.00000001
 40
0.0
 40
0.0
 40
0.0
 40
0.0
 40
0.0156305533284452
 40
0.2085119932555604
 40
0.401253448191861
 40
0.5938266250367796
 40
0.7969186107297787
 40
1.0
 40
1.0
 40
1.0
 40
1.0
 10
33.76774637877093
 20
-0.2242245074480354
 30
0.0
 10
33.74069124874265
 20
-0.2136383977705371
 30
0.0
 10
33.37977510128174
 20
-0.0724194157361557
 30
0.0
 10
32.68510266264536
 20
0.2141625595148223
 30
0.0
 10
31.68427409676082
 20
0.6077536970782391
 30
0.0
 10
30.66588111591495
 20
0.972608678225898
 30
0.0
 10
29.62952128036908
 20
1.290001330315458
 30
0.0
 10
28.92650097989273
 20
1.431959359126328
 30
0.0
 10
28.57500000000002
 20
1.502936521801218
 30
0.0
1001
PE_URL
1000

  0
SPLINE
  5
BA
330
1F
100
AcDbEntity
  8
외형선
  6
Continuous
370
    15
100
AcDbSpline
210
0.0
220
0.0
230
1.0
 70
    24
 71
     3
 72
    10
 73
     6
 74
     0
 42
0.000000001
 43
0.00000001
 40
0.0
 40
0.0
 40
0.0
 40
0.0
 40
0.5000000000000004
 40
0.5000000000000004
 40
1.0
 40
1.0
 40
1.0
 40
1.0
 10
28.57500000000002
 20
2.18756848374178
 30
0.0
 10
28.57500000000002
 20
2.093237688500436
 30
0.0
 10
28.57500000000002
 20
1.980688421241952
 30
0.0
 10
28.57500000000002
 20
1.743360761933831
 30
0.0
 10
28.57500000000002
 20
1.619269477110919
 30
0.0
 10
28.57500000000002
 20
1.502936521801219
 30
0.0
  0
LINE
  5
BB
330
1F
100
AcDbEntity
  8
0
  6
Continuous
 62
     1
370
    15
100
AcDbLine
 10
39.68750000000002
 20
-2.379237403765591
 30
0.0
 11
39.68749999999993
 21
-2.259665444858458
 31
0.0
1001
PE_URL
1000

  0
SPLINE
  5
BC
330
1F
100
AcDbEntity
  8
0
  6
Continuous
 62
     1
370
    15
100
AcDbSpline
210
0.0
220
0.0
230
1.0
 70
     8
 71
     3
 72
     8
 73
     4
 74
     0
 42
0.000000001
 43
0.00000001
 40
0.0
 40
0.0
 40
0.0
 40
0.0
 40
1.0
 40
1.0
 40
1.0
 40
1.0
 10
38.21343131851545
 20
0.6667656290396421
 30
0.0
 10
38.12907539430417
 20
0.7667237491414488
 30
0.0
 10
38.05376846147553
 20
0.8629558787205848
 30
0.0
 10
37.98965717569904
 20
0.9545781160976464
 30
0.0
1001
PE_URL
1000

  0
LINE
  5
BD
330
1F
100
AcDbEntity
  8
0
  6
Continuous
 62
     1
370
    15
100
AcDbLine
 10
38.01978317140751
 20
0.9798568279854767
 30
0.0
 11
39.68750000000001
 21
0.000000000000001
 31
0.0
1001
PE_URL
1000

  0
LINE
  5
BE
330
1F
100
AcDbEntity
  8
0
  6
Continuous
 62
     1
370
    15
100
AcDbLine
 10
39.68750000000001
 20
0.000000000000001
 30
0.0
 11
39.68750000000001
 21
-0.6363722652330909
 31
0.0
1001
PE_URL
1000

  0
SPLINE
  5
BF
330
1F
100
AcDbEntity
  8
0
  6
Continuous
 62
     1
370
    15
100
AcDbSpline
210
0.0
220
0.0
230
1.0
 70
     8
 71
     3
 72
    10
 73
     6
 74
     0
 42
0.000000001
 43
0.00000001
 40
0.0
 40
0.0
 40
0.0
 40
0.0
 40
0.5
 40
0.5
 40
1.0
 40
1.0
 40
1.0
 40
1.0
 10
39.68750000000001
 20
-0.6363722652330908
 30
0.0
 10
39.43232507708537
 20
-0.4357598858607703
 30
0.0
 10
39.18141634127838
 20
-0.2269170311293186
 30
0.0
 10
38.68834008684128
 20
0.2076325360986663
 30
0.0
 10
38.44388005573236
 20
0.4356364190385537
 30
0.0
 10
38.21343131851544
 20
0.6667656290396499
 30
0.0
1001
PE_URL
1000

  0
SPLINE
  5
C0
330
1F
100
AcDbEntity
  8
0
  6
Continuous
 62
     1
370
    15
100
AcDbSpline
210
0.0
220
0.0
230
1.0
 70
     8
 71
     3
 72
    13
 73
     9
 74
     0
 42
0.000000001
 43
0.00000001
 40
0.0
 40
0.0
 40
0.0
 40
0.0
 40
0.1394675154986139
 40
0.2785209788853706
 40
0.4608061784375678
 40
0.6431462474437106
 40
0.8256208564766907
 40
1.0
 40
1.0
 40
1.0
 40
1.0
 10
38.21343131851545
 20
0.6667656290396452
 30
0.0
 10
37.95845858177024
 20
0.774631178294001
 30
0.0
 10
37.44927007308083
 20
0.9900420448239203
 30
0.0
 10
36.60740875280507
 20
1.30334176083773
 30
0.0
 10
35.68681228893372
 20
1.587490186258868
 30
0.0
 10
34.68695196066714
 20
1.800165870227606
 30
0.0
 10
33.70141177291165
 20
1.914759477182825
 30
0.0
 10
33.04904891792685
 20
1.897985824636625
 30
0.0
 10
32.73026713378202
 20
1.889789259114163
 30
0.0
1001
PE_URL
1000

  0
SPLINE
  5
C1
330
1F
100
AcDbEntity
  8
0
  6
Continuous
 62
     1
370
    15
100
AcDbSpline
210
0.0
220
0.0
230
1.0
 70
    24
 71
     3
 72
    10
 73
     6
 74
     0
 42
0.000000001
 43
0.00000001
 40
0.0
 40
0.0
 40
0.0
 40
0.0
 40
0.5
 40
0.5
 40
1.0
 40
1.0
 40
1.0
 40
1.0
 10
39.68750000000001
 20
-1.878740204526814
 30
0.0
 10
39.68750000000002
 20
-1.73472012006531
 30
0.0
 10
39.68750000000002
 20
-1.552745221052279
 30
0.0
 10
39.68750000000001
 20
-1.129671093977556
 30
0.0
 10
39.68750000000001
 20
-0.8889383487659308
 30
0.0
 10
39.68750000000001
 20
-0.636372265233167
 30
0.0
1001
PE_URL
1000

  0
SPLINE
  5
C2
330
1F
100
AcDbEntity
  8
0
  6
Continuous
 62
     1
370
    15
100
AcDbSpline
210
0.0
220
0.0
230
1.0
 70
    24
 71
     3
 72
     8
 73
     4
 74
     0
 42
0.000000001
 43
0.00000001
 40
0.0
 40
0.0
 40
0.0
 40
0.0
 40
1.0
 40
1.0
 40
1.0
 40
1.0
 10
38.23832768727661
 20
1.163237450647047
 30
0.0
 10
38.15979014769488
 20
1.097336630150445
 30
0.0
 10
38.07640712988962
 20
1.027369970663565
 30
0.0
 10
37.98965717569908
 20
0.954578116097629
 30
0.0
1001
PE_URL
1000

  0
LINE
  5
C3
330
1F
100
AcDbEntity
  8
0
  6
Continuous
 62
     1
370
    15
100
AcDbLine
 10
39.68750000000001
 20
1.666874999999999
 30
0.0
 11
38.80037479200075
 21
1.623626903149504
 31
0.0
1001
PE_URL
1000

  0
SPLINE
  5
C4
330
1F
100
AcDbEntity
  8
0
  6
Continuous
 62
     1
370
    15
100
AcDbSpline
210
0.0
220
0.0
230
1.0
 70
     8
 71
     3
 72
     8
 73
     4
 74
     0
 42
0.000000001
 43
0.00000001
 40
0.0
 40
0.0
 40
0.0
 40
0.0
 40
1.0
 40
1.0
 40
1.0
 40
1.0
 10
39.68750000000001
 20
1.666875000000001
 30
0.0
 10
39.19777141749205
 20
1.533916378226929
 30
0.0
 10
38.71254459560952
 20
1.370650605134004
 30
0.0
 10
38.2383276872859
 20
1.163237450651117
 30
0.0
1001
PE_URL
1000

  0
SPLINE
  5
C5
330
1F
100
AcDbEntity
  8
0
  6
Continuous
 62
     1
370
    15
100
AcDbSpline
210
0.0
220
0.0
230
1.0
 70
     8
 71
     3
 72
    13
 73
     9
 74
     0
 42
0.000000001
 43
0.00000001
 40
0.0
 40
0.0
 40
0.0
 40
0.0
 40
0.1578375643847328
 40
0.322849530118489
 40
0.4877448350590305
 40
0.6524999216213637
 40
0.826254374508791
 40
1.0
 40
1.0
 40
1.0
 40
1.0
 10
34.64460253461307
 20
-1.788658994295441
 30
0.0
 10
34.32527634972118
 20
-1.830498698698685
 30
0.0
 10
33.67210922091536
 20
-1.916079903398209
 30
0.0
 10
32.68510690493826
 20
-1.906855830545286
 30
0.0
 10
31.68426867982038
 20
-1.794524568298026
 30
0.0
 10
30.66589526003318
 20
-1.569882865228278
 30
0.0
 10
29.629524744814
 20
-1.247567477612858
 30
0.0
 10
28.92650229541157
 20
-0.9650879945685781
 30
0.0
 10
28.57500000000002
 20
-0.8238518408993272
 30
0.0
1001
PE_URL
1000

  0
SPLINE
  5
C6
330
1F
100
AcDbEntity
  8
외형선
  6
Continuous
370
    15
100
AcDbSpline
210
0.0
220
0.0
230
1.0
 70
    24
 71
     3
 72
    14
 73
    10
 74
     0
 42
0.000000001
 43
0.00000001
 40
0.0
 40
0.0
 40
0.0
 40
0.0
 40
0.2500000000000001
 40
0.2500000000000001
 40
0.5000000000000001
 40
0.5000000000000001
 40
0.75
 40
0.75
 40
1.0
 40
1.0
 40
1.0
 40
1.0
 10
28.57499999999995
 20
1.502936521801229
 30
0.0
 10
28.57499999999995
 20
1.373310446556201
 30
0.0
 10
28.57499999999995
 20
1.219123519150345
 30
0.0
 10
28.57499999999995
 20
0.8697781717975362
 30
0.0
 10
28.57499999999995
 20
0.67470991083355
 30
0.0
 10
28.57499999999995
 20
0.261172534890234
 30
0.0
 10
28.57499999999995
 20
0.0429237699140688
 30
0.0
 10
28.57499999999995
 20
-0.3947467874957775
 30
0.0
 10
28.57499999999995
 20
-0.6139543634231615
 30
0.0
 10
28.57499999999995
 20
-0.8238518408993016
 30
0.0
  0
LINE
  5
C7
330
1F
100
AcDbEntity
  8
0
  6
Continuous
 62
     1
370
    15
100
AcDbLine
 10
29.15419870179858
 20
-1.965022891334546
 30
0.0
 11
28.57500000000002
 21
-2.019657716820128
 31
0.0
1001
PE_URL
1000

  0
SPLINE
  5
C8
330
1F
100
AcDbEntity
  8
외형선
  6
Continuous
370
    15
100
AcDbSpline
210
0.0
220
0.0
230
1.0
 70
    24
 71
     3
 72
    10
 73
     6
 74
     0
 42
0.000000001
 43
0.00000001
 40
0.0
 40
0.0
 40
0.0
 40
0.0
 40
0.4999999999999999
 40
0.4999999999999999
 40
1.0
 40
1.0
 40
1.0
 40
1.0
 10
28.57500000000001
 20
-0.8238518408993271
 30
0.0
 10
28.57500000000001
 20
-1.134443009157846
 30
0.0
 10
28.57500000000001
 20
-1.416901710604053
 30
0.0
 10
28.57500000000002
 20
-1.834895119454853
 30
0.0
 10
28.57500000000001
 20
-1.968630619822659
 30
0.0
 10
28.57500000000001
 20
-2.019657716820128
 30
0.0
  0
LINE
  5
C9
330
1F
100
AcDbEntity
  8
0
  6
Continuous
 62
     1
370
    15
100
AcDbLine
 10
39.68750000000001
 20
0.000000000000001
 30
0.0
 11
39.68750000000001
 21
1.666875000000001
 31
0.0
1001
PE_URL
1000

  0
SPLINE
  5
CA
330
1F
100
AcDbEntity
  8
0
  6
Continuous
 62
     1
370
    15
100
AcDbSpline
210
0.0
220
0.0
230
1.0
 70
     8
 71
     3
 72
    10
 73
     6
 74
     0
 42
0.000000001
 43
0.00000001
 40
0.0
 40
0.0
 40
0.0
 40
0.0
 40
0.2465085405051385
 40
0.6232664038040462
 40
1.0
 40
1.0
 40
1.0
 40
1.0
 10
36.44375379405883
 20
1.59454703378723
 30
0.0
 10
36.71029499660931
 20
1.708128277745758
 30
0.0
 10
37.38421151260028
 20
1.995304427166618
 30
0.0
 10
38.46546199315205
 20
2.286237207176506
 30
0.0
 10
39.28016274385807
 20
2.348238003839419
 30
0.0
 10
39.68750000000002
 20
2.379237403765588
 30
0.0
1001
PE_URL
1000

  0
SPLINE
  5
CB
330
1F
100
AcDbEntity
  8
0
  6
Continuous
 62
     1
370
    15
100
AcDbSpline
210
0.0
220
0.0
230
1.0
 70
    24
 71
     3
 72
    10
 73
     6
 74
     0
 42
0.000000001
 43
0.00000001
 40
0.0
 40
0.0
 40
0.0
 40
0.0
 40
0.5
 40
0.5
 40
1.0
 40
1.0
 40
1.0
 40
1.0
 10
39.68750000000001
 20
1.666874999999999
 30
0.0
 10
39.68750000000002
 20
1.767916811522416
 30
0.0
 10
39.68750000000001
 20
1.885336753989823
 30
0.0
 10
39.68750000000002
 20
2.131683477038036
 30
0.0
 10
39.68750000000001
 20
2.259981119002256
 30
0.0
 10
39.68750000000001
 20
2.37923740376559
 30
0.0
1001
PE_URL
1000

  0
SPLINE
  5
CC
330
1F
100
AcDbEntity
  8
0
  6
Continuous
 62
     1
370
    15
100
AcDbSpline
210
0.0
220
0.0
230
1.0
 70
     8
 71
     3
 72
     9
 73
     5
 74
     0
 42
0.000000001
 43
0.00000001
 40
0.0
 40
0.0
 40
0.0
 40
0.0
 40
0.4402872301870397
 40
1.0
 40
1.0
 40
1.0
 40
1.0
 10
30.75937719103273
 20
-1.872739708270735
 30
0.0
 10
30.43879346062929
 20
-1.983315845143826
 30
0.0
 10
29.71066938974209
 20
-2.234461300409735
 30
0.0
 10
28.98254212700209
 20
-2.316414502035822
 30
0.0
 10
28.57499999999756
 20
-2.362284755512999
 30
0.0
1001
PE_URL
1000

  0
SPLINE
  5
CD
330
1F
100
AcDbEntity
  8
외형선
  6
Continuous
370
    15
100
AcDbSpline
210
0.0
220
0.0
230
1.0
 70
    24
 71
     3
 72
     8
 73
     4
 74
     0
 42
0.000000001
 43
0.00000001
 40
0.0
 40
0.0
 40
0.0
 40
0.0
 40
1.0
 40
1.0
 40
1.0
 40
1.0
 10
28.57500000000002
 20
-2.019657716820129
 30
0.0
 10
28.57500000000002
 20
-2.137677814703551
 30
0.0
 10
28.57500000000002
 20
-2.252637763437762
 30
0.0
 10
28.57500000000002
 20
-2.362284755500036
 30
0.0
  0
LINE
  5
CE
330
1F
100
AcDbEntity
  8
중심선
 62
     1
100
AcDbLine
 10
-42.68750000000001
 20
-0.0000000000000052
 30
0.0
 11
42.6875
 21
0.0000000000000052
 31
0.0
  0
LINE
  5
CF
330
1F
100
AcDbEntity
  8
참조1
100
AcDbLine
 10
0.0
 20
-0.0000000000000048
 30
0.0
 11
0.0000000000000036
 21
-40.00000000000001
 31
0.0
  0
LINE
  5
D0
330
1F
100
AcDbEntity
  8
참조1
100
AcDbLine
 10
0.0000000000000036
 20
-40.00000000000001
 30
0.0
 11
-11.29071559669921
 21
-40.0
 31
0.0
  0
CIRCLE
  5
D1
330
1F
100
AcDbEntity
  8
해칭선
100
AcDbCircle
 10
0.0
 20
0.0
 30
0.0
 40
2.999999999999999
  0
INSERT
  5
D2
330
1F
100
AcDbEntity
  8
0
  6
Continuous
 62
     7
100
AcDbBlockReference
 66
     1
  2
블럭10
 10
-13.94027293212521
 20
-52.04717430164393
 30
0.0
  0
ATTRIB
  5
D3
330
D2
100
AcDbEntity
  8
FORMAT
 62
     2
100
AcDbText
 10
-23.12156822086649
 20
-49.97180738881175
 30
0.0
 40
4.233333333333333
  1
E1050012 [ 2 FLUTE ]
 41
0.75
  7
SLDTEXTSTYLE0
 11
-23.12156822086649
 21
-52.08847405547841
 31
0.0
100
AcDbAttribute
  2
AUTOATTR0
 70
     0
 74
     1
  0
SEQEND
  5
D4
330
D2
100
AcDbEntity
  8
0
  6
Continuous
 62
     7
  0
HATCH
  5
D5
330
1F
100
AcDbEntity
  8
중심선
100
AcDbHatch
 10
0.0
 20
0.0
 30
0.0
210
0.0
220
0.0
230
1.0
  2
SOLID
 70
     1
 71
     0
 91
        1
 92
        0
 93
        4
 72
     1
 10
-8.225363627744358
 20
-35.8
 11
-11.67163887158164
 21
-35.8
 72
     1
 10
-11.67163887158164
 20
-35.8
 11
-13.79986873078566
 21
-38.3363255805726
 72
     1
 10
-13.79986873078566
 20
-38.3363255805726
 11
-10.35356040183523
 21
-38.33628615127011
 72
     1
 10
-10.35356040183523
 20
-38.33628615127011
 11
-8.225363627744358
 21
-35.8
 97
        0
 75
     0
 76
     1
 98
        1
 10
18.16921167873052
 20
-0.001074928723894
  0
HATCH
  5
D6
330
1F
100
AcDbEntity
  8
중심선
100
AcDbHatch
 10
0.0
 20
0.0
 30
0.0
210
0.0
220
0.0
230
1.0
  2
SOLID
 70
     1
 71
     0
 91
        1
 92
        0
 93
        4
 72
     1
 10
-3.212599636708404
 20
-35.80000000000003
 11
-6.658874880545689
 21
-35.8
 72
     1
 10
-6.658874880545689
 20
-35.8
 11
-11.19001288890308
 21
-41.20000000000002
 72
     1
 10
-11.19001288890308
 20
-41.20000000000002
 11
-7.743737645065796
 21
-41.20000000000002
 72
     1
 10
-7.743737645065796
 20
-41.20000000000002
 11
-3.212599636708404
 21
-35.80000000000003
 97
        0
 75
     0
 76
     1
 98
        1
 10
18.16921167873052
 20
-0.001074928723894
  0
HATCH
  5
D7
330
1F
100
AcDbEntity
  8
중심선
100
AcDbHatch
 10
0.0
 20
0.0
 30
0.0
210
0.0
220
0.0
230
1.0
  2
SOLID
 70
     1
 71
     0
 91
        1
 92
        0
 93
        4
 72
     1
 10
1.800164354327489
 20
-35.8
 11
-1.646110889509625
 21
-35.79999999999998
 72
     1
 10
-1.646110889509625
 20
-35.79999999999998
 11
-8.694547791398875
 21
-44.20000000000002
 72
     1
 10
-8.694547791398875
 20
-44.20000000000002
 11
-5.248272547561594
 21
-44.20000000000002
 72
     1
 10
-5.248272547561594
 20
-44.20000000000002
 11
1.800164354327489
 21
-35.8
 97
        0
 75
     0
 76
     1
 98
        1
 10
18.16921167873052
 20
-0.001074928723894
  0
HATCH
  5
D8
330
1F
100
AcDbEntity
  8
중심선
100
AcDbHatch
 10
0.0
 20
0.0
 30
0.0
210
0.0
220
0.0
230
1.0
  2
SOLID
 70
     1
 71
     0
 91
        1
 92
        0
 93
        6
 72
     3
 10
6.600054785339688
 20
-40.00000000005127
 11
3.960054785062283
 21
1.540882976769353E-10
 40
0.3939339440162628
 50
17.09539180608437
 51
320.0019657685077
 73
     0
 72
     1
 10
8.283054441040257
 20
-38.5878940046383
 11
10.58835631474135
 21
-36.65356729459038
 72
     3
 10
6.600054785286842
 20
-40.00000000000015
 11
6.600054785286829
 21
-1.278976924368180E-13
 40
0.636358354079598
 50
39.99873849337385
 51
368.4976242363725
 73
     1
 72
     1
 10
13.02538727718745
 20
-39.03999999993002
 11
5.280122092122765
 21
-39.03999999993002
 72
     1
 10
5.280122092122765
 20
-39.03999999993002
 11
5.280097047676831
 21
-40.95999999992991
 72
     1
 10
5.280097047676831
 20
-40.95999999992991
 11
9.721476817148869
 21
-40.95999999992988
 97
        0
 75
     0
 76
     1
 98
        1
 10
18.16921167873052
 20
-0.001074928723894
  0
DIMENSION
  5
D9
330
1F
100
AcDbEntity
  8
치수문자_일반주서
100
AcDbDimension
  2
_D
 10
-49.68749999999994
 20
-4.76250000000012
 30
0.0
 11
-49.68750000000004
 21
24.49149999999996
 31
0.0
 70
   160
  1
%%c<>
 71
     2
 42
9.524999999999997
 52
-270.0
  3
SLDDIMSTYLE0
100
AcDbAlignedDimension
 13
-18.68805401447665
 23
4.762499999999994
 33
0.0
 14
-18.68805401447666
 24
-4.762500000000003
 34
0.0
 50
90.0000000000002
100
AcDbRotatedDimension
1001
PE_URL
1000

1001
ACAD
1000
DSTYLE
1002
{
1070
   171
1070
     8
1070
   273
1070
     7
1002
}
  0
DIMENSION
  5
EE
330
1F
100
AcDbEntity
  8
치수문자_일반주서
100
AcDbDimension
  2
_D_1
 10
77.76655583122573
 20
2.379237403765732
 30
0.0
 11
77.76655583122567
 21
22.98323740376573
 31
0.0
 70
   160
  1
%%c<>
 71
     2
 42
4.758474807531181
 52
-270.0
  3
SLDDIMSTYLE0
100
AcDbAlignedDimension
 13
39.68750000000002
 23
-2.379237403765591
 33
0.0
 14
39.68750000000002
 24
2.37923740376559
 34
0.0
 50
90.0000000000002
100
AcDbRotatedDimension
1001
PE_URL
1000

1001
ACAD
1000
DSTYLE
1002
{
1070
   171
1070
     8
1070
   273
1070
     7
1002
}
  0
DIMENSION
  5
102
330
1F
100
AcDbEntity
  8
치수문자_일반주서
100
AcDbDimension
  2
_D_2
 10
28.57500000000002
 20
14.76249999999999
 30
0.0
 11
58.54150000000002
 21
14.76249999999999
 31
0.0
 70
   160
  1
<>
 71
     2
 42
11.1125
  3
SLDDIMSTYLE0
100
AcDbAlignedDimension
 13
39.68750000000002
 23
2.37923740376559
 33
0.0
 14
28.57500000000002
 24
2.362284755512819
 34
0.0
100
AcDbRotatedDimension
1001
PE_URL
1000

1001
ACAD
1000
DSTYLE
1002
{
1070
   171
1070
     8
1070
   273
1070
     7
1002
}
  0
DIMENSION
  5
117
330
1F
100
AcDbEntity
  8
치수문자_일반주서
100
AcDbDimension
  2
_D_3
 10
39.68750000000002
 20
24.7625
 30
0.0
 11
0.0000000000000142
 21
24.7625
 31
0.0
 70
   160
  1
<>
 71
     2
 42
79.37500000000004
  3
SLDDIMSTYLE0
100
AcDbAlignedDimension
 13
-39.68750000000002
 23
2.379237403765583
 33
0.0
 14
39.68750000000002
 24
2.37923740376559
 34
0.0
100
AcDbRotatedDimension
1001
PE_URL
1000

1001
ACAD
1000
DSTYLE
1002
{
1070
   171
1070
     8
1070
   273
1070
     7
1002
}
  0
LINE
  5
12A
330
1F
100
AcDbEntity
  8
참조1
100
AcDbLine
 10
86.68162503295505
 20
7.440000000000001
 30
0.0
 11
86.68162503295505
 21
-7.440000000000003
 31
0.0
  0
LINE
  5
12B
330
1F
100
AcDbEntity
  8
참조1
100
AcDbLine
 10
99.38162503295506
 20
5.440000000000001
 30
0.0
 11
86.68162503295505
 21
5.440000000000001
 31
0.0
  0
SOLID
  5
12C
330
1F
100
AcDbEntity
  8
참조1
100
AcDbTrace
 10
86.68162503295505
 20
5.440000000000001
 30
0.0
 11
93.03162503295505
 21
4.424000000000001
 31
0.0
 12
93.03162503295505
 22
6.456000000000001
 32
0.0
 13
93.03162503295505
 23
6.456000000000001
 33
0.0
  0
LINE
  5
12D
330
1F
100
AcDbEntity
  8
참조1
100
AcDbLine
 10
99.38162503295506
 20
-5.440000000000003
 30
0.0
 11
86.68162503295505
 21
-5.440000000000003
 31
0.0
  0
SOLID
  5
12E
330
1F
100
AcDbEntity
  8
참조1
100
AcDbTrace
 10
86.68162503295505
 20
-5.440000000000003
 30
0.0
 11
93.03162503295505
 21
-6.456000000000003
 31
0.0
 12
93.03162503295505
 22
-4.424000000000003
 32
0.0
 13
93.03162503295505
 23
-4.424000000000003
 33
0.0
  0
MTEXT
  5
12F
330
1F
100
AcDbEntity
  8
참조1
100
AcDbMText
 10
96.06597516558105
 20
11.01029177718833
 30
0.0
 40
3.5
 41
0.0
 71
     1
 72
     1
  1
A
  7
SLDTEXTSTYLE0
 73
     1
 44
1.0
  0
MTEXT
  5
130
330
1F
100
AcDbEntity
  8
참조1
100
AcDbMText
 10
96.06597516558105
 20
0.1302917771883252
 30
0.0
 40
3.5
 41
0.0
 71
     1
 72
     1
  1
A
  7
SLDTEXTSTYLE0
 73
     1
 44
1.0
  0
INSERT
  5
137
330
1F
100
AcDbEntity
  8
해칭선
100
AcDbBlockReference
  2
SW_DOWELSYMBOL_0
 10
0.0
 20
0.0
 30
0.0
  0
LINE
  5
1DF
330
1F
100
AcDbEntity
  8
외형선
  6
Continuous
370
    15
100
AcDbLine
 10
-3.568700000000064
 20
3.492500000000014
 30
0.0
 11
3.568700000000064
 21
3.492500000000014
 31
0.0
1001
PE_URL
1000

  0
LINE
  5
1E0
330
1F
100
AcDbEntity
  8
외형선
  6
Continuous
370
    15
100
AcDbLine
 10
-3.568700000000064
 20
3.492500000000014
 30
0.0
 11
-4.838700000000046
 21
4.762499999999996
 31
0.0
1001
PE_URL
1000

  0
LINE
  5
1E1
330
1F
100
AcDbEntity
  8
외형선
  6
Continuous
370
    15
100
AcDbLine
 10
3.568700000000064
 20
3.492500000000014
 30
0.0
 11
4.838700000000159
 21
4.762499999999996
 31
0.0
1001
PE_URL
1000

  0
LINE
  5
221
330
1F
100
AcDbEntity
  8
외형선
  6
Continuous
370
    15
100
AcDbLine
 10
-18.68805401447665
 20
4.762499999999994
 30
0.0
 11
-27.57500000000002
 21
2.381249999999998
 31
0.0
  0
LINE
  5
222
330
1F
100
AcDbEntity
  8
외형선
  6
Continuous
370
    15
100
AcDbLine
 10
-27.57500000000002
 20
-2.381250000000005
 30
0.0
 11
-18.68805401447665
 21
-4.762500000000003
 31
0.0
  0
LINE
  5
223
330
1F
100
AcDbEntity
  8
외형선
  6
Continuous
370
    15
100
AcDbLine
 10
-28.05340399141422
 20
-2.381250000000005
 30
0.0
 11
-27.57500000000002
 21
-2.381250000000005
 31
0.0
  0
LINE
  5
224
330
1F
100
AcDbEntity
  8
외형선
  6
Continuous
370
    15
100
AcDbLine
 10
-27.57500000000002
 20
2.381249999999998
 30
0.0
 11
-28.05324490981663
 21
2.381249999999998
 31
0.0
  0
LINE
  5
225
330
1F
100
AcDbEntity
  8
0
  6
Continuous
 62
     1
370
    15
100
AcDbLine
 10
-32.89860697521918
 20
-0.9192207017676708
 30
0.0
 11
-32.85681541147884
 21
-0.9406593020946161
 31
0.0
1001
PE_URL
1000

  0
SPLINE
  5
226
330
1F
100
AcDbEntity
  8
0
  6
Continuous
 62
     1
370
    15
100
AcDbSpline
210
0.0
220
0.0
230
1.0
 70
     8
 71
     3
 72
     9
 73
     5
 74
     0
 42
0.000000001
 43
0.00000001
 40
0.0
 40
0.0
 40
0.0
 40
0.0
 40
0.4731563573525338
 40
1.0
 40
1.0
 40
1.0
 40
1.0
 10
-33.51912773752066
 20
-0.6101208647417202
 30
0.0
 10
-33.42125000362873
 20
-0.6565304933214087
 30
0.0
 10
-33.21438871481589
 20
-0.7546156777610022
 30
0.0
 10
-33.00756875579955
 20
-0.8624230651115816
 30
0.0
 10
-32.89860697521918
 20
-0.9192207017676708
 30
0.0
1001
PE_URL
1000

  0
LINE
  5
227
330
1F
100
AcDbEntity
  8
0
  6
Continuous
 62
     1
370
    15
100
AcDbLine
 10
-32.46917404032712
 20
-0.523911260723505
 30
0.0
 11
-32.17635484910505
 21
-0.6844858121507862
 31
0.0
1001
PE_URL
1000

  0
SPLINE
  5
228
330
1F
100
AcDbEntity
  8
0
  6
Continuous
 62
     1
370
    15
100
AcDbSpline
210
0.0
220
0.0
230
1.0
 70
     8
 71
     3
 72
    16
 73
    12
 74
     0
 42
0.000000001
 43
0.00000001
 40
0.0
 40
0.0
 40
0.0
 40
0.0
 40
0.2091607777601417
 40
0.3458941743518331
 40
0.4392426267390973
 40
0.5314725282181084
 40
0.6213796650819159
 40
0.7084690839659321
 40
0.8041138509802334
 40
0.9160418592202875
 40
1.0
 40
1.0
 40
1.0
 40
1.0
 10
-32.7305118976485
 20
-1.892233235049083
 30
0.0
 10
-32.59250940798811
 20
-1.885518980029218
 30
0.0
 10
-32.36429139440662
 20
-1.874415456121177
 30
0.0
 10
-32.0757515440612
 20
-1.866196596418977
 30
0.0
 10
-31.86544151687828
 20
-1.862078008562513
 30
0.0
 10
-31.68439130733337
 20
-1.860013536351115
 30
0.0
 10
-31.50749811941693
 20
-1.85940729945289
 30
0.0
 10
-31.32845602519924
 20
-1.860190099254428
 30
0.0
 10
-31.1348515413685
 20
-1.862664717981367
 30
0.0
 10
-30.94328437919498
 20
-1.866560196757749
 30
0.0
 10
-30.81456074797433
 20
-1.870883195611039
 30
0.0
 10
-30.75938892084014
 20
-1.872736062432566
 30
0.0
1001
PE_URL
1000

  0
SPLINE
  5
229
330
1F
100
AcDbEntity
  8
0
  6
Continuous
 62
     1
370
    15
100
AcDbSpline
210
0.0
220
0.0
230
1.0
 70
     8
 71
     3
 72
    24
 73
    20
 74
     0
 42
0.000000001
 43
0.00000001
 40
0.0
 40
0.0
 40
0.0
 40
0.0
 40
0.0736405558455516
 40
0.1327494612111148
 40
0.2076444286190576
 40
0.2535317327818791
 40
0.299276379043641
 40
0.3479880095708976
 40
0.4010295894376978
 40
0.4595956227333233
 40
0.5229025423523532
 40
0.5816221458804378
 40
0.633355743376383
 40
0.6815331145837391
 40
0.7271698290025352
 40
0.7689281194447976
 40
0.8157077017419068
 40
0.8923865346469032
 40
1.0
 40
1.0
 40
1.0
 40
1.0
 10
-38.80179704451214
 20
-1.628653125864037
 30
0.0
 10
-38.69894322358924
 20
-1.620305856427461
 30
0.0
 10
-38.51353194913261
 20
-1.60525850232257
 30
0.0
 10
-38.22464407757617
 20
-1.587968812195314
 30
0.0
 10
-37.97562224743548
 20
-1.577156315600881
 30
0.0
 10
-37.74794969916246
 20
-1.570770464652504
 30
0.0
 10
-37.55315227614817
 20
-1.567515693476
 30
0.0
 10
-37.34877044656392
 20
-1.566594916119946
 30
0.0
 10
-37.12667136601996
 20
-1.568530515167843
 30
0.0
 10
-36.88417884600156
 20
-1.574104130029969
 30
0.0
 10
-36.63378419731866
 20
-1.583717646108049
 30
0.0
 10
-36.39288815987403
 20
-1.596670676982963
 30
0.0
 10
-36.17304623791229
 20
-1.611613622677297
 30
0.0
 10
-35.97144735403943
 20
-1.627849804807855
 30
0.0
 10
-35.78319104642851
 20
-1.645055245889566
 30
0.0
 10
-35.5983449474737
 20
-1.663818217257869
 30
0.0
 10
-35.37147033448903
 20
-1.689150183316446
 30
0.0
 10
-35.05036922135585
 20
-1.72927357089203
 30
0.0
 10
-34.79357904446888
 20
-1.768243821917672
 30
0.0
 10
-34.64363202517055
 20
-1.790999649470905
 30
0.0
1001
PE_URL
1000

  0
SPLINE
  5
22A
330
1F
100
AcDbEntity
  8
0
  6
Continuous
 62
     1
370
    15
100
AcDbSpline
210
0.0
220
0.0
230
1.0
 70
     8
 71
     3
 72
    12
 73
     8
 74
     0
 42
0.000000001
 43
0.00000001
 40
0.0
 40
0.0
 40
0.0
 40
0.0
 40
0.2461992789992031
 40
0.4337321202475689
 40
0.66092362987645
 40
0.8773608959528829
 40
1.0
 40
1.0
 40
1.0
 40
1.0
 10
-34.64363202517055
 20
1.790999649470891
 30
0.0
 10
-34.78856888042212
 20
1.768908226811398
 30
0.0
 10
-35.04390581636208
 20
1.72998951174311
 30
0.0
 10
-35.44867091109472
 20
1.679457426422328
 30
0.0
 10
-35.82660741773657
 20
1.639965858226461
 30
0.0
 10
-36.16803728541278
 20
1.610788783669104
 30
0.0
 10
-36.37123099638436
 20
1.599149755413006
 30
0.0
 10
-36.44472327380988
 20
1.594940084309158
 30
0.0
1001
PE_URL
1000

  0
SPLINE
  5
22B
330
1F
100
AcDbEntity
  8
0
  6
Continuous
 62
     1
370
    15
100
AcDbSpline
210
0.0
220
0.0
230
1.0
 70
     8
 71
     3
 72
    20
 73
    16
 74
     0
 42
0.000000001
 43
0.00000001
 40
0.0
 40
0.0
 40
0.0
 40
0.0
 40
0.1273963604824225
 40
0.2113985532668435
 40
0.283053639641427
 40
0.3553204970827001
 40
0.4287497605520274
 40
0.4994396077325823
 40
0.5515847391862654
 40
0.6067069978427193
 40
0.6639875986194943
 40
0.720087817821366
 40
0.7796651359529366
 40
0.8718233257134947
 40
1.0
 40
1.0
 40
1.0
 40
1.0
 10
-29.14920449468186
 20
1.9815337554096
 30
0.0
 10
-29.30170613236843
 20
1.966994253492732
 30
0.0
 10
-29.5547637978754
 20
1.942867742666152
 30
0.0
 10
-29.89289629178308
 20
1.91744041612262
 30
0.0
 10
-30.16361021846025
 20
1.899824555313835
 30
0.0
 10
-30.42303078720634
 20
1.885724637684159
 30
0.0
 10
-30.68160611370444
 20
1.874709138871186
 30
0.0
 10
-30.91518612893169
 20
1.867403142867641
 30
0.0
 10
-31.12560094369908
 20
1.862785150527177
 30
0.0
 10
-31.32242590445836
 20
1.860160753540043
 30
0.0
 10
-31.52486815076122
 20
1.859321470562158
 30
0.0
 10
-31.73196753623635
 20
1.860330160935305
 30
0.0
 10
-31.98000954804782
 20
1.863880939220476
 30
0.0
 10
-32.31407742277016
 20
1.872241404147619
 30
0.0
 10
-32.57735431123579
 20
1.884880576339125
 30
0.0
 10
-32.7305118976485
 20
1.89223323504908
 30
0.0
1001
PE_URL
1000

  0
LINE
  5
22C
330
1F
100
AcDbEntity
  8
외형선
  6
Continuous
370
    15
100
AcDbLine
 10
-18.68805401447665
 20
-4.762500000000003
 30
0.0
 11
-18.68805401447665
 21
4.762500000000001
 31
0.0
  0
LINE
  5
22D
330
1F
100
AcDbEntity
  8
외형선
  6
Continuous
370
    15
100
AcDbLine
 10
-27.57500000000002
 20
-2.381250000000005
 30
0.0
 11
-27.57500000000002
 21
2.381249999999998
 31
0.0
  0
LINE
  5
22E
330
1F
100
AcDbEntity
  8
외형선
  6
Continuous
370
    15
100
AcDbLine
 10
-28.57500000000002
 20
-2.362284755512821
 30
0.0
 11
-28.57500000000002
 21
-2.187568483741785
 31
0.0
  0
SPLINE
  5
22F
330
1F
100
AcDbEntity
  8
외형선
  6
Continuous
370
    15
100
AcDbSpline
210
0.0
220
0.0
230
1.0
 70
     8
 71
     3
 72
    10
 73
     6
 74
     0
 42
0.000000001
 43
0.00000001
 40
0.0
 40
0.0
 40
0.0
 40
0.0
 40
0.5
 40
0.5
 40
1.0
 40
1.0
 40
1.0
 40
1.0
 10
-28.57499999999998
 20
-2.187568483741792
 30
0.0
 10
-28.4258385629222
 20
-2.221479200041706
 30
0.0
 10
-28.2764507352587
 20
-2.251130174454325
 30
0.0
 10
-27.97982834694952
 20
-2.301444281019005
 30
0.0
 10
-27.83343300962648
 20
-2.322094080264652
 30
0.0
 10
-27.6851075237614
 20
-2.338294847362189
 30
0.0
  0
LINE
  5
230
330
1F
100
AcDbEntity
  8
외형선
  6
Continuous
370
    15
100
AcDbLine
 10
-27.6851075237614
 20
2.371696738545268
 30
0.0
 11
-27.6851075237614
 21
-2.338415171460387
 31
0.0
  0
SPLINE
  5
231
330
1F
100
AcDbEntity
  8
외형선
  6
Continuous
370
    15
100
AcDbSpline
210
0.0
220
0.0
230
1.0
 70
     8
 71
     3
 72
    10
 73
     6
 74
     0
 42
0.000000001
 43
0.00000001
 40
0.0
 40
0.0
 40
0.0
 40
0.0
 40
0.5
 40
0.5
 40
1.0
 40
1.0
 40
1.0
 40
1.0
 10
-28.57499999999998
 20
2.362284755512821
 30
0.0
 10
-28.42585742722455
 20
2.373095765320244
 30
0.0
 10
-28.2764885204397
 20
2.379295173902396
 30
0.0
 10
-27.97990310250929
 20
2.382415142781667
 30
0.0
 10
-27.83352626337006
 20
2.379368404667364
 30
0.0
 10
-27.68522007503936
 20
2.371705868683918
 30
0.0
  0
SPLINE
  5
232
330
1F
100
AcDbEntity
  8
외형선
  6
Continuous
370
    15
100
AcDbSpline
210
0.0
220
0.0
230
1.0
 70
     8
 71
     3
 72
     9
 73
     5
 74
     0
 42
0.000000001
 43
0.00000001
 40
0.0
 40
0.0
 40
0.0
 40
0.0
 40
0.8547420972217508
 40
1.0
 40
1.0
 40
1.0
 40
1.0
 10
-28.57499999999998
 20
-2.362284755512825
 30
0.0
 10
-28.42625332430672
 20
-2.371991497634195
 30
0.0
 10
-28.25222811111465
 20
-2.383347837930195
 30
0.0
 10
-28.07862169528629
 20
-2.380251317013414
 30
0.0
 10
-28.05340399141422
 20
-2.379801522879131
 30
0.0
  0
SPLINE
  5
233
330
1F
100
AcDbEntity
  8
외형선
  6
Continuous
370
    15
100
AcDbSpline
210
0.0
220
0.0
230
1.0
 70
     8
 71
     3
 72
    10
 73
     6
 74
     0
 42
0.000000001
 43
0.00000001
 40
0.0
 40
0.0
 40
0.0
 40
0.0
 40
0.5
 40
0.5
 40
1.0
 40
1.0
 40
1.0
 40
1.0
 10
-28.57499999999996
 20
2.019657716820127
 30
0.0
 10
-28.42585742722454
 20
2.024468201240822
 30
0.0
 10
-28.27648852043968
 20
2.025333753021012
 30
0.0
 10
-27.97990310250928
 20
2.01920470814008
 30
0.0
 10
-27.83352626337005
 20
2.012246168216063
 30
0.0
 10
-27.68522007503936
 20
2.001373485601011
 30
0.0
  0
SPLINE
  5
234
330
1F
100
AcDbEntity
  8
외형선
  6
Continuous
370
    15
100
AcDbSpline
210
0.0
220
0.0
230
1.0
 70
     8
 71
     3
 72
    10
 73
     6
 74
     0
 42
0.000000001
 43
0.00000001
 40
0.0
 40
0.0
 40
0.0
 40
0.0
 40
0.5
 40
0.5
 40
1.0
 40
1.0
 40
1.0
 40
1.0
 10
-28.57499999999995
 20
0.8238518408992945
 30
0.0
 10
-28.42584545294027
 20
0.7619357617065639
 30
0.0
 10
-28.27646453595963
 20
0.6983785051263851
 30
0.0
 10
-27.97985565072595
 20
0.569107828855099
 30
0.0
 10
-27.83346706977479
 20
0.5035257753370246
 30
0.0
 10
-27.68514863215871
 20
0.4368106112104151
 30
0.0
  0
SPLINE
  5
235
330
1F
100
AcDbEntity
  8
외형선
  6
Continuous
370
    15
100
AcDbSpline
210
0.0
220
0.0
230
1.0
 70
    24
 71
     3
 72
    10
 73
     6
 74
     0
 42
0.000000001
 43
0.00000001
 40
0.0
 40
0.0
 40
0.0
 40
0.0
 40
0.5000000000000001
 40
0.5000000000000001
 40
1.0
 40
1.0
 40
1.0
 40
1.0
 10
-28.57500000000001
 20
0.823851840899323
 30
0.0
 10
-28.57500000000001
 20
1.134443009157842
 30
0.0
 10
-28.57500000000001
 20
1.416901710604048
 30
0.0
 10
-28.57500000000001
 20
1.834895119454849
 30
0.0
 10
-28.57500000000001
 20
1.968630619822655
 30
0.0
 10
-28.57500000000001
 20
2.019657716820124
 30
0.0
  0
SPLINE
  5
236
330
1F
100
AcDbEntity
  8
외형선
  6
Continuous
370
    15
100
AcDbSpline
210
0.0
220
0.0
230
1.0
 70
     8
 71
     3
 72
    10
 73
     6
 74
     0
 42
0.000000001
 43
0.00000001
 40
0.0
 40
0.0
 40
0.0
 40
0.0
 40
0.5
 40
0.5
 40
1.0
 40
1.0
 40
1.0
 40
1.0
 10
-28.57499999999992
 20
-1.502936521801239
 30
0.0
 10
-28.42584310893049
 20
-1.52892224790244
 30
0.0
 10
-28.27645984090995
 20
-1.551982895236424
 30
0.0
 10
-27.9798463618765
 20
-1.591885388558563
 30
0.0
 10
-27.83345548239225
 20
-1.608713158169831
 30
0.0
 10
-27.68513464693524
 20
-1.622464956736184
 30
0.0
  0
SPLINE
  5
237
330
1F
100
AcDbEntity
  8
외형선
  6
Continuous
370
    15
100
AcDbSpline
210
0.0
220
0.0
230
1.0
 70
    24
 71
     3
 72
    14
 73
    10
 74
     0
 42
0.000000001
 43
0.00000001
 40
0.0
 40
0.0
 40
0.0
 40
0.0
 40
0.25
 40
0.25
 40
0.5
 40
0.5
 40
0.75
 40
0.75
 40
1.0
 40
1.0
 40
1.0
 40
1.0
 10
-28.57499999999995
 20
-1.502936521801235
 30
0.0
 10
-28.57499999999995
 20
-1.373310446556204
 30
0.0
 10
-28.57499999999995
 20
-1.219123519150351
 30
0.0
 10
-28.57499999999995
 20
-0.8697781717975417
 30
0.0
 10
-28.57499999999995
 20
-0.6747099108335526
 30
0.0
 10
-28.57499999999995
 20
-0.2611725348902389
 30
0.0
 10
-28.57499999999995
 20
-0.0429237699140721
 30
0.0
 10
-28.57499999999995
 20
0.3947467874957731
 30
0.0
 10
-28.57499999999995
 20
0.6139543634231579
 30
0.0
 10
-28.57499999999995
 20
0.8238518408992981
 30
0.0
  0
SPLINE
  5
238
330
1F
100
AcDbEntity
  8
외형선
  6
Continuous
370
    15
100
AcDbSpline
210
0.0
220
0.0
230
1.0
 70
    24
 71
     3
 72
    10
 73
     6
 74
     0
 42
0.000000001
 43
0.00000001
 40
0.0
 40
0.0
 40
0.0
 40
0.0
 40
0.5
 40
0.5
 40
1.0
 40
1.0
 40
1.0
 40
1.0
 10
-28.57500000000001
 20
-2.187568483741781
 30
0.0
 10
-28.57500000000001
 20
-2.093237688500441
 30
0.0
 10
-28.57500000000001
 20
-1.980688421241954
 30
0.0
 10
-28.57500000000001
 20
-1.743360761933832
 30
0.0
 10
-28.57500000000001
 20
-1.619269477110922
 30
0.0
 10
-28.57500000000001
 20
-1.502936521801221
 30
0.0
  0
SPLINE
  5
239
330
1F
100
AcDbEntity
  8
외형선
  6
Continuous
370
    15
100
AcDbSpline
210
0.0
220
0.0
230
1.0
 70
    24
 71
     3
 72
     8
 73
     4
 74
     0
 42
0.000000001
 43
0.00000001
 40
0.0
 40
0.0
 40
0.0
 40
0.0
 40
1.0
 40
1.0
 40
1.0
 40
1.0
 10
-28.57500000000002
 20
2.019657716820124
 30
0.0
 10
-28.57500000000002
 20
2.137677814703547
 30
0.0
 10
-28.57500000000002
 20
2.252637763437765
 30
0.0
 10
-28.57500000000002
 20
2.362284755500038
 30
0.0
  0
SPLINE
  5
23A
330
1F
100
AcDbEntity
  8
0
  6
Continuous
 62
     1
370
    15
100
AcDbSpline
210
0.0
220
0.0
230
1.0
 70
     8
 71
     3
 72
    38
 73
    34
 74
     0
 42
0.000000001
 43
0.00000001
 40
0.0
 40
0.0
 40
0.0
 40
0.0
 40
0.0625
 40
0.0625
 40
0.125
 40
0.125
 40
0.1875
 40
0.1875
 40
0.25
 40
0.25
 40
0.3125
 40
0.3125
 40
0.375
 40
0.375
 40
0.4375
 40
0.4375
 40
0.5
 40
0.5
 40
0.5625
 40
0.5625
 40
0.625
 40
0.625
 40
0.6875
 40
0.6875
 40
0.75
 40
0.75
 40
0.8125
 40
0.8125
 40
0.875
 40
0.875
 40
0.9375
 40
0.9375
 40
1.0
 40
1.0
 40
1.0
 40
1.0
 10
-39.68750000000002
 20
2.259665444858456
 30
0.0
 10
-39.45833798969443
 20
2.217642723812748
 30
0.0
 10
-39.22500982050659
 20
2.164683373962195
 30
0.0
 10
-38.75983364516401
 20
2.038822492450294
 30
0.0
 10
-38.53076238314306
 20
1.966276958106132
 30
0.0
 10
-38.06828516802513
 20
1.802933444065562
 30
0.0
 10
-37.83435569064144
 20
1.711984308669248
 30
0.0
 10
-37.3710107912274
 20
1.515348022785741
 30
0.0
 10
-37.14247857833059
 20
1.409875466725897
 30
0.0
 10
-36.67764417602776
 20
1.185433478211543
 30
0.0
 10
-36.44404655325871
 20
1.066835820522655
 30
0.0
 10
-35.98434024824664
 20
0.8220143103079707
 30
0.0
 10
-35.75262220173747
 20
0.6948156852100063
 30
0.0
 10
-35.28725740822784
 20
0.4346735913090178
 30
0.0
 10
-35.05733616422778
 20
0.3024458166001409
 30
0.0
 10
-34.59587683543442
 20
0.0360898422833245
 30
0.0
 10
-34.36202540274407
 20
-0.0984882303648646
 30
0.0
 10
-33.89796396807559
 20
-0.3647514590486551
 30
0.0
 10
-33.66965928331408
 20
-0.4960805858709278
 30
0.0
 10
-33.20531943383904
 20
-0.7542790637188226
 30
0.0
 10
-32.97153003108253
 20
-0.8806911780447351
 30
0.0
 10
-32.51058863399778
 20
-1.122852631737381
 30
0.0
 10
-32.28017265922434
 20
-1.239204644890922
 30
0.0
 10
-31.81477260956688
 20
-1.459837108421748
 30
0.0
 10
-31.58369137728865
 20
-1.563482140033404
 30
0.0
 10
-31.12339902866907
 20
-1.754862359361859
 30
0.0
 10
-30.88970359803225
 20
-1.843174729500554
 30
0.0
 10
-30.42507756083355
 20
-2.001153897154847
 30
0.0
 10
-30.19668863485038
 20
-2.07063566338212
 30
0.0
 10
-29.73299557583224
 20
-2.190129263234333
 30
0.0
 10
-29.4990922810619
 20
-2.239900231778414
 30
0.0
 10
-29.03706432302564
 20
-2.317459780418712
 30
0.0
 10
-28.8076409525252
 20
-2.345421135873288
 30
0.0
 10
-28.57499999999756
 20
-2.362284755513002
 30
0.0
1001
PE_URL
1000

  0
SPLINE
  5
23B
330
1F
100
AcDbEntity
  8
0
  6
Continuous
 62
     1
370
    15
100
AcDbSpline
210
0.0
220
0.0
230
1.0
 70
     8
 71
     3
 72
    14
 73
    10
 74
     0
 42
0.000000001
 43
0.00000001
 40
0.0
 40
0.0
 40
0.0
 40
0.0
 40
0.1617984236723538
 40
0.3234358485828022
 40
0.4849813188050642
 40
0.6465046939205442
 40
0.8080760299838344
 40
0.969764956829605
 40
1.0
 40
1.0
 40
1.0
 40
1.0
 10
-39.68750000000001
 20
1.878740204526807
 30
0.0
 10
-39.35370170203802
 20
1.807164051976422
 30
0.0
 10
-38.68643725466947
 20
1.66408296927499
 30
0.0
 10
-37.68610055650439
 20
1.322398369836002
 30
0.0
 10
-36.68640015288814
 20
0.9115498059035723
 30
0.0
 10
-35.68686354950198
 20
0.4442744877386957
 30
0.0
 10
-34.68697421710249
 20
-0.0447802219034621
 30
0.0
 10
-33.95782587699613
 20
-0.4095285915978089
 30
0.0
 10
-33.56186999390131
 20
-0.5878374096982668
 30
0.0
 10
-33.49949246378908
 20
-0.6159275685902266
 30
0.0
1001
PE_URL
1000

  0
LINE
  5
23C
330
1F
100
AcDbEntity
  8
0
  6
Continuous
 62
     1
370
    15
100
AcDbLine
 10
-39.68749999999994
 20
2.259665444858456
 30
0.0
 11
-39.68750000000001
 21
1.878740204526807
 31
0.0
1001
PE_URL
1000

  0
SPLINE
  5
23D
330
1F
100
AcDbEntity
  8
0
  6
Continuous
 62
     1
370
    15
100
AcDbSpline
210
0.0
220
0.0
230
1.0
 70
     8
 71
     3
 72
    38
 73
    34
 74
     0
 42
0.000000001
 43
0.00000001
 40
0.0
 40
0.0
 40
0.0
 40
0.0
 40
0.0625
 40
0.0625
 40
0.1249999999999999
 40
0.1249999999999999
 40
0.1874999999999999
 40
0.1874999999999999
 40
0.2499999999999998
 40
0.2499999999999998
 40
0.3124999999999998
 40
0.3124999999999998
 40
0.3749999999999998
 40
0.3749999999999998
 40
0.4374999999999998
 40
0.4374999999999998
 40
0.4999999999999997
 40
0.4999999999999997
 40
0.5624999999999997
 40
0.5624999999999997
 40
0.6249999999999997
 40
0.6249999999999997
 40
0.6874999999999996
 40
0.6874999999999996
 40
0.7499999999999996
 40
0.7499999999999996
 40
0.8124999999999997
 40
0.8124999999999997
 40
0.8749999999999997
 40
0.8749999999999997
 40
0.9374999999999999
 40
0.9374999999999999
 40
1.0
 40
1.0
 40
1.0
 40
1.0
 10
-39.68750000000002
 20
2.379237403765583
 30
0.0
 10
-39.45833798969447
 20
2.373761608834592
 30
0.0
 10
-39.2250098205067
 20
2.357004213445148
 30
0.0
 10
-38.75983364516422
 20
2.301305464592701
 30
0.0
 10
-38.5307623831433
 20
2.262588719353907
 30
0.0
 10
-38.0682851680255
 20
2.164008674353699
 30
0.0
 10
-37.83435569064185
 20
2.104002381805763
 30
0.0
 10
-37.3710107912279
 20
1.965058360306131
 30
0.0
 10
-37.14247857833114
 20
1.886320719968818
 30
0.0
 10
-36.67764417602842
 20
1.710895135803554
 30
0.0
 10
-36.44404655325941
 20
1.614455351603794
 30
0.0
 10
-35.98434024824743
 20
1.408368498385641
 30
0.0
 10
-35.75262220173833
 20
1.29791393508669
 30
0.0
 10
-35.28725740822881
 20
1.06542957249205
 30
0.0
 10
-35.05733616422877
 20
0.9440530693001428
 30
0.0
 10
-34.59587683543553
 20
0.6932991639876391
 30
0.0
 10
-34.36202540274523
 20
0.5634728391445094
 30
0.0
 10
-33.89796396807684
 20
0.3003788629892483
 30
0.0
 10
-33.66965928331538
 20
0.1675004833545302
 30
0.0
 10
-33.20531943384046
 20
-0.100057954021608
 30
0.0
 10
-32.97153003108399
 20
-0.2343028462857752
 30
0.0
 10
-32.51058863399933
 20
-0.4980595810134893
 30
0.0
 10
-32.28017265922596
 20
-0.6282039634729664
 30
0.0
 10
-31.8147726095686
 20
-0.8821692012659952
 30
0.0
 10
-31.58369137729038
 20
-1.005264617295289
 30
0.0
 10
-31.12339902867094
 20
-1.240543690609524
 30
0.0
 10
-30.88970359803418
 20
-1.353460232345395
 30
0.0
 10
-30.42507756083556
 20
-1.564961378381774
 30
0.0
 10
-30.19668863485243
 20
-1.66323617477715
 30
0.0
 10
-29.73299557583442
 20
-1.84416771607081
 30
0.0
 10
-29.49909228106412
 20
-1.926541874218334
 30
0.0
 10
-29.03706432302792
 20
-2.071686017632935
 30
0.0
 10
-28.80764095252756
 20
-2.134679335611693
 30
0.0
 10
-28.57499999999998
 20
-2.187568483741792
 30
0.0
1001
PE_URL
1000

  0
SPLINE
  5
23E
330
1F
100
AcDbEntity
  8
0
  6
Continuous
 62
     1
370
    15
100
AcDbSpline
210
0.0
220
0.0
230
1.0
 70
     8
 71
     3
 72
    13
 73
     9
 74
     0
 42
0.000000001
 43
0.00000001
 40
0.0
 40
0.0
 40
0.0
 40
0.0
 40
0.0156305533284452
 40
0.2085119932555604
 40
0.401253448191861
 40
0.5938266250367796
 40
0.7969186107297787
 40
1.0
 40
1.0
 40
1.0
 40
1.0
 10
-33.76774637877093
 20
0.224224507448028
 30
0.0
 10
-33.74069124874265
 20
0.2136383977705307
 30
0.0
 10
-33.37977510128174
 20
0.0724194157361495
 30
0.0
 10
-32.68510266264536
 20
-0.2141625595148255
 30
0.0
 10
-31.68427409676082
 20
-0.6077536970782411
 30
0.0
 10
-30.66588111591495
 20
-0.9726086782259031
 30
0.0
 10
-29.62952128036908
 20
-1.290001330315462
 30
0.0
 10
-28.92650097989273
 20
-1.431959359126331
 30
0.0
 10
-28.57500000000002
 20
-1.502936521801221
 30
0.0
1001
PE_URL
1000

  0
SPLINE
  5
23F
330
1F
100
AcDbEntity
  8
외형선
  6
Continuous
370
    15
100
AcDbSpline
210
0.0
220
0.0
230
1.0
 70
    24
 71
     3
 72
    10
 73
     6
 74
     0
 42
0.000000001
 43
0.00000001
 40
0.0
 40
0.0
 40
0.0
 40
0.0
 40
0.5000000000000004
 40
0.5000000000000004
 40
1.0
 40
1.0
 40
1.0
 40
1.0
 10
-28.57500000000002
 20
-2.187568483741781
 30
0.0
 10
-28.57500000000002
 20
-2.093237688500441
 30
0.0
 10
-28.57500000000002
 20
-1.980688421241954
 30
0.0
 10
-28.57500000000002
 20
-1.743360761933836
 30
0.0
 10
-28.57500000000002
 20
-1.619269477110922
 30
0.0
 10
-28.57500000000002
 20
-1.502936521801221
 30
0.0
  0
LINE
  5
240
330
1F
100
AcDbEntity
  8
0
  6
Continuous
 62
     1
370
    15
100
AcDbLine
 10
-39.68750000000002
 20
2.379237403765583
 30
0.0
 11
-39.68749999999993
 21
2.259665444858452
 31
0.0
1001
PE_URL
1000

  0
SPLINE
  5
241
330
1F
100
AcDbEntity
  8
0
  6
Continuous
 62
     1
370
    15
100
AcDbSpline
210
0.0
220
0.0
230
1.0
 70
     8
 71
     3
 72
     8
 73
     4
 74
     0
 42
0.000000001
 43
0.00000001
 40
0.0
 40
0.0
 40
0.0
 40
0.0
 40
1.0
 40
1.0
 40
1.0
 40
1.0
 10
-38.21343131851545
 20
-0.6667656290396486
 30
0.0
 10
-38.12907539430417
 20
-0.7667237491414554
 30
0.0
 10
-38.05376846147553
 20
-0.8629558787205909
 30
0.0
 10
-37.98965717569904
 20
-0.9545781160976539
 30
0.0
1001
PE_URL
1000

  0
LINE
  5
242
330
1F
100
AcDbEntity
  8
0
  6
Continuous
 62
     1
370
    15
100
AcDbLine
 10
-38.01978317140751
 20
-0.9798568279854827
 30
0.0
 11
-39.68750000000001
 21
-0.0000000000000071
 31
0.0
1001
PE_URL
1000

  0
LINE
  5
243
330
1F
100
AcDbEntity
  8
0
  6
Continuous
 62
     1
370
    15
100
AcDbLine
 10
-39.68750000000001
 20
-0.0000000000000071
 30
0.0
 11
-39.68750000000001
 21
0.636372265233085
 31
0.0
1001
PE_URL
1000

  0
SPLINE
  5
244
330
1F
100
AcDbEntity
  8
0
  6
Continuous
 62
     1
370
    15
100
AcDbSpline
210
0.0
220
0.0
230
1.0
 70
     8
 71
     3
 72
    10
 73
     6
 74
     0
 42
0.000000001
 43
0.00000001
 40
0.0
 40
0.0
 40
0.0
 40
0.0
 40
0.5
 40
0.5
 40
1.0
 40
1.0
 40
1.0
 40
1.0
 10
-39.68750000000001
 20
0.636372265233085
 30
0.0
 10
-39.43232507708537
 20
0.4357598858607616
 30
0.0
 10
-39.18141634127838
 20
0.2269170311293109
 30
0.0
 10
-38.68834008684128
 20
-0.207632536098675
 30
0.0
 10
-38.44388005573236
 20
-0.4356364190385591
 30
0.0
 10
-38.21343131851544
 20
-0.6667656290396557
 30
0.0
1001
PE_URL
1000

  0
SPLINE
  5
245
330
1F
100
AcDbEntity
  8
0
  6
Continuous
 62
     1
370
    15
100
AcDbSpline
210
0.0
220
0.0
230
1.0
 70
     8
 71
     3
 72
    13
 73
     9
 74
     0
 42
0.000000001
 43
0.00000001
 40
0.0
 40
0.0
 40
0.0
 40
0.0
 40
0.1394675154986139
 40
0.2785209788853706
 40
0.4608061784375678
 40
0.6431462474437106
 40
0.8256208564766907
 40
1.0
 40
1.0
 40
1.0
 40
1.0
 10
-38.21343131851545
 20
-0.6667656290396522
 30
0.0
 10
-37.95845858177024
 20
-0.7746311782940083
 30
0.0
 10
-37.44927007308083
 20
-0.9900420448239267
 30
0.0
 10
-36.60740875280507
 20
-1.303341760837736
 30
0.0
 10
-35.68681228893372
 20
-1.587490186258876
 30
0.0
 10
-34.68695196066714
 20
-1.800165870227612
 30
0.0
 10
-33.70141177291165
 20
-1.914759477182834
 30
0.0
 10
-33.04904891792685
 20
-1.897985824636631
 30
0.0
 10
-32.73026713378202
 20
-1.889789259114167
 30
0.0
1001
PE_URL
1000

  0
SPLINE
  5
246
330
1F
100
AcDbEntity
  8
0
  6
Continuous
 62
     1
370
    15
100
AcDbSpline
210
0.0
220
0.0
230
1.0
 70
    24
 71
     3
 72
    10
 73
     6
 74
     0
 42
0.000000001
 43
0.00000001
 40
0.0
 40
0.0
 40
0.0
 40
0.0
 40
0.5
 40
0.5
 40
1.0
 40
1.0
 40
1.0
 40
1.0
 10
-39.68750000000001
 20
1.878740204526807
 30
0.0
 10
-39.68750000000002
 20
1.734720120065305
 30
0.0
 10
-39.68750000000002
 20
1.55274522105227
 30
0.0
 10
-39.68750000000001
 20
1.129671093977549
 30
0.0
 10
-39.68750000000001
 20
0.8889383487659224
 30
0.0
 10
-39.68750000000001
 20
0.6363722652331596
 30
0.0
1001
PE_URL
1000

  0
SPLINE
  5
247
330
1F
100
AcDbEntity
  8
0
  6
Continuous
 62
     1
370
    15
100
AcDbSpline
210
0.0
220
0.0
230
1.0
 70
    24
 71
     3
 72
     8
 73
     4
 74
     0
 42
0.000000001
 43
0.00000001
 40
0.0
 40
0.0
 40
0.0
 40
0.0
 40
1.0
 40
1.0
 40
1.0
 40
1.0
 10
-38.23832768727661
 20
-1.163237450647053
 30
0.0
 10
-38.15979014769488
 20
-1.097336630150451
 30
0.0
 10
-38.07640712988962
 20
-1.027369970663571
 30
0.0
 10
-37.98965717569908
 20
-0.9545781160976361
 30
0.0
1001
PE_URL
1000

  0
LINE
  5
248
330
1F
100
AcDbEntity
  8
0
  6
Continuous
 62
     1
370
    15
100
AcDbLine
 10
-39.68750000000001
 20
-1.666875000000005
 30
0.0
 11
-38.80037479200075
 21
-1.623626903149511
 31
0.0
1001
PE_URL
1000

  0
SPLINE
  5
249
330
1F
100
AcDbEntity
  8
0
  6
Continuous
 62
     1
370
    15
100
AcDbSpline
210
0.0
220
0.0
230
1.0
 70
     8
 71
     3
 72
     8
 73
     4
 74
     0
 42
0.000000001
 43
0.00000001
 40
0.0
 40
0.0
 40
0.0
 40
0.0
 40
1.0
 40
1.0
 40
1.0
 40
1.0
 10
-39.68750000000001
 20
-1.666875000000008
 30
0.0
 10
-39.19777141749205
 20
-1.533916378226937
 30
0.0
 10
-38.71254459560952
 20
-1.37065060513401
 30
0.0
 10
-38.2383276872859
 20
-1.163237450651124
 30
0.0
1001
PE_URL
1000

  0
SPLINE
  5
24A
330
1F
100
AcDbEntity
  8
0
  6
Continuous
 62
     1
370
    15
100
AcDbSpline
210
0.0
220
0.0
230
1.0
 70
     8
 71
     3
 72
    13
 73
     9
 74
     0
 42
0.000000001
 43
0.00000001
 40
0.0
 40
0.0
 40
0.0
 40
0.0
 40
0.1578375643847328
 40
0.322849530118489
 40
0.4877448350590305
 40
0.6524999216213637
 40
0.826254374508791
 40
1.0
 40
1.0
 40
1.0
 40
1.0
 10
-34.64460253461307
 20
1.788658994295432
 30
0.0
 10
-34.32527634972118
 20
1.830498698698676
 30
0.0
 10
-33.67210922091536
 20
1.916079903398202
 30
0.0
 10
-32.68510690493826
 20
1.906855830545283
 30
0.0
 10
-31.68426867982038
 20
1.794524568298023
 30
0.0
 10
-30.66589526003318
 20
1.569882865228276
 30
0.0
 10
-29.629524744814
 20
1.247567477612854
 30
0.0
 10
-28.92650229541157
 20
0.9650879945685737
 30
0.0
 10
-28.57500000000002
 20
0.823851840899323
 30
0.0
1001
PE_URL
1000

  0
SPLINE
  5
24B
330
1F
100
AcDbEntity
  8
외형선
  6
Continuous
370
    15
100
AcDbSpline
210
0.0
220
0.0
230
1.0
 70
    24
 71
     3
 72
    14
 73
    10
 74
     0
 42
0.000000001
 43
0.00000001
 40
0.0
 40
0.0
 40
0.0
 40
0.0
 40
0.2500000000000001
 40
0.2500000000000001
 40
0.5000000000000001
 40
0.5000000000000001
 40
0.75
 40
0.75
 40
1.0
 40
1.0
 40
1.0
 40
1.0
 10
-28.57499999999995
 20
-1.502936521801232
 30
0.0
 10
-28.57499999999995
 20
-1.373310446556204
 30
0.0
 10
-28.57499999999995
 20
-1.219123519150347
 30
0.0
 10
-28.57499999999995
 20
-0.8697781717975381
 30
0.0
 10
-28.57499999999995
 20
-0.6747099108335526
 30
0.0
 10
-28.57499999999995
 20
-0.2611725348902389
 30
0.0
 10
-28.57499999999995
 20
-0.0429237699140721
 30
0.0
 10
-28.57499999999995
 20
0.3947467874957731
 30
0.0
 10
-28.57499999999995
 20
0.6139543634231579
 30
0.0
 10
-28.57499999999995
 20
0.8238518408992981
 30
0.0
  0
LINE
  5
24C
330
1F
100
AcDbEntity
  8
0
  6
Continuous
 62
     1
370
    15
100
AcDbLine
 10
-29.15419870179858
 20
1.965022891334542
 30
0.0
 11
-28.57500000000002
 21
2.019657716820124
 31
0.0
1001
PE_URL
1000

  0
SPLINE
  5
24D
330
1F
100
AcDbEntity
  8
외형선
  6
Continuous
370
    15
100
AcDbSpline
210
0.0
220
0.0
230
1.0
 70
    24
 71
     3
 72
    10
 73
     6
 74
     0
 42
0.000000001
 43
0.00000001
 40
0.0
 40
0.0
 40
0.0
 40
0.0
 40
0.4999999999999999
 40
0.4999999999999999
 40
1.0
 40
1.0
 40
1.0
 40
1.0
 10
-28.57500000000001
 20
0.823851840899323
 30
0.0
 10
-28.57500000000001
 20
1.134443009157842
 30
0.0
 10
-28.57500000000001
 20
1.416901710604048
 30
0.0
 10
-28.57500000000002
 20
1.834895119454849
 30
0.0
 10
-28.57500000000001
 20
1.968630619822655
 30
0.0
 10
-28.57500000000001
 20
2.019657716820124
 30
0.0
  0
LINE
  5
24E
330
1F
100
AcDbEntity
  8
0
  6
Continuous
 62
     1
370
    15
100
AcDbLine
 10
-39.68750000000001
 20
-0.0000000000000071
 30
0.0
 11
-39.68750000000001
 21
-1.666875000000008
 31
0.0
1001
PE_URL
1000

  0
SPLINE
  5
24F
330
1F
100
AcDbEntity
  8
0
  6
Continuous
 62
     1
370
    15
100
AcDbSpline
210
0.0
220
0.0
230
1.0
 70
     8
 71
     3
 72
    10
 73
     6
 74
     0
 42
0.000000001
 43
0.00000001
 40
0.0
 40
0.0
 40
0.0
 40
0.0
 40
0.2465085405051385
 40
0.6232664038040462
 40
1.0
 40
1.0
 40
1.0
 40
1.0
 10
-36.44375379405883
 20
-1.594547033787237
 30
0.0
 10
-36.71029499660931
 20
-1.708128277745764
 30
0.0
 10
-37.38421151260028
 20
-1.995304427166626
 30
0.0
 10
-38.46546199315205
 20
-2.286237207176512
 30
0.0
 10
-39.28016274385807
 20
-2.348238003839427
 30
0.0
 10
-39.68750000000002
 20
-2.379237403765597
 30
0.0
1001
PE_URL
1000

  0
SPLINE
  5
250
330
1F
100
AcDbEntity
  8
0
  6
Continuous
 62
     1
370
    15
100
AcDbSpline
210
0.0
220
0.0
230
1.0
 70
    24
 71
     3
 72
    10
 73
     6
 74
     0
 42
0.000000001
 43
0.00000001
 40
0.0
 40
0.0
 40
0.0
 40
0.0
 40
0.5
 40
0.5
 40
1.0
 40
1.0
 40
1.0
 40
1.0
 10
-39.68750000000001
 20
-1.666875000000008
 30
0.0
 10
-39.68750000000002
 20
-1.767916811522422
 30
0.0
 10
-39.68750000000001
 20
-1.885336753989829
 30
0.0
 10
-39.68750000000002
 20
-2.131683477038042
 30
0.0
 10
-39.68750000000001
 20
-2.259981119002262
 30
0.0
 10
-39.68750000000001
 20
-2.379237403765597
 30
0.0
1001
PE_URL
1000

  0
SPLINE
  5
251
330
1F
100
AcDbEntity
  8
0
  6
Continuous
 62
     1
370
    15
100
AcDbSpline
210
0.0
220
0.0
230
1.0
 70
     8
 71
     3
 72
     9
 73
     5
 74
     0
 42
0.000000001
 43
0.00000001
 40
0.0
 40
0.0
 40
0.0
 40
0.0
 40
0.4402872301870397
 40
1.0
 40
1.0
 40
1.0
 40
1.0
 10
-30.75937719103273
 20
1.872739708270732
 30
0.0
 10
-30.43879346062929
 20
1.983315845143821
 30
0.0
 10
-29.71066938974209
 20
2.23446130040973
 30
0.0
 10
-28.98254212700209
 20
2.316414502035819
 30
0.0
 10
-28.57499999999756
 20
2.362284755512995
 30
0.0
1001
PE_URL
1000

  0
SPLINE
  5
252
330
1F
100
AcDbEntity
  8
외형선
  6
Continuous
370
    15
100
AcDbSpline
210
0.0
220
0.0
230
1.0
 70
    24
 71
     3
 72
     8
 73
     4
 74
     0
 42
0.000000001
 43
0.00000001
 40
0.0
 40
0.0
 40
0.0
 40
0.0
 40
1.0
 40
1.0
 40
1.0
 40
1.0
 10
-28.57500000000002
 20
2.019657716820124
 30
0.0
 10
-28.57500000000002
 20
2.137677814703547
 30
0.0
 10
-28.57500000000002
 20
2.252637763437757
 30
0.0
 10
-28.57500000000002
 20
2.362284755500031
 30
0.0
  0
LINE
  5
254
330
1F
100
AcDbEntity
  8
외형선
  6
Continuous
370
    15
100
AcDbLine
 10
-4.838700000000046
 20
4.762499999999995
 30
0.0
 11
-18.68805401447667
 21
4.762499999999994
 31
0.0
  0
ENDSEC
  0
SECTION
  2
OBJECTS
  0
DICTIONARY
  5
C
330
0
100
AcDbDictionary
281
     1
  3
ACAD_DETAILVIEWSTYLE
350
1E7
  3
ACAD_GROUP
350
D
  3
ACAD_LAYOUT
350
1A
  3
ACAD_MLINESTYLE
350
17
  3
ACAD_PLOTSETTINGS
350
19
  3
ACAD_PLOTSTYLENAME
350
E
  3
ACAD_SCALELIST
350
47
  3
ACAD_SECTIONVIEWSTYLE
350
1E8
  3
AcDbVariableDictionary
350
1E2
  3
APPDATA
350
159
  3
DWGPROPS
350
255
  0
DICTIONARY
  5
192
330
2
100
AcDbDictionary
280
     1
281
     1
  3
ACAD_LAYERSTATES
360
193
  0
DICTIONARY
  5
1E7
102
{ACAD_REACTORS
330
C
102
}
330
C
100
AcDbDictionary
281
     1
  0
DICTIONARY
  5
D
102
{ACAD_REACTORS
330
C
102
}
330
C
100
AcDbDictionary
281
     1
  0
DICTIONARY
  5
1A
102
{ACAD_REACTORS
330
C
102
}
330
C
100
AcDbDictionary
281
     1
  3
Layout1
350
1E
  3
Layout2
350
26
  3
Model
350
22
  0
DICTIONARY
  5
17
102
{ACAD_REACTORS
330
C
102
}
330
C
100
AcDbDictionary
281
     1
  3
Standard
350
18
  0
DICTIONARY
  5
19
102
{ACAD_REACTORS
330
C
102
}
330
C
100
AcDbDictionary
281
     1
  0
ACDBDICTIONARYWDFLT
  5
E
102
{ACAD_REACTORS
330
C
102
}
330
C
100
AcDbDictionary
281
     1
  3
Normal
350
F
100
AcDbDictionaryWithDefault
340
F
  0
DICTIONARY
  5
47
102
{ACAD_REACTORS
330
C
102
}
330
C
100
AcDbDictionary
281
     1
  3
A0
350
48
  3
A1
350
49
  3
A2
350
4A
  3
A3
350
4B
  3
A4
350
4C
  3
A5
350
4D
  3
A6
350
4E
  3
A7
350
4F
  3
A8
350
50
  3
A9
350
51
  3
B0
350
52
  3
B1
350
53
  3
B2
350
54
  3
B3
350
55
  3
B4
350
56
  3
B5
350
57
  3
B6
350
58
  3
B7
350
59
  3
B8
350
5A
  3
B9
350
5B
  3
C0
350
5C
  3
C1
350
5D
  3
C2
350
5E
  3
C3
350
5F
  3
C4
350
60
  3
C5
350
61
  3
C6
350
62
  3
C7
350
63
  3
C8
350
64
  3
C9
350
65
  3
D0
350
66
  3
D1
350
67
  3
D2
350
68
  0
DICTIONARY
  5
1E8
102
{ACAD_REACTORS
330
C
102
}
330
C
100
AcDbDictionary
281
     1
  0
DICTIONARY
  5
1E2
102
{ACAD_REACTORS
330
C
102
}
330
C
100
AcDbDictionary
281
     1
  0
DICTIONARY
  5
159
102
{ACAD_REACTORS
330
C
102
}
330
C
100
AcDbDictionary
281
     1
  0
XRECORD
  5
255
102
{ACAD_REACTORS
330
C
102
}
330
C
100
AcDbXrecord
280
     1
  1
DWGPROPS COOKIE
  2

  3

  4

  6

  7

  8
120170442
  9

300
=
301
=
302
=
303
=
304
=
305
=
306
=
307
=
308
=
309
=
 40
0.0
 41
2458313.019617477
 42
2458323.966492997
  1

 90
        0
  0
DICTIONARY
  5
193
102
{ACAD_REACTORS
330
192
102
}
330
192
100
AcDbDictionary
281
     1
  0
LAYOUT
  5
1E
102
{ACAD_REACTORS
330
1A
102
}
330
1A
100
AcDbPlotSettings
  1

  2
none_device
  4

  6

 40
0.0
 41
0.0
 42
0.0
 43
0.0
 44
0.0
 45
0.0
 46
0.0
 47
0.0
 48
0.0
 49
0.0
140
0.0
141
0.0
142
1.0
143
1.0
 70
   688
 72
     1
 73
     0
 74
     5
  7

 75
    16
147
1.0
148
0.0
149
0.0
100
AcDbLayout
  1
Layout1
 70
     1
 71
     1
 10
0.0
 20
0.0
 11
420.0
 21
297.0
 12
0.0
 22
0.0
 32
0.0
 14
1.000000000000000E+20
 24
1.000000000000000E+20
 34
1.000000000000000E+20
 15
-1.000000000000000E+20
 25
-1.000000000000000E+20
 35
-1.000000000000000E+20
146
0.0
 13
0.0
 23
0.0
 33
0.0
 16
1.0
 26
0.0
 36
0.0
 17
0.0
 27
1.0
 37
0.0
 76
     0
330
1B
  0
LAYOUT
  5
26
102
{ACAD_REACTORS
330
1A
102
}
330
1A
100
AcDbPlotSettings
  1

  2
none_device
  4

  6

 40
0.0
 41
0.0
 42
0.0
 43
0.0
 44
0.0
 45
0.0
 46
0.0
 47
0.0
 48
0.0
 49
0.0
140
0.0
141
0.0
142
1.0
143
1.0
 70
   688
 72
     1
 73
     0
 74
     5
  7

 75
    16
147
1.0
148
0.0
149
0.0
100
AcDbLayout
  1
Layout2
 70
     1
 71
     2
 10
0.0
 20
0.0
 11
0.0
 21
0.0
 12
0.0
 22
0.0
 32
0.0
 14
0.0
 24
0.0
 34
0.0
 15
0.0
 25
0.0
 35
0.0
146
0.0
 13
0.0
 23
0.0
 33
0.0
 16
1.0
 26
0.0
 36
0.0
 17
0.0
 27
1.0
 37
0.0
 76
     0
330
23
  0
LAYOUT
  5
22
102
{ACAD_REACTORS
330
1A
102
}
330
1A
100
AcDbPlotSettings
  1

  2
none_device
  4
ANSI_A_(11.00_x_8.50_Inches)
  6

 40
6.35
 41
19.05
 42
6.35000508
 43
19.05000254
 44
279.4
 45
215.9
 46
98.53254146912828
 47
78.06680847177826
 48
0.0
 49
0.0
140
0.0
141
0.0
142
0.0501323292749418
143
1.0
 70
  1696
 72
     0
 73
     0
 74
     0
  7

 75
     0
147
0.0235690232323232
148
0.0
149
0.0
100
AcDbLayout
  1
Model
 70
     1
 71
     0
 10
0.0
 20
0.0
 11
420.0
 21
297.0
 12
0.0
 22
0.0
 32
0.0
 14
-54.06250000000009
 24
-49.97180738881175
 34
0.0
 15
99.38162503295506
 25
37.61649999999996
 35
0.0
146
0.0
 13
0.0
 23
0.0
 33
0.0
 16
1.0
 26
0.0
 36
0.0
 17
0.0
 27
1.0
 37
0.0
 76
     0
330
1F
331
29
  0
MLINESTYLE
  5
18
102
{ACAD_REACTORS
330
17
102
}
330
17
100
AcDbMlineStyle
  2
Standard
 70
     0
  3

 62
   256
 51
90.0
 52
90.0
 71
     2
 49
0.5
 62
   256
  6
BYLAYER
 49
-0.5
 62
   256
  6
BYLAYER
  0
ACDBPLACEHOLDER
  5
F
102
{ACAD_REACTORS
330
E
102
}
330
E
  0
SCALE
  5
48
102
{ACAD_REACTORS
330
47
102
}
330
47
100
AcDbScale
 70
     0
300
1:1
140
1.0
141
1.0
290
     1
  0
SCALE
  5
49
102
{ACAD_REACTORS
330
47
102
}
330
47
100
AcDbScale
 70
     0
300
1:2
140
1.0
141
2.0
290
     0
  0
SCALE
  5
4A
102
{ACAD_REACTORS
330
47
102
}
330
47
100
AcDbScale
 70
     0
300
1:4
140
1.0
141
4.0
290
     0
  0
SCALE
  5
4B
102
{ACAD_REACTORS
330
47
102
}
330
47
100
AcDbScale
 70
     0
300
1:5
140
1.0
141
5.0
290
     0
  0
SCALE
  5
4C
102
{ACAD_REACTORS
330
47
102
}
330
47
100
AcDbScale
 70
     0
300
1:8
140
1.0
141
8.0
290
     0
  0
SCALE
  5
4D
102
{ACAD_REACTORS
330
47
102
}
330
47
100
AcDbScale
 70
     0
300
1:10
140
1.0
141
10.0
290
     0
  0
SCALE
  5
4E
102
{ACAD_REACTORS
330
47
102
}
330
47
100
AcDbScale
 70
     0
300
1:16
140
1.0
141
16.0
290
     0
  0
SCALE
  5
4F
102
{ACAD_REACTORS
330
47
102
}
330
47
100
AcDbScale
 70
     0
300
1:20
140
1.0
141
20.0
290
     0
  0
SCALE
  5
50
102
{ACAD_REACTORS
330
47
102
}
330
47
100
AcDbScale
 70
     0
300
1:30
140
1.0
141
30.0
290
     0
  0
SCALE
  5
51
102
{ACAD_REACTORS
330
47
102
}
330
47
100
AcDbScale
 70
     0
300
1:40
140
1.0
141
40.0
290
     0
  0
SCALE
  5
52
102
{ACAD_REACTORS
330
47
102
}
330
47
100
AcDbScale
 70
     0
300
1:50
140
1.0
141
50.0
290
     0
  0
SCALE
  5
53
102
{ACAD_REACTORS
330
47
102
}
330
47
100
AcDbScale
 70
     0
300
1:100
140
1.0
141
100.0
290
     0
  0
SCALE
  5
54
102
{ACAD_REACTORS
330
47
102
}
330
47
100
AcDbScale
 70
     0
300
2:1
140
2.0
141
1.0
290
     0
  0
SCALE
  5
55
102
{ACAD_REACTORS
330
47
102
}
330
47
100
AcDbScale
 70
     0
300
4:1
140
4.0
141
1.0
290
     0
  0
SCALE
  5
56
102
{ACAD_REACTORS
330
47
102
}
330
47
100
AcDbScale
 70
     0
300
8:1
140
8.0
141
1.0
290
     0
  0
SCALE
  5
57
102
{ACAD_REACTORS
330
47
102
}
330
47
100
AcDbScale
 70
     0
300
10:1
140
10.0
141
1.0
290
     0
  0
SCALE
  5
58
102
{ACAD_REACTORS
330
47
102
}
330
47
100
AcDbScale
 70
     0
300
100:1
140
100.0
141
1.0
290
     0
  0
SCALE
  5
59
102
{ACAD_REACTORS
330
47
102
}
330
47
100
AcDbScale
 70
     0
300
1/128" = 1'-0"
140
0.0078125
141
12.0
290
     0
  0
SCALE
  5
5A
102
{ACAD_REACTORS
330
47
102
}
330
47
100
AcDbScale
 70
     0
300
1/64" = 1'-0"
140
0.015625
141
12.0
290
     0
  0
SCALE
  5
5B
102
{ACAD_REACTORS
330
47
102
}
330
47
100
AcDbScale
 70
     0
300
1/32" = 1'-0"
140
0.03125
141
12.0
290
     0
  0
SCALE
  5
5C
102
{ACAD_REACTORS
330
47
102
}
330
47
100
AcDbScale
 70
     0
300
1/16" = 1'-0"
140
0.0625
141
12.0
290
     0
  0
SCALE
  5
5D
102
{ACAD_REACTORS
330
47
102
}
330
47
100
AcDbScale
 70
     0
300
3/32" = 1'-0"
140
0.09375
141
12.0
290
     0
  0
SCALE
  5
5E
102
{ACAD_REACTORS
330
47
102
}
330
47
100
AcDbScale
 70
     0
300
1/8" = 1'-0"
140
0.125
141
12.0
290
     0
  0
SCALE
  5
5F
102
{ACAD_REACTORS
330
47
102
}
330
47
100
AcDbScale
 70
     0
300
3/16" = 1'-0"
140
0.1875
141
12.0
290
     0
  0
SCALE
  5
60
102
{ACAD_REACTORS
330
47
102
}
330
47
100
AcDbScale
 70
     0
300
1/4" = 1'-0"
140
0.25
141
12.0
290
     0
  0
SCALE
  5
61
102
{ACAD_REACTORS
330
47
102
}
330
47
100
AcDbScale
 70
     0
300
3/8" = 1'-0"
140
0.375
141
12.0
290
     0
  0
SCALE
  5
62
102
{ACAD_REACTORS
330
47
102
}
330
47
100
AcDbScale
 70
     0
300
1/2" = 1'-0"
140
0.5
141
12.0
290
     0
  0
SCALE
  5
63
102
{ACAD_REACTORS
330
47
102
}
330
47
100
AcDbScale
 70
     0
300
3/4" = 1'-0"
140
0.75
141
12.0
290
     0
  0
SCALE
  5
64
102
{ACAD_REACTORS
330
47
102
}
330
47
100
AcDbScale
 70
     0
300
1" = 1'-0"
140
1.0
141
12.0
290
     0
  0
SCALE
  5
65
102
{ACAD_REACTORS
330
47
102
}
330
47
100
AcDbScale
 70
     0
300
1-1/2" = 1'-0"
140
1.5
141
12.0
290
     0
  0
SCALE
  5
66
102
{ACAD_REACTORS
330
47
102
}
330
47
100
AcDbScale
 70
     0
300
3" = 1'-0"
140
3.0
141
12.0
290
     0
  0
SCALE
  5
67
102
{ACAD_REACTORS
330
47
102
}
330
47
100
AcDbScale
 70
     0
300
6" = 1'-0"
140
6.0
141
12.0
290
     0
  0
SCALE
  5
68
102
{ACAD_REACTORS
330
47
102
}
330
47
100
AcDbScale
 70
     0
300
1'-0" = 1'-0"
140
12.0
141
12.0
290
     0
  0
ENDSEC
  0
EOF
