  0
SECTION
  2
HEADER
  9
$ACADVER
  1
AC1015
  9
$ACADMAINTVER
 70
     6
  9
$DWGCODEPAGE
  3
ANSI_949
  9
$INSBASE
 10
0.0
 20
0.0
 30
0.0
  9
$EXTMIN
 10
-54.06250000000009
 20
-49.97180738881175
 30
0.0
  9
$EXTMAX
 10
99.38162503295506
 20
38.53496762011856
 30
0.0
  9
$LIMMIN
 10
0.0
 20
0.0
  9
$LIMMAX
 10
420.0
 20
297.0
  9
$ORTHOMODE
 70
     1
  9
$REGENMODE
 70
     1
  9
$FILLMODE
 70
     1
  9
$QTEXTMODE
 70
     0
  9
$MIRRTEXT
 70
     1
  9
$LTSCALE
 40
1.0
  9
$ATTMODE
 70
     1
  9
$TEXTSIZE
 40
3.5
  9
$TRACEWID
 40
1.0
  9
$TEXTSTYLE
  7
Standard
  9
$CLAYER
  8
0
  9
$CELTYPE
  6
ByLayer
  9
$CECOLOR
 62
   256
  9
$CELTSCALE
 40
1.0
  9
$DISPSILH
 70
     0
  9
$DIMSCALE
 40
1.0
  9
$DIMASZ
 40
3.302
  9
$DIMEXO
 40
1.0
  9
$DIMDLI
 40
3.75
  9
$DIMRND
 40
0.0
  9
$DIMDLE
 40
0.0
  9
$DIMEXE
 40
1.0
  9
$DIMTP
 40
0.0
  9
$DIMTM
 40
0.0
  9
$DIMTXT
 40
3.5
  9
$DIMCEN
 40
2.5
  9
$DIMTSZ
 40
0.0
  9
$DIMTOL
 70
     0
  9
$DIMLIM
 70
     0
  9
$DIMTIH
 70
     1
  9
$DIMTOH
 70
     1
  9
$DIMSE1
 70
     0
  9
$DIMSE2
 70
     0
  9
$DIMTAD
 70
     1
  9
$DIMZIN
 70
     0
  9
$DIMBLK
  1

  9
$DIMASO
 70
     1
  9
$DIMSHO
 70
     1
  9
$DIMPOST
  1

  9
$DIMAPOST
  1

  9
$DIMALT
 70
     0
  9
$DIMALTD
 70
     3
  9
$DIMALTF
 40
0.0393700787401575
  9
$DIMLFAC
 40
1.0
  9
$DIMTOFL
 70
     1
  9
$DIMTVP
 40
0.0
  9
$DIMTIX
 70
     0
  9
$DIMSOXD
 70
     0
  9
$DIMSAH
 70
     0
  9
$DIMBLK1
  1

  9
$DIMBLK2
  1

  9
$DIMSTYLE
  2
ISO-25
  9
$DIMCLRD
 70
     0
  9
$DIMCLRE
 70
     0
  9
$DIMCLRT
 70
     0
  9
$DIMTFAC
 40
1.0
  9
$DIMGAP
 40
1.524
  9
$DIMJUST
 70
     0
  9
$DIMSD1
 70
     0
  9
$DIMSD2
 70
     0
  9
$DIMTOLJ
 70
     0
  9
$DIMTZIN
 70
     0
  9
$DIMALTZ
 70
     0
  9
$DIMALTTZ
 70
     0
  9
$DIMUPT
 70
     0
  9
$DIMDEC
 70
     2
  9
$DIMTDEC
 70
     2
  9
$DIMALTU
 70
     2
  9
$DIMALTTD
 70
     3
  9
$DIMTXSTY
  7
Standard
  9
$DIMAUNIT
 70
     0
  9
$DIMADEC
 70
     2
  9
$DIMALTRND
 40
0.0
  9
$DIMAZIN
 70
     0
  9
$DIMDSEP
 70
    44
  9
$DIMATFIT
 70
     3
  9
$DIMFRAC
 70
     0
  9
$DIMLDRBLK
  1

  9
$DIMLUNIT
 70
     2
  9
$DIMLWD
 70
    -2
  9
$DIMLWE
 70
    -2
  9
$DIMTMOVE
 70
     0
  9
$LUNITS
 70
     2
  9
$LUPREC
 70
     2
  9
$SKETCHINC
 40
1.0
  9
$FILLETRAD
 40
10.0
  9
$AUNITS
 70
     0
  9
$AUPREC
 70
     2
  9
$MENU
  1
.
  9
$ELEVATION
 40
0.0
  9
$PELEVATION
 40
0.0
  9
$THICKNESS
 40
0.0
  9
$LIMCHECK
 70
     0
  9
$CHAMFERA
 40
0.0
  9
$CHAMFERB
 40
0.0
  9
$CHAMFERC
 40
0.0
  9
$CHAMFERD
 40
0.0
  9
$SKPOLY
 70
     0
  9
$TDCREATE
 40
2458313.394405498
  9
$TDUCREATE
 40
2458313.019405498
  9
$TDUPDATE
 40
2458324.340062974
  9
$TDUUPDATE
 40
2458323.965062974
  9
$TDINDWG
 40
0.0008625
  9
$TDUSRTIMER
 40
0.0014408102
  9
$USRTIMER
 70
     1
  9
$ANGBASE
 50
0.0
  9
$ANGDIR
 70
     0
  9
$PDMODE
 70
     0
  9
$PDSIZE
 40
-1.0
  9
$PLINEWID
 40
0.0
  9
$SPLFRAME
 70
     0
  9
$SPLINETYPE
 70
     6
  9
$SPLINESEGS
 70
     8
  9
$HANDSEED
  5
262
  9
$SURFTAB1
 70
     6
  9
$SURFTAB2
 70
     6
  9
$SURFTYPE
 70
     6
  9
$SURFU
 70
     6
  9
$SURFV
 70
     6
  9
$UCSBASE
  2

  9
$UCSNAME
  2

  9
$UCSORG
 10
0.0
 20
0.0
 30
0.0
  9
$UCSXDIR
 10
1.0
 20
0.0
 30
0.0
  9
$UCSYDIR
 10
0.0
 20
1.0
 30
0.0
  9
$UCSORTHOREF
  2

  9
$UCSORTHOVIEW
 70
     0
  9
$UCSORGTOP
 10
0.0
 20
0.0
 30
0.0
  9
$UCSORGBOTTOM
 10
0.0
 20
0.0
 30
0.0
  9
$UCSORGLEFT
 10
0.0
 20
0.0
 30
0.0
  9
$UCSORGRIGHT
 10
0.0
 20
0.0
 30
0.0
  9
$UCSORGFRONT
 10
0.0
 20
0.0
 30
0.0
  9
$UCSORGBACK
 10
0.0
 20
0.0
 30
0.0
  9
$PUCSBASE
  2

  9
$PUCSNAME
  2

  9
$PUCSORG
 10
0.0
 20
0.0
 30
0.0
  9
$PUCSXDIR
 10
1.0
 20
0.0
 30
0.0
  9
$PUCSYDIR
 10
0.0
 20
1.0
 30
0.0
  9
$PUCSORTHOREF
  2

  9
$PUCSORTHOVIEW
 70
     0
  9
$PUCSORGTOP
 10
0.0
 20
0.0
 30
0.0
  9
$PUCSORGBOTTOM
 10
0.0
 20
0.0
 30
0.0
  9
$PUCSORGLEFT
 10
0.0
 20
0.0
 30
0.0
  9
$PUCSORGRIGHT
 10
0.0
 20
0.0
 30
0.0
  9
$PUCSORGFRONT
 10
0.0
 20
0.0
 30
0.0
  9
$PUCSORGBACK
 10
0.0
 20
0.0
 30
0.0
  9
$USERI1
 70
     0
  9
$USERI2
 70
     0
  9
$USERI3
 70
     0
  9
$USERI4
 70
     0
  9
$USERI5
 70
     0
  9
$USERR1
 40
0.0
  9
$USERR2
 40
0.0
  9
$USERR3
 40
0.0
  9
$USERR4
 40
0.0
  9
$USERR5
 40
0.0
  9
$WORLDVIEW
 70
     1
  9
$SHADEDGE
 70
     3
  9
$SHADEDIF
 70
    70
  9
$TILEMODE
 70
     1
  9
$MAXACTVP
 70
    64
  9
$PINSBASE
 10
0.0
 20
0.0
 30
0.0
  9
$PLIMCHECK
 70
     0
  9
$PEXTMIN
 10
1.000000000000000E+20
 20
1.000000000000000E+20
 30
1.000000000000000E+20
  9
$PEXTMAX
 10
-1.000000000000000E+20
 20
-1.000000000000000E+20
 30
-1.000000000000000E+20
  9
$PLIMMIN
 10
0.0
 20
0.0
  9
$PLIMMAX
 10
0.0
 20
0.0
  9
$UNITMODE
 70
     0
  9
$VISRETAIN
 70
     1
  9
$PLINEGEN
 70
     0
  9
$PSLTSCALE
 70
     1
  9
$TREEDEPTH
 70
  3020
  9
$CMLSTYLE
  2
Standard
  9
$CMLJUST
 70
     0
  9
$CMLSCALE
 40
20.0
  9
$PROXYGRAPHICS
 70
     1
  9
$MEASUREMENT
 70
     1
  9
$CELWEIGHT
370
    -1
  9
$ENDCAPS
280
     0
  9
$JOINSTYLE
280
     0
  9
$LWDISPLAY
290
     1
  9
$INSUNITS
 70
     4
  9
$HYPERLINKBASE
  1

  9
$STYLESHEET
  1

  9
$XEDIT
290
     1
  9
$CEPSNTYPE
380
     0
  9
$PSTYLEMODE
290
     1
  9
$FINGERPRINTGUID
  2
{A57E7A36-968F-4D1F-8820-37723DE4C43F}
  9
$VERSIONGUID
  2
{FAEB1C32-E019-11D5-929B-00C0DF256EC4}
  9
$EXTNAMES
290
     1
  9
$PSVPSCALE
 40
0.0
  9
$OLESTARTUP
290
     0
  0
ENDSEC
  0
SECTION
  2
CLASSES
  0
CLASS
  1
ACDBDICTIONARYWDFLT
  2
AcDbDictionaryWithDefault
  3
ObjectDBX Classes
 90
        0
280
     0
281
     0
  0
CLASS
  1
VISUALSTYLE
  2
AcDbVisualStyle
  3
ObjectDBX Classes
 90
     4095
280
     0
281
     0
  0
CLASS
  1
MATERIAL
  2
AcDbMaterial
  3
ObjectDBX Classes
 90
     1153
280
     0
281
     0
  0
CLASS
  1
SCALE
  2
AcDbScale
  3
ObjectDBX Classes
 90
     1153
280
     0
281
     0
  0
CLASS
  1
SUN
  2
AcDbSun
  3
SCENEOE
 90
     1153
280
     0
281
     0
  0
CLASS
  1
ACDBPLACEHOLDER
  2
AcDbPlaceHolder
  3
ObjectDBX Classes
 90
        0
280
     0
281
     0
  0
CLASS
  1
LAYOUT
  2
AcDbLayout
  3
ObjectDBX Classes
 90
        0
280
     0
281
     0
  0
CLASS
  1
TABLESTYLE
  2
AcDbTableStyle
  3
ObjectDBX Classes
 90
     4095
280
     0
281
     0
  0
CLASS
  1
MLEADERSTYLE
  2
AcDbMLeaderStyle
  3
ACDB_MLEADERSTYLE_CLASS
 90
     4095
280
     0
281
     0
  0
CLASS
  1
DICTIONARYVAR
  2
AcDbDictionaryVar
  3
ObjectDBX Classes
 90
        0
280
     0
281
     0
  0
ENDSEC
  0
SECTION
  2
TABLES
  0
TABLE
  2
VPORT
  5
8
330
0
100
AcDbSymbolTable
 70
     1
  0
VPORT
  5
29
330
8
100
AcDbSymbolTableRecord
100
AcDbViewportTableRecord
  2
*Active
 70
     0
 10
0.0
 20
0.0
 11
1.0
 21
1.0
 12
22.65956251647748
 22
-5.718419884346581
 13
0.0
 23
0.0
 14
10.0
 24
10.0
 15
10.0
 25
10.0
 16
0.0
 26
0.0
 36
1.0
 17
0.0
 27
0.0
 37
0.0
 40
90.27691050910894
 41
1.782762691853601
 42
50.0
 43
0.0
 44
0.0
 50
0.0
 51
0.0
 71
    16
 72
  2000
 73
     1
 74
     3
 75
     0
 76
     0
 77
     0
 78
     0
281
     0
 65
     1
110
0.0
120
0.0
130
0.0
111
1.0
121
0.0
131
0.0
112
0.0
122
1.0
132
0.0
 79
     0
146
0.0
  0
ENDTAB
  0
TABLE
  2
LTYPE
  5
5
330
0
100
AcDbSymbolTable
 70
     6
  0
LTYPE
  5
14
330
5
100
AcDbSymbolTableRecord
100
AcDbLinetypeTableRecord
  2
ByBlock
 70
     0
  3

 72
    65
 73
     0
 40
0.0
  0
LTYPE
  5
15
330
5
100
AcDbSymbolTableRecord
100
AcDbLinetypeTableRecord
  2
ByLayer
 70
     0
  3

 72
    65
 73
     0
 40
0.0
  0
LTYPE
  5
16
330
5
100
AcDbSymbolTableRecord
100
AcDbLinetypeTableRecord
  2
Continuous
 70
     0
  3
Solid line
 72
    65
 73
     0
 40
0.0
  0
LTYPE
  5
6A
330
5
100
AcDbSymbolTableRecord
100
AcDbLinetypeTableRecord
  2
HIDDEN
 70
     0
  3
Hidden __ __ __ __ __ __ __ __ __ __ __ __ __ __
 72
    65
 73
     2
 40
1.905
 49
1.27
 74
     0
 49
-0.635
 74
     0
  0
LTYPE
  5
6B
330
5
100
AcDbSymbolTableRecord
100
AcDbLinetypeTableRecord
  2
PHANTOM
 70
     0
  3
Phantom ______  __  __  ______  __  __  ______
 72
    65
 73
     6
 40
12.7
 49
6.35
 74
     0
 49
-1.27
 74
     0
 49
1.27
 74
     0
 49
-1.27
 74
     0
 49
1.27
 74
     0
 49
-1.27
 74
     0
  0
LTYPE
  5
6C
330
5
100
AcDbSymbolTableRecord
100
AcDbLinetypeTableRecord
  2
CENTER
 70
     0
  3
Center ____ _ ____ _ ____ _ ____ _ ____ _ ____
 72
    65
 73
     4
 40
10.16
 49
6.35
 74
     0
 49
-1.27
 74
     0
 49
1.27
 74
     0
 49
-1.27
 74
     0
  0
LTYPE
  5
6D
330
5
100
AcDbSymbolTableRecord
100
AcDbLinetypeTableRecord
  2
CENTERX2
 70
     0
  3
Center (2x) ________  __  ________  __  _____
 72
    65
 73
     4
 40
20.32
 49
12.7
 74
     0
 49
-2.54
 74
     0
 49
2.54
 74
     0
 49
-2.54
 74
     0
  0
LTYPE
  5
6E
330
5
100
AcDbSymbolTableRecord
100
AcDbLinetypeTableRecord
  2
DOT2
 70
     0
  3
Dot (.5x) ........................................
 72
    65
 73
     2
 40
0.635
 49
0.0
 74
     0
 49
-0.635
 74
     0
  0
ENDTAB
  0
TABLE
  2
LAYER
  5
2
102
{ACAD_XDICTIONARY
360
196
102
}
330
0
100
AcDbSymbolTable
 70
    18
  0
LAYER
  5
10
330
2
100
AcDbSymbolTableRecord
100
AcDbLayerTableRecord
  2
0
 70
     0
 62
     7
  6
Continuous
370
    -3
390
F
  0
LAYER
  5
6F
330
2
100
AcDbSymbolTableRecord
100
AcDbLayerTableRecord
  2
FORMAT
 70
     0
 62
     2
  6
Continuous
370
    -3
390
F
  0
LAYER
  5
70
330
2
100
AcDbSymbolTableRecord
100
AcDbLayerTableRecord
  2
외형선
 70
     0
 62
     4
  6
Continuous
370
    30
390
F
  0
LAYER
  5
71
330
2
100
AcDbSymbolTableRecord
100
AcDbLayerTableRecord
  2
숨은선
 70
     0
 62
     2
  6
HIDDEN
370
    15
390
F
  0
LAYER
  5
72
330
2
100
AcDbSymbolTableRecord
100
AcDbLayerTableRecord
  2
중심선
 70
     0
 62
     1
  6
CENTERX2
370
    -3
390
F
  0
LAYER
  5
73
330
2
100
AcDbSymbolTableRecord
100
AcDbLayerTableRecord
  2
파단선
 70
     0
 62
     4
  6
Continuous
370
    -3
390
F
  0
LAYER
  5
74
330
2
100
AcDbSymbolTableRecord
100
AcDbLayerTableRecord
  2
해칭선
 70
     0
 62
   100
  6
Continuous
370
    -3
390
F
  0
LAYER
  5
75
330
2
100
AcDbSymbolTableRecord
100
AcDbLayerTableRecord
  2
가는실선
 70
     0
 62
     4
  6
Continuous
370
    -3
390
F
  0
LAYER
  5
76
330
2
100
AcDbSymbolTableRecord
100
AcDbLayerTableRecord
  2
치수_보조선
 70
     0
 62
     4
  6
Continuous
370
    -3
390
F
  0
LAYER
  5
77
330
2
100
AcDbSymbolTableRecord
100
AcDbLayerTableRecord
  2
치수문자_일반주서
 70
     0
 62
     7
  6
Continuous
370
    15
390
F
  0
LAYER
  5
78
330
2
100
AcDbSymbolTableRecord
100
AcDbLayerTableRecord
  2
개별주서
 70
     0
 62
   100
  6
Continuous
370
    30
390
F
  0
LAYER
  5
79
330
2
100
AcDbSymbolTableRecord
100
AcDbLayerTableRecord
  2
중간선
 70
     0
 62
     2
  6
Continuous
370
    15
390
F
  0
LAYER
  5
7A
330
2
100
AcDbSymbolTableRecord
100
AcDbLayerTableRecord
  2
윤곽선
 70
     0
 62
     3
  6
Continuous
370
    40
390
F
  0
LAYER
  5
7B
330
2
100
AcDbSymbolTableRecord
100
AcDbLayerTableRecord
  2
중심마크
 70
     0
 62
   100
  6
Continuous
370
    30
390
F
  0
LAYER
  5
7C
330
2
100
AcDbSymbolTableRecord
100
AcDbLayerTableRecord
  2
가상선
 70
     0
 62
     4
  6
PHANTOM
370
    -3
390
F
  0
LAYER
  5
7D
330
2
100
AcDbSymbolTableRecord
100
AcDbLayerTableRecord
  2
특수지정선
 70
     0
 62
     5
  6
CENTERX2
370
    60
390
F
  0
LAYER
  5
7E
330
2
100
AcDbSymbolTableRecord
100
AcDbLayerTableRecord
  2
참조1
 70
     0
 62
    -4
  6
Continuous
370
    -3
390
F
  0
LAYER
  5
15F
330
2
100
AcDbSymbolTableRecord
100
AcDbLayerTableRecord
  2
Defpoints
 70
     0
 62
     7
  6
Continuous
290
     0
370
    -3
390
F
  0
ENDTAB
  0
TABLE
  2
STYLE
  5
3
330
0
100
AcDbSymbolTable
 70
     2
  0
STYLE
  5
11
330
3
100
AcDbSymbolTableRecord
100
AcDbTextStyleTableRecord
  2
Standard
 70
     0
 40
0.0
 41
1.0
 50
0.0
 71
     0
 42
3.5
  3
txt
  4

  0
STYLE
  5
94
330
3
100
AcDbSymbolTableRecord
100
AcDbTextStyleTableRecord
  2
SLDTEXTSTYLE0
 70
     0
 40
0.0
 41
0.75
 50
0.0
 71
     0
 42
3.5
  3
TXT
  4

  0
ENDTAB
  0
TABLE
  2
VIEW
  5
6
330
0
100
AcDbSymbolTable
 70
     0
  0
ENDTAB
  0
TABLE
  2
UCS
  5
7
330
0
100
AcDbSymbolTable
 70
     0
  0
ENDTAB
  0
TABLE
  2
APPID
  5
9
330
0
100
AcDbSymbolTable
 70
     2
  0
APPID
  5
12
330
9
100
AcDbSymbolTableRecord
100
AcDbRegAppTableRecord
  2
ACAD
 70
     0
  0
APPID
  5
166
330
9
100
AcDbSymbolTableRecord
100
AcDbRegAppTableRecord
  2
PE_URL
 70
     0
  0
ENDTAB
  0
TABLE
  2
DIMSTYLE
  5
A
330
0
100
AcDbSymbolTable
 70
     3
100
AcDbDimStyleTable
  0
DIMSTYLE
105
27
330
A
100
AcDbSymbolTableRecord
100
AcDbDimStyleTableRecord
  2
ISO-25
 70
     0
 41
2.5
 42
0.625
 43
3.75
 44
1.25
 73
     0
 74
     0
 77
     1
 78
     8
140
2.5
141
2.5
143
0.03937007874016
147
0.625
171
     3
172
     1
178
     0
271
     2
272
     2
274
     3
278
    44
283
     0
284
     8
340
11
  0
DIMSTYLE
105
DE
102
{ACAD_REACTORS
330
DD
330
F2
330
186
330
106
330
11B
102
}
330
A
100
AcDbSymbolTableRecord
100
AcDbDimStyleTableRecord
  2
SLDDIMSTYLE0
 70
     0
 41
3.302
 44
0.0
 45
0.000000001
 73
     0
 74
     0
 77
     1
 78
    12
 79
     3
140
3.5
143
0.0393700787401575
147
0.875
148
0.000000001
170
     1
172
     1
173
     1
178
     0
271
     2
272
     2
276
     2
284
    12
289
     0
340
94
  0
DIMSTYLE
105
107
330
A
100
AcDbSymbolTableRecord
100
AcDbDimStyleTableRecord
  2
SLDDIMSTYLE1
 70
     0
 41
3.302
 44
0.0
 45
0.000000001
 73
     0
 74
     0
 77
     1
 78
    12
 79
     3
140
3.5
143
0.0393700787401575
147
0.875
148
0.000000001
170
     1
173
     1
178
     0
271
     2
272
     2
276
     2
284
    12
340
94
  0
ENDTAB
  0
TABLE
  2
BLOCK_RECORD
  5
1
330
0
100
AcDbSymbolTable
 70
    11
  0
BLOCK_RECORD
  5
1F
330
1
100
AcDbSymbolTableRecord
100
AcDbBlockTableRecord
  2
*Model_Space
340
22
  0
BLOCK_RECORD
  5
1B
330
1
100
AcDbSymbolTableRecord
100
AcDbBlockTableRecord
  2
*Paper_Space
340
1E
  0
BLOCK_RECORD
  5
23
330
1
100
AcDbSymbolTableRecord
100
AcDbBlockTableRecord
  2
*Paper_Space0
340
26
  0
BLOCK_RECORD
  5
7F
330
1
100
AcDbSymbolTableRecord
100
AcDbBlockTableRecord
  2
블럭10
340
0
102
{BLKREFS
331
D6
102
}
  0
BLOCK_RECORD
  5
DF
330
1
100
AcDbSymbolTableRecord
100
AcDbBlockTableRecord
  2
_D
340
0
  0
BLOCK_RECORD
  5
F3
330
1
100
AcDbSymbolTableRecord
100
AcDbBlockTableRecord
  2
_D_1
340
0
  0
BLOCK_RECORD
  5
108
330
1
100
AcDbSymbolTableRecord
100
AcDbBlockTableRecord
  2
_D_2
340
0
  0
BLOCK_RECORD
  5
11C
330
1
100
AcDbSymbolTableRecord
100
AcDbBlockTableRecord
  2
_D_3
340
0
  0
BLOCK_RECORD
  5
135
330
1
100
AcDbSymbolTableRecord
100
AcDbBlockTableRecord
  2
SW_DOWELSYMBOL_0
340
0
102
{BLKREFS
331
13B
102
}
  0
BLOCK_RECORD
  5
19A
330
1
100
AcDbSymbolTableRecord
100
AcDbBlockTableRecord
  2
*D8
340
0
  0
BLOCK_RECORD
  5
1AC
330
1
100
AcDbSymbolTableRecord
100
AcDbBlockTableRecord
  2
*D9
340
0
  0
ENDTAB
  0
ENDSEC
  0
SECTION
  2
BLOCKS
  0
BLOCK
  5
20
330
1F
100
AcDbEntity
  8
0
100
AcDbBlockBegin
  2
*Model_Space
 70
     0
 10
0.0
 20
0.0
 30
0.0
  3
*Model_Space
  1

  0
ENDBLK
  5
21
330
1F
100
AcDbEntity
  8
0
100
AcDbBlockEnd
  0
BLOCK
  5
1C
330
1B
100
AcDbEntity
 67
     1
  8
0
100
AcDbBlockBegin
  2
*Paper_Space
 70
     0
 10
0.0
 20
0.0
 30
0.0
  3
*Paper_Space
  1

  0
ENDBLK
  5
1D
330
1B
100
AcDbEntity
 67
     1
  8
0
100
AcDbBlockEnd
  0
BLOCK
  5
24
330
23
100
AcDbEntity
  8
0
100
AcDbBlockBegin
  2
*Paper_Space0
 70
     0
 10
0.0
 20
0.0
 30
0.0
  3
*Paper_Space0
  1

  0
ENDBLK
  5
25
330
23
100
AcDbEntity
  8
0
100
AcDbBlockEnd
  0
BLOCK
  5
80
330
7F
100
AcDbEntity
  8
0
100
AcDbBlockBegin
  2
블럭10
 70
     2
 10
0.0
 20
0.0
 30
0.0
  3
블럭10
  1

  0
ELLIPSE
  5
82
330
7F
100
AcDbEntity
  8
중심선
100
AcDbEllipse
 10
20.54032771741204
 20
12.0471743016438
 30
0.0
 11
6.600054785286829
 21
-1.261213355974178E-13
 31
0.0
210
0.0
220
0.0
230
1.0
 40
0.636358354079598
 41
0.9219305317359503
 42
6.513795318482858
  0
ELLIPSE
  5
83
330
7F
100
AcDbEntity
  8
중심선
100
AcDbEllipse
 10
20.54032771746488
 20
12.04717430159265
 30
0.0
 11
3.960054785062283
 21
1.540847449632565E-10
 31
0.0
210
0.0
220
0.0
230
1.0
 40
0.3939339440162632
 41
1.131841032648279
 42
5.62031148352944
  0
LINE
  5
84
330
7F
100
AcDbEntity
  8
중심선
100
AcDbLine
 10
2.268634060543552
 20
16.24717430164393
 30
0.0
 11
5.714909304380834
 21
16.24717430164393
 31
0.0
  0
LINE
  5
85
330
7F
100
AcDbEntity
  8
중심선
100
AcDbLine
 10
5.245725140726316
 20
7.84717430164391
 30
0.0
 11
8.692000384563599
 21
7.84717430164391
 31
0.0
  0
LINE
  5
86
330
7F
100
AcDbEntity
  8
중심선
100
AcDbLine
 10
15.74043728645272
 20
16.24717430164393
 30
0.0
 11
8.692000384563599
 21
7.84717430164391
 31
0.0
  0
LINE
  5
87
330
7F
100
AcDbEntity
  8
중심선
100
AcDbLine
 10
0.1404042013395286
 20
13.71084872107135
 30
0.0
 11
3.58671253028996
 21
13.71088815037384
 31
0.0
  0
LINE
  5
88
330
7F
100
AcDbEntity
  8
중심선
100
AcDbLine
 10
2.750260043222114
 20
10.84717430164391
 30
0.0
 11
6.196535287059397
 21
10.84717430164391
 31
0.0
  0
LINE
  5
89
330
7F
100
AcDbEntity
  8
중심선
100
AcDbLine
 10
12.29416204261559
 20
16.24717430164393
 30
0.0
 11
5.245725140726316
 21
7.84717430164391
 31
0.0
  0
LINE
  5
8A
330
7F
100
AcDbEntity
  8
중심선
100
AcDbLine
 10
10.72767329541681
 20
16.24717430164393
 30
0.0
 11
6.196535287059397
 21
10.84717430164391
 31
0.0
  0
LINE
  5
8B
330
7F
100
AcDbEntity
  8
중심선
100
AcDbLine
 10
7.28139805157953
 20
16.24717430164393
 30
0.0
 11
2.750260043222114
 21
10.84717430164391
 31
0.0
  0
LINE
  5
8C
330
7F
100
AcDbEntity
  8
중심선
100
AcDbLine
 10
5.714909304380834
 20
16.24717430164393
 30
0.0
 11
3.58671253028996
 21
13.71088815037384
 31
0.0
  0
LINE
  5
8D
330
7F
100
AcDbEntity
  8
중심선
100
AcDbLine
 10
2.268634060543552
 20
16.24717430164393
 30
0.0
 11
0.1404042013395286
 21
13.71084872107135
 31
0.0
  0
LINE
  5
8E
330
7F
100
AcDbEntity
  8
중심선
100
AcDbLine
 10
7.28139805157953
 20
16.24717430164393
 30
0.0
 11
10.72767329541681
 21
16.24717430164393
 31
0.0
  0
LINE
  5
8F
330
7F
100
AcDbEntity
  8
중심선
100
AcDbLine
 10
12.29416204261559
 20
16.24717430164393
 30
0.0
 11
15.74043728645272
 21
16.24717430164393
 31
0.0
  0
LINE
  5
90
330
7F
100
AcDbEntity
  8
중심선
100
AcDbLine
 10
19.22036997980202
 20
11.08717430171403
 30
0.0
 11
23.66174974927406
 21
11.08717430171406
 31
0.0
  0
LINE
  5
91
330
7F
100
AcDbEntity
  8
중심선
100
AcDbLine
 10
19.22039502424796
 20
13.00717430171391
 30
0.0
 11
19.22036997980202
 21
11.08717430171403
 31
0.0
  0
LINE
  5
92
330
7F
100
AcDbEntity
  8
중심선
100
AcDbLine
 10
19.22039502424796
 20
13.00717430171391
 30
0.0
 11
26.96566020931264
 21
13.00717430171391
 31
0.0
  0
LINE
  5
93
330
7F
100
AcDbEntity
  8
중심선
100
AcDbLine
 10
22.22332737316547
 20
13.45928029700563
 30
0.0
 11
24.52862924686651
 21
15.39360700705356
 31
0.0
  0
ATTDEF
  5
95
330
7F
100
AcDbEntity
  8
FORMAT
 62
     2
100
AcDbText
 10
4.408487351596664
 20
2.075366912832191
 30
0.0
 40
4.233333333333333
  1
E1050011
 41
0.75
  7
SLDTEXTSTYLE0
 11
4.408487351596664
 21
-0.0412997538344756
 31
0.0
100
AcDbAttributeDefinition
  3

  2
AUTOATTR0
 70
     0
 74
     1
  0
ENDBLK
  5
81
330
7F
100
AcDbEntity
  8
0
100
AcDbBlockEnd
  0
BLOCK
  5
E0
330
DF
100
AcDbEntity
  8
0
100
AcDbBlockBegin
  2
_D
 70
     0
 10
0.0
 20
0.0
 30
0.0
  3
_D
  1

  0
LINE
  5
E2
330
DF
100
AcDbEntity
  8
치수문자_일반주서
 62
     0
370
    -2
100
AcDbLine
 10
-18.00997518234971
 20
4.762499999999994
 30
0.0
 11
-49.68749999999997
 21
4.762499999999871
 31
0.0
  0
LINE
  5
E3
330
DF
100
AcDbEntity
  8
치수문자_일반주서
 62
     0
370
    -2
100
AcDbLine
 10
-18.0099751823497
 20
-4.762500000000006
 30
0.0
 11
-49.68749999999994
 21
-4.762500000000127
 31
0.0
  0
LINE
  5
E4
330
DF
100
AcDbEntity
  8
치수문자_일반주서
 62
     0
370
    -2
100
AcDbLine
 10
-49.68749999999997
 20
4.762499999999871
 30
0.0
 11
-49.68750000000009
 21
37.61649999999996
 31
0.0
  0
LINE
  5
E5
330
DF
100
AcDbEntity
  8
치수문자_일반주서
 62
     0
370
    -2
100
AcDbLine
 10
-49.68749999999997
 20
4.762499999999871
 30
0.0
 11
-49.68749999999994
 21
-4.762500000000127
 31
0.0
  0
LINE
  5
E6
330
DF
100
AcDbEntity
  8
치수문자_일반주서
 62
     0
370
    -2
100
AcDbLine
 10
-49.68749999999999
 20
8.064499999999871
 30
0.0
 11
-49.6875
 21
11.36649999999987
 31
0.0
  0
LINE
  5
E7
330
DF
100
AcDbEntity
  8
치수문자_일반주서
 62
     0
370
    -2
100
AcDbLine
 10
-49.68749999999992
 20
-8.064500000000127
 30
0.0
 11
-49.68749999999991
 21
-11.36650000000013
 31
0.0
  0
SOLID
  5
E8
330
DF
100
AcDbEntity
  8
치수문자_일반주서
 62
     0
100
AcDbTrace
 10
-50.23783333333332
 20
8.06449999999987
 30
0.0
 11
-49.13716666666665
 21
8.064499999999873
 31
0.0
 12
-49.68749999999997
 22
4.762499999999871
 32
0.0
 13
-49.68749999999997
 23
4.762499999999871
 33
0.0
  0
SOLID
  5
E9
330
DF
100
AcDbEntity
  8
치수문자_일반주서
 62
     0
100
AcDbTrace
 10
-49.13716666666659
 20
-8.064500000000125
 30
0.0
 11
-50.23783333333326
 21
-8.064500000000129
 31
0.0
 12
-49.68749999999994
 22
-4.762500000000127
 32
0.0
 13
-49.68749999999994
 23
-4.762500000000127
 33
0.0
  0
MTEXT
  5
EA
330
DF
100
AcDbEntity
  8
치수문자_일반주서
 62
     0
100
AcDbMText
 10
-54.06250000000004
 20
24.49149999999995
 30
0.0
 40
3.5
 41
0.0
 71
     2
 72
     1
  1
\A1;%%c9.53 [3/8]
  7
SLDTEXTSTYLE0
 11
-3.729883127349607E-15
 21
1.0
 31
0.0
 73
     1
 44
1.0
  0
POINT
  5
1E9
330
DF
100
AcDbEntity
  8
Defpoints
 62
     0
100
AcDbPoint
 10
-17.94747518234971
 20
4.762499999999994
 30
0.0
  0
POINT
  5
1EA
330
DF
100
AcDbEntity
  8
Defpoints
 62
     0
100
AcDbPoint
 10
-17.9474751823497
 20
-4.762500000000006
 30
0.0
  0
POINT
  5
1EB
330
DF
100
AcDbEntity
  8
Defpoints
 62
     0
100
AcDbPoint
 10
-49.68749999999994
 20
-4.762500000000125
 30
0.0
  0
ENDBLK
  5
E1
330
DF
100
AcDbEntity
  8
0
100
AcDbBlockEnd
  0
BLOCK
  5
F4
330
F3
100
AcDbEntity
  8
0
100
AcDbBlockBegin
  2
_D_1
 70
     0
 10
0.0
 20
0.0
 30
0.0
  3
_D_1
  1

  0
LINE
  5
F6
330
F3
100
AcDbEntity
  8
치수문자_일반주서
 62
     0
370
    -2
100
AcDbLine
 10
39.75000000000001
 20
-2.180967620118457
 30
0.0
 11
77.89480533406595
 21
-2.180967620118317
 31
0.0
  0
LINE
  5
F7
330
F3
100
AcDbEntity
  8
치수문자_일반주서
 62
     0
370
    -2
100
AcDbLine
 10
39.75000000000001
 20
2.180967620118456
 30
0.0
 11
77.89480533406594
 21
2.180967620118597
 31
0.0
  0
LINE
  5
F8
330
F3
100
AcDbEntity
  8
치수문자_일반주서
 62
     0
370
    -2
100
AcDbLine
 10
77.89480533406594
 20
2.180967620118597
 30
0.0
 11
77.89480533406582
 21
38.53496762011859
 31
0.0
  0
LINE
  5
F9
330
F3
100
AcDbEntity
  8
치수문자_일반주서
 62
     0
370
    -2
100
AcDbLine
 10
77.89480533406595
 20
-2.180967620118317
 30
0.0
 11
77.89480533406594
 21
2.180967620118597
 31
0.0
  0
LINE
  5
FA
330
F3
100
AcDbEntity
  8
치수문자_일반주서
 62
     0
370
    -2
100
AcDbLine
 10
77.89480533406596
 20
-5.482967620118316
 30
0.0
 11
77.89480533406598
 21
-8.784967620118316
 31
0.0
  0
LINE
  5
FB
330
F3
100
AcDbEntity
  8
치수문자_일반주서
 62
     0
370
    -2
100
AcDbLine
 10
77.89480533406592
 20
5.482967620118597
 30
0.0
 11
77.89480533406591
 21
8.784967620118596
 31
0.0
  0
SOLID
  5
FC
330
F3
100
AcDbEntity
  8
치수문자_일반주서
 62
     0
100
AcDbTrace
 10
78.44513866739929
 20
-5.482967620118314
 30
0.0
 11
77.34447200073264
 21
-5.482967620118318
 31
0.0
 12
77.89480533406595
 22
-2.180967620118317
 32
0.0
 13
77.89480533406595
 23
-2.180967620118317
 33
0.0
  0
SOLID
  5
FD
330
F3
100
AcDbEntity
  8
치수문자_일반주서
 62
     0
100
AcDbTrace
 10
77.3444720007326
 20
5.482967620118595
 30
0.0
 11
78.44513866739925
 21
5.482967620118599
 31
0.0
 12
77.89480533406594
 22
2.180967620118597
 32
0.0
 13
77.89480533406594
 23
2.180967620118597
 33
0.0
  0
MTEXT
  5
FE
330
F3
100
AcDbEntity
  8
치수문자_일반주서
 62
     0
100
AcDbMText
 10
73.51980533406586
 20
23.65996762011858
 30
0.0
 40
3.5
 41
0.0
 71
     2
 72
     1
  1
\A1;%%c4.36 [11/64]
  7
SLDTEXTSTYLE0
 11
-3.257924277305447E-15
 21
1.0
 31
0.0
 73
     1
 44
1.0
  0
POINT
  5
FF
330
F3
100
AcDbEntity
  8
Defpoints
 62
     0
100
AcDbPoint
 10
39.68750000000001
 20
-2.180967620118457
 30
0.0
  0
POINT
  5
100
330
F3
100
AcDbEntity
  8
Defpoints
 62
     0
100
AcDbPoint
 10
39.68750000000001
 20
2.180967620118456
 30
0.0
  0
POINT
  5
101
330
F3
100
AcDbEntity
  8
Defpoints
 62
     0
100
AcDbPoint
 10
77.89480533406594
 20
2.180967620118599
 30
0.0
  0
ENDBLK
  5
F5
330
F3
100
AcDbEntity
  8
0
100
AcDbBlockEnd
  0
BLOCK
  5
109
330
108
100
AcDbEntity
  8
0
100
AcDbBlockBegin
  2
_D_2
 70
     0
 10
0.0
 20
0.0
 30
0.0
  3
_D_2
  1

  0
LINE
  5
10B
330
108
100
AcDbEntity
  8
치수문자_일반주서
 62
     0
370
    -2
100
AcDbLine
 10
39.68750000000001
 20
2.243467620118456
 30
0.0
 11
39.68750000000001
 21
14.76249999999998
 31
0.0
  0
LINE
  5
10C
330
108
100
AcDbEntity
  8
치수문자_일반주서
 62
     0
370
    -2
100
AcDbLine
 10
28.57500000000002
 20
2.217058497772368
 30
0.0
 11
28.57500000000002
 21
14.76249999999998
 31
0.0
  0
LINE
  5
10D
330
108
100
AcDbEntity
  8
치수문자_일반주서
 62
     0
370
    -2
100
AcDbLine
 10
39.68750000000001
 20
14.76249999999998
 30
0.0
 11
70.79150000000001
 21
14.76249999999998
 31
0.0
  0
LINE
  5
10E
330
108
100
AcDbEntity
  8
치수문자_일반주서
 62
     0
370
    -2
100
AcDbLine
 10
39.68750000000001
 20
14.76249999999998
 30
0.0
 11
28.57500000000002
 21
14.76249999999998
 31
0.0
  0
LINE
  5
10F
330
108
100
AcDbEntity
  8
치수문자_일반주서
 62
     0
370
    -2
100
AcDbLine
 10
42.98950000000001
 20
14.76249999999998
 30
0.0
 11
46.29150000000001
 21
14.76249999999998
 31
0.0
  0
LINE
  5
110
330
108
100
AcDbEntity
  8
치수문자_일반주서
 62
     0
370
    -2
100
AcDbLine
 10
25.27300000000002
 20
14.76249999999998
 30
0.0
 11
21.97100000000002
 21
14.76249999999998
 31
0.0
  0
SOLID
  5
111
330
108
100
AcDbEntity
  8
치수문자_일반주서
 62
     0
100
AcDbTrace
 10
42.98950000000001
 20
15.31283333333331
 30
0.0
 11
42.98950000000001
 21
14.21216666666665
 31
0.0
 12
39.68750000000001
 22
14.76249999999998
 32
0.0
 13
39.68750000000001
 23
14.76249999999998
 33
0.0
  0
SOLID
  5
112
330
108
100
AcDbEntity
  8
치수문자_일반주서
 62
     0
100
AcDbTrace
 10
25.27300000000002
 20
14.21216666666665
 30
0.0
 11
25.27300000000002
 21
15.31283333333331
 31
0.0
 12
28.57500000000002
 22
14.76249999999998
 32
0.0
 13
28.57500000000002
 23
14.76249999999998
 33
0.0
  0
MTEXT
  5
113
330
108
100
AcDbEntity
  8
치수문자_일반주서
 62
     0
100
AcDbMText
 10
58.54150000000001
 20
19.13749999999998
 30
0.0
 40
3.5
 41
0.0
 71
     2
 72
     1
  1
\A1;11.11 [7/16]
  7
SLDTEXTSTYLE0
 73
     1
 44
1.0
  0
POINT
  5
114
330
108
100
AcDbEntity
  8
Defpoints
 62
     0
100
AcDbPoint
 10
39.68750000000001
 20
2.180967620118456
 30
0.0
  0
POINT
  5
115
330
108
100
AcDbEntity
  8
Defpoints
 62
     0
100
AcDbPoint
 10
28.57500000000002
 20
2.154558497772368
 30
0.0
  0
POINT
  5
116
330
108
100
AcDbEntity
  8
Defpoints
 62
     0
100
AcDbPoint
 10
28.57500000000002
 20
14.76249999999998
 30
0.0
  0
ENDBLK
  5
10A
330
108
100
AcDbEntity
  8
0
100
AcDbBlockEnd
  0
BLOCK
  5
11D
330
11C
100
AcDbEntity
  8
0
100
AcDbBlockBegin
  2
_D_3
 70
     0
 10
0.0
 20
0.0
 30
0.0
  3
_D_3
  1

  0
LINE
  5
11F
330
11C
100
AcDbEntity
  8
치수문자_일반주서
 62
     0
370
    -2
100
AcDbLine
 10
-39.68749999999986
 20
2.133859991120236
 30
0.0
 11
-39.68749999999987
 21
24.76249999999998
 31
0.0
  0
LINE
  5
120
330
11C
100
AcDbEntity
  8
치수문자_일반주서
 62
     0
370
    -2
100
AcDbLine
 10
39.68750000000001
 20
2.243467620118456
 30
0.0
 11
39.68750000000001
 21
24.76249999999998
 31
0.0
  0
LINE
  5
121
330
11C
100
AcDbEntity
  8
치수문자_일반주서
 62
     0
370
    -2
100
AcDbLine
 10
-36.38549999999987
 20
24.76249999999998
 30
0.0
 11
36.38550000000001
 21
24.76249999999998
 31
0.0
  0
SOLID
  5
122
330
11C
100
AcDbEntity
  8
치수문자_일반주서
 62
     0
100
AcDbTrace
 10
-36.38549999999987
 20
25.31283333333332
 30
0.0
 11
-36.38549999999987
 21
24.21216666666665
 31
0.0
 12
-39.68749999999987
 22
24.76249999999998
 32
0.0
 13
-39.68749999999987
 23
24.76249999999998
 33
0.0
  0
SOLID
  5
123
330
11C
100
AcDbEntity
  8
치수문자_일반주서
 62
     0
100
AcDbTrace
 10
36.38550000000001
 20
24.21216666666665
 30
0.0
 11
36.38550000000001
 21
25.31283333333332
 31
0.0
 12
39.68750000000001
 22
24.76249999999998
 32
0.0
 13
39.68750000000001
 23
24.76249999999998
 33
0.0
  0
MTEXT
  5
124
330
11C
100
AcDbEntity
  8
치수문자_일반주서
 62
     0
100
AcDbMText
 10
0.0000000000000142
 20
29.13749999999998
 30
0.0
 40
3.5
 41
0.0
 71
     2
 72
     1
  1
\A1;79.38 [3 1/8]
  7
SLDTEXTSTYLE0
 73
     1
 44
1.0
  0
POINT
  5
125
330
11C
100
AcDbEntity
  8
Defpoints
 62
     0
100
AcDbPoint
 10
-39.68749999999986
 20
2.071359991120236
 30
0.0
  0
POINT
  5
126
330
11C
100
AcDbEntity
  8
Defpoints
 62
     0
100
AcDbPoint
 10
39.68750000000001
 20
2.180967620118456
 30
0.0
  0
POINT
  5
127
330
11C
100
AcDbEntity
  8
Defpoints
 62
     0
100
AcDbPoint
 10
39.68750000000001
 20
24.76249999999998
 30
0.0
  0
ENDBLK
  5
11E
330
11C
100
AcDbEntity
  8
0
100
AcDbBlockEnd
  0
BLOCK
  5
136
330
135
100
AcDbEntity
  8
0
100
AcDbBlockBegin
  2
SW_DOWELSYMBOL_0
 70
     0
 10
0.0
 20
0.0
 30
0.0
  3
SW_DOWELSYMBOL_0
  1

  0
CIRCLE
  5
138
330
135
100
AcDbEntity
  8
해칭선
 62
     0
100
AcDbCircle
 10
0.0
 20
0.0
 30
0.0
 40
3.000000000000001
  0
HATCH
  5
139
330
135
100
AcDbEntity
  8
0
  6
Continuous
 62
     0
370
     0
100
AcDbHatch
 10
0.0
 20
0.0
 30
0.0
210
0.0
220
0.0
230
1.0
  2
SOLID
 70
     1
 71
     0
 91
        1
 92
        0
 93
        3
 72
     2
 10
0.0
 20
0.0
 40
3.000000000000001
 50
0.0
 51
90.0
 73
     1
 72
     1
 10
0.0
 20
3.000000000000001
 11
0.0
 21
0.0
 72
     1
 10
0.0
 20
0.0
 11
3.000000000000001
 21
0.0
 97
        0
 75
     0
 76
     1
 98
        1
 10
0.0
 20
0.0
  0
HATCH
  5
13A
330
135
100
AcDbEntity
  8
0
  6
Continuous
 62
     0
370
     0
100
AcDbHatch
 10
0.0
 20
0.0
 30
0.0
210
0.0
220
0.0
230
1.0
  2
SOLID
 70
     1
 71
     0
 91
        1
 92
        0
 93
        3
 72
     2
 10
0.0
 20
0.0
 40
3.000000000000001
 50
180.0
 51
270.0000000000008
 73
     1
 72
     1
 10
0.0
 20
-3.000000000000001
 11
0.0
 21
0.0
 72
     1
 10
0.0
 20
0.0
 11
-3.000000000000001
 21
0.0
 97
        0
 75
     0
 76
     1
 98
        1
 10
0.0
 20
0.0
  0
ENDBLK
  5
137
330
135
100
AcDbEntity
  8
0
100
AcDbBlockEnd
  0
BLOCK
  5
19B
330
19A
100
AcDbEntity
  8
0
100
AcDbBlockBegin
  2
*D8
 70
     1
 10
0.0
 20
0.0
 30
0.0
  3
*D8
  1

  0
LINE
  5
19D
330
19A
100
AcDbEntity
  8
치수문자_일반주서
 62
     0
370
    -2
100
AcDbLine
 10
16.129
 20
3.155101899082702
 30
0.0
 11
16.129
 21
16.26894362990562
 31
0.0
  0
LINE
  5
19E
330
19A
100
AcDbEntity
  8
치수문자_일반주서
 62
     0
370
    -2
100
AcDbLine
 10
6.603999999999999
 20
2.633059590344415
 30
0.0
 11
6.603999999999999
 21
16.26894362990562
 31
0.0
  0
LINE
  5
19F
330
19A
100
AcDbEntity
  8
치수문자_일반주서
 62
     0
370
    -2
100
AcDbLine
 10
16.129
 20
16.26894362990562
 30
0.0
 11
46.358
 21
16.26894362990562
 31
0.0
  0
LINE
  5
1A0
330
19A
100
AcDbEntity
  8
치수문자_일반주서
 62
     0
370
    -2
100
AcDbLine
 10
16.129
 20
16.26894362990562
 30
0.0
 11
6.603999999999999
 21
16.26894362990562
 31
0.0
  0
LINE
  5
1A1
330
19A
100
AcDbEntity
  8
치수문자_일반주서
 62
     0
370
    -2
100
AcDbLine
 10
19.431
 20
16.26894362990562
 30
0.0
 11
22.733
 21
16.26894362990562
 31
0.0
  0
LINE
  5
1A2
330
19A
100
AcDbEntity
  8
치수문자_일반주서
 62
     0
370
    -2
100
AcDbLine
 10
3.302
 20
16.26894362990562
 30
0.0
 11
0.0
 21
16.26894362990562
 31
0.0
  0
SOLID
  5
1A3
330
19A
100
AcDbEntity
  8
치수문자_일반주서
 62
     0
100
AcDbTrace
 10
19.431
 20
16.81927696323896
 30
0.0
 11
19.431
 21
15.71861029657229
 31
0.0
 12
16.129
 22
16.26894362990562
 32
0.0
 13
16.129
 23
16.26894362990562
 33
0.0
  0
SOLID
  5
1A4
330
19A
100
AcDbEntity
  8
치수문자_일반주서
 62
     0
100
AcDbTrace
 10
3.302
 20
15.71861029657229
 30
0.0
 11
3.302
 21
16.81927696323896
 31
0.0
 12
6.603999999999999
 22
16.26894362990562
 32
0.0
 13
6.603999999999999
 23
16.26894362990562
 33
0.0
  0
MTEXT
  5
1A5
330
19A
100
AcDbEntity
  8
치수문자_일반주서
 62
     0
100
AcDbMText
 10
34.5455
 20
20.64394362990562
 30
0.0
 40
3.5
 41
0.0
 71
     2
 72
     1
  1
\A1;9.53 [3/8]
  7
SLDTEXTSTYLE0
 73
     1
 44
1.0
  0
POINT
  5
1A6
330
19A
100
AcDbEntity
  8
Defpoints
 62
     0
100
AcDbPoint
 10
16.129
 20
3.092601899082702
 30
0.0
  0
POINT
  5
1A7
330
19A
100
AcDbEntity
  8
Defpoints
 62
     0
100
AcDbPoint
 10
6.603999999999999
 20
2.570559590344415
 30
0.0
  0
POINT
  5
1A8
330
19A
100
AcDbEntity
  8
Defpoints
 62
     0
100
AcDbPoint
 10
6.603999999999999
 20
16.26894362990562
 30
0.0
  0
ENDBLK
  5
19C
330
19A
100
AcDbEntity
  8
0
100
AcDbBlockEnd
  0
BLOCK
  5
1AD
330
1AC
100
AcDbEntity
  8
0
100
AcDbBlockBegin
  2
*D9
 70
     1
 10
0.0
 20
0.0
 30
0.0
  3
*D9
  1

  0
LINE
  5
1AF
330
1AC
100
AcDbEntity
  8
치수문자_일반주서
 62
     0
370
    -2
100
AcDbLine
 10
76.92749602812458
 20
-6.880975957349115
 30
0.0
 11
76.92749602812458
 21
6.232865773473804
 31
0.0
  0
LINE
  5
1B0
330
1AC
100
AcDbEntity
  8
치수문자_일반주서
 62
     0
370
    -2
100
AcDbLine
 10
67.40249602812457
 20
-7.403018266087402
 30
0.0
 11
67.40249602812457
 21
6.232865773473804
 31
0.0
  0
LINE
  5
1B1
330
1AC
100
AcDbEntity
  8
치수문자_일반주서
 62
     0
370
    -2
100
AcDbLine
 10
76.92749602812458
 20
6.232865773473804
 30
0.0
 11
107.1564960281246
 21
6.232865773473804
 31
0.0
  0
LINE
  5
1B2
330
1AC
100
AcDbEntity
  8
치수문자_일반주서
 62
     0
370
    -2
100
AcDbLine
 10
76.92749602812458
 20
6.232865773473804
 30
0.0
 11
67.40249602812457
 21
6.232865773473804
 31
0.0
  0
LINE
  5
1B3
330
1AC
100
AcDbEntity
  8
치수문자_일반주서
 62
     0
370
    -2
100
AcDbLine
 10
80.22949602812457
 20
6.232865773473804
 30
0.0
 11
83.53149602812456
 21
6.232865773473804
 31
0.0
  0
LINE
  5
1B4
330
1AC
100
AcDbEntity
  8
치수문자_일반주서
 62
     0
370
    -2
100
AcDbLine
 10
64.10049602812458
 20
6.232865773473804
 30
0.0
 11
60.79849602812458
 21
6.232865773473804
 31
0.0
  0
SOLID
  5
1B5
330
1AC
100
AcDbEntity
  8
치수문자_일반주서
 62
     0
100
AcDbTrace
 10
80.22949602812457
 20
6.783199106807138
 30
0.0
 11
80.22949602812457
 21
5.682532440140471
 31
0.0
 12
76.92749602812458
 22
6.232865773473804
 32
0.0
 13
76.92749602812458
 23
6.232865773473804
 33
0.0
  0
SOLID
  5
1B6
330
1AC
100
AcDbEntity
  8
치수문자_일반주서
 62
     0
100
AcDbTrace
 10
64.10049602812458
 20
5.682532440140471
 30
0.0
 11
64.10049602812458
 21
6.783199106807138
 31
0.0
 12
67.40249602812457
 22
6.232865773473804
 32
0.0
 13
67.40249602812457
 23
6.232865773473804
 33
0.0
  0
MTEXT
  5
1B7
330
1AC
100
AcDbEntity
  8
치수문자_일반주서
 62
     0
100
AcDbMText
 10
95.34399602812458
 20
10.6078657734738
 30
0.0
 40
3.5
 41
0.0
 71
     2
 72
     1
  1
\A1;9.53 [3/8]
  7
SLDTEXTSTYLE0
 73
     1
 44
1.0
  0
POINT
  5
1B8
330
1AC
100
AcDbEntity
  8
Defpoints
 62
     0
100
AcDbPoint
 10
76.92749602812458
 20
-6.943475957349115
 30
0.0
  0
POINT
  5
1B9
330
1AC
100
AcDbEntity
  8
Defpoints
 62
     0
100
AcDbPoint
 10
67.40249602812457
 20
-7.465518266087402
 30
0.0
  0
POINT
  5
1BA
330
1AC
100
AcDbEntity
  8
Defpoints
 62
     0
100
AcDbPoint
 10
67.40249602812457
 20
6.232865773473804
 30
0.0
  0
ENDBLK
  5
1AE
330
1AC
100
AcDbEntity
  8
0
100
AcDbBlockEnd
  0
ENDSEC
  0
SECTION
  2
ENTITIES
  0
LINE
  5
96
330
1F
100
AcDbEntity
  8
외형선
  6
Continuous
370
    15
100
AcDbLine
 10
17.9474751823497
 20
4.762499999999997
 30
0.0
 11
4.838700000000157
 21
4.762499999999996
 31
0.0
  0
LINE
  5
97
330
1F
100
AcDbEntity
  8
외형선
  6
Continuous
370
    15
100
AcDbLine
 10
-17.9474751823497
 20
-4.762500000000001
 30
0.0
 11
17.94747518234971
 21
-4.762499999999998
 31
0.0
  0
LINE
  5
98
330
1F
100
AcDbEntity
  8
외형선
  6
Continuous
370
    15
100
AcDbLine
 10
17.9474751823497
 20
-4.7625
 30
0.0
 11
27.57500000000002
 21
-2.182812500000001
 31
0.0
  0
LINE
  5
99
330
1F
100
AcDbEntity
  8
외형선
  6
Continuous
370
    15
100
AcDbLine
 10
27.57500000000002
 20
2.182812499999999
 30
0.0
 11
17.9474751823497
 21
4.762499999999998
 31
0.0
  0
LINE
  5
9C
330
1F
100
AcDbEntity
  8
외형선
  6
Continuous
370
    15
100
AcDbLine
 10
27.68508155252733
 20
2.182812499999999
 30
0.0
 11
27.57500000000002
 21
2.182812499999999
 31
0.0
  0
LINE
  5
9D
330
1F
100
AcDbEntity
  8
외형선
  6
Continuous
370
    15
100
AcDbLine
 10
28.57500000000002
 20
2.182812499999999
 30
0.0
 11
27.96538510809271
 21
2.182812499999999
 31
0.0
  0
LINE
  5
9E
330
1F
100
AcDbEntity
  8
외형선
  6
Continuous
370
    15
100
AcDbLine
 10
27.96538510809271
 20
-2.182812500000001
 30
0.0
 11
28.57500000000002
 21
-2.182812500000001
 31
0.0
  0
LINE
  5
9F
330
1F
100
AcDbEntity
  8
외형선
  6
Continuous
370
    15
100
AcDbLine
 10
27.57500000000002
 20
-2.182812500000001
 30
0.0
 11
27.68508155252733
 21
-2.182812500000001
 31
0.0
  0
SPLINE
  5
A0
330
1F
100
AcDbEntity
  8
0
  6
Continuous
 62
     1
370
    15
100
AcDbSpline
210
0.0
220
0.0
230
1.0
 70
     8
 71
     3
 72
     9
 73
     5
 74
     0
 42
0.000000001
 43
0.00000001
 40
0.0
 40
0.0
 40
0.0
 40
0.0
 40
0.4370548088793625
 40
1.0
 40
1.0
 40
1.0
 40
1.0
 10
34.03305611942651
 20
0.5593254585980125
 30
0.0
 10
33.94463271795233
 20
0.6012856593792841
 30
0.0
 10
33.7423162128419
 20
0.6972923842311634
 30
0.0
 10
33.54002401503495
 20
0.802812840718682
 30
0.0
 10
33.42614459507831
 20
0.862215074263185
 30
0.0
1001
PE_URL
1000

  0
LINE
  5
A1
330
1F
100
AcDbEntity
  8
0
  6
Continuous
 62
     1
370
    15
100
AcDbLine
 10
29.02373399343247
 20
2.1828125
 30
0.0
 11
28.57500000000002
 21
2.1828125
 31
0.0
1001
PE_URL
1000

  0
SPLINE
  5
A2
330
1F
100
AcDbEntity
  8
0
  6
Continuous
 62
     1
370
    15
100
AcDbSpline
210
0.0
220
0.0
230
1.0
 70
     8
 71
     3
 72
    15
 73
    11
 74
     0
 42
0.000000001
 43
0.00000001
 40
0.0
 40
0.0
 40
0.0
 40
0.0
 40
0.2122482142280004
 40
0.3556483949795708
 40
0.4824330439367872
 40
0.6125477011006784
 40
0.7336049490327506
 40
0.8564488736027634
 40
0.9850696451558261
 40
0.9999999999999999
 40
0.9999999999999999
 40
0.9999999999999999
 40
0.9999999999999999
 10
33.31014018384281
 20
1.73454066517133
 30
0.0
 10
33.18488117835937
 20
1.72844729499026
 30
0.0
 10
32.97499406850097
 20
1.718237092125674
 30
0.0
 10
32.69011041761934
 20
1.710104265113107
 30
0.0
 10
32.45359506237919
 20
1.705816869172434
 30
0.0
 10
32.23047548662394
 20
1.704295789437528
 30
0.0
 10
32.00980189532889
 20
1.705120531782127
 30
0.0
 10
31.78989180718751
 20
1.708513596635881
 30
0.0
 10
31.63260789163904
 20
1.711927412086926
 30
0.0
 10
31.54785616472869
 20
1.715056457188923
 30
0.0
 10
31.53904137247881
 20
1.715381900498695
 30
0.0
1001
PE_URL
1000

  0
SPLINE
  5
A3
330
1F
100
AcDbEntity
  8
0
  6
Continuous
 62
     1
370
    15
100
AcDbSpline
210
0.0
220
0.0
230
1.0
 70
     8
 71
     3
 72
    21
 73
    17
 74
     0
 42
0.000000001
 43
0.00000001
 40
0.0
 40
0.0
 40
0.0
 40
0.0
 40
0.1003740806180931
 40
0.1631343133567604
 40
0.2173291992400642
 40
0.278047813130643
 40
0.3433694794565384
 40
0.4121942769986326
 40
0.4812676627114639
 40
0.5927069089650422
 40
0.6907318775647755
 40
0.741571968391975
 40
0.7906983873911064
 40
0.8374050512190624
 40
0.9071750765950036
 40
1.0
 40
1.0
 40
1.0
 40
1.0
 10
38.88934197455394
 20
1.494103088106264
 30
0.0
 10
38.76168550324109
 20
1.483833847848595
 30
0.0
 10
38.55421012050355
 20
1.467143628144322
 30
0.0
 10
38.27577937447779
 20
1.452360970468123
 30
0.0
 10
38.04766003861772
 20
1.443387375824967
 30
0.0
 10
37.81795589619001
 20
1.43778159484085
 30
0.0
 10
37.56961864467478
 20
1.435690231166123
 30
0.0
 10
37.31087789511898
 20
1.438044308267229
 30
0.0
 10
36.99178166549116
 20
1.446576452459562
 30
0.0
 10
36.63523852508334
 20
1.464290654483015
 30
0.0
 10
36.30662169275065
 20
1.489499356652519
 30
0.0
 10
36.05381703670307
 20
1.513252628618367
 30
0.0
 10
35.86917175877383
 20
1.532709904098884
 30
0.0
 10
35.6587196979214
 20
1.557228995287019
 30
0.0
 10
35.39135053293864
 20
1.591833291155229
 30
0.0
 10
35.18286760966124
 20
1.623619919688995
 30
0.0
 10
35.06384539199968
 20
1.641766801748198
 30
0.0
1001
PE_URL
1000

  0
SPLINE
  5
A4
330
1F
100
AcDbEntity
  8
0
  6
Continuous
 62
     1
370
    15
100
AcDbSpline
210
0.0
220
0.0
230
1.0
 70
     8
 71
     3
 72
    19
 73
    15
 74
     0
 42
0.000000001
 43
0.00000001
 40
0.0
 40
0.0
 40
0.0
 40
0.0
 40
0.1307702353318815
 40
0.2122741361552416
 40
0.2804349678684401
 40
0.3501580537802225
 40
0.4156286694307429
 40
0.4778175257647757
 40
0.5383104575847217
 40
0.6064800498949557
 40
0.681103783227259
 40
0.7525648131927133
 40
0.8530441315850368
 40
0.9999999999999999
 40
0.9999999999999999
 40
0.9999999999999999
 40
0.9999999999999999
 10
30.02005086831878
 20
-1.817141078177931
 30
0.0
 10
30.16416969450078
 20
-1.803378031517439
 30
0.0
 10
30.39811206872569
 20
-1.781037023769723
 30
0.0
 10
30.70499741608119
 20
-1.757982557892841
 30
0.0
 10
30.94478092955492
 20
-1.742287008795207
 30
0.0
 10
31.1677969801622
 20
-1.729984031232987
 30
0.0
 10
31.38420883192182
 20
-1.720404818846204
 30
0.0
 10
31.59056343632959
 20
-1.713342399029046
 30
0.0
 10
31.79984857250215
 20
-1.708196775519062
 30
0.0
 10
32.0227246691877
 20
-1.704979392900279
 30
0.0
 10
32.25750789392024
 20
-1.704262391395579
 30
0.0
 10
32.52785121363872
 20
-1.706705163299591
 30
0.0
 10
32.87733633005548
 20
-1.714131282090273
 30
0.0
 10
33.14887114555081
 20
-1.726935830896374
 30
0.0
 10
33.31014018384281
 20
-1.734540665171331
 30
0.0
1001
PE_URL
1000

  0
SPLINE
  5
A5
330
1F
100
AcDbEntity
  8
0
  6
Continuous
 62
     1
370
    15
100
AcDbSpline
210
0.0
220
0.0
230
1.0
 70
     8
 71
     3
 72
    12
 73
     8
 74
     0
 42
0.000000001
 43
0.00000001
 40
0.0
 40
0.0
 40
0.0
 40
0.0
 40
0.2177671025627826
 40
0.3814474560122622
 40
0.4910212049483186
 40
0.8424369823721881
 40
1.0
 40
1.0
 40
1.0
 40
1.0
 10
35.06384539199968
 20
-1.641766801748199
 30
0.0
 10
35.18285233375121
 20
-1.623629755609553
 30
0.0
 10
35.39130849928169
 20
-1.5918603559723
 30
0.0
 10
35.65882422022851
 20
-1.557161695001315
 30
0.0
 10
35.99662410235707
 20
-1.518112854789855
 30
0.0
 10
36.33065893603434
 20
-1.483913619598275
 30
0.0
 10
36.60715698208608
 20
-1.469948461392546
 30
0.0
 10
36.69275164128928
 20
-1.465625309839011
 30
0.0
1001
PE_URL
1000

  0
LINE
  5
A6
330
1F
100
AcDbEntity
  8
0
  6
Continuous
 62
     1
370
    15
100
AcDbLine
 10
28.57500000000002
 20
-2.182812500000002
 30
0.0
 11
29.02373399343245
 21
-2.182812500000002
 31
0.0
1001
PE_URL
1000

  0
LINE
  5
A7
330
1F
100
AcDbEntity
  8
외형선
  6
Continuous
370
    15
100
AcDbLine
 10
17.9474751823497
 20
4.762499999999998
 30
0.0
 11
17.9474751823497
 21
-4.762500000000004
 31
0.0
  0
LINE
  5
A9
330
1F
100
AcDbEntity
  8
외형선
  6
Continuous
370
    15
100
AcDbLine
 10
27.57500000000002
 20
2.182812499999999
 30
0.0
 11
27.57500000000002
 21
-2.182812500000001
 31
0.0
  0
LINE
  5
AB
330
1F
100
AcDbEntity
  8
외형선
  6
Continuous
370
    15
100
AcDbLine
 10
28.57500000000002
 20
2.182812499999999
 30
0.0
 11
28.57500000000002
 21
2.154558497772368
 31
0.0
  0
SPLINE
  5
AC
330
1F
100
AcDbEntity
  8
외형선
  6
Continuous
370
    15
100
AcDbSpline
210
0.0
220
0.0
230
1.0
 70
     8
 71
     3
 72
    10
 73
     6
 74
     0
 42
0.000000001
 43
0.00000001
 40
0.0
 40
0.0
 40
0.0
 40
0.0
 40
0.5
 40
0.5
 40
1.0
 40
1.0
 40
1.0
 40
1.0
 10
28.5749999999957
 20
2.154558497772765
 30
0.0
 10
28.4263287547399
 20
2.168301844332166
 30
0.0
 10
28.27687597370504
 20
2.177070727776682
 30
0.0
 10
27.9795090430259
 20
2.184476759417488
 30
0.0
 10
27.83280736640338
 20
2.183138168935624
 30
0.0
 10
27.68508155252733
 20
2.17679060880512
 30
0.0
  0
SPLINE
  5
AD
330
1F
100
AcDbEntity
  8
외형선
  6
Continuous
370
    15
100
AcDbSpline
210
0.0
220
0.0
230
1.0
 70
     8
 71
     3
 72
    10
 73
     6
 74
     0
 42
0.000000001
 43
0.00000001
 40
0.0
 40
0.0
 40
0.0
 40
0.0
 40
0.4999999999999999
 40
0.4999999999999999
 40
1.0
 40
1.0
 40
1.0
 40
1.0
 10
28.5749999999957
 20
-2.167440710629296
 30
0.0
 10
28.42634305614345
 20
-2.157289521328931
 30
0.0
 10
28.27690472669858
 20
-2.142093300906153
 30
0.0
 10
27.97956610554938
 20
-2.101925292852317
 30
0.0
 10
27.83287786764355
 20
-2.077041916871787
 30
0.0
 10
27.68516681511606
 20
-2.047393986540225
 30
0.0
  0
LINE
  5
AE
330
1F
100
AcDbEntity
  8
외형선
  6
Continuous
370
    15
100
AcDbLine
 10
28.57500000000002
 20
-2.167440710629589
 30
0.0
 11
28.57500000000002
 21
-2.182812500000001
 31
0.0
  0
LINE
  5
AF
330
1F
100
AcDbEntity
  8
외형선
  6
Continuous
370
    15
100
AcDbLine
 10
27.68508155252733
 20
-2.176790608805121
 30
0.0
 11
27.96538510809271
 21
-2.178163122749167
 31
0.0
  0
LINE
  5
B0
330
1F
100
AcDbEntity
  8
외형선
  6
Continuous
370
    15
100
AcDbLine
 10
27.68508155252733
 20
-2.182812500000001
 30
0.0
 11
27.68508155252733
 21
-2.176735126594824
 31
0.0
  0
LINE
  5
B1
330
1F
100
AcDbEntity
  8
외형선
  6
Continuous
370
    15
100
AcDbLine
 10
27.68508155252733
 20
-2.047361547452033
 30
0.0
 11
27.68508155252733
 21
2.182812499999999
 31
0.0
  0
SPLINE
  5
B2
330
1F
100
AcDbEntity
  8
외형선
  6
Continuous
370
    15
100
AcDbSpline
210
0.0
220
0.0
230
1.0
 70
     8
 71
     3
 72
    10
 73
     6
 74
     0
 42
0.000000001
 43
0.00000001
 40
0.0
 40
0.0
 40
0.0
 40
0.0
 40
0.5000000000000001
 40
0.5000000000000001
 40
1.0
 40
1.0
 40
1.0
 40
1.0
 10
28.5749999999931
 20
-1.825727147128518
 30
0.0
 10
28.42634305614126
 20
-1.812755404112119
 30
0.0
 10
28.27690472669684
 20
-1.795526311422169
 30
0.0
 10
27.97956610554852
 20
-1.752910235622394
 30
0.0
 10
27.83287786764312
 20
-1.72760953164925
 30
0.0
 10
27.68516681511606
 20
-1.698345852282978
 30
0.0
  0
SPLINE
  5
B3
330
1F
100
AcDbEntity
  8
외형선
  6
Continuous
370
    15
100
AcDbSpline
210
0.0
220
0.0
230
1.0
 70
     8
 71
     3
 72
    10
 73
     6
 74
     0
 42
0.000000001
 43
0.00000001
 40
0.0
 40
0.0
 40
0.0
 40
0.0
 40
0.5
 40
0.5
 40
1.0
 40
1.0
 40
1.0
 40
1.0
 10
28.57499999999203
 20
-0.350669474465618
 30
0.0
 10
28.42633398022858
 20
-0.2835123199043575
 30
0.0
 10
28.27688647956334
 20
-0.215424625865651
 30
0.0
 10
27.97952989269721
 20
-0.0788010391968939
 30
0.0
 10
27.83283312640488
 20
-0.0104544395132311
 30
0.0
 10
27.68511270607669
 20
0.0579160772872778
 30
0.0
  0
SPLINE
  5
B4
330
1F
100
AcDbEntity
  8
외형선
  6
Continuous
370
    15
100
AcDbSpline
210
0.0
220
0.0
230
1.0
 70
    24
 71
     3
 72
    10
 73
     6
 74
     0
 42
0.000000001
 43
0.00000001
 40
0.0
 40
0.0
 40
0.0
 40
0.0
 40
0.5
 40
0.5
 40
1.0
 40
1.0
 40
1.0
 40
1.0
 10
28.57500000000002
 20
-0.350669474469224
 30
0.0
 10
28.57500000000002
 20
-0.670471242597731
 30
0.0
 10
28.57500000000002
 20
-0.9826104541071047
 30
0.0
 10
28.57500000000002
 20
-1.498216203553575
 30
0.0
 10
28.57500000000002
 20
-1.699463372780618
 30
0.0
 10
28.57500000000002
 20
-1.82572714712912
 30
0.0
  0
SPLINE
  5
B5
330
1F
100
AcDbEntity
  8
외형선
  6
Continuous
370
    15
100
AcDbSpline
210
0.0
220
0.0
230
1.0
 70
     8
 71
     3
 72
    10
 73
     6
 74
     0
 42
0.000000001
 43
0.00000001
 40
0.0
 40
0.0
 40
0.0
 40
0.0
 40
0.4999999999999999
 40
0.4999999999999999
 40
1.0
 40
1.0
 40
1.0
 40
1.0
 10
28.57499999998953
 20
1.496843445005403
 30
0.0
 10
28.42633220275583
 20
1.50888923168795
 30
0.0
 10
28.27688290595388
 20
1.517483608930872
 30
0.0
 10
27.97952280060045
 20
1.527590613256856
 30
0.0
 10
27.83282436404782
 20
1.529113419650718
 30
0.0
 10
27.6851021090846
 20
1.527128007563535
 30
0.0
  0
SPLINE
  5
B6
330
1F
100
AcDbEntity
  8
외형선
  6
Continuous
370
    15
100
AcDbSpline
210
0.0
220
0.0
230
1.0
 70
    24
 71
     3
 72
    14
 73
    10
 74
     0
 42
0.000000001
 43
0.00000001
 40
0.0
 40
0.0
 40
0.0
 40
0.0
 40
0.25
 40
0.25
 40
0.5
 40
0.5
 40
0.75
 40
0.75
 40
1.0
 40
1.0
 40
1.0
 40
1.0
 10
28.57499999999998
 20
1.496843445004556
 30
0.0
 10
28.57499999999998
 20
1.41857616389061
 30
0.0
 10
28.57499999999998
 20
1.316122301323947
 30
0.0
 10
28.57499999999998
 20
1.065867874974135
 30
0.0
 10
28.57499999999998
 20
0.9181007904078713
 30
0.0
 10
28.57499999999998
 20
0.5897444787690169
 30
0.0
 10
28.57499999999998
 20
0.4093302136672606
 30
0.0
 10
28.57499999999998
 20
0.0346794809622271
 30
0.0
 10
28.57499999999998
 20
-0.1593487860997762
 30
0.0
 10
28.57499999999998
 20
-0.3506694744692084
 30
0.0
  0
SPLINE
  5
B7
330
1F
100
AcDbEntity
  8
외형선
  6
Continuous
370
    15
100
AcDbSpline
210
0.0
220
0.0
230
1.0
 70
    24
 71
     3
 72
     8
 73
     4
 74
     0
 42
0.000000001
 43
0.00000001
 40
0.0
 40
0.0
 40
0.0
 40
0.0
 40
1.0
 40
1.0
 40
1.0
 40
1.0
 10
28.57500000000002
 20
-1.825727147129121
 30
0.0
 10
28.57500000000002
 20
-1.940927109604631
 30
0.0
 10
28.57500000000002
 20
-2.055569446914635
 30
0.0
 10
28.57500000000002
 20
-2.167440710620199
 30
0.0
  0
SPLINE
  5
B8
330
1F
100
AcDbEntity
  8
외형선
  6
Continuous
370
    15
100
AcDbSpline
210
0.0
220
0.0
230
1.0
 70
    24
 71
     3
 72
    10
 73
     6
 74
     0
 42
0.000000001
 43
0.00000001
 40
0.0
 40
0.0
 40
0.0
 40
0.0
 40
0.5
 40
0.5
 40
1.0
 40
1.0
 40
1.0
 40
1.0
 10
28.57499999999992
 20
2.154558497772388
 30
0.0
 10
28.57499999999992
 20
2.053084149251634
 30
0.0
 10
28.57499999999992
 20
1.939206017874558
 30
0.0
 10
28.57499999999992
 20
1.711514387970615
 30
0.0
 10
28.57499999999992
 20
1.598316863564888
 30
0.0
 10
28.57499999999992
 20
1.49684344500456
 30
0.0
  0
SPLINE
  5
B9
330
1F
100
AcDbEntity
  8
0
  6
Continuous
 62
     1
370
    15
100
AcDbSpline
210
0.0
220
0.0
230
1.0
 70
     8
 71
     3
 72
    18
 73
    14
 74
     0
 42
0.000000001
 43
0.00000001
 40
0.0
 40
0.0
 40
0.0
 40
0.0
 40
0.0972943807918009
 40
0.1945814268292013
 40
0.291861750031854
 40
0.3891359663476887
 40
0.4864046953924663
 40
0.5836685600846379
 40
0.6753656140170959
 40
0.7670470228915698
 40
0.8587214807555253
 40
0.9503977056675801
 40
1.0
 40
1.0
 40
1.0
 40
1.0
 10
39.68750000000002
 20
-2.071359991120257
 30
0.0
 10
39.34161939987528
 20
-1.993284266749494
 30
0.0
 10
38.64988427460807
 20
-1.837138703920991
 30
0.0
 10
37.61233837161556
 20
-1.423951164583608
 30
0.0
 10
36.57487826515143
 20
-0.915378380343399
 30
0.0
 10
35.53749273746665
 20
-0.3353523040835657
 30
0.0
 10
34.50019170179582
 20
0.2689078540798271
 30
0.0
 10
33.48267361187055
 20
0.8422584999196895
 30
0.0
 10
32.48521355526162
 20
1.344231543346152
 30
0.0
 10
31.50761718369483
 20
1.748754194373741
 30
0.0
 10
30.53011778889857
 20
2.029876086849577
 30
0.0
 10
29.70217250274067
 20
2.175886826608001
 30
0.0
 10
29.20003304620026
 20
2.167613030012528
 30
0.0
 10
29.02373399343246
 20
2.164708134801494
 30
0.0
1001
PE_URL
1000

  0
SPLINE
  5
BA
330
1F
100
AcDbEntity
  8
0
  6
Continuous
 62
     1
370
    15
100
AcDbSpline
210
0.0
220
0.0
230
1.0
 70
     8
 71
     3
 72
    13
 73
     9
 74
     0
 42
0.000000001
 43
0.00000001
 40
0.0
 40
0.0
 40
0.0
 40
0.0
 40
0.1764827905268244
 40
0.3529188623303702
 40
0.5293161382960899
 40
0.7056826235685999
 40
0.8820263888029819
 40
0.9999999999999999
 40
0.9999999999999999
 40
0.9999999999999999
 40
0.9999999999999999
 10
39.68750000000001
 20
-1.722178520816247
 30
0.0
 10
39.35386146045308
 20
-1.649612433993576
 30
0.0
 10
38.68667270252953
 20
-1.504499470124552
 30
0.0
 10
37.68605858924666
 20
-1.150060911325181
 30
0.0
 10
36.68569360524483
 20
-0.7238331691312715
 30
0.0
 10
35.68553023730353
 20
-0.2463921125622526
 30
0.0
 10
34.79581994349821
 20
0.1978266956068327
 30
0.0
 10
34.23949425036457
 20
0.4582455533230661
 30
0.0
 10
34.01649772934211
 20
0.5626313474650825
 30
0.0
1001
PE_URL
1000

  0
LINE
  5
BB
330
1F
100
AcDbEntity
  8
0
  6
Continuous
 62
     1
370
    15
100
AcDbLine
 10
39.68749999999994
 20
-2.071359991120258
 30
0.0
 11
39.68750000000001
 21
-1.722178520816247
 31
0.0
1001
PE_URL
1000

  0
SPLINE
  5
BC
330
1F
100
AcDbEntity
  8
0
  6
Continuous
 62
     1
370
    15
100
AcDbSpline
210
0.0
220
0.0
230
1.0
 70
     8
 71
     3
 72
    38
 73
    34
 74
     0
 42
0.000000001
 43
0.00000001
 40
0.0
 40
0.0
 40
0.0
 40
0.0
 40
0.0624999999999999
 40
0.0624999999999999
 40
0.1249999999999998
 40
0.1249999999999998
 40
0.1874999999999997
 40
0.1874999999999997
 40
0.2499999999999996
 40
0.2499999999999996
 40
0.3124999999999995
 40
0.3124999999999995
 40
0.3749999999999994
 40
0.3749999999999994
 40
0.4374999999999995
 40
0.4374999999999995
 40
0.4999999999999996
 40
0.4999999999999996
 40
0.5624999999999997
 40
0.5624999999999997
 40
0.6249999999999998
 40
0.6249999999999998
 40
0.6874999999999998
 40
0.6874999999999998
 40
0.7499999999999999
 40
0.7499999999999999
 40
0.8125
 40
0.8125
 40
0.875
 40
0.875
 40
0.9375
 40
0.9375
 40
1.0
 40
1.0
 40
1.0
 40
1.0
 10
39.68750000000001
 20
-2.180967620118456
 30
0.0
 10
39.45832647085203
 20
-2.175491549946297
 30
0.0
 10
39.22460491805853
 20
-2.157690532208788
 30
0.0
 10
38.75976191204623
 20
-2.097993369978409
 30
0.0
 10
38.53134685413925
 20
-2.056369952794924
 30
0.0
 10
38.06721753062975
 20
-1.950096496437108
 30
0.0
 10
37.83320312282198
 20
-1.885433261575388
 30
0.0
 10
37.37301903006284
 20
-1.736483909651384
 30
0.0
 10
37.1413811349573
 20
-1.651663233698231
 30
0.0
 10
36.67610467846923
 20
-1.464101692080825
 30
0.0
 10
36.44717658503886
 20
-1.362058418884694
 30
0.0
 10
35.98403974150639
 20
-1.143096043578641
 30
0.0
 10
35.74987578050961
 20
-1.026105617559277
 30
0.0
 10
35.28812556917943
 20
-0.7830229183843732
 30
0.0
 10
35.05806474259474
 20
-0.6565458586411271
 30
0.0
 10
34.59263594023938
 20
-0.3966526265081125
 30
0.0
 10
34.36268280393101
 20
-0.2642545512345233
 30
0.0
 10
33.90081524737244
 20
0.0023834491715522
 30
0.0
 10
33.66664534291597
 20
0.1370599301685794
 30
0.0
 10
33.20360304776397
 20
0.402356254304376
 30
0.0
 10
32.9746095497761
 20
0.5330119244671445
 30
0.0
 10
32.50930981308615
 20
0.7882322747724707
 30
0.0
 10
32.27782167856641
 20
0.9118841421146934
 30
0.0
 10
31.81749767794142
 20
1.147163732547251
 30
0.0
 10
31.58346545199619
 20
1.259639884315937
 30
0.0
 10
31.11940769066872
 20
1.468506405143714
 30
0.0
 10
30.89096964494546
 20
1.564752014608265
 30
0.0
 10
30.42608012542301
 20
1.739694561232481
 30
0.0
 10
30.19255010463047
 20
1.81790319806141
 30
0.0
 10
29.7340408539238
 20
1.952252069743497
 30
0.0
 10
29.50028964498666
 20
2.009238510219257
 30
0.0
 10
29.03549507126143
 20
2.099676592695853
 30
0.0
 10
28.80709948836516
 20
2.133102945292309
 30
0.0
 10
28.57499999999571
 20
2.154558497772767
 30
0.0
1001
PE_URL
1000

  0
SPLINE
  5
BD
330
1F
100
AcDbEntity
  8
0
  6
Continuous
 62
     1
370
    15
100
AcDbSpline
210
0.0
220
0.0
230
1.0
 70
     8
 71
     3
 72
    13
 73
     9
 74
     0
 42
0.000000001
 43
0.00000001
 40
0.0
 40
0.0
 40
0.0
 40
0.0
 40
0.1023254734614419
 40
0.2779598193701166
 40
0.4535959380955742
 40
0.6292422910067461
 40
0.8146201548784866
 40
0.9999999999999999
 40
0.9999999999999999
 40
0.9999999999999999
 40
0.9999999999999999
 10
34.26808102465571
 20
-0.2077852914736832
 30
0.0
 10
34.07390358916463
 20
-0.1301670976567813
 30
0.0
 10
33.5464344940405
 20
0.080677166272381
 30
0.0
 10
32.68567753879545
 20
0.4292742756593463
 30
0.0
 10
31.68577505364598
 20
0.8026288436206277
 30
0.0
 10
30.66740515460625
 20
1.124534187097915
 30
0.0
 10
29.6304237997
 20
1.377292231184578
 30
0.0
 10
28.92680918655526
 20
1.456992898430131
 30
0.0
 10
28.57500000000001
 20
1.496843445004553
 30
0.0
1001
PE_URL
1000

  0
SPLINE
  5
BE
330
1F
100
AcDbEntity
  8
외형선
  6
Continuous
370
    15
100
AcDbSpline
210
0.0
220
0.0
230
1.0
 70
    24
 71
     3
 72
    10
 73
     6
 74
     0
 42
0.000000001
 43
0.00000001
 40
0.0
 40
0.0
 40
0.0
 40
0.0
 40
0.5
 40
0.5
 40
1.0
 40
1.0
 40
1.0
 40
1.0
 10
28.57499999999992
 20
2.154558497772388
 30
0.0
 10
28.57499999999992
 20
2.053084149251635
 30
0.0
 10
28.57499999999992
 20
1.939206017874559
 30
0.0
 10
28.57499999999992
 20
1.711514387970614
 30
0.0
 10
28.57499999999992
 20
1.598316863564888
 30
0.0
 10
28.57499999999992
 20
1.49684344500456
 30
0.0
  0
LINE
  5
BF
330
1F
100
AcDbEntity
  8
0
  6
Continuous
 62
     1
370
    15
100
AcDbLine
 10
39.68750000000001
 20
-2.180967620118457
 30
0.0
 11
39.68749999999986
 21
-2.071359991120253
 31
0.0
1001
PE_URL
1000

  0
SPLINE
  5
C0
330
1F
100
AcDbEntity
  8
0
  6
Continuous
 62
     1
370
    15
100
AcDbSpline
210
0.0
220
0.0
230
1.0
 70
     8
 71
     3
 72
     8
 73
     4
 74
     0
 42
0.000000001
 43
0.00000001
 40
0.0
 40
0.0
 40
0.0
 40
0.0
 40
1.0
 40
1.0
 40
1.0
 40
1.0
 10
38.33627037530583
 20
0.6112018266196746
 30
0.0
 10
38.25895019123442
 20
0.7028228990928416
 30
0.0
 10
38.18991771646471
 20
0.7910358002691454
 30
0.0
 10
38.13114407772412
 20
0.8750299397561728
 30
0.0
1001
PE_URL
1000

  0
LINE
  5
C1
330
1F
100
AcDbEntity
  8
0
  6
Continuous
 62
     1
370
    15
100
AcDbLine
 10
38.15875957379022
 20
0.89820209232002
 30
0.0
 11
39.68750000000001
 21
0.000000000000001
 31
0.0
1001
PE_URL
1000

  0
LINE
  5
C2
330
1F
100
AcDbEntity
  8
0
  6
Continuous
 62
     1
370
    15
100
AcDbLine
 10
39.68750000000001
 20
0.000000000000001
 30
0.0
 11
39.68750000000001
 21
-0.5833412431303332
 31
0.0
1001
PE_URL
1000

  0
SPLINE
  5
C3
330
1F
100
AcDbEntity
  8
0
  6
Continuous
 62
     1
370
    15
100
AcDbSpline
210
0.0
220
0.0
230
1.0
 70
     8
 71
     3
 72
    10
 73
     6
 74
     0
 42
0.000000001
 43
0.00000001
 40
0.0
 40
0.0
 40
0.0
 40
0.0
 40
0.5
 40
0.5
 40
1.0
 40
1.0
 40
1.0
 40
1.0
 10
39.68750000000001
 20
-0.583341243130333
 30
0.0
 10
39.45358965399492
 20
-0.3994465620390399
 30
0.0
 10
39.22358997950519
 20
-0.2080072785352086
 30
0.0
 10
38.77160341293784
 20
0.1903298247571097
 30
0.0
 10
38.54751505108801
 20
0.3993333841186727
 30
0.0
 10
38.33627037530583
 20
0.6112018266196769
 30
0.0
1001
PE_URL
1000

  0
SPLINE
  5
C4
330
1F
100
AcDbEntity
  8
0
  6
Continuous
 62
     1
370
    15
100
AcDbSpline
210
0.0
220
0.0
230
1.0
 70
     8
 71
     3
 72
    13
 73
     9
 74
     0
 42
0.000000001
 43
0.00000001
 40
0.0
 40
0.0
 40
0.0
 40
0.0
 40
0.1641154197682696
 40
0.3282937650346809
 40
0.5272123114067372
 40
0.7261048749212247
 40
0.9249807392889274
 40
1.0
 40
1.0
 40
1.0
 40
1.0
 10
38.33627037530583
 20
0.611201826619674
 30
0.0
 10
38.0612267969973
 20
0.7273409176814876
 30
0.0
 10
37.51103418256159
 20
0.9596636301129257
 30
0.0
 10
36.62739268719725
 20
1.275194175910209
 30
0.0
 10
35.68551437657196
 20
1.541269365641021
 30
0.0
 10
34.68549158134836
 20
1.707812741725787
 30
0.0
 10
33.8931294714932
 20
1.768727431525491
 30
0.0
 10
33.43410051452569
 20
1.730656064217897
 30
0.0
 10
33.30837351231353
 20
1.720228402064896
 30
0.0
1001
PE_URL
1000

  0
SPLINE
  5
C5
330
1F
100
AcDbEntity
  8
0
  6
Continuous
 62
     1
370
    15
100
AcDbSpline
210
0.0
220
0.0
230
1.0
 70
    24
 71
     3
 72
    10
 73
     6
 74
     0
 42
0.000000001
 43
0.00000001
 40
0.0
 40
0.0
 40
0.0
 40
0.0
 40
0.5
 40
0.5
 40
1.0
 40
1.0
 40
1.0
 40
1.0
 10
39.68750000000001
 20
-1.722178520816247
 30
0.0
 10
39.68750000000001
 20
-1.590160110059868
 30
0.0
 10
39.68750000000001
 20
-1.423349785964588
 30
0.0
 10
39.68750000000001
 20
-1.035531836146093
 30
0.0
 10
39.68750000000001
 20
-0.8148601530354367
 30
0.0
 10
39.68750000000001
 20
-0.5833412431304031
 30
0.0
1001
PE_URL
1000

  0
SPLINE
  5
C6
330
1F
100
AcDbEntity
  8
0
  6
Continuous
 62
     1
370
    15
100
AcDbSpline
210
0.0
220
0.0
230
1.0
 70
    24
 71
     3
 72
     8
 73
     4
 74
     0
 42
0.000000001
 43
0.00000001
 40
0.0
 40
0.0
 40
0.0
 40
0.0
 40
1.0
 40
1.0
 40
1.0
 40
1.0
 10
38.35909204667023
 20
1.066300996426462
 30
0.0
 10
38.28709855730992
 20
1.005891286057064
 30
0.0
 10
38.21066349646345
 20
0.9417546546917431
 30
0.0
 10
38.13114407772415
 20
0.8750299397561587
 30
0.0
1001
PE_URL
1000

  0
LINE
  5
C7
330
1F
100
AcDbEntity
  8
0
  6
Continuous
 62
     1
370
    15
100
AcDbLine
 10
39.68750000000001
 20
1.52796875
 30
0.0
 11
38.88721813989266
 21
1.48544190695837
 31
0.0
1001
PE_URL
1000

  0
SPLINE
  5
C8
330
1F
100
AcDbEntity
  8
0
  6
Continuous
 62
     1
370
    15
100
AcDbSpline
210
0.0
220
0.0
230
1.0
 70
     8
 71
     3
 72
     8
 73
     4
 74
     0
 42
0.000000001
 43
0.00000001
 40
0.0
 40
0.0
 40
0.0
 40
0.0
 40
1.0
 40
1.0
 40
1.0
 40
1.0
 10
39.68750000000001
 20
1.527968750000001
 30
0.0
 10
39.2385821327011
 20
1.406090013374698
 30
0.0
 10
38.79379087930882
 20
1.256429721372867
 30
0.0
 10
38.35909204667887
 20
1.066300996430249
 30
0.0
1001
PE_URL
1000

  0
SPLINE
  5
C9
330
1F
100
AcDbEntity
  8
0
  6
Continuous
 62
     1
370
    15
100
AcDbSpline
210
0.0
220
0.0
230
1.0
 70
     8
 71
     3
 72
     9
 73
     5
 74
     0
 42
0.000000001
 43
0.00000001
 40
0.0
 40
0.0
 40
0.0
 40
0.0
 40
0.2723582602934545
 40
1.0
 40
1.0
 40
1.0
 40
1.0
 10
30.02551679629605
 20
-1.800215665401144
 30
0.0
 10
29.89383022566143
 20
-1.817938913898716
 30
0.0
 10
29.41032526240924
 20
-1.883012205520112
 30
0.0
 10
28.92681919560679
 20
-1.849854255538698
 30
0.0
 10
28.575
 20
-1.825727147129119
 30
0.0
1001
PE_URL
1000

  0
SPLINE
  5
CA
330
1F
100
AcDbEntity
  8
0
  6
Continuous
 62
     1
370
    15
100
AcDbSpline
210
0.0
220
0.0
230
1.0
 70
     8
 71
     3
 72
    14
 73
    10
 74
     0
 42
0.000000001
 43
0.00000001
 40
0.0
 40
0.0
 40
0.0
 40
0.0
 40
0.059220358715427
 40
0.2131734786083934
 40
0.3671208858162462
 40
0.5210698070074786
 40
0.6750274655991084
 40
0.8375128873943752
 40
1.0
 40
1.0
 40
1.0
 40
1.0
 10
35.07010081823389
 20
-1.627130933508371
 30
0.0
 10
34.94188896624246
 20
-1.650858175778122
 30
0.0
 10
34.48036919363906
 20
-1.736268309761474
 30
0.0
 10
33.68556633347722
 20
-1.761967395206754
 30
0.0
 10
32.68568386786018
 20
-1.698542042127589
 30
0.0
 10
31.68578186701796
 20
-1.509873182843824
 30
0.0
 10
30.66742262448763
 20
-1.212205071881592
 30
0.0
 10
29.6304266423325
 20
-0.8202667952450782
 30
0.0
 10
28.92681010106744
 20
-0.5072024576787777
 30
0.0
 10
28.57500000000002
 20
-0.3506694744692241
 30
0.0
1001
PE_URL
1000

  0
SPLINE
  5
CB
330
1F
100
AcDbEntity
  8
외형선
  6
Continuous
370
    15
100
AcDbSpline
210
0.0
220
0.0
230
1.0
 70
    24
 71
     3
 72
    10
 73
     6
 74
     0
 42
0.000000001
 43
0.00000001
 40
0.0
 40
0.0
 40
0.0
 40
0.0
 40
0.5
 40
0.5
 40
1.0
 40
1.0
 40
1.0
 40
1.0
 10
28.57500000000002
 20
-0.350669474469224
 30
0.0
 10
28.57500000000002
 20
-0.670471242597731
 30
0.0
 10
28.57500000000002
 20
-0.9826104541071047
 30
0.0
 10
28.57500000000002
 20
-1.498216203553575
 30
0.0
 10
28.57500000000002
 20
-1.699463372780618
 30
0.0
 10
28.57500000000002
 20
-1.82572714712912
 30
0.0
  0
SPLINE
  5
CC
330
1F
100
AcDbEntity
  8
외형선
  6
Continuous
370
    15
100
AcDbSpline
210
0.0
220
0.0
230
1.0
 70
    24
 71
     3
 72
    14
 73
    10
 74
     0
 42
0.000000001
 43
0.00000001
 40
0.0
 40
0.0
 40
0.0
 40
0.0
 40
0.25
 40
0.25
 40
0.5
 40
0.5
 40
0.75
 40
0.75
 40
1.0
 40
1.0
 40
1.0
 40
1.0
 10
28.57499999999998
 20
1.496843445004556
 30
0.0
 10
28.57499999999998
 20
1.41857616389061
 30
0.0
 10
28.57499999999998
 20
1.316122301323947
 30
0.0
 10
28.57499999999998
 20
1.065867874974135
 30
0.0
 10
28.57499999999998
 20
0.9181007904078713
 30
0.0
 10
28.57499999999998
 20
0.5897444787690169
 30
0.0
 10
28.57499999999998
 20
0.4093302136672606
 30
0.0
 10
28.57499999999998
 20
0.0346794809622271
 30
0.0
 10
28.57499999999998
 20
-0.1593487860997762
 30
0.0
 10
28.57499999999998
 20
-0.3506694744692084
 30
0.0
  0
LINE
  5
CD
330
1F
100
AcDbEntity
  8
0
  6
Continuous
 62
     1
370
    15
100
AcDbLine
 10
39.68750000000001
 20
0.000000000000001
 30
0.0
 11
39.68750000000001
 21
1.527968750000001
 31
0.0
1001
PE_URL
1000

  0
SPLINE
  5
CE
330
1F
100
AcDbEntity
  8
0
  6
Continuous
 62
     1
370
    15
100
AcDbSpline
210
0.0
220
0.0
230
1.0
 70
     8
 71
     3
 72
    11
 73
     7
 74
     0
 42
0.000000001
 43
0.00000001
 40
0.0
 40
0.0
 40
0.0
 40
0.0
 40
0.0105577789788737
 40
0.3403550486954041
 40
0.6701586753367764
 40
0.9999999999999999
 40
0.9999999999999999
 40
0.9999999999999999
 40
0.9999999999999999
 10
31.53888853723651
 20
-1.715444206506702
 30
0.0
 10
31.52845778975676
 20
-1.719713370194271
 30
0.0
 10
31.19219790275759
 20
-1.857339988224314
 30
0.0
 10
30.53011934066104
 20
-2.024673304640055
 30
0.0
 10
29.55259697177002
 20
-2.194207652896329
 30
0.0
 10
28.90087807227031
 20
-2.176363364645649
 30
0.0
 10
28.57499999999234
 20
-2.167440710629066
 30
0.0
1001
PE_URL
1000

  0
SPLINE
  5
CF
330
1F
100
AcDbEntity
  8
외형선
  6
Continuous
370
    15
100
AcDbSpline
210
0.0
220
0.0
230
1.0
 70
    24
 71
     3
 72
     8
 73
     4
 74
     0
 42
0.000000001
 43
0.00000001
 40
0.0
 40
0.0
 40
0.0
 40
0.0
 40
1.0
 40
1.0
 40
1.0
 40
1.0
 10
28.57500000000002
 20
-1.825727147129121
 30
0.0
 10
28.57500000000002
 20
-1.94092710960463
 30
0.0
 10
28.57500000000002
 20
-2.055569446914634
 30
0.0
 10
28.57500000000002
 20
-2.167440710620197
 30
0.0
  0
SPLINE
  5
D0
330
1F
100
AcDbEntity
  8
0
  6
Continuous
 62
     1
370
    15
100
AcDbSpline
210
0.0
220
0.0
230
1.0
 70
     8
 71
     3
 72
    11
 73
     7
 74
     0
 42
0.000000001
 43
0.00000001
 40
0.0
 40
0.0
 40
0.0
 40
0.0
 40
0.0213506985452837
 40
0.3474552475294668
 40
0.6736616024974829
 40
1.0
 40
1.0
 40
1.0
 40
1.0
 10
36.68855479303126
 20
1.463664264105667
 30
0.0
 10
36.70989561809492
 20
1.473694242358217
 30
0.0
 10
37.05719018736838
 20
1.636919280127504
 30
0.0
 10
37.73057770386318
 20
1.863860362639527
 30
0.0
 10
38.70886760822589
 20
2.116953830079678
 30
0.0
 10
39.36124519983881
 20
2.159626811810647
 30
0.0
 10
39.68750000000001
 20
2.180967620118455
 30
0.0
1001
PE_URL
1000

  0
SPLINE
  5
D1
330
1F
100
AcDbEntity
  8
0
  6
Continuous
 62
     1
370
    15
100
AcDbSpline
210
0.0
220
0.0
230
1.0
 70
    24
 71
     3
 72
    10
 73
     6
 74
     0
 42
0.000000001
 43
0.00000001
 40
0.0
 40
0.0
 40
0.0
 40
0.0
 40
0.5
 40
0.5
 40
1.0
 40
1.0
 40
1.0
 40
1.0
 10
39.68750000000001
 20
1.527968749999999
 30
0.0
 10
39.68750000000001
 20
1.620590410562214
 30
0.0
 10
39.68750000000001
 20
1.728225357824003
 30
0.0
 10
39.68750000000002
 20
1.954043187284866
 30
0.0
 10
39.68750000000001
 20
2.0716493590854
 30
0.0
 10
39.68750000000001
 20
2.180967620118456
 30
0.0
1001
PE_URL
1000

  0
LINE
  5
D2
330
1F
100
AcDbEntity
  8
중심선
 62
     1
100
AcDbLine
 10
-42.68750000000001
 20
-0.0000000000000052
 30
0.0
 11
42.6875
 21
0.0000000000000052
 31
0.0
  0
LINE
  5
D3
330
1F
100
AcDbEntity
  8
참조1
100
AcDbLine
 10
0.0
 20
-0.0000000000000048
 30
0.0
 11
0.0000000000000036
 21
-40.00000000000001
 31
0.0
  0
LINE
  5
D4
330
1F
100
AcDbEntity
  8
참조1
100
AcDbLine
 10
0.0000000000000036
 20
-40.00000000000001
 30
0.0
 11
-11.29071559669921
 21
-40.0
 31
0.0
  0
CIRCLE
  5
D5
330
1F
100
AcDbEntity
  8
해칭선
100
AcDbCircle
 10
0.0
 20
0.0
 30
0.0
 40
3.000000000000001
  0
INSERT
  5
D6
330
1F
100
AcDbEntity
  8
0
  6
Continuous
 62
     7
100
AcDbBlockReference
 66
     1
  2
블럭10
 10
-13.94027293212521
 20
-52.04717430164393
 30
0.0
  0
ATTRIB
  5
D7
330
D6
100
AcDbEntity
  8
FORMAT
 62
     2
100
AcDbText
 10
-23.12156822086649
 20
-49.97180738881175
 30
0.0
 40
4.233333333333333
  1
E1050011 [ 2 FLUTE ]
 41
0.75
  7
SLDTEXTSTYLE0
 11
-23.12156822086649
 21
-52.08847405547841
 31
0.0
100
AcDbAttribute
  2
AUTOATTR0
 70
     0
 74
     1
  0
SEQEND
  5
D8
330
D6
100
AcDbEntity
  8
0
  6
Continuous
 62
     7
  0
HATCH
  5
D9
330
1F
100
AcDbEntity
  8
중심선
100
AcDbHatch
 10
0.0
 20
0.0
 30
0.0
210
0.0
220
0.0
230
1.0
  2
SOLID
 70
     1
 71
     0
 91
        1
 92
        0
 93
        4
 72
     1
 10
-8.225363627744358
 20
-35.8
 11
-11.67163887158164
 21
-35.8
 72
     1
 10
-11.67163887158164
 20
-35.8
 11
-13.79986873078566
 21
-38.3363255805726
 72
     1
 10
-13.79986873078566
 20
-38.3363255805726
 11
-10.35356040183523
 21
-38.33628615127011
 72
     1
 10
-10.35356040183523
 20
-38.33628615127011
 11
-8.225363627744358
 21
-35.8
 97
        0
 75
     0
 76
     1
 98
        1
 10
18.16921167873052
 20
-0.001074928723894
  0
HATCH
  5
DA
330
1F
100
AcDbEntity
  8
중심선
100
AcDbHatch
 10
0.0
 20
0.0
 30
0.0
210
0.0
220
0.0
230
1.0
  2
SOLID
 70
     1
 71
     0
 91
        1
 92
        0
 93
        4
 72
     1
 10
-3.212599636708404
 20
-35.80000000000003
 11
-6.658874880545689
 21
-35.8
 72
     1
 10
-6.658874880545689
 20
-35.8
 11
-11.19001288890308
 21
-41.20000000000002
 72
     1
 10
-11.19001288890308
 20
-41.20000000000002
 11
-7.743737645065796
 21
-41.20000000000002
 72
     1
 10
-7.743737645065796
 20
-41.20000000000002
 11
-3.212599636708404
 21
-35.80000000000003
 97
        0
 75
     0
 76
     1
 98
        1
 10
18.16921167873052
 20
-0.001074928723894
  0
HATCH
  5
DB
330
1F
100
AcDbEntity
  8
중심선
100
AcDbHatch
 10
0.0
 20
0.0
 30
0.0
210
0.0
220
0.0
230
1.0
  2
SOLID
 70
     1
 71
     0
 91
        1
 92
        0
 93
        4
 72
     1
 10
1.800164354327489
 20
-35.8
 11
-1.646110889509625
 21
-35.79999999999998
 72
     1
 10
-1.646110889509625
 20
-35.79999999999998
 11
-8.694547791398875
 21
-44.20000000000002
 72
     1
 10
-8.694547791398875
 20
-44.20000000000002
 11
-5.248272547561594
 21
-44.20000000000002
 72
     1
 10
-5.248272547561594
 20
-44.20000000000002
 11
1.800164354327489
 21
-35.8
 97
        0
 75
     0
 76
     1
 98
        1
 10
18.16921167873052
 20
-0.001074928723894
  0
HATCH
  5
DC
330
1F
100
AcDbEntity
  8
중심선
100
AcDbHatch
 10
0.0
 20
0.0
 30
0.0
210
0.0
220
0.0
230
1.0
  2
SOLID
 70
     1
 71
     0
 91
        1
 92
        0
 93
        6
 72
     3
 10
6.600054785339688
 20
-40.00000000005127
 11
3.960054785062283
 21
1.540882976769353E-10
 40
0.3939339440162628
 50
17.09539180608437
 51
320.0019657685077
 73
     0
 72
     1
 10
8.283054441040257
 20
-38.5878940046383
 11
10.58835631474135
 21
-36.65356729459038
 72
     3
 10
6.600054785286842
 20
-40.00000000000015
 11
6.600054785286829
 21
-1.278976924368180E-13
 40
0.636358354079598
 50
39.99873849337385
 51
368.4976242363725
 73
     1
 72
     1
 10
13.02538727718745
 20
-39.03999999993002
 11
5.280122092122765
 21
-39.03999999993002
 72
     1
 10
5.280122092122765
 20
-39.03999999993002
 11
5.280097047676831
 21
-40.95999999992991
 72
     1
 10
5.280097047676831
 20
-40.95999999992991
 11
9.721476817148869
 21
-40.95999999992988
 97
        0
 75
     0
 76
     1
 98
        1
 10
18.16921167873052
 20
-0.001074928723894
  0
DIMENSION
  5
DD
330
1F
100
AcDbEntity
  8
치수문자_일반주서
100
AcDbDimension
  2
_D
 10
-49.68749999999994
 20
-4.762500000000127
 30
0.0
 11
-49.68750000000004
 21
24.49149999999996
 31
0.0
 70
   160
  1
%%c<>
 71
     2
 42
9.525
 52
-270.0
  3
SLDDIMSTYLE0
100
AcDbAlignedDimension
 13
-17.94747518234971
 23
4.762499999999994
 33
0.0
 14
-17.9474751823497
 24
-4.762500000000006
 34
0.0
 50
90.0000000000002
100
AcDbRotatedDimension
1001
PE_URL
1000

1001
ACAD
1000
DSTYLE
1002
{
1070
   171
1070
     8
1070
   273
1070
     7
1002
}
  0
DIMENSION
  5
F2
330
1F
100
AcDbEntity
  8
치수문자_일반주서
100
AcDbDimension
  2
_D_1
 10
77.89480533406594
 20
2.180967620118597
 30
0.0
 11
77.89480533406586
 21
23.6599676201186
 31
0.0
 70
   160
  1
%%c<>
 71
     2
 42
4.361935240236914
 52
-270.0
  3
SLDDIMSTYLE0
100
AcDbAlignedDimension
 13
39.68750000000001
 23
-2.180967620118457
 33
0.0
 14
39.68750000000001
 24
2.180967620118456
 34
0.0
 50
90.0000000000002
100
AcDbRotatedDimension
1001
PE_URL
1000

1001
ACAD
1000
DSTYLE
1002
{
1070
   171
1070
     8
1070
   273
1070
     7
1002
}
  0
DIMENSION
  5
106
330
1F
100
AcDbEntity
  8
치수문자_일반주서
100
AcDbDimension
  2
_D_2
 10
28.57500000000002
 20
14.76249999999998
 30
0.0
 11
58.54150000000001
 21
14.76249999999998
 31
0.0
 70
   160
  1
<>
 71
     2
 42
11.1125
  3
SLDDIMSTYLE0
100
AcDbAlignedDimension
 13
39.68750000000001
 23
2.180967620118456
 33
0.0
 14
28.57500000000002
 24
2.154558497772368
 34
0.0
100
AcDbRotatedDimension
1001
PE_URL
1000

1001
ACAD
1000
DSTYLE
1002
{
1070
   171
1070
     8
1070
   273
1070
     7
1002
}
  0
DIMENSION
  5
11B
330
1F
100
AcDbEntity
  8
치수문자_일반주서
100
AcDbDimension
  2
_D_3
 10
39.68750000000001
 20
24.76249999999998
 30
0.0
 11
0.0000000000000142
 21
24.76249999999998
 31
0.0
 70
   160
  1
<>
 71
     2
 42
79.37499999999989
  3
SLDDIMSTYLE0
100
AcDbAlignedDimension
 13
-39.68749999999986
 23
2.071359991120236
 33
0.0
 14
39.68750000000001
 24
2.180967620118456
 34
0.0
100
AcDbRotatedDimension
1001
PE_URL
1000

1001
ACAD
1000
DSTYLE
1002
{
1070
   171
1070
     8
1070
   273
1070
     7
1002
}
  0
LINE
  5
12E
330
1F
100
AcDbEntity
  8
참조1
100
AcDbLine
 10
86.68162503295505
 20
7.440000000000001
 30
0.0
 11
86.68162503295505
 21
-7.440000000000003
 31
0.0
  0
LINE
  5
12F
330
1F
100
AcDbEntity
  8
참조1
100
AcDbLine
 10
99.38162503295506
 20
5.440000000000001
 30
0.0
 11
86.68162503295505
 21
5.440000000000001
 31
0.0
  0
SOLID
  5
130
330
1F
100
AcDbEntity
  8
참조1
100
AcDbTrace
 10
86.68162503295505
 20
5.440000000000001
 30
0.0
 11
93.03162503295505
 21
4.424000000000001
 31
0.0
 12
93.03162503295505
 22
6.456000000000001
 32
0.0
 13
93.03162503295505
 23
6.456000000000001
 33
0.0
  0
LINE
  5
131
330
1F
100
AcDbEntity
  8
참조1
100
AcDbLine
 10
99.38162503295506
 20
-5.440000000000003
 30
0.0
 11
86.68162503295505
 21
-5.440000000000003
 31
0.0
  0
SOLID
  5
132
330
1F
100
AcDbEntity
  8
참조1
100
AcDbTrace
 10
86.68162503295505
 20
-5.440000000000003
 30
0.0
 11
93.03162503295505
 21
-6.456000000000003
 31
0.0
 12
93.03162503295505
 22
-4.424000000000003
 32
0.0
 13
93.03162503295505
 23
-4.424000000000003
 33
0.0
  0
MTEXT
  5
133
330
1F
100
AcDbEntity
  8
참조1
100
AcDbMText
 10
96.06597516558105
 20
11.01029177718833
 30
0.0
 40
3.5
 41
0.0
 71
     1
 72
     1
  1
A
  7
SLDTEXTSTYLE0
 73
     1
 44
1.0
  0
MTEXT
  5
134
330
1F
100
AcDbEntity
  8
참조1
100
AcDbMText
 10
96.06597516558105
 20
0.1302917771883252
 30
0.0
 40
3.5
 41
0.0
 71
     1
 72
     1
  1
A
  7
SLDTEXTSTYLE0
 73
     1
 44
1.0
  0
INSERT
  5
13B
330
1F
100
AcDbEntity
  8
해칭선
100
AcDbBlockReference
  2
SW_DOWELSYMBOL_0
 10
0.0
 20
0.0
 30
0.0
  0
LINE
  5
1E3
330
1F
100
AcDbEntity
  8
외형선
  6
Continuous
370
    15
100
AcDbLine
 10
-3.568700000000064
 20
3.492500000000014
 30
0.0
 11
3.568700000000064
 21
3.492500000000014
 31
0.0
1001
PE_URL
1000

  0
LINE
  5
1E4
330
1F
100
AcDbEntity
  8
외형선
  6
Continuous
370
    15
100
AcDbLine
 10
-3.568700000000064
 20
3.492500000000014
 30
0.0
 11
-4.838700000000046
 21
4.762499999999996
 31
0.0
1001
PE_URL
1000

  0
LINE
  5
1E5
330
1F
100
AcDbEntity
  8
외형선
  6
Continuous
370
    15
100
AcDbLine
 10
3.568700000000064
 20
3.492500000000014
 30
0.0
 11
4.838700000000159
 21
4.762499999999996
 31
0.0
1001
PE_URL
1000

  0
LINE
  5
229
330
1F
100
AcDbEntity
  8
외형선
  6
Continuous
370
    15
100
AcDbLine
 10
-17.94747518234971
 20
4.762499999999992
 30
0.0
 11
-27.57500000000002
 21
2.182812499999986
 31
0.0
  0
LINE
  5
22A
330
1F
100
AcDbEntity
  8
외형선
  6
Continuous
370
    15
100
AcDbLine
 10
-27.57500000000002
 20
-2.182812500000011
 30
0.0
 11
-17.9474751823497
 21
-4.762500000000006
 31
0.0
  0
LINE
  5
22B
330
1F
100
AcDbEntity
  8
외형선
  6
Continuous
370
    15
100
AcDbLine
 10
-27.68508155252733
 20
-2.182812500000011
 30
0.0
 11
-27.57500000000002
 21
-2.182812500000011
 31
0.0
  0
LINE
  5
22C
330
1F
100
AcDbEntity
  8
외형선
  6
Continuous
370
    15
100
AcDbLine
 10
-28.57500000000002
 20
-2.182812500000011
 30
0.0
 11
-27.96538510809271
 21
-2.182812500000011
 31
0.0
  0
LINE
  5
22D
330
1F
100
AcDbEntity
  8
외형선
  6
Continuous
370
    15
100
AcDbLine
 10
-27.96538510809271
 20
2.182812499999986
 30
0.0
 11
-28.57500000000002
 21
2.182812499999986
 31
0.0
  0
LINE
  5
22E
330
1F
100
AcDbEntity
  8
외형선
  6
Continuous
370
    15
100
AcDbLine
 10
-27.57500000000002
 20
2.182812499999986
 30
0.0
 11
-27.68508155252733
 21
2.182812499999986
 31
0.0
  0
SPLINE
  5
22F
330
1F
100
AcDbEntity
  8
0
  6
Continuous
 62
     1
370
    15
100
AcDbSpline
210
0.0
220
0.0
230
1.0
 70
     8
 71
     3
 72
     9
 73
     5
 74
     0
 42
0.000000001
 43
0.00000001
 40
0.0
 40
0.0
 40
0.0
 40
0.0
 40
0.4370548088793625
 40
1.0
 40
1.0
 40
1.0
 40
1.0
 10
-34.03305611942651
 20
-0.5593254585980283
 30
0.0
 10
-33.94463271795234
 20
-0.6012856593793003
 30
0.0
 10
-33.74231621284191
 20
-0.6972923842311793
 30
0.0
 10
-33.54002401503495
 20
-0.8028128407186976
 30
0.0
 10
-33.42614459507832
 20
-0.8622150742632009
 30
0.0
1001
PE_URL
1000

  0
LINE
  5
230
330
1F
100
AcDbEntity
  8
0
  6
Continuous
 62
     1
370
    15
100
AcDbLine
 10
-29.02373399343247
 20
-2.182812500000015
 30
0.0
 11
-28.57500000000002
 21
-2.182812500000015
 31
0.0
1001
PE_URL
1000

  0
SPLINE
  5
231
330
1F
100
AcDbEntity
  8
0
  6
Continuous
 62
     1
370
    15
100
AcDbSpline
210
0.0
220
0.0
230
1.0
 70
     8
 71
     3
 72
    15
 73
    11
 74
     0
 42
0.000000001
 43
0.00000001
 40
0.0
 40
0.0
 40
0.0
 40
0.0
 40
0.2122482142280004
 40
0.3556483949795708
 40
0.4824330439367872
 40
0.6125477011006784
 40
0.7336049490327506
 40
0.8564488736027634
 40
0.9850696451558261
 40
0.9999999999999999
 40
0.9999999999999999
 40
0.9999999999999999
 40
0.9999999999999999
 10
-33.31014018384281
 20
-1.734540665171345
 30
0.0
 10
-33.18488117835937
 20
-1.728447294990275
 30
0.0
 10
-32.97499406850097
 20
-1.71823709212569
 30
0.0
 10
-32.69011041761934
 20
-1.710104265113124
 30
0.0
 10
-32.45359506237919
 20
-1.705816869172448
 30
0.0
 10
-32.23047548662394
 20
-1.704295789437545
 30
0.0
 10
-32.0098018953289
 20
-1.705120531782143
 30
0.0
 10
-31.78989180718751
 20
-1.708513596635896
 30
0.0
 10
-31.63260789163904
 20
-1.71192741208694
 30
0.0
 10
-31.54785616472869
 20
-1.715056457188936
 30
0.0
 10
-31.53904137247881
 20
-1.715381900498709
 30
0.0
1001
PE_URL
1000

  0
SPLINE
  5
232
330
1F
100
AcDbEntity
  8
0
  6
Continuous
 62
     1
370
    15
100
AcDbSpline
210
0.0
220
0.0
230
1.0
 70
     8
 71
     3
 72
    21
 73
    17
 74
     0
 42
0.000000001
 43
0.00000001
 40
0.0
 40
0.0
 40
0.0
 40
0.0
 40
0.1003740806180931
 40
0.1631343133567604
 40
0.2173291992400642
 40
0.278047813130643
 40
0.3433694794565384
 40
0.4121942769986326
 40
0.4812676627114639
 40
0.5927069089650422
 40
0.6907318775647755
 40
0.741571968391975
 40
0.7906983873911064
 40
0.8374050512190624
 40
0.9071750765950036
 40
1.0
 40
1.0
 40
1.0
 40
1.0
 10
-38.88934197455395
 20
-1.494103088106282
 30
0.0
 10
-38.76168550324109
 20
-1.483833847848615
 30
0.0
 10
-38.55421012050355
 20
-1.467143628144342
 30
0.0
 10
-38.2757793744778
 20
-1.452360970468142
 30
0.0
 10
-38.04766003861773
 20
-1.443387375824983
 30
0.0
 10
-37.81795589619002
 20
-1.437781594840867
 30
0.0
 10
-37.56961864467478
 20
-1.435690231166141
 30
0.0
 10
-37.31087789511898
 20
-1.438044308267248
 30
0.0
 10
-36.99178166549117
 20
-1.446576452459578
 30
0.0
 10
-36.63523852508334
 20
-1.464290654483033
 30
0.0
 10
-36.30662169275066
 20
-1.489499356652537
 30
0.0
 10
-36.05381703670307
 20
-1.513252628618382
 30
0.0
 10
-35.86917175877384
 20
-1.532709904098901
 30
0.0
 10
-35.65871969792141
 20
-1.557228995287037
 30
0.0
 10
-35.39135053293864
 20
-1.591833291155247
 30
0.0
 10
-35.18286760966124
 20
-1.623619919689013
 30
0.0
 10
-35.06384539199968
 20
-1.641766801748215
 30
0.0
1001
PE_URL
1000

  0
SPLINE
  5
233
330
1F
100
AcDbEntity
  8
0
  6
Continuous
 62
     1
370
    15
100
AcDbSpline
210
0.0
220
0.0
230
1.0
 70
     8
 71
     3
 72
    19
 73
    15
 74
     0
 42
0.000000001
 43
0.00000001
 40
0.0
 40
0.0
 40
0.0
 40
0.0
 40
0.1307702353318815
 40
0.2122741361552416
 40
0.2804349678684401
 40
0.3501580537802225
 40
0.4156286694307429
 40
0.4778175257647757
 40
0.5383104575847217
 40
0.6064800498949557
 40
0.681103783227259
 40
0.7525648131927133
 40
0.8530441315850368
 40
0.9999999999999999
 40
0.9999999999999999
 40
0.9999999999999999
 40
0.9999999999999999
 10
-30.02005086831879
 20
1.817141078177919
 30
0.0
 10
-30.16416969450078
 20
1.803378031517425
 30
0.0
 10
-30.3981120687257
 20
1.781037023769709
 30
0.0
 10
-30.70499741608119
 20
1.757982557892827
 30
0.0
 10
-30.94478092955493
 20
1.742287008795191
 30
0.0
 10
-31.16779698016221
 20
1.729984031232974
 30
0.0
 10
-31.38420883192182
 20
1.720404818846188
 30
0.0
 10
-31.59056343632959
 20
1.713342399029031
 30
0.0
 10
-31.79984857250215
 20
1.708196775519045
 30
0.0
 10
-32.0227246691877
 20
1.704979392900263
 30
0.0
 10
-32.25750789392024
 20
1.704262391395563
 30
0.0
 10
-32.52785121363872
 20
1.706705163299574
 30
0.0
 10
-32.87733633005549
 20
1.714131282090257
 30
0.0
 10
-33.14887114555082
 20
1.726935830896359
 30
0.0
 10
-33.31014018384281
 20
1.734540665171316
 30
0.0
1001
PE_URL
1000

  0
SPLINE
  5
234
330
1F
100
AcDbEntity
  8
0
  6
Continuous
 62
     1
370
    15
100
AcDbSpline
210
0.0
220
0.0
230
1.0
 70
     8
 71
     3
 72
    12
 73
     8
 74
     0
 42
0.000000001
 43
0.00000001
 40
0.0
 40
0.0
 40
0.0
 40
0.0
 40
0.2177671025627826
 40
0.3814474560122622
 40
0.4910212049483186
 40
0.8424369823721881
 40
1.0
 40
1.0
 40
1.0
 40
1.0
 10
-35.06384539199968
 20
1.641766801748183
 30
0.0
 10
-35.18285233375121
 20
1.623629755609535
 30
0.0
 10
-35.3913084992817
 20
1.591860355972283
 30
0.0
 10
-35.65882422022852
 20
1.557161695001298
 30
0.0
 10
-35.99662410235708
 20
1.518112854789837
 30
0.0
 10
-36.33065893603435
 20
1.483913619598258
 30
0.0
 10
-36.60715698208609
 20
1.46994846139253
 30
0.0
 10
-36.69275164128928
 20
1.465625309838995
 30
0.0
1001
PE_URL
1000

  0
LINE
  5
235
330
1F
100
AcDbEntity
  8
0
  6
Continuous
 62
     1
370
    15
100
AcDbLine
 10
-28.57500000000002
 20
2.18281249999999
 30
0.0
 11
-29.02373399343245
 21
2.18281249999999
 31
0.0
1001
PE_URL
1000

  0
LINE
  5
236
330
1F
100
AcDbEntity
  8
외형선
  6
Continuous
370
    15
100
AcDbLine
 10
-17.9474751823497
 20
-4.762500000000006
 30
0.0
 11
-17.94747518234971
 21
4.762499999999996
 31
0.0
  0
LINE
  5
237
330
1F
100
AcDbEntity
  8
외형선
  6
Continuous
370
    15
100
AcDbLine
 10
-27.57500000000002
 20
-2.182812500000011
 30
0.0
 11
-27.57500000000002
 21
2.182812499999986
 31
0.0
  0
LINE
  5
238
330
1F
100
AcDbEntity
  8
외형선
  6
Continuous
370
    15
100
AcDbLine
 10
-28.57500000000002
 20
-2.182812500000011
 30
0.0
 11
-28.57500000000002
 21
-2.154558497772381
 31
0.0
  0
SPLINE
  5
239
330
1F
100
AcDbEntity
  8
외형선
  6
Continuous
370
    15
100
AcDbSpline
210
0.0
220
0.0
230
1.0
 70
     8
 71
     3
 72
    10
 73
     6
 74
     0
 42
0.000000001
 43
0.00000001
 40
0.0
 40
0.0
 40
0.0
 40
0.0
 40
0.5
 40
0.5
 40
1.0
 40
1.0
 40
1.0
 40
1.0
 10
-28.5749999999957
 20
-2.154558497772779
 30
0.0
 10
-28.4263287547399
 20
-2.168301844332181
 30
0.0
 10
-28.27687597370504
 20
-2.177070727776695
 30
0.0
 10
-27.9795090430259
 20
-2.1844767594175
 30
0.0
 10
-27.83280736640338
 20
-2.183138168935638
 30
0.0
 10
-27.68508155252733
 20
-2.176790608805131
 30
0.0
  0
SPLINE
  5
23A
330
1F
100
AcDbEntity
  8
외형선
  6
Continuous
370
    15
100
AcDbSpline
210
0.0
220
0.0
230
1.0
 70
     8
 71
     3
 72
    10
 73
     6
 74
     0
 42
0.000000001
 43
0.00000001
 40
0.0
 40
0.0
 40
0.0
 40
0.0
 40
0.4999999999999999
 40
0.4999999999999999
 40
1.0
 40
1.0
 40
1.0
 40
1.0
 10
-28.57499999999571
 20
2.167440710629283
 30
0.0
 10
-28.42634305614346
 20
2.157289521328916
 30
0.0
 10
-28.27690472669859
 20
2.14209330090614
 30
0.0
 10
-27.97956610554939
 20
2.101925292852304
 30
0.0
 10
-27.83287786764356
 20
2.077041916871774
 30
0.0
 10
-27.68516681511606
 20
2.047393986540211
 30
0.0
  0
LINE
  5
23B
330
1F
100
AcDbEntity
  8
외형선
  6
Continuous
370
    15
100
AcDbLine
 10
-28.57500000000002
 20
2.167440710629577
 30
0.0
 11
-28.57500000000002
 21
2.182812499999986
 31
0.0
  0
LINE
  5
23C
330
1F
100
AcDbEntity
  8
외형선
  6
Continuous
370
    15
100
AcDbLine
 10
-27.68508155252733
 20
2.176790608805106
 30
0.0
 11
-27.96538510809271
 21
2.178163122749154
 31
0.0
  0
LINE
  5
23D
330
1F
100
AcDbEntity
  8
외형선
  6
Continuous
370
    15
100
AcDbLine
 10
-27.68508155252733
 20
2.182812499999986
 30
0.0
 11
-27.68508155252733
 21
2.17673512659481
 31
0.0
  0
LINE
  5
23E
330
1F
100
AcDbEntity
  8
외형선
  6
Continuous
370
    15
100
AcDbLine
 10
-27.68508155252733
 20
2.04736154745202
 30
0.0
 11
-27.68508155252733
 21
-2.182812500000011
 31
0.0
  0
SPLINE
  5
23F
330
1F
100
AcDbEntity
  8
외형선
  6
Continuous
370
    15
100
AcDbSpline
210
0.0
220
0.0
230
1.0
 70
     8
 71
     3
 72
    10
 73
     6
 74
     0
 42
0.000000001
 43
0.00000001
 40
0.0
 40
0.0
 40
0.0
 40
0.0
 40
0.5000000000000001
 40
0.5000000000000001
 40
1.0
 40
1.0
 40
1.0
 40
1.0
 10
-28.5749999999931
 20
1.825727147128504
 30
0.0
 10
-28.42634305614127
 20
1.812755404112107
 30
0.0
 10
-28.27690472669684
 20
1.795526311422154
 30
0.0
 10
-27.97956610554852
 20
1.75291023562238
 30
0.0
 10
-27.83287786764312
 20
1.727609531649236
 30
0.0
 10
-27.68516681511606
 20
1.698345852282966
 30
0.0
  0
SPLINE
  5
240
330
1F
100
AcDbEntity
  8
외형선
  6
Continuous
370
    15
100
AcDbSpline
210
0.0
220
0.0
230
1.0
 70
     8
 71
     3
 72
    10
 73
     6
 74
     0
 42
0.000000001
 43
0.00000001
 40
0.0
 40
0.0
 40
0.0
 40
0.0
 40
0.5
 40
0.5
 40
1.0
 40
1.0
 40
1.0
 40
1.0
 10
-28.57499999999203
 20
0.3506694744656045
 30
0.0
 10
-28.42633398022858
 20
0.283512319904343
 30
0.0
 10
-28.27688647956334
 20
0.2154246258656372
 30
0.0
 10
-27.97952989269721
 20
0.0788010391968825
 30
0.0
 10
-27.83283312640488
 20
0.010454439513218
 30
0.0
 10
-27.68511270607669
 20
-0.0579160772872918
 30
0.0
  0
SPLINE
  5
241
330
1F
100
AcDbEntity
  8
외형선
  6
Continuous
370
    15
100
AcDbSpline
210
0.0
220
0.0
230
1.0
 70
    24
 71
     3
 72
    10
 73
     6
 74
     0
 42
0.000000001
 43
0.00000001
 40
0.0
 40
0.0
 40
0.0
 40
0.0
 40
0.5
 40
0.5
 40
1.0
 40
1.0
 40
1.0
 40
1.0
 10
-28.57500000000002
 20
0.3506694744692105
 30
0.0
 10
-28.57500000000002
 20
0.6704712425977171
 30
0.0
 10
-28.57500000000002
 20
0.9826104541070926
 30
0.0
 10
-28.57500000000002
 20
1.498216203553561
 30
0.0
 10
-28.57500000000002
 20
1.699463372780606
 30
0.0
 10
-28.57500000000002
 20
1.825727147129108
 30
0.0
  0
SPLINE
  5
242
330
1F
100
AcDbEntity
  8
외형선
  6
Continuous
370
    15
100
AcDbSpline
210
0.0
220
0.0
230
1.0
 70
     8
 71
     3
 72
    10
 73
     6
 74
     0
 42
0.000000001
 43
0.00000001
 40
0.0
 40
0.0
 40
0.0
 40
0.0
 40
0.4999999999999999
 40
0.4999999999999999
 40
1.0
 40
1.0
 40
1.0
 40
1.0
 10
-28.57499999998953
 20
-1.496843445005418
 30
0.0
 10
-28.42633220275584
 20
-1.508889231687963
 30
0.0
 10
-28.27688290595388
 20
-1.517483608930885
 30
0.0
 10
-27.97952280060045
 20
-1.527590613256869
 30
0.0
 10
-27.83282436404782
 20
-1.529113419650731
 30
0.0
 10
-27.6851021090846
 20
-1.527128007563547
 30
0.0
  0
SPLINE
  5
243
330
1F
100
AcDbEntity
  8
외형선
  6
Continuous
370
    15
100
AcDbSpline
210
0.0
220
0.0
230
1.0
 70
    24
 71
     3
 72
    14
 73
    10
 74
     0
 42
0.000000001
 43
0.00000001
 40
0.0
 40
0.0
 40
0.0
 40
0.0
 40
0.25
 40
0.25
 40
0.5
 40
0.5
 40
0.75
 40
0.75
 40
1.0
 40
1.0
 40
1.0
 40
1.0
 10
-28.57499999999999
 20
-1.496843445004568
 30
0.0
 10
-28.57499999999999
 20
-1.418576163890624
 30
0.0
 10
-28.57499999999999
 20
-1.316122301323961
 30
0.0
 10
-28.57499999999999
 20
-1.065867874974149
 30
0.0
 10
-28.57499999999999
 20
-0.918100790407884
 30
0.0
 10
-28.57499999999999
 20
-0.5897444787690311
 30
0.0
 10
-28.57499999999999
 20
-0.4093302136672747
 30
0.0
 10
-28.57499999999999
 20
-0.0346794809622395
 30
0.0
 10
-28.57499999999999
 20
0.1593487860997627
 30
0.0
 10
-28.57499999999999
 20
0.3506694744691963
 30
0.0
  0
SPLINE
  5
244
330
1F
100
AcDbEntity
  8
외형선
  6
Continuous
370
    15
100
AcDbSpline
210
0.0
220
0.0
230
1.0
 70
    24
 71
     3
 72
     8
 73
     4
 74
     0
 42
0.000000001
 43
0.00000001
 40
0.0
 40
0.0
 40
0.0
 40
0.0
 40
1.0
 40
1.0
 40
1.0
 40
1.0
 10
-28.57500000000002
 20
1.825727147129108
 30
0.0
 10
-28.57500000000002
 20
1.940927109604619
 30
0.0
 10
-28.57500000000002
 20
2.055569446914621
 30
0.0
 10
-28.57500000000002
 20
2.167440710620184
 30
0.0
  0
SPLINE
  5
245
330
1F
100
AcDbEntity
  8
외형선
  6
Continuous
370
    15
100
AcDbSpline
210
0.0
220
0.0
230
1.0
 70
    24
 71
     3
 72
    10
 73
     6
 74
     0
 42
0.000000001
 43
0.00000001
 40
0.0
 40
0.0
 40
0.0
 40
0.0
 40
0.5
 40
0.5
 40
1.0
 40
1.0
 40
1.0
 40
1.0
 10
-28.57499999999992
 20
-2.154558497772403
 30
0.0
 10
-28.57499999999992
 20
-2.053084149251646
 30
0.0
 10
-28.57499999999992
 20
-1.939206017874572
 30
0.0
 10
-28.57499999999992
 20
-1.711514387970627
 30
0.0
 10
-28.57499999999992
 20
-1.5983168635649
 30
0.0
 10
-28.57499999999992
 20
-1.496843445004572
 30
0.0
  0
SPLINE
  5
246
330
1F
100
AcDbEntity
  8
0
  6
Continuous
 62
     1
370
    15
100
AcDbSpline
210
0.0
220
0.0
230
1.0
 70
     8
 71
     3
 72
    18
 73
    14
 74
     0
 42
0.000000001
 43
0.00000001
 40
0.0
 40
0.0
 40
0.0
 40
0.0
 40
0.0972943807918009
 40
0.1945814268292013
 40
0.291861750031854
 40
0.3891359663476887
 40
0.4864046953924663
 40
0.5836685600846379
 40
0.6753656140170959
 40
0.7670470228915698
 40
0.8587214807555253
 40
0.9503977056675801
 40
1.0
 40
1.0
 40
1.0
 40
1.0
 10
-39.68750000000002
 20
2.071359991120239
 30
0.0
 10
-39.34161939987529
 20
1.993284266749477
 30
0.0
 10
-38.64988427460808
 20
1.837138703920974
 30
0.0
 10
-37.61233837161557
 20
1.423951164583592
 30
0.0
 10
-36.57487826515143
 20
0.9153783803433804
 30
0.0
 10
-35.53749273746666
 20
0.3353523040835498
 30
0.0
 10
-34.50019170179582
 20
-0.268907854079842
 30
0.0
 10
-33.48267361187055
 20
-0.8422584999197049
 30
0.0
 10
-32.48521355526163
 20
-1.344231543346169
 30
0.0
 10
-31.50761718369483
 20
-1.748754194373756
 30
0.0
 10
-30.53011778889858
 20
-2.02987608684959
 30
0.0
 10
-29.70217250274068
 20
-2.175886826608014
 30
0.0
 10
-29.20003304620026
 20
-2.167613030012543
 30
0.0
 10
-29.02373399343246
 20
-2.164708134801508
 30
0.0
1001
PE_URL
1000

  0
SPLINE
  5
247
330
1F
100
AcDbEntity
  8
0
  6
Continuous
 62
     1
370
    15
100
AcDbSpline
210
0.0
220
0.0
230
1.0
 70
     8
 71
     3
 72
    13
 73
     9
 74
     0
 42
0.000000001
 43
0.00000001
 40
0.0
 40
0.0
 40
0.0
 40
0.0
 40
0.1764827905268244
 40
0.3529188623303702
 40
0.5293161382960899
 40
0.7056826235685999
 40
0.8820263888029819
 40
0.9999999999999999
 40
0.9999999999999999
 40
0.9999999999999999
 40
0.9999999999999999
 10
-39.68750000000002
 20
1.722178520816229
 30
0.0
 10
-39.35386146045308
 20
1.649612433993557
 30
0.0
 10
-38.68667270252954
 20
1.504499470124536
 30
0.0
 10
-37.68605858924666
 20
1.150060911325163
 30
0.0
 10
-36.68569360524483
 20
0.7238331691312538
 30
0.0
 10
-35.68553023730353
 20
0.246392112562237
 30
0.0
 10
-34.79581994349821
 20
-0.1978266956068495
 30
0.0
 10
-34.23949425036457
 20
-0.4582455533230814
 30
0.0
 10
-34.01649772934211
 20
-0.5626313474650999
 30
0.0
1001
PE_URL
1000

  0
LINE
  5
248
330
1F
100
AcDbEntity
  8
0
  6
Continuous
 62
     1
370
    15
100
AcDbLine
 10
-39.68749999999995
 20
2.071359991120239
 30
0.0
 11
-39.68750000000002
 21
1.722178520816229
 31
0.0
1001
PE_URL
1000

  0
SPLINE
  5
249
330
1F
100
AcDbEntity
  8
0
  6
Continuous
 62
     1
370
    15
100
AcDbSpline
210
0.0
220
0.0
230
1.0
 70
     8
 71
     3
 72
    38
 73
    34
 74
     0
 42
0.000000001
 43
0.00000001
 40
0.0
 40
0.0
 40
0.0
 40
0.0
 40
0.0624999999999999
 40
0.0624999999999999
 40
0.1249999999999998
 40
0.1249999999999998
 40
0.1874999999999997
 40
0.1874999999999997
 40
0.2499999999999996
 40
0.2499999999999996
 40
0.3124999999999995
 40
0.3124999999999995
 40
0.3749999999999994
 40
0.3749999999999994
 40
0.4374999999999995
 40
0.4374999999999995
 40
0.4999999999999996
 40
0.4999999999999996
 40
0.5624999999999997
 40
0.5624999999999997
 40
0.6249999999999998
 40
0.6249999999999998
 40
0.6874999999999998
 40
0.6874999999999998
 40
0.7499999999999999
 40
0.7499999999999999
 40
0.8125
 40
0.8125
 40
0.875
 40
0.875
 40
0.9375
 40
0.9375
 40
1.0
 40
1.0
 40
1.0
 40
1.0
 10
-39.68750000000002
 20
2.180967620118437
 30
0.0
 10
-39.45832647085204
 20
2.17549154994628
 30
0.0
 10
-39.22460491805854
 20
2.157690532208768
 30
0.0
 10
-38.75976191204624
 20
2.09799336997839
 30
0.0
 10
-38.53134685413925
 20
2.056369952794906
 30
0.0
 10
-38.06721753062975
 20
1.950096496437091
 30
0.0
 10
-37.83320312282199
 20
1.885433261575372
 30
0.0
 10
-37.37301903006284
 20
1.736483909651366
 30
0.0
 10
-37.14138113495731
 20
1.651663233698212
 30
0.0
 10
-36.67610467846924
 20
1.464101692080806
 30
0.0
 10
-36.44717658503887
 20
1.362058418884679
 30
0.0
 10
-35.98403974150639
 20
1.143096043578623
 30
0.0
 10
-35.74987578050962
 20
1.02610561755926
 30
0.0
 10
-35.28812556917944
 20
0.7830229183843578
 30
0.0
 10
-35.05806474259474
 20
0.6565458586411097
 30
0.0
 10
-34.59263594023938
 20
0.3966526265080965
 30
0.0
 10
-34.36268280393102
 20
0.264254551234508
 30
0.0
 10
-33.90081524737244
 20
-0.0023834491715675
 30
0.0
 10
-33.66664534291598
 20
-0.1370599301685935
 30
0.0
 10
-33.20360304776397
 20
-0.4023562543043901
 30
0.0
 10
-32.9746095497761
 20
-0.5330119244671607
 30
0.0
 10
-32.50930981308615
 20
-0.7882322747724864
 30
0.0
 10
-32.27782167856642
 20
-0.9118841421147081
 30
0.0
 10
-31.81749767794142
 20
-1.147163732547266
 30
0.0
 10
-31.58346545199619
 20
-1.259639884315952
 30
0.0
 10
-31.11940769066872
 20
-1.468506405143728
 30
0.0
 10
-30.89096964494547
 20
-1.564752014608281
 30
0.0
 10
-30.42608012542301
 20
-1.739694561232493
 30
0.0
 10
-30.19255010463047
 20
-1.817903198061423
 30
0.0
 10
-29.7340408539238
 20
-1.952252069743512
 30
0.0
 10
-29.50028964498666
 20
-2.009238510219269
 30
0.0
 10
-29.03549507126143
 20
-2.099676592695868
 30
0.0
 10
-28.80709948836516
 20
-2.133102945292322
 30
0.0
 10
-28.57499999999571
 20
-2.154558497772779
 30
0.0
1001
PE_URL
1000

  0
SPLINE
  5
24A
330
1F
100
AcDbEntity
  8
0
  6
Continuous
 62
     1
370
    15
100
AcDbSpline
210
0.0
220
0.0
230
1.0
 70
     8
 71
     3
 72
    13
 73
     9
 74
     0
 42
0.000000001
 43
0.00000001
 40
0.0
 40
0.0
 40
0.0
 40
0.0
 40
0.1023254734614419
 40
0.2779598193701166
 40
0.4535959380955742
 40
0.6292422910067461
 40
0.8146201548784866
 40
0.9999999999999999
 40
0.9999999999999999
 40
0.9999999999999999
 40
0.9999999999999999
 10
-34.26808102465572
 20
0.207785291473666
 30
0.0
 10
-34.07390358916464
 20
0.1301670976567664
 30
0.0
 10
-33.5464344940405
 20
-0.0806771662723982
 30
0.0
 10
-32.68567753879545
 20
-0.4292742756593597
 30
0.0
 10
-31.68577505364599
 20
-0.8026288436206421
 30
0.0
 10
-30.66740515460625
 20
-1.124534187097929
 30
0.0
 10
-29.63042379970001
 20
-1.37729223118459
 30
0.0
 10
-28.92680918655527
 20
-1.456992898430144
 30
0.0
 10
-28.57500000000001
 20
-1.496843445004565
 30
0.0
1001
PE_URL
1000

  0
SPLINE
  5
24B
330
1F
100
AcDbEntity
  8
외형선
  6
Continuous
370
    15
100
AcDbSpline
210
0.0
220
0.0
230
1.0
 70
    24
 71
     3
 72
    10
 73
     6
 74
     0
 42
0.000000001
 43
0.00000001
 40
0.0
 40
0.0
 40
0.0
 40
0.0
 40
0.5
 40
0.5
 40
1.0
 40
1.0
 40
1.0
 40
1.0
 10
-28.57499999999992
 20
-2.154558497772403
 30
0.0
 10
-28.57499999999992
 20
-2.053084149251649
 30
0.0
 10
-28.57499999999992
 20
-1.939206017874572
 30
0.0
 10
-28.57499999999992
 20
-1.711514387970627
 30
0.0
 10
-28.57499999999992
 20
-1.5983168635649
 30
0.0
 10
-28.57499999999992
 20
-1.496843445004572
 30
0.0
  0
LINE
  5
24C
330
1F
100
AcDbEntity
  8
0
  6
Continuous
 62
     1
370
    15
100
AcDbLine
 10
-39.68750000000002
 20
2.180967620118437
 30
0.0
 11
-39.68749999999986
 21
2.071359991120236
 31
0.0
1001
PE_URL
1000

  0
SPLINE
  5
24D
330
1F
100
AcDbEntity
  8
0
  6
Continuous
 62
     1
370
    15
100
AcDbSpline
210
0.0
220
0.0
230
1.0
 70
     8
 71
     3
 72
     8
 73
     4
 74
     0
 42
0.000000001
 43
0.00000001
 40
0.0
 40
0.0
 40
0.0
 40
0.0
 40
1.0
 40
1.0
 40
1.0
 40
1.0
 10
-38.33627037530584
 20
-0.6112018266196912
 30
0.0
 10
-38.25895019123443
 20
-0.7028228990928582
 30
0.0
 10
-38.18991771646471
 20
-0.7910358002691638
 30
0.0
 10
-38.13114407772412
 20
-0.8750299397561889
 30
0.0
1001
PE_URL
1000

  0
LINE
  5
24E
330
1F
100
AcDbEntity
  8
0
  6
Continuous
 62
     1
370
    15
100
AcDbLine
 10
-38.15875957379023
 20
-0.8982020923200373
 30
0.0
 11
-39.68750000000002
 21
-0.0000000000000178
 31
0.0
1001
PE_URL
1000

  0
LINE
  5
24F
330
1F
100
AcDbEntity
  8
0
  6
Continuous
 62
     1
370
    15
100
AcDbLine
 10
-39.68750000000002
 20
-0.0000000000000178
 30
0.0
 11
-39.68750000000002
 21
0.5833412431303131
 31
0.0
1001
PE_URL
1000

  0
SPLINE
  5
250
330
1F
100
AcDbEntity
  8
0
  6
Continuous
 62
     1
370
    15
100
AcDbSpline
210
0.0
220
0.0
230
1.0
 70
     8
 71
     3
 72
    10
 73
     6
 74
     0
 42
0.000000001
 43
0.00000001
 40
0.0
 40
0.0
 40
0.0
 40
0.0
 40
0.5
 40
0.5
 40
1.0
 40
1.0
 40
1.0
 40
1.0
 10
-39.68750000000002
 20
0.5833412431303131
 30
0.0
 10
-39.45358965399493
 20
0.3994465620390208
 30
0.0
 10
-39.2235899795052
 20
0.2080072785351916
 30
0.0
 10
-38.77160341293784
 20
-0.1903298247571286
 30
0.0
 10
-38.54751505108801
 20
-0.399333384118691
 30
0.0
 10
-38.33627037530584
 20
-0.6112018266196948
 30
0.0
1001
PE_URL
1000

  0
SPLINE
  5
251
330
1F
100
AcDbEntity
  8
0
  6
Continuous
 62
     1
370
    15
100
AcDbSpline
210
0.0
220
0.0
230
1.0
 70
     8
 71
     3
 72
    13
 73
     9
 74
     0
 42
0.000000001
 43
0.00000001
 40
0.0
 40
0.0
 40
0.0
 40
0.0
 40
0.1641154197682696
 40
0.3282937650346809
 40
0.5272123114067372
 40
0.7261048749212247
 40
0.9249807392889274
 40
1.0
 40
1.0
 40
1.0
 40
1.0
 10
-38.33627037530584
 20
-0.6112018266196912
 30
0.0
 10
-38.0612267969973
 20
-0.7273409176815058
 30
0.0
 10
-37.51103418256159
 20
-0.9596636301129422
 30
0.0
 10
-36.62739268719725
 20
-1.275194175910226
 30
0.0
 10
-35.68551437657197
 20
-1.541269365641039
 30
0.0
 10
-34.68549158134837
 20
-1.707812741725803
 30
0.0
 10
-33.8931294714932
 20
-1.768727431525505
 30
0.0
 10
-33.43410051452569
 20
-1.730656064217911
 30
0.0
 10
-33.30837351231353
 20
-1.720228402064912
 30
0.0
1001
PE_URL
1000

  0
SPLINE
  5
252
330
1F
100
AcDbEntity
  8
0
  6
Continuous
 62
     1
370
    15
100
AcDbSpline
210
0.0
220
0.0
230
1.0
 70
    24
 71
     3
 72
    10
 73
     6
 74
     0
 42
0.000000001
 43
0.00000001
 40
0.0
 40
0.0
 40
0.0
 40
0.0
 40
0.5
 40
0.5
 40
1.0
 40
1.0
 40
1.0
 40
1.0
 10
-39.68750000000002
 20
1.722178520816229
 30
0.0
 10
-39.68750000000002
 20
1.590160110059848
 30
0.0
 10
-39.68750000000002
 20
1.423349785964568
 30
0.0
 10
-39.68750000000002
 20
1.035531836146074
 30
0.0
 10
-39.68750000000002
 20
0.8148601530354185
 30
0.0
 10
-39.68750000000002
 20
0.5833412431303842
 30
0.0
1001
PE_URL
1000

  0
SPLINE
  5
253
330
1F
100
AcDbEntity
  8
0
  6
Continuous
 62
     1
370
    15
100
AcDbSpline
210
0.0
220
0.0
230
1.0
 70
    24
 71
     3
 72
     8
 73
     4
 74
     0
 42
0.000000001
 43
0.00000001
 40
0.0
 40
0.0
 40
0.0
 40
0.0
 40
1.0
 40
1.0
 40
1.0
 40
1.0
 10
-38.35909204667023
 20
-1.066300996426481
 30
0.0
 10
-38.28709855730992
 20
-1.005891286057082
 30
0.0
 10
-38.21066349646346
 20
-0.9417546546917599
 30
0.0
 10
-38.13114407772415
 20
-0.8750299397561747
 30
0.0
1001
PE_URL
1000

  0
LINE
  5
254
330
1F
100
AcDbEntity
  8
0
  6
Continuous
 62
     1
370
    15
100
AcDbLine
 10
-39.68750000000002
 20
-1.527968750000017
 30
0.0
 11
-38.88721813989266
 21
-1.485441906958389
 31
0.0
1001
PE_URL
1000

  0
SPLINE
  5
255
330
1F
100
AcDbEntity
  8
0
  6
Continuous
 62
     1
370
    15
100
AcDbSpline
210
0.0
220
0.0
230
1.0
 70
     8
 71
     3
 72
     8
 73
     4
 74
     0
 42
0.000000001
 43
0.00000001
 40
0.0
 40
0.0
 40
0.0
 40
0.0
 40
1.0
 40
1.0
 40
1.0
 40
1.0
 10
-39.68750000000002
 20
-1.527968750000021
 30
0.0
 10
-39.2385821327011
 20
-1.406090013374715
 30
0.0
 10
-38.79379087930882
 20
-1.256429721372886
 30
0.0
 10
-38.35909204667887
 20
-1.066300996430268
 30
0.0
1001
PE_URL
1000

  0
SPLINE
  5
256
330
1F
100
AcDbEntity
  8
0
  6
Continuous
 62
     1
370
    15
100
AcDbSpline
210
0.0
220
0.0
230
1.0
 70
     8
 71
     3
 72
     9
 73
     5
 74
     0
 42
0.000000001
 43
0.00000001
 40
0.0
 40
0.0
 40
0.0
 40
0.0
 40
0.2723582602934545
 40
1.0
 40
1.0
 40
1.0
 40
1.0
 10
-30.02551679629606
 20
1.800215665401129
 30
0.0
 10
-29.89383022566143
 20
1.817938913898701
 30
0.0
 10
-29.41032526240924
 20
1.8830122055201
 30
0.0
 10
-28.9268191956068
 20
1.849854255538684
 30
0.0
 10
-28.575
 20
1.825727147129108
 30
0.0
1001
PE_URL
1000

  0
SPLINE
  5
257
330
1F
100
AcDbEntity
  8
0
  6
Continuous
 62
     1
370
    15
100
AcDbSpline
210
0.0
220
0.0
230
1.0
 70
     8
 71
     3
 72
    14
 73
    10
 74
     0
 42
0.000000001
 43
0.00000001
 40
0.0
 40
0.0
 40
0.0
 40
0.0
 40
0.059220358715427
 40
0.2131734786083934
 40
0.3671208858162462
 40
0.5210698070074786
 40
0.6750274655991084
 40
0.8375128873943752
 40
1.0
 40
1.0
 40
1.0
 40
1.0
 10
-35.07010081823389
 20
1.627130933508354
 30
0.0
 10
-34.94188896624247
 20
1.650858175778104
 30
0.0
 10
-34.48036919363907
 20
1.736268309761456
 30
0.0
 10
-33.68556633347722
 20
1.761967395206739
 30
0.0
 10
-32.68568386786018
 20
1.698542042127574
 30
0.0
 10
-31.68578186701796
 20
1.509873182843808
 30
0.0
 10
-30.66742262448763
 20
1.212205071881577
 30
0.0
 10
-29.63042664233251
 20
0.8202667952450646
 30
0.0
 10
-28.92681010106745
 20
0.5072024576787655
 30
0.0
 10
-28.57500000000002
 20
0.3506694744692105
 30
0.0
1001
PE_URL
1000

  0
SPLINE
  5
258
330
1F
100
AcDbEntity
  8
외형선
  6
Continuous
370
    15
100
AcDbSpline
210
0.0
220
0.0
230
1.0
 70
    24
 71
     3
 72
    10
 73
     6
 74
     0
 42
0.000000001
 43
0.00000001
 40
0.0
 40
0.0
 40
0.0
 40
0.0
 40
0.5
 40
0.5
 40
1.0
 40
1.0
 40
1.0
 40
1.0
 10
-28.57500000000002
 20
0.3506694744692105
 30
0.0
 10
-28.57500000000002
 20
0.6704712425977171
 30
0.0
 10
-28.57500000000002
 20
0.9826104541070926
 30
0.0
 10
-28.57500000000002
 20
1.498216203553561
 30
0.0
 10
-28.57500000000002
 20
1.699463372780606
 30
0.0
 10
-28.57500000000002
 20
1.825727147129108
 30
0.0
  0
SPLINE
  5
259
330
1F
100
AcDbEntity
  8
외형선
  6
Continuous
370
    15
100
AcDbSpline
210
0.0
220
0.0
230
1.0
 70
    24
 71
     3
 72
    14
 73
    10
 74
     0
 42
0.000000001
 43
0.00000001
 40
0.0
 40
0.0
 40
0.0
 40
0.0
 40
0.25
 40
0.25
 40
0.5
 40
0.5
 40
0.75
 40
0.75
 40
1.0
 40
1.0
 40
1.0
 40
1.0
 10
-28.57499999999999
 20
-1.496843445004568
 30
0.0
 10
-28.57499999999999
 20
-1.418576163890624
 30
0.0
 10
-28.57499999999999
 20
-1.316122301323961
 30
0.0
 10
-28.57499999999999
 20
-1.065867874974149
 30
0.0
 10
-28.57499999999999
 20
-0.918100790407884
 30
0.0
 10
-28.57499999999999
 20
-0.5897444787690311
 30
0.0
 10
-28.57499999999999
 20
-0.4093302136672747
 30
0.0
 10
-28.57499999999999
 20
-0.0346794809622395
 30
0.0
 10
-28.57499999999999
 20
0.1593487860997627
 30
0.0
 10
-28.57499999999999
 20
0.3506694744691963
 30
0.0
  0
LINE
  5
25A
330
1F
100
AcDbEntity
  8
0
  6
Continuous
 62
     1
370
    15
100
AcDbLine
 10
-39.68750000000002
 20
-0.0000000000000178
 30
0.0
 11
-39.68750000000002
 21
-1.527968750000021
 31
0.0
1001
PE_URL
1000

  0
SPLINE
  5
25B
330
1F
100
AcDbEntity
  8
0
  6
Continuous
 62
     1
370
    15
100
AcDbSpline
210
0.0
220
0.0
230
1.0
 70
     8
 71
     3
 72
    11
 73
     7
 74
     0
 42
0.000000001
 43
0.00000001
 40
0.0
 40
0.0
 40
0.0
 40
0.0
 40
0.0105577789788737
 40
0.3403550486954041
 40
0.6701586753367764
 40
0.9999999999999999
 40
0.9999999999999999
 40
0.9999999999999999
 40
0.9999999999999999
 10
-31.53888853723651
 20
1.715444206506689
 30
0.0
 10
-31.52845778975676
 20
1.719713370194256
 30
0.0
 10
-31.19219790275759
 20
1.8573399882243
 30
0.0
 10
-30.53011934066105
 20
2.024673304640039
 30
0.0
 10
-29.55259697177002
 20
2.194207652896317
 30
0.0
 10
-28.90087807227031
 20
2.176363364645635
 30
0.0
 10
-28.57499999999234
 20
2.167440710629052
 30
0.0
1001
PE_URL
1000

  0
SPLINE
  5
25C
330
1F
100
AcDbEntity
  8
외형선
  6
Continuous
370
    15
100
AcDbSpline
210
0.0
220
0.0
230
1.0
 70
    24
 71
     3
 72
     8
 73
     4
 74
     0
 42
0.000000001
 43
0.00000001
 40
0.0
 40
0.0
 40
0.0
 40
0.0
 40
1.0
 40
1.0
 40
1.0
 40
1.0
 10
-28.57500000000002
 20
1.825727147129108
 30
0.0
 10
-28.57500000000002
 20
1.940927109604615
 30
0.0
 10
-28.57500000000002
 20
2.055569446914621
 30
0.0
 10
-28.57500000000002
 20
2.167440710620184
 30
0.0
  0
SPLINE
  5
25D
330
1F
100
AcDbEntity
  8
0
  6
Continuous
 62
     1
370
    15
100
AcDbSpline
210
0.0
220
0.0
230
1.0
 70
     8
 71
     3
 72
    11
 73
     7
 74
     0
 42
0.000000001
 43
0.00000001
 40
0.0
 40
0.0
 40
0.0
 40
0.0
 40
0.0213506985452837
 40
0.3474552475294668
 40
0.6736616024974829
 40
1.0
 40
1.0
 40
1.0
 40
1.0
 10
-36.68855479303127
 20
-1.463664264105685
 30
0.0
 10
-36.70989561809493
 20
-1.473694242358235
 30
0.0
 10
-37.05719018736838
 20
-1.636919280127522
 30
0.0
 10
-37.73057770386318
 20
-1.863860362639546
 30
0.0
 10
-38.70886760822589
 20
-2.116953830079694
 30
0.0
 10
-39.36124519983881
 20
-2.159626811810664
 30
0.0
 10
-39.68750000000002
 20
-2.180967620118473
 30
0.0
1001
PE_URL
1000

  0
SPLINE
  5
25E
330
1F
100
AcDbEntity
  8
0
  6
Continuous
 62
     1
370
    15
100
AcDbSpline
210
0.0
220
0.0
230
1.0
 70
    24
 71
     3
 72
    10
 73
     6
 74
     0
 42
0.000000001
 43
0.00000001
 40
0.0
 40
0.0
 40
0.0
 40
0.0
 40
0.5
 40
0.5
 40
1.0
 40
1.0
 40
1.0
 40
1.0
 10
-39.68750000000002
 20
-1.527968750000017
 30
0.0
 10
-39.68750000000002
 20
-1.620590410562233
 30
0.0
 10
-39.68750000000002
 20
-1.728225357824023
 30
0.0
 10
-39.68750000000002
 20
-1.954043187284885
 30
0.0
 10
-39.68750000000002
 20
-2.07164935908542
 30
0.0
 10
-39.68750000000002
 20
-2.180967620118473
 30
0.0
1001
PE_URL
1000

  0
LINE
  5
260
330
1F
100
AcDbEntity
  8
외형선
  6
Continuous
370
    15
100
AcDbLine
 10
-4.838700000000038
 20
4.762499999999995
 30
0.0
 11
-17.94747518234971
 21
4.762499999999994
 31
0.0
  0
ENDSEC
  0
SECTION
  2
OBJECTS
  0
DICTIONARY
  5
C
330
0
100
AcDbDictionary
281
     1
  3
ACAD_DETAILVIEWSTYLE
350
1F1
  3
ACAD_GROUP
350
D
  3
ACAD_LAYOUT
350
1A
  3
ACAD_MLINESTYLE
350
17
  3
ACAD_PLOTSETTINGS
350
19
  3
ACAD_PLOTSTYLENAME
350
E
  3
ACAD_SCALELIST
350
47
  3
ACAD_SECTIONVIEWSTYLE
350
1F2
  3
AcDbVariableDictionary
350
1EC
  3
APPDATA
350
15D
  3
DWGPROPS
350
261
  0
DICTIONARY
  5
196
330
2
100
AcDbDictionary
280
     1
281
     1
  3
ACAD_LAYERSTATES
360
197
  0
DICTIONARY
  5
1F1
102
{ACAD_REACTORS
330
C
102
}
330
C
100
AcDbDictionary
281
     1
  0
DICTIONARY
  5
D
102
{ACAD_REACTORS
330
C
102
}
330
C
100
AcDbDictionary
281
     1
  0
DICTIONARY
  5
1A
102
{ACAD_REACTORS
330
C
102
}
330
C
100
AcDbDictionary
281
     1
  3
Layout1
350
1E
  3
Layout2
350
26
  3
Model
350
22
  0
DICTIONARY
  5
17
102
{ACAD_REACTORS
330
C
102
}
330
C
100
AcDbDictionary
281
     1
  3
Standard
350
18
  0
DICTIONARY
  5
19
102
{ACAD_REACTORS
330
C
102
}
330
C
100
AcDbDictionary
281
     1
  0
ACDBDICTIONARYWDFLT
  5
E
102
{ACAD_REACTORS
330
C
102
}
330
C
100
AcDbDictionary
281
     1
  3
Normal
350
F
100
AcDbDictionaryWithDefault
340
F
  0
DICTIONARY
  5
47
102
{ACAD_REACTORS
330
C
102
}
330
C
100
AcDbDictionary
281
     1
  3
A0
350
48
  3
A1
350
49
  3
A2
350
4A
  3
A3
350
4B
  3
A4
350
4C
  3
A5
350
4D
  3
A6
350
4E
  3
A7
350
4F
  3
A8
350
50
  3
A9
350
51
  3
B0
350
52
  3
B1
350
53
  3
B2
350
54
  3
B3
350
55
  3
B4
350
56
  3
B5
350
57
  3
B6
350
58
  3
B7
350
59
  3
B8
350
5A
  3
B9
350
5B
  3
C0
350
5C
  3
C1
350
5D
  3
C2
350
5E
  3
C3
350
5F
  3
C4
350
60
  3
C5
350
61
  3
C6
350
62
  3
C7
350
63
  3
C8
350
64
  3
C9
350
65
  3
D0
350
66
  3
D1
350
67
  3
D2
350
68
  0
DICTIONARY
  5
1F2
102
{ACAD_REACTORS
330
C
102
}
330
C
100
AcDbDictionary
281
     1
  0
DICTIONARY
  5
1EC
102
{ACAD_REACTORS
330
C
102
}
330
C
100
AcDbDictionary
281
     1
  0
DICTIONARY
  5
15D
102
{ACAD_REACTORS
330
C
102
}
330
C
100
AcDbDictionary
281
     1
  0
XRECORD
  5
261
102
{ACAD_REACTORS
330
C
102
}
330
C
100
AcDbXrecord
280
     1
  1
DWGPROPS COOKIE
  2

  3

  4

  6

  7

  8
120170442
  9

300
=
301
=
302
=
303
=
304
=
305
=
306
=
307
=
308
=
309
=
 40
0.0
 41
2458313.019405498
 42
2458323.965062974
  1

 90
        0
  0
DICTIONARY
  5
197
102
{ACAD_REACTORS
330
196
102
}
330
196
100
AcDbDictionary
281
     1
  0
LAYOUT
  5
1E
102
{ACAD_REACTORS
330
1A
102
}
330
1A
100
AcDbPlotSettings
  1

  2
none_device
  4

  6

 40
0.0
 41
0.0
 42
0.0
 43
0.0
 44
0.0
 45
0.0
 46
0.0
 47
0.0
 48
0.0
 49
0.0
140
0.0
141
0.0
142
1.0
143
1.0
 70
   688
 72
     1
 73
     0
 74
     5
  7

 75
    16
147
1.0
148
0.0
149
0.0
100
AcDbLayout
  1
Layout1
 70
     1
 71
     1
 10
0.0
 20
0.0
 11
420.0
 21
297.0
 12
0.0
 22
0.0
 32
0.0
 14
1.000000000000000E+20
 24
1.000000000000000E+20
 34
1.000000000000000E+20
 15
-1.000000000000000E+20
 25
-1.000000000000000E+20
 35
-1.000000000000000E+20
146
0.0
 13
0.0
 23
0.0
 33
0.0
 16
1.0
 26
0.0
 36
0.0
 17
0.0
 27
1.0
 37
0.0
 76
     0
330
1B
  0
LAYOUT
  5
26
102
{ACAD_REACTORS
330
1A
102
}
330
1A
100
AcDbPlotSettings
  1

  2
none_device
  4

  6

 40
0.0
 41
0.0
 42
0.0
 43
0.0
 44
0.0
 45
0.0
 46
0.0
 47
0.0
 48
0.0
 49
0.0
140
0.0
141
0.0
142
1.0
143
1.0
 70
   688
 72
     1
 73
     0
 74
     5
  7

 75
    16
147
1.0
148
0.0
149
0.0
100
AcDbLayout
  1
Layout2
 70
     1
 71
     2
 10
0.0
 20
0.0
 11
0.0
 21
0.0
 12
0.0
 22
0.0
 32
0.0
 14
0.0
 24
0.0
 34
0.0
 15
0.0
 25
0.0
 35
0.0
146
0.0
 13
0.0
 23
0.0
 33
0.0
 16
1.0
 26
0.0
 36
0.0
 17
0.0
 27
1.0
 37
0.0
 76
     0
330
23
  0
LAYOUT
  5
22
102
{ACAD_REACTORS
330
1A
102
}
330
1A
100
AcDbPlotSettings
  1

  2
none_device
  4
ANSI_A_(11.00_x_8.50_Inches)
  6

 40
6.35
 41
19.05
 42
6.35000508
 43
19.05000254
 44
279.4
 45
215.9
 46
98.53254146912828
 47
81.28012580561442
 48
0.0
 49
0.0
140
0.0
141
0.0
142
0.0501323292749418
143
1.0
 70
  1696
 72
     0
 73
     0
 74
     0
  7

 75
     0
147
0.0235690232323232
148
0.0
149
0.0
100
AcDbLayout
  1
Model
 70
     1
 71
     0
 10
0.0
 20
0.0
 11
420.0
 21
297.0
 12
0.0
 22
0.0
 32
0.0
 14
-54.06250000000009
 24
-49.97180738881175
 34
0.0
 15
99.38162503295506
 25
38.53496762011856
 35
0.0
146
0.0
 13
0.0
 23
0.0
 33
0.0
 16
1.0
 26
0.0
 36
0.0
 17
0.0
 27
1.0
 37
0.0
 76
     0
330
1F
331
29
  0
MLINESTYLE
  5
18
102
{ACAD_REACTORS
330
17
102
}
330
17
100
AcDbMlineStyle
  2
Standard
 70
     0
  3

 62
   256
 51
90.0
 52
90.0
 71
     2
 49
0.5
 62
   256
  6
BYLAYER
 49
-0.5
 62
   256
  6
BYLAYER
  0
ACDBPLACEHOLDER
  5
F
102
{ACAD_REACTORS
330
E
102
}
330
E
  0
SCALE
  5
48
102
{ACAD_REACTORS
330
47
102
}
330
47
100
AcDbScale
 70
     0
300
1:1
140
1.0
141
1.0
290
     1
  0
SCALE
  5
49
102
{ACAD_REACTORS
330
47
102
}
330
47
100
AcDbScale
 70
     0
300
1:2
140
1.0
141
2.0
290
     0
  0
SCALE
  5
4A
102
{ACAD_REACTORS
330
47
102
}
330
47
100
AcDbScale
 70
     0
300
1:4
140
1.0
141
4.0
290
     0
  0
SCALE
  5
4B
102
{ACAD_REACTORS
330
47
102
}
330
47
100
AcDbScale
 70
     0
300
1:5
140
1.0
141
5.0
290
     0
  0
SCALE
  5
4C
102
{ACAD_REACTORS
330
47
102
}
330
47
100
AcDbScale
 70
     0
300
1:8
140
1.0
141
8.0
290
     0
  0
SCALE
  5
4D
102
{ACAD_REACTORS
330
47
102
}
330
47
100
AcDbScale
 70
     0
300
1:10
140
1.0
141
10.0
290
     0
  0
SCALE
  5
4E
102
{ACAD_REACTORS
330
47
102
}
330
47
100
AcDbScale
 70
     0
300
1:16
140
1.0
141
16.0
290
     0
  0
SCALE
  5
4F
102
{ACAD_REACTORS
330
47
102
}
330
47
100
AcDbScale
 70
     0
300
1:20
140
1.0
141
20.0
290
     0
  0
SCALE
  5
50
102
{ACAD_REACTORS
330
47
102
}
330
47
100
AcDbScale
 70
     0
300
1:30
140
1.0
141
30.0
290
     0
  0
SCALE
  5
51
102
{ACAD_REACTORS
330
47
102
}
330
47
100
AcDbScale
 70
     0
300
1:40
140
1.0
141
40.0
290
     0
  0
SCALE
  5
52
102
{ACAD_REACTORS
330
47
102
}
330
47
100
AcDbScale
 70
     0
300
1:50
140
1.0
141
50.0
290
     0
  0
SCALE
  5
53
102
{ACAD_REACTORS
330
47
102
}
330
47
100
AcDbScale
 70
     0
300
1:100
140
1.0
141
100.0
290
     0
  0
SCALE
  5
54
102
{ACAD_REACTORS
330
47
102
}
330
47
100
AcDbScale
 70
     0
300
2:1
140
2.0
141
1.0
290
     0
  0
SCALE
  5
55
102
{ACAD_REACTORS
330
47
102
}
330
47
100
AcDbScale
 70
     0
300
4:1
140
4.0
141
1.0
290
     0
  0
SCALE
  5
56
102
{ACAD_REACTORS
330
47
102
}
330
47
100
AcDbScale
 70
     0
300
8:1
140
8.0
141
1.0
290
     0
  0
SCALE
  5
57
102
{ACAD_REACTORS
330
47
102
}
330
47
100
AcDbScale
 70
     0
300
10:1
140
10.0
141
1.0
290
     0
  0
SCALE
  5
58
102
{ACAD_REACTORS
330
47
102
}
330
47
100
AcDbScale
 70
     0
300
100:1
140
100.0
141
1.0
290
     0
  0
SCALE
  5
59
102
{ACAD_REACTORS
330
47
102
}
330
47
100
AcDbScale
 70
     0
300
1/128" = 1'-0"
140
0.0078125
141
12.0
290
     0
  0
SCALE
  5
5A
102
{ACAD_REACTORS
330
47
102
}
330
47
100
AcDbScale
 70
     0
300
1/64" = 1'-0"
140
0.015625
141
12.0
290
     0
  0
SCALE
  5
5B
102
{ACAD_REACTORS
330
47
102
}
330
47
100
AcDbScale
 70
     0
300
1/32" = 1'-0"
140
0.03125
141
12.0
290
     0
  0
SCALE
  5
5C
102
{ACAD_REACTORS
330
47
102
}
330
47
100
AcDbScale
 70
     0
300
1/16" = 1'-0"
140
0.0625
141
12.0
290
     0
  0
SCALE
  5
5D
102
{ACAD_REACTORS
330
47
102
}
330
47
100
AcDbScale
 70
     0
300
3/32" = 1'-0"
140
0.09375
141
12.0
290
     0
  0
SCALE
  5
5E
102
{ACAD_REACTORS
330
47
102
}
330
47
100
AcDbScale
 70
     0
300
1/8" = 1'-0"
140
0.125
141
12.0
290
     0
  0
SCALE
  5
5F
102
{ACAD_REACTORS
330
47
102
}
330
47
100
AcDbScale
 70
     0
300
3/16" = 1'-0"
140
0.1875
141
12.0
290
     0
  0
SCALE
  5
60
102
{ACAD_REACTORS
330
47
102
}
330
47
100
AcDbScale
 70
     0
300
1/4" = 1'-0"
140
0.25
141
12.0
290
     0
  0
SCALE
  5
61
102
{ACAD_REACTORS
330
47
102
}
330
47
100
AcDbScale
 70
     0
300
3/8" = 1'-0"
140
0.375
141
12.0
290
     0
  0
SCALE
  5
62
102
{ACAD_REACTORS
330
47
102
}
330
47
100
AcDbScale
 70
     0
300
1/2" = 1'-0"
140
0.5
141
12.0
290
     0
  0
SCALE
  5
63
102
{ACAD_REACTORS
330
47
102
}
330
47
100
AcDbScale
 70
     0
300
3/4" = 1'-0"
140
0.75
141
12.0
290
     0
  0
SCALE
  5
64
102
{ACAD_REACTORS
330
47
102
}
330
47
100
AcDbScale
 70
     0
300
1" = 1'-0"
140
1.0
141
12.0
290
     0
  0
SCALE
  5
65
102
{ACAD_REACTORS
330
47
102
}
330
47
100
AcDbScale
 70
     0
300
1-1/2" = 1'-0"
140
1.5
141
12.0
290
     0
  0
SCALE
  5
66
102
{ACAD_REACTORS
330
47
102
}
330
47
100
AcDbScale
 70
     0
300
3" = 1'-0"
140
3.0
141
12.0
290
     0
  0
SCALE
  5
67
102
{ACAD_REACTORS
330
47
102
}
330
47
100
AcDbScale
 70
     0
300
6" = 1'-0"
140
6.0
141
12.0
290
     0
  0
SCALE
  5
68
102
{ACAD_REACTORS
330
47
102
}
330
47
100
AcDbScale
 70
     0
300
1'-0" = 1'-0"
140
12.0
141
12.0
290
     0
  0
ENDSEC
  0
EOF
