  0
SECTION
  2
HEADER
  9
$ACADVER
  1
AC1015
  9
$ACADMAINTVER
 70
     6
  9
$DWGCODEPAGE
  3
ANSI_949
  9
$INSBASE
 10
0.0
 20
0.0
 30
0.0
  9
$EXTMIN
 10
1.000000000000000E+20
 20
1.000000000000000E+20
 30
1.000000000000000E+20
  9
$EXTMAX
 10
-1.000000000000000E+20
 20
-1.000000000000000E+20
 30
-1.000000000000000E+20
  9
$LIMMIN
 10
0.0
 20
0.0
  9
$LIMMAX
 10
420.0
 20
297.0
  9
$ORTHOMODE
 70
     1
  9
$REGENMODE
 70
     1
  9
$FILLMODE
 70
     1
  9
$QTEXTMODE
 70
     0
  9
$MIRRTEXT
 70
     1
  9
$LTSCALE
 40
1.0
  9
$ATTMODE
 70
     1
  9
$TEXTSIZE
 40
3.5
  9
$TRACEWID
 40
1.0
  9
$TEXTSTYLE
  7
Standard
  9
$CLAYER
  8
0
  9
$CELTYPE
  6
ByLayer
  9
$CECOLOR
 62
   256
  9
$CELTSCALE
 40
1.0
  9
$DISPSILH
 70
     0
  9
$DIMSCALE
 40
1.0
  9
$DIMASZ
 40
3.302
  9
$DIMEXO
 40
1.0
  9
$DIMDLI
 40
3.75
  9
$DIMRND
 40
0.0
  9
$DIMDLE
 40
0.0
  9
$DIMEXE
 40
1.0
  9
$DIMTP
 40
0.0
  9
$DIMTM
 40
0.0
  9
$DIMTXT
 40
3.5
  9
$DIMCEN
 40
2.5
  9
$DIMTSZ
 40
0.0
  9
$DIMTOL
 70
     0
  9
$DIMLIM
 70
     0
  9
$DIMTIH
 70
     1
  9
$DIMTOH
 70
     1
  9
$DIMSE1
 70
     0
  9
$DIMSE2
 70
     0
  9
$DIMTAD
 70
     1
  9
$DIMZIN
 70
     0
  9
$DIMBLK
  1

  9
$DIMASO
 70
     1
  9
$DIMSHO
 70
     1
  9
$DIMPOST
  1

  9
$DIMAPOST
  1

  9
$DIMALT
 70
     0
  9
$DIMALTD
 70
     3
  9
$DIMALTF
 40
0.0393700787401575
  9
$DIMLFAC
 40
1.0
  9
$DIMTOFL
 70
     1
  9
$DIMTVP
 40
0.0
  9
$DIMTIX
 70
     0
  9
$DIMSOXD
 70
     0
  9
$DIMSAH
 70
     0
  9
$DIMBLK1
  1

  9
$DIMBLK2
  1

  9
$DIMSTYLE
  2
ISO-25
  9
$DIMCLRD
 70
     0
  9
$DIMCLRE
 70
     0
  9
$DIMCLRT
 70
     0
  9
$DIMTFAC
 40
1.0
  9
$DIMGAP
 40
1.524
  9
$DIMJUST
 70
     0
  9
$DIMSD1
 70
     0
  9
$DIMSD2
 70
     0
  9
$DIMTOLJ
 70
     0
  9
$DIMTZIN
 70
     0
  9
$DIMALTZ
 70
     0
  9
$DIMALTTZ
 70
     0
  9
$DIMUPT
 70
     0
  9
$DIMDEC
 70
     2
  9
$DIMTDEC
 70
     2
  9
$DIMALTU
 70
     2
  9
$DIMALTTD
 70
     3
  9
$DIMTXSTY
  7
Standard
  9
$DIMAUNIT
 70
     0
  9
$DIMADEC
 70
     2
  9
$DIMALTRND
 40
0.0
  9
$DIMAZIN
 70
     0
  9
$DIMDSEP
 70
    44
  9
$DIMATFIT
 70
     3
  9
$DIMFRAC
 70
     0
  9
$DIMLDRBLK
  1

  9
$DIMLUNIT
 70
     2
  9
$DIMLWD
 70
    -2
  9
$DIMLWE
 70
    -2
  9
$DIMTMOVE
 70
     0
  9
$LUNITS
 70
     2
  9
$LUPREC
 70
     2
  9
$SKETCHINC
 40
1.0
  9
$FILLETRAD
 40
10.0
  9
$AUNITS
 70
     0
  9
$AUPREC
 70
     2
  9
$MENU
  1
.
  9
$ELEVATION
 40
0.0
  9
$PELEVATION
 40
0.0
  9
$THICKNESS
 40
0.0
  9
$LIMCHECK
 70
     0
  9
$CHAMFERA
 40
0.0
  9
$CHAMFERB
 40
0.0
  9
$CHAMFERC
 40
0.0
  9
$CHAMFERD
 40
0.0
  9
$SKPOLY
 70
     0
  9
$TDCREATE
 40
2458323.476725567
  9
$TDUCREATE
 40
2458323.101725567
  9
$TDUPDATE
 40
2458330.756651759
  9
$TDUUPDATE
 40
2458330.381651759
  9
$TDINDWG
 40
0.0012270486
  9
$TDUSRTIMER
 40
2458330.380424965
  9
$USRTIMER
 70
     1
  9
$ANGBASE
 50
0.0
  9
$ANGDIR
 70
     0
  9
$PDMODE
 70
     0
  9
$PDSIZE
 40
-1.0
  9
$PLINEWID
 40
0.0
  9
$SPLFRAME
 70
     0
  9
$SPLINETYPE
 70
     6
  9
$SPLINESEGS
 70
     8
  9
$HANDSEED
  5
2B2
  9
$SURFTAB1
 70
     6
  9
$SURFTAB2
 70
     6
  9
$SURFTYPE
 70
     6
  9
$SURFU
 70
     6
  9
$SURFV
 70
     6
  9
$UCSBASE
  2

  9
$UCSNAME
  2

  9
$UCSORG
 10
0.0
 20
0.0
 30
0.0
  9
$UCSXDIR
 10
1.0
 20
0.0
 30
0.0
  9
$UCSYDIR
 10
0.0
 20
1.0
 30
0.0
  9
$UCSORTHOREF
  2

  9
$UCSORTHOVIEW
 70
     0
  9
$UCSORGTOP
 10
0.0
 20
0.0
 30
0.0
  9
$UCSORGBOTTOM
 10
0.0
 20
0.0
 30
0.0
  9
$UCSORGLEFT
 10
0.0
 20
0.0
 30
0.0
  9
$UCSORGRIGHT
 10
0.0
 20
0.0
 30
0.0
  9
$UCSORGFRONT
 10
0.0
 20
0.0
 30
0.0
  9
$UCSORGBACK
 10
0.0
 20
0.0
 30
0.0
  9
$PUCSBASE
  2

  9
$PUCSNAME
  2

  9
$PUCSORG
 10
0.0
 20
0.0
 30
0.0
  9
$PUCSXDIR
 10
1.0
 20
0.0
 30
0.0
  9
$PUCSYDIR
 10
0.0
 20
1.0
 30
0.0
  9
$PUCSORTHOREF
  2

  9
$PUCSORTHOVIEW
 70
     0
  9
$PUCSORGTOP
 10
0.0
 20
0.0
 30
0.0
  9
$PUCSORGBOTTOM
 10
0.0
 20
0.0
 30
0.0
  9
$PUCSORGLEFT
 10
0.0
 20
0.0
 30
0.0
  9
$PUCSORGRIGHT
 10
0.0
 20
0.0
 30
0.0
  9
$PUCSORGFRONT
 10
0.0
 20
0.0
 30
0.0
  9
$PUCSORGBACK
 10
0.0
 20
0.0
 30
0.0
  9
$USERI1
 70
     0
  9
$USERI2
 70
     0
  9
$USERI3
 70
     0
  9
$USERI4
 70
     0
  9
$USERI5
 70
     0
  9
$USERR1
 40
0.0
  9
$USERR2
 40
0.0
  9
$USERR3
 40
0.0
  9
$USERR4
 40
0.0
  9
$USERR5
 40
0.0
  9
$WORLDVIEW
 70
     1
  9
$SHADEDGE
 70
     3
  9
$SHADEDIF
 70
    70
  9
$TILEMODE
 70
     1
  9
$MAXACTVP
 70
    64
  9
$PINSBASE
 10
0.0
 20
0.0
 30
0.0
  9
$PLIMCHECK
 70
     0
  9
$PEXTMIN
 10
1.000000000000000E+20
 20
1.000000000000000E+20
 30
1.000000000000000E+20
  9
$PEXTMAX
 10
-1.000000000000000E+20
 20
-1.000000000000000E+20
 30
-1.000000000000000E+20
  9
$PLIMMIN
 10
0.0
 20
0.0
  9
$PLIMMAX
 10
0.0
 20
0.0
  9
$UNITMODE
 70
     0
  9
$VISRETAIN
 70
     1
  9
$PLINEGEN
 70
     0
  9
$PSLTSCALE
 70
     1
  9
$TREEDEPTH
 70
  3020
  9
$CMLSTYLE
  2
Standard
  9
$CMLJUST
 70
     0
  9
$CMLSCALE
 40
20.0
  9
$PROXYGRAPHICS
 70
     1
  9
$MEASUREMENT
 70
     1
  9
$CELWEIGHT
370
    -1
  9
$ENDCAPS
280
     0
  9
$JOINSTYLE
280
     0
  9
$LWDISPLAY
290
     1
  9
$INSUNITS
 70
     4
  9
$HYPERLINKBASE
  1

  9
$STYLESHEET
  1

  9
$XEDIT
290
     1
  9
$CEPSNTYPE
380
     0
  9
$PSTYLEMODE
290
     1
  9
$FINGERPRINTGUID
  2
{C817301A-E62F-4E90-AA3E-DE76943B4EF5}
  9
$VERSIONGUID
  2
{FAEB1C32-E019-11D5-929B-00C0DF256EC4}
  9
$EXTNAMES
290
     1
  9
$PSVPSCALE
 40
0.0
  9
$OLESTARTUP
290
     0
  0
ENDSEC
  0
SECTION
  2
CLASSES
  0
CLASS
  1
ACDBDICTIONARYWDFLT
  2
AcDbDictionaryWithDefault
  3
ObjectDBX Classes
 90
        0
280
     0
281
     0
  0
CLASS
  1
VISUALSTYLE
  2
AcDbVisualStyle
  3
ObjectDBX Classes
 90
     4095
280
     0
281
     0
  0
CLASS
  1
MATERIAL
  2
AcDbMaterial
  3
ObjectDBX Classes
 90
     1153
280
     0
281
     0
  0
CLASS
  1
SCALE
  2
AcDbScale
  3
ObjectDBX Classes
 90
     1153
280
     0
281
     0
  0
CLASS
  1
SUN
  2
AcDbSun
  3
SCENEOE
 90
     1153
280
     0
281
     0
  0
CLASS
  1
ACDBPLACEHOLDER
  2
AcDbPlaceHolder
  3
ObjectDBX Classes
 90
        0
280
     0
281
     0
  0
CLASS
  1
LAYOUT
  2
AcDbLayout
  3
ObjectDBX Classes
 90
        0
280
     0
281
     0
  0
CLASS
  1
TABLESTYLE
  2
AcDbTableStyle
  3
ObjectDBX Classes
 90
     4095
280
     0
281
     0
  0
CLASS
  1
MLEADERSTYLE
  2
AcDbMLeaderStyle
  3
ACDB_MLEADERSTYLE_CLASS
 90
     4095
280
     0
281
     0
  0
CLASS
  1
RASTERVARIABLES
  2
AcDbRasterVariables
  3
ISM
 90
        0
280
     0
281
     0
  0
ENDSEC
  0
SECTION
  2
TABLES
  0
TABLE
  2
VPORT
  5
8
330
0
100
AcDbSymbolTable
 70
     1
  0
VPORT
  5
29
330
8
100
AcDbSymbolTableRecord
100
AcDbViewportTableRecord
  2
*Active
 70
     0
 10
0.0
 20
0.0
 11
1.0
 21
1.0
 12
39.30829470267071
 22
28.71236590236823
 13
0.0
 23
0.0
 14
10.0
 24
10.0
 15
10.0
 25
10.0
 16
0.0
 26
0.0
 36
1.0
 17
0.0
 27
0.0
 37
0.0
 40
188.972992664466
 41
1.516441005802708
 42
50.0
 43
0.0
 44
0.0
 50
0.0
 51
0.0
 71
    16
 72
  2000
 73
     1
 74
     3
 75
     0
 76
     0
 77
     0
 78
     0
281
     0
 65
     1
110
0.0
120
0.0
130
0.0
111
1.0
121
0.0
131
0.0
112
0.0
122
1.0
132
0.0
 79
     0
146
0.0
  0
ENDTAB
  0
TABLE
  2
LTYPE
  5
5
330
0
100
AcDbSymbolTable
 70
     6
  0
LTYPE
  5
14
330
5
100
AcDbSymbolTableRecord
100
AcDbLinetypeTableRecord
  2
ByBlock
 70
     0
  3

 72
    65
 73
     0
 40
0.0
  0
LTYPE
  5
15
330
5
100
AcDbSymbolTableRecord
100
AcDbLinetypeTableRecord
  2
ByLayer
 70
     0
  3

 72
    65
 73
     0
 40
0.0
  0
LTYPE
  5
16
330
5
100
AcDbSymbolTableRecord
100
AcDbLinetypeTableRecord
  2
Continuous
 70
     0
  3
Solid line
 72
    65
 73
     0
 40
0.0
  0
LTYPE
  5
6A
330
5
100
AcDbSymbolTableRecord
100
AcDbLinetypeTableRecord
  2
HIDDEN
 70
     0
  3
Hidden __ __ __ __ __ __ __ __ __ __ __ __ __ __
 72
    65
 73
     2
 40
1.905
 49
1.27
 74
     0
 49
-0.635
 74
     0
  0
LTYPE
  5
6B
330
5
100
AcDbSymbolTableRecord
100
AcDbLinetypeTableRecord
  2
PHANTOM
 70
     0
  3
Phantom ______  __  __  ______  __  __  ______
 72
    65
 73
     6
 40
12.7
 49
6.35
 74
     0
 49
-1.27
 74
     0
 49
1.27
 74
     0
 49
-1.27
 74
     0
 49
1.27
 74
     0
 49
-1.27
 74
     0
  0
LTYPE
  5
6C
330
5
100
AcDbSymbolTableRecord
100
AcDbLinetypeTableRecord
  2
CENTER
 70
     0
  3
Center ____ _ ____ _ ____ _ ____ _ ____ _ ____
 72
    65
 73
     4
 40
10.16
 49
6.35
 74
     0
 49
-1.27
 74
     0
 49
1.27
 74
     0
 49
-1.27
 74
     0
  0
LTYPE
  5
6D
330
5
100
AcDbSymbolTableRecord
100
AcDbLinetypeTableRecord
  2
CENTERX2
 70
     0
  3
Center (2x) ________  __  ________  __  _____
 72
    65
 73
     4
 40
20.32
 49
12.7
 74
     0
 49
-2.54
 74
     0
 49
2.54
 74
     0
 49
-2.54
 74
     0
  0
LTYPE
  5
6E
330
5
100
AcDbSymbolTableRecord
100
AcDbLinetypeTableRecord
  2
DOT2
 70
     0
  3
Dot (.5x) ........................................
 72
    65
 73
     2
 40
0.635
 49
0.0
 74
     0
 49
-0.635
 74
     0
  0
ENDTAB
  0
TABLE
  2
LAYER
  5
2
102
{ACAD_XDICTIONARY
360
1F5
102
}
330
0
100
AcDbSymbolTable
 70
    18
  0
LAYER
  5
10
330
2
100
AcDbSymbolTableRecord
100
AcDbLayerTableRecord
  2
0
 70
     0
 62
     7
  6
Continuous
370
    -3
390
F
  0
LAYER
  5
6F
330
2
100
AcDbSymbolTableRecord
100
AcDbLayerTableRecord
  2
FORMAT
 70
     0
 62
     2
  6
Continuous
370
    -3
390
F
  0
LAYER
  5
70
330
2
100
AcDbSymbolTableRecord
100
AcDbLayerTableRecord
  2
외형선
 70
     0
 62
     4
  6
Continuous
370
    30
390
F
  0
LAYER
  5
71
330
2
100
AcDbSymbolTableRecord
100
AcDbLayerTableRecord
  2
숨은선
 70
     0
 62
     2
  6
HIDDEN
370
    15
390
F
  0
LAYER
  5
72
330
2
100
AcDbSymbolTableRecord
100
AcDbLayerTableRecord
  2
중심선
 70
     0
 62
     1
  6
CENTERX2
370
    -3
390
F
  0
LAYER
  5
73
330
2
100
AcDbSymbolTableRecord
100
AcDbLayerTableRecord
  2
파단선
 70
     0
 62
     4
  6
Continuous
370
    -3
390
F
  0
LAYER
  5
74
330
2
100
AcDbSymbolTableRecord
100
AcDbLayerTableRecord
  2
해칭선
 70
     0
 62
   100
  6
Continuous
370
    -3
390
F
  0
LAYER
  5
75
330
2
100
AcDbSymbolTableRecord
100
AcDbLayerTableRecord
  2
가는실선
 70
     0
 62
     4
  6
Continuous
370
    -3
390
F
  0
LAYER
  5
76
330
2
100
AcDbSymbolTableRecord
100
AcDbLayerTableRecord
  2
치수_보조선
 70
     0
 62
     4
  6
Continuous
370
    -3
390
F
  0
LAYER
  5
77
330
2
100
AcDbSymbolTableRecord
100
AcDbLayerTableRecord
  2
치수문자_일반주서
 70
     0
 62
     7
  6
Continuous
370
    15
390
F
  0
LAYER
  5
78
330
2
100
AcDbSymbolTableRecord
100
AcDbLayerTableRecord
  2
개별주서
 70
     0
 62
   100
  6
Continuous
370
    30
390
F
  0
LAYER
  5
79
330
2
100
AcDbSymbolTableRecord
100
AcDbLayerTableRecord
  2
중간선
 70
     0
 62
     2
  6
Continuous
370
    15
390
F
  0
LAYER
  5
7A
330
2
100
AcDbSymbolTableRecord
100
AcDbLayerTableRecord
  2
윤곽선
 70
     0
 62
     3
  6
Continuous
370
    40
390
F
  0
LAYER
  5
7B
330
2
100
AcDbSymbolTableRecord
100
AcDbLayerTableRecord
  2
중심마크
 70
     0
 62
   100
  6
Continuous
370
    30
390
F
  0
LAYER
  5
7C
330
2
100
AcDbSymbolTableRecord
100
AcDbLayerTableRecord
  2
가상선
 70
     0
 62
     4
  6
PHANTOM
370
    -3
390
F
  0
LAYER
  5
7D
330
2
100
AcDbSymbolTableRecord
100
AcDbLayerTableRecord
  2
특수지정선
 70
     0
 62
     5
  6
CENTERX2
370
    60
390
F
  0
LAYER
  5
7E
330
2
100
AcDbSymbolTableRecord
100
AcDbLayerTableRecord
  2
참조1
 70
     0
 62
    -4
  6
Continuous
370
    -3
390
F
  0
LAYER
  5
149
330
2
100
AcDbSymbolTableRecord
100
AcDbLayerTableRecord
  2
Defpoints
 70
     0
 62
     7
  6
Continuous
290
     0
370
    -3
390
F
  0
ENDTAB
  0
TABLE
  2
STYLE
  5
3
330
0
100
AcDbSymbolTable
 70
     2
  0
STYLE
  5
11
330
3
100
AcDbSymbolTableRecord
100
AcDbTextStyleTableRecord
  2
Standard
 70
     0
 40
0.0
 41
1.0
 50
0.0
 71
     0
 42
3.5
  3
txt
  4

  0
STYLE
  5
94
330
3
100
AcDbSymbolTableRecord
100
AcDbTextStyleTableRecord
  2
SLDTEXTSTYLE0
 70
     0
 40
0.0
 41
0.75
 50
0.0
 71
     0
 42
3.5
  3
TXT
  4

  0
ENDTAB
  0
TABLE
  2
VIEW
  5
6
330
0
100
AcDbSymbolTable
 70
     0
  0
ENDTAB
  0
TABLE
  2
UCS
  5
7
330
0
100
AcDbSymbolTable
 70
     0
  0
ENDTAB
  0
TABLE
  2
APPID
  5
9
330
0
100
AcDbSymbolTable
 70
     2
  0
APPID
  5
12
330
9
100
AcDbSymbolTableRecord
100
AcDbRegAppTableRecord
  2
ACAD
 70
     0
  0
APPID
  5
155
330
9
100
AcDbSymbolTableRecord
100
AcDbRegAppTableRecord
  2
PE_URL
 70
     0
  0
ENDTAB
  0
TABLE
  2
DIMSTYLE
  5
A
330
0
100
AcDbSymbolTable
 70
     3
100
AcDbDimStyleTable
  0
DIMSTYLE
105
27
330
A
100
AcDbSymbolTableRecord
100
AcDbDimStyleTableRecord
  2
ISO-25
 70
     0
 41
2.5
 42
0.625
 43
3.75
 44
1.25
 73
     0
 74
     0
 77
     1
 78
     8
140
2.5
141
2.5
143
0.03937007874016
147
0.625
171
     3
172
     1
178
     0
271
     2
272
     2
274
     3
278
    44
283
     0
284
     8
340
11
  0
DIMSTYLE
105
C8
102
{ACAD_REACTORS
330
1AE
330
1BE
330
1CB
330
1D8
330
26A
330
26B
330
26C
330
26D
102
}
330
A
100
AcDbSymbolTableRecord
100
AcDbDimStyleTableRecord
  2
SLDDIMSTYLE0
 70
     0
 41
3.302
 44
0.0
 45
0.000000001
 73
     0
 74
     0
 77
     1
 78
    12
 79
     3
140
3.5
143
0.0393700787401575
147
0.875
148
0.000000001
170
     1
172
     1
173
     1
178
     0
271
     2
272
     2
276
     2
284
    12
289
     0
340
94
  0
DIMSTYLE
105
F1
330
A
100
AcDbSymbolTableRecord
100
AcDbDimStyleTableRecord
  2
SLDDIMSTYLE1
 70
     0
 41
3.302
 44
0.0
 45
0.000000001
 73
     0
 74
     0
 77
     1
 78
    12
 79
     3
140
3.5
143
0.0393700787401575
147
0.875
148
0.000000001
170
     1
173
     1
178
     0
271
     2
272
     2
276
     2
284
    12
340
94
  0
ENDTAB
  0
TABLE
  2
BLOCK_RECORD
  5
1
330
0
100
AcDbSymbolTable
 70
    16
  0
BLOCK_RECORD
  5
1F
330
1
100
AcDbSymbolTableRecord
100
AcDbBlockTableRecord
  2
*Model_Space
340
22
  0
BLOCK_RECORD
  5
1B
330
1
100
AcDbSymbolTableRecord
100
AcDbBlockTableRecord
  2
*Paper_Space
340
1E
  0
BLOCK_RECORD
  5
23
330
1
100
AcDbSymbolTableRecord
100
AcDbBlockTableRecord
  2
*Paper_Space0
340
26
  0
BLOCK_RECORD
  5
7F
330
1
100
AcDbSymbolTableRecord
100
AcDbBlockTableRecord
  2
블럭10
340
0
102
{BLKREFS
331
C0
102
}
  0
BLOCK_RECORD
  5
C9
330
1
100
AcDbSymbolTableRecord
100
AcDbBlockTableRecord
  2
_D
340
0
  0
BLOCK_RECORD
  5
DD
330
1
100
AcDbSymbolTableRecord
100
AcDbBlockTableRecord
  2
_D_1
340
0
  0
BLOCK_RECORD
  5
F2
330
1
100
AcDbSymbolTableRecord
100
AcDbBlockTableRecord
  2
_D_2
340
0
  0
BLOCK_RECORD
  5
105
330
1
100
AcDbSymbolTableRecord
100
AcDbBlockTableRecord
  2
_D_3
340
0
  0
BLOCK_RECORD
  5
11E
330
1
100
AcDbSymbolTableRecord
100
AcDbBlockTableRecord
  2
SW_DOWELSYMBOL_0
340
0
102
{BLKREFS
331
0
331
1E8
331
26E
102
}
  0
BLOCK_RECORD
  5
1F9
330
1
100
AcDbSymbolTableRecord
100
AcDbBlockTableRecord
  2
*D8
340
0
  0
BLOCK_RECORD
  5
208
330
1
100
AcDbSymbolTableRecord
100
AcDbBlockTableRecord
  2
*D9
340
0
  0
BLOCK_RECORD
  5
214
330
1
100
AcDbSymbolTableRecord
100
AcDbBlockTableRecord
  2
*D10
340
0
  0
BLOCK_RECORD
  5
220
330
1
100
AcDbSymbolTableRecord
100
AcDbBlockTableRecord
  2
*D11
340
0
  0
BLOCK_RECORD
  5
275
330
1
100
AcDbSymbolTableRecord
100
AcDbBlockTableRecord
  2
*D12
340
0
  0
BLOCK_RECORD
  5
284
330
1
100
AcDbSymbolTableRecord
100
AcDbBlockTableRecord
  2
*D13
340
0
  0
BLOCK_RECORD
  5
290
330
1
100
AcDbSymbolTableRecord
100
AcDbBlockTableRecord
  2
*D14
340
0
  0
BLOCK_RECORD
  5
29C
330
1
100
AcDbSymbolTableRecord
100
AcDbBlockTableRecord
  2
*D15
340
0
  0
ENDTAB
  0
ENDSEC
  0
SECTION
  2
BLOCKS
  0
BLOCK
  5
20
330
1F
100
AcDbEntity
  8
0
100
AcDbBlockBegin
  2
*Model_Space
 70
     0
 10
0.0
 20
0.0
 30
0.0
  3
*Model_Space
  1
*Model_Space
  0
ENDBLK
  5
21
330
1F
100
AcDbEntity
  8
0
100
AcDbBlockEnd
  0
BLOCK
  5
1C
330
1B
100
AcDbEntity
 67
     1
  8
0
100
AcDbBlockBegin
  2
*Paper_Space
 70
     0
 10
0.0
 20
0.0
 30
0.0
  3
*Paper_Space
  1
*Paper_Space
  0
ENDBLK
  5
1D
330
1B
100
AcDbEntity
 67
     1
  8
0
100
AcDbBlockEnd
  0
BLOCK
  5
24
330
23
100
AcDbEntity
  8
0
100
AcDbBlockBegin
  2
*Paper_Space0
 70
     0
 10
0.0
 20
0.0
 30
0.0
  3
*Paper_Space0
  1
*Paper_Space0
  0
ENDBLK
  5
25
330
23
100
AcDbEntity
  8
0
100
AcDbBlockEnd
  0
BLOCK
  5
80
330
7F
100
AcDbEntity
  8
0
100
AcDbBlockBegin
  2
블럭10
 70
     2
 10
0.0
 20
0.0
 30
0.0
  3
블럭10
  1
블럭10
  0
ELLIPSE
  5
82
330
7F
100
AcDbEntity
  8
중심선
100
AcDbEllipse
 10
20.54032771741204
 20
12.0471743016438
 30
0.0
 11
6.600054785286829
 21
-1.261213355974178E-13
 31
0.0
210
0.0
220
0.0
230
1.0
 40
0.636358354079598
 41
0.9219305317359503
 42
6.513795318482858
  0
ELLIPSE
  5
83
330
7F
100
AcDbEntity
  8
중심선
100
AcDbEllipse
 10
20.54032771746488
 20
12.04717430159265
 30
0.0
 11
3.960054785062283
 21
1.540847449632565E-10
 31
0.0
210
0.0
220
0.0
230
1.0
 40
0.3939339440162632
 41
1.131841032648279
 42
5.62031148352944
  0
LINE
  5
84
330
7F
100
AcDbEntity
  8
중심선
100
AcDbLine
 10
2.268634060543552
 20
16.24717430164393
 30
0.0
 11
5.714909304380834
 21
16.24717430164393
 31
0.0
  0
LINE
  5
85
330
7F
100
AcDbEntity
  8
중심선
100
AcDbLine
 10
5.245725140726316
 20
7.84717430164391
 30
0.0
 11
8.692000384563599
 21
7.84717430164391
 31
0.0
  0
LINE
  5
86
330
7F
100
AcDbEntity
  8
중심선
100
AcDbLine
 10
15.74043728645272
 20
16.24717430164393
 30
0.0
 11
8.692000384563599
 21
7.84717430164391
 31
0.0
  0
LINE
  5
87
330
7F
100
AcDbEntity
  8
중심선
100
AcDbLine
 10
0.1404042013395286
 20
13.71084872107135
 30
0.0
 11
3.58671253028996
 21
13.71088815037384
 31
0.0
  0
LINE
  5
88
330
7F
100
AcDbEntity
  8
중심선
100
AcDbLine
 10
2.750260043222114
 20
10.84717430164391
 30
0.0
 11
6.196535287059397
 21
10.84717430164391
 31
0.0
  0
LINE
  5
89
330
7F
100
AcDbEntity
  8
중심선
100
AcDbLine
 10
12.29416204261559
 20
16.24717430164393
 30
0.0
 11
5.245725140726316
 21
7.84717430164391
 31
0.0
  0
LINE
  5
8A
330
7F
100
AcDbEntity
  8
중심선
100
AcDbLine
 10
10.72767329541681
 20
16.24717430164393
 30
0.0
 11
6.196535287059397
 21
10.84717430164391
 31
0.0
  0
LINE
  5
8B
330
7F
100
AcDbEntity
  8
중심선
100
AcDbLine
 10
7.28139805157953
 20
16.24717430164393
 30
0.0
 11
2.750260043222114
 21
10.84717430164391
 31
0.0
  0
LINE
  5
8C
330
7F
100
AcDbEntity
  8
중심선
100
AcDbLine
 10
5.714909304380834
 20
16.24717430164393
 30
0.0
 11
3.58671253028996
 21
13.71088815037384
 31
0.0
  0
LINE
  5
8D
330
7F
100
AcDbEntity
  8
중심선
100
AcDbLine
 10
2.268634060543552
 20
16.24717430164393
 30
0.0
 11
0.1404042013395286
 21
13.71084872107135
 31
0.0
  0
LINE
  5
8E
330
7F
100
AcDbEntity
  8
중심선
100
AcDbLine
 10
7.28139805157953
 20
16.24717430164393
 30
0.0
 11
10.72767329541681
 21
16.24717430164393
 31
0.0
  0
LINE
  5
8F
330
7F
100
AcDbEntity
  8
중심선
100
AcDbLine
 10
12.29416204261559
 20
16.24717430164393
 30
0.0
 11
15.74043728645272
 21
16.24717430164393
 31
0.0
  0
LINE
  5
90
330
7F
100
AcDbEntity
  8
중심선
100
AcDbLine
 10
19.22036997980202
 20
11.08717430171403
 30
0.0
 11
23.66174974927406
 21
11.08717430171406
 31
0.0
  0
LINE
  5
91
330
7F
100
AcDbEntity
  8
중심선
100
AcDbLine
 10
19.22039502424796
 20
13.00717430171391
 30
0.0
 11
19.22036997980202
 21
11.08717430171403
 31
0.0
  0
LINE
  5
92
330
7F
100
AcDbEntity
  8
중심선
100
AcDbLine
 10
19.22039502424796
 20
13.00717430171391
 30
0.0
 11
26.96566020931264
 21
13.00717430171391
 31
0.0
  0
LINE
  5
93
330
7F
100
AcDbEntity
  8
중심선
100
AcDbLine
 10
22.22332737316547
 20
13.45928029700563
 30
0.0
 11
24.52862924686651
 21
15.39360700705356
 31
0.0
  0
ATTDEF
  5
95
330
7F
100
AcDbEntity
  8
FORMAT
 62
     2
100
AcDbText
 10
4.408487351596664
 20
2.075366912832191
 30
0.0
 40
4.233333333333333
  1
E1042108
 41
0.75
  7
SLDTEXTSTYLE0
 11
4.408487351596664
 21
-0.0412997538344756
 31
0.0
100
AcDbAttributeDefinition
  3

  2
AUTOATTR0
 70
     0
 74
     1
  0
ENDBLK
  5
81
330
7F
100
AcDbEntity
  8
0
100
AcDbBlockEnd
  0
BLOCK
  5
CA
330
C9
100
AcDbEntity
  8
0
100
AcDbBlockBegin
  2
_D
 70
     0
 10
0.0
 20
0.0
 30
0.0
  3
_D
  1
_D
  0
SOLID
  5
CC
330
C9
100
AcDbEntity
  8
치수문자_일반주서
100
AcDbTrace
 10
97.9119459855236
 20
12.5010749287239
 30
0.0
 11
98.4199459855236
 21
15.80307492872389
 31
0.0
 12
97.4039459855236
 22
15.80307492872389
 32
0.0
 13
97.4039459855236
 23
15.80307492872389
 33
0.0
  0
SOLID
  5
CD
330
C9
100
AcDbEntity
  8
치수문자_일반주서
100
AcDbTrace
 10
97.9119459855236
 20
-12.49892507127611
 30
0.0
 11
97.4039459855236
 21
-15.80092507127611
 31
0.0
 12
98.4199459855236
 22
-15.80092507127611
 32
0.0
 13
98.4199459855236
 23
-15.80092507127611
 33
0.0
  0
LINE
  5
CE
330
C9
100
AcDbEntity
  8
치수문자_일반주서
100
AcDbLine
 10
87.11906426948089
 20
-5.413291502344828
 30
0.0
 11
87.11906426948089
 21
-6.124228987909328
 31
0.0
  0
LINE
  5
CF
330
C9
100
AcDbEntity
  8
치수문자_일반주서
100
AcDbLine
 10
87.11906426948089
 20
-6.124228987909328
 30
0.0
 11
92.67531426054019
 21
-6.124228987909289
 31
0.0
  0
LINE
  5
D0
330
C9
100
AcDbEntity
  8
치수문자_일반주서
100
AcDbLine
 10
92.67531426054019
 20
-6.124228987909289
 30
0.0
 11
92.67531426054019
 21
-5.413291502344789
 31
0.0
  0
LINE
  5
D1
330
C9
100
AcDbEntity
  8
치수문자_일반주서
100
AcDbLine
 10
87.1190642694808
 20
5.41544135979243
 30
0.0
 11
87.1190642694808
 21
6.12637884535693
 31
0.0
  0
LINE
  5
D2
330
C9
100
AcDbEntity
  8
치수문자_일반주서
100
AcDbLine
 10
87.1190642694808
 20
6.12637884535693
 30
0.0
 11
92.6753142605401
 21
6.126378845356969
 31
0.0
  0
LINE
  5
D3
330
C9
100
AcDbEntity
  8
치수문자_일반주서
100
AcDbLine
 10
92.6753142605401
 20
6.126378845356969
 30
0.0
 11
92.6753142605401
 21
5.415441359792469
 31
0.0
  0
LINE
  5
D4
330
C9
100
AcDbEntity
  8
치수문자_일반주서
100
AcDbLine
 10
79.91194598552357
 20
12.5010749287239
 30
0.0
 11
98.9119459855236
 21
12.5010749287239
 31
0.0
  0
LINE
  5
D5
330
C9
100
AcDbEntity
  8
치수문자_일반주서
100
AcDbLine
 10
79.91194598552357
 20
-12.49892507127611
 30
0.0
 11
98.9119459855236
 21
-12.49892507127611
 31
0.0
  0
LINE
  5
D6
330
C9
100
AcDbEntity
  8
치수문자_일반주서
100
AcDbLine
 10
97.9119459855236
 20
12.5010749287239
 30
0.0
 11
97.9119459855236
 21
18.8510749287239
 31
0.0
  0
LINE
  5
D7
330
C9
100
AcDbEntity
  8
치수문자_일반주서
100
AcDbLine
 10
97.9119459855236
 20
12.5010749287239
 30
0.0
 11
97.9119459855236
 21
-12.49892507127611
 31
0.0
  0
LINE
  5
D8
330
C9
100
AcDbEntity
  8
치수문자_일반주서
100
AcDbLine
 10
97.9119459855236
 20
-12.49892507127611
 30
0.0
 11
97.9119459855236
 21
-18.84892507127611
 31
0.0
  0
MTEXT
  5
D9
330
C9
100
AcDbEntity
  8
치수문자_일반주서
100
AcDbMText
 10
88.16357734596129
 20
-4.52461960173345
 30
0.0
 40
3.5
 41
0.0
 71
     1
 72
     1
  1
0.98
  7
SLDTEXTSTYLE0
 11
-7.044195017643634E-15
 21
1.0
 31
0.0
 73
     1
 44
1.0
  0
MTEXT
  5
DA
330
C9
100
AcDbEntity
  8
치수문자_일반주서
100
AcDbMText
 10
93.40020889632177
 20
-5.22425519681665
 30
0.0
 40
3.5
 41
0.0
 71
     1
 72
     1
  1
%%c
  7
SLDTEXTSTYLE0
 11
-7.044195017643634E-15
 21
1.0
 31
0.0
 73
     1
 44
1.0
  0
MTEXT
  5
DB
330
C9
100
AcDbEntity
  8
치수문자_일반주서
100
AcDbMText
 10
93.40020889632173
 20
0.0541822015574309
 30
0.0
 40
3.5
 41
0.0
 71
     1
 72
     1
  1
25
  7
SLDTEXTSTYLE0
 11
-7.044195017643634E-15
 21
1.0
 31
0.0
 73
     1
 44
1.0
  0
ENDBLK
  5
CB
330
C9
100
AcDbEntity
  8
0
100
AcDbBlockEnd
  0
BLOCK
  5
DE
330
DD
100
AcDbEntity
  8
0
100
AcDbBlockBegin
  2
_D_1
 70
     0
 10
0.0
 20
0.0
 30
0.0
  3
_D_1
  1
_D_1
  0
SOLID
  5
E0
330
DD
100
AcDbEntity
  8
치수문자_일반주서
100
AcDbTrace
 10
-55.08805401447646
 20
7.938574928723906
 30
0.0
 11
-54.58005401447646
 21
11.24057492872391
 31
0.0
 12
-55.59605401447646
 22
11.24057492872391
 32
0.0
 13
-55.59605401447646
 23
11.24057492872391
 33
0.0
  0
SOLID
  5
E1
330
DD
100
AcDbEntity
  8
치수문자_일반주서
100
AcDbTrace
 10
-55.08805401447646
 20
-7.936425071276123
 30
0.0
 11
-55.59605401447646
 21
-11.23842507127612
 31
0.0
 12
-54.58005401447646
 22
-11.23842507127612
 32
0.0
 13
-54.58005401447646
 23
-11.23842507127612
 33
0.0
  0
LINE
  5
E2
330
DD
100
AcDbEntity
  8
치수문자_일반주서
100
AcDbLine
 10
-65.88093573051917
 20
-6.595745043212554
 30
0.0
 11
-65.88093573051917
 21
-7.306682528777054
 31
0.0
  0
LINE
  5
E3
330
DD
100
AcDbEntity
  8
치수문자_일반주서
100
AcDbLine
 10
-65.88093573051917
 20
-7.306682528777054
 30
0.0
 11
-60.32468573945987
 21
-7.306682528777015
 31
0.0
  0
LINE
  5
E4
330
DD
100
AcDbEntity
  8
치수문자_일반주서
100
AcDbLine
 10
-60.32468573945987
 20
-7.306682528777015
 30
0.0
 11
-60.32468573945987
 21
-6.595745043212514
 31
0.0
  0
LINE
  5
E5
330
DD
100
AcDbEntity
  8
치수문자_일반주서
100
AcDbLine
 10
-65.88093573051925
 20
4.232987818924705
 30
0.0
 11
-65.88093573051925
 21
4.943925304489205
 31
0.0
  0
LINE
  5
E6
330
DD
100
AcDbEntity
  8
치수문자_일반주서
100
AcDbLine
 10
-65.88093573051925
 20
4.943925304489205
 30
0.0
 11
-60.32468573945995
 21
4.943925304489244
 31
0.0
  0
LINE
  5
E7
330
DD
100
AcDbEntity
  8
치수문자_일반주서
100
AcDbLine
 10
-60.32468573945995
 20
4.943925304489244
 30
0.0
 11
-60.32468573945994
 21
4.232987818924744
 31
0.0
  0
LINE
  5
E8
330
DD
100
AcDbEntity
  8
치수문자_일반주서
100
AcDbLine
 10
-41.50055401447643
 20
7.938574928723908
 30
0.0
 11
-56.08805401447646
 21
7.938574928723906
 31
0.0
  0
LINE
  5
E9
330
DD
100
AcDbEntity
  8
치수문자_일반주서
100
AcDbLine
 10
-41.50055401447643
 20
-7.936425071276121
 30
0.0
 11
-56.08805401447646
 21
-7.936425071276123
 31
0.0
  0
LINE
  5
EA
330
DD
100
AcDbEntity
  8
치수문자_일반주서
100
AcDbLine
 10
-55.08805401447646
 20
7.938574928723906
 30
0.0
 11
-55.08805401447646
 21
14.28857492872391
 31
0.0
  0
LINE
  5
EB
330
DD
100
AcDbEntity
  8
치수문자_일반주서
100
AcDbLine
 10
-55.08805401447646
 20
7.938574928723906
 30
0.0
 11
-55.08805401447646
 21
-7.936425071276123
 31
0.0
  0
LINE
  5
EC
330
DD
100
AcDbEntity
  8
치수문자_일반주서
100
AcDbLine
 10
-55.08805401447646
 20
-7.936425071276123
 30
0.0
 11
-55.08805401447646
 21
-14.28642507127612
 31
0.0
  0
MTEXT
  5
ED
330
DD
100
AcDbEntity
  8
치수문자_일반주서
100
AcDbMText
 10
-64.83642265403878
 20
-5.707073142601175
 30
0.0
 40
3.5
 41
0.0
 71
     1
 72
     1
  1
0.63
  7
SLDTEXTSTYLE0
 11
-7.044195017643634E-15
 21
1.0
 31
0.0
 73
     1
 44
1.0
  0
MTEXT
  5
EE
330
DD
100
AcDbEntity
  8
치수문자_일반주서
100
AcDbMText
 10
-59.59979110367827
 20
-9.639347554964907
 30
0.0
 40
3.5
 41
0.0
 71
     1
 72
     1
  1
%%c
  7
SLDTEXTSTYLE0
 11
-7.044195017643634E-15
 21
1.0
 31
0.0
 73
     1
 44
1.0
  0
MTEXT
  5
EF
330
DD
100
AcDbEntity
  8
치수문자_일반주서
100
AcDbMText
 10
-59.59979110367831
 20
-4.360910156590827
 30
0.0
 40
3.5
 41
0.0
 71
     1
 72
     1
  1
15.88
  7
SLDTEXTSTYLE0
 11
-7.044195017643634E-15
 21
1.0
 31
0.0
 73
     1
 44
1.0
  0
ENDBLK
  5
DF
330
DD
100
AcDbEntity
  8
0
100
AcDbBlockEnd
  0
BLOCK
  5
F3
330
F2
100
AcDbEntity
  8
0
100
AcDbBlockBegin
  2
_D_2
 70
     0
 10
0.0
 20
0.0
 30
0.0
  3
_D_2
  1
_D_2
  0
SOLID
  5
F5
330
F2
100
AcDbEntity
  8
치수문자_일반주서
100
AcDbTrace
 10
78.91194598552357
 20
22.70945704078098
 30
0.0
 11
75.60994598552358
 21
23.21745704078098
 31
0.0
 12
75.60994598552358
 22
22.20145704078098
 32
0.0
 13
75.60994598552358
 23
22.20145704078098
 33
0.0
  0
SOLID
  5
F6
330
F2
100
AcDbEntity
  8
치수문자_일반주서
100
AcDbTrace
 10
33.91194598552359
 20
22.70945704078098
 30
0.0
 11
37.21394598552359
 21
22.20145704078098
 31
0.0
 12
37.21394598552359
 22
23.21745704078098
 32
0.0
 13
37.21394598552359
 23
23.21745704078098
 33
0.0
  0
LINE
  5
F7
330
F2
100
AcDbEntity
  8
치수문자_일반주서
100
AcDbLine
 10
50.99757990370087
 20
33.5023387568237
 30
0.0
 11
50.28664241813637
 21
33.50233875682371
 31
0.0
  0
LINE
  5
F8
330
F2
100
AcDbEntity
  8
치수문자_일반주서
100
AcDbLine
 10
50.28664241813637
 20
33.50233875682371
 30
0.0
 11
50.28664241813632
 21
27.94608876576441
 31
0.0
  0
LINE
  5
F9
330
F2
100
AcDbEntity
  8
치수문자_일반주서
100
AcDbLine
 10
50.28664241813632
 20
27.94608876576441
 30
0.0
 11
50.99757990370082
 21
27.9460887657644
 31
0.0
  0
LINE
  5
FA
330
F2
100
AcDbEntity
  8
치수문자_일반주서
100
AcDbLine
 10
61.82631276583813
 20
33.50233875682363
 30
0.0
 11
62.53725025140263
 21
33.50233875682363
 31
0.0
  0
LINE
  5
FB
330
F2
100
AcDbEntity
  8
치수문자_일반주서
100
AcDbLine
 10
62.53725025140263
 20
33.50233875682363
 30
0.0
 11
62.53725025140258
 21
27.94608876576432
 31
0.0
  0
LINE
  5
FC
330
F2
100
AcDbEntity
  8
치수문자_일반주서
100
AcDbLine
 10
62.53725025140258
 20
27.94608876576432
 30
0.0
 11
61.82631276583808
 21
27.94608876576432
 31
0.0
  0
LINE
  5
FD
330
F2
100
AcDbEntity
  8
치수문자_일반주서
100
AcDbLine
 10
78.91194598552357
 20
13.41913328825097
 30
0.0
 11
78.91194598552357
 21
23.70945704078098
 31
0.0
  0
LINE
  5
FE
330
F2
100
AcDbEntity
  8
치수문자_일반주서
100
AcDbLine
 10
33.91194598552359
 20
13.43021557357927
 30
0.0
 11
33.91194598552359
 21
23.70945704078098
 31
0.0
  0
LINE
  5
FF
330
F2
100
AcDbEntity
  8
치수문자_일반주서
100
AcDbLine
 10
78.91194598552357
 20
22.70945704078098
 30
0.0
 11
33.91194598552359
 21
22.70945704078098
 31
0.0
  0
MTEXT
  5
100
330
F2
100
AcDbEntity
  8
치수문자_일반주서
100
AcDbMText
 10
49.77288369264962
 20
27.2746663066427
 30
0.0
 40
3.5
 41
0.0
 71
     1
 72
     1
  1

  7
SLDTEXTSTYLE0
 73
     1
 44
1.0
  0
MTEXT
  5
101
330
F2
100
AcDbEntity
  8
치수문자_일반주서
100
AcDbMText
 10
51.88625180431223
 20
32.4578256803433
 30
0.0
 40
3.5
 41
0.0
 71
     1
 72
     1
  1
1.77
  7
SLDTEXTSTYLE0
 73
     1
 44
1.0
  0
MTEXT
  5
102
330
F2
100
AcDbEntity
  8
치수문자_일반주서
100
AcDbMText
 10
53.82583514124664
 20
27.22119412998281
 30
0.0
 40
3.5
 41
0.0
 71
     1
 72
     1
  1
45
  7
SLDTEXTSTYLE0
 73
     1
 44
1.0
  0
MTEXT
  5
103
330
F2
100
AcDbEntity
  8
치수문자_일반주서
100
AcDbMText
 10
64.3829534965432
 20
27.27466630664259
 30
0.0
 40
3.5
 41
0.0
 71
     1
 72
     1
  1

  7
SLDTEXTSTYLE0
 73
     1
 44
1.0
  0
ENDBLK
  5
F4
330
F2
100
AcDbEntity
  8
0
100
AcDbBlockEnd
  0
BLOCK
  5
106
330
105
100
AcDbEntity
  8
0
100
AcDbBlockBegin
  2
_D_3
 70
     0
 10
0.0
 20
0.0
 30
0.0
  3
_D_3
  1
_D_3
  0
SOLID
  5
108
330
105
100
AcDbEntity
  8
치수문자_일반주서
100
AcDbTrace
 10
78.91194598552357
 20
38.36394344956528
 30
0.0
 11
75.60994598552358
 21
38.87194344956529
 31
0.0
 12
75.60994598552358
 22
37.85594344956528
 32
0.0
 13
75.60994598552358
 23
37.85594344956528
 33
0.0
  0
SOLID
  5
109
330
105
100
AcDbEntity
  8
치수문자_일반주서
100
AcDbTrace
 10
-42.08805401447642
 20
38.36394344956528
 30
0.0
 11
-38.78605401447642
 21
37.85594344956527
 31
0.0
 12
-38.78605401447642
 22
38.87194344956528
 32
0.0
 13
-38.78605401447642
 23
38.87194344956528
 33
0.0
  0
LINE
  5
10A
330
105
100
AcDbEntity
  8
치수문자_일반주서
100
AcDbLine
 10
14.47912979228456
 20
49.15682516560803
 30
0.0
 11
13.76819230672006
 21
49.15682516560804
 31
0.0
  0
LINE
  5
10B
330
105
100
AcDbEntity
  8
치수문자_일반주서
100
AcDbLine
 10
13.76819230672006
 20
49.15682516560804
 30
0.0
 11
13.76819230672002
 21
43.60057517454874
 31
0.0
  0
LINE
  5
10C
330
105
100
AcDbEntity
  8
치수문자_일반주서
100
AcDbLine
 10
13.76819230672002
 20
43.60057517454874
 30
0.0
 11
14.47912979228452
 21
43.60057517454873
 31
0.0
  0
LINE
  5
10D
330
105
100
AcDbEntity
  8
치수문자_일반주서
100
AcDbLine
 10
25.30786265442182
 20
49.15682516560796
 30
0.0
 11
26.01880013998632
 21
49.15682516560796
 31
0.0
  0
LINE
  5
10E
330
105
100
AcDbEntity
  8
치수문자_일반주서
100
AcDbLine
 10
26.01880013998632
 20
49.15682516560796
 30
0.0
 11
26.01880013998629
 21
43.60057517454865
 31
0.0
  0
LINE
  5
10F
330
105
100
AcDbEntity
  8
치수문자_일반주서
100
AcDbLine
 10
26.01880013998629
 20
43.60057517454865
 30
0.0
 11
25.30786265442179
 21
43.60057517454866
 31
0.0
  0
LINE
  5
110
330
105
100
AcDbEntity
  8
치수문자_일반주서
100
AcDbLine
 10
78.91194598552357
 20
13.21639659633511
 30
0.0
 11
78.91194598552357
 21
39.36394344956528
 31
0.0
  0
LINE
  5
111
330
105
100
AcDbEntity
  8
치수문자_일반주서
100
AcDbLine
 10
-42.08805401447642
 20
7.351074928723897
 30
0.0
 11
-42.08805401447642
 21
39.36394344956528
 31
0.0
  0
LINE
  5
112
330
105
100
AcDbEntity
  8
치수문자_일반주서
100
AcDbLine
 10
78.91194598552357
 20
38.36394344956528
 30
0.0
 11
-42.08805401447642
 21
38.36394344956528
 31
0.0
  0
MTEXT
  5
113
330
105
100
AcDbEntity
  8
치수문자_일반주서
100
AcDbMText
 10
13.25443358123332
 20
42.92915271542702
 30
0.0
 40
3.5
 41
0.0
 71
     1
 72
     1
  1

  7
SLDTEXTSTYLE0
 73
     1
 44
1.0
  0
MTEXT
  5
114
330
105
100
AcDbEntity
  8
치수문자_일반주서
100
AcDbMText
 10
15.36780169289593
 20
48.11231208912763
 30
0.0
 40
3.5
 41
0.0
 71
     1
 72
     1
  1
4.76
  7
SLDTEXTSTYLE0
 73
     1
 44
1.0
  0
MTEXT
  5
115
330
105
100
AcDbEntity
  8
치수문자_일반주서
100
AcDbMText
 10
16.01432954948426
 20
42.87568053876715
 30
0.0
 40
3.5
 41
0.0
 71
     1
 72
     1
  1
121
  7
SLDTEXTSTYLE0
 73
     1
 44
1.0
  0
MTEXT
  5
116
330
105
100
AcDbEntity
  8
치수문자_일반주서
100
AcDbMText
 10
27.86450338512689
 20
42.92915271542692
 30
0.0
 40
3.5
 41
0.0
 71
     1
 72
     1
  1

  7
SLDTEXTSTYLE0
 73
     1
 44
1.0
  0
ENDBLK
  5
107
330
105
100
AcDbEntity
  8
0
100
AcDbBlockEnd
  0
BLOCK
  5
11F
330
11E
100
AcDbEntity
  8
0
100
AcDbBlockBegin
  2
SW_DOWELSYMBOL_0
 70
     0
 10
0.0
 20
0.0
 30
0.0
  3
SW_DOWELSYMBOL_0
  1
SW_DOWELSYMBOL_0
  0
CIRCLE
  5
121
330
11E
100
AcDbEntity
  8
해칭선
 62
     0
100
AcDbCircle
 10
0.0
 20
0.0
 30
0.0
 40
3.000000000000001
  0
HATCH
  5
122
330
11E
100
AcDbEntity
  8
0
  6
Continuous
 62
     0
370
     0
100
AcDbHatch
 10
0.0
 20
0.0
 30
0.0
210
0.0
220
0.0
230
1.0
  2
SOLID
 70
     1
 71
     0
 91
        1
 92
        0
 93
        3
 72
     2
 10
0.0
 20
0.0
 40
3.000000000000001
 50
0.0
 51
90.0
 73
     1
 72
     1
 10
0.0
 20
3.000000000000001
 11
0.0
 21
0.0
 72
     1
 10
0.0
 20
0.0
 11
3.000000000000001
 21
0.0
 97
        0
 75
     0
 76
     1
 98
        1
 10
0.0
 20
0.0
  0
HATCH
  5
123
330
11E
100
AcDbEntity
  8
0
  6
Continuous
 62
     0
370
     0
100
AcDbHatch
 10
0.0
 20
0.0
 30
0.0
210
0.0
220
0.0
230
1.0
  2
SOLID
 70
     1
 71
     0
 91
        1
 92
        0
 93
        3
 72
     2
 10
0.0
 20
0.0
 40
3.000000000000001
 50
180.0
 51
270.0000000000008
 73
     1
 72
     1
 10
0.0
 20
-3.000000000000001
 11
0.0
 21
0.0
 72
     1
 10
0.0
 20
0.0
 11
-3.000000000000001
 21
0.0
 97
        0
 75
     0
 76
     1
 98
        1
 10
0.0
 20
0.0
  0
ENDBLK
  5
120
330
11E
100
AcDbEntity
  8
0
100
AcDbBlockEnd
  0
BLOCK
  5
1FA
330
1F9
100
AcDbEntity
  8
0
100
AcDbBlockBegin
  2
*D8
 70
     1
 10
0.0
 20
0.0
 30
0.0
  3
*D8
  1
*D8
  0
LINE
  5
1FC
330
1F9
100
AcDbEntity
  8
치수문자_일반주서
 62
     0
370
    -2
100
AcDbLine
 10
34.41750000000014
 20
32.00400000000005
 30
0.0
 11
4.87500000000011
 21
32.00399999999993
 31
0.0
  0
LINE
  5
1FD
330
1F9
100
AcDbEntity
  8
치수문자_일반주서
 62
     0
370
    -2
100
AcDbLine
 10
22.35250000000016
 20
6.604000000000065
 30
0.0
 11
4.875000000000199
 21
6.603999999999999
 31
0.0
  0
LINE
  5
1FE
330
1F9
100
AcDbEntity
  8
치수문자_일반주서
 62
     0
370
    -2
100
AcDbLine
 10
4.87500000000011
 20
32.00399999999993
 30
0.0
 11
4.875000000000003
 21
62.60799999999998
 31
0.0
  0
LINE
  5
1FF
330
1F9
100
AcDbEntity
  8
치수문자_일반주서
 62
     0
370
    -2
100
AcDbLine
 10
4.87500000000011
 20
32.00399999999993
 30
0.0
 11
4.875000000000199
 21
6.603999999999999
 31
0.0
  0
LINE
  5
200
330
1F9
100
AcDbEntity
  8
치수문자_일반주서
 62
     0
370
    -2
100
AcDbLine
 10
4.875000000000099
 20
35.30599999999993
 30
0.0
 11
4.875000000000087
 21
38.60799999999993
 31
0.0
  0
LINE
  5
201
330
1F9
100
AcDbEntity
  8
치수문자_일반주서
 62
     0
370
    -2
100
AcDbLine
 10
4.87500000000021
 20
3.302
 30
0.0
 11
4.875000000000222
 21
0.0
 31
0.0
  0
SOLID
  5
202
330
1F9
100
AcDbEntity
  8
치수문자_일반주서
 62
     0
100
AcDbTrace
 10
4.324666666666765
 20
35.30599999999993
 30
0.0
 11
5.425333333333432
 21
35.30599999999993
 31
0.0
 12
4.87500000000011
 22
32.00399999999993
 32
0.0
 13
4.87500000000011
 23
32.00399999999993
 33
0.0
  0
SOLID
  5
203
330
1F9
100
AcDbEntity
  8
치수문자_일반주서
 62
     0
100
AcDbTrace
 10
5.425333333333544
 20
3.302000000000001
 30
0.0
 11
4.324666666666877
 21
3.301999999999998
 31
0.0
 12
4.875000000000199
 22
6.603999999999999
 32
0.0
 13
4.875000000000199
 23
6.603999999999999
 33
0.0
  0
MTEXT
  5
204
330
1F9
100
AcDbEntity
  8
치수문자_일반주서
 62
     0
100
AcDbMText
 10
0.0000000000000426
 20
51.23299999999996
 30
0.0
 40
4.0
 41
0.0
 71
     2
 72
     1
  1
\A1;%%c25.4 [1]
  7
SLDTEXTSTYLE0
 11
-3.496765431890266E-15
 21
1.0
 31
0.0
 73
     1
 44
1.0
  0
POINT
  5
205
330
1F9
100
AcDbEntity
  8
Defpoints
 62
     0
100
AcDbPoint
 10
34.48000000000014
 20
32.00400000000005
 30
0.0
  0
POINT
  5
206
330
1F9
100
AcDbEntity
  8
Defpoints
 62
     0
100
AcDbPoint
 10
22.41500000000016
 20
6.604000000000065
 30
0.0
  0
POINT
  5
207
330
1F9
100
AcDbEntity
  8
Defpoints
 62
     0
100
AcDbPoint
 10
4.875000000000199
 20
6.603999999999999
 30
0.0
  0
ENDBLK
  5
1FB
330
1F9
100
AcDbEntity
  8
0
100
AcDbBlockEnd
  0
BLOCK
  5
209
330
208
100
AcDbEntity
  8
0
100
AcDbBlockBegin
  2
*D9
 70
     1
 10
0.0
 20
0.0
 30
0.0
  3
*D9
  1
*D9
  0
LINE
  5
20B
330
208
100
AcDbEntity
  8
치수문자_일반주서
 62
     0
370
    -2
100
AcDbLine
 10
134.1750000000002
 20
31.97382239648515
 30
0.0
 11
134.1750000000002
 21
47.00400000000005
 31
0.0
  0
LINE
  5
20C
330
208
100
AcDbEntity
  8
치수문자_일반주서
 62
     0
370
    -2
100
AcDbLine
 10
83.37500000000016
 20
32.03726140992462
 30
0.0
 11
83.37500000000016
 21
47.00400000000005
 31
0.0
  0
LINE
  5
20D
330
208
100
AcDbEntity
  8
치수문자_일반주서
 62
     0
370
    -2
100
AcDbLine
 10
130.8730000000002
 20
47.00400000000005
 30
0.0
 11
86.67700000000016
 21
47.00400000000005
 31
0.0
  0
SOLID
  5
20E
330
208
100
AcDbEntity
  8
치수문자_일반주서
 62
     0
100
AcDbTrace
 10
130.8730000000002
 20
46.45366666666672
 30
0.0
 11
130.8730000000002
 21
47.55433333333339
 31
0.0
 12
134.1750000000002
 22
47.00400000000005
 32
0.0
 13
134.1750000000002
 23
47.00400000000005
 33
0.0
  0
SOLID
  5
20F
330
208
100
AcDbEntity
  8
치수문자_일반주서
 62
     0
100
AcDbTrace
 10
86.67700000000016
 20
47.55433333333339
 30
0.0
 11
86.67700000000016
 21
46.45366666666672
 31
0.0
 12
83.37500000000016
 22
47.00400000000005
 32
0.0
 13
83.37500000000016
 23
47.00400000000005
 33
0.0
  0
MTEXT
  5
210
330
208
100
AcDbEntity
  8
치수문자_일반주서
 62
     0
100
AcDbMText
 10
108.7750000000002
 20
51.87900000000005
 30
0.0
 40
4.0
 41
0.0
 71
     2
 72
     1
  1
\A1;50.8 [2]
  7
SLDTEXTSTYLE0
 73
     1
 44
1.0
  0
POINT
  5
211
330
208
100
AcDbEntity
  8
Defpoints
 62
     0
100
AcDbPoint
 10
134.1750000000002
 20
31.91132239648515
 30
0.0
  0
POINT
  5
212
330
208
100
AcDbEntity
  8
Defpoints
 62
     0
100
AcDbPoint
 10
83.37500000000016
 20
31.97476140992462
 30
0.0
  0
POINT
  5
213
330
208
100
AcDbEntity
  8
Defpoints
 62
     0
100
AcDbPoint
 10
83.37500000000016
 20
47.00400000000005
 30
0.0
  0
ENDBLK
  5
20A
330
208
100
AcDbEntity
  8
0
100
AcDbBlockEnd
  0
BLOCK
  5
215
330
214
100
AcDbEntity
  8
0
100
AcDbBlockBegin
  2
*D10
 70
     1
 10
0.0
 20
0.0
 30
0.0
  3
*D10
  1
*D10
  0
LINE
  5
217
330
214
100
AcDbEntity
  8
치수문자_일반주서
 62
     0
370
    -2
100
AcDbLine
 10
134.1750000000002
 20
31.97382239648515
 30
0.0
 11
134.1750000000002
 21
62.00400000000006
 31
0.0
  0
LINE
  5
218
330
214
100
AcDbEntity
  8
치수문자_일반주서
 62
     0
370
    -2
100
AcDbLine
 10
19.87500000000015
 20
30.16150000000005
 30
0.0
 11
19.87500000000015
 21
62.00400000000006
 31
0.0
  0
LINE
  5
219
330
214
100
AcDbEntity
  8
치수문자_일반주서
 62
     0
370
    -2
100
AcDbLine
 10
130.8730000000002
 20
62.00400000000006
 30
0.0
 11
23.17700000000015
 21
62.00400000000006
 31
0.0
  0
SOLID
  5
21A
330
214
100
AcDbEntity
  8
치수문자_일반주서
 62
     0
100
AcDbTrace
 10
130.8730000000002
 20
61.45366666666673
 30
0.0
 11
130.8730000000002
 21
62.5543333333334
 31
0.0
 12
134.1750000000002
 22
62.00400000000006
 32
0.0
 13
134.1750000000002
 23
62.00400000000006
 33
0.0
  0
SOLID
  5
21B
330
214
100
AcDbEntity
  8
치수문자_일반주서
 62
     0
100
AcDbTrace
 10
23.17700000000015
 20
62.5543333333334
 30
0.0
 11
23.17700000000015
 21
61.45366666666673
 31
0.0
 12
19.87500000000015
 22
62.00400000000006
 32
0.0
 13
19.87500000000015
 23
62.00400000000006
 33
0.0
  0
MTEXT
  5
21C
330
214
100
AcDbEntity
  8
치수문자_일반주서
 62
     0
100
AcDbMText
 10
77.02500000000018
 20
66.87900000000006
 30
0.0
 40
4.0
 41
0.0
 71
     2
 72
     1
  1
\A1;114.3 [4 1/2]
  7
SLDTEXTSTYLE0
 73
     1
 44
1.0
  0
POINT
  5
21D
330
214
100
AcDbEntity
  8
Defpoints
 62
     0
100
AcDbPoint
 10
134.1750000000002
 20
31.91132239648515
 30
0.0
  0
POINT
  5
21E
330
214
100
AcDbEntity
  8
Defpoints
 62
     0
100
AcDbPoint
 10
19.87500000000015
 20
30.09900000000005
 30
0.0
  0
POINT
  5
21F
330
214
100
AcDbEntity
  8
Defpoints
 62
     0
100
AcDbPoint
 10
19.87500000000015
 20
62.00400000000006
 30
0.0
  0
ENDBLK
  5
216
330
214
100
AcDbEntity
  8
0
100
AcDbBlockEnd
  0
BLOCK
  5
221
330
220
100
AcDbEntity
  8
0
100
AcDbBlockBegin
  2
*D11
 70
     1
 10
0.0
 20
0.0
 30
0.0
  3
*D11
  1
*D11
  0
LINE
  5
223
330
220
100
AcDbEntity
  8
치수문자_일반주서
 62
     0
370
    -2
100
AcDbLine
 10
134.2375000000002
 20
32.00400000000005
 30
0.0
 11
149.1750000000001
 21
32.00400000000011
 31
0.0
  0
LINE
  5
224
330
220
100
AcDbEntity
  8
치수문자_일반주서
 62
     0
370
    -2
100
AcDbLine
 10
134.2375000000002
 20
6.604000000000045
 30
0.0
 11
149.1750000000002
 21
6.604000000000099
 31
0.0
  0
LINE
  5
225
330
220
100
AcDbEntity
  8
치수문자_일반주서
 62
     0
370
    -2
100
AcDbLine
 10
149.1750000000001
 20
32.00400000000011
 30
0.0
 11
149.175
 21
62.60800000000012
 31
0.0
  0
LINE
  5
226
330
220
100
AcDbEntity
  8
치수문자_일반주서
 62
     0
370
    -2
100
AcDbLine
 10
149.1750000000001
 20
32.00400000000011
 30
0.0
 11
149.1750000000002
 21
6.604000000000099
 31
0.0
  0
LINE
  5
227
330
220
100
AcDbEntity
  8
치수문자_일반주서
 62
     0
370
    -2
100
AcDbLine
 10
149.1750000000001
 20
35.30600000000011
 30
0.0
 11
149.1750000000001
 21
38.60800000000011
 31
0.0
  0
LINE
  5
228
330
220
100
AcDbEntity
  8
치수문자_일반주서
 62
     0
370
    -2
100
AcDbLine
 10
149.1750000000002
 20
3.302000000000099
 30
0.0
 11
149.1750000000002
 21
0.0000000000000995
 31
0.0
  0
SOLID
  5
229
330
220
100
AcDbEntity
  8
치수문자_일반주서
 62
     0
100
AcDbTrace
 10
148.6246666666668
 20
35.30600000000011
 30
0.0
 11
149.7253333333335
 21
35.30600000000011
 31
0.0
 12
149.1750000000001
 22
32.00400000000011
 32
0.0
 13
149.1750000000001
 23
32.00400000000011
 33
0.0
  0
SOLID
  5
22A
330
220
100
AcDbEntity
  8
치수문자_일반주서
 62
     0
100
AcDbTrace
 10
149.7253333333335
 20
3.302000000000101
 30
0.0
 11
148.6246666666669
 21
3.302000000000097
 31
0.0
 12
149.1750000000002
 22
6.604000000000099
 32
0.0
 13
149.1750000000002
 23
6.604000000000099
 33
0.0
  0
MTEXT
  5
22B
330
220
100
AcDbEntity
  8
치수문자_일반주서
 62
     0
100
AcDbMText
 10
144.3000000000001
 20
51.2330000000001
 30
0.0
 40
4.0
 41
0.0
 71
     2
 72
     1
  1
\A1;%%c25.4 [1]
  7
SLDTEXTSTYLE0
 11
-3.356894814614645E-15
 21
1.0
 31
0.0
 73
     1
 44
1.0
  0
POINT
  5
22C
330
220
100
AcDbEntity
  8
Defpoints
 62
     0
100
AcDbPoint
 10
134.1750000000002
 20
32.00400000000005
 30
0.0
  0
POINT
  5
22D
330
220
100
AcDbEntity
  8
Defpoints
 62
     0
100
AcDbPoint
 10
134.1750000000002
 20
6.604000000000045
 30
0.0
  0
POINT
  5
22E
330
220
100
AcDbEntity
  8
Defpoints
 62
     0
100
AcDbPoint
 10
149.1750000000002
 20
6.604000000000101
 30
0.0
  0
ENDBLK
  5
222
330
220
100
AcDbEntity
  8
0
100
AcDbBlockEnd
  0
BLOCK
  5
276
330
275
100
AcDbEntity
  8
0
100
AcDbBlockBegin
  2
*D12
 70
     1
 10
0.0
 20
0.0
 30
0.0
  3
*D12
  1
*D12
  0
LINE
  5
278
330
275
100
AcDbEntity
  8
치수문자_일반주서
 62
     0
370
    -2
100
AcDbLine
 10
-36.95749999999372
 20
12.69999999999999
 30
0.0
 11
-66.49999999999375
 21
12.69999999999988
 31
0.0
  0
LINE
  5
279
330
275
100
AcDbEntity
  8
치수문자_일반주서
 62
     0
370
    -2
100
AcDbLine
 10
-49.0224999999937
 20
-12.69999999999999
 30
0.0
 11
-66.49999999999366
 21
-12.70000000000006
 31
0.0
  0
LINE
  5
27A
330
275
100
AcDbEntity
  8
치수문자_일반주서
 62
     0
370
    -2
100
AcDbLine
 10
-66.49999999999375
 20
12.69999999999988
 30
0.0
 11
-66.49999999999386
 21
43.30399999999992
 31
0.0
  0
LINE
  5
27B
330
275
100
AcDbEntity
  8
치수문자_일반주서
 62
     0
370
    -2
100
AcDbLine
 10
-66.49999999999375
 20
12.69999999999988
 30
0.0
 11
-66.49999999999366
 21
-12.70000000000006
 31
0.0
  0
LINE
  5
27C
330
275
100
AcDbEntity
  8
치수문자_일반주서
 62
     0
370
    -2
100
AcDbLine
 10
-66.49999999999376
 20
16.00199999999988
 30
0.0
 11
-66.49999999999378
 21
19.30399999999988
 31
0.0
  0
LINE
  5
27D
330
275
100
AcDbEntity
  8
치수문자_일반주서
 62
     0
370
    -2
100
AcDbLine
 10
-66.49999999999365
 20
-16.00200000000006
 30
0.0
 11
-66.49999999999363
 21
-19.30400000000006
 31
0.0
  0
SOLID
  5
27E
330
275
100
AcDbEntity
  8
치수문자_일반주서
 62
     0
100
AcDbTrace
 10
-67.05033333332709
 20
16.00199999999988
 30
0.0
 11
-65.94966666666043
 21
16.00199999999989
 31
0.0
 12
-66.49999999999375
 22
12.69999999999988
 32
0.0
 13
-66.49999999999375
 23
12.69999999999988
 33
0.0
  0
SOLID
  5
27F
330
275
100
AcDbEntity
  8
치수문자_일반주서
 62
     0
100
AcDbTrace
 10
-65.94966666666032
 20
-16.00200000000005
 30
0.0
 11
-67.05033333332698
 21
-16.00200000000006
 31
0.0
 12
-66.49999999999366
 22
-12.70000000000006
 32
0.0
 13
-66.49999999999366
 23
-12.70000000000006
 33
0.0
  0
MTEXT
  5
280
330
275
100
AcDbEntity
  8
치수문자_일반주서
 62
     0
100
AcDbMText
 10
-71.37499999999382
 20
31.9289999999999
 30
0.0
 40
4.0
 41
0.0
 71
     2
 72
     1
  1
\A1;%%c25.4 [1]
  7
SLDTEXTSTYLE0
 11
-3.356894814614655E-15
 21
1.0
 31
0.0
 73
     1
 44
1.0
  0
POINT
  5
281
330
275
100
AcDbEntity
  8
Defpoints
 62
     0
100
AcDbPoint
 10
-36.89499999999372
 20
12.69999999999999
 30
0.0
  0
POINT
  5
282
330
275
100
AcDbEntity
  8
Defpoints
 62
     0
100
AcDbPoint
 10
-48.9599999999937
 20
-12.69999999999999
 30
0.0
  0
POINT
  5
283
330
275
100
AcDbEntity
  8
Defpoints
 62
     0
100
AcDbPoint
 10
-66.49999999999366
 20
-12.70000000000006
 30
0.0
  0
ENDBLK
  5
277
330
275
100
AcDbEntity
  8
0
100
AcDbBlockEnd
  0
BLOCK
  5
285
330
284
100
AcDbEntity
  8
0
100
AcDbBlockBegin
  2
*D13
 70
     1
 10
0.0
 20
0.0
 30
0.0
  3
*D13
  1
*D13
  0
LINE
  5
287
330
284
100
AcDbEntity
  8
치수문자_일반주서
 62
     0
370
    -2
100
AcDbLine
 10
62.80000000000629
 20
12.66982239648509
 30
0.0
 11
62.80000000000629
 21
27.7
 31
0.0
  0
LINE
  5
288
330
284
100
AcDbEntity
  8
치수문자_일반주서
 62
     0
370
    -2
100
AcDbLine
 10
12.0000000000063
 20
12.73326140992456
 30
0.0
 11
12.0000000000063
 21
27.7
 31
0.0
  0
LINE
  5
289
330
284
100
AcDbEntity
  8
치수문자_일반주서
 62
     0
370
    -2
100
AcDbLine
 10
59.49800000000629
 20
27.7
 30
0.0
 11
15.3020000000063
 21
27.7
 31
0.0
  0
SOLID
  5
28A
330
284
100
AcDbEntity
  8
치수문자_일반주서
 62
     0
100
AcDbTrace
 10
59.49800000000629
 20
27.14966666666666
 30
0.0
 11
59.49800000000629
 21
28.25033333333333
 31
0.0
 12
62.80000000000629
 22
27.7
 32
0.0
 13
62.80000000000629
 23
27.7
 33
0.0
  0
SOLID
  5
28B
330
284
100
AcDbEntity
  8
치수문자_일반주서
 62
     0
100
AcDbTrace
 10
15.3020000000063
 20
28.25033333333333
 30
0.0
 11
15.3020000000063
 21
27.14966666666666
 31
0.0
 12
12.0000000000063
 22
27.7
 32
0.0
 13
12.0000000000063
 23
27.7
 33
0.0
  0
MTEXT
  5
28C
330
284
100
AcDbEntity
  8
치수문자_일반주서
 62
     0
100
AcDbMText
 10
37.40000000000633
 20
32.575
 30
0.0
 40
4.0
 41
0.0
 71
     2
 72
     1
  1
\A1;50.8 [2]
  7
SLDTEXTSTYLE0
 73
     1
 44
1.0
  0
POINT
  5
28D
330
284
100
AcDbEntity
  8
Defpoints
 62
     0
100
AcDbPoint
 10
62.80000000000629
 20
12.60732239648509
 30
0.0
  0
POINT
  5
28E
330
284
100
AcDbEntity
  8
Defpoints
 62
     0
100
AcDbPoint
 10
12.0000000000063
 20
12.67076140992456
 30
0.0
  0
POINT
  5
28F
330
284
100
AcDbEntity
  8
Defpoints
 62
     0
100
AcDbPoint
 10
12.0000000000063
 20
27.7
 30
0.0
  0
ENDBLK
  5
286
330
284
100
AcDbEntity
  8
0
100
AcDbBlockEnd
  0
BLOCK
  5
291
330
290
100
AcDbEntity
  8
0
100
AcDbBlockBegin
  2
*D14
 70
     1
 10
0.0
 20
0.0
 30
0.0
  3
*D14
  1
*D14
  0
LINE
  5
293
330
290
100
AcDbEntity
  8
치수문자_일반주서
 62
     0
370
    -2
100
AcDbLine
 10
62.80000000000629
 20
12.66982239648509
 30
0.0
 11
62.8000000000063
 21
42.7
 31
0.0
  0
LINE
  5
294
330
290
100
AcDbEntity
  8
치수문자_일반주서
 62
     0
370
    -2
100
AcDbLine
 10
-51.49999999999371
 20
10.85749999999999
 30
0.0
 11
-51.4999999999937
 21
42.7
 31
0.0
  0
LINE
  5
295
330
290
100
AcDbEntity
  8
치수문자_일반주서
 62
     0
370
    -2
100
AcDbLine
 10
59.4980000000063
 20
42.7
 30
0.0
 11
-48.1979999999937
 21
42.7
 31
0.0
  0
SOLID
  5
296
330
290
100
AcDbEntity
  8
치수문자_일반주서
 62
     0
100
AcDbTrace
 10
59.4980000000063
 20
42.14966666666667
 30
0.0
 11
59.4980000000063
 21
43.25033333333334
 31
0.0
 12
62.8000000000063
 22
42.7
 32
0.0
 13
62.8000000000063
 23
42.7
 33
0.0
  0
SOLID
  5
297
330
290
100
AcDbEntity
  8
치수문자_일반주서
 62
     0
100
AcDbTrace
 10
-48.1979999999937
 20
43.25033333333334
 30
0.0
 11
-48.1979999999937
 21
42.14966666666667
 31
0.0
 12
-51.4999999999937
 22
42.7
 32
0.0
 13
-51.4999999999937
 23
42.7
 33
0.0
  0
MTEXT
  5
298
330
290
100
AcDbEntity
  8
치수문자_일반주서
 62
     0
100
AcDbMText
 10
5.650000000006315
 20
47.575
 30
0.0
 40
4.0
 41
0.0
 71
     2
 72
     1
  1
\A1;114.3 [4 1/2]
  7
SLDTEXTSTYLE0
 73
     1
 44
1.0
  0
POINT
  5
299
330
290
100
AcDbEntity
  8
Defpoints
 62
     0
100
AcDbPoint
 10
62.80000000000629
 20
12.60732239648509
 30
0.0
  0
POINT
  5
29A
330
290
100
AcDbEntity
  8
Defpoints
 62
     0
100
AcDbPoint
 10
-51.49999999999371
 20
10.79499999999999
 30
0.0
  0
POINT
  5
29B
330
290
100
AcDbEntity
  8
Defpoints
 62
     0
100
AcDbPoint
 10
-51.49999999999371
 20
42.7
 30
0.0
  0
ENDBLK
  5
292
330
290
100
AcDbEntity
  8
0
100
AcDbBlockEnd
  0
BLOCK
  5
29D
330
29C
100
AcDbEntity
  8
0
100
AcDbBlockBegin
  2
*D15
 70
     1
 10
0.0
 20
0.0
 30
0.0
  3
*D15
  1
*D15
  0
LINE
  5
29F
330
29C
100
AcDbEntity
  8
치수문자_일반주서
 62
     0
370
    -2
100
AcDbLine
 10
62.86250000000629
 20
14.28750000000011
 30
0.0
 11
77.80000000000626
 21
14.28750000000017
 31
0.0
  0
LINE
  5
2A0
330
29C
100
AcDbEntity
  8
치수문자_일반주서
 62
     0
370
    -2
100
AcDbLine
 10
62.86250000000629
 20
-14.28750000000003
 30
0.0
 11
77.80000000000636
 21
-14.28749999999997
 31
0.0
  0
LINE
  5
2A1
330
29C
100
AcDbEntity
  8
치수문자_일반주서
 62
     0
370
    -2
100
AcDbLine
 10
77.80000000000626
 20
14.28750000000017
 30
0.0
 11
77.80000000000611
 21
58.64150000000017
 31
0.0
  0
LINE
  5
2A2
330
29C
100
AcDbEntity
  8
치수문자_일반주서
 62
     0
370
    -2
100
AcDbLine
 10
77.80000000000626
 20
14.28750000000017
 30
0.0
 11
77.80000000000636
 21
-14.28749999999997
 31
0.0
  0
LINE
  5
2A3
330
29C
100
AcDbEntity
  8
치수문자_일반주서
 62
     0
370
    -2
100
AcDbLine
 10
77.80000000000625
 20
17.58950000000017
 30
0.0
 11
77.80000000000624
 21
20.89150000000017
 31
0.0
  0
LINE
  5
2A4
330
29C
100
AcDbEntity
  8
치수문자_일반주서
 62
     0
370
    -2
100
AcDbLine
 10
77.80000000000638
 20
-17.58949999999997
 30
0.0
 11
77.80000000000639
 21
-20.89149999999997
 31
0.0
  0
SOLID
  5
2A5
330
29C
100
AcDbEntity
  8
치수문자_일반주서
 62
     0
100
AcDbTrace
 10
77.24966666667292
 20
17.58950000000016
 30
0.0
 11
78.35033333333958
 21
17.58950000000017
 31
0.0
 12
77.80000000000626
 22
14.28750000000017
 32
0.0
 13
77.80000000000626
 23
14.28750000000017
 33
0.0
  0
SOLID
  5
2A6
330
29C
100
AcDbEntity
  8
치수문자_일반주서
 62
     0
100
AcDbTrace
 10
78.3503333333397
 20
-17.58949999999997
 30
0.0
 11
77.24966666667305
 21
-17.58949999999998
 31
0.0
 12
77.80000000000636
 22
-14.28749999999997
 32
0.0
 13
77.80000000000636
 23
-14.28749999999997
 33
0.0
  0
MTEXT
  5
2A7
330
29C
100
AcDbEntity
  8
치수문자_일반주서
 62
     0
100
AcDbMText
 10
72.92500000000618
 20
40.26650000000016
 30
0.0
 40
4.0
 41
0.0
 71
     2
 72
     1
  1
\A1;%%c28.58 [1 1/8]
  7
SLDTEXTSTYLE0
 11
-3.481224252192950E-15
 21
1.0
 31
0.0
 73
     1
 44
1.0
  0
POINT
  5
2A8
330
29C
100
AcDbEntity
  8
Defpoints
 62
     0
100
AcDbPoint
 10
62.80000000000629
 20
14.28750000000011
 30
0.0
  0
POINT
  5
2A9
330
29C
100
AcDbEntity
  8
Defpoints
 62
     0
100
AcDbPoint
 10
62.80000000000629
 20
-14.28750000000003
 30
0.0
  0
POINT
  5
2AA
330
29C
100
AcDbEntity
  8
Defpoints
 62
     0
100
AcDbPoint
 10
77.80000000000636
 20
-14.28749999999997
 30
0.0
  0
ENDBLK
  5
29E
330
29C
100
AcDbEntity
  8
0
100
AcDbBlockEnd
  0
ENDSEC
  0
SECTION
  2
ENTITIES
  0
LINE
  5
BD
330
1F
100
AcDbEntity
  8
참조1
100
AcDbLine
 10
18.41194598552359
 20
0.0010749287238892
 30
0.0
 11
18.4119459855236
 21
-39.99892507127611
 31
0.0
  0
LINE
  5
BE
330
1F
100
AcDbEntity
  8
참조1
100
AcDbLine
 10
18.4119459855236
 20
-39.99892507127611
 30
0.0
 11
3.253089171214916
 21
-39.9989250712761
 31
0.0
  0
INSERT
  5
C0
330
1F
100
AcDbEntity
  8
0
  6
Continuous
 62
     7
100
AcDbBlockReference
 66
     1
  2
블럭10
 10
4.471673053398387
 20
-52.04609937292004
 30
0.0
  0
ATTRIB
  5
C1
330
C0
100
AcDbEntity
  8
FORMAT
 62
     2
100
AcDbText
 10
-4.709622235342893
 20
-49.97073246008785
 30
0.0
 40
4.233333333333333
  1
E1042108 [ 6 FLUTE ]
 41
0.75
  7
SLDTEXTSTYLE0
 11
-4.709622235342893
 21
-52.08739912675452
 31
0.0
100
AcDbAttribute
  2
AUTOATTR0
 70
     0
 74
     1
  0
SEQEND
  5
C2
330
C0
100
AcDbEntity
  8
0
  6
Continuous
 62
     7
  0
HATCH
  5
C3
330
1F
100
AcDbEntity
  8
중심선
100
AcDbHatch
 10
0.0
 20
0.0
 30
0.0
210
0.0
220
0.0
230
1.0
  2
SOLID
 70
     1
 71
     0
 91
        1
 92
        0
 93
        4
 72
     1
 10
10.18658235777922
 20
-35.7989250712761
 11
6.74030711394194
 21
-35.7989250712761
 72
     1
 10
6.74030711394194
 20
-35.7989250712761
 11
4.612077254737917
 21
-38.3352506518487
 72
     1
 10
4.612077254737917
 20
-38.3352506518487
 11
8.058385583688349
 21
-38.33521122254621
 72
     1
 10
8.058385583688349
 20
-38.33521122254621
 11
10.18658235777922
 21
-35.7989250712761
 97
        0
 75
     0
 76
     1
 98
        1
 10
0.0
 20
0.0
  0
HATCH
  5
C4
330
1F
100
AcDbEntity
  8
중심선
100
AcDbHatch
 10
0.0
 20
0.0
 30
0.0
210
0.0
220
0.0
230
1.0
  2
SOLID
 70
     1
 71
     0
 91
        1
 92
        0
 93
        4
 72
     1
 10
15.1993463488152
 20
-35.7989250712761
 11
11.75307110497792
 21
-35.7989250712761
 72
     1
 10
11.75307110497792
 20
-35.7989250712761
 11
7.221933096620504
 21
-41.19892507127612
 72
     1
 10
7.221933096620504
 20
-41.19892507127612
 11
10.66820834045778
 21
-41.19892507127612
 72
     1
 10
10.66820834045778
 20
-41.19892507127612
 11
15.1993463488152
 21
-35.7989250712761
 97
        0
 75
     0
 76
     1
 98
        1
 10
0.0
 20
0.0
  0
HATCH
  5
C5
330
1F
100
AcDbEntity
  8
중심선
100
AcDbHatch
 10
0.0
 20
0.0
 30
0.0
210
0.0
220
0.0
230
1.0
  2
SOLID
 70
     1
 71
     0
 91
        1
 92
        0
 93
        4
 72
     1
 10
20.21211033985107
 20
-35.7989250712761
 11
16.76583509601396
 21
-35.7989250712761
 72
     1
 10
16.76583509601396
 20
-35.7989250712761
 11
9.717398194124705
 21
-44.19892507127612
 72
     1
 10
9.717398194124705
 20
-44.19892507127612
 11
13.16367343796199
 21
-44.19892507127612
 72
     1
 10
13.16367343796199
 20
-44.19892507127612
 11
20.21211033985107
 21
-35.7989250712761
 97
        0
 75
     0
 76
     1
 98
        1
 10
0.0
 20
0.0
  0
HATCH
  5
C6
330
1F
100
AcDbEntity
  8
중심선
100
AcDbHatch
 10
0.0
 20
0.0
 30
0.0
210
0.0
220
0.0
230
1.0
  2
SOLID
 70
     1
 71
     0
 91
        1
 92
        0
 93
        6
 72
     3
 10
25.01200077086327
 20
-39.99892507132738
 11
3.960054785062284
 21
1.540850780301639E-10
 40
0.3939339440162633
 50
17.09539180608432
 51
320.0019657685075
 73
     0
 72
     1
 10
26.69500042656387
 20
-38.58681907591438
 11
29.0003023002649
 21
-36.65249236586649
 72
     3
 10
25.01200077081042
 20
-39.99892507127625
 11
6.600054785286829
 21
-1.249000902703301E-13
 40
0.6363583540795982
 50
39.99873849337406
 51
368.4976242363725
 73
     1
 72
     1
 10
31.43733326271103
 20
-39.03892507120613
 11
23.69206807764634
 21
-39.0389250712061
 72
     1
 10
23.69206807764634
 20
-39.0389250712061
 11
23.69204303320041
 21
-40.95892507120602
 72
     1
 10
23.69204303320041
 20
-40.95892507120602
 11
28.13342280267245
 21
-40.95892507120599
 97
        0
 75
     0
 76
     1
 98
        1
 10
0.0
 20
0.0
  0
LINE
  5
117
330
1F
100
AcDbEntity
  8
참조1
100
AcDbLine
 10
101.2254298008692
 20
7.441074928723896
 30
0.0
 11
101.2254298008692
 21
-7.438925071276109
 31
0.0
  0
LINE
  5
118
330
1F
100
AcDbEntity
  8
참조1
100
AcDbLine
 10
113.9254298008692
 20
5.441074928723896
 30
0.0
 11
101.2254298008692
 21
5.441074928723896
 31
0.0
  0
SOLID
  5
119
330
1F
100
AcDbEntity
  8
참조1
100
AcDbTrace
 10
101.2254298008692
 20
5.441074928723896
 30
0.0
 11
107.5754298008692
 21
4.425074928723896
 31
0.0
 12
107.5754298008692
 22
6.457074928723896
 32
0.0
 13
107.5754298008692
 23
6.457074928723896
 33
0.0
  0
LINE
  5
11A
330
1F
100
AcDbEntity
  8
참조1
100
AcDbLine
 10
113.9254298008692
 20
-5.438925071276109
 30
0.0
 11
101.2254298008692
 21
-5.438925071276109
 31
0.0
  0
SOLID
  5
11B
330
1F
100
AcDbEntity
  8
참조1
100
AcDbTrace
 10
101.2254298008692
 20
-5.438925071276109
 30
0.0
 11
107.5754298008692
 21
-6.454925071276109
 31
0.0
 12
107.5754298008692
 22
-4.422925071276109
 32
0.0
 13
107.5754298008692
 23
-4.422925071276109
 33
0.0
  0
MTEXT
  5
11C
330
1F
100
AcDbEntity
  8
참조1
100
AcDbMText
 10
110.6229198933395
 20
10.98929157337383
 30
0.0
 40
3.5
 41
0.0
 71
     1
 72
     1
  1
A
  7
SLDTEXTSTYLE0
 73
     1
 44
1.0
  0
MTEXT
  5
11D
330
1F
100
AcDbEntity
  8
참조1
100
AcDbMText
 10
110.6229198933395
 20
0.1092915733738259
 30
0.0
 40
3.5
 41
0.0
 71
     1
 72
     1
  1
A
  7
SLDTEXTSTYLE0
 73
     1
 44
1.0
  0
LINE
  5
230
330
1F
100
AcDbEntity
  8
0
  6
Continuous
 62
     1
370
    15
100
AcDbLine
 10
44.88246601316673
 20
-2.780704587562288
 30
0.0
 11
44.96188251995399
 21
-2.857532062941947
 31
0.0
1001
PE_URL
1000

  0
LINE
  5
231
330
1F
100
AcDbEntity
  8
0
  6
Continuous
 62
     1
370
    15
100
AcDbLine
 10
34.6033541573368
 20
14.28749999999999
 30
0.0
 11
31.15000637836606
 21
14.28749999999999
 31
0.0
1001
PE_URL
1000

  0
LINE
  5
232
330
1F
100
AcDbEntity
  8
0
  6
Continuous
 62
     1
370
    15
100
AcDbLine
 10
31.15000637836599
 20
-14.28750000000003
 30
0.0
 11
34.6033541573367
 21
-14.28750000000003
 31
0.0
1001
PE_URL
1000

  0
LINE
  5
233
330
1F
100
AcDbEntity
  8
0
  6
Continuous
 62
     1
370
    15
100
AcDbLine
 10
61.07184808068359
 20
-14.28750000000003
 30
0.0
 11
62.80000000000629
 21
-14.28750000000003
 31
0.0
1001
PE_URL
1000

  0
LINE
  5
234
330
1F
100
AcDbEntity
  8
0
  6
Continuous
 62
     1
370
    15
100
AcDbLine
 10
19.64079638714296
 20
14.28749999999999
 30
0.0
 11
12.0000000000063
 21
14.28750000000011
 31
0.0
1001
PE_URL
1000

  0
LINE
  5
235
330
1F
100
AcDbEntity
  8
0
  6
Continuous
 62
     1
370
    15
100
AcDbLine
 10
46.11063465525143
 20
-14.28750000000003
 30
0.0
 11
49.56596794987985
 21
-14.28750000000003
 31
0.0
1001
PE_URL
1000

  0
LINE
  5
236
330
1F
100
AcDbEntity
  8
0
  6
Continuous
 62
     1
370
    15
100
AcDbLine
 10
49.56596794987985
 20
14.28749999999999
 30
0.0
 11
46.11063465525151
 21
14.28749999999999
 31
0.0
1001
PE_URL
1000

  0
LINE
  5
237
330
1F
100
AcDbEntity
  8
0
  6
Continuous
 62
     1
370
    15
100
AcDbLine
 10
12.0000000000063
 20
-14.28749999999989
 30
0.0
 11
19.64079638714285
 21
-14.28750000000003
 31
0.0
1001
PE_URL
1000

  0
LINE
  5
238
330
1F
100
AcDbEntity
  8
0
  6
Continuous
 62
     1
370
    15
100
AcDbLine
 10
62.80000000000629
 20
14.28749999999999
 30
0.0
 11
61.07184808068359
 21
14.28749999999999
 31
0.0
1001
PE_URL
1000

  0
LINE
  5
239
330
1F
100
AcDbEntity
  8
외형선
  6
Continuous
370
    15
100
AcDbLine
 10
-48.95999999999371
 20
-12.70000000000001
 30
0.0
 11
12.0000000000063
 21
-12.70000000000001
 31
0.0
  0
LINE
  5
23A
330
1F
100
AcDbEntity
  8
외형선
  6
Continuous
370
    15
100
AcDbLine
 10
12.0000000000063
 20
12.7
 30
0.0
 11
-14.06992499999369
 21
12.7
 31
0.0
1001
PE_URL
1000

  0
LINE
  5
23B
330
1F
100
AcDbEntity
  8
외형선
  6
Continuous
370
    15
100
AcDbLine
 10
-51.49999999999371
 20
-10.16000000000001
 30
0.0
 11
-48.95999999999371
 21
-12.70000000000001
 31
0.0
  0
SPLINE
  5
23C
330
1F
100
AcDbEntity
  8
0
  6
Continuous
 62
     1
370
    15
100
AcDbSpline
210
0.0
220
0.0
230
1.0
 70
     8
 71
     3
 72
    29
 73
    25
 74
     0
 42
0.000000001
 43
0.00000001
 40
0.1278470861304215
 40
0.1278470861304215
 40
0.1278470861304215
 40
0.1278470861304215
 40
0.1353244929585533
 40
0.1804588028633548
 40
0.2255652725685298
 40
0.2706609762620706
 40
0.3125531969233666
 40
0.3544844348382108
 40
0.3963857552193051
 40
0.4382658175467911
 40
0.4801621491503329
 40
0.5220942883752421
 40
0.5639908716205716
 40
0.6058709170168755
 40
0.6477719520780519
 40
0.6897032870041256
 40
0.7315957255856709
 40
0.7734763493777799
 40
0.8153826796008085
 40
0.8573115047905489
 40
0.8992003918953777
 40
0.9410821893103524
 40
0.9829944054866704
 40
1.0
 40
1.0
 40
1.0
 40
1.0
 10
12.00000000000631
 20
12.45231119338217
 30
0.0
 10
12.12383555168925
 20
12.39177753449096
 30
0.0
 10
12.99516813596847
 20
11.95595081669657
 30
0.0
 10
14.61369256652131
 20
11.01649521441253
 30
0.0
 10
16.85416283814595
 20
9.446073526316805
 30
0.0
 10
19.04097046701533
 20
7.68631504474545
 30
0.0
 10
21.1747408876206
 20
5.796620415118207
 30
0.0
 10
23.25757161119603
 20
3.832588147237938
 30
0.0
 10
25.33873072411994
 20
1.786242055780203
 30
0.0
 10
27.41880741561842
 20
-0.2978981813340056
 30
0.0
 10
29.49971043775196
 20
-2.375906080180819
 30
0.0
 10
31.58255571363279
 20
-4.402248812556728
 30
0.0
 10
33.66347263317074
 20
-6.336678396612226
 30
0.0
 10
35.74354596174765
 20
-8.136685299192811
 30
0.0
 10
37.82469924113996
 20
-9.764350840983504
 30
0.0
 10
39.90750018436479
 20
-11.18436731288899
 30
0.0
 10
41.98820013855269
 20
-12.36844889790945
 30
0.0
 10
44.068302674904
 20
-13.29024493223557
 30
0.0
 10
46.14974036099146
 20
-13.93076071364729
 30
0.0
 10
48.23240217003807
 20
-14.27486401498121
 30
0.0
 10
50.31292478477611
 20
-14.32137271257711
 30
0.0
 10
52.39306763443793
 20
-14.04730317417636
 30
0.0
 10
54.06225085809405
 20
-13.64024993979007
 30
0.0
 10
55.03798367944045
 20
-13.22944738502973
 30
0.0
 10
55.31961187503939
 20
-13.11087641999347
 30
0.0
1001
PE_URL
1000

  0
SPLINE
  5
23D
330
1F
100
AcDbEntity
  8
0
  6
Continuous
 62
     1
370
    15
100
AcDbSpline
210
0.0
220
0.0
230
1.0
 70
     8
 71
     3
 72
    30
 73
    26
 74
     0
 42
0.000000001
 43
0.00000001
 40
0.0
 40
0.0
 40
0.0
 40
0.0
 40
0.0069957427474156
 40
0.0480780149304182
 40
0.0891626052647702
 40
0.1302851366952333
 40
0.1713955108738117
 40
0.2124760482464426
 40
0.253563539672792
 40
0.2946902051100725
 40
0.3357948059422572
 40
0.3768741921451447
 40
0.4179651671032655
 40
0.4590942942619535
 40
0.5001937012364768
 40
0.5412725201091169
 40
0.5823675604375417
 40
0.6234974765076522
 40
0.6645922700085645
 40
0.7056711054884681
 40
0.746770792324322
 40
0.787899824327747
 40
0.8289905855347521
 40
0.873223542458068
 40
0.8936435255594345
 40
0.8936435255594345
 40
0.8936435255594345
 40
0.8936435255594345
 10
61.07184808068359
 20
-14.2661105942644
 30
0.0
 10
60.95373800021613
 20
-14.27288886458449
 30
0.0
 10
60.14203030638393
 20
-14.31947230731788
 30
0.0
 10
58.63768698188176
 20
-14.11299413670139
 30
0.0
 10
56.55725782308835
 20
-13.63215829275266
 30
0.0
 10
54.47484195019135
 20
-12.83514760065156
 30
0.0
 10
52.39308193060694
 20
-11.77359554343803
 30
0.0
 10
50.31292095469935
 20
-10.46040749350611
 30
0.0
 10
48.23240319748666
 20
-8.92596054073246
 30
0.0
 10
46.14974008573564
 20
-7.203374124078787
 30
0.0
 10
44.0683027485907
 20
-5.327495285263189
 30
0.0
 10
41.9882001188075
 20
-3.33861412342086
 30
0.0
 10
39.90750018966308
 20
-1.27877662888464
 30
0.0
 10
37.82469923971597
 20
0.8067401655184621
 30
0.0
 10
35.74354596214725
 20
2.876392258435983
 30
0.0
 10
33.66347263299502
 20
4.885042755611186
 30
0.0
 10
31.58255571393621
 20
6.790350531818024
 30
0.0
 10
29.49971043671359
 20
8.550669109058855
 30
0.0
 10
27.41880741946368
 20
10.13102982839663
 30
0.0
 10
25.33873070977894
 20
11.49661080330415
 30
0.0
 10
23.25757166476258
 20
12.61860491198623
 30
0.0
 10
21.1747406876312
 20
13.47298525018218
 30
0.0
 10
19.04097123668907
 20
14.05655809422974
 30
0.0
 10
17.2562488604322
 20
14.28137966800537
 30
0.0
 10
16.16505879318701
 20
14.29054919508139
 30
0.0
 10
15.82039819357462
 20
14.28134806232608
 30
0.0
1001
PE_URL
1000

  0
LINE
  5
23E
330
1F
100
AcDbEntity
  8
0
  6
Continuous
 62
     1
370
    15
100
AcDbLine
 10
62.80000000000629
 20
-14.18323769604574
 30
0.0
 11
62.80000000000629
 21
-8.571764625960977
 31
0.0
1001
PE_URL
1000

  0
SPLINE
  5
23F
330
1F
100
AcDbEntity
  8
0
  6
Continuous
 62
     1
370
    15
100
AcDbSpline
210
0.0
220
0.0
230
1.0
 70
     8
 71
     3
 72
    28
 73
    24
 74
     0
 42
0.000000001
 43
0.00000001
 40
0.0
 40
0.0
 40
0.0
 40
0.0
 40
0.0355383131885413
 40
0.0837942395790062
 40
0.132015735831507
 40
0.1802127675768494
 40
0.2284285225707008
 40
0.2766854862201239
 40
0.3249015308120935
 40
0.3730985430724428
 40
0.4213197109688626
 40
0.4695757490032232
 40
0.5177870237720148
 40
0.5659847016703654
 40
0.6142119634231383
 40
0.662465113165672
 40
0.7106723007715863
 40
0.7588713293159334
 40
0.8071053648283851
 40
0.855353664217799
 40
0.9035574480265649
 40
0.9517585119915748
 40
1.0
 40
1.0
 40
1.0
 40
1.0
 10
19.64079638714294
 20
14.25815723889049
 30
0.0
 10
20.15193953099275
 20
14.25397623019503
 30
0.0
 10
21.3571416695322
 20
14.24411801203901
 30
0.0
 10
23.25757957774034
 20
13.87520083272601
 30
0.0
 10
25.33872859137114
 20
13.21528708711144
 30
0.0
 10
27.41880798719815
 20
12.2650870629407
 30
0.0
 10
29.49971028441505
 20
11.05767558324677
 30
0.0
 10
31.58255575472278
 20
9.616254764238581
 30
0.0
 10
33.66347262206924
 20
7.970395070038521
 30
0.0
 10
35.74354596509816
 20
6.155746418261004
 30
0.0
 10
37.82469923884118
 20
4.210634899812939
 30
0.0
 10
39.90750019020828
 20
2.177529313055637
 30
0.0
 10
41.98820011750249
 20
0.0969239691644743
 30
0.0
 10
44.06830275326597
 20
-1.985515716550649
 30
0.0
 10
46.14974006832364
 20
-4.025753541891922
 30
0.0
 10
48.23240326246675
 20
-5.979860222086186
 30
0.0
 10
50.31292071247339
 20
-7.808497583023723
 30
0.0
 10
52.39308283474003
 20
-9.471619789573298
 30
0.0
 10
54.4748385727442
 20
-10.9333772559601
 30
0.0
 10
56.55727042682743
 20
-12.16484593716461
 30
0.0
 10
58.63763999406112
 20
-13.13348679509005
 30
0.0
 10
60.71789183401714
 20
-13.84532123372072
 30
0.0
 10
62.1057700342519
 20
-14.07056740451153
 30
0.0
 10
62.80000000000632
 20
-14.18323769604574
 30
0.0
1001
PE_URL
1000

  0
SPLINE
  5
240
330
1F
100
AcDbEntity
  8
0
  6
Continuous
 62
     1
370
    15
100
AcDbSpline
210
0.0
220
0.0
230
1.0
 70
     8
 71
     3
 72
    25
 73
    21
 74
     0
 42
0.000000001
 43
0.00000001
 40
0.0
 40
0.0
 40
0.0
 40
0.0
 40
0.0556637349421874
 40
0.1112808263555195
 40
0.1669010560771449
 40
0.2225726503727973
 40
0.2782277862070873
 40
0.3338425290378822
 40
0.3894666862515924
 40
0.4451438771567518
 40
0.5007911970471546
 40
0.5564043814268355
 40
0.6120332546383392
 40
0.6677137782166268
 40
0.7233540666737375
 40
0.778966483002954
 40
0.834600859904001
 40
0.8902824515088699
 40
0.9459164942553632
 40
0.9999999999999999
 40
0.9999999999999999
 40
0.9999999999999999
 40
0.9999999999999999
 10
62.80000000000632
 20
-8.583704144043317
 30
0.0
 10
62.10577003425195
 20
-8.011514993337272
 30
0.0
 10
60.71789183401714
 20
-6.867616158874168
 30
0.0
 10
58.63763999406112
 20
-4.956697964847824
 30
0.0
 10
56.55727042682756
 20
-2.95370705834263
 30
0.0
 10
54.47483857274343
 20
-0.8857446442710852
 30
0.0
 10
52.393082834743
 20
1.200564985419454
 30
0.0
 10
50.31292071246246
 20
3.262105534903953
 30
0.0
 10
48.23240326250773
 20
5.254634053497811
 30
0.0
 10
46.14974006817029
 20
7.134676207498311
 30
0.0
 10
44.06830275383759
 20
8.864462630067838
 30
0.0
 10
41.98820011537034
 20
10.40655965207901
 30
0.0
 10
39.90750019817135
 20
11.72830207110803
 30
0.0
 10
37.82469920910128
 20
12.80084935625033
 30
0.0
 10
35.74354607597262
 20
13.6030117955404
 30
0.0
 10
33.66347220843294
 20
14.11653473016632
 30
0.0
 10
31.58255729969532
 20
14.33251664271443
 30
0.0
 10
29.49970451520276
 20
14.2392279318016
 30
0.0
 10
27.43788871212571
 20
13.86910824317158
 30
0.0
 10
26.07030196433599
 20
13.38125756265714
 30
0.0
 10
25.39617201203984
 20
13.14077939444268
 30
0.0
1001
PE_URL
1000

  0
SPLINE
  5
241
330
1F
100
AcDbEntity
  8
0
  6
Continuous
 62
     1
370
    15
100
AcDbSpline
210
0.0
220
0.0
230
1.0
 70
     8
 71
     3
 72
    15
 73
    11
 74
     0
 42
0.000000001
 43
0.00000001
 40
0.3215978339800579
 40
0.3215978339800579
 40
0.3215978339800579
 40
0.3215978339800579
 40
0.3404071627609005
 40
0.4539419859253246
 40
0.5674067773966059
 40
0.6808444870928552
 40
0.786223873080527
 40
0.8917014065083898
 40
0.997103682733673
 40
1.0
 40
1.0
 40
1.0
 40
1.0
 10
12.00000000000629
 20
-12.2921889256831
 30
0.0
 10
12.12383555229448
 20
-12.35535977645183
 30
0.0
 10
12.99516812605891
 20
-12.79005777611349
 30
0.0
 10
14.61369247082766
 20
-13.46630391754052
 30
0.0
 10
16.85416319500447
 20
-14.07440136776896
 30
0.0
 10
19.04096917550154
 20
-14.32788543686968
 30
0.0
 10
21.1747453298542
 20
-14.26086370100786
 30
0.0
 10
23.25755497950283
 20
-13.86152347136184
 30
0.0
 10
24.66450846709085
 20
-13.47420011481772
 30
0.0
 10
25.37711421754237
 20
-13.14946407418923
 30
0.0
 10
25.39617201203975
 20
-13.14077939444273
 30
0.0
1001
PE_URL
1000

  0
SPLINE
  5
243
330
1F
100
AcDbEntity
  8
0
  6
Continuous
 62
     1
370
    15
100
AcDbSpline
210
0.0
220
0.0
230
1.0
 70
     8
 71
     3
 72
    17
 73
    13
 74
     0
 42
0.000000001
 43
0.00000001
 40
0.0
 40
0.0
 40
0.0
 40
0.0
 40
0.0647087327981283
 40
0.1463171501753122
 40
0.2278938771915519
 40
0.3095120120362361
 40
0.391188422211665
 40
0.4727888320264275
 40
0.5606291958025548
 40
0.6484905303209223
 40
0.7364060938026399
 40
0.7509710763314541
 40
0.7509710763314541
 40
0.7509710763314541
 40
0.7509710763314541
 10
31.15000637836599
 20
-14.26255452368101
 30
0.0
 10
30.59975471336299
 20
-14.25423256751731
 30
0.0
 10
29.35554466595513
 20
-14.2354152478588
 30
0.0
 10
27.41879442605732
 20
-13.84655076066186
 30
0.0
 10
25.33873420593844
 20
-13.16991366073723
 30
0.0
 10
23.25757067743936
 20
-12.20497578002356
 30
0.0
 10
21.1747411370219
 20
-10.98472772935795
 30
0.0
 10
19.04097039450556
 20
-9.493085786485006
 30
0.0
 10
16.85416285818111
 20
-7.744433637762032
 30
0.0
 10
14.61369256114874
 20
-5.762888766198509
 30
0.0
 10
12.9951681354121
 20
-4.230444488799655
 30
0.0
 10
12.12383555172321
 20
-3.385377303430469
 30
0.0
 10
12.00000000000629
 20
-3.26490442371421
 30
0.0
1001
PE_URL
1000

  0
SPLINE
  5
244
330
1F
100
AcDbEntity
  8
0
  6
Continuous
 62
     1
370
    15
100
AcDbSpline
210
0.0
220
0.0
230
1.0
 70
     8
 71
     3
 72
    22
 73
    18
 74
     0
 42
0.000000001
 43
0.00000001
 40
0.1829572984278095
 40
0.1829572984278095
 40
0.1829572984278095
 40
0.1829572984278095
 40
0.1936579424074303
 40
0.2582480058693362
 40
0.3227982282377484
 40
0.3873330437598808
 40
0.4472834716445755
 40
0.5072897356966581
 40
0.5672531858582083
 40
0.6271862143951775
 40
0.6871425252992671
 40
0.7471500791832852
 40
0.8071067502027521
 40
0.8670397545101246
 40
0.9270027963607548
 40
0.987009199242067
 40
1.0
 40
1.0
 40
1.0
 40
1.0
 10
12.00000000000615
 20
0.1601287946024234
 30
0.0
 10
12.12383555168892
 20
0.0364228415245262
 30
0.0
 10
12.99516813597199
 20
-0.8341167702315806
 30
0.0
 10
14.61369256655593
 20
-2.449924456713711
 30
0.0
 10
16.85416283801673
 20
-4.627896175790336
 30
0.0
 10
19.04097046748304
 20
-6.643132642012318
 30
0.0
 10
21.17474088601177
 20
-8.458869840346273
 30
0.0
 10
23.25757161721971
 20
-10.04905346875339
 30
0.0
 10
25.33873070165869
 20
-11.42731573284058
 30
0.0
 10
27.41880749941416
 20
-12.56346741117955
 30
0.0
 10
29.4997101247676
 20
-13.43338241956435
 30
0.0
 10
31.58255688238518
 20
-14.0188179843547
 30
0.0
 10
33.66346827629922
 20
-14.30601625676633
 30
0.0
 10
35.74356221853625
 20
-14.29634570939673
 30
0.0
 10
37.82463851665946
 20
-13.96037394481678
 30
0.0
 10
39.36403190819662
 20
-13.55841502203558
 30
0.0
 10
40.20841142851356
 20
-13.18696036989379
 30
0.0
 10
40.35867973422467
 20
-13.12085518865385
 30
0.0
1001
PE_URL
1000

  0
SPLINE
  5
246
330
1F
100
AcDbEntity
  8
0
  6
Continuous
 62
     1
370
    15
100
AcDbSpline
210
0.0
220
0.0
230
1.0
 70
     8
 71
     3
 72
    24
 73
    20
 74
     0
 42
0.000000001
 43
0.00000001
 40
0.0
 40
0.0
 40
0.0
 40
0.0
 40
0.0504823625578424
 40
0.1018949118745436
 40
0.1533219649972903
 40
0.2047967671755733
 40
0.2562343733152759
 40
0.3076462125947294
 40
0.359078353696401
 40
0.4105541432299288
 40
0.461985975416769
 40
0.5133978354808991
 40
0.5648357918786212
 40
0.6163104749661605
 40
0.6677372605705534
 40
0.723096633955827
 40
0.7784692236701313
 40
0.8338759899440641
 40
0.8430552359175878
 40
0.8430552359175878
 40
0.8430552359175878
 40
0.8430552359175878
 10
46.11063465525143
 20
-14.28472350541942
 30
0.0
 10
45.42970082550024
 20
-14.25773060183345
 30
0.0
 10
44.05528629616064
 20
-14.20324742409034
 30
0.0
 10
41.98821359943035
 20
-13.74137359134106
 30
0.0
 10
39.90749657328389
 20
-13.00809356249821
 30
0.0
 10
37.82470020834216
 20
-11.99385452469733
 30
0.0
 10
35.74354570281419
 20
-10.7266237550118
 30
0.0
 10
33.66347270256568
 20
-9.231729449622833
 30
0.0
 10
31.58255569501728
 20
-7.54121117493551
 30
0.0
 10
29.49971044273703
 20
-5.692142953304216
 30
0.0
 10
27.41880741428378
 20
-3.721291334153356
 30
0.0
 10
25.33873072447767
 20
-1.671761974569335
 30
0.0
 10
23.25757161110013
 20
0.4132377814894479
 30
0.0
 10
21.17474088764624
 20
2.488280319777193
 30
0.0
 10
19.0409704670078
 20
4.563778861530633
 30
0.0
 10
16.85416283814802
 20
6.586233518691698
 30
0.0
 10
14.61369256652075
 20
8.49601862824986
 30
0.0
 10
12.99516813596839
 20
9.72499188699758
 30
0.0
 10
12.12383555168925
 20
10.32856546414223
 30
0.0
 10
12.00000000000631
 20
10.41317036718704
 30
0.0
1001
PE_URL
1000

  0
LINE
  5
247
330
1F
100
AcDbEntity
  8
0
  6
Continuous
 62
     1
370
    15
100
AcDbLine
 10
62.80000000000629
 20
-5.599533552002232
 30
0.0
 11
62.80000000000629
 21
5.599533552002459
 31
0.0
1001
PE_URL
1000

  0
SPLINE
  5
248
330
1F
100
AcDbEntity
  8
0
  6
Continuous
 62
     1
370
    15
100
AcDbSpline
210
0.0
220
0.0
230
1.0
 70
     8
 71
     3
 72
    21
 73
    17
 74
     0
 42
0.000000001
 43
0.00000001
 40
0.0
 40
0.0
 40
0.0
 40
0.0
 40
0.0404383461544571
 40
0.1142476874883044
 40
0.1881104025172715
 40
0.2619046010151854
 40
0.3356779875731311
 40
0.4094966564190075
 40
0.483354950507408
 40
0.5571428930224607
 40
0.6309183469357967
 40
0.7047473839822385
 40
0.7785982539167946
 40
0.8523809864372223
 40
0.9261595558507631
 40
1.0
 40
1.0
 40
1.0
 40
1.0
 10
34.6033541573368
 20
14.24999243739737
 30
0.0
 10
34.98332114346206
 20
14.25578250144252
 30
0.0
 10
36.05681582400369
 20
14.27214077250139
 30
0.0
 10
37.82470125180042
 20
13.9658698482805
 30
0.0
 10
39.9074996512256
 20
13.36434115107317
 30
0.0
 10
41.98820026181734
 20
12.46470459418514
 30
0.0
 10
44.06830271457574
 20
11.30495965732504
 30
0.0
 10
46.14974007869976
 20
9.904753804283805
 30
0.0
 10
48.23240325968877
 20
8.295786738877633
 30
0.0
 10
50.31292071321725
 20
6.51000002161611
 30
0.0
 10
52.39308283454055
 20
4.586403360906109
 30
0.0
 10
54.47483857279769
 20
2.566201628887328
 30
0.0
 10
56.55727042681308
 20
0.4915783919159669
 30
0.0
 10
58.63763999406498
 20
-1.592278809414995
 30
0.0
 10
60.71789183401621
 20
-3.650823744186004
 30
0.0
 10
62.10577003425162
 20
-4.949782129264428
 30
0.0
 10
62.80000000000632
 20
-5.599533552002233
 30
0.0
1001
PE_URL
1000

  0
SPLINE
  5
249
330
1F
100
AcDbEntity
  8
0
  6
Continuous
 62
     1
370
    15
100
AcDbSpline
210
0.0
220
0.0
230
1.0
 70
     8
 71
     3
 72
    18
 73
    14
 74
     0
 42
0.000000001
 43
0.00000001
 40
0.0
 40
0.0
 40
0.0
 40
0.0
 40
0.0927761442179505
 40
0.1854745464955799
 40
0.2781781794704154
 40
0.3709674230700599
 40
0.4637292349390355
 40
0.5564237227751997
 40
0.6491339017996748
 40
0.7419324734088626
 40
0.8346812582479769
 40
0.9273731485745513
 40
1.0
 40
1.0
 40
1.0
 40
1.0
 10
62.80000000000632
 20
5.599533552002462
 30
0.0
 10
62.10577003404683
 20
6.226382398714025
 30
0.0
 10
60.71789183340199
 20
7.479554822995579
 30
0.0
 10
58.6376399965195
 20
9.17004258408689
 30
0.0
 10
56.55727041760414
 20
10.67476211307027
 30
0.0
 10
54.47483860720877
 20
11.95039850013467
 30
0.0
 10
52.39308270619922
 20
12.97386805629869
 30
0.0
 10
50.31292119184553
 20
13.72268822262922
 30
0.0
 10
48.23240147232278
 20
14.18018596831855
 30
0.0
 10
46.14974675478074
 20
14.33951070187746
 30
0.0
 10
44.06827782123574
 20
14.18653020625604
 30
0.0
 10
42.1385287937578
 20
13.79583130275733
 30
0.0
 10
40.90193347336847
 20
13.326874511391
 30
0.0
 10
40.35867973422476
 20
13.1208551886538
 30
0.0
1001
PE_URL
1000

  0
LINE
  5
24A
330
1F
100
AcDbEntity
  8
0
  6
Continuous
 62
     1
370
    15
100
AcDbLine
 10
62.80000000000629
 20
-8.58370414404332
 30
0.0
 11
62.80000000000629
 21
-5.599533552002232
 31
0.0
1001
PE_URL
1000

  0
LINE
  5
24C
330
1F
100
AcDbEntity
  8
0
  6
Continuous
 62
     1
370
    15
100
AcDbLine
 10
62.80000000000629
 20
-14.28750000000003
 30
0.0
 11
62.80000000000629
 21
-14.18323769604574
 31
0.0
1001
PE_URL
1000

  0
SPLINE
  5
24F
330
1F
100
AcDbEntity
  8
0
  6
Continuous
 62
     1
370
    15
100
AcDbSpline
210
0.0
220
0.0
230
1.0
 70
     8
 71
     3
 72
    14
 73
    10
 74
     0
 42
0.000000001
 43
0.00000001
 40
0.0
 40
0.0
 40
0.0
 40
0.0
 40
0.0564574553181504
 40
0.213641970195944
 40
0.3709406482314828
 40
0.5282858429842305
 40
0.6854858655175381
 40
0.8426770182181077
 40
1.0
 40
1.0
 40
1.0
 40
1.0
 10
49.56596794987985
 20
14.2526428318399
 30
0.0
 10
49.81499281160185
 20
14.2619380270877
 30
0.0
 10
50.75733358460081
 20
14.2971121916848
 30
0.0
 10
52.39304926039375
 20
14.04542665648367
 30
0.0
 10
54.47484757474088
 20
13.50295627294195
 30
0.0
 10
56.55726801775465
 20
12.65552048807257
 30
0.0
 10
58.63764063617174
 20
11.54144889408869
 30
0.0
 10
60.71789167333624
 20
10.19443720491682
 30
0.0
 10
62.10576998067668
 20
9.120765174759962
 30
0.0
 10
62.80000000000632
 20
8.583704144043349
 30
0.0
1001
PE_URL
1000

  0
LINE
  5
250
330
1F
100
AcDbEntity
  8
0
  6
Continuous
 62
     1
370
    15
100
AcDbLine
 10
62.80000000000629
 20
5.599533552002459
 30
0.0
 11
62.80000000000629
 21
8.583704144043352
 31
0.0
1001
PE_URL
1000

  0
SPLINE
  5
251
330
1F
100
AcDbEntity
  8
0
  6
Continuous
 62
     1
370
    15
100
AcDbSpline
210
0.0
220
0.0
230
1.0
 70
     8
 71
     3
 72
    11
 73
     7
 74
     0
 42
0.000000001
 43
0.00000001
 40
0.0
 40
0.0
 40
0.0
 40
0.0
 40
0.2783312547540752
 40
0.5564292813224033
 40
0.8345430001414588
 40
1.0
 40
1.0
 40
1.0
 40
1.0
 10
62.80000000000632
 20
14.18323769604571
 30
0.0
 10
62.10577089781384
 20
14.23854290368675
 30
0.0
 10
60.71789442397922
 20
14.34910697586857
 30
0.0
 10
58.63762964409671
 20
14.11900396104945
 30
0.0
 10
56.83876306711446
 20
13.71993444267398
 30
0.0
 10
55.73232576460817
 20
13.27634165270027
 30
0.0
 10
55.31961187503939
 20
13.11087641999343
 30
0.0
1001
PE_URL
1000

  0
LINE
  5
253
330
1F
100
AcDbEntity
  8
0
  6
Continuous
 62
     1
370
    15
100
AcDbLine
 10
62.80000000000629
 20
14.18323769604571
 30
0.0
 11
62.80000000000629
 21
14.28749999999999
 31
0.0
1001
PE_URL
1000

  0
LINE
  5
255
330
1F
100
AcDbEntity
  8
0
  6
Continuous
 62
     1
370
    15
100
AcDbLine
 10
62.80000000000629
 20
8.552691695794046
 30
0.0
 11
62.80000000000629
 21
14.18323769604571
 31
0.0
1001
PE_URL
1000

  0
LINE
  5
260
330
1F
100
AcDbEntity
  8
외형선
  6
Continuous
370
    15
100
AcDbLine
 10
-48.95999999999371
 20
-0.0000000000000071
 30
0.0
 11
-48.95999999999371
 21
10.79499999999999
 31
0.0
  0
LINE
  5
261
330
1F
100
AcDbEntity
  8
외형선
  6
Continuous
370
    15
100
AcDbLine
 10
-48.95999999999371
 20
-12.70000000000001
 30
0.0
 11
-48.95999999999371
 21
-0.0000000000000071
 31
0.0
  0
LINE
  5
263
330
1F
100
AcDbEntity
  8
외형선
  6
Continuous
370
    15
100
AcDbLine
 10
-51.49999999999371
 20
-0.0000000000000071
 30
0.0
 11
-51.49999999999371
 21
10.79499999999999
 31
0.0
  0
LINE
  5
264
330
1F
100
AcDbEntity
  8
외형선
  6
Continuous
370
    15
100
AcDbLine
 10
-51.49999999999371
 20
-10.16000000000001
 30
0.0
 11
-51.49999999999371
 21
-0.0000000000000071
 31
0.0
  0
LINE
  5
268
330
1F
100
AcDbEntity
  8
중심선
 62
     1
100
AcDbLine
 10
-58.4999999999937
 20
-0.0000000000000107
 30
0.0
 11
69.80000000000629
 21
0.0000000000000036
 31
0.0
  0
CIRCLE
  5
269
330
1F
100
AcDbEntity
  8
해칭선
100
AcDbCircle
 10
0.0
 20
0.0
 30
0.0
 40
3.000000000000001
  0
DIMENSION
  5
26A
330
1F
100
AcDbEntity
  8
치수문자_일반주서
100
AcDbDimension
  2
*D12
 10
-66.49999999999366
 20
-12.70000000000006
 30
0.0
 11
-66.49999999999382
 21
31.92899999999992
 31
0.0
 70
   160
  1
%%c<>
 71
     2
 42
25.39999999999994
 52
-270.0
  3
SLDDIMSTYLE0
100
AcDbAlignedDimension
 13
-36.89499999999372
 23
12.69999999999999
 33
0.0
 14
-48.9599999999937
 24
-12.69999999999999
 34
0.0
 50
90.0000000000002
100
AcDbRotatedDimension
1001
PE_URL
1000

1001
ACAD
1000
DSTYLE
1002
{
1070
   171
1070
     8
1070
   273
1070
     7
1070
   140
1040
4.0
1002
}
  0
DIMENSION
  5
26B
330
1F
100
AcDbEntity
  8
치수문자_일반주서
100
AcDbDimension
  2
*D13
 10
12.0000000000063
 20
27.7
 30
0.0
 11
37.40000000000633
 21
27.7
 31
0.0
 70
   160
  1
<>
 71
     2
 42
50.8
  3
SLDDIMSTYLE0
100
AcDbAlignedDimension
 13
62.80000000000629
 23
12.60732239648509
 33
0.0
 14
12.0000000000063
 24
12.67076140992456
 34
0.0
100
AcDbRotatedDimension
1001
PE_URL
1000

1001
ACAD
1000
DSTYLE
1002
{
1070
   171
1070
     8
1070
   273
1070
     7
1070
   140
1040
4.0
1002
}
  0
DIMENSION
  5
26C
330
1F
100
AcDbEntity
  8
치수문자_일반주서
100
AcDbDimension
  2
*D14
 10
-51.4999999999937
 20
42.7
 30
0.0
 11
5.650000000006315
 21
42.7
 31
0.0
 70
   160
  1
<>
 71
     2
 42
114.3
  3
SLDDIMSTYLE0
100
AcDbAlignedDimension
 13
62.80000000000629
 23
12.60732239648509
 33
0.0
 14
-51.49999999999371
 24
10.79499999999999
 34
0.0
100
AcDbRotatedDimension
1001
PE_URL
1000

1001
ACAD
1000
DSTYLE
1002
{
1070
   171
1070
     8
1070
   273
1070
     7
1070
   140
1040
4.0
1002
}
  0
DIMENSION
  5
26D
330
1F
100
AcDbEntity
  8
치수문자_일반주서
100
AcDbDimension
  2
*D15
 10
77.80000000000636
 20
-14.28749999999997
 30
0.0
 11
77.80000000000618
 21
40.26650000000017
 31
0.0
 70
   160
  1
%%c<>
 71
     2
 42
28.57500000000014
 52
-270.0
  3
SLDDIMSTYLE0
100
AcDbAlignedDimension
 13
62.80000000000629
 23
14.28750000000011
 33
0.0
 14
62.80000000000629
 24
-14.28750000000003
 34
0.0
 50
90.0000000000002
100
AcDbRotatedDimension
1001
PE_URL
1000

1001
ACAD
1000
DSTYLE
1002
{
1070
   171
1070
     8
1070
   273
1070
     7
1070
   140
1040
4.0
1002
}
  0
INSERT
  5
26E
330
1F
100
AcDbEntity
  8
해칭선
100
AcDbBlockReference
  2
SW_DOWELSYMBOL_0
 10
0.0
 20
0.0
 30
0.0
  0
LINE
  5
26F
330
1F
100
AcDbEntity
  8
외형선
  6
Continuous
370
    15
100
AcDbLine
 10
-29.08132499999362
 20
10.79499999999999
 30
0.0
 11
-15.97492499999372
 21
10.79499999999999
 31
0.0
1001
PE_URL
1000

  0
LINE
  5
270
330
1F
100
AcDbEntity
  8
외형선
  6
Continuous
370
    15
100
AcDbLine
 10
-29.08132499999362
 20
10.79500000000001
 30
0.0
 11
-30.98632499999359
 21
12.7
 31
0.0
1001
PE_URL
1000

  0
LINE
  5
271
330
1F
100
AcDbEntity
  8
외형선
  6
Continuous
370
    15
100
AcDbLine
 10
-15.97492499999372
 20
10.79500000000001
 30
0.0
 11
-14.0699249999937
 21
12.7
 31
0.0
1001
PE_URL
1000

  0
LINE
  5
272
330
1F
100
AcDbEntity
  8
외형선
  6
Continuous
370
    15
100
AcDbLine
 10
-51.49999999999371
 20
10.79499999999999
 30
0.0
 11
-38.79999999999369
 21
10.79499999999999
 31
0.0
1001
PE_URL
1000

  0
LINE
  5
273
330
1F
100
AcDbEntity
  8
외형선
  6
Continuous
370
    15
100
AcDbLine
 10
-38.79999999999369
 20
10.79500000000001
 30
0.0
 11
-36.89499999999372
 21
12.69999999999999
 31
0.0
1001
PE_URL
1000

  0
LINE
  5
274
330
1F
100
AcDbEntity
  8
외형선
  6
Continuous
370
    15
100
AcDbLine
 10
-30.98632499999359
 20
12.7
 30
0.0
 11
-36.89499999999371
 21
12.7
 31
0.0
  0
LINE
  5
2AC
330
1F
100
AcDbEntity
  8
외형선
  6
Continuous
370
    15
100
AcDbLine
 10
12.0000000000063
 20
14.28750000000011
 30
0.0
 11
12.0000000000063
 21
-14.28749999999989
 31
0.0
  0
ENDSEC
  0
SECTION
  2
OBJECTS
  0
DICTIONARY
  5
C
330
0
100
AcDbDictionary
281
     1
  3
ACAD_GROUP
350
D
  3
ACAD_IMAGE_VARS
350
148
  3
ACAD_LAYOUT
350
1A
  3
ACAD_MLINESTYLE
350
17
  3
ACAD_PLOTSETTINGS
350
19
  3
ACAD_PLOTSTYLENAME
350
E
  3
ACAD_SCALELIST
350
47
  3
APPDATA
350
146
  3
DWGPROPS
350
2B1
  0
DICTIONARY
  5
1F5
330
2
100
AcDbDictionary
280
     1
281
     1
  3
ACAD_LAYERSTATES
360
1F6
  0
DICTIONARY
  5
D
102
{ACAD_REACTORS
330
C
102
}
330
C
100
AcDbDictionary
281
     1
  0
RASTERVARIABLES
  5
148
102
{ACAD_REACTORS
330
C
102
}
330
C
100
AcDbRasterVariables
 90
        0
 70
     1
 71
     1
 72
     1
  0
DICTIONARY
  5
1A
102
{ACAD_REACTORS
330
C
102
}
330
C
100
AcDbDictionary
281
     1
  3
Layout1
350
1E
  3
Layout2
350
26
  3
Model
350
22
  0
DICTIONARY
  5
17
102
{ACAD_REACTORS
330
C
102
}
330
C
100
AcDbDictionary
281
     1
  3
Standard
350
18
  0
DICTIONARY
  5
19
102
{ACAD_REACTORS
330
C
102
}
330
C
100
AcDbDictionary
281
     1
  0
ACDBDICTIONARYWDFLT
  5
E
102
{ACAD_REACTORS
330
C
102
}
330
C
100
AcDbDictionary
281
     1
  3
Normal
350
F
100
AcDbDictionaryWithDefault
340
F
  0
DICTIONARY
  5
47
102
{ACAD_REACTORS
330
C
102
}
330
C
100
AcDbDictionary
281
     1
  3
A0
350
48
  3
A1
350
49
  3
A2
350
4A
  3
A3
350
4B
  3
A4
350
4C
  3
A5
350
4D
  3
A6
350
4E
  3
A7
350
4F
  3
A8
350
50
  3
A9
350
51
  3
B0
350
52
  3
B1
350
53
  3
B2
350
54
  3
B3
350
55
  3
B4
350
56
  3
B5
350
57
  3
B6
350
58
  3
B7
350
59
  3
B8
350
5A
  3
B9
350
5B
  3
C0
350
5C
  3
C1
350
5D
  3
C2
350
5E
  3
C3
350
5F
  3
C4
350
60
  3
C5
350
61
  3
C6
350
62
  3
C7
350
63
  3
C8
350
64
  3
C9
350
65
  3
D0
350
66
  3
D1
350
67
  3
D2
350
68
  0
DICTIONARY
  5
146
102
{ACAD_REACTORS
330
C
102
}
330
C
100
AcDbDictionary
281
     1
  0
XRECORD
  5
2B1
102
{ACAD_REACTORS
330
C
102
}
330
C
100
AcDbXrecord
280
     1
  1
DWGPROPS COOKIE
  2

  3

  4

  6

  7

  8
12016016
  9

300
=
301
=
302
=
303
=
304
=
305
=
306
=
307
=
308
=
309
=
 40
0.0
 41
2458323.101725567
 42
2458330.381651759
  1

 90
        0
  0
DICTIONARY
  5
1F6
102
{ACAD_REACTORS
330
1F5
102
}
330
1F5
100
AcDbDictionary
281
     1
  0
LAYOUT
  5
1E
102
{ACAD_REACTORS
330
1A
102
}
330
1A
100
AcDbPlotSettings
  1

  2
none_device
  4

  6

 40
0.0
 41
0.0
 42
0.0
 43
0.0
 44
0.0
 45
0.0
 46
0.0
 47
0.0
 48
0.0
 49
0.0
140
0.0
141
0.0
142
1.0
143
1.0
 70
   688
 72
     1
 73
     0
 74
     5
  7

 75
    16
147
1.0
148
0.0
149
0.0
100
AcDbLayout
  1
Layout1
 70
     1
 71
     1
 10
0.0
 20
0.0
 11
420.0
 21
297.0
 12
0.0
 22
0.0
 32
0.0
 14
1.000000000000000E+20
 24
1.000000000000000E+20
 34
1.000000000000000E+20
 15
-1.000000000000000E+20
 25
-1.000000000000000E+20
 35
-1.000000000000000E+20
146
0.0
 13
0.0
 23
0.0
 33
0.0
 16
1.0
 26
0.0
 36
0.0
 17
0.0
 27
1.0
 37
0.0
 76
     0
330
1B
  0
LAYOUT
  5
26
102
{ACAD_REACTORS
330
1A
102
}
330
1A
100
AcDbPlotSettings
  1

  2
none_device
  4

  6

 40
0.0
 41
0.0
 42
0.0
 43
0.0
 44
0.0
 45
0.0
 46
0.0
 47
0.0
 48
0.0
 49
0.0
140
0.0
141
0.0
142
1.0
143
1.0
 70
   688
 72
     1
 73
     0
 74
     5
  7

 75
    16
147
1.0
148
0.0
149
0.0
100
AcDbLayout
  1
Layout2
 70
     1
 71
     2
 10
0.0
 20
0.0
 11
0.0
 21
0.0
 12
0.0
 22
0.0
 32
0.0
 14
0.0
 24
0.0
 34
0.0
 15
0.0
 25
0.0
 35
0.0
146
0.0
 13
0.0
 23
0.0
 33
0.0
 16
1.0
 26
0.0
 36
0.0
 17
0.0
 27
1.0
 37
0.0
 76
     0
330
23
  0
LAYOUT
  5
22
102
{ACAD_REACTORS
330
1A
102
}
330
1A
100
AcDbPlotSettings
  1

  2
none_device
  4
ANSI_A_(11.00_x_8.50_Inches)
  6

 40
6.35
 41
19.05
 42
6.35000508
 43
19.05000254
 44
279.4
 45
215.9
 46
96.39525648754174
 47
90.09827952143297
 48
0.0
 49
0.0
140
0.0
141
0.0
142
0.0605651527843098
143
1.0
 70
  1696
 72
     0
 73
     0
 74
     0
  7

 75
     0
147
0.0235690232323232
148
0.0
149
0.0
100
AcDbLayout
  1
Model
 70
     1
 71
     0
 10
0.0
 20
0.0
 11
420.0
 21
297.0
 12
0.0
 22
0.0
 32
0.0
 14
1.000000000000000E+20
 24
1.000000000000000E+20
 34
1.000000000000000E+20
 15
-1.000000000000000E+20
 25
-1.000000000000000E+20
 35
-1.000000000000000E+20
146
0.0
 13
0.0
 23
0.0
 33
0.0
 16
1.0
 26
0.0
 36
0.0
 17
0.0
 27
1.0
 37
0.0
 76
     0
330
1F
331
29
  0
MLINESTYLE
  5
18
102
{ACAD_REACTORS
330
17
102
}
330
17
100
AcDbMlineStyle
  2
Standard
 70
     0
  3

 62
   256
 51
90.0
 52
90.0
 71
     2
 49
0.5
 62
   256
  6
BYLAYER
 49
-0.5
 62
   256
  6
BYLAYER
  0
ACDBPLACEHOLDER
  5
F
102
{ACAD_REACTORS
330
E
102
}
330
E
  0
SCALE
  5
48
102
{ACAD_REACTORS
330
47
102
}
330
47
100
AcDbScale
 70
     0
300
1:1
140
1.0
141
1.0
290
     1
  0
SCALE
  5
49
102
{ACAD_REACTORS
330
47
102
}
330
47
100
AcDbScale
 70
     0
300
1:2
140
1.0
141
2.0
290
     0
  0
SCALE
  5
4A
102
{ACAD_REACTORS
330
47
102
}
330
47
100
AcDbScale
 70
     0
300
1:4
140
1.0
141
4.0
290
     0
  0
SCALE
  5
4B
102
{ACAD_REACTORS
330
47
102
}
330
47
100
AcDbScale
 70
     0
300
1:5
140
1.0
141
5.0
290
     0
  0
SCALE
  5
4C
102
{ACAD_REACTORS
330
47
102
}
330
47
100
AcDbScale
 70
     0
300
1:8
140
1.0
141
8.0
290
     0
  0
SCALE
  5
4D
102
{ACAD_REACTORS
330
47
102
}
330
47
100
AcDbScale
 70
     0
300
1:10
140
1.0
141
10.0
290
     0
  0
SCALE
  5
4E
102
{ACAD_REACTORS
330
47
102
}
330
47
100
AcDbScale
 70
     0
300
1:16
140
1.0
141
16.0
290
     0
  0
SCALE
  5
4F
102
{ACAD_REACTORS
330
47
102
}
330
47
100
AcDbScale
 70
     0
300
1:20
140
1.0
141
20.0
290
     0
  0
SCALE
  5
50
102
{ACAD_REACTORS
330
47
102
}
330
47
100
AcDbScale
 70
     0
300
1:30
140
1.0
141
30.0
290
     0
  0
SCALE
  5
51
102
{ACAD_REACTORS
330
47
102
}
330
47
100
AcDbScale
 70
     0
300
1:40
140
1.0
141
40.0
290
     0
  0
SCALE
  5
52
102
{ACAD_REACTORS
330
47
102
}
330
47
100
AcDbScale
 70
     0
300
1:50
140
1.0
141
50.0
290
     0
  0
SCALE
  5
53
102
{ACAD_REACTORS
330
47
102
}
330
47
100
AcDbScale
 70
     0
300
1:100
140
1.0
141
100.0
290
     0
  0
SCALE
  5
54
102
{ACAD_REACTORS
330
47
102
}
330
47
100
AcDbScale
 70
     0
300
2:1
140
2.0
141
1.0
290
     0
  0
SCALE
  5
55
102
{ACAD_REACTORS
330
47
102
}
330
47
100
AcDbScale
 70
     0
300
4:1
140
4.0
141
1.0
290
     0
  0
SCALE
  5
56
102
{ACAD_REACTORS
330
47
102
}
330
47
100
AcDbScale
 70
     0
300
8:1
140
8.0
141
1.0
290
     0
  0
SCALE
  5
57
102
{ACAD_REACTORS
330
47
102
}
330
47
100
AcDbScale
 70
     0
300
10:1
140
10.0
141
1.0
290
     0
  0
SCALE
  5
58
102
{ACAD_REACTORS
330
47
102
}
330
47
100
AcDbScale
 70
     0
300
100:1
140
100.0
141
1.0
290
     0
  0
SCALE
  5
59
102
{ACAD_REACTORS
330
47
102
}
330
47
100
AcDbScale
 70
     0
300
1/128" = 1'-0"
140
0.0078125
141
12.0
290
     0
  0
SCALE
  5
5A
102
{ACAD_REACTORS
330
47
102
}
330
47
100
AcDbScale
 70
     0
300
1/64" = 1'-0"
140
0.015625
141
12.0
290
     0
  0
SCALE
  5
5B
102
{ACAD_REACTORS
330
47
102
}
330
47
100
AcDbScale
 70
     0
300
1/32" = 1'-0"
140
0.03125
141
12.0
290
     0
  0
SCALE
  5
5C
102
{ACAD_REACTORS
330
47
102
}
330
47
100
AcDbScale
 70
     0
300
1/16" = 1'-0"
140
0.0625
141
12.0
290
     0
  0
SCALE
  5
5D
102
{ACAD_REACTORS
330
47
102
}
330
47
100
AcDbScale
 70
     0
300
3/32" = 1'-0"
140
0.09375
141
12.0
290
     0
  0
SCALE
  5
5E
102
{ACAD_REACTORS
330
47
102
}
330
47
100
AcDbScale
 70
     0
300
1/8" = 1'-0"
140
0.125
141
12.0
290
     0
  0
SCALE
  5
5F
102
{ACAD_REACTORS
330
47
102
}
330
47
100
AcDbScale
 70
     0
300
3/16" = 1'-0"
140
0.1875
141
12.0
290
     0
  0
SCALE
  5
60
102
{ACAD_REACTORS
330
47
102
}
330
47
100
AcDbScale
 70
     0
300
1/4" = 1'-0"
140
0.25
141
12.0
290
     0
  0
SCALE
  5
61
102
{ACAD_REACTORS
330
47
102
}
330
47
100
AcDbScale
 70
     0
300
3/8" = 1'-0"
140
0.375
141
12.0
290
     0
  0
SCALE
  5
62
102
{ACAD_REACTORS
330
47
102
}
330
47
100
AcDbScale
 70
     0
300
1/2" = 1'-0"
140
0.5
141
12.0
290
     0
  0
SCALE
  5
63
102
{ACAD_REACTORS
330
47
102
}
330
47
100
AcDbScale
 70
     0
300
3/4" = 1'-0"
140
0.75
141
12.0
290
     0
  0
SCALE
  5
64
102
{ACAD_REACTORS
330
47
102
}
330
47
100
AcDbScale
 70
     0
300
1" = 1'-0"
140
1.0
141
12.0
290
     0
  0
SCALE
  5
65
102
{ACAD_REACTORS
330
47
102
}
330
47
100
AcDbScale
 70
     0
300
1-1/2" = 1'-0"
140
1.5
141
12.0
290
     0
  0
SCALE
  5
66
102
{ACAD_REACTORS
330
47
102
}
330
47
100
AcDbScale
 70
     0
300
3" = 1'-0"
140
3.0
141
12.0
290
     0
  0
SCALE
  5
67
102
{ACAD_REACTORS
330
47
102
}
330
47
100
AcDbScale
 70
     0
300
6" = 1'-0"
140
6.0
141
12.0
290
     0
  0
SCALE
  5
68
102
{ACAD_REACTORS
330
47
102
}
330
47
100
AcDbScale
 70
     0
300
1'-0" = 1'-0"
140
12.0
141
12.0
290
     0
  0
ENDSEC
  0
EOF
