  0
SECTION
  2
HEADER
  9
$ACADVER
  1
AC1015
  9
$ACADMAINTVER
 70
     6
  9
$DWGCODEPAGE
  3
ANSI_949
  9
$INSBASE
 10
0.0
 20
0.0
 30
0.0
  9
$EXTMIN
 10
-65.02500000000012
 20
-49.97073246008762
 30
0.0
  9
$EXTMAX
 10
97.98848381534562
 20
47.38007492872418
 30
0.0
  9
$LIMMIN
 10
0.0
 20
0.0
  9
$LIMMAX
 10
420.0
 20
297.0
  9
$ORTHOMODE
 70
     1
  9
$REGENMODE
 70
     1
  9
$FILLMODE
 70
     1
  9
$QTEXTMODE
 70
     0
  9
$MIRRTEXT
 70
     1
  9
$LTSCALE
 40
1.0
  9
$ATTMODE
 70
     1
  9
$TEXTSIZE
 40
3.5
  9
$TRACEWID
 40
1.0
  9
$TEXTSTYLE
  7
Standard
  9
$CLAYER
  8
0
  9
$CELTYPE
  6
ByLayer
  9
$CECOLOR
 62
   256
  9
$CELTSCALE
 40
1.0
  9
$DISPSILH
 70
     0
  9
$DIMSCALE
 40
1.0
  9
$DIMASZ
 40
3.302
  9
$DIMEXO
 40
1.0
  9
$DIMDLI
 40
3.75
  9
$DIMRND
 40
0.0
  9
$DIMDLE
 40
0.0
  9
$DIMEXE
 40
1.0
  9
$DIMTP
 40
0.0
  9
$DIMTM
 40
0.0
  9
$DIMTXT
 40
3.5
  9
$DIMCEN
 40
2.5
  9
$DIMTSZ
 40
0.0
  9
$DIMTOL
 70
     0
  9
$DIMLIM
 70
     0
  9
$DIMTIH
 70
     1
  9
$DIMTOH
 70
     1
  9
$DIMSE1
 70
     0
  9
$DIMSE2
 70
     0
  9
$DIMTAD
 70
     1
  9
$DIMZIN
 70
     0
  9
$DIMBLK
  1

  9
$DIMASO
 70
     1
  9
$DIMSHO
 70
     1
  9
$DIMPOST
  1

  9
$DIMAPOST
  1

  9
$DIMALT
 70
     0
  9
$DIMALTD
 70
     3
  9
$DIMALTF
 40
0.0393700787401575
  9
$DIMLFAC
 40
1.0
  9
$DIMTOFL
 70
     1
  9
$DIMTVP
 40
0.0
  9
$DIMTIX
 70
     0
  9
$DIMSOXD
 70
     0
  9
$DIMSAH
 70
     0
  9
$DIMBLK1
  1

  9
$DIMBLK2
  1

  9
$DIMSTYLE
  2
ISO-25
  9
$DIMCLRD
 70
     0
  9
$DIMCLRE
 70
     0
  9
$DIMCLRT
 70
     0
  9
$DIMTFAC
 40
1.0
  9
$DIMGAP
 40
1.524
  9
$DIMJUST
 70
     0
  9
$DIMSD1
 70
     0
  9
$DIMSD2
 70
     0
  9
$DIMTOLJ
 70
     0
  9
$DIMTZIN
 70
     0
  9
$DIMALTZ
 70
     0
  9
$DIMALTTZ
 70
     0
  9
$DIMUPT
 70
     0
  9
$DIMDEC
 70
     2
  9
$DIMTDEC
 70
     2
  9
$DIMALTU
 70
     2
  9
$DIMALTTD
 70
     3
  9
$DIMTXSTY
  7
Standard
  9
$DIMAUNIT
 70
     0
  9
$DIMADEC
 70
     2
  9
$DIMALTRND
 40
0.0
  9
$DIMAZIN
 70
     0
  9
$DIMDSEP
 70
    44
  9
$DIMATFIT
 70
     3
  9
$DIMFRAC
 70
     0
  9
$DIMLDRBLK
  1

  9
$DIMLUNIT
 70
     2
  9
$DIMLWD
 70
    -2
  9
$DIMLWE
 70
    -2
  9
$DIMTMOVE
 70
     0
  9
$LUNITS
 70
     2
  9
$LUPREC
 70
     2
  9
$SKETCHINC
 40
1.0
  9
$FILLETRAD
 40
10.0
  9
$AUNITS
 70
     0
  9
$AUPREC
 70
     2
  9
$MENU
  1
.
  9
$ELEVATION
 40
0.0
  9
$PELEVATION
 40
0.0
  9
$THICKNESS
 40
0.0
  9
$LIMCHECK
 70
     0
  9
$CHAMFERA
 40
0.0
  9
$CHAMFERB
 40
0.0
  9
$CHAMFERC
 40
0.0
  9
$CHAMFERD
 40
0.0
  9
$SKPOLY
 70
     0
  9
$TDCREATE
 40
2458323.437720636
  9
$TDUCREATE
 40
2458323.062720636
  9
$TDUPDATE
 40
2458323.771660926
  9
$TDUUPDATE
 40
2458323.396660926
  9
$TDINDWG
 40
0.0003196412
  9
$TDUSRTIMER
 40
0.0003196296
  9
$USRTIMER
 70
     1
  9
$ANGBASE
 50
0.0
  9
$ANGDIR
 70
     0
  9
$PDMODE
 70
     0
  9
$PDSIZE
 40
-1.0
  9
$PLINEWID
 40
0.0
  9
$SPLFRAME
 70
     0
  9
$SPLINETYPE
 70
     6
  9
$SPLINESEGS
 70
     8
  9
$HANDSEED
  5
1E9
  9
$SURFTAB1
 70
     6
  9
$SURFTAB2
 70
     6
  9
$SURFTYPE
 70
     6
  9
$SURFU
 70
     6
  9
$SURFV
 70
     6
  9
$UCSBASE
  2

  9
$UCSNAME
  2

  9
$UCSORG
 10
0.0
 20
0.0
 30
0.0
  9
$UCSXDIR
 10
1.0
 20
0.0
 30
0.0
  9
$UCSYDIR
 10
0.0
 20
1.0
 30
0.0
  9
$UCSORTHOREF
  2

  9
$UCSORTHOVIEW
 70
     0
  9
$UCSORGTOP
 10
0.0
 20
0.0
 30
0.0
  9
$UCSORGBOTTOM
 10
0.0
 20
0.0
 30
0.0
  9
$UCSORGLEFT
 10
0.0
 20
0.0
 30
0.0
  9
$UCSORGRIGHT
 10
0.0
 20
0.0
 30
0.0
  9
$UCSORGFRONT
 10
0.0
 20
0.0
 30
0.0
  9
$UCSORGBACK
 10
0.0
 20
0.0
 30
0.0
  9
$PUCSBASE
  2

  9
$PUCSNAME
  2

  9
$PUCSORG
 10
0.0
 20
0.0
 30
0.0
  9
$PUCSXDIR
 10
1.0
 20
0.0
 30
0.0
  9
$PUCSYDIR
 10
0.0
 20
1.0
 30
0.0
  9
$PUCSORTHOREF
  2

  9
$PUCSORTHOVIEW
 70
     0
  9
$PUCSORGTOP
 10
0.0
 20
0.0
 30
0.0
  9
$PUCSORGBOTTOM
 10
0.0
 20
0.0
 30
0.0
  9
$PUCSORGLEFT
 10
0.0
 20
0.0
 30
0.0
  9
$PUCSORGRIGHT
 10
0.0
 20
0.0
 30
0.0
  9
$PUCSORGFRONT
 10
0.0
 20
0.0
 30
0.0
  9
$PUCSORGBACK
 10
0.0
 20
0.0
 30
0.0
  9
$USERI1
 70
     0
  9
$USERI2
 70
     0
  9
$USERI3
 70
     0
  9
$USERI4
 70
     0
  9
$USERI5
 70
     0
  9
$USERR1
 40
0.0
  9
$USERR2
 40
0.0
  9
$USERR3
 40
0.0
  9
$USERR4
 40
0.0
  9
$USERR5
 40
0.0
  9
$WORLDVIEW
 70
     1
  9
$SHADEDGE
 70
     3
  9
$SHADEDIF
 70
    70
  9
$TILEMODE
 70
     1
  9
$MAXACTVP
 70
    64
  9
$PINSBASE
 10
0.0
 20
0.0
 30
0.0
  9
$PLIMCHECK
 70
     0
  9
$PEXTMIN
 10
1.000000000000000E+20
 20
1.000000000000000E+20
 30
1.000000000000000E+20
  9
$PEXTMAX
 10
-1.000000000000000E+20
 20
-1.000000000000000E+20
 30
-1.000000000000000E+20
  9
$PLIMMIN
 10
0.0
 20
0.0
  9
$PLIMMAX
 10
0.0
 20
0.0
  9
$UNITMODE
 70
     0
  9
$VISRETAIN
 70
     1
  9
$PLINEGEN
 70
     0
  9
$PSLTSCALE
 70
     1
  9
$TREEDEPTH
 70
  3020
  9
$CMLSTYLE
  2
Standard
  9
$CMLJUST
 70
     0
  9
$CMLSCALE
 40
20.0
  9
$PROXYGRAPHICS
 70
     1
  9
$MEASUREMENT
 70
     1
  9
$CELWEIGHT
370
    -1
  9
$ENDCAPS
280
     0
  9
$JOINSTYLE
280
     0
  9
$LWDISPLAY
290
     1
  9
$INSUNITS
 70
     4
  9
$HYPERLINKBASE
  1

  9
$STYLESHEET
  1

  9
$XEDIT
290
     1
  9
$CEPSNTYPE
380
     0
  9
$PSTYLEMODE
290
     1
  9
$FINGERPRINTGUID
  2
{370AF396-B27C-494E-AC73-3D14C070CDCE}
  9
$VERSIONGUID
  2
{FAEB1C32-E019-11D5-929B-00C0DF256EC4}
  9
$EXTNAMES
290
     1
  9
$PSVPSCALE
 40
0.0
  9
$OLESTARTUP
290
     0
  0
ENDSEC
  0
SECTION
  2
CLASSES
  0
CLASS
  1
ACDBDICTIONARYWDFLT
  2
AcDbDictionaryWithDefault
  3
ObjectDBX Classes
 90
        0
280
     0
281
     0
  0
CLASS
  1
VISUALSTYLE
  2
AcDbVisualStyle
  3
ObjectDBX Classes
 90
     4095
280
     0
281
     0
  0
CLASS
  1
MATERIAL
  2
AcDbMaterial
  3
ObjectDBX Classes
 90
     1153
280
     0
281
     0
  0
CLASS
  1
SCALE
  2
AcDbScale
  3
ObjectDBX Classes
 90
     1153
280
     0
281
     0
  0
CLASS
  1
SUN
  2
AcDbSun
  3
SCENEOE
 90
     1153
280
     0
281
     0
  0
CLASS
  1
ACDBPLACEHOLDER
  2
AcDbPlaceHolder
  3
ObjectDBX Classes
 90
        0
280
     0
281
     0
  0
CLASS
  1
LAYOUT
  2
AcDbLayout
  3
ObjectDBX Classes
 90
        0
280
     0
281
     0
  0
CLASS
  1
TABLESTYLE
  2
AcDbTableStyle
  3
ObjectDBX Classes
 90
     4095
280
     0
281
     0
  0
CLASS
  1
MLEADERSTYLE
  2
AcDbMLeaderStyle
  3
ACDB_MLEADERSTYLE_CLASS
 90
     4095
280
     0
281
     0
  0
ENDSEC
  0
SECTION
  2
TABLES
  0
TABLE
  2
VPORT
  5
8
330
0
100
AcDbSymbolTable
 70
     1
  0
VPORT
  5
29
330
8
100
AcDbSymbolTableRecord
100
AcDbViewportTableRecord
  2
*Active
 70
     0
 10
0.0
 20
0.0
 11
1.0
 21
1.0
 12
16.48174190767276
 22
-1.295328765681781
 13
0.0
 23
0.0
 14
10.0
 24
10.0
 15
10.0
 25
10.0
 16
0.0
 26
0.0
 36
1.0
 17
0.0
 27
0.0
 37
0.0
 40
99.29782353658793
 41
1.782762691853601
 42
50.0
 43
0.0
 44
0.0
 50
0.0
 51
0.0
 71
    16
 72
  2000
 73
     1
 74
     3
 75
     0
 76
     0
 77
     0
 78
     0
281
     0
 65
     1
110
0.0
120
0.0
130
0.0
111
1.0
121
0.0
131
0.0
112
0.0
122
1.0
132
0.0
 79
     0
146
0.0
  0
ENDTAB
  0
TABLE
  2
LTYPE
  5
5
330
0
100
AcDbSymbolTable
 70
     6
  0
LTYPE
  5
14
330
5
100
AcDbSymbolTableRecord
100
AcDbLinetypeTableRecord
  2
ByBlock
 70
     0
  3

 72
    65
 73
     0
 40
0.0
  0
LTYPE
  5
15
330
5
100
AcDbSymbolTableRecord
100
AcDbLinetypeTableRecord
  2
ByLayer
 70
     0
  3

 72
    65
 73
     0
 40
0.0
  0
LTYPE
  5
16
330
5
100
AcDbSymbolTableRecord
100
AcDbLinetypeTableRecord
  2
Continuous
 70
     0
  3
Solid line
 72
    65
 73
     0
 40
0.0
  0
LTYPE
  5
6A
330
5
100
AcDbSymbolTableRecord
100
AcDbLinetypeTableRecord
  2
HIDDEN
 70
     0
  3
Hidden __ __ __ __ __ __ __ __ __ __ __ __ __ __
 72
    65
 73
     2
 40
1.905
 49
1.27
 74
     0
 49
-0.635
 74
     0
  0
LTYPE
  5
6B
330
5
100
AcDbSymbolTableRecord
100
AcDbLinetypeTableRecord
  2
PHANTOM
 70
     0
  3
Phantom ______  __  __  ______  __  __  ______
 72
    65
 73
     6
 40
12.7
 49
6.35
 74
     0
 49
-1.27
 74
     0
 49
1.27
 74
     0
 49
-1.27
 74
     0
 49
1.27
 74
     0
 49
-1.27
 74
     0
  0
LTYPE
  5
6C
330
5
100
AcDbSymbolTableRecord
100
AcDbLinetypeTableRecord
  2
CENTER
 70
     0
  3
Center ____ _ ____ _ ____ _ ____ _ ____ _ ____
 72
    65
 73
     4
 40
10.16
 49
6.35
 74
     0
 49
-1.27
 74
     0
 49
1.27
 74
     0
 49
-1.27
 74
     0
  0
LTYPE
  5
6D
330
5
100
AcDbSymbolTableRecord
100
AcDbLinetypeTableRecord
  2
CENTERX2
 70
     0
  3
Center (2x) ________  __  ________  __  _____
 72
    65
 73
     4
 40
20.32
 49
12.7
 74
     0
 49
-2.54
 74
     0
 49
2.54
 74
     0
 49
-2.54
 74
     0
  0
LTYPE
  5
6E
330
5
100
AcDbSymbolTableRecord
100
AcDbLinetypeTableRecord
  2
DOT2
 70
     0
  3
Dot (.5x) ........................................
 72
    65
 73
     2
 40
0.635
 49
0.0
 74
     0
 49
-0.635
 74
     0
  0
ENDTAB
  0
TABLE
  2
LAYER
  5
2
102
{ACAD_XDICTIONARY
360
191
102
}
330
0
100
AcDbSymbolTable
 70
    18
  0
LAYER
  5
10
330
2
100
AcDbSymbolTableRecord
100
AcDbLayerTableRecord
  2
0
 70
     0
 62
     7
  6
Continuous
370
    -3
390
F
  0
LAYER
  5
6F
330
2
100
AcDbSymbolTableRecord
100
AcDbLayerTableRecord
  2
FORMAT
 70
     0
 62
     2
  6
Continuous
370
    -3
390
F
  0
LAYER
  5
70
330
2
100
AcDbSymbolTableRecord
100
AcDbLayerTableRecord
  2
외형선
 70
     0
 62
     4
  6
Continuous
370
    30
390
F
  0
LAYER
  5
71
330
2
100
AcDbSymbolTableRecord
100
AcDbLayerTableRecord
  2
숨은선
 70
     0
 62
     2
  6
HIDDEN
370
    15
390
F
  0
LAYER
  5
72
330
2
100
AcDbSymbolTableRecord
100
AcDbLayerTableRecord
  2
중심선
 70
     0
 62
     1
  6
CENTERX2
370
    -3
390
F
  0
LAYER
  5
73
330
2
100
AcDbSymbolTableRecord
100
AcDbLayerTableRecord
  2
파단선
 70
     0
 62
     4
  6
Continuous
370
    -3
390
F
  0
LAYER
  5
74
330
2
100
AcDbSymbolTableRecord
100
AcDbLayerTableRecord
  2
해칭선
 70
     0
 62
   100
  6
Continuous
370
    -3
390
F
  0
LAYER
  5
75
330
2
100
AcDbSymbolTableRecord
100
AcDbLayerTableRecord
  2
가는실선
 70
     0
 62
     4
  6
Continuous
370
    -3
390
F
  0
LAYER
  5
76
330
2
100
AcDbSymbolTableRecord
100
AcDbLayerTableRecord
  2
치수_보조선
 70
     0
 62
     4
  6
Continuous
370
    -3
390
F
  0
LAYER
  5
77
330
2
100
AcDbSymbolTableRecord
100
AcDbLayerTableRecord
  2
치수문자_일반주서
 70
     0
 62
     7
  6
Continuous
370
    15
390
F
  0
LAYER
  5
78
330
2
100
AcDbSymbolTableRecord
100
AcDbLayerTableRecord
  2
개별주서
 70
     0
 62
   100
  6
Continuous
370
    30
390
F
  0
LAYER
  5
79
330
2
100
AcDbSymbolTableRecord
100
AcDbLayerTableRecord
  2
중간선
 70
     0
 62
     2
  6
Continuous
370
    15
390
F
  0
LAYER
  5
7A
330
2
100
AcDbSymbolTableRecord
100
AcDbLayerTableRecord
  2
윤곽선
 70
     0
 62
     3
  6
Continuous
370
    40
390
F
  0
LAYER
  5
7B
330
2
100
AcDbSymbolTableRecord
100
AcDbLayerTableRecord
  2
중심마크
 70
     0
 62
   100
  6
Continuous
370
    30
390
F
  0
LAYER
  5
7C
330
2
100
AcDbSymbolTableRecord
100
AcDbLayerTableRecord
  2
가상선
 70
     0
 62
     4
  6
PHANTOM
370
    -3
390
F
  0
LAYER
  5
7D
330
2
100
AcDbSymbolTableRecord
100
AcDbLayerTableRecord
  2
특수지정선
 70
     0
 62
     5
  6
CENTERX2
370
    60
390
F
  0
LAYER
  5
7E
330
2
100
AcDbSymbolTableRecord
100
AcDbLayerTableRecord
  2
참조1
 70
     0
 62
    -4
  6
Continuous
370
    -3
390
F
  0
LAYER
  5
15E
330
2
100
AcDbSymbolTableRecord
100
AcDbLayerTableRecord
  2
Defpoints
 70
     0
 62
     7
  6
Continuous
290
     0
370
    -3
390
F
  0
ENDTAB
  0
TABLE
  2
STYLE
  5
3
330
0
100
AcDbSymbolTable
 70
     2
  0
STYLE
  5
11
330
3
100
AcDbSymbolTableRecord
100
AcDbTextStyleTableRecord
  2
Standard
 70
     0
 40
0.0
 41
1.0
 50
0.0
 71
     0
 42
3.5
  3
txt
  4

  0
STYLE
  5
94
330
3
100
AcDbSymbolTableRecord
100
AcDbTextStyleTableRecord
  2
SLDTEXTSTYLE0
 70
     0
 40
0.0
 41
0.75
 50
0.0
 71
     0
 42
3.5
  3
TXT
  4

  0
ENDTAB
  0
TABLE
  2
VIEW
  5
6
330
0
100
AcDbSymbolTable
 70
     0
  0
ENDTAB
  0
TABLE
  2
UCS
  5
7
330
0
100
AcDbSymbolTable
 70
     0
  0
ENDTAB
  0
TABLE
  2
APPID
  5
9
330
0
100
AcDbSymbolTable
 70
     2
  0
APPID
  5
12
330
9
100
AcDbSymbolTableRecord
100
AcDbRegAppTableRecord
  2
ACAD
 70
     0
  0
APPID
  5
1B0
330
9
100
AcDbSymbolTableRecord
100
AcDbRegAppTableRecord
  2
PE_URL
 70
     0
  0
ENDTAB
  0
TABLE
  2
DIMSTYLE
  5
A
330
0
100
AcDbSymbolTable
 70
     4
100
AcDbDimStyleTable
  0
DIMSTYLE
105
27
330
A
100
AcDbSymbolTableRecord
100
AcDbDimStyleTableRecord
  2
ISO-25
 70
     0
 41
2.5
 42
0.625
 43
3.75
 44
1.25
 73
     0
 74
     0
 77
     1
 78
     8
140
2.5
141
2.5
143
0.03937007874016
147
0.625
171
     3
172
     1
178
     0
271
     2
272
     2
274
     3
278
    44
283
     0
284
     8
340
11
  0
DIMSTYLE
105
DF
102
{ACAD_REACTORS
330
DE
330
F3
330
107
330
11A
102
}
330
A
100
AcDbSymbolTableRecord
100
AcDbDimStyleTableRecord
  2
SLDDIMSTYLE0
 70
     0
 41
3.302
 44
0.0
 45
0.000000001
 73
     0
 74
     0
 77
     1
 78
    12
 79
     3
140
3.5
143
0.0393700787401575
147
0.875
148
0.000000001
170
     1
172
     1
173
     1
178
     0
271
     2
272
     2
276
     2
284
    12
289
     0
340
94
  0
DIMSTYLE
105
F4
330
A
100
AcDbSymbolTableRecord
100
AcDbDimStyleTableRecord
  2
SLDDIMSTYLE1
 70
     0
 41
3.302
 44
0.0
 45
0.000000001
 73
     0
 74
     0
 77
     1
 78
    12
 79
     3
140
3.5
143
0.0393700787401575
147
0.875
148
0.000000001
170
     1
173
     1
178
     0
271
     2
272
     2
276
     2
284
    12
340
94
  0
DIMSTYLE
105
163
102
{ACAD_REACTORS
330
184
102
}
330
A
100
AcDbSymbolTableRecord
100
AcDbDimStyleTableRecord
  2
SLDDIMSTYLE2
 70
     0
 41
3.302
 44
0.0
 45
0.000000001
 73
     0
 74
     0
 77
     1
 78
    12
 79
     3
140
3.5
147
0.875
172
     1
173
     1
178
     0
271
     2
272
     2
276
     2
284
    12
289
     0
340
94
  0
ENDTAB
  0
TABLE
  2
BLOCK_RECORD
  5
1
330
0
100
AcDbSymbolTable
 70
    11
  0
BLOCK_RECORD
  5
1F
330
1
100
AcDbSymbolTableRecord
100
AcDbBlockTableRecord
  2
*Model_Space
340
22
  0
BLOCK_RECORD
  5
1B
330
1
100
AcDbSymbolTableRecord
100
AcDbBlockTableRecord
  2
*Paper_Space
340
1E
  0
BLOCK_RECORD
  5
23
330
1
100
AcDbSymbolTableRecord
100
AcDbBlockTableRecord
  2
*Paper_Space0
340
26
  0
BLOCK_RECORD
  5
7F
330
1
100
AcDbSymbolTableRecord
100
AcDbBlockTableRecord
  2
블럭10
340
0
102
{BLKREFS
331
D7
102
}
  0
BLOCK_RECORD
  5
E0
330
1
100
AcDbSymbolTableRecord
100
AcDbBlockTableRecord
  2
_D
340
0
  0
BLOCK_RECORD
  5
F5
330
1
100
AcDbSymbolTableRecord
100
AcDbBlockTableRecord
  2
_D_1
340
0
  0
BLOCK_RECORD
  5
108
330
1
100
AcDbSymbolTableRecord
100
AcDbBlockTableRecord
  2
_D_2
340
0
  0
BLOCK_RECORD
  5
11B
330
1
100
AcDbSymbolTableRecord
100
AcDbBlockTableRecord
  2
_D_3
340
0
  0
BLOCK_RECORD
  5
134
330
1
100
AcDbSymbolTableRecord
100
AcDbBlockTableRecord
  2
SW_DOWELSYMBOL_0
340
0
102
{BLKREFS
331
13A
102
}
  0
BLOCK_RECORD
  5
195
330
1
100
AcDbSymbolTableRecord
100
AcDbBlockTableRecord
  2
*D8
340
0
  0
BLOCK_RECORD
  5
1A4
330
1
100
AcDbSymbolTableRecord
100
AcDbBlockTableRecord
  2
*D9
340
0
  0
ENDTAB
  0
ENDSEC
  0
SECTION
  2
BLOCKS
  0
BLOCK
  5
20
330
1F
100
AcDbEntity
  8
0
100
AcDbBlockBegin
  2
*Model_Space
 70
     0
 10
0.0
 20
0.0
 30
0.0
  3
*Model_Space
  1

  0
ENDBLK
  5
21
330
1F
100
AcDbEntity
  8
0
100
AcDbBlockEnd
  0
BLOCK
  5
1C
330
1B
100
AcDbEntity
 67
     1
  8
0
100
AcDbBlockBegin
  2
*Paper_Space
 70
     0
 10
0.0
 20
0.0
 30
0.0
  3
*Paper_Space
  1

  0
ENDBLK
  5
1D
330
1B
100
AcDbEntity
 67
     1
  8
0
100
AcDbBlockEnd
  0
BLOCK
  5
24
330
23
100
AcDbEntity
  8
0
100
AcDbBlockBegin
  2
*Paper_Space0
 70
     0
 10
0.0
 20
0.0
 30
0.0
  3
*Paper_Space0
  1

  0
ENDBLK
  5
25
330
23
100
AcDbEntity
  8
0
100
AcDbBlockEnd
  0
BLOCK
  5
80
330
7F
100
AcDbEntity
  8
0
100
AcDbBlockBegin
  2
블럭10
 70
     2
 10
0.0
 20
0.0
 30
0.0
  3
블럭10
  1

  0
ELLIPSE
  5
82
330
7F
100
AcDbEntity
  8
중심선
100
AcDbEllipse
 10
20.54032771741204
 20
12.0471743016438
 30
0.0
 11
6.600054785286829
 21
-1.261213355974178E-13
 31
0.0
210
0.0
220
0.0
230
1.0
 40
0.636358354079598
 41
0.9219305317359503
 42
6.513795318482858
  0
ELLIPSE
  5
83
330
7F
100
AcDbEntity
  8
중심선
100
AcDbEllipse
 10
20.54032771746488
 20
12.04717430159265
 30
0.0
 11
3.960054785062283
 21
1.540847449632565E-10
 31
0.0
210
0.0
220
0.0
230
1.0
 40
0.3939339440162632
 41
1.131841032648279
 42
5.62031148352944
  0
LINE
  5
84
330
7F
100
AcDbEntity
  8
중심선
100
AcDbLine
 10
2.268634060543552
 20
16.24717430164393
 30
0.0
 11
5.714909304380834
 21
16.24717430164393
 31
0.0
  0
LINE
  5
85
330
7F
100
AcDbEntity
  8
중심선
100
AcDbLine
 10
5.245725140726316
 20
7.84717430164391
 30
0.0
 11
8.692000384563599
 21
7.84717430164391
 31
0.0
  0
LINE
  5
86
330
7F
100
AcDbEntity
  8
중심선
100
AcDbLine
 10
15.74043728645272
 20
16.24717430164393
 30
0.0
 11
8.692000384563599
 21
7.84717430164391
 31
0.0
  0
LINE
  5
87
330
7F
100
AcDbEntity
  8
중심선
100
AcDbLine
 10
0.1404042013395286
 20
13.71084872107135
 30
0.0
 11
3.58671253028996
 21
13.71088815037384
 31
0.0
  0
LINE
  5
88
330
7F
100
AcDbEntity
  8
중심선
100
AcDbLine
 10
2.750260043222114
 20
10.84717430164391
 30
0.0
 11
6.196535287059397
 21
10.84717430164391
 31
0.0
  0
LINE
  5
89
330
7F
100
AcDbEntity
  8
중심선
100
AcDbLine
 10
12.29416204261559
 20
16.24717430164393
 30
0.0
 11
5.245725140726316
 21
7.84717430164391
 31
0.0
  0
LINE
  5
8A
330
7F
100
AcDbEntity
  8
중심선
100
AcDbLine
 10
10.72767329541681
 20
16.24717430164393
 30
0.0
 11
6.196535287059397
 21
10.84717430164391
 31
0.0
  0
LINE
  5
8B
330
7F
100
AcDbEntity
  8
중심선
100
AcDbLine
 10
7.28139805157953
 20
16.24717430164393
 30
0.0
 11
2.750260043222114
 21
10.84717430164391
 31
0.0
  0
LINE
  5
8C
330
7F
100
AcDbEntity
  8
중심선
100
AcDbLine
 10
5.714909304380834
 20
16.24717430164393
 30
0.0
 11
3.58671253028996
 21
13.71088815037384
 31
0.0
  0
LINE
  5
8D
330
7F
100
AcDbEntity
  8
중심선
100
AcDbLine
 10
2.268634060543552
 20
16.24717430164393
 30
0.0
 11
0.1404042013395286
 21
13.71084872107135
 31
0.0
  0
LINE
  5
8E
330
7F
100
AcDbEntity
  8
중심선
100
AcDbLine
 10
7.28139805157953
 20
16.24717430164393
 30
0.0
 11
10.72767329541681
 21
16.24717430164393
 31
0.0
  0
LINE
  5
8F
330
7F
100
AcDbEntity
  8
중심선
100
AcDbLine
 10
12.29416204261559
 20
16.24717430164393
 30
0.0
 11
15.74043728645272
 21
16.24717430164393
 31
0.0
  0
LINE
  5
90
330
7F
100
AcDbEntity
  8
중심선
100
AcDbLine
 10
19.22036997980202
 20
11.08717430171403
 30
0.0
 11
23.66174974927406
 21
11.08717430171406
 31
0.0
  0
LINE
  5
91
330
7F
100
AcDbEntity
  8
중심선
100
AcDbLine
 10
19.22039502424796
 20
13.00717430171391
 30
0.0
 11
19.22036997980202
 21
11.08717430171403
 31
0.0
  0
LINE
  5
92
330
7F
100
AcDbEntity
  8
중심선
100
AcDbLine
 10
19.22039502424796
 20
13.00717430171391
 30
0.0
 11
26.96566020931264
 21
13.00717430171391
 31
0.0
  0
LINE
  5
93
330
7F
100
AcDbEntity
  8
중심선
100
AcDbLine
 10
22.22332737316547
 20
13.45928029700563
 30
0.0
 11
24.52862924686651
 21
15.39360700705356
 31
0.0
  0
ATTDEF
  5
95
330
7F
100
AcDbEntity
  8
FORMAT
 62
     2
100
AcDbText
 10
4.408487351596664
 20
2.075366912832191
 30
0.0
 40
4.233333333333333
  1
E1042048
 41
0.75
  7
SLDTEXTSTYLE0
 11
4.408487351596664
 21
-0.0412997538344756
 31
0.0
100
AcDbAttributeDefinition
  3

  2
AUTOATTR0
 70
     0
 74
     1
  0
ENDBLK
  5
81
330
7F
100
AcDbEntity
  8
0
100
AcDbBlockEnd
  0
BLOCK
  5
E1
330
E0
100
AcDbEntity
  8
0
100
AcDbBlockBegin
  2
_D
 70
     0
 10
0.0
 20
0.0
 30
0.0
  3
_D
  1

  0
LINE
  5
E3
330
E0
100
AcDbEntity
  8
치수문자_일반주서
 62
     0
370
    -2
100
AcDbLine
 10
-43.3075
 20
9.526074928724128
 30
0.0
 11
-60.15
 21
9.526074928724064
 31
0.0
  0
LINE
  5
E4
330
E0
100
AcDbEntity
  8
치수문자_일반주서
 62
     0
370
    -2
100
AcDbLine
 10
-43.3075
 20
-9.523925071275883
 30
0.0
 11
-60.14999999999993
 21
-9.523925071275947
 31
0.0
  0
LINE
  5
E5
330
E0
100
AcDbEntity
  8
치수문자_일반주서
 62
     0
370
    -2
100
AcDbLine
 10
-60.15
 20
9.526074928724064
 30
0.0
 11
-60.15000000000013
 21
47.38007492872406
 31
0.0
  0
LINE
  5
E6
330
E0
100
AcDbEntity
  8
치수문자_일반주서
 62
     0
370
    -2
100
AcDbLine
 10
-60.15
 20
9.526074928724064
 30
0.0
 11
-60.14999999999993
 21
-9.523925071275947
 31
0.0
  0
LINE
  5
E7
330
E0
100
AcDbEntity
  8
치수문자_일반주서
 62
     0
370
    -2
100
AcDbLine
 10
-60.15000000000001
 20
12.82807492872406
 30
0.0
 11
-60.15000000000003
 21
16.13007492872406
 31
0.0
  0
LINE
  5
E8
330
E0
100
AcDbEntity
  8
치수문자_일반주서
 62
     0
370
    -2
100
AcDbLine
 10
-60.14999999999992
 20
-12.82592507127595
 30
0.0
 11
-60.14999999999991
 21
-16.12792507127595
 31
0.0
  0
SOLID
  5
E9
330
E0
100
AcDbEntity
  8
치수문자_일반주서
 62
     0
100
AcDbTrace
 10
-60.70033333333335
 20
12.82807492872406
 30
0.0
 11
-59.59966666666668
 21
12.82807492872407
 31
0.0
 12
-60.15
 22
9.526074928724064
 32
0.0
 13
-60.15
 23
9.526074928724064
 33
0.0
  0
SOLID
  5
EA
330
E0
100
AcDbEntity
  8
치수문자_일반주서
 62
     0
100
AcDbTrace
 10
-59.59966666666659
 20
-12.82592507127594
 30
0.0
 11
-60.70033333333325
 21
-12.82592507127595
 31
0.0
 12
-60.14999999999993
 22
-9.523925071275947
 32
0.0
 13
-60.14999999999993
 23
-9.523925071275947
 33
0.0
  0
MTEXT
  5
EB
330
E0
100
AcDbEntity
  8
치수문자_일반주서
 62
     0
100
AcDbMText
 10
-65.02500000000008
 20
31.75507492872405
 30
0.0
 40
4.0
 41
0.0
 71
     2
 72
     1
  1
\A1;%%c19.05 [3/4]
  7
SLDTEXTSTYLE0
 11
-3.356894814614645E-15
 21
1.0
 31
0.0
 73
     1
 44
1.0
  0
POINT
  5
1B5
330
E0
100
AcDbEntity
  8
Defpoints
 62
     0
100
AcDbPoint
 10
-43.245
 20
9.526074928724128
 30
0.0
  0
POINT
  5
1B6
330
E0
100
AcDbEntity
  8
Defpoints
 62
     0
100
AcDbPoint
 10
-43.245
 20
-9.523925071275883
 30
0.0
  0
POINT
  5
1B7
330
E0
100
AcDbEntity
  8
Defpoints
 62
     0
100
AcDbPoint
 10
-60.14999999999993
 20
-9.523925071275947
 30
0.0
  0
ENDBLK
  5
E2
330
E0
100
AcDbEntity
  8
0
100
AcDbBlockEnd
  0
BLOCK
  5
F6
330
F5
100
AcDbEntity
  8
0
100
AcDbBlockBegin
  2
_D_1
 70
     0
 10
0.0
 20
0.0
 30
0.0
  3
_D_1
  1

  0
LINE
  5
F8
330
F5
100
AcDbEntity
  8
치수문자_일반주서
 62
     0
370
    -2
100
AcDbLine
 10
53.27500000000002
 20
9.51906672608794
 30
0.0
 11
53.27500000000002
 21
24.52607492872411
 31
0.0
  0
LINE
  5
F9
330
F5
100
AcDbEntity
  8
치수문자_일반주서
 62
     0
370
    -2
100
AcDbLine
 10
12.0
 20
9.585891752799393
 30
0.0
 11
12.0
 21
24.52607492872411
 31
0.0
  0
LINE
  5
FA
330
F5
100
AcDbEntity
  8
치수문자_일반주서
 62
     0
370
    -2
100
AcDbLine
 10
49.97300000000002
 20
24.52607492872411
 30
0.0
 11
15.302
 21
24.52607492872411
 31
0.0
  0
SOLID
  5
FB
330
F5
100
AcDbEntity
  8
치수문자_일반주서
 62
     0
100
AcDbTrace
 10
49.97300000000002
 20
23.97574159539078
 30
0.0
 11
49.97300000000002
 21
25.07640826205745
 31
0.0
 12
53.27500000000002
 22
24.52607492872411
 32
0.0
 13
53.27500000000002
 23
24.52607492872411
 33
0.0
  0
SOLID
  5
FC
330
F5
100
AcDbEntity
  8
치수문자_일반주서
 62
     0
100
AcDbTrace
 10
15.302
 20
25.07640826205745
 30
0.0
 11
15.302
 21
23.97574159539078
 31
0.0
 12
12.0
 22
24.52607492872411
 32
0.0
 13
12.0
 23
24.52607492872411
 33
0.0
  0
MTEXT
  5
FD
330
F5
100
AcDbEntity
  8
치수문자_일반주서
 62
     0
100
AcDbMText
 10
32.63750000000002
 20
29.40107492872411
 30
0.0
 40
4.0
 41
0.0
 71
     2
 72
     1
  1
\A1;41.28 [1 5/8]
  7
SLDTEXTSTYLE0
 73
     1
 44
1.0
  0
POINT
  5
FE
330
F5
100
AcDbEntity
  8
Defpoints
 62
     0
100
AcDbPoint
 10
53.27500000000002
 20
9.45656672608794
 30
0.0
  0
POINT
  5
FF
330
F5
100
AcDbEntity
  8
Defpoints
 62
     0
100
AcDbPoint
 10
12.0
 20
9.523391752799393
 30
0.0
  0
POINT
  5
100
330
F5
100
AcDbEntity
  8
Defpoints
 62
     0
100
AcDbPoint
 10
12.0
 20
24.52607492872411
 30
0.0
  0
ENDBLK
  5
F7
330
F5
100
AcDbEntity
  8
0
100
AcDbBlockEnd
  0
BLOCK
  5
109
330
108
100
AcDbEntity
  8
0
100
AcDbBlockBegin
  2
_D_2
 70
     0
 10
0.0
 20
0.0
 30
0.0
  3
_D_2
  1

  0
LINE
  5
10B
330
108
100
AcDbEntity
  8
치수문자_일반주서
 62
     0
370
    -2
100
AcDbLine
 10
53.27500000000002
 20
9.51906672608794
 30
0.0
 11
53.27500000000002
 21
39.52607492872411
 31
0.0
  0
LINE
  5
10C
330
108
100
AcDbEntity
  8
치수문자_일반주서
 62
     0
370
    -2
100
AcDbLine
 10
-45.14999999999999
 20
7.683574928724126
 30
0.0
 11
-45.14999999999999
 21
39.52607492872411
 31
0.0
  0
LINE
  5
10D
330
108
100
AcDbEntity
  8
치수문자_일반주서
 62
     0
370
    -2
100
AcDbLine
 10
49.97300000000002
 20
39.52607492872411
 30
0.0
 11
-41.84799999999999
 21
39.52607492872411
 31
0.0
  0
SOLID
  5
10E
330
108
100
AcDbEntity
  8
치수문자_일반주서
 62
     0
100
AcDbTrace
 10
49.97300000000002
 20
38.97574159539078
 30
0.0
 11
49.97300000000002
 21
40.07640826205745
 31
0.0
 12
53.27500000000002
 22
39.52607492872411
 32
0.0
 13
53.27500000000002
 23
39.52607492872411
 33
0.0
  0
SOLID
  5
10F
330
108
100
AcDbEntity
  8
치수문자_일반주서
 62
     0
100
AcDbTrace
 10
-41.84799999999999
 20
40.07640826205745
 30
0.0
 11
-41.84799999999999
 21
38.97574159539078
 31
0.0
 12
-45.14999999999999
 22
39.52607492872411
 32
0.0
 13
-45.14999999999999
 23
39.52607492872411
 33
0.0
  0
MTEXT
  5
110
330
108
100
AcDbEntity
  8
치수문자_일반주서
 62
     0
100
AcDbMText
 10
4.062500000000014
 20
44.40107492872411
 30
0.0
 40
4.0
 41
0.0
 71
     2
 72
     1
  1
\A1;98.43 [3 7/8]
  7
SLDTEXTSTYLE0
 73
     1
 44
1.0
  0
POINT
  5
111
330
108
100
AcDbEntity
  8
Defpoints
 62
     0
100
AcDbPoint
 10
53.27500000000002
 20
9.45656672608794
 30
0.0
  0
POINT
  5
112
330
108
100
AcDbEntity
  8
Defpoints
 62
     0
100
AcDbPoint
 10
-45.14999999999999
 20
7.621074928724126
 30
0.0
  0
POINT
  5
113
330
108
100
AcDbEntity
  8
Defpoints
 62
     0
100
AcDbPoint
 10
-45.14999999999999
 20
39.52607492872411
 30
0.0
  0
ENDBLK
  5
10A
330
108
100
AcDbEntity
  8
0
100
AcDbBlockEnd
  0
BLOCK
  5
11C
330
11B
100
AcDbEntity
  8
0
100
AcDbBlockBegin
  2
_D_3
 70
     0
 10
0.0
 20
0.0
 30
0.0
  3
_D_3
  1

  0
LINE
  5
11E
330
11B
100
AcDbEntity
  8
치수문자_일반주서
 62
     0
370
    -2
100
AcDbLine
 10
53.33750000000002
 20
9.526074928724125
 30
0.0
 11
68.27500000000002
 21
9.526074928724181
 31
0.0
  0
LINE
  5
11F
330
11B
100
AcDbEntity
  8
치수문자_일반주서
 62
     0
370
    -2
100
AcDbLine
 10
53.33750000000002
 20
-9.52392507127588
 30
0.0
 11
68.27500000000009
 21
-9.523925071275823
 31
0.0
  0
LINE
  5
120
330
11B
100
AcDbEntity
  8
치수문자_일반주서
 62
     0
370
    -2
100
AcDbLine
 10
68.27500000000002
 20
9.526074928724181
 30
0.0
 11
68.27499999999988
 21
47.38007492872418
 31
0.0
  0
LINE
  5
121
330
11B
100
AcDbEntity
  8
치수문자_일반주서
 62
     0
370
    -2
100
AcDbLine
 10
68.27500000000002
 20
9.526074928724181
 30
0.0
 11
68.27500000000009
 21
-9.523925071275823
 31
0.0
  0
LINE
  5
122
330
11B
100
AcDbEntity
  8
치수문자_일반주서
 62
     0
370
    -2
100
AcDbLine
 10
68.275
 20
12.82807492872418
 30
0.0
 11
68.27499999999999
 21
16.13007492872418
 31
0.0
  0
LINE
  5
123
330
11B
100
AcDbEntity
  8
치수문자_일반주서
 62
     0
370
    -2
100
AcDbLine
 10
68.2750000000001
 20
-12.82592507127582
 30
0.0
 11
68.27500000000012
 21
-16.12792507127582
 31
0.0
  0
SOLID
  5
124
330
11B
100
AcDbEntity
  8
치수문자_일반주서
 62
     0
100
AcDbTrace
 10
67.72466666666668
 20
12.82807492872418
 30
0.0
 11
68.82533333333333
 21
12.82807492872418
 31
0.0
 12
68.27500000000002
 22
9.526074928724181
 32
0.0
 13
68.27500000000002
 23
9.526074928724181
 33
0.0
  0
SOLID
  5
125
330
11B
100
AcDbEntity
  8
치수문자_일반주서
 62
     0
100
AcDbTrace
 10
68.82533333333343
 20
-12.82592507127582
 30
0.0
 11
67.72466666666678
 21
-12.82592507127582
 31
0.0
 12
68.27500000000009
 22
-9.523925071275823
 32
0.0
 13
68.27500000000009
 23
-9.523925071275823
 33
0.0
  0
MTEXT
  5
126
330
11B
100
AcDbEntity
  8
치수문자_일반주서
 62
     0
100
AcDbMText
 10
63.39999999999993
 20
31.75507492872416
 30
0.0
 40
4.0
 41
0.0
 71
     2
 72
     1
  1
\A1;%%c19.05 [3/4]
  7
SLDTEXTSTYLE0
 11
-3.729883127349606E-15
 21
1.0
 31
0.0
 73
     1
 44
1.0
  0
POINT
  5
127
330
11B
100
AcDbEntity
  8
Defpoints
 62
     0
100
AcDbPoint
 10
53.27500000000002
 20
9.526074928724125
 30
0.0
  0
POINT
  5
128
330
11B
100
AcDbEntity
  8
Defpoints
 62
     0
100
AcDbPoint
 10
53.27500000000002
 20
-9.52392507127588
 30
0.0
  0
POINT
  5
129
330
11B
100
AcDbEntity
  8
Defpoints
 62
     0
100
AcDbPoint
 10
68.27500000000006
 20
-9.523925071275823
 30
0.0
  0
ENDBLK
  5
11D
330
11B
100
AcDbEntity
  8
0
100
AcDbBlockEnd
  0
BLOCK
  5
135
330
134
100
AcDbEntity
  8
0
100
AcDbBlockBegin
  2
SW_DOWELSYMBOL_0
 70
     0
 10
0.0
 20
0.0
 30
0.0
  3
SW_DOWELSYMBOL_0
  1

  0
CIRCLE
  5
137
330
134
100
AcDbEntity
  8
해칭선
 62
     0
100
AcDbCircle
 10
0.0
 20
0.0
 30
0.0
 40
3.000000000000002
  0
HATCH
  5
138
330
134
100
AcDbEntity
  8
0
  6
Continuous
 62
     0
370
     0
100
AcDbHatch
 10
0.0
 20
0.0
 30
0.0
210
0.0
220
0.0
230
1.0
  2
SOLID
 70
     1
 71
     0
 91
        1
 92
        0
 93
        3
 72
     2
 10
0.0
 20
0.0
 40
3.000000000000002
 50
0.0
 51
90.0
 73
     1
 72
     1
 10
0.0
 20
3.000000000000002
 11
0.0
 21
0.0
 72
     1
 10
0.0
 20
0.0
 11
3.000000000000003
 21
0.0
 97
        0
 75
     0
 76
     1
 98
        1
 10
0.0
 20
0.0
  0
HATCH
  5
139
330
134
100
AcDbEntity
  8
0
  6
Continuous
 62
     0
370
     0
100
AcDbHatch
 10
0.0
 20
0.0
 30
0.0
210
0.0
220
0.0
230
1.0
  2
SOLID
 70
     1
 71
     0
 91
        1
 92
        0
 93
        3
 72
     2
 10
0.0
 20
0.0
 40
3.000000000000002
 50
180.0
 51
270.0000000000008
 73
     1
 72
     1
 10
0.0
 20
-3.000000000000002
 11
0.0
 21
0.0
 72
     1
 10
0.0
 20
0.0
 11
-3.000000000000002
 21
0.0
 97
        0
 75
     0
 76
     1
 98
        1
 10
0.0
 20
0.0
  0
ENDBLK
  5
136
330
134
100
AcDbEntity
  8
0
100
AcDbBlockEnd
  0
BLOCK
  5
196
330
195
100
AcDbEntity
  8
0
100
AcDbBlockBegin
  2
*D8
 70
     1
 10
0.0
 20
0.0
 30
0.0
  3
*D8
  1

  0
LINE
  5
198
330
195
100
AcDbEntity
  8
치수문자_일반주서
 62
     0
370
    -2
100
AcDbLine
 10
0.0
 20
0.0625000000000001
 30
0.0
 11
0.0
 21
31.64047088264928
 31
0.0
  0
LINE
  5
199
330
195
100
AcDbEntity
  8
치수문자_일반주서
 62
     0
370
    -2
100
AcDbLine
 10
38.00011895067188
 20
10.47787127993619
 30
0.0
 11
38.00011895067188
 21
31.64047088264928
 31
0.0
  0
LINE
  5
19A
330
195
100
AcDbEntity
  8
치수문자_일반주서
 62
     0
370
    -2
100
AcDbLine
 10
4.0
 20
31.64047088264928
 30
0.0
 11
34.00011895067188
 21
31.64047088264928
 31
0.0
  0
SOLID
  5
19B
330
195
100
AcDbEntity
  8
치수문자_일반주서
 62
     0
100
AcDbTrace
 10
4.0
 20
32.30713754931594
 30
0.0
 11
4.0
 21
30.97380421598261
 31
0.0
 12
0.0
 22
31.64047088264928
 32
0.0
 13
0.0
 23
31.64047088264928
 33
0.0
  0
SOLID
  5
19C
330
195
100
AcDbEntity
  8
치수문자_일반주서
 62
     0
100
AcDbTrace
 10
34.00011895067188
 20
30.97380421598261
 30
0.0
 11
34.00011895067188
 21
32.30713754931594
 31
0.0
 12
38.00011895067188
 22
31.64047088264928
 32
0.0
 13
38.00011895067188
 23
31.64047088264928
 33
0.0
  0
MTEXT
  5
19D
330
195
100
AcDbEntity
  8
치수문자_일반주서
 62
     0
100
AcDbMText
 10
19.06814435762387
 20
36.51547088264928
 30
0.0
 40
4.0
 41
0.0
 71
     2
 72
     1
  1
\A1;38
  7
SLDTEXTSTYLE0
 73
     1
 44
1.0
  0
POINT
  5
19E
330
195
100
AcDbEntity
  8
Defpoints
 62
     0
100
AcDbPoint
 10
0.0
 20
0.0000000000000001
 30
0.0
  0
POINT
  5
19F
330
195
100
AcDbEntity
  8
Defpoints
 62
     0
100
AcDbPoint
 10
38.00011895067188
 20
10.41537127993619
 30
0.0
  0
POINT
  5
1A0
330
195
100
AcDbEntity
  8
Defpoints
 62
     0
100
AcDbPoint
 10
38.00011895067188
 20
31.64047088264928
 30
0.0
  0
ENDBLK
  5
197
330
195
100
AcDbEntity
  8
0
100
AcDbBlockEnd
  0
BLOCK
  5
1A5
330
1A4
100
AcDbEntity
  8
0
100
AcDbBlockBegin
  2
*D9
 70
     1
 10
0.0
 20
0.0
 30
0.0
  3
*D9
  1

  0
LINE
  5
1A7
330
1A4
100
AcDbEntity
  8
치수문자_일반주서
 62
     0
370
    -2
100
AcDbLine
 10
75.97619231182918
 20
-61.22306017980141
 30
0.0
 11
75.97619231182918
 21
-29.64508929715213
 31
0.0
  0
LINE
  5
1A8
330
1A4
100
AcDbEntity
  8
치수문자_일반주서
 62
     0
370
    -2
100
AcDbLine
 10
113.9763112625011
 20
-50.80768889986522
 30
0.0
 11
113.9763112625011
 21
-29.64508929715213
 31
0.0
  0
LINE
  5
1A9
330
1A4
100
AcDbEntity
  8
치수문자_일반주서
 62
     0
370
    -2
100
AcDbLine
 10
79.97619231182918
 20
-29.64508929715213
 30
0.0
 11
109.9763112625011
 21
-29.64508929715213
 31
0.0
  0
SOLID
  5
1AA
330
1A4
100
AcDbEntity
  8
치수문자_일반주서
 62
     0
100
AcDbTrace
 10
79.97619231182918
 20
-28.97842263048546
 30
0.0
 11
79.97619231182918
 21
-30.3117559638188
 31
0.0
 12
75.97619231182918
 22
-29.64508929715213
 32
0.0
 13
75.97619231182918
 23
-29.64508929715213
 33
0.0
  0
SOLID
  5
1AB
330
1A4
100
AcDbEntity
  8
치수문자_일반주서
 62
     0
100
AcDbTrace
 10
109.9763112625011
 20
-30.3117559638188
 30
0.0
 11
109.9763112625011
 21
-28.97842263048546
 31
0.0
 12
113.9763112625011
 22
-29.64508929715213
 32
0.0
 13
113.9763112625011
 23
-29.64508929715213
 33
0.0
  0
MTEXT
  5
1AC
330
1A4
100
AcDbEntity
  8
치수문자_일반주서
 62
     0
100
AcDbMText
 10
95.04433666945306
 20
-24.77008929715213
 30
0.0
 40
4.0
 41
0.0
 71
     2
 72
     1
  1
\A1;38
  7
SLDTEXTSTYLE0
 73
     1
 44
1.0
  0
POINT
  5
1AD
330
1A4
100
AcDbEntity
  8
Defpoints
 62
     0
100
AcDbPoint
 10
75.97619231182918
 20
-61.28556017980141
 30
0.0
  0
POINT
  5
1AE
330
1A4
100
AcDbEntity
  8
Defpoints
 62
     0
100
AcDbPoint
 10
113.9763112625011
 20
-50.87018889986522
 30
0.0
  0
POINT
  5
1AF
330
1A4
100
AcDbEntity
  8
Defpoints
 62
     0
100
AcDbPoint
 10
113.9763112625011
 20
-29.64508929715213
 30
0.0
  0
ENDBLK
  5
1A6
330
1A4
100
AcDbEntity
  8
0
100
AcDbBlockEnd
  0
ENDSEC
  0
SECTION
  2
ENTITIES
  0
LINE
  5
96
330
1F
100
AcDbEntity
  8
0
  6
Continuous
 62
     1
370
    15
100
AcDbLine
 10
31.35315197860892
 20
-1.849982139798233
 30
0.0
 11
31.40891005927673
 21
-1.904022164061498
 31
0.0
1001
PE_URL
1000

  0
LINE
  5
97
330
1F
100
AcDbEntity
  8
0
  6
Continuous
 62
     1
370
    15
100
AcDbLine
 10
34.47781536875029
 20
9.526074928724125
 30
0.0
 11
32.17375414101756
 21
9.526074928724125
 31
0.0
1001
PE_URL
1000

  0
LINE
  5
98
330
1F
100
AcDbEntity
  8
0
  6
Continuous
 62
     1
370
    15
100
AcDbLine
 10
32.17375414101748
 20
-9.52392507127588
 30
0.0
 11
34.47781536875021
 21
-9.52392507127588
 31
0.0
1001
PE_URL
1000

  0
LINE
  5
99
330
1F
100
AcDbEntity
  8
0
  6
Continuous
 62
     1
370
    15
100
AcDbLine
 10
52.12270245238492
 20
-9.52392507127588
 30
0.0
 11
53.27500000000002
 21
-9.52392507127588
 31
0.0
1001
PE_URL
1000

  0
LINE
  5
9A
330
1F
100
AcDbEntity
  8
0
  6
Continuous
 62
     1
370
    15
100
AcDbLine
 10
24.50326024648394
 20
9.526074928724125
 30
0.0
 11
22.19961958482077
 21
9.526074928724125
 31
0.0
1001
PE_URL
1000

  0
LINE
  5
9B
330
1F
100
AcDbEntity
  8
0
  6
Continuous
 62
     1
370
    15
100
AcDbLine
 10
42.14873544909193
 20
-9.52392507127588
 30
0.0
 11
44.45226563231384
 21
-9.52392507127588
 31
0.0
1001
PE_URL
1000

  0
LINE
  5
9C
330
1F
100
AcDbEntity
  8
0
  6
Continuous
 62
     1
370
    15
100
AcDbLine
 10
14.52772191537371
 20
9.526074928724125
 30
0.0
 11
12.22562195957535
 21
9.526074928724125
 31
0.0
1001
PE_URL
1000

  0
LINE
  5
9D
330
1F
100
AcDbEntity
  8
0
  6
Continuous
 62
     1
370
    15
100
AcDbLine
 10
22.19961958482076
 20
-9.52392507127588
 30
0.0
 11
24.50326024648388
 21
-9.52392507127588
 31
0.0
1001
PE_URL
1000

  0
LINE
  5
9E
330
1F
100
AcDbEntity
  8
0
  6
Continuous
 62
     1
370
    15
100
AcDbLine
 10
53.27500000000002
 20
9.526074928724125
 30
0.0
 11
52.12270245238494
 21
9.526074928724125
 31
0.0
1001
PE_URL
1000

  0
LINE
  5
9F
330
1F
100
AcDbEntity
  8
0
  6
Continuous
 62
     1
370
    15
100
AcDbLine
 10
12.2256219595754
 20
-9.52392507127588
 30
0.0
 11
14.52772191537371
 21
-9.52392507127588
 31
0.0
1001
PE_URL
1000

  0
LINE
  5
A0
330
1F
100
AcDbEntity
  8
0
  6
Continuous
 62
     1
370
    15
100
AcDbLine
 10
44.45226563231385
 20
9.526074928724125
 30
0.0
 11
42.14873544909202
 21
9.526074928724125
 31
0.0
1001
PE_URL
1000

  0
LINE
  5
A1
330
1F
100
AcDbEntity
  8
외형선
  6
Continuous
370
    15
100
AcDbLine
 10
-43.24499999999999
 20
-9.523925071275876
 30
0.0
 11
10.99962757077966
 21
-9.523925071275876
 31
0.0
  0
LINE
  5
A2
330
1F
100
AcDbEntity
  8
외형선
  6
Continuous
370
    15
100
AcDbLine
 10
10.99962757077966
 20
9.526074928724121
 30
0.0
 11
-11.65692499999999
 21
9.526074928724121
 31
0.0
  0
LINE
  5
A3
330
1F
100
AcDbEntity
  8
외형선
  6
Continuous
370
    15
100
AcDbLine
 10
-43.24499999999999
 20
9.526074928724121
 30
0.0
 11
-45.14999999999999
 21
7.621074928724126
 31
0.0
  0
LINE
  5
A4
330
1F
100
AcDbEntity
  8
외형선
  6
Continuous
370
    15
100
AcDbLine
 10
-45.14999999999999
 20
-7.618925071275884
 30
0.0
 11
-43.24499999999999
 21
-9.523925071275876
 31
0.0
  0
SPLINE
  5
A5
330
1F
100
AcDbEntity
  8
0
  6
Continuous
 62
     1
370
    15
100
AcDbSpline
210
0.0
220
0.0
230
1.0
 70
     8
 71
     3
 72
    30
 73
    26
 74
     0
 42
0.000000001
 43
0.00000001
 40
0.0
 40
0.0
 40
0.0
 40
0.0
 40
0.019555376671398
 40
0.0668424078868687
 40
0.1140940714806121
 40
0.1613099867400801
 40
0.20854236066931
 40
0.2533117096778193
 40
0.2980226941958862
 40
0.3427118862373791
 40
0.3874600340574971
 40
0.4322028643988451
 40
0.4768911379608354
 40
0.5216057265870412
 40
0.5663740504368616
 40
0.6110747261259085
 40
0.6557688905593577
 40
0.7005308795059416
 40
0.7452572408265887
 40
0.7899442840468545
 40
0.8346729033408139
 40
0.8794332791421704
 40
0.9241265254382078
 40
0.9688285459219412
 40
1.0
 40
1.0
 40
1.0
 40
1.0
 10
14.52772191537372
 20
9.493703813346087
 30
0.0
 10
14.74772817244691
 20
9.501556101046157
 30
0.0
 10
15.49973352729434
 20
9.528396075857835
 30
0.0
 10
16.78478087034994
 20
9.293498447244701
 30
0.0
 10
18.37998755409981
 20
8.801898394037487
 30
0.0
 10
19.97400056181892
 20
8.047844346402474
 30
0.0
 10
21.54015911370377
 20
7.08996021461667
 30
0.0
 10
23.07998468743814
 20
5.964022039327037
 30
0.0
 10
24.58937961904794
 20
4.708493381715518
 30
0.0
 10
26.0980121943662
 20
3.334507855085516
 30
0.0
 10
27.60867264730318
 20
1.878181816965613
 30
0.0
 10
29.11914322754174
 20
0.3746625561523317
 30
0.0
 10
30.6277469124458
 20
-1.139329845982235
 30
0.0
 10
32.13724374028794
 20
-2.624384596722117
 30
0.0
 10
33.64861510561786
 20
-4.042142720752249
 30
0.0
 10
35.15764824775226
 20
-5.360273032933758
 30
0.0
 10
36.66645992569726
 20
-6.543879823962618
 30
0.0
 10
38.17760866905321
 20
-7.562184852127111
 30
0.0
 10
39.68750461890045
 20
-8.391630549693286
 30
0.0
 10
41.19606309909906
 20
-9.010969902518386
 30
0.0
 10
42.70603628302284
 20
-9.403438274053743
 30
0.0
 10
44.21713067338307
 20
-9.562306710956845
 30
0.0
 10
45.72590101504164
 20
-9.47337857599944
 30
0.0
 10
47.08206770312896
 20
-9.20702720204133
 30
0.0
 10
47.93643489717423
 20
-8.875033298111449
 30
0.0
 10
48.28743856359118
 20
-8.738638691296417
 30
0.0
1001
PE_URL
1000

  0
SPLINE
  5
A6
330
1F
100
AcDbEntity
  8
0
  6
Continuous
 62
     1
370
    15
100
AcDbSpline
210
0.0
220
0.0
230
1.0
 70
     8
 71
     3
 72
    31
 73
    27
 74
     0
 42
0.000000001
 43
0.00000001
 40
0.0
 40
0.0
 40
0.0
 40
0.0
 40
0.010621130384621
 40
0.0553103356962516
 40
0.1000235952205715
 40
0.144793012593145
 40
0.189495537381884
 40
0.2341892878839403
 40
0.2789501686486359
 40
0.323679292547674
 40
0.3683668399039782
 40
0.4130937058042314
 40
0.457856199732353
 40
0.5025508683821793
 40
0.5472520483610601
 40
0.5920208772638855
 40
0.636735970336883
 40
0.6814247480487925
 40
0.7261680831555413
 40
0.7709167358010489
 40
0.8156064320028231
 40
0.8603179209270223
 40
0.9050877750001022
 40
0.952320681780472
 40
0.9995371297054019
 40
1.0
 40
1.0
 40
1.0
 40
1.0
 10
52.12270245238492
 20
-9.50227415507372
 30
0.0
 10
52.00314592075073
 20
-9.508848109767222
 30
0.0
 10
51.38054628588123
 20
-9.543082473510271
 30
0.0
 10
50.2558635955935
 20
-9.368285493587404
 30
0.0
 10
48.74636579647314
 20
-8.971741662024012
 30
0.0
 10
47.23499057041813
 20
-8.331399068345078
 30
0.0
 10
45.72590770126757
 20
-7.486598506408839
 30
0.0
 10
44.21712887892103
 20
-6.452367103938136
 30
0.0
 10
42.70603676378643
 20
-5.258011818666654
 30
0.0
 10
41.19606297045423
 20
-3.930995256406411
 30
0.0
 10
39.68750465339222
 20
-2.504775586033714
 30
0.0
 10
38.1776086597915
 20
-1.016252991712846
 30
0.0
 10
36.66645992820379
 20
0.4966802058458205
 30
0.0
 10
35.15764824697596
 20
1.998934580205159
 30
0.0
 10
33.64861510621859
 20
3.450958978222813
 30
0.0
 10
32.13724373866084
 20
4.814798191882798
 30
0.0
 10
30.62774691834353
 20
6.05940234791594
 30
0.0
 10
29.11914320557764
 20
7.152212415988142
 30
0.0
 10
27.60867272937994
 20
8.065001347430488
 30
0.0
 10
26.09801188819682
 20
8.775546320343429
 30
0.0
 10
24.5893807602384
 20
9.26712327562257
 30
0.0
 10
23.07998042360907
 20
9.524150391587694
 30
0.0
 10
21.54017542004097
 20
9.550108968024642
 30
0.0
 10
19.97393597929863
 20
9.29247304387653
 30
0.0
 10
18.90646454925896
 20
9.015429916281803
 30
0.0
 10
18.36987495382986
 20
8.765313770841898
 30
0.0
 10
18.36466574796471
 20
8.76288564606481
 30
0.0
1001
PE_URL
1000

  0
LINE
  5
A7
330
1F
100
AcDbEntity
  8
0
  6
Continuous
 62
     1
370
    15
100
AcDbLine
 10
53.27500000000002
 20
-9.454416868639685
 30
0.0
 11
53.27500000000002
 21
-5.709864417409518
 31
0.0
1001
PE_URL
1000

  0
SPLINE
  5
A8
330
1F
100
AcDbEntity
  8
0
  6
Continuous
 62
     1
370
    15
100
AcDbSpline
210
0.0
220
0.0
230
1.0
 70
     8
 71
     3
 72
    27
 73
    23
 74
     0
 42
0.000000001
 43
0.00000001
 40
0.0
 40
0.0
 40
0.0
 40
0.0
 40
0.0029990537496655
 40
0.0554340628778992
 40
0.1079382463780368
 40
0.1604361907399152
 40
0.2128701221918942
 40
0.2653349298036183
 40
0.3178627863721936
 40
0.3703112695673505
 40
0.4227521129343723
 40
0.4752725365936945
 40
0.5277511574186876
 40
0.5801836452782315
 40
0.6326649154429382
 40
0.685183446356367
 40
0.7376232124485183
 40
0.7900732735267929
 40
0.8426018205546745
 40
0.8950644768395852
 40
0.9474989099999485
 40
0.9999999999999999
 40
0.9999999999999999
 40
0.9999999999999999
 40
0.9999999999999999
 10
24.50326024648395
 20
9.519638470517355
 30
0.0
 10
24.53201968673641
 20
9.52176456207144
 30
0.0
 10
25.06360489739368
 20
9.561062921731189
 30
0.0
 10
26.09794507834377
 20
9.415297914073033
 30
0.0
 10
27.60869063933045
 20
9.066513966892053
 30
0.0
 10
29.11913841348154
 20
8.463859129142918
 30
0.0
 10
30.62774820251592
 20
7.655630725492058
 30
0.0
 10
32.13724339399818
 20
6.653588880021996
 30
0.0
 10
33.64861519848541
 20
5.48652426119991
 30
0.0
 10
35.1576482221879
 20
4.180341011779207
 30
0.0
 10
36.66645993517865
 20
2.769210816687392
 30
0.0
 10
38.17760865671948
 20
1.290361263150281
 30
0.0
 10
39.68750465869947
 20
-0.2218563138342144
 30
0.0
 10
41.19606295230307
 20
-1.729068438750434
 30
0.0
 10
42.70603683117791
 20
-3.192245403585001
 30
0.0
 10
44.21712862749911
 20
-4.574487027329504
 30
0.0
 10
45.72590863804248
 20
-5.843623018095053
 30
0.0
 10
47.23498707119105
 20
-6.965630154482958
 30
0.0
 10
48.74637887054443
 20
-7.913017601852544
 30
0.0
 10
50.25581488414051
 20
-8.658489991681856
 30
0.0
 10
51.76443422153338
 20
-9.203754379248432
 30
0.0
 10
52.77126488848919
 20
-9.370827329643735
 30
0.0
 10
53.27500000000001
 20
-9.454416868639685
 30
0.0
1001
PE_URL
1000

  0
SPLINE
  5
A9
330
1F
100
AcDbEntity
  8
0
  6
Continuous
 62
     1
370
    15
100
AcDbSpline
210
0.0
220
0.0
230
1.0
 70
     8
 71
     3
 72
    24
 73
    20
 74
     0
 42
0.000000001
 43
0.00000001
 40
0.0
 40
0.0
 40
0.0
 40
0.0
 40
0.0605770353720136
 40
0.1210771604601533
 40
0.1816098500762692
 40
0.2422185660352196
 40
0.3027367229953863
 40
0.3632430013500115
 40
0.4238401604723424
 40
0.4843943272359753
 40
0.5448922077886856
 40
0.6054433176796805
 40
0.6660426606982873
 40
0.7265501820388764
 40
0.7870665183991001
 40
0.8476744376892998
 40
0.9082096095586483
 40
0.9687091557634441
 40
1.0
 40
1.0
 40
1.0
 40
1.0
 10
53.27500000000002
 20
-5.721394500638076
 30
0.0
 10
52.77126488848912
 20
-5.305191091833719
 30
0.0
 10
51.76443422153316
 20
-4.473312697613901
 30
0.0
 10
50.25581488414153
 20
-3.073565704665518
 30
0.0
 10
48.7463788705406
 20
-1.607216420147066
 30
0.0
 10
47.23498707120511
 20
-0.0994321166787433
 30
0.0
 10
45.72590863799009
 20
1.411988773725922
 30
0.0
 10
44.21712862769451
 20
2.888295779256233
 30
0.0
 10
42.70603683044759
 20
4.290561310867877
 30
0.0
 10
41.19606295502542
 20
5.586244932243171
 30
0.0
 10
39.68750464854624
 20
6.742344286981251
 30
0.0
 10
38.17760869466322
 20
7.728926800188444
 30
0.0
 10
36.66645979353977
 20
8.521212753222416
 30
0.0
 10
35.15764874991752
 20
9.10096056208812
 30
0.0
 10
33.64861322729676
 20
9.451446830080462
 30
0.0
 10
32.13725075922046
 20
9.56783293590716
 30
0.0
 10
30.62772076007047
 20
9.433353587114425
 30
0.0
 10
29.3624686876205
 20
9.156940470947209
 30
0.0
 10
28.59924089569814
 20
8.843452549524374
 30
0.0
 10
28.33906069775779
 20
8.736586224279236
 30
0.0
1001
PE_URL
1000

  0
SPLINE
  5
AA
330
1F
100
AcDbEntity
  8
0
  6
Continuous
 62
     1
370
    15
100
AcDbSpline
210
0.0
220
0.0
230
1.0
 70
     8
 71
     3
 72
    25
 73
    21
 74
     0
 42
0.000000001
 43
0.00000001
 40
0.0
 40
0.0
 40
0.0
 40
0.0
 40
0.060576164268589
 40
0.1211695081340862
 40
0.1818360657668251
 40
0.2424572487628677
 40
0.3030325686897802
 40
0.3636290041490491
 40
0.4210655194470607
 40
0.4784271564405538
 40
0.5357608349324862
 40
0.5931701503178713
 40
0.6505726436819969
 40
0.7079051438172372
 40
0.7652714046754244
 40
0.8227066047534467
 40
0.8800550161086664
 40
0.9373950738952053
 40
0.994822146654544
 40
1.0
 40
1.0
 40
1.0
 40
1.0
 10
12.00000000000002
 20
6.761161286863212
 30
0.0
 10
12.53119467109796
 20
6.368443765394928
 30
0.0
 10
13.5937346618276
 20
5.582897346493915
 30
0.0
 10
15.18816124774227
 20
4.197059188509264
 30
0.0
 10
16.78474658007229
 20
2.708635372276627
 30
0.0
 10
18.37999673257198
 20
1.13989058514581
 30
0.0
 10
19.97399809793061
 20
-0.4597572347221073
 30
0.0
 10
21.54015973567083
 20
-2.018950077666517
 30
0.0
 10
23.0799845252801
 20
-3.494170165725437
 30
0.0
 10
24.58937966066791
 20
-4.856121882519935
 30
0.0
 10
26.09801218984589
 20
-6.096395434313022
 30
0.0
 10
27.60867262367222
 20
-7.18278078095901
 30
0.0
 10
29.1191433265132
 20
-8.089337635710505
 30
0.0
 10
30.62774654058973
 20
-8.79349176926728
 30
0.0
 10
32.13724513052416
 20
-9.277258419004223
 30
0.0
 10
33.64860991344018
 20
-9.526546386518069
 30
0.0
 10
35.15766759069789
 20
-9.543355009954636
 30
0.0
 10
36.66638769881513
 20
-9.297788468879725
 30
0.0
 10
37.71952354251163
 20
-9.02385724930701
 30
0.0
 10
38.2686512056909
 20
-8.77359944852208
 30
0.0
 10
38.31406779963613
 20
-8.75290142567238
 30
0.0
1001
PE_URL
1000

  0
SPLINE
  5
AB
330
1F
100
AcDbEntity
  8
외형선
  6
Continuous
370
    15
100
AcDbSpline
210
0.0
220
0.0
230
1.0
 70
    24
 71
     3
 72
    13
 73
     9
 74
     0
 42
0.000000001
 43
0.00000001
 40
0.0
 40
0.0
 40
0.0
 40
0.0
 40
0.0003507726836289
 40
0.2256889105158204
 40
0.4575618696106359
 40
0.6829000074427783
 40
0.9147729665375414
 40
1.0
 40
1.0
 40
1.0
 40
1.0
 10
12.00000000000002
 20
9.523391752799373
 30
0.0
 10
12.00000000000002
 20
9.523068589686714
 30
0.0
 10
12.0000000000033
 20
9.315143816125905
 30
0.0
 10
11.99999999999848
 20
8.886636795186334
 30
0.0
 10
12.00000000000039
 20
8.24571858681303
 30
0.0
 10
11.99999999999986
 20
7.619754755349156
 30
0.0
 10
12.00000000000001
 20
7.143370271301047
 30
0.0
 10
12.00000000000002
 20
6.898167627446366
 30
0.0
 10
12.0
 20
6.832264459917543
 30
0.0
  0
SPLINE
  5
AC
330
1F
100
AcDbEntity
  8
0
  6
Continuous
 62
     1
370
    15
100
AcDbSpline
210
0.0
220
0.0
230
1.0
 70
     8
 71
     3
 72
    27
 73
    23
 74
     0
 42
0.000000001
 43
0.00000001
 40
0.0
 40
0.0
 40
0.0
 40
0.0
 40
0.0316067779912803
 40
0.0816447707909824
 40
0.1317267897486503
 40
0.1818487024822671
 40
0.231894669208825
 40
0.2819479268666514
 40
0.3320769330622588
 40
0.3821457696306413
 40
0.432185140096574
 40
0.4822856001208207
 40
0.5323920143533841
 40
0.5824324132800839
 40
0.6324972141744971
 40
0.6826273682841173
 40
0.7355154766992175
 40
0.7883851556381275
 40
0.8412948635152743
 40
0.8942441740305421
 40
0.9471295841260905
 40
1.0
 40
1.0
 40
1.0
 40
1.0
 10
42.14873544909193
 20
-9.496080374725963
 30
0.0
 10
41.83104315896268
 20
-9.497854380743558
 30
0.0
 10
41.01039911176434
 20
-9.502436888797005
 30
0.0
 10
39.68753164983472
 20
-9.239852835220685
 30
0.0
 10
38.17760141665658
 20
-8.745757249573472
 30
0.0
 10
36.6664618663314
 20
-8.023048899165138
 30
0.0
 10
35.15764772803053
 20
-7.100935964987709
 30
0.0
 10
33.64861524514082
 20
-5.999882189663322
 30
0.0
 10
32.1372437028724
 20
-4.750095534170442
 30
0.0
 10
30.62774692266761
 20
-3.37985213335847
 30
0.0
 10
29.11914322402221
 20
-1.924477009247445
 30
0.0
 10
27.6086726511536
 20
-0.4218976585976388
 30
0.0
 10
26.09801218249293
 20
1.091111741638304
 30
0.0
 10
24.58937966263778
 20
2.57807967445302
 30
0.0
 10
23.07998452475233
 20
4.00011847644284
 30
0.0
 10
21.54015973582102
 20
5.345299020581568
 30
0.0
 10
19.97399809788946
 20
6.574785705522812
 30
0.0
 10
18.379996732583
 20
7.641817368873397
 30
0.0
 10
16.78474658006936
 20
8.496400997946882
 30
0.0
 10
15.18816124774305
 20
9.107816628334417
 30
0.0
 10
13.59373466182741
 20
9.484029475375351
 30
0.0
 10
12.53119467109789
 20
9.51027223390409
 30
0.0
 10
12.0
 20
9.523391752799375
 30
0.0
1001
PE_URL
1000

  0
LINE
  5
AD
330
1F
100
AcDbEntity
  8
0
  6
Continuous
 62
     1
370
    15
100
AcDbLine
 10
53.27500000000002
 20
-3.731947439277354
 30
0.0
 11
53.27500000000002
 21
3.734097296725775
 31
0.0
1001
PE_URL
1000

  0
SPLINE
  5
AE
330
1F
100
AcDbEntity
  8
0
  6
Continuous
 62
     1
370
    15
100
AcDbSpline
210
0.0
220
0.0
230
1.0
 70
     8
 71
     3
 72
    20
 73
    16
 74
     0
 42
0.000000001
 43
0.00000001
 40
0.0
 40
0.0
 40
0.0
 40
0.0
 40
0.0361778070629655
 40
0.1164454793440665
 40
0.1968349598267959
 40
0.2771604555222694
 40
0.3574153385899841
 40
0.4377448894515885
 40
0.5181314728354661
 40
0.5983974962043699
 40
0.6786792774161922
 40
0.7590811917928767
 40
0.8393822516404659
 40
0.9196401122493226
 40
1.0
 40
1.0
 40
1.0
 40
1.0
 10
34.47781536875029
 20
9.49648270954943
 30
0.0
 10
34.70445382116878
 20
9.50310154210397
 30
0.0
 10
35.4339348309972
 20
9.524405573278944
 30
0.0
 10
36.6664213661077
 20
9.305651422490996
 30
0.0
 10
38.17761898901026
 20
8.855895337772985
 30
0.0
 10
39.68750189390036
 20
8.170265060030765
 30
0.0
 10
41.19606369360559
 20
7.283041741913654
 30
0.0
 10
42.70603663230158
 20
6.212591361455722
 30
0.0
 10
44.21712868071433
 20
4.987534755787046
 30
0.0
 10
45.72590862379012
 20
3.635937991673129
 30
0.0
 10
47.23498707501671
 20
2.193343471393928
 30
0.0
 10
48.74637886952046
 20
0.6971368737414118
 30
0.0
 10
50.25581488441323
 20
-0.8163443506520215
 30
0.0
 10
51.76443422146513
 20
-2.316311064841798
 30
0.0
 10
52.77126488846642
 20
-3.259868859780504
 30
0.0
 10
53.27500000000001
 20
-3.731947439277353
 30
0.0
1001
PE_URL
1000

  0
SPLINE
  5
AF
330
1F
100
AcDbEntity
  8
0
  6
Continuous
 62
     1
370
    15
100
AcDbSpline
210
0.0
220
0.0
230
1.0
 70
     8
 71
     3
 72
    17
 73
    13
 74
     0
 42
0.000000001
 43
0.00000001
 40
0.0
 40
0.0
 40
0.0
 40
0.0
 40
0.1009651853894501
 40
0.2018021825798246
 40
0.3026934558433685
 40
0.4037114440204375
 40
0.5045784953607212
 40
0.6054257483466731
 40
0.7064244744693241
 40
0.8073515442053657
 40
0.9081848003751646
 40
1.0
 40
1.0
 40
1.0
 40
1.0
 10
53.27500000000002
 20
3.734097296725776
 30
0.0
 10
52.77126488900875
 20
4.188096664890155
 30
0.0
 10
51.76443422309137
 20
5.095518991031955
 30
0.0
 10
50.25581487791642
 20
6.305161564422009
 30
0.0
 10
48.74637889391204
 20
7.363090323410381
 30
0.0
 10
47.23498698388622
 20
8.233697947823366
 30
0.0
 10
45.72590896329367
 20
8.899544989638887
 30
0.0
 10
44.21712741308083
 20
9.34155116505967
 30
0.0
 10
42.70604136971173
 20
9.550513340202649
 30
0.0
 10
41.19604603512402
 20
9.515044999082912
 30
0.0
 10
39.73295320419667
 20
9.268064583240822
 30
0.0
 10
38.77203578318187
 20
8.920634540114468
 30
0.0
 10
38.31406779963619
 20
8.75505128312062
 30
0.0
1001
PE_URL
1000

  0
LINE
  5
B0
330
1F
100
AcDbEntity
  8
외형선
  6
Continuous
370
    15
100
AcDbLine
 10
12.2256219595754
 20
-9.507726968354254
 30
0.0
 11
12.0
 21
-9.521241895351126
 31
0.0
  0
SPLINE
  5
B1
330
1F
100
AcDbEntity
  8
0
  6
Continuous
 62
     1
370
    15
100
AcDbSpline
210
0.0
220
0.0
230
1.0
 70
     8
 71
     3
 72
    18
 73
    14
 74
     0
 42
0.000000001
 43
0.00000001
 40
0.0
 40
0.0
 40
0.0
 40
0.0
 40
0.0975587543589443
 40
0.1951451766974477
 40
0.2928495108255184
 40
0.3904807684706351
 40
0.4880381630055759
 40
0.5856295643988113
 40
0.6781318704601089
 40
0.7705135839714236
 40
0.862850269927446
 40
0.9553087701514716
 40
0.9999999999999999
 40
0.9999999999999999
 40
0.9999999999999999
 40
0.9999999999999999
 10
12.00000000000002
 20
-2.430090292606082
 30
0.0
 10
12.53119467085073
 20
-2.937435678517966
 30
0.0
 10
13.59373466108585
 20
-3.952270335140788
 30
0.0
 10
15.18816125071162
 20
-5.346407626973078
 30
0.0
 10
16.78474656892584
 20
-6.594722840522037
 30
0.0
 10
18.3799967741357
 20
-7.658016294110014
 30
0.0
 10
19.97399794291319
 20
-8.507271174039298
 30
0.0
 10
21.54016030168827
 20
-9.10778810833615
 30
0.0
 10
23.07998253622987
 20
-9.456637893066615
 30
0.0
 10
24.5893870848355
 20
-9.565509427944315
 30
0.0
 10
26.09798447731815
 20
-9.422430127154167
 30
0.0
 10
27.34853562985203
 20
-9.14523552418279
 30
0.0
 10
28.09561838696198
 20
-8.835398875887028
 30
0.0
 10
28.33906069775772
 20
-8.734436366830991
 30
0.0
1001
PE_URL
1000

  0
SPLINE
  5
B2
330
1F
100
AcDbEntity
  8
외형선
  6
Continuous
370
    15
100
AcDbSpline
210
0.0
220
0.0
230
1.0
 70
    24
 71
     3
 72
    24
 73
    20
 74
     0
 42
0.000000001
 43
0.00000001
 40
0.0
 40
0.0
 40
0.0
 40
0.0
 40
0.1250000000000001
 40
0.1250000000000001
 40
0.1875000000000001
 40
0.1875000000000001
 40
0.2499999999999999
 40
0.2499999999999999
 40
0.3749999999999999
 40
0.3749999999999999
 40
0.4999999999999999
 40
0.4999999999999999
 40
0.625
 40
0.625
 40
0.75
 40
0.75
 40
0.8750000000000001
 40
0.8750000000000001
 40
1.0
 40
1.0
 40
1.0
 40
1.0
 10
12.0
 20
4.958015046878787
 30
0.0
 10
12.0
 20
4.835407900018287
 30
0.0
 10
11.99999999999999
 20
4.678200880765791
 30
0.0
 10
12.00000000000001
 20
4.429422487064167
 30
0.0
 10
12.00000000000002
 20
4.347349889257581
 30
0.0
 10
12.00000000000002
 20
4.159327905193218
 30
0.0
 10
12.00000000000001
 20
4.05409855943622
 30
0.0
 10
12.00000000000002
 20
3.699147474524461
 30
0.0
 10
11.99999999999999
 20
3.40925945513716
 30
0.0
 10
12.0
 20
2.704482602772828
 30
0.0
 10
12.00000000000001
 20
2.288090561351198
 30
0.0
 10
12.0
 20
1.357483682146308
 30
0.0
 10
12.00000000000001
 20
0.843085453602051
 30
0.0
 10
12.0
 20
-0.1735579435956691
 30
0.0
 10
11.99999999999999
 20
-0.672299599092978
 30
0.0
 10
12.0
 20
-1.509605873539844
 30
0.0
 10
12.0
 20
-1.845030809123024
 30
0.0
 10
12.00000000000003
 20
-2.291522147025681
 30
0.0
 10
12.0
 20
-2.404193484592863
 30
0.0
 10
11.99999999999999
 20
-2.430090292606069
 30
0.0
  0
SPLINE
  5
B3
330
1F
100
AcDbEntity
  8
0
  6
Continuous
 62
     1
370
    15
100
AcDbSpline
210
0.0
220
0.0
230
1.0
 70
     8
 71
     3
 72
    21
 73
    17
 74
     0
 42
0.000000001
 43
0.00000001
 40
0.0
 40
0.0
 40
0.0
 40
0.0
 40
0.0018245045924714
 40
0.0766497175848269
 40
0.1514308950544305
 40
0.2263033676194617
 40
0.3011847384321064
 40
0.3759674528816205
 40
0.4507866347738944
 40
0.5257034835700299
 40
0.6047419483747355
 40
0.6837528713075749
 40
0.7628236153593917
 40
0.8419535434473387
 40
0.920987975757003
 40
1.0
 40
1.0
 40
1.0
 40
1.0
 10
32.17375414101751
 20
-9.521084524125824
 30
0.0
 10
32.16147871273662
 20
-9.522028586062024
 30
0.0
 10
31.6457726329356
 20
-9.561689807574455
 30
0.0
 10
30.62777891697612
 20
-9.420511094529271
 30
0.0
 10
29.11913464166497
 20
-9.080359750683794
 30
0.0
 10
27.6086749523758
 20
-8.484530203482095
 30
0.0
 10
26.09801156677329
 20
-7.683786080679884
 30
0.0
 10
24.58937982758864
 20
-6.687555402443579
 30
0.0
 10
23.07998448055942
 20
-5.52418517437212
 30
0.0
 10
21.54015974839687
 20
-4.199124388959345
 30
0.0
 10
19.97399809444527
 20
-2.734847567201263
 30
0.0
 10
18.37999673350648
 20
-1.168040388609158
 30
0.0
 10
16.78474657982167
 20
0.4321848703638171
 30
0.0
 10
15.18816124780906
 20
2.01668378364251
 30
0.0
 10
13.59373466181094
 20
3.556072538785084
 30
0.0
 10
12.53119467109239
 20
4.490745050610351
 30
0.0
 10
12.0
 20
4.958015046878784
 30
0.0
1001
PE_URL
1000

  0
LINE
  5
B4
330
1F
100
AcDbEntity
  8
0
  6
Continuous
 62
     1
370
    15
100
AcDbLine
 10
53.27500000000002
 20
-5.721394500638075
 30
0.0
 11
53.27500000000002
 21
-3.731947439277354
 31
0.0
1001
PE_URL
1000

  0
LINE
  5
B5
330
1F
100
AcDbEntity
  8
외형선
  6
Continuous
370
    15
100
AcDbLine
 10
12.00000000000002
 20
4.958015046878783
 30
0.0
 11
12.0
 21
6.761161286863201
 31
0.0
  0
LINE
  5
B6
330
1F
100
AcDbEntity
  8
0
  6
Continuous
 62
     1
370
    15
100
AcDbLine
 10
53.27500000000002
 20
-9.52392507127588
 30
0.0
 11
53.27500000000002
 21
-9.454416868639685
 31
0.0
1001
PE_URL
1000

  0
LINE
  5
B7
330
1F
100
AcDbEntity
  8
0
  6
Continuous
 62
     1
370
    15
100
AcDbLine
 10
53.27500000000002
 20
9.45656672608794
 30
0.0
 11
53.27500000000002
 21
9.526074928724125
 31
0.0
1001
PE_URL
1000

  0
SPLINE
  5
B8
330
1F
100
AcDbEntity
  8
0
  6
Continuous
 62
     1
370
    15
100
AcDbSpline
210
0.0
220
0.0
230
1.0
 70
     8
 71
     3
 72
    11
 73
     7
 74
     0
 42
0.000000001
 43
0.00000001
 40
0.0
 40
0.0
 40
0.0
 40
0.0
 40
0.3028575261632664
 40
0.605330536013255
 40
0.9079663536388797
 40
1.0
 40
1.0
 40
1.0
 40
1.0
 10
53.27500000000002
 20
9.45656672608794
 30
0.0
 10
52.77126555479153
 20
9.495197453462913
 30
0.0
 10
51.76443621959443
 20
9.572409861570176
 30
0.0
 10
50.25580690194387
 20
9.36980180873081
 30
0.0
 10
49.09708337987814
 20
9.09276823397071
 30
0.0
 10
48.44053921800658
 20
8.807346524618785
 30
0.0
 10
48.28743856359119
 20
8.740788548744664
 30
0.0
1001
PE_URL
1000

  0
SPLINE
  5
B9
330
1F
100
AcDbEntity
  8
0
  6
Continuous
 62
     1
370
    15
100
AcDbSpline
210
0.0
220
0.0
230
1.0
 70
     8
 71
     3
 72
    14
 73
    10
 74
     0
 42
0.000000001
 43
0.00000001
 40
0.0
 40
0.0
 40
0.0
 40
0.0
 40
0.0618752683822969
 40
0.2182077228993599
 40
0.3744857015553156
 40
0.5308820021243396
 40
0.6873953645019318
 40
0.8437198430309846
 40
1.0
 40
1.0
 40
1.0
 40
1.0
 10
22.19961958482078
 20
-9.494810125465591
 30
0.0
 10
21.98912669160963
 20
-9.501761363130681
 30
0.0
 10
21.24680789259755
 20
-9.526275418291785
 30
0.0
 10
19.97400303070451
 20
-9.298881643681598
 30
0.0
 10
18.37999540998161
 20
-8.811377375092626
 30
0.0
 10
16.78474693476076
 20
-8.062445400944426
 30
0.0
 10
15.18816115325541
 20
-7.090243272344391
 30
0.0
 10
13.59373468542962
 20
-5.926835707410232
 30
0.0
 10
12.53119467896455
 20
-5.018436822543181
 30
0.0
 10
12.0
 20
-4.564301777196487
 30
0.0
1001
PE_URL
1000

  0
LINE
  5
BA
330
1F
100
AcDbEntity
  8
외형선
  6
Continuous
370
    15
100
AcDbLine
 10
12.00000000000002
 20
-4.564301777196484
 30
0.0
 11
12.0
 21
-2.430090292606089
 31
0.0
  0
SPLINE
  5
BB
330
1F
100
AcDbEntity
  8
0
  6
Continuous
 62
     1
370
    15
100
AcDbSpline
210
0.0
220
0.0
230
1.0
 70
     8
 71
     3
 72
    11
 73
     7
 74
     0
 42
0.000000001
 43
0.00000001
 40
0.0
 40
0.0
 40
0.0
 40
0.0
 40
0.2504560815138255
 40
0.5009831931857266
 40
0.751813011928596
 40
0.9999999999999999
 40
0.9999999999999999
 40
0.9999999999999999
 40
0.9999999999999999
 10
12.00000000000002
 20
-9.19017665074516
 30
0.0
 10
12.531195325846
 20
-9.305054090010788
 30
0.0
 10
13.59373662625744
 20
-9.534841548156885
 30
0.0
 10
15.18815338346555
 20
-9.53939420626281
 30
0.0
 10
16.77956323622648
 20
-9.314273504168623
 30
0.0
 10
17.83816705929985
 20
-8.9445957466991
 30
0.0
 10
18.36466574796471
 20
-8.760735788616564
 30
0.0
1001
PE_URL
1000

  0
SPLINE
  5
BC
330
1F
100
AcDbEntity
  8
0
  6
Continuous
 62
     1
370
    15
100
AcDbSpline
210
0.0
220
0.0
230
1.0
 70
     8
 71
     3
 72
    13
 73
     9
 74
     0
 42
0.000000001
 43
0.00000001
 40
0.0
 40
0.0
 40
0.0
 40
0.0
 40
0.14439379469308
 40
0.3154325445233918
 40
0.4867272356895962
 40
0.6578070582727822
 40
0.828794845730752
 40
1.0
 40
1.0
 40
1.0
 40
1.0
 10
44.45226563231385
 20
9.510382198632758
 30
0.0
 10
44.8768061702462
 20
9.500302239999067
 30
0.0
 10
45.80422761808592
 20
9.478282270184762
 30
0.0
 10
47.23496160916944
 20
9.155949853891016
 30
0.0
 10
48.746385685609
 20
8.612326446437653
 30
0.0
 10
50.25581306892123
 20
7.842928368267691
 30
0.0
 10
51.76443467590941
 20
6.888591385452408
 30
0.0
 10
52.77126504001197
 20
6.11205778968371
 30
0.0
 10
53.27500000000001
 20
5.723544358086364
 30
0.0
1001
PE_URL
1000

  0
LINE
  5
BD
330
1F
100
AcDbEntity
  8
0
  6
Continuous
 62
     1
370
    15
100
AcDbLine
 10
53.27500000000002
 20
3.734097296725775
 30
0.0
 11
53.27500000000002
 21
5.723544358086363
 31
0.0
1001
PE_URL
1000

  0
LINE
  5
BE
330
1F
100
AcDbEntity
  8
외형선
  6
Continuous
370
    15
100
AcDbLine
 10
12.00000000000002
 20
-9.521241895351123
 30
0.0
 11
12.0
 21
-9.19017665074516
 31
0.0
  0
LINE
  5
BF
330
1F
100
AcDbEntity
  8
0
  6
Continuous
 62
     1
370
    15
100
AcDbLine
 10
53.27500000000002
 20
5.711052182733135
 30
0.0
 11
53.27500000000002
 21
9.45656672608794
 31
0.0
1001
PE_URL
1000

  0
SPLINE
  5
C0
330
1F
100
AcDbEntity
  8
외형선
  6
Continuous
370
    15
100
AcDbSpline
210
0.0
220
0.0
230
1.0
 70
    24
 71
     3
 72
    16
 73
    12
 74
     0
 42
0.000000001
 43
0.00000001
 40
0.0
 40
0.0
 40
0.0
 40
0.0
 40
0.0697567896657073
 40
0.1983246771167234
 40
0.32689256456774
 40
0.4554604520187567
 40
0.5840283394697736
 40
0.7125962269207903
 40
0.841164114371808
 40
0.9697320018228263
 40
1.0
 40
1.0
 40
1.0
 40
1.0
 10
12.00000000000004
 20
-4.635414950250827
 30
0.0
 10
12.00000000000004
 20
-4.711039586584729
 30
0.0
 10
12.00000000000003
 20
-4.926047066929883
 30
0.0
 10
12.00000000000003
 20
-5.364001845911088
 30
0.0
 10
12.00000000000002
 20
-5.927243415993925
 30
0.0
 10
12.00000000000002
 20
-6.537467145679558
 30
0.0
 10
12.00000000000003
 20
-7.173776218306721
 30
0.0
 10
12.00000000000004
 20
-7.818876675188464
 30
0.0
 10
12.00000000000004
 20
-8.453484398483862
 30
0.0
 10
12.00000000000006
 20
-8.907400853109436
 30
0.0
 10
12.00000000000002
 20
-9.144915510914759
 30
0.0
 10
12.00000000000001
 20
-9.190176650745162
 30
0.0
  0
LINE
  5
C1
330
1F
100
AcDbEntity
  8
외형선
  6
Continuous
370
    15
100
AcDbLine
 10
10.99962757077966
 20
-9.523925071275876
 30
0.0
 11
10.99962757077966
 21
-9.445277229977634
 31
0.0
  0
SPLINE
  5
C2
330
1F
100
AcDbEntity
  8
외형선
  6
Continuous
370
    15
100
AcDbSpline
210
0.0
220
0.0
230
1.0
 70
     8
 71
     3
 72
     8
 73
     4
 74
     0
 42
0.000000001
 43
0.00000001
 40
0.0
 40
0.0
 40
0.0
 40
0.0
 40
1.0
 40
1.0
 40
1.0
 40
1.0
 10
12.00000000000001
 20
9.52339175279937
 30
0.0
 10
11.66673730662082
 20
9.515491486462844
 30
0.0
 10
11.33236352897454
 20
9.490091062320028
 30
0.0
 10
10.99962757077966
 20
9.447426736430565
 30
0.0
  0
LINE
  5
C3
330
1F
100
AcDbEntity
  8
외형선
  6
Continuous
370
    15
100
AcDbLine
 10
10.99962757077966
 20
7.426369234175625
 30
0.0
 11
10.99962757077966
 21
9.526074928724121
 31
0.0
  0
SPLINE
  5
C4
330
1F
100
AcDbEntity
  8
외형선
  6
Continuous
370
    15
100
AcDbSpline
210
0.0
220
0.0
230
1.0
 70
     8
 71
     3
 72
     8
 73
     4
 74
     0
 42
0.000000001
 43
0.00000001
 40
0.0
 40
0.0
 40
0.0
 40
0.0
 40
1.0
 40
1.0
 40
1.0
 40
1.0
 10
12.00000000000001
 20
6.761161286863214
 30
0.0
 10
11.66673730662081
 20
6.995657629809406
 30
0.0
 10
11.33236352897454
 20
7.217995567933991
 30
0.0
 10
10.99962757077966
 20
7.426367568896747
 30
0.0
  0
SPLINE
  5
C5
330
1F
100
AcDbEntity
  8
외형선
  6
Continuous
370
    15
100
AcDbSpline
210
0.0
220
0.0
230
1.0
 70
     8
 71
     3
 72
     8
 73
     4
 74
     0
 42
0.000000001
 43
0.00000001
 40
0.0
 40
0.0
 40
0.0
 40
0.0
 40
1.0
 40
1.0
 40
1.0
 40
1.0
 10
12.00000000000001
 20
4.958015046878782
 30
0.0
 10
11.66673730662082
 20
5.24225133524727
 30
0.0
 10
11.33236352897454
 20
5.517696358272476
 30
0.0
 10
10.99962757077966
 20
5.782100960800102
 30
0.0
  0
SPLINE
  5
C6
330
1F
100
AcDbEntity
  8
외형선
  6
Continuous
370
    15
100
AcDbSpline
210
0.0
220
0.0
230
1.0
 70
     8
 71
     3
 72
     8
 73
     4
 74
     0
 42
0.000000001
 43
0.00000001
 40
0.0
 40
0.0
 40
0.0
 40
0.0
 40
1.0
 40
1.0
 40
1.0
 40
1.0
 10
12.00000000000001
 20
-2.430090292606076
 30
0.0
 10
11.66673730662081
 20
-2.108252719958474
 30
0.0
 10
11.33236352897454
 20
-1.781593742724718
 30
0.0
 10
10.99962757077966
 20
-1.452804726721759
 30
0.0
  0
SPLINE
  5
C7
330
1F
100
AcDbEntity
  8
외형선
  6
Continuous
370
    15
100
AcDbSpline
210
0.0
220
0.0
230
1.0
 70
     8
 71
     3
 72
     8
 73
     4
 74
     0
 42
0.000000001
 43
0.00000001
 40
0.0
 40
0.0
 40
0.0
 40
0.0
 40
1.0
 40
1.0
 40
1.0
 40
1.0
 10
12.00000000000001
 20
-4.564301777196484
 30
0.0
 10
11.66673730662082
 20
-4.272165222491472
 30
0.0
 10
11.33236352897454
 20
-3.971319775323451
 30
0.0
 10
10.99962757077966
 20
-3.664250846906361
 30
0.0
  0
LINE
  5
C8
330
1F
100
AcDbEntity
  8
외형선
  6
Continuous
370
    15
100
AcDbLine
 10
10.99962757077966
 20
-8.878096404538509
 30
0.0
 11
10.99962757077966
 21
-3.664253373135695
 31
0.0
  0
SPLINE
  5
C9
330
1F
100
AcDbEntity
  8
외형선
  6
Continuous
370
    15
100
AcDbSpline
210
0.0
220
0.0
230
1.0
 70
     8
 71
     3
 72
     8
 73
     4
 74
     0
 42
0.000000001
 43
0.00000001
 40
0.0
 40
0.0
 40
0.0
 40
0.0
 40
1.0
 40
1.0
 40
1.0
 40
1.0
 10
12.00000000000001
 20
-9.190176650745155
 30
0.0
 10
11.66673730662081
 20
-9.102835421043746
 30
0.0
 10
11.33236352897454
 20
-8.998514381934577
 30
0.0
 10
10.99962757077966
 20
-8.878097366894377
 30
0.0
  0
SPLINE
  5
CA
330
1F
100
AcDbEntity
  8
외형선
  6
Continuous
370
    15
100
AcDbSpline
210
0.0
220
0.0
230
1.0
 70
     8
 71
     3
 72
     8
 73
     4
 74
     0
 42
0.000000001
 43
0.00000001
 40
0.0
 40
0.0
 40
0.0
 40
0.0
 40
1.0
 40
1.0
 40
1.0
 40
1.0
 10
12.00000000000001
 20
-9.521241895351123
 30
0.0
 10
11.66673730662082
 20
-9.513341629014594
 30
0.0
 10
11.33236352897454
 20
-9.487941204871776
 30
0.0
 10
10.99962757077966
 20
-9.445276878982309
 30
0.0
  0
LINE
  5
CB
330
1F
100
AcDbEntity
  8
외형선
  6
Continuous
370
    15
100
AcDbLine
 10
-43.24499999999999
 20
0.0010749287241217
 30
0.0
 11
-43.24499999999999
 21
9.526074928724125
 31
0.0
  0
LINE
  5
CC
330
1F
100
AcDbEntity
  8
외형선
  6
Continuous
370
    15
100
AcDbLine
 10
-43.24499999999999
 20
-9.523925071275892
 30
0.0
 11
-43.24499999999999
 21
0.0010749287241217
 31
0.0
  0
LINE
  5
CD
330
1F
100
AcDbEntity
  8
외형선
  6
Continuous
370
    15
100
AcDbLine
 10
10.99962757077966
 20
-1.452802099087013
 30
0.0
 11
10.99962757077966
 21
5.782098785566093
 31
0.0
  0
LINE
  5
CE
330
1F
100
AcDbEntity
  8
외형선
  6
Continuous
370
    15
100
AcDbLine
 10
-45.14999999999999
 20
0.0010749287241217
 30
0.0
 11
-45.14999999999999
 21
7.621074928724126
 31
0.0
  0
LINE
  5
CF
330
1F
100
AcDbEntity
  8
외형선
  6
Continuous
370
    15
100
AcDbLine
 10
-45.14999999999999
 20
-7.618925071275884
 30
0.0
 11
-45.14999999999999
 21
0.0010749287241217
 31
0.0
  0
SPLINE
  5
D0
330
1F
100
AcDbEntity
  8
외형선
  6
Continuous
370
    15
100
AcDbSpline
210
0.0
220
0.0
230
1.0
 70
    24
 71
     3
 72
    24
 73
    20
 74
     0
 42
0.000000001
 43
0.00000001
 40
0.0
 40
0.0
 40
0.0
 40
0.0
 40
0.125
 40
0.125
 40
0.2499999999999999
 40
0.2499999999999999
 40
0.3749999999999999
 40
0.3749999999999999
 40
0.4999999999999999
 40
0.4999999999999999
 40
0.6249999999999999
 40
0.6249999999999999
 40
0.7499999999999998
 40
0.7499999999999998
 40
0.8124999999999998
 40
0.8124999999999998
 40
0.8749999999999998
 40
0.8749999999999998
 40
1.0
 40
1.0
 40
1.0
 40
1.0
 10
12.0
 20
-2.43009029260607
 30
0.0
 10
12.00000000000001
 20
-2.404193484592864
 30
0.0
 10
12.0
 20
-2.29152214702568
 30
0.0
 10
12.00000000000001
 20
-1.845030809123021
 30
0.0
 10
12.00000000000002
 20
-1.509605873539842
 30
0.0
 10
12.00000000000001
 20
-0.6722995990929719
 30
0.0
 10
12.0
 20
-0.1735579435956577
 30
0.0
 10
12.0
 20
0.8430854536020652
 30
0.0
 10
12.00000000000002
 20
1.357483682146322
 30
0.0
 10
12.00000000000002
 20
2.288090561351213
 30
0.0
 10
12.00000000000002
 20
2.704482602772843
 30
0.0
 10
12.00000000000002
 20
3.409259455137174
 30
0.0
 10
12.00000000000002
 20
3.699147474524473
 30
0.0
 10
12.0
 20
4.054098559436231
 30
0.0
 10
12.00000000000002
 20
4.159327905193229
 30
0.0
 10
12.00000000000002
 20
4.34734988925759
 30
0.0
 10
12.00000000000001
 20
4.429422487064177
 30
0.0
 10
12.00000000000001
 20
4.678200880765804
 30
0.0
 10
12.00000000000001
 20
4.835407900018298
 30
0.0
 10
12.0
 20
4.958015046878794
 30
0.0
  0
SPLINE
  5
D1
330
1F
100
AcDbEntity
  8
외형선
  6
Continuous
370
    15
100
AcDbSpline
210
0.0
220
0.0
230
1.0
 70
    24
 71
     3
 72
    15
 73
    11
 74
     0
 42
0.000000001
 43
0.00000001
 40
0.0
 40
0.0
 40
0.0
 40
0.0
 40
0.1528066956371142
 40
0.2813962787283935
 40
0.4099858618196724
 40
0.5385754449109516
 40
0.6671650280022304
 40
0.7957546110935112
 40
0.9243441941847917
 40
1.0
 40
1.0
 40
1.0
 40
1.0
 10
12.0
 20
-9.19017665074516
 30
0.0
 10
12.0
 20
-8.95614177744336
 30
0.0
 10
11.99999999999999
 20
-8.52516234839927
 30
0.0
 10
12.00000000000002
 20
-7.847861161578173
 30
0.0
 10
11.99999999999997
 20
-7.203685551774142
 30
0.0
 10
12.00000000000002
 20
-6.566689053081119
 30
0.0
 10
12.00000000000002
 20
-5.954247089748554
 30
0.0
 10
12.00000000000001
 20
-5.38939873301326
 30
0.0
 10
11.99999999999997
 20
-4.940538244367899
 30
0.0
 10
11.99999999999999
 20
-4.71788085847419
 30
0.0
 10
11.99999999999999
 20
-4.635404950250828
 30
0.0
  0
SPLINE
  5
D2
330
1F
100
AcDbEntity
  8
외형선
  6
Continuous
370
    15
100
AcDbSpline
210
0.0
220
0.0
230
1.0
 70
    24
 71
     3
 72
    13
 73
     9
 74
     0
 42
0.000000001
 43
0.00000001
 40
0.0
 40
0.0
 40
0.0
 40
0.0
 40
0.071165962259181
 40
0.303039914261123
 40
0.5283790170176681
 40
0.7602529690197102
 40
0.8796577514716799
 40
0.9999999999999999
 40
0.9999999999999999
 40
0.9999999999999999
 40
0.9999999999999999
 10
12.00000000000003
 20
6.832264459917544
 30
0.0
 10
12.00000000000004
 20
6.886989071725883
 30
0.0
 10
12.00000000000004
 20
7.120018193287888
 30
0.0
 10
12.00000000000002
 20
7.583052771718696
 30
0.0
 10
12.00000000000004
 20
8.206962849624052
 30
0.0
 10
11.99999999999995
 20
8.748269551963379
 30
0.0
 10
11.99999999999999
 20
9.1899795188039
 30
0.0
 10
12.0
 20
9.411965003353751
 30
0.0
 10
12.0
 20
9.523391752799393
 30
0.0
  0
LINE
  5
D3
330
1F
100
AcDbEntity
  8
중심선
 62
     1
100
AcDbLine
 10
-52.14999999999998
 20
0.0010749287241156
 30
0.0
 11
60.27500000000003
 21
0.001074928724127
 31
0.0
  0
LINE
  5
D4
330
1F
100
AcDbEntity
  8
참조1
100
AcDbLine
 10
4.062500000000024
 20
0.0010749287241161
 30
0.0
 11
4.062500000000029
 21
-39.99892507127588
 31
0.0
  0
LINE
  5
D5
330
1F
100
AcDbEntity
  8
참조1
100
AcDbLine
 10
4.062500000000029
 20
-39.99892507127588
 30
0.0
 11
-12.68385681430866
 21
-39.99892507127588
 31
0.0
  0
CIRCLE
  5
D6
330
1F
100
AcDbEntity
  8
해칭선
100
AcDbCircle
 10
0.0
 20
0.0
 30
0.0
 40
3.000000000000001
  0
INSERT
  5
D7
330
1F
100
AcDbEntity
  8
0
  6
Continuous
 62
     7
100
AcDbBlockReference
 66
     1
  2
블럭10
 10
-9.877772932125183
 20
-52.04609937291981
 30
0.0
  0
ATTRIB
  5
D8
330
D7
100
AcDbEntity
  8
FORMAT
 62
     2
100
AcDbText
 10
-19.05906822086646
 20
-49.97073246008762
 30
0.0
 40
4.233333333333333
  1
E1042048 [ 6 FLUTE ]
 41
0.75
  7
SLDTEXTSTYLE0
 11
-19.05906822086646
 21
-52.08739912675429
 31
0.0
100
AcDbAttribute
  2
AUTOATTR0
 70
     0
 74
     1
  0
SEQEND
  5
D9
330
D7
100
AcDbEntity
  8
0
  6
Continuous
 62
     7
  0
HATCH
  5
DA
330
1F
100
AcDbEntity
  8
중심선
100
AcDbHatch
 10
0.0
 20
0.0
 30
0.0
210
0.0
220
0.0
230
1.0
  2
SOLID
 70
     1
 71
     0
 91
        1
 92
        0
 93
        4
 72
     1
 10
-4.162863627744332
 20
-35.79892507127587
 11
-7.609138871581615
 21
-35.79892507127587
 72
     1
 10
-7.609138871581615
 20
-35.79892507127587
 11
-9.737368730785636
 21
-38.33525065184848
 72
     1
 10
-9.737368730785636
 20
-38.33525065184848
 11
-6.291060401835205
 21
-38.33521122254599
 72
     1
 10
-6.291060401835206
 20
-38.33521122254599
 11
-4.162863627744332
 21
-35.79892507127587
 97
        0
 75
     0
 76
     1
 98
        1
 10
-3.175000000000026
 20
0.0000000000002269
  0
HATCH
  5
DB
330
1F
100
AcDbEntity
  8
중심선
100
AcDbHatch
 10
0.0
 20
0.0
 30
0.0
210
0.0
220
0.0
230
1.0
  2
SOLID
 70
     1
 71
     0
 91
        1
 92
        0
 93
        4
 72
     1
 10
0.8499003632916473
 20
-35.79892507127587
 11
-2.596374880545635
 21
-35.79892507127587
 72
     1
 10
-2.596374880545635
 20
-35.79892507127587
 11
-7.127512888903052
 21
-41.19892507127589
 72
     1
 10
-7.127512888903052
 20
-41.19892507127589
 11
-3.68123764506577
 21
-41.19892507127589
 72
     1
 10
-3.681237645065769
 20
-41.19892507127589
 11
0.8499003632916473
 21
-35.79892507127587
 97
        0
 75
     0
 76
     1
 98
        1
 10
-3.175000000000026
 20
0.0000000000002269
  0
HATCH
  5
DC
330
1F
100
AcDbEntity
  8
중심선
100
AcDbHatch
 10
0.0
 20
0.0
 30
0.0
210
0.0
220
0.0
230
1.0
  2
SOLID
 70
     1
 71
     0
 91
        1
 92
        0
 93
        4
 72
     1
 10
5.862664354327487
 20
-35.7989250712759
 11
2.416389110490399
 21
-35.79892507127585
 72
     1
 10
2.416389110490399
 20
-35.79892507127585
 11
-4.63204779139885
 21
-44.19892507127589
 72
     1
 10
-4.63204779139885
 20
-44.19892507127589
 11
-1.185772547561568
 21
-44.19892507127589
 72
     1
 10
-1.185772547561568
 20
-44.19892507127589
 11
5.862664354327487
 21
-35.7989250712759
 97
        0
 75
     0
 76
     1
 98
        1
 10
-3.175000000000026
 20
0.0000000000002269
  0
HATCH
  5
DD
330
1F
100
AcDbEntity
  8
중심선
100
AcDbHatch
 10
0.0
 20
0.0
 30
0.0
210
0.0
220
0.0
230
1.0
  2
SOLID
 70
     1
 71
     0
 91
        1
 92
        0
 93
        6
 72
     3
 10
10.66255478533971
 20
-39.99892507132715
 11
3.960054785062285
 21
1.540882976769353E-10
 40
0.3939339440162626
 50
17.09539180608436
 51
320.0019657685081
 73
     0
 72
     1
 10
12.34555444104031
 20
-38.58681907591418
 11
14.65085631474138
 21
-36.65249236586623
 72
     3
 10
10.66255478528687
 20
-39.99892507127603
 11
6.600054785286828
 21
-1.278976924368180E-13
 40
0.6363583540795982
 50
39.99873849337411
 51
368.4976242363725
 73
     1
 72
     1
 10
17.08788727718748
 20
-39.0389250712059
 11
9.342622092122818
 21
-39.0389250712059
 72
     1
 10
9.342622092122818
 20
-39.0389250712059
 11
9.342597047676856
 21
-40.95892507120579
 72
     1
 10
9.342597047676856
 20
-40.95892507120579
 11
13.78397681714889
 21
-40.95892507120576
 97
        0
 75
     0
 76
     1
 98
        1
 10
-3.175000000000026
 20
0.0000000000002269
  0
DIMENSION
  5
DE
330
1F
100
AcDbEntity
  8
치수문자_일반주서
100
AcDbDimension
  2
_D
 10
-60.14999999999993
 20
-9.523925071275947
 30
0.0
 11
-60.15000000000008
 21
31.75507492872406
 31
0.0
 70
   160
  1
%%c<>
 71
     2
 42
19.05000000000001
 52
-270.0
  3
SLDDIMSTYLE0
100
AcDbAlignedDimension
 13
-43.245
 23
9.526074928724128
 33
0.0
 14
-43.245
 24
-9.523925071275883
 34
0.0
 50
90.0000000000002
100
AcDbRotatedDimension
1001
ACAD
1000
DSTYLE
1002
{
1070
   171
1070
     8
1070
   273
1070
     7
1070
   140
1040
4.0
1002
}
  0
DIMENSION
  5
F3
330
1F
100
AcDbEntity
  8
치수문자_일반주서
100
AcDbDimension
  2
_D_1
 10
12.0
 20
24.52607492872411
 30
0.0
 11
32.63750000000002
 21
24.52607492872411
 31
0.0
 70
   160
  1
<>
 71
     2
 42
41.27500000000002
  3
SLDDIMSTYLE0
100
AcDbAlignedDimension
 13
53.27500000000002
 23
9.45656672608794
 33
0.0
 14
12.0
 24
9.523391752799393
 34
0.0
100
AcDbRotatedDimension
1001
PE_URL
1000

1001
ACAD
1000
DSTYLE
1002
{
1070
   171
1070
     8
1070
   273
1070
     7
1070
   140
1040
4.0
1002
}
  0
DIMENSION
  5
107
330
1F
100
AcDbEntity
  8
치수문자_일반주서
100
AcDbDimension
  2
_D_2
 10
-45.14999999999999
 20
39.52607492872411
 30
0.0
 11
4.062500000000014
 21
39.52607492872411
 31
0.0
 70
   160
  1
<>
 71
     2
 42
98.42500000000001
  3
SLDDIMSTYLE0
100
AcDbAlignedDimension
 13
53.27500000000002
 23
9.45656672608794
 33
0.0
 14
-45.14999999999999
 24
7.621074928724126
 34
0.0
100
AcDbRotatedDimension
1001
PE_URL
1000

1001
ACAD
1000
DSTYLE
1002
{
1070
   171
1070
     8
1070
   273
1070
     7
1070
   140
1040
4.0
1002
}
  0
DIMENSION
  5
11A
330
1F
100
AcDbEntity
  8
치수문자_일반주서
100
AcDbDimension
  2
_D_3
 10
68.27500000000009
 20
-9.523925071275823
 30
0.0
 11
68.27499999999993
 21
31.75507492872418
 31
0.0
 70
   160
  1
%%c<>
 71
     2
 42
19.05
 52
-270.0
  3
SLDDIMSTYLE0
100
AcDbAlignedDimension
 13
53.27500000000002
 23
9.526074928724125
 33
0.0
 14
53.27500000000002
 24
-9.52392507127588
 34
0.0
 50
90.0000000000002
100
AcDbRotatedDimension
1001
PE_URL
1000

1001
ACAD
1000
DSTYLE
1002
{
1070
   171
1070
     8
1070
   273
1070
     7
1070
   140
1040
4.0
1002
}
  0
LINE
  5
12D
330
1F
100
AcDbEntity
  8
참조1
100
AcDbLine
 10
85.28848381534561
 20
7.441074928724122
 30
0.0
 11
85.28848381534561
 21
-7.438925071275882
 31
0.0
  0
LINE
  5
12E
330
1F
100
AcDbEntity
  8
참조1
100
AcDbLine
 10
97.98848381534562
 20
5.441074928724122
 30
0.0
 11
85.28848381534561
 21
5.441074928724122
 31
0.0
  0
SOLID
  5
12F
330
1F
100
AcDbEntity
  8
참조1
100
AcDbTrace
 10
85.28848381534561
 20
5.441074928724122
 30
0.0
 11
91.63848381534561
 21
4.425074928724122
 31
0.0
 12
91.63848381534561
 22
6.457074928724122
 32
0.0
 13
91.63848381534561
 23
6.457074928724122
 33
0.0
  0
LINE
  5
130
330
1F
100
AcDbEntity
  8
참조1
100
AcDbLine
 10
97.98848381534562
 20
-5.438925071275882
 30
0.0
 11
85.28848381534561
 21
-5.438925071275882
 31
0.0
  0
SOLID
  5
131
330
1F
100
AcDbEntity
  8
참조1
100
AcDbTrace
 10
85.28848381534561
 20
-5.438925071275882
 30
0.0
 11
91.63848381534561
 21
-6.454925071275882
 31
0.0
 12
91.63848381534561
 22
-4.422925071275882
 32
0.0
 13
91.63848381534561
 23
-4.422925071275882
 33
0.0
  0
MTEXT
  5
132
330
1F
100
AcDbEntity
  8
참조1
100
AcDbMText
 10
94.68597390781588
 20
10.98929157337406
 30
0.0
 40
3.5
 41
0.0
 71
     1
 72
     1
  1
A
  7
SLDTEXTSTYLE0
 73
     1
 44
1.0
  0
MTEXT
  5
133
330
1F
100
AcDbEntity
  8
참조1
100
AcDbMText
 10
94.68597390781588
 20
0.1092915733740519
 30
0.0
 40
3.5
 41
0.0
 71
     1
 72
     1
  1
A
  7
SLDTEXTSTYLE0
 73
     1
 44
1.0
  0
INSERT
  5
13A
330
1F
100
AcDbEntity
  8
해칭선
100
AcDbBlockReference
  2
SW_DOWELSYMBOL_0
 10
0.0
 20
0.0
 30
0.0
  0
LINE
  5
1E2
330
1F
100
AcDbEntity
  8
외형선
  6
Continuous
370
    15
100
AcDbLine
 10
-25.14432499999997
 20
7.62107492872412
 30
0.0
 11
-13.56192499999996
 21
7.62107492872412
 31
0.0
1001
PE_URL
1000

  0
LINE
  5
1E3
330
1F
100
AcDbEntity
  8
외형선
  6
Continuous
370
    15
100
AcDbLine
 10
-25.14432499999997
 20
7.621074928724106
 30
0.0
 11
-27.04932500000011
 21
9.526074928724135
 31
0.0
1001
PE_URL
1000

  0
LINE
  5
1E4
330
1F
100
AcDbEntity
  8
외형선
  6
Continuous
370
    15
100
AcDbLine
 10
-13.56192499999996
 20
7.621074928724106
 30
0.0
 11
-11.65692499999999
 21
9.526074928724135
 31
0.0
1001
PE_URL
1000

  0
LINE
  5
1E7
330
1F
100
AcDbEntity
  8
외형선
  6
Continuous
370
    15
100
AcDbLine
 10
-27.0493250000001
 20
9.526074928724121
 30
0.0
 11
-43.24499999999999
 21
9.526074928724121
 31
0.0
  0
ENDSEC
  0
SECTION
  2
OBJECTS
  0
DICTIONARY
  5
C
330
0
100
AcDbDictionary
281
     1
  3
ACAD_GROUP
350
D
  3
ACAD_LAYOUT
350
1A
  3
ACAD_MLINESTYLE
350
17
  3
ACAD_PLOTSETTINGS
350
19
  3
ACAD_PLOTSTYLENAME
350
E
  3
ACAD_SCALELIST
350
47
  3
APPDATA
350
15C
  3
DWGPROPS
350
1E8
  0
DICTIONARY
  5
191
330
2
100
AcDbDictionary
280
     1
281
     1
  3
ACAD_LAYERSTATES
360
192
  0
DICTIONARY
  5
D
102
{ACAD_REACTORS
330
C
102
}
330
C
100
AcDbDictionary
281
     1
  0
DICTIONARY
  5
1A
102
{ACAD_REACTORS
330
C
102
}
330
C
100
AcDbDictionary
281
     1
  3
Layout1
350
1E
  3
Layout2
350
26
  3
Model
350
22
  0
DICTIONARY
  5
17
102
{ACAD_REACTORS
330
C
102
}
330
C
100
AcDbDictionary
281
     1
  3
Standard
350
18
  0
DICTIONARY
  5
19
102
{ACAD_REACTORS
330
C
102
}
330
C
100
AcDbDictionary
281
     1
  0
ACDBDICTIONARYWDFLT
  5
E
102
{ACAD_REACTORS
330
C
102
}
330
C
100
AcDbDictionary
281
     1
  3
Normal
350
F
100
AcDbDictionaryWithDefault
340
F
  0
DICTIONARY
  5
47
102
{ACAD_REACTORS
330
C
102
}
330
C
100
AcDbDictionary
281
     1
  3
A0
350
48
  3
A1
350
49
  3
A2
350
4A
  3
A3
350
4B
  3
A4
350
4C
  3
A5
350
4D
  3
A6
350
4E
  3
A7
350
4F
  3
A8
350
50
  3
A9
350
51
  3
B0
350
52
  3
B1
350
53
  3
B2
350
54
  3
B3
350
55
  3
B4
350
56
  3
B5
350
57
  3
B6
350
58
  3
B7
350
59
  3
B8
350
5A
  3
B9
350
5B
  3
C0
350
5C
  3
C1
350
5D
  3
C2
350
5E
  3
C3
350
5F
  3
C4
350
60
  3
C5
350
61
  3
C6
350
62
  3
C7
350
63
  3
C8
350
64
  3
C9
350
65
  3
D0
350
66
  3
D1
350
67
  3
D2
350
68
  0
DICTIONARY
  5
15C
102
{ACAD_REACTORS
330
C
102
}
330
C
100
AcDbDictionary
281
     1
  0
XRECORD
  5
1E8
102
{ACAD_REACTORS
330
C
102
}
330
C
100
AcDbXrecord
280
     1
  1
DWGPROPS COOKIE
  2

  3

  4

  6

  7

  8
120170442
  9

300
=
301
=
302
=
303
=
304
=
305
=
306
=
307
=
308
=
309
=
 40
0.0
 41
2458323.062720636
 42
2458323.396660926
  1

 90
        0
  0
DICTIONARY
  5
192
102
{ACAD_REACTORS
330
191
102
}
330
191
100
AcDbDictionary
281
     1
  0
LAYOUT
  5
1E
102
{ACAD_REACTORS
330
1A
102
}
330
1A
100
AcDbPlotSettings
  1

  2
none_device
  4

  6

 40
0.0
 41
0.0
 42
0.0
 43
0.0
 44
0.0
 45
0.0
 46
0.0
 47
0.0
 48
0.0
 49
0.0
140
0.0
141
0.0
142
1.0
143
1.0
 70
   688
 72
     1
 73
     0
 74
     5
  7

 75
    16
147
1.0
148
0.0
149
0.0
100
AcDbLayout
  1
Layout1
 70
     1
 71
     1
 10
0.0
 20
0.0
 11
420.0
 21
297.0
 12
0.0
 22
0.0
 32
0.0
 14
1.000000000000000E+20
 24
1.000000000000000E+20
 34
1.000000000000000E+20
 15
-1.000000000000000E+20
 25
-1.000000000000000E+20
 35
-1.000000000000000E+20
146
0.0
 13
0.0
 23
0.0
 33
0.0
 16
1.0
 26
0.0
 36
0.0
 17
0.0
 27
1.0
 37
0.0
 76
     0
330
1B
  0
LAYOUT
  5
26
102
{ACAD_REACTORS
330
1A
102
}
330
1A
100
AcDbPlotSettings
  1

  2
none_device
  4

  6

 40
0.0
 41
0.0
 42
0.0
 43
0.0
 44
0.0
 45
0.0
 46
0.0
 47
0.0
 48
0.0
 49
0.0
140
0.0
141
0.0
142
1.0
143
1.0
 70
   688
 72
     1
 73
     0
 74
     5
  7

 75
    16
147
1.0
148
0.0
149
0.0
100
AcDbLayout
  1
Layout2
 70
     1
 71
     2
 10
0.0
 20
0.0
 11
0.0
 21
0.0
 12
0.0
 22
0.0
 32
0.0
 14
0.0
 24
0.0
 34
0.0
 15
0.0
 25
0.0
 35
0.0
146
0.0
 13
0.0
 23
0.0
 33
0.0
 16
1.0
 26
0.0
 36
0.0
 17
0.0
 27
1.0
 37
0.0
 76
     0
330
23
  0
LAYOUT
  5
22
102
{ACAD_REACTORS
330
1A
102
}
330
1A
100
AcDbPlotSettings
  1

  2
none_device
  4
ANSI_A_(11.00_x_8.50_Inches)
  6

 40
6.35
 41
19.05
 42
6.35000508
 43
19.05000254
 44
279.4
 45
215.9
 46
64.84532668141956
 47
86.72728550712552
 48
0.0
 49
0.0
140
0.0
141
0.0
142
0.0419854803796379
143
1.0
 70
  1696
 72
     0
 73
     0
 74
     0
  7

 75
     0
147
0.0235690232323232
148
0.0
149
0.0
100
AcDbLayout
  1
Model
 70
     1
 71
     0
 10
0.0
 20
0.0
 11
420.0
 21
297.0
 12
0.0
 22
0.0
 32
0.0
 14
-65.02500000000012
 24
-49.97073246008762
 34
0.0
 15
97.98848381534562
 25
47.38007492872418
 35
0.0
146
0.0
 13
0.0
 23
0.0
 33
0.0
 16
1.0
 26
0.0
 36
0.0
 17
0.0
 27
1.0
 37
0.0
 76
     0
330
1F
331
29
  0
MLINESTYLE
  5
18
102
{ACAD_REACTORS
330
17
102
}
330
17
100
AcDbMlineStyle
  2
Standard
 70
     0
  3

 62
   256
 51
90.0
 52
90.0
 71
     2
 49
0.5
 62
   256
  6
BYLAYER
 49
-0.5
 62
   256
  6
BYLAYER
  0
ACDBPLACEHOLDER
  5
F
102
{ACAD_REACTORS
330
E
102
}
330
E
  0
SCALE
  5
48
102
{ACAD_REACTORS
330
47
102
}
330
47
100
AcDbScale
 70
     0
300
1:1
140
1.0
141
1.0
290
     1
  0
SCALE
  5
49
102
{ACAD_REACTORS
330
47
102
}
330
47
100
AcDbScale
 70
     0
300
1:2
140
1.0
141
2.0
290
     0
  0
SCALE
  5
4A
102
{ACAD_REACTORS
330
47
102
}
330
47
100
AcDbScale
 70
     0
300
1:4
140
1.0
141
4.0
290
     0
  0
SCALE
  5
4B
102
{ACAD_REACTORS
330
47
102
}
330
47
100
AcDbScale
 70
     0
300
1:5
140
1.0
141
5.0
290
     0
  0
SCALE
  5
4C
102
{ACAD_REACTORS
330
47
102
}
330
47
100
AcDbScale
 70
     0
300
1:8
140
1.0
141
8.0
290
     0
  0
SCALE
  5
4D
102
{ACAD_REACTORS
330
47
102
}
330
47
100
AcDbScale
 70
     0
300
1:10
140
1.0
141
10.0
290
     0
  0
SCALE
  5
4E
102
{ACAD_REACTORS
330
47
102
}
330
47
100
AcDbScale
 70
     0
300
1:16
140
1.0
141
16.0
290
     0
  0
SCALE
  5
4F
102
{ACAD_REACTORS
330
47
102
}
330
47
100
AcDbScale
 70
     0
300
1:20
140
1.0
141
20.0
290
     0
  0
SCALE
  5
50
102
{ACAD_REACTORS
330
47
102
}
330
47
100
AcDbScale
 70
     0
300
1:30
140
1.0
141
30.0
290
     0
  0
SCALE
  5
51
102
{ACAD_REACTORS
330
47
102
}
330
47
100
AcDbScale
 70
     0
300
1:40
140
1.0
141
40.0
290
     0
  0
SCALE
  5
52
102
{ACAD_REACTORS
330
47
102
}
330
47
100
AcDbScale
 70
     0
300
1:50
140
1.0
141
50.0
290
     0
  0
SCALE
  5
53
102
{ACAD_REACTORS
330
47
102
}
330
47
100
AcDbScale
 70
     0
300
1:100
140
1.0
141
100.0
290
     0
  0
SCALE
  5
54
102
{ACAD_REACTORS
330
47
102
}
330
47
100
AcDbScale
 70
     0
300
2:1
140
2.0
141
1.0
290
     0
  0
SCALE
  5
55
102
{ACAD_REACTORS
330
47
102
}
330
47
100
AcDbScale
 70
     0
300
4:1
140
4.0
141
1.0
290
     0
  0
SCALE
  5
56
102
{ACAD_REACTORS
330
47
102
}
330
47
100
AcDbScale
 70
     0
300
8:1
140
8.0
141
1.0
290
     0
  0
SCALE
  5
57
102
{ACAD_REACTORS
330
47
102
}
330
47
100
AcDbScale
 70
     0
300
10:1
140
10.0
141
1.0
290
     0
  0
SCALE
  5
58
102
{ACAD_REACTORS
330
47
102
}
330
47
100
AcDbScale
 70
     0
300
100:1
140
100.0
141
1.0
290
     0
  0
SCALE
  5
59
102
{ACAD_REACTORS
330
47
102
}
330
47
100
AcDbScale
 70
     0
300
1/128" = 1'-0"
140
0.0078125
141
12.0
290
     0
  0
SCALE
  5
5A
102
{ACAD_REACTORS
330
47
102
}
330
47
100
AcDbScale
 70
     0
300
1/64" = 1'-0"
140
0.015625
141
12.0
290
     0
  0
SCALE
  5
5B
102
{ACAD_REACTORS
330
47
102
}
330
47
100
AcDbScale
 70
     0
300
1/32" = 1'-0"
140
0.03125
141
12.0
290
     0
  0
SCALE
  5
5C
102
{ACAD_REACTORS
330
47
102
}
330
47
100
AcDbScale
 70
     0
300
1/16" = 1'-0"
140
0.0625
141
12.0
290
     0
  0
SCALE
  5
5D
102
{ACAD_REACTORS
330
47
102
}
330
47
100
AcDbScale
 70
     0
300
3/32" = 1'-0"
140
0.09375
141
12.0
290
     0
  0
SCALE
  5
5E
102
{ACAD_REACTORS
330
47
102
}
330
47
100
AcDbScale
 70
     0
300
1/8" = 1'-0"
140
0.125
141
12.0
290
     0
  0
SCALE
  5
5F
102
{ACAD_REACTORS
330
47
102
}
330
47
100
AcDbScale
 70
     0
300
3/16" = 1'-0"
140
0.1875
141
12.0
290
     0
  0
SCALE
  5
60
102
{ACAD_REACTORS
330
47
102
}
330
47
100
AcDbScale
 70
     0
300
1/4" = 1'-0"
140
0.25
141
12.0
290
     0
  0
SCALE
  5
61
102
{ACAD_REACTORS
330
47
102
}
330
47
100
AcDbScale
 70
     0
300
3/8" = 1'-0"
140
0.375
141
12.0
290
     0
  0
SCALE
  5
62
102
{ACAD_REACTORS
330
47
102
}
330
47
100
AcDbScale
 70
     0
300
1/2" = 1'-0"
140
0.5
141
12.0
290
     0
  0
SCALE
  5
63
102
{ACAD_REACTORS
330
47
102
}
330
47
100
AcDbScale
 70
     0
300
3/4" = 1'-0"
140
0.75
141
12.0
290
     0
  0
SCALE
  5
64
102
{ACAD_REACTORS
330
47
102
}
330
47
100
AcDbScale
 70
     0
300
1" = 1'-0"
140
1.0
141
12.0
290
     0
  0
SCALE
  5
65
102
{ACAD_REACTORS
330
47
102
}
330
47
100
AcDbScale
 70
     0
300
1-1/2" = 1'-0"
140
1.5
141
12.0
290
     0
  0
SCALE
  5
66
102
{ACAD_REACTORS
330
47
102
}
330
47
100
AcDbScale
 70
     0
300
3" = 1'-0"
140
3.0
141
12.0
290
     0
  0
SCALE
  5
67
102
{ACAD_REACTORS
330
47
102
}
330
47
100
AcDbScale
 70
     0
300
6" = 1'-0"
140
6.0
141
12.0
290
     0
  0
SCALE
  5
68
102
{ACAD_REACTORS
330
47
102
}
330
47
100
AcDbScale
 70
     0
300
1'-0" = 1'-0"
140
12.0
141
12.0
290
     0
  0
ENDSEC
  0
EOF
