  0
SECTION
  2
HEADER
  9
$ACADVER
  1
AC1015
  9
$ACADMAINTVER
 70
     6
  9
$DWGCODEPAGE
  3
ANSI_949
  9
$INSBASE
 10
0.0
 20
0.0
 30
0.0
  9
$EXTMIN
 10
-61.35000000000015
 20
-49.97180738881174
 30
0.0
  9
$EXTMAX
 10
101.1634838153456
 20
42.54150000000004
 30
0.0
  9
$LIMMIN
 10
0.0
 20
0.0
  9
$LIMMAX
 10
420.0
 20
297.0
  9
$ORTHOMODE
 70
     1
  9
$REGENMODE
 70
     1
  9
$FILLMODE
 70
     1
  9
$QTEXTMODE
 70
     0
  9
$MIRRTEXT
 70
     1
  9
$LTSCALE
 40
1.0
  9
$ATTMODE
 70
     1
  9
$TEXTSIZE
 40
3.5
  9
$TRACEWID
 40
1.0
  9
$TEXTSTYLE
  7
Standard
  9
$CLAYER
  8
0
  9
$CELTYPE
  6
ByLayer
  9
$CECOLOR
 62
   256
  9
$CELTSCALE
 40
1.0
  9
$DISPSILH
 70
     0
  9
$DIMSCALE
 40
1.0
  9
$DIMASZ
 40
3.302
  9
$DIMEXO
 40
1.0
  9
$DIMDLI
 40
3.75
  9
$DIMRND
 40
0.0
  9
$DIMDLE
 40
0.0
  9
$DIMEXE
 40
1.0
  9
$DIMTP
 40
0.0
  9
$DIMTM
 40
0.0
  9
$DIMTXT
 40
3.5
  9
$DIMCEN
 40
2.5
  9
$DIMTSZ
 40
0.0
  9
$DIMTOL
 70
     0
  9
$DIMLIM
 70
     0
  9
$DIMTIH
 70
     1
  9
$DIMTOH
 70
     1
  9
$DIMSE1
 70
     0
  9
$DIMSE2
 70
     0
  9
$DIMTAD
 70
     1
  9
$DIMZIN
 70
     0
  9
$DIMBLK
  1

  9
$DIMASO
 70
     1
  9
$DIMSHO
 70
     1
  9
$DIMPOST
  1

  9
$DIMAPOST
  1

  9
$DIMALT
 70
     0
  9
$DIMALTD
 70
     3
  9
$DIMALTF
 40
0.0393700787401575
  9
$DIMLFAC
 40
1.0
  9
$DIMTOFL
 70
     1
  9
$DIMTVP
 40
0.0
  9
$DIMTIX
 70
     0
  9
$DIMSOXD
 70
     0
  9
$DIMSAH
 70
     0
  9
$DIMBLK1
  1

  9
$DIMBLK2
  1

  9
$DIMSTYLE
  2
ISO-25
  9
$DIMCLRD
 70
     0
  9
$DIMCLRE
 70
     0
  9
$DIMCLRT
 70
     0
  9
$DIMTFAC
 40
1.0
  9
$DIMGAP
 40
1.524
  9
$DIMJUST
 70
     0
  9
$DIMSD1
 70
     0
  9
$DIMSD2
 70
     0
  9
$DIMTOLJ
 70
     0
  9
$DIMTZIN
 70
     0
  9
$DIMALTZ
 70
     0
  9
$DIMALTTZ
 70
     0
  9
$DIMUPT
 70
     0
  9
$DIMDEC
 70
     2
  9
$DIMTDEC
 70
     2
  9
$DIMALTU
 70
     2
  9
$DIMALTTD
 70
     3
  9
$DIMTXSTY
  7
Standard
  9
$DIMAUNIT
 70
     0
  9
$DIMADEC
 70
     2
  9
$DIMALTRND
 40
0.0
  9
$DIMAZIN
 70
     0
  9
$DIMDSEP
 70
    44
  9
$DIMATFIT
 70
     3
  9
$DIMFRAC
 70
     0
  9
$DIMLDRBLK
  1

  9
$DIMLUNIT
 70
     2
  9
$DIMLWD
 70
    -2
  9
$DIMLWE
 70
    -2
  9
$DIMTMOVE
 70
     0
  9
$LUNITS
 70
     2
  9
$LUPREC
 70
     2
  9
$SKETCHINC
 40
1.0
  9
$FILLETRAD
 40
10.0
  9
$AUNITS
 70
     0
  9
$AUPREC
 70
     2
  9
$MENU
  1
.
  9
$ELEVATION
 40
0.0
  9
$PELEVATION
 40
0.0
  9
$THICKNESS
 40
0.0
  9
$LIMCHECK
 70
     0
  9
$CHAMFERA
 40
0.0
  9
$CHAMFERB
 40
0.0
  9
$CHAMFERC
 40
0.0
  9
$CHAMFERD
 40
0.0
  9
$SKPOLY
 70
     0
  9
$TDCREATE
 40
2458323.437508831
  9
$TDUCREATE
 40
2458323.062508831
  9
$TDUPDATE
 40
2458323.801946794
  9
$TDUUPDATE
 40
2458323.426946794
  9
$TDINDWG
 40
0.0003763426
  9
$TDUSRTIMER
 40
0.000022581
  9
$USRTIMER
 70
     1
  9
$ANGBASE
 50
0.0
  9
$ANGDIR
 70
     0
  9
$PDMODE
 70
     0
  9
$PDSIZE
 40
-1.0
  9
$PLINEWID
 40
0.0
  9
$SPLFRAME
 70
     0
  9
$SPLINETYPE
 70
     6
  9
$SPLINESEGS
 70
     8
  9
$HANDSEED
  5
214
  9
$SURFTAB1
 70
     6
  9
$SURFTAB2
 70
     6
  9
$SURFTYPE
 70
     6
  9
$SURFU
 70
     6
  9
$SURFV
 70
     6
  9
$UCSBASE
  2

  9
$UCSNAME
  2

  9
$UCSORG
 10
0.0
 20
0.0
 30
0.0
  9
$UCSXDIR
 10
1.0
 20
0.0
 30
0.0
  9
$UCSYDIR
 10
0.0
 20
1.0
 30
0.0
  9
$UCSORTHOREF
  2

  9
$UCSORTHOVIEW
 70
     0
  9
$UCSORGTOP
 10
0.0
 20
0.0
 30
0.0
  9
$UCSORGBOTTOM
 10
0.0
 20
0.0
 30
0.0
  9
$UCSORGLEFT
 10
0.0
 20
0.0
 30
0.0
  9
$UCSORGRIGHT
 10
0.0
 20
0.0
 30
0.0
  9
$UCSORGFRONT
 10
0.0
 20
0.0
 30
0.0
  9
$UCSORGBACK
 10
0.0
 20
0.0
 30
0.0
  9
$PUCSBASE
  2

  9
$PUCSNAME
  2

  9
$PUCSORG
 10
0.0
 20
0.0
 30
0.0
  9
$PUCSXDIR
 10
1.0
 20
0.0
 30
0.0
  9
$PUCSYDIR
 10
0.0
 20
1.0
 30
0.0
  9
$PUCSORTHOREF
  2

  9
$PUCSORTHOVIEW
 70
     0
  9
$PUCSORGTOP
 10
0.0
 20
0.0
 30
0.0
  9
$PUCSORGBOTTOM
 10
0.0
 20
0.0
 30
0.0
  9
$PUCSORGLEFT
 10
0.0
 20
0.0
 30
0.0
  9
$PUCSORGRIGHT
 10
0.0
 20
0.0
 30
0.0
  9
$PUCSORGFRONT
 10
0.0
 20
0.0
 30
0.0
  9
$PUCSORGBACK
 10
0.0
 20
0.0
 30
0.0
  9
$USERI1
 70
     0
  9
$USERI2
 70
     0
  9
$USERI3
 70
     0
  9
$USERI4
 70
     0
  9
$USERI5
 70
     0
  9
$USERR1
 40
0.0
  9
$USERR2
 40
0.0
  9
$USERR3
 40
0.0
  9
$USERR4
 40
0.0
  9
$USERR5
 40
0.0
  9
$WORLDVIEW
 70
     1
  9
$SHADEDGE
 70
     3
  9
$SHADEDIF
 70
    70
  9
$TILEMODE
 70
     1
  9
$MAXACTVP
 70
    64
  9
$PINSBASE
 10
0.0
 20
0.0
 30
0.0
  9
$PLIMCHECK
 70
     0
  9
$PEXTMIN
 10
1.000000000000000E+20
 20
1.000000000000000E+20
 30
1.000000000000000E+20
  9
$PEXTMAX
 10
-1.000000000000000E+20
 20
-1.000000000000000E+20
 30
-1.000000000000000E+20
  9
$PLIMMIN
 10
0.0
 20
0.0
  9
$PLIMMAX
 10
0.0
 20
0.0
  9
$UNITMODE
 70
     0
  9
$VISRETAIN
 70
     1
  9
$PLINEGEN
 70
     0
  9
$PSLTSCALE
 70
     1
  9
$TREEDEPTH
 70
  3020
  9
$CMLSTYLE
  2
Standard
  9
$CMLJUST
 70
     0
  9
$CMLSCALE
 40
20.0
  9
$PROXYGRAPHICS
 70
     1
  9
$MEASUREMENT
 70
     1
  9
$CELWEIGHT
370
    -1
  9
$ENDCAPS
280
     0
  9
$JOINSTYLE
280
     0
  9
$LWDISPLAY
290
     1
  9
$INSUNITS
 70
     4
  9
$HYPERLINKBASE
  1

  9
$STYLESHEET
  1

  9
$XEDIT
290
     1
  9
$CEPSNTYPE
380
     0
  9
$PSTYLEMODE
290
     1
  9
$FINGERPRINTGUID
  2
{69F1852E-B040-448A-8ECD-46F5835C7A21}
  9
$VERSIONGUID
  2
{FAEB1C32-E019-11D5-929B-00C0DF256EC4}
  9
$EXTNAMES
290
     1
  9
$PSVPSCALE
 40
0.0
  9
$OLESTARTUP
290
     0
  0
ENDSEC
  0
SECTION
  2
CLASSES
  0
CLASS
  1
ACDBDICTIONARYWDFLT
  2
AcDbDictionaryWithDefault
  3
ObjectDBX Classes
 90
        0
280
     0
281
     0
  0
CLASS
  1
VISUALSTYLE
  2
AcDbVisualStyle
  3
ObjectDBX Classes
 90
     4095
280
     0
281
     0
  0
CLASS
  1
MATERIAL
  2
AcDbMaterial
  3
ObjectDBX Classes
 90
     1153
280
     0
281
     0
  0
CLASS
  1
SCALE
  2
AcDbScale
  3
ObjectDBX Classes
 90
     1153
280
     0
281
     0
  0
CLASS
  1
SUN
  2
AcDbSun
  3
SCENEOE
 90
     1153
280
     0
281
     0
  0
CLASS
  1
ACDBPLACEHOLDER
  2
AcDbPlaceHolder
  3
ObjectDBX Classes
 90
        0
280
     0
281
     0
  0
CLASS
  1
LAYOUT
  2
AcDbLayout
  3
ObjectDBX Classes
 90
        0
280
     0
281
     0
  0
CLASS
  1
TABLESTYLE
  2
AcDbTableStyle
  3
ObjectDBX Classes
 90
     4095
280
     0
281
     0
  0
CLASS
  1
MLEADERSTYLE
  2
AcDbMLeaderStyle
  3
ACDB_MLEADERSTYLE_CLASS
 90
     4095
280
     0
281
     0
  0
CLASS
  1
DICTIONARYVAR
  2
AcDbDictionaryVar
  3
ObjectDBX Classes
 90
        0
280
     0
281
     0
  0
ENDSEC
  0
SECTION
  2
TABLES
  0
TABLE
  2
VPORT
  5
8
330
0
100
AcDbSymbolTable
 70
     1
  0
VPORT
  5
29
330
8
100
AcDbSymbolTableRecord
100
AcDbViewportTableRecord
  2
*Active
 70
     0
 10
0.0
 20
0.0
 11
1.0
 21
1.0
 12
19.90674190767272
 22
-3.715153694405849
 13
0.0
 23
0.0
 14
10.0
 24
10.0
 15
10.0
 25
10.0
 16
0.0
 26
0.0
 36
1.0
 17
0.0
 27
0.0
 37
0.0
 40
94.36357353658804
 41
1.782762691853601
 42
50.0
 43
0.0
 44
0.0
 50
0.0
 51
0.0
 71
    16
 72
  2000
 73
     1
 74
     3
 75
     0
 76
     0
 77
     0
 78
     0
281
     0
 65
     1
110
0.0
120
0.0
130
0.0
111
1.0
121
0.0
131
0.0
112
0.0
122
1.0
132
0.0
 79
     0
146
0.0
  0
ENDTAB
  0
TABLE
  2
LTYPE
  5
5
330
0
100
AcDbSymbolTable
 70
     6
  0
LTYPE
  5
14
330
5
100
AcDbSymbolTableRecord
100
AcDbLinetypeTableRecord
  2
ByBlock
 70
     0
  3

 72
    65
 73
     0
 40
0.0
  0
LTYPE
  5
15
330
5
100
AcDbSymbolTableRecord
100
AcDbLinetypeTableRecord
  2
ByLayer
 70
     0
  3

 72
    65
 73
     0
 40
0.0
  0
LTYPE
  5
16
330
5
100
AcDbSymbolTableRecord
100
AcDbLinetypeTableRecord
  2
Continuous
 70
     0
  3
Solid line
 72
    65
 73
     0
 40
0.0
  0
LTYPE
  5
6A
330
5
100
AcDbSymbolTableRecord
100
AcDbLinetypeTableRecord
  2
HIDDEN
 70
     0
  3
Hidden __ __ __ __ __ __ __ __ __ __ __ __ __ __
 72
    65
 73
     2
 40
1.905
 49
1.27
 74
     0
 49
-0.635
 74
     0
  0
LTYPE
  5
6B
330
5
100
AcDbSymbolTableRecord
100
AcDbLinetypeTableRecord
  2
PHANTOM
 70
     0
  3
Phantom ______  __  __  ______  __  __  ______
 72
    65
 73
     6
 40
12.7
 49
6.35
 74
     0
 49
-1.27
 74
     0
 49
1.27
 74
     0
 49
-1.27
 74
     0
 49
1.27
 74
     0
 49
-1.27
 74
     0
  0
LTYPE
  5
6C
330
5
100
AcDbSymbolTableRecord
100
AcDbLinetypeTableRecord
  2
CENTER
 70
     0
  3
Center ____ _ ____ _ ____ _ ____ _ ____ _ ____
 72
    65
 73
     4
 40
10.16
 49
6.35
 74
     0
 49
-1.27
 74
     0
 49
1.27
 74
     0
 49
-1.27
 74
     0
  0
LTYPE
  5
6D
330
5
100
AcDbSymbolTableRecord
100
AcDbLinetypeTableRecord
  2
CENTERX2
 70
     0
  3
Center (2x) ________  __  ________  __  _____
 72
    65
 73
     4
 40
20.32
 49
12.7
 74
     0
 49
-2.54
 74
     0
 49
2.54
 74
     0
 49
-2.54
 74
     0
  0
LTYPE
  5
6E
330
5
100
AcDbSymbolTableRecord
100
AcDbLinetypeTableRecord
  2
DOT2
 70
     0
  3
Dot (.5x) ........................................
 72
    65
 73
     2
 40
0.635
 49
0.0
 74
     0
 49
-0.635
 74
     0
  0
ENDTAB
  0
TABLE
  2
LAYER
  5
2
102
{ACAD_XDICTIONARY
360
194
102
}
330
0
100
AcDbSymbolTable
 70
    18
  0
LAYER
  5
10
330
2
100
AcDbSymbolTableRecord
100
AcDbLayerTableRecord
  2
0
 70
     0
 62
     7
  6
Continuous
370
    -3
390
F
  0
LAYER
  5
6F
330
2
100
AcDbSymbolTableRecord
100
AcDbLayerTableRecord
  2
FORMAT
 70
     0
 62
     2
  6
Continuous
370
    -3
390
F
  0
LAYER
  5
70
330
2
100
AcDbSymbolTableRecord
100
AcDbLayerTableRecord
  2
외형선
 70
     0
 62
     4
  6
Continuous
370
    30
390
F
  0
LAYER
  5
71
330
2
100
AcDbSymbolTableRecord
100
AcDbLayerTableRecord
  2
숨은선
 70
     0
 62
     2
  6
HIDDEN
370
    15
390
F
  0
LAYER
  5
72
330
2
100
AcDbSymbolTableRecord
100
AcDbLayerTableRecord
  2
중심선
 70
     0
 62
     1
  6
CENTERX2
370
    -3
390
F
  0
LAYER
  5
73
330
2
100
AcDbSymbolTableRecord
100
AcDbLayerTableRecord
  2
파단선
 70
     0
 62
     4
  6
Continuous
370
    -3
390
F
  0
LAYER
  5
74
330
2
100
AcDbSymbolTableRecord
100
AcDbLayerTableRecord
  2
해칭선
 70
     0
 62
   100
  6
Continuous
370
    -3
390
F
  0
LAYER
  5
75
330
2
100
AcDbSymbolTableRecord
100
AcDbLayerTableRecord
  2
가는실선
 70
     0
 62
     4
  6
Continuous
370
    -3
390
F
  0
LAYER
  5
76
330
2
100
AcDbSymbolTableRecord
100
AcDbLayerTableRecord
  2
치수_보조선
 70
     0
 62
     4
  6
Continuous
370
    -3
390
F
  0
LAYER
  5
77
330
2
100
AcDbSymbolTableRecord
100
AcDbLayerTableRecord
  2
치수문자_일반주서
 70
     0
 62
     7
  6
Continuous
370
    15
390
F
  0
LAYER
  5
78
330
2
100
AcDbSymbolTableRecord
100
AcDbLayerTableRecord
  2
개별주서
 70
     0
 62
   100
  6
Continuous
370
    30
390
F
  0
LAYER
  5
79
330
2
100
AcDbSymbolTableRecord
100
AcDbLayerTableRecord
  2
중간선
 70
     0
 62
     2
  6
Continuous
370
    15
390
F
  0
LAYER
  5
7A
330
2
100
AcDbSymbolTableRecord
100
AcDbLayerTableRecord
  2
윤곽선
 70
     0
 62
     3
  6
Continuous
370
    40
390
F
  0
LAYER
  5
7B
330
2
100
AcDbSymbolTableRecord
100
AcDbLayerTableRecord
  2
중심마크
 70
     0
 62
   100
  6
Continuous
370
    30
390
F
  0
LAYER
  5
7C
330
2
100
AcDbSymbolTableRecord
100
AcDbLayerTableRecord
  2
가상선
 70
     0
 62
     4
  6
PHANTOM
370
    -3
390
F
  0
LAYER
  5
7D
330
2
100
AcDbSymbolTableRecord
100
AcDbLayerTableRecord
  2
특수지정선
 70
     0
 62
     5
  6
CENTERX2
370
    60
390
F
  0
LAYER
  5
7E
330
2
100
AcDbSymbolTableRecord
100
AcDbLayerTableRecord
  2
참조1
 70
     0
 62
    -4
  6
Continuous
370
    -3
390
F
  0
LAYER
  5
160
330
2
100
AcDbSymbolTableRecord
100
AcDbLayerTableRecord
  2
Defpoints
 70
     0
 62
     7
  6
Continuous
290
     0
370
    -3
390
F
  0
ENDTAB
  0
TABLE
  2
STYLE
  5
3
330
0
100
AcDbSymbolTable
 70
     2
  0
STYLE
  5
11
330
3
100
AcDbSymbolTableRecord
100
AcDbTextStyleTableRecord
  2
Standard
 70
     0
 40
0.0
 41
1.0
 50
0.0
 71
     0
 42
3.5
  3
txt
  4

  0
STYLE
  5
94
330
3
100
AcDbSymbolTableRecord
100
AcDbTextStyleTableRecord
  2
SLDTEXTSTYLE0
 70
     0
 40
0.0
 41
0.75
 50
0.0
 71
     0
 42
3.5
  3
TXT
  4

  0
ENDTAB
  0
TABLE
  2
VIEW
  5
6
330
0
100
AcDbSymbolTable
 70
     0
  0
ENDTAB
  0
TABLE
  2
UCS
  5
7
330
0
100
AcDbSymbolTable
 70
     0
  0
ENDTAB
  0
TABLE
  2
APPID
  5
9
330
0
100
AcDbSymbolTable
 70
     2
  0
APPID
  5
12
330
9
100
AcDbSymbolTableRecord
100
AcDbRegAppTableRecord
  2
ACAD
 70
     0
  0
APPID
  5
167
330
9
100
AcDbSymbolTableRecord
100
AcDbRegAppTableRecord
  2
PE_URL
 70
     0
  0
ENDTAB
  0
TABLE
  2
DIMSTYLE
  5
A
330
0
100
AcDbSymbolTable
 70
     3
100
AcDbDimStyleTable
  0
DIMSTYLE
105
27
330
A
100
AcDbSymbolTableRecord
100
AcDbDimStyleTableRecord
  2
ISO-25
 70
     0
 41
2.5
 42
0.625
 43
3.75
 44
1.25
 73
     0
 74
     0
 77
     1
 78
     8
140
2.5
141
2.5
143
0.03937007874016
147
0.625
171
     3
172
     1
178
     0
271
     2
272
     2
274
     3
278
    44
283
     0
284
     8
340
11
  0
DIMSTYLE
105
E1
102
{ACAD_REACTORS
330
E0
330
11C
330
F5
330
109
102
}
330
A
100
AcDbSymbolTableRecord
100
AcDbDimStyleTableRecord
  2
SLDDIMSTYLE0
 70
     0
 41
3.302
 44
0.0
 45
0.000000001
 73
     0
 74
     0
 77
     1
 78
    12
 79
     3
140
3.5
143
0.0393700787401575
147
0.875
148
0.000000001
170
     1
172
     1
173
     1
178
     0
271
     2
272
     2
276
     2
284
    12
289
     0
340
94
  0
DIMSTYLE
105
F6
330
A
100
AcDbSymbolTableRecord
100
AcDbDimStyleTableRecord
  2
SLDDIMSTYLE1
 70
     0
 41
3.302
 44
0.0
 45
0.000000001
 73
     0
 74
     0
 77
     1
 78
    12
 79
     3
140
3.5
143
0.0393700787401575
147
0.875
148
0.000000001
170
     1
173
     1
178
     0
271
     2
272
     2
276
     2
284
    12
340
94
  0
ENDTAB
  0
TABLE
  2
BLOCK_RECORD
  5
1
330
0
100
AcDbSymbolTable
 70
     9
  0
BLOCK_RECORD
  5
1F
330
1
100
AcDbSymbolTableRecord
100
AcDbBlockTableRecord
  2
*Model_Space
340
22
  0
BLOCK_RECORD
  5
1B
330
1
100
AcDbSymbolTableRecord
100
AcDbBlockTableRecord
  2
*Paper_Space
340
1E
  0
BLOCK_RECORD
  5
23
330
1
100
AcDbSymbolTableRecord
100
AcDbBlockTableRecord
  2
*Paper_Space0
340
26
  0
BLOCK_RECORD
  5
7F
330
1
100
AcDbSymbolTableRecord
100
AcDbBlockTableRecord
  2
블럭10
340
0
102
{BLKREFS
331
D9
102
}
  0
BLOCK_RECORD
  5
E2
330
1
100
AcDbSymbolTableRecord
100
AcDbBlockTableRecord
  2
_D
340
0
  0
BLOCK_RECORD
  5
F7
330
1
100
AcDbSymbolTableRecord
100
AcDbBlockTableRecord
  2
_D_1
340
0
  0
BLOCK_RECORD
  5
10A
330
1
100
AcDbSymbolTableRecord
100
AcDbBlockTableRecord
  2
_D_2
340
0
  0
BLOCK_RECORD
  5
11D
330
1
100
AcDbSymbolTableRecord
100
AcDbBlockTableRecord
  2
_D_3
340
0
  0
BLOCK_RECORD
  5
136
330
1
100
AcDbSymbolTableRecord
100
AcDbBlockTableRecord
  2
SW_DOWELSYMBOL_0
340
0
102
{BLKREFS
331
13C
102
}
  0
BLOCK_RECORD
  5
198
330
1
100
AcDbSymbolTableRecord
100
AcDbBlockTableRecord
  2
*D7
340
0
  0
BLOCK_RECORD
  5
1A7
330
1
100
AcDbSymbolTableRecord
100
AcDbBlockTableRecord
  2
*D8
340
0
  0
ENDTAB
  0
ENDSEC
  0
SECTION
  2
BLOCKS
  0
BLOCK
  5
20
330
1F
100
AcDbEntity
  8
0
100
AcDbBlockBegin
  2
*Model_Space
 70
     0
 10
0.0
 20
0.0
 30
0.0
  3
*Model_Space
  1

  0
ENDBLK
  5
21
330
1F
100
AcDbEntity
  8
0
100
AcDbBlockEnd
  0
BLOCK
  5
1C
330
1B
100
AcDbEntity
 67
     1
  8
0
100
AcDbBlockBegin
  2
*Paper_Space
 70
     0
 10
0.0
 20
0.0
 30
0.0
  3
*Paper_Space
  1

  0
ENDBLK
  5
1D
330
1B
100
AcDbEntity
 67
     1
  8
0
100
AcDbBlockEnd
  0
BLOCK
  5
24
330
23
100
AcDbEntity
  8
0
100
AcDbBlockBegin
  2
*Paper_Space0
 70
     0
 10
0.0
 20
0.0
 30
0.0
  3
*Paper_Space0
  1

  0
ENDBLK
  5
25
330
23
100
AcDbEntity
  8
0
100
AcDbBlockEnd
  0
BLOCK
  5
80
330
7F
100
AcDbEntity
  8
0
100
AcDbBlockBegin
  2
블럭10
 70
     2
 10
0.0
 20
0.0
 30
0.0
  3
블럭10
  1

  0
ELLIPSE
  5
82
330
7F
100
AcDbEntity
  8
중심선
100
AcDbEllipse
 10
20.54032771741204
 20
12.0471743016438
 30
0.0
 11
6.600054785286829
 21
-1.261213355974178E-13
 31
0.0
210
0.0
220
0.0
230
1.0
 40
0.636358354079598
 41
0.9219305317359503
 42
6.513795318482858
  0
ELLIPSE
  5
83
330
7F
100
AcDbEntity
  8
중심선
100
AcDbEllipse
 10
20.54032771746488
 20
12.04717430159265
 30
0.0
 11
3.960054785062283
 21
1.540847449632565E-10
 31
0.0
210
0.0
220
0.0
230
1.0
 40
0.3939339440162632
 41
1.131841032648279
 42
5.62031148352944
  0
LINE
  5
84
330
7F
100
AcDbEntity
  8
중심선
100
AcDbLine
 10
2.268634060543552
 20
16.24717430164393
 30
0.0
 11
5.714909304380834
 21
16.24717430164393
 31
0.0
  0
LINE
  5
85
330
7F
100
AcDbEntity
  8
중심선
100
AcDbLine
 10
5.245725140726316
 20
7.84717430164391
 30
0.0
 11
8.692000384563599
 21
7.84717430164391
 31
0.0
  0
LINE
  5
86
330
7F
100
AcDbEntity
  8
중심선
100
AcDbLine
 10
15.74043728645272
 20
16.24717430164393
 30
0.0
 11
8.692000384563599
 21
7.84717430164391
 31
0.0
  0
LINE
  5
87
330
7F
100
AcDbEntity
  8
중심선
100
AcDbLine
 10
0.1404042013395286
 20
13.71084872107135
 30
0.0
 11
3.58671253028996
 21
13.71088815037384
 31
0.0
  0
LINE
  5
88
330
7F
100
AcDbEntity
  8
중심선
100
AcDbLine
 10
2.750260043222114
 20
10.84717430164391
 30
0.0
 11
6.196535287059397
 21
10.84717430164391
 31
0.0
  0
LINE
  5
89
330
7F
100
AcDbEntity
  8
중심선
100
AcDbLine
 10
12.29416204261559
 20
16.24717430164393
 30
0.0
 11
5.245725140726316
 21
7.84717430164391
 31
0.0
  0
LINE
  5
8A
330
7F
100
AcDbEntity
  8
중심선
100
AcDbLine
 10
10.72767329541681
 20
16.24717430164393
 30
0.0
 11
6.196535287059397
 21
10.84717430164391
 31
0.0
  0
LINE
  5
8B
330
7F
100
AcDbEntity
  8
중심선
100
AcDbLine
 10
7.28139805157953
 20
16.24717430164393
 30
0.0
 11
2.750260043222114
 21
10.84717430164391
 31
0.0
  0
LINE
  5
8C
330
7F
100
AcDbEntity
  8
중심선
100
AcDbLine
 10
5.714909304380834
 20
16.24717430164393
 30
0.0
 11
3.58671253028996
 21
13.71088815037384
 31
0.0
  0
LINE
  5
8D
330
7F
100
AcDbEntity
  8
중심선
100
AcDbLine
 10
2.268634060543552
 20
16.24717430164393
 30
0.0
 11
0.1404042013395286
 21
13.71084872107135
 31
0.0
  0
LINE
  5
8E
330
7F
100
AcDbEntity
  8
중심선
100
AcDbLine
 10
7.28139805157953
 20
16.24717430164393
 30
0.0
 11
10.72767329541681
 21
16.24717430164393
 31
0.0
  0
LINE
  5
8F
330
7F
100
AcDbEntity
  8
중심선
100
AcDbLine
 10
12.29416204261559
 20
16.24717430164393
 30
0.0
 11
15.74043728645272
 21
16.24717430164393
 31
0.0
  0
LINE
  5
90
330
7F
100
AcDbEntity
  8
중심선
100
AcDbLine
 10
19.22036997980202
 20
11.08717430171403
 30
0.0
 11
23.66174974927406
 21
11.08717430171406
 31
0.0
  0
LINE
  5
91
330
7F
100
AcDbEntity
  8
중심선
100
AcDbLine
 10
19.22039502424796
 20
13.00717430171391
 30
0.0
 11
19.22036997980202
 21
11.08717430171403
 31
0.0
  0
LINE
  5
92
330
7F
100
AcDbEntity
  8
중심선
100
AcDbLine
 10
19.22039502424796
 20
13.00717430171391
 30
0.0
 11
26.96566020931264
 21
13.00717430171391
 31
0.0
  0
LINE
  5
93
330
7F
100
AcDbEntity
  8
중심선
100
AcDbLine
 10
22.22332737316547
 20
13.45928029700563
 30
0.0
 11
24.52862924686651
 21
15.39360700705356
 31
0.0
  0
ATTDEF
  5
95
330
7F
100
AcDbEntity
  8
FORMAT
 62
     2
100
AcDbText
 10
4.408487351596664
 20
2.075366912832191
 30
0.0
 40
4.233333333333333
  1
E1042040
 41
0.75
  7
SLDTEXTSTYLE0
 11
4.408487351596664
 21
-0.0412997538344756
 31
0.0
100
AcDbAttributeDefinition
  3

  2
AUTOATTR0
 70
     0
 74
     1
  0
ENDBLK
  5
81
330
7F
100
AcDbEntity
  8
0
100
AcDbBlockEnd
  0
BLOCK
  5
E3
330
E2
100
AcDbEntity
  8
0
100
AcDbBlockBegin
  2
_D
 70
     0
 10
0.0
 20
0.0
 30
0.0
  3
_D
  1

  0
LINE
  5
E5
330
E2
100
AcDbEntity
  8
치수문자_일반주서
 62
     0
370
    -2
100
AcDbLine
 10
-40.45000000000002
 20
7.937500000000014
 30
0.0
 11
-56.97500000000003
 21
7.93749999999995
 31
0.0
  0
LINE
  5
E6
330
E2
100
AcDbEntity
  8
치수문자_일반주서
 62
     0
370
    -2
100
AcDbLine
 10
-40.45000000000002
 20
-7.937500000000013
 30
0.0
 11
-56.97499999999997
 21
-7.937500000000075
 31
0.0
  0
LINE
  5
E7
330
E2
100
AcDbEntity
  8
치수문자_일반주서
 62
     0
370
    -2
100
AcDbLine
 10
-56.97500000000003
 20
7.93749999999995
 30
0.0
 11
-56.97500000000015
 21
42.54149999999998
 31
0.0
  0
LINE
  5
E8
330
E2
100
AcDbEntity
  8
치수문자_일반주서
 62
     0
370
    -2
100
AcDbLine
 10
-56.97500000000003
 20
7.93749999999995
 30
0.0
 11
-56.97499999999997
 21
-7.937500000000075
 31
0.0
  0
LINE
  5
E9
330
E2
100
AcDbEntity
  8
치수문자_일반주서
 62
     0
370
    -2
100
AcDbLine
 10
-56.97500000000004
 20
11.23949999999995
 30
0.0
 11
-56.97500000000006
 21
14.54149999999995
 31
0.0
  0
LINE
  5
EA
330
E2
100
AcDbEntity
  8
치수문자_일반주서
 62
     0
370
    -2
100
AcDbLine
 10
-56.97499999999996
 20
-11.23950000000007
 30
0.0
 11
-56.97499999999994
 21
-14.54150000000007
 31
0.0
  0
SOLID
  5
EB
330
E2
100
AcDbEntity
  8
치수문자_일반주서
 62
     0
100
AcDbTrace
 10
-57.52533333333338
 20
11.23949999999995
 30
0.0
 11
-56.42466666666671
 21
11.23949999999995
 31
0.0
 12
-56.97500000000003
 22
7.93749999999995
 32
0.0
 13
-56.97500000000003
 23
7.93749999999995
 33
0.0
  0
SOLID
  5
EC
330
E2
100
AcDbEntity
  8
치수문자_일반주서
 62
     0
100
AcDbTrace
 10
-56.42466666666662
 20
-11.23950000000007
 30
0.0
 11
-57.52533333333329
 21
-11.23950000000008
 31
0.0
 12
-56.97499999999997
 22
-7.937500000000075
 32
0.0
 13
-56.97499999999997
 23
-7.937500000000075
 33
0.0
  0
MTEXT
  5
ED
330
E2
100
AcDbEntity
  8
치수문자_일반주서
 62
     0
100
AcDbMText
 10
-61.3500000000001
 20
28.54149999999996
 30
0.0
 40
3.5
 41
0.0
 71
     2
 72
     1
  1
\A1;%%c15.88 [5/8]
  7
SLDTEXTSTYLE0
 11
-3.580687802255617E-15
 21
1.0
 31
0.0
 73
     1
 44
1.0
  0
POINT
  5
1B7
330
E2
100
AcDbEntity
  8
Defpoints
 62
     0
100
AcDbPoint
 10
-40.38750000000002
 20
7.937500000000014
 30
0.0
  0
POINT
  5
1B8
330
E2
100
AcDbEntity
  8
Defpoints
 62
     0
100
AcDbPoint
 10
-40.38750000000002
 20
-7.937500000000013
 30
0.0
  0
POINT
  5
1B9
330
E2
100
AcDbEntity
  8
Defpoints
 62
     0
100
AcDbPoint
 10
-56.97499999999997
 20
-7.937500000000075
 30
0.0
  0
ENDBLK
  5
E4
330
E2
100
AcDbEntity
  8
0
100
AcDbBlockEnd
  0
BLOCK
  5
F8
330
F7
100
AcDbEntity
  8
0
100
AcDbBlockBegin
  2
_D_1
 70
     0
 10
0.0
 20
0.0
 30
0.0
  3
_D_1
  1

  0
LINE
  5
FA
330
F7
100
AcDbEntity
  8
치수문자_일반주서
 62
     0
370
    -2
100
AcDbLine
 10
53.27499999999998
 20
7.942076497803182
 30
0.0
 11
53.27499999999998
 21
22.9375
 31
0.0
  0
LINE
  5
FB
330
F7
100
AcDbEntity
  8
치수문자_일반주서
 62
     0
370
    -2
100
AcDbLine
 10
11.99999999999995
 20
7.902522559174463
 30
0.0
 11
11.99999999999995
 21
22.9375
 31
0.0
  0
LINE
  5
FC
330
F7
100
AcDbEntity
  8
치수문자_일반주서
 62
     0
370
    -2
100
AcDbLine
 10
49.97299999999998
 20
22.9375
 30
0.0
 11
15.30199999999995
 21
22.9375
 31
0.0
  0
SOLID
  5
FD
330
F7
100
AcDbEntity
  8
치수문자_일반주서
 62
     0
100
AcDbTrace
 10
49.97299999999998
 20
22.38716666666667
 30
0.0
 11
49.97299999999998
 21
23.48783333333333
 31
0.0
 12
53.27499999999998
 22
22.9375
 32
0.0
 13
53.27499999999998
 23
22.9375
 33
0.0
  0
SOLID
  5
FE
330
F7
100
AcDbEntity
  8
치수문자_일반주서
 62
     0
100
AcDbTrace
 10
15.30199999999995
 20
23.48783333333333
 30
0.0
 11
15.30199999999995
 21
22.38716666666667
 31
0.0
 12
11.99999999999995
 22
22.9375
 32
0.0
 13
11.99999999999995
 23
22.9375
 33
0.0
  0
MTEXT
  5
FF
330
F7
100
AcDbEntity
  8
치수문자_일반주서
 62
     0
100
AcDbMText
 10
32.63749999999997
 20
27.3125
 30
0.0
 40
3.5
 41
0.0
 71
     2
 72
     1
  1
\A1;41.28 [1 5/8]
  7
SLDTEXTSTYLE0
 73
     1
 44
1.0
  0
POINT
  5
100
330
F7
100
AcDbEntity
  8
Defpoints
 62
     0
100
AcDbPoint
 10
53.27499999999998
 20
7.879576497803182
 30
0.0
  0
POINT
  5
101
330
F7
100
AcDbEntity
  8
Defpoints
 62
     0
100
AcDbPoint
 10
11.99999999999995
 20
7.840022559174463
 30
0.0
  0
POINT
  5
102
330
F7
100
AcDbEntity
  8
Defpoints
 62
     0
100
AcDbPoint
 10
11.99999999999995
 20
22.9375
 30
0.0
  0
ENDBLK
  5
F9
330
F7
100
AcDbEntity
  8
0
100
AcDbBlockEnd
  0
BLOCK
  5
10B
330
10A
100
AcDbEntity
  8
0
100
AcDbBlockBegin
  2
_D_2
 70
     0
 10
0.0
 20
0.0
 30
0.0
  3
_D_2
  1

  0
LINE
  5
10D
330
10A
100
AcDbEntity
  8
치수문자_일반주서
 62
     0
370
    -2
100
AcDbLine
 10
53.27499999999998
 20
7.942076497803182
 30
0.0
 11
53.27499999999998
 21
37.9375
 31
0.0
  0
LINE
  5
10E
330
10A
100
AcDbEntity
  8
치수문자_일반주서
 62
     0
370
    -2
100
AcDbLine
 10
-41.97500000000002
 20
6.412500000000008
 30
0.0
 11
-41.97500000000002
 21
37.9375
 31
0.0
  0
LINE
  5
10F
330
10A
100
AcDbEntity
  8
치수문자_일반주서
 62
     0
370
    -2
100
AcDbLine
 10
49.97299999999998
 20
37.9375
 30
0.0
 11
-38.67300000000002
 21
37.9375
 31
0.0
  0
SOLID
  5
110
330
10A
100
AcDbEntity
  8
치수문자_일반주서
 62
     0
100
AcDbTrace
 10
49.97299999999998
 20
37.38716666666667
 30
0.0
 11
49.97299999999998
 21
38.48783333333333
 31
0.0
 12
53.27499999999998
 22
37.9375
 32
0.0
 13
53.27499999999998
 23
37.9375
 33
0.0
  0
SOLID
  5
111
330
10A
100
AcDbEntity
  8
치수문자_일반주서
 62
     0
100
AcDbTrace
 10
-38.67300000000002
 20
38.48783333333333
 30
0.0
 11
-38.67300000000002
 21
37.38716666666667
 31
0.0
 12
-41.97500000000002
 22
37.9375
 32
0.0
 13
-41.97500000000002
 23
37.9375
 33
0.0
  0
MTEXT
  5
112
330
10A
100
AcDbEntity
  8
치수문자_일반주서
 62
     0
100
AcDbMText
 10
5.649999999999984
 20
42.3125
 30
0.0
 40
3.5
 41
0.0
 71
     2
 72
     1
  1
\A1;95.25 [3 3/4]
  7
SLDTEXTSTYLE0
 73
     1
 44
1.0
  0
POINT
  5
113
330
10A
100
AcDbEntity
  8
Defpoints
 62
     0
100
AcDbPoint
 10
53.27499999999998
 20
7.879576497803182
 30
0.0
  0
POINT
  5
114
330
10A
100
AcDbEntity
  8
Defpoints
 62
     0
100
AcDbPoint
 10
-41.97500000000002
 20
6.350000000000008
 30
0.0
  0
POINT
  5
115
330
10A
100
AcDbEntity
  8
Defpoints
 62
     0
100
AcDbPoint
 10
-41.97500000000002
 20
37.9375
 30
0.0
  0
ENDBLK
  5
10C
330
10A
100
AcDbEntity
  8
0
100
AcDbBlockEnd
  0
BLOCK
  5
11E
330
11D
100
AcDbEntity
  8
0
100
AcDbBlockBegin
  2
_D_3
 70
     0
 10
0.0
 20
0.0
 30
0.0
  3
_D_3
  1

  0
LINE
  5
120
330
11D
100
AcDbEntity
  8
치수문자_일반주서
 62
     0
370
    -2
100
AcDbLine
 10
53.33749999999998
 20
7.937500000000004
 30
0.0
 11
68.27499999999998
 21
7.93750000000006
 31
0.0
  0
LINE
  5
121
330
11D
100
AcDbEntity
  8
치수문자_일반주서
 62
     0
370
    -2
100
AcDbLine
 10
53.33749999999998
 20
-7.937500000000003
 30
0.0
 11
68.27500000000003
 21
-7.937499999999947
 31
0.0
  0
LINE
  5
122
330
11D
100
AcDbEntity
  8
치수문자_일반주서
 62
     0
370
    -2
100
AcDbLine
 10
68.27499999999998
 20
7.93750000000006
 30
0.0
 11
68.27499999999985
 21
42.54150000000006
 31
0.0
  0
LINE
  5
123
330
11D
100
AcDbEntity
  8
치수문자_일반주서
 62
     0
370
    -2
100
AcDbLine
 10
68.27499999999998
 20
7.93750000000006
 30
0.0
 11
68.27500000000003
 21
-7.937499999999947
 31
0.0
  0
LINE
  5
124
330
11D
100
AcDbEntity
  8
치수문자_일반주서
 62
     0
370
    -2
100
AcDbLine
 10
68.27499999999996
 20
11.23950000000006
 30
0.0
 11
68.27499999999995
 21
14.54150000000006
 31
0.0
  0
LINE
  5
125
330
11D
100
AcDbEntity
  8
치수문자_일반주서
 62
     0
370
    -2
100
AcDbLine
 10
68.27500000000005
 20
-11.23949999999995
 30
0.0
 11
68.27500000000006
 21
-14.54149999999995
 31
0.0
  0
SOLID
  5
126
330
11D
100
AcDbEntity
  8
치수문자_일반주서
 62
     0
100
AcDbTrace
 10
67.72466666666664
 20
11.23950000000006
 30
0.0
 11
68.82533333333329
 21
11.23950000000006
 31
0.0
 12
68.27499999999998
 22
7.93750000000006
 32
0.0
 13
68.27499999999998
 23
7.93750000000006
 33
0.0
  0
SOLID
  5
127
330
11D
100
AcDbEntity
  8
치수문자_일반주서
 62
     0
100
AcDbTrace
 10
68.82533333333338
 20
-11.23949999999994
 30
0.0
 11
67.72466666666672
 21
-11.23949999999995
 31
0.0
 12
68.27500000000003
 22
-7.937499999999947
 32
0.0
 13
68.27500000000003
 23
-7.937499999999947
 33
0.0
  0
MTEXT
  5
128
330
11D
100
AcDbEntity
  8
치수문자_일반주서
 62
     0
100
AcDbMText
 10
63.89999999999991
 20
28.54150000000004
 30
0.0
 40
3.5
 41
0.0
 71
     2
 72
     1
  1
\A1;%%c15.88 [5/8]
  7
SLDTEXTSTYLE0
 11
-3.580687802255621E-15
 21
1.0
 31
0.0
 73
     1
 44
1.0
  0
POINT
  5
129
330
11D
100
AcDbEntity
  8
Defpoints
 62
     0
100
AcDbPoint
 10
53.27499999999998
 20
7.937500000000004
 30
0.0
  0
POINT
  5
12A
330
11D
100
AcDbEntity
  8
Defpoints
 62
     0
100
AcDbPoint
 10
53.27499999999998
 20
-7.937500000000003
 30
0.0
  0
POINT
  5
12B
330
11D
100
AcDbEntity
  8
Defpoints
 62
     0
100
AcDbPoint
 10
68.27500000000003
 20
-7.937499999999947
 30
0.0
  0
ENDBLK
  5
11F
330
11D
100
AcDbEntity
  8
0
100
AcDbBlockEnd
  0
BLOCK
  5
137
330
136
100
AcDbEntity
  8
0
100
AcDbBlockBegin
  2
SW_DOWELSYMBOL_0
 70
     0
 10
0.0
 20
0.0
 30
0.0
  3
SW_DOWELSYMBOL_0
  1

  0
CIRCLE
  5
139
330
136
100
AcDbEntity
  8
해칭선
 62
     0
100
AcDbCircle
 10
0.0
 20
0.0
 30
0.0
 40
3.000000000000002
  0
HATCH
  5
13A
330
136
100
AcDbEntity
  8
0
  6
Continuous
 62
     0
370
     0
100
AcDbHatch
 10
0.0
 20
0.0
 30
0.0
210
0.0
220
0.0
230
1.0
  2
SOLID
 70
     1
 71
     0
 91
        1
 92
        0
 93
        3
 72
     2
 10
0.0000000000000104
 20
0.0
 40
3.000000000000002
 50
0.0
 51
90.0
 73
     1
 72
     1
 10
0.0000000000000104
 20
3.000000000000002
 11
0.0000000000000104
 21
0.0
 72
     1
 10
0.0000000000000104
 20
0.0
 11
3.000000000000012
 21
0.0
 97
        0
 75
     0
 76
     1
 98
        1
 10
0.0
 20
0.0
  0
HATCH
  5
13B
330
136
100
AcDbEntity
  8
0
  6
Continuous
 62
     0
370
     0
100
AcDbHatch
 10
0.0
 20
0.0
 30
0.0
210
0.0
220
0.0
230
1.0
  2
SOLID
 70
     1
 71
     0
 91
        1
 92
        0
 93
        3
 72
     2
 10
0.0000000000000104
 20
0.0
 40
3.000000000000002
 50
180.0
 51
270.0000000000007
 73
     1
 72
     1
 10
0.0000000000000104
 20
-3.000000000000002
 11
0.0000000000000104
 21
0.0
 72
     1
 10
0.0000000000000104
 20
0.0
 11
-2.999999999999992
 21
0.0
 97
        0
 75
     0
 76
     1
 98
        1
 10
0.0
 20
0.0
  0
ENDBLK
  5
138
330
136
100
AcDbEntity
  8
0
100
AcDbBlockEnd
  0
BLOCK
  5
199
330
198
100
AcDbEntity
  8
0
100
AcDbBlockBegin
  2
*D7
 70
     1
 10
0.0
 20
0.0
 30
0.0
  3
*D7
  1

  0
LINE
  5
19B
330
198
100
AcDbEntity
  8
치수문자_일반주서
 62
     0
370
    -2
100
AcDbLine
 10
31.75000000000001
 20
12.71511895029067
 30
0.0
 11
31.75000000000001
 21
22.69895775204811
 31
0.0
  0
LINE
  5
19C
330
198
100
AcDbEntity
  8
치수문자_일반주서
 62
     0
370
    -2
100
AcDbLine
 10
0.0
 20
12.7195163112805
 30
0.0
 11
0.0
 21
22.69895775204811
 31
0.0
  0
LINE
  5
19D
330
198
100
AcDbEntity
  8
치수문자_일반주서
 62
     0
370
    -2
100
AcDbLine
 10
28.44800000000001
 20
22.69895775204811
 30
0.0
 11
3.302
 21
22.69895775204811
 31
0.0
  0
SOLID
  5
19E
330
198
100
AcDbEntity
  8
치수문자_일반주서
 62
     0
100
AcDbTrace
 10
28.44800000000001
 20
22.14862441871477
 30
0.0
 11
28.44800000000001
 21
23.24929108538144
 31
0.0
 12
31.75000000000001
 22
22.69895775204811
 32
0.0
 13
31.75000000000001
 23
22.69895775204811
 33
0.0
  0
SOLID
  5
19F
330
198
100
AcDbEntity
  8
치수문자_일반주서
 62
     0
100
AcDbTrace
 10
3.302
 20
23.24929108538144
 30
0.0
 11
3.302
 21
22.14862441871477
 31
0.0
 12
0.0
 22
22.69895775204811
 32
0.0
 13
0.0
 23
22.69895775204811
 33
0.0
  0
MTEXT
  5
1A0
330
198
100
AcDbEntity
  8
치수문자_일반주서
 62
     0
100
AcDbMText
 10
15.87500000000001
 20
27.07395775204811
 30
0.0
 40
3.5
 41
0.0
 71
     2
 72
     1
  1
\A1;31.75 [1 1/4]
  7
SLDTEXTSTYLE0
 73
     1
 44
1.0
  0
POINT
  5
1A1
330
198
100
AcDbEntity
  8
Defpoints
 62
     0
100
AcDbPoint
 10
31.75000000000001
 20
12.65261895029067
 30
0.0
  0
POINT
  5
1A2
330
198
100
AcDbEntity
  8
Defpoints
 62
     0
100
AcDbPoint
 10
0.0
 20
12.6570163112805
 30
0.0
  0
POINT
  5
1A3
330
198
100
AcDbEntity
  8
Defpoints
 62
     0
100
AcDbPoint
 10
0.0
 20
22.69895775204811
 30
0.0
  0
ENDBLK
  5
19A
330
198
100
AcDbEntity
  8
0
100
AcDbBlockEnd
  0
BLOCK
  5
1A8
330
1A7
100
AcDbEntity
  8
0
100
AcDbBlockBegin
  2
*D8
 70
     1
 10
0.0
 20
0.0
 30
0.0
  3
*D8
  1

  0
LINE
  5
1AA
330
1A7
100
AcDbEntity
  8
치수문자_일반주서
 62
     0
370
    -2
100
AcDbLine
 10
105.6521733165616
 20
40.38082904944149
 30
0.0
 11
105.6521733165616
 21
50.36466785119893
 31
0.0
  0
LINE
  5
1AB
330
1A7
100
AcDbEntity
  8
치수문자_일반주서
 62
     0
370
    -2
100
AcDbLine
 10
73.90217331656163
 20
40.38522641043132
 30
0.0
 11
73.90217331656163
 21
50.36466785119893
 31
0.0
  0
LINE
  5
1AC
330
1A7
100
AcDbEntity
  8
치수문자_일반주서
 62
     0
370
    -2
100
AcDbLine
 10
102.3501733165616
 20
50.36466785119893
 30
0.0
 11
77.20417331656162
 21
50.36466785119893
 31
0.0
  0
SOLID
  5
1AD
330
1A7
100
AcDbEntity
  8
치수문자_일반주서
 62
     0
100
AcDbTrace
 10
102.3501733165616
 20
49.8143345178656
 30
0.0
 11
102.3501733165616
 21
50.91500118453227
 31
0.0
 12
105.6521733165616
 22
50.36466785119893
 32
0.0
 13
105.6521733165616
 23
50.36466785119893
 33
0.0
  0
SOLID
  5
1AE
330
1A7
100
AcDbEntity
  8
치수문자_일반주서
 62
     0
100
AcDbTrace
 10
77.20417331656162
 20
50.91500118453227
 30
0.0
 11
77.20417331656162
 21
49.8143345178656
 31
0.0
 12
73.90217331656163
 22
50.36466785119893
 32
0.0
 13
73.90217331656163
 23
50.36466785119893
 33
0.0
  0
MTEXT
  5
1AF
330
1A7
100
AcDbEntity
  8
치수문자_일반주서
 62
     0
100
AcDbMText
 10
89.77717331656163
 20
54.73966785119893
 30
0.0
 40
3.5
 41
0.0
 71
     2
 72
     1
  1
\A1;31.75 [1 1/4]
  7
SLDTEXTSTYLE0
 73
     1
 44
1.0
  0
POINT
  5
1B0
330
1A7
100
AcDbEntity
  8
Defpoints
 62
     0
100
AcDbPoint
 10
105.6521733165616
 20
40.31832904944149
 30
0.0
  0
POINT
  5
1B1
330
1A7
100
AcDbEntity
  8
Defpoints
 62
     0
100
AcDbPoint
 10
73.90217331656163
 20
40.32272641043132
 30
0.0
  0
POINT
  5
1B2
330
1A7
100
AcDbEntity
  8
Defpoints
 62
     0
100
AcDbPoint
 10
73.90217331656163
 20
50.36466785119893
 30
0.0
  0
ENDBLK
  5
1A9
330
1A7
100
AcDbEntity
  8
0
100
AcDbBlockEnd
  0
ENDSEC
  0
SECTION
  2
ENTITIES
  0
LINE
  5
96
330
1F
100
AcDbEntity
  8
0
  6
Continuous
 62
     1
370
    15
100
AcDbLine
 10
29.98855241764361
 20
1.537959845465785
 30
0.0
 11
29.93791071647458
 21
1.587344891408248
 31
0.0
1001
PE_URL
1000

  0
LINE
  5
97
330
1F
100
AcDbEntity
  8
0
  6
Continuous
 62
     1
370
    15
100
AcDbLine
 10
43.31545596783816
 20
-1.539234936614258
 30
0.0
 11
43.36555501475805
 21
-1.587596767316277
 31
0.0
1001
PE_URL
1000

  0
LINE
  5
98
330
1F
100
AcDbEntity
  8
0
  6
Continuous
 62
     1
370
    15
100
AcDbLine
 10
52.31466711035274
 20
-7.937500000000003
 30
0.0
 11
53.27499999999998
 21
-7.937500000000003
 31
0.0
1001
PE_URL
1000

  0
LINE
  5
99
330
1F
100
AcDbEntity
  8
0
  6
Continuous
 62
     1
370
    15
100
AcDbLine
 10
29.29887136493239
 20
7.937500000000004
 30
0.0
 11
27.37865328309014
 21
7.937500000000004
 31
0.0
1001
PE_URL
1000

  0
LINE
  5
9A
330
1F
100
AcDbEntity
  8
0
  6
Continuous
 62
     1
370
    15
100
AcDbLine
 10
44.00254564010074
 20
-7.937500000000003
 30
0.0
 11
45.92283857098549
 21
-7.937500000000003
 31
0.0
1001
PE_URL
1000

  0
LINE
  5
9B
330
1F
100
AcDbEntity
  8
0
  6
Continuous
 62
     1
370
    15
100
AcDbLine
 10
20.98640624550838
 20
7.937500000000004
 30
0.0
 11
19.06649961256948
 21
7.937500000000004
 31
0.0
1001
PE_URL
1000

  0
LINE
  5
9C
330
1F
100
AcDbEntity
  8
0
  6
Continuous
 62
     1
370
    15
100
AcDbLine
 10
27.37865328309014
 20
-7.937500000000003
 30
0.0
 11
29.29887136493234
 21
-7.937500000000003
 31
0.0
1001
PE_URL
1000

  0
LINE
  5
9D
330
1F
100
AcDbEntity
  8
0
  6
Continuous
 62
     1
370
    15
100
AcDbLine
 10
53.27499999999998
 20
7.937500000000004
 30
0.0
 11
52.31466711035274
 21
7.937500000000004
 31
0.0
1001
PE_URL
1000

  0
LINE
  5
9E
330
1F
100
AcDbEntity
  8
외형선
  6
Continuous
370
    15
100
AcDbLine
 10
11.99999999999999
 20
-7.937500000000003
 30
0.0
 11
12.6733605662985
 21
-7.937500000000003
 31
0.0
  0
LINE
  5
9F
330
1F
100
AcDbEntity
  8
0
  6
Continuous
 62
     1
370
    15
100
AcDbLine
 10
37.61066639308842
 20
7.937500000000004
 30
0.0
 11
35.69103039597915
 21
7.937500000000004
 31
0.0
1001
PE_URL
1000

  0
LINE
  5
A0
330
1F
100
AcDbEntity
  8
0
  6
Continuous
 62
     1
370
    15
100
AcDbLine
 10
35.69103039597908
 20
-7.937500000000003
 30
0.0
 11
37.61066639308835
 21
-7.937500000000003
 31
0.0
1001
PE_URL
1000

  0
LINE
  5
A1
330
1F
100
AcDbEntity
  8
0
  6
Continuous
 62
     1
370
    15
100
AcDbLine
 10
12.67336056629845
 20
7.937500000000004
 30
0.0
 11
11.99999999999999
 21
7.937500000000004
 31
0.0
1001
PE_URL
1000

  0
LINE
  5
A2
330
1F
100
AcDbEntity
  8
0
  6
Continuous
 62
     1
370
    15
100
AcDbLine
 10
19.06649961256953
 20
-7.937500000000003
 30
0.0
 11
20.98640624550838
 21
-7.937500000000003
 31
0.0
1001
PE_URL
1000

  0
LINE
  5
A3
330
1F
100
AcDbEntity
  8
0
  6
Continuous
 62
     1
370
    15
100
AcDbLine
 10
45.9228385709855
 20
7.937500000000004
 30
0.0
 11
44.00254564010081
 21
7.937500000000004
 31
0.0
1001
PE_URL
1000

  0
LINE
  5
A4
330
1F
100
AcDbEntity
  8
외형선
  6
Continuous
370
    15
100
AcDbLine
 10
-40.38750000000002
 20
-7.937499999999999
 30
0.0
 11
11.99999999999999
 21
-7.937499999999999
 31
0.0
  0
LINE
  5
A5
330
1F
100
AcDbEntity
  8
외형선
  6
Continuous
370
    15
100
AcDbLine
 10
11.99999999999999
 20
7.937500000000001
 30
0.0
 11
-11.02192500000008
 21
7.937500000000001
 31
0.0
  0
LINE
  5
A6
330
1F
100
AcDbEntity
  8
외형선
  6
Continuous
370
    15
100
AcDbLine
 10
-40.38750000000002
 20
7.937500000000001
 30
0.0
 11
-41.97500000000002
 21
6.350000000000008
 31
0.0
  0
LINE
  5
A7
330
1F
100
AcDbEntity
  8
외형선
  6
Continuous
370
    15
100
AcDbLine
 10
-41.97500000000002
 20
-6.350000000000006
 30
0.0
 11
-40.38750000000002
 21
-7.937499999999999
 31
0.0
  0
SPLINE
  5
A8
330
1F
100
AcDbEntity
  8
0
  6
Continuous
 62
     1
370
    15
100
AcDbSpline
210
0.0
220
0.0
230
1.0
 70
     8
 71
     3
 72
    29
 73
    25
 74
     0
 42
0.000000001
 43
0.00000001
 40
0.0
 40
0.0
 40
0.0
 40
0.0
 40
0.0246157405171512
 40
0.0732561098135841
 40
0.1218380954948719
 40
0.1703804568260408
 40
0.218977955384293
 40
0.2676083255843883
 40
0.3161578676653061
 40
0.3630921166003882
 40
0.4101118807252255
 40
0.4570478413382749
 40
0.5039695832376836
 40
0.5509826762862989
 40
0.5979371695416659
 40
0.6448518458442417
 40
0.691846259540111
 40
0.7388246920398878
 40
0.785737751708503
 40
0.8327057937926605
 40
0.8797092547723843
 40
0.9266261484918614
 40
0.9735724482330103
 40
1.0
 40
1.0
 40
1.0
 40
1.0
 10
12.67336056629845
 20
7.908117030781504
 30
0.0
 10
12.90409570212472
 20
7.913611451870052
 30
0.0
 10
13.59076033592539
 20
7.929962774485935
 30
0.0
 10
14.73465254350837
 20
7.702189721797972
 30
0.0
 10
16.10138626589335
 20
7.246984429903031
 30
0.0
 10
17.46705230016446
 20
6.564945623751432
 30
0.0
 10
18.83427921151514
 20
5.692246495449618
 30
0.0
 10
20.20247181505803
 20
4.651006826959406
 30
0.0
 10
21.55314605291705
 20
3.484300302976419
 30
0.0
 10
22.88872282445495
 20
2.231890772316699
 30
0.0
 10
24.21155006982726
 20
0.9342535169637528
 30
0.0
 10
25.53198305670794
 20
-0.3912967807549573
 30
0.0
 10
26.85201915768384
 20
-1.706287056475364
 30
0.0
 10
28.17464026080324
 20
-2.971973427842982
 30
0.0
 10
29.49559451939537
 20
-4.157025483110562
 30
0.0
 10
30.81542375991875
 20
-5.227695385501159
 30
0.0
 10
32.13750989943986
 20
-6.152523999746907
 30
0.0
 10
33.45913570665984
 20
-6.907735027727209
 30
0.0
 10
34.7789154037222
 20
-7.472778252461585
 30
0.0
 10
36.10024556414773
 20
-7.83005450019687
 30
0.0
 10
37.42259573966937
 20
-7.973554753444855
 30
0.0
 10
38.7424759119536
 20
-7.887253506624898
 30
0.0
 10
39.87022443561844
 20
-7.657544190996835
 30
0.0
 10
40.5587965305836
 20
-7.378200848940568
 30
0.0
 10
40.80680415606552
 20
-7.277587885586219
 30
0.0
1001
PE_URL
1000

  0
SPLINE
  5
A9
330
1F
100
AcDbEntity
  8
0
  6
Continuous
 62
     1
370
    15
100
AcDbSpline
210
0.0
220
0.0
230
1.0
 70
     8
 71
     3
 72
    29
 73
    25
 74
     0
 42
0.000000001
 43
0.00000001
 40
0.0
 40
0.0
 40
0.0
 40
0.0
 40
0.0460980243383029
 40
0.0930242935698783
 40
0.1400416455514777
 40
0.1869880401932891
 40
0.2339050287539844
 40
0.2809085847499204
 40
0.3278767217786905
 40
0.374789876280774
 40
0.4217684037461683
 40
0.4687629124399597
 40
0.5156776835792718
 40
0.5626322717518637
 40
0.6096454598361613
 40
0.6565672965865893
 40
0.7035033520793994
 40
0.7505232112534054
 40
0.7974575550647895
 40
0.8460071952872787
 40
0.8946376637923384
 40
0.9432352605891055
 40
0.9917777200473317
 40
1.0
 40
1.0
 40
1.0
 40
1.0
 10
44.00254564010076
 20
-7.93559075226554
 30
0.0
 10
43.57035588266695
 20
-7.915942120379037
 30
0.0
 10
42.69821119858316
 20
-7.876291828916597
 30
0.0
 10
41.38598270628918
 20
-7.541277956835831
 30
0.0
 10
40.06320596980742
 20
-7.013146283103637
 30
0.0
 10
38.74248951874917
 20
-6.286117660134789
 30
0.0
 10
37.42259208711626
 20
-5.385929632612273
 30
0.0
 10
36.10024654282159
 20
-4.33808570859954
 30
0.0
 10
34.77891514192685
 20
-3.169789554815626
 30
0.0
 10
33.45913577687364
 20
-1.91280207986787
 30
0.0
 10
32.13750988063511
 20
-0.604229295826149
 30
0.0
 10
30.81542376484309
 20
0.7206006733358246
 30
0.0
 10
29.49559451846825
 20
2.027298279231407
 30
0.0
 10
28.17464025958433
 20
3.277150371000213
 30
0.0
 10
26.8520191634917
 20
4.435147326388857
 30
0.0
 10
25.53198303474281
 20
5.472461640182173
 30
0.0
 10
24.2115501519868
 20
6.358104540116884
 30
0.0
 10
22.88872251743569
 20
7.066807341273489
 30
0.0
 10
21.55314721297638
 20
7.587674932255138
 30
0.0
 10
20.20246731601653
 20
7.894681104275942
 30
0.0
 10
18.83429600959189
 20
7.976680117527053
 30
0.0
 10
17.46698969461521
 20
7.80335553699256
 30
0.0
 10
16.47977819652204
 20
7.563602224231629
 30
0.0
 10
15.94744002009996
 20
7.322256960008495
 30
0.0
 10
15.87033170318596
 20
7.287298491982613
 30
0.0
1001
PE_URL
1000

  0
LINE
  5
AA
330
1F
100
AcDbEntity
  8
0
  6
Continuous
 62
     1
370
    15
100
AcDbLine
 10
53.27499999999998
 20
-3.110851973334562
 30
0.0
 11
53.27499999999998
 21
3.110851973334713
 31
0.0
1001
PE_URL
1000

  0
SPLINE
  5
AB
330
1F
100
AcDbEntity
  8
0
  6
Continuous
 62
     1
370
    15
100
AcDbSpline
210
0.0
220
0.0
230
1.0
 70
     8
 71
     3
 72
    10
 73
     6
 74
     0
 42
0.000000001
 43
0.00000001
 40
0.0
 40
0.0
 40
0.0
 40
0.0
 40
0.3529952529988287
 40
0.7065965723751012
 40
1.0
 40
1.0
 40
1.0
 40
1.0
 10
12.0
 20
-7.908920644925255
 30
0.0
 10
12.45510570541071
 20
-7.923717387927996
 30
0.0
 10
13.36609849859885
 20
-7.953336278831572
 30
0.0
 10
14.65748872085064
 20
-7.734289525902889
 30
0.0
 10
15.49192975200189
 20
-7.426757829968434
 30
0.0
 10
15.87033170318601
 20
-7.287298491982612
 30
0.0
1001
PE_URL
1000

  0
SPLINE
  5
AC
330
1F
100
AcDbEntity
  8
0
  6
Continuous
 62
     1
370
    15
100
AcDbSpline
210
0.0
220
0.0
230
1.0
 70
     8
 71
     3
 72
    19
 73
    15
 74
     0
 42
0.000000001
 43
0.00000001
 40
0.0
 40
0.0
 40
0.0
 40
0.0
 40
0.0722759199688564
 40
0.1565884402225332
 40
0.2410283950149806
 40
0.325304771405619
 40
0.409587969365355
 40
0.4940311247146566
 40
0.5783339325550356
 40
0.6625975649590727
 40
0.7470223404917795
 40
0.8313613156584226
 40
0.9156151600725297
 40
0.9999999999999999
 40
0.9999999999999999
 40
0.9999999999999999
 40
0.9999999999999999
 10
37.61066639308844
 20
7.924119305823775
 30
0.0
 10
37.98788275616
 20
7.913954862260804
 30
0.0
 10
38.80513588756595
 20
7.891933221250333
 30
0.0
 10
40.06318714868273
 20
7.592372342437931
 30
0.0
 10
41.38596095386887
 20
7.09069472199689
 30
0.0
 10
42.70611322231882
 20
6.386288411712067
 30
0.0
 10
44.02638434544366
 20
5.506686606615798
 30
0.0
 10
45.34917468758761
 20
4.476209046523255
 30
0.0
 10
46.66975012835511
 20
3.320573130087962
 30
0.0
 10
47.98970841259901
 20
2.072723691925655
 30
0.0
 10
49.31220753392701
 20
0.7692429832481957
 30
0.0
 10
50.63334301145594
 20
-0.5550671526424008
 30
0.0
 10
51.95314026661922
 20
-1.871092335471423
 30
0.0
 10
52.83415197082903
 20
-2.697384810975473
 30
0.0
 10
53.275
 20
-3.110851973334563
 30
0.0
1001
PE_URL
1000

  0
SPLINE
  5
AD
330
1F
100
AcDbEntity
  8
외형선
  6
Continuous
370
    15
100
AcDbSpline
210
0.0
220
0.0
230
1.0
 70
    24
 71
     3
 72
    13
 73
     9
 74
     0
 42
0.000000001
 43
0.00000001
 40
0.0
 40
0.0
 40
0.0
 40
0.0
 40
0.0406593074072016
 40
0.2156839830437705
 40
0.3957843861308172
 40
0.5708090617673585
 40
0.7509094648543753
 40
1.0
 40
1.0
 40
1.0
 40
1.0
 10
11.99999999999999
 20
-5.060916764307206
 30
0.0
 10
11.99999999999999
 20
-5.091502073210156
 30
0.0
 10
11.99999999999999
 20
-5.253746874400353
 30
0.0
 10
12.00000000000002
 20
-5.606306955776436
 30
0.0
 10
11.99999999999999
 20
-6.1006567218765
 30
0.0
 10
11.99999999999995
 20
-6.629921093422543
 30
0.0
 10
11.99999999999998
 20
-7.240718319933554
 30
0.0
 10
11.99999999999999
 20
-7.663531553153752
 30
0.0
 10
12.0
 20
-7.908920644925262
 30
0.0
  0
SPLINE
  5
AE
330
1F
100
AcDbEntity
  8
0
  6
Continuous
 62
     1
370
    15
100
AcDbSpline
210
0.0
220
0.0
230
1.0
 70
     8
 71
     3
 72
    17
 73
    13
 74
     0
 42
0.000000001
 43
0.00000001
 40
0.0
 40
0.0
 40
0.0
 40
0.0
 40
0.1060178467885482
 40
0.2118711158842586
 40
0.3178313399624892
 40
0.4238993602997569
 40
0.5297649266471752
 40
0.6356797114965324
 40
0.7417708235239838
 40
0.8476609712783006
 40
0.9535425486772299
 40
1.0
 40
1.0
 40
1.0
 40
1.0
 10
53.27499999999998
 20
3.110851973334711
 30
0.0
 10
52.83415197119177
 20
3.507709615266763
 30
0.0
 10
51.95314026770695
 20
4.300808833844948
 30
0.0
 10
50.63334300711088
 20
5.350173761873915
 30
0.0
 10
49.31220755024712
 20
6.257010087976008
 30
0.0
 10
47.98970835165245
 20
6.988630575525428
 30
0.0
 10
46.66975035536945
 20
7.528862073463953
 30
0.0
 10
45.34917383926991
 20
7.859584625936643
 30
0.0
 10
44.02638751470185
 20
7.9761433273636
 30
0.0
 10
42.70610142049207
 20
7.86069947070376
 30
0.0
 10
41.63365231557725
 20
7.625660154016006
 30
0.0
 10
41.0000332218581
 20
7.358930122952626
 30
0.0
 10
40.80680415606558
 20
7.27758788558622
 30
0.0
1001
PE_URL
1000

  0
SPLINE
  5
AF
330
1F
100
AcDbEntity
  8
0
  6
Continuous
 62
     1
370
    15
100
AcDbSpline
210
0.0
220
0.0
230
1.0
 70
     8
 71
     3
 72
    13
 73
     9
 74
     0
 42
0.000000001
 43
0.00000001
 40
0.0
 40
0.0
 40
0.0
 40
0.0
 40
0.0328693927283761
 40
0.2263498805043598
 40
0.4196108512700644
 40
0.613029577863045
 40
0.8066807462621207
 40
1.0
 40
1.0
 40
1.0
 40
1.0
 10
19.06649961256954
 20
-7.920919277641904
 30
0.0
 10
18.98903884782635
 20
-7.926173967182439
 30
0.0
 10
18.45561752823317
 20
-7.962359556597381
 30
0.0
 10
17.46704024001387
 20
-7.801954866187541
 30
0.0
 10
16.10139807989332
 20
-7.430356664298542
 30
0.0
 10
14.73461729773564
 20
-6.814494747117375
 30
0.0
 10
13.36611404642907
 20
-6.014334732199794
 30
0.0
 10
12.4551108850564
 20
-5.333920957909026
 30
0.0
 10
11.99999999999996
 20
-4.994005875116698
 30
0.0
1001
PE_URL
1000

  0
LINE
  5
B0
330
1F
100
AcDbEntity
  8
0
  6
Continuous
 62
     1
370
    15
100
AcDbLine
 10
53.27499999999998
 20
-7.879576497803176
 30
0.0
 11
53.27499999999998
 21
-4.768724524468496
 31
0.0
1001
PE_URL
1000

  0
SPLINE
  5
B1
330
1F
100
AcDbEntity
  8
0
  6
Continuous
 62
     1
370
    15
100
AcDbSpline
210
0.0
220
0.0
230
1.0
 70
     8
 71
     3
 72
    26
 73
    22
 74
     0
 42
0.000000001
 43
0.00000001
 40
0.0
 40
0.0
 40
0.0
 40
0.0
 40
0.0082142928388025
 40
0.063261770216118
 40
0.1184028077050951
 40
0.1735250936092871
 40
0.2285706741042536
 40
0.2836807683828431
 40
0.3388324215297031
 40
0.3938825007198482
 40
0.4489670835544882
 40
0.5041349242301438
 40
0.5591958929015313
 40
0.6142613183639968
 40
0.6694312500854261
 40
0.7245094874302952
 40
0.7795621299695321
 40
0.834720053456281
 40
0.8898219202938223
 40
0.9448681679661942
 40
1.0
 40
1.0
 40
1.0
 40
1.0
 10
29.29887136493239
 20
7.92357363948843
 30
0.0
 10
29.36452053312018
 20
7.928032578963624
 30
0.0
 10
29.87011275807198
 20
7.96237277233425
 30
0.0
 10
30.81535295408089
 20
7.81564295500789
 30
0.0
 10
32.13752886423232
 20
7.473035885153317
 30
0.0
 10
33.45913068914748
 20
6.903090833089131
 30
0.0
 10
34.77891654303572
 20
6.147178102520662
 30
0.0
 10
36.10024602887138
 20
5.220412040045255
 30
0.0
 10
37.42259273968512
 20
4.15064300007841
 30
0.0
 10
38.74248742554459
 20
2.964337240542021
 30
0.0
 10
40.0632137018636
 20
1.696540790381819
 30
0.0
 10
41.38595384982507
 20
0.3836789641451698
 30
0.0
 10
42.70611512434026
 20
-0.9420268386915235
 30
0.0
 10
44.02638383467555
 20
-2.241585958039484
 30
0.0
 10
45.34917482430529
 20
-3.477081815346183
 30
0.0
 10
46.6697500917687
 20
-4.618449049125299
 30
0.0
 10
47.98970842242139
 20
-5.632015280746075
 30
0.0
 10
49.31220753129682
 20
-6.48957667714823
 30
0.0
 10
50.6333430121562
 20
-7.164531302332421
 30
0.0
 10
51.95314026644392
 20
-7.657264986948253
 30
0.0
 10
52.83415197077057
 20
-7.805434295761999
 30
0.0
 10
53.27500000000001
 20
-7.879576497803177
 30
0.0
1001
PE_URL
1000

  0
SPLINE
  5
B2
330
1F
100
AcDbEntity
  8
0
  6
Continuous
 62
     1
370
    15
100
AcDbSpline
210
0.0
220
0.0
230
1.0
 70
     8
 71
     3
 72
    23
 73
    19
 74
     0
 42
0.000000001
 43
0.00000001
 40
0.0
 40
0.0
 40
0.0
 40
0.0
 40
0.0636133632987272
 40
0.12712797585989
 40
0.1907067640892611
 40
0.2543502327738206
 40
0.3178722239939938
 40
0.3814237475480116
 40
0.4450810718250146
 40
0.5086178125049703
 40
0.5721494107570481
 40
0.6358043222998898
 40
0.6993631675396084
 40
0.762882201062729
 40
0.8265184347725998
 40
0.8901067161600438
 40
0.9536205589046222
 40
0.9999999999999999
 40
0.9999999999999999
 40
0.9999999999999999
 40
0.9999999999999999
 10
53.27499999999998
 20
-4.768724524468496
 30
0.0
 10
52.83415197077076
 20
-4.403937974140336
 30
0.0
 10
51.95314026644456
 20
-3.674931152942143
 30
0.0
 10
50.63334301215347
 20
-2.442872480835401
 30
0.0
 10
49.31220753130688
 20
-1.153539512945293
 30
0.0
 10
47.9897084223837
 20
0.1689334707226067
 30
0.0
 10
46.66975009190885
 20
1.488204602621318
 30
0.0
 10
45.34917482378125
 20
2.766046882237036
 30
0.0
 10
44.02638383663334
 20
3.965600038131373
 30
0.0
 10
42.70611511704973
 20
5.057579956573321
 30
0.0
 10
41.38595387705519
 20
6.009603834559826
 30
0.0
 10
40.06321360008393
 20
6.794128113253169
 30
0.0
 10
38.74248780462874
 20
7.392166326925072
 30
0.0
 10
37.42259132474314
 20
7.785312720365186
 30
0.0
 10
36.10025131879703
 20
7.964760087378622
 30
0.0
 10
34.77889682826002
 20
7.917380475409438
 30
0.0
 10
33.5783883295672
 20
7.698706883789778
 30
0.0
 10
32.81691521628162
 20
7.406050975751239
 30
0.0
 10
32.49554255209971
 20
7.282538264384315
 30
0.0
1001
PE_URL
1000

  0
SPLINE
  5
B3
330
1F
100
AcDbEntity
  8
0
  6
Continuous
 62
     1
370
    15
100
AcDbSpline
210
0.0
220
0.0
230
1.0
 70
     8
 71
     3
 72
    23
 73
    19
 74
     0
 42
0.000000001
 43
0.00000001
 40
0.0
 40
0.0
 40
0.0
 40
0.0
 40
0.06665259032086
 40
0.1334196181408637
 40
0.2001065047013951
 40
0.2667390002257361
 40
0.3334471807999189
 40
0.4002004831907583
 40
0.4668428354930207
 40
0.5312679282644572
 40
0.5958104049113866
 40
0.6602378472466135
 40
0.7246457720234226
 40
0.7891790915044392
 40
0.8536319729854435
 40
0.9180301990509326
 40
0.9825378780016141
 40
1.0
 40
1.0
 40
1.0
 40
1.0
 10
12.0
 20
4.537264201744729
 30
0.0
 10
12.45511082802834
 20
4.15043250620344
 30
0.0
 10
13.36611387524689
 20
3.376104954109052
 30
0.0
 10
14.7346179834932
 20
2.080822924450776
 30
0.0
 10
16.10139551278005
 20
0.732313618321214
 30
0.0
 10
17.46704982014036
 20
-0.6407860600473432
 30
0.0
 10
18.83427987725289
 20
-1.993564345624543
 30
0.0
 10
20.20247163560597
 20
-3.286800771833863
 30
0.0
 10
21.55314610340789
 20
-4.470897191799163
 30
0.0
 10
22.88872279596819
 20
-5.513910588685834
 30
0.0
 10
24.21155013415445
 20
-6.391195938520109
 30
0.0
 10
25.53198282838826
 20
-7.093199641367039
 30
0.0
 10
26.85202000723097
 20
-7.599260207317165
 30
0.0
 10
28.17463708581769
 20
-7.8936073280485
 30
0.0
 10
29.49560634695124
 20
-7.974402733981955
 30
0.0
 10
30.8153796272986
 20
-7.819032293474582
 30
0.0
 10
31.81615578670933
 20
-7.581874445862519
 30
0.0
 10
32.37622941573797
 20
-7.335107346471423
 30
0.0
 10
32.49554255209966
 20
-7.282538264384316
 30
0.0
1001
PE_URL
1000

  0
SPLINE
  5
B4
330
1F
100
AcDbEntity
  8
외형선
  6
Continuous
370
    15
100
AcDbSpline
210
0.0
220
0.0
230
1.0
 70
    24
 71
     3
 72
    14
 73
    10
 74
     0
 42
0.000000001
 43
0.00000001
 40
0.0
 40
0.0
 40
0.0
 40
0.0
 40
0.1284320658232353
 40
0.2804935587489062
 40
0.4369648452708011
 40
0.5890263381964407
 40
0.7454976247183007
 40
0.8975591176439368
 40
1.0
 40
1.0
 40
1.0
 40
1.0
 10
11.99999999999995
 20
7.840022559174463
 30
0.0
 10
11.99999999999996
 20
7.698754073966793
 30
0.0
 10
11.99999999999999
 20
7.390225982473632
 30
0.0
 10
11.99999999999999
 20
6.885805337557318
 30
0.0
 10
12.00000000000003
 20
6.351686135782899
 30
0.0
 10
11.99999999999998
 20
5.822171490102262
 30
0.0
 10
11.99999999999998
 20
5.325551765458668
 30
0.0
 10
11.99999999999999
 20
4.910024361675851
 30
0.0
 10
12.0
 20
4.691952261373967
 30
0.0
 10
12.00000000000001
 20
4.604175090935232
 30
0.0
  0
SPLINE
  5
B5
330
1F
100
AcDbEntity
  8
0
  6
Continuous
 62
     1
370
    15
100
AcDbSpline
210
0.0
220
0.0
230
1.0
 70
     8
 71
     3
 72
    25
 73
    21
 74
     0
 42
0.000000001
 43
0.00000001
 40
0.0
 40
0.0
 40
0.0
 40
0.0
 40
0.0385098311322717
 40
0.0942188775664565
 40
0.150005553942334
 40
0.205811207916378
 40
0.2615221740960881
 40
0.3172804227273707
 40
0.3731082583484197
 40
0.4288276148924514
 40
0.484563856094699
 40
0.5403996135886274
 40
0.596133822181023
 40
0.653786184087266
 40
0.7115345290199054
 40
0.7692438390263484
 40
0.8268876738247044
 40
0.8845785623598288
 40
0.9423387811742002
 40
1.0
 40
1.0
 40
1.0
 40
1.0
 10
35.69103039597908
 20
-7.914017981383542
 30
0.0
 10
35.38684314287098
 20
-7.913239599949432
 30
0.0
 10
34.64261288490312
 20
-7.911335197284345
 30
0.0
 10
33.45916151067404
 20
-7.655576312207298
 30
0.0
 10
32.13750297821122
 20
-7.189494322664735
 30
0.0
 10
30.81542561115828
 20
-6.516967654166073
 30
0.0
 10
29.49559402327878
 20
-5.665458121523117
 30
0.0
 10
28.17464039392004
 20
-4.65712688458796
 30
0.0
 10
26.85201912229136
 20
-3.521619452067673
 30
0.0
 10
25.53198306537766
 20
-2.286794549174771
 30
0.0
 10
24.21155007052024
 20
-0.9889360464303342
 30
0.0
 10
22.88872281297797
 20
0.3341202599839029
 30
0.0
 10
21.55314609867902
 20
1.665329055313634
 30
0.0
 10
20.20247163689351
 20
2.964208169566017
 30
0.0
 10
18.8342798769079
 20
4.188662310694732
 30
0.0
 10
17.46704982023262
 20
5.289694117623851
 30
0.0
 10
16.10139551275528
 20
6.235872102106612
 30
0.0
 10
14.7346179834998
 20
6.992759433002028
 30
0.0
 10
13.36611387524518
 20
7.558956232617629
 30
0.0
 10
12.45511082802775
 20
7.746387371853753
 30
0.0
 10
11.99999999999996
 20
7.840022559174464
 30
0.0
1001
PE_URL
1000

  0
SPLINE
  5
B6
330
1F
100
AcDbEntity
  8
0
  6
Continuous
 62
     1
370
    15
100
AcDbSpline
210
0.0
220
0.0
230
1.0
 70
     8
 71
     3
 72
    29
 73
    25
 74
     0
 42
0.000000001
 43
0.00000001
 40
0.0
 40
0.0
 40
0.0
 40
0.0
 40
0.0206905679378268
 40
0.0676256237015889
 40
0.1146461961251652
 40
0.1615829635963193
 40
0.2085055121094044
 40
0.2555194133420787
 40
0.3024747137741379
 40
0.3493901965689282
 40
0.3963854181277467
 40
0.4433646582157463
 40
0.4902785243487849
 40
0.5372473738425476
 40
0.584251642840749
 40
0.6311693430905593
 40
0.6781164498675489
 40
0.7251345150606878
 40
0.7720614961221576
 40
0.8189922755866622
 40
0.8660121229218118
 40
0.9129538216087245
 40
0.9598737065319466
 40
1.0
 40
1.0
 40
1.0
 40
1.0
 10
20.98640624550838
 20
7.908757739575222
 30
0.0
 10
21.18037341455366
 20
7.915608498845092
 30
0.0
 10
21.81434106704795
 20
7.937999709654115
 30
0.0
 10
22.88869088814231
 20
7.737458610754977
 30
0.0
 10
24.21155861677308
 20
7.32766976338157
 30
0.0
 10
25.53198076922104
 20
6.70135485368048
 30
0.0
 10
26.85201977181432
 20
5.892947649540603
 30
0.0
 10
28.17464009662202
 20
4.92228630181599
 30
0.0
 10
29.49559456225791
 20
3.814798217616797
 30
0.0
 10
30.81542375238026
 20
2.600999995610798
 30
0.0
 10
32.1375098866358
 20
1.317020790035089
 30
0.0
 10
33.45913576535207
 20
-0.0037388204145812
 30
0.0
 10
34.77891518197931
 20
-1.32573690159878
 30
0.0
 10
36.1002463938742
 20
-2.610002128629778
 30
0.0
 10
37.42259264280033
 20
-3.821336097514713
 30
0.0
 10
38.7424874487245
 20
-4.928848307617735
 30
0.0
 10
40.06321370601935
 20
-5.899498599089978
 30
0.0
 10
41.38595380993544
 20
-6.706018163232886
 30
0.0
 10
42.70611527938446
 20
-7.328643816267379
 30
0.0
 10
44.02638325374603
 20
-7.747954693830746
 30
0.0
 10
45.34917699589111
 20
-7.954234421063902
 30
0.0
 10
46.66974200426684
 20
-7.93557337359068
 30
0.0
 10
47.92524027449958
 20
-7.728247872186114
 30
0.0
 10
48.74212651170372
 20
-7.428185385813482
 30
0.0
 10
49.11869234710116
 20
-7.289863455896924
 30
0.0
1001
PE_URL
1000

  0
SPLINE
  5
B7
330
1F
100
AcDbEntity
  8
0
  6
Continuous
 62
     1
370
    15
100
AcDbSpline
210
0.0
220
0.0
230
1.0
 70
     8
 71
     3
 72
    30
 73
    26
 74
     0
 42
0.000000001
 43
0.00000001
 40
0.0
 40
0.0
 40
0.0
 40
0.0
 40
0.0128608607201971
 40
0.0597755296876999
 40
0.1067376016087648
 40
0.153747449341119
 40
0.2006675685086771
 40
0.2476095015488274
 40
0.2946295836273679
 40
0.3415605973905984
 40
0.3884878127318303
 40
0.4355061126594622
 40
0.4824534538166912
 40
0.5293713882999297
 40
0.5763758919637487
 40
0.6233449759462982
 40
0.6702590762936241
 40
0.7172385509222856
 40
0.7642340071015519
 40
0.8111497241187003
 40
0.8581052589719046
 40
0.9051193949182837
 40
0.9520421776890023
 40
0.998979179488776
 40
1.0
 40
1.0
 40
1.0
 40
1.0
 10
52.31466711035275
 20
-7.915652434414336
 30
0.0
 10
52.19401901922768
 20
-7.922087923118107
 30
0.0
 10
51.63326311729295
 20
-7.951999198454682
 30
0.0
 10
50.63339491837243
 20
-7.785109091197503
 30
0.0
 10
49.31219360050697
 20
-7.412670402924431
 30
0.0
 10
47.98971214876151
 20
-6.819164914207094
 30
0.0
 10
46.66974909364851
 20
-6.04066931365201
 30
0.0
 10
45.34917509228254
 20
-5.094023030589377
 30
0.0
 10
44.02638376309742
 20
-4.00858809836871
 30
0.0
 10
42.70611514303582
 20
-2.810438254653663
 30
0.0
 10
41.38595384654313
 20
-1.534435973752478
 30
0.0
 10
40.06321369624248
 20
-0.2182577781007007
 30
0.0
 10
38.74248745125183
 20
1.105767076525202
 30
0.0
 10
37.42259264245288
 20
2.399750267619785
 30
0.0
 10
36.10024639272935
 20
3.625485556373219
 30
0.0
 10
34.77891518689856
 20
4.751972367142477
 30
0.0
 10
33.45913574683118
 20
5.747868038254444
 30
0.0
 10
32.13750995592356
 20
6.583917561773331
 30
0.0
 10
30.81542349388112
 20
7.237858558793406
 30
0.0
 10
29.49559552550239
 20
7.692940064613447
 30
0.0
 10
28.17463649624878
 20
7.933250623319577
 30
0.0
 10
26.85203321588149
 20
7.960691534783089
 30
0.0
 10
25.53193069955498
 20
7.744614906160198
 30
0.0
 10
24.6428092775907
 20
7.513702891057316
 30
0.0
 10
24.19279923359485
 20
7.304800356473848
 30
0.0
 10
24.18322041076613
 20
7.30035369935154
 30
0.0
1001
PE_URL
1000

  0
LINE
  5
B8
330
1F
100
AcDbEntity
  8
0
  6
Continuous
 62
     1
370
    15
100
AcDbLine
 10
53.27499999999998
 20
4.753488015465822
 30
0.0
 11
53.27499999999998
 21
7.879576497803182
 31
0.0
1001
PE_URL
1000

  0
SPLINE
  5
B9
330
1F
100
AcDbEntity
  8
0
  6
Continuous
 62
     1
370
    15
100
AcDbSpline
210
0.0
220
0.0
230
1.0
 70
     8
 71
     3
 72
    16
 73
    12
 74
     0
 42
0.000000001
 43
0.00000001
 40
0.0
 40
0.0
 40
0.0
 40
0.0
 40
0.1121325031789682
 40
0.2244575294568112
 40
0.3366477306665014
 40
0.448746427509906
 40
0.5609724525494287
 40
0.6732743879508013
 40
0.7853896672732436
 40
0.8937747560630717
 40
1.0
 40
1.0
 40
1.0
 40
1.0
 10
11.99999999999998
 20
-3.371656443180534
 30
0.0
 10
12.45511082485844
 20
-3.774468073479222
 30
0.0
 10
13.36611386573184
 20
-4.580782931438018
 30
0.0
 10
14.73461802161045
 20
-5.626145651560935
 30
0.0
 10
16.10139537008917
 20
-6.51337923403837
 30
0.0
 10
17.46705035264362
 20
-7.20612637867592
 30
0.0
 10
18.83427788673305
 20
-7.685524359090056
 30
0.0
 10
20.20247906444633
 20
-7.938558279859911
 30
0.0
 10
21.55311881965653
 20
-7.952524570563903
 30
0.0
 10
22.87925288159659
 20
-7.756806922090174
 30
0.0
 10
23.75149064341225
 20
-7.451480502168781
 30
0.0
 10
24.18322041076615
 20
-7.30035369935154
 30
0.0
1001
PE_URL
1000

  0
SPLINE
  5
BA
330
1F
100
AcDbEntity
  8
0
  6
Continuous
 62
     1
370
    15
100
AcDbSpline
210
0.0
220
0.0
230
1.0
 70
     8
 71
     3
 72
    13
 73
     9
 74
     0
 42
0.000000001
 43
0.00000001
 40
0.0
 40
0.0
 40
0.0
 40
0.0
 40
0.1016231952886435
 40
0.2811503108832405
 40
0.4610207485049394
 40
0.6407083849371229
 40
0.8202146468188015
 40
1.0
 40
1.0
 40
1.0
 40
1.0
 10
45.9228385709855
 20
7.910517834721676
 30
0.0
 10
46.17187348164478
 20
7.914256301401315
 30
0.0
 10
46.86085243328829
 20
7.924599127822211
 30
0.0
 10
47.98966839278107
 20
7.698335351926439
 30
0.0
 10
49.31221825035764
 20
7.260534409761162
 30
0.0
 10
50.63334015833556
 20
6.609007618355593
 30
0.0
 10
51.95314098089263
 20
5.786286943249205
 30
0.0
 10
52.83415220904342
 20
5.108087601767672
 30
0.0
 10
53.275
 20
4.768724524468537
 30
0.0
1001
PE_URL
1000

  0
SPLINE
  5
BB
330
1F
100
AcDbEntity
  8
외형선
  6
Continuous
370
    15
100
AcDbSpline
210
0.0
220
0.0
230
1.0
 70
    24
 71
     3
 72
    24
 73
    20
 74
     0
 42
0.000000001
 43
0.00000001
 40
0.0
 40
0.0
 40
0.0
 40
0.0
 40
0.1249999999999997
 40
0.1249999999999997
 40
0.1874999999999996
 40
0.1874999999999996
 40
0.2499999999999996
 40
0.2499999999999996
 40
0.3749999999999996
 40
0.3749999999999996
 40
0.4999999999999997
 40
0.4999999999999997
 40
0.6249999999999998
 40
0.6249999999999998
 40
0.7499999999999998
 40
0.7499999999999998
 40
0.8749999999999999
 40
0.8749999999999999
 40
1.0
 40
1.0
 40
1.0
 40
1.0
 10
11.99999999999999
 20
2.84601668405768
 30
0.0
 10
11.99999999999998
 20
2.796422055226413
 30
0.0
 10
12.0
 20
2.710483606982685
 30
0.0
 10
11.99999999999999
 20
2.560654910645903
 30
0.0
 10
11.99999999999998
 20
2.509221332913055
 30
0.0
 10
12.0
 20
2.387571949788684
 30
0.0
 10
12.0
 20
2.317643678754771
 30
0.0
 10
11.99999999999998
 20
2.074937351561656
 30
0.0
 10
12.00000000000002
 20
1.868671304058206
 30
0.0
 10
12.00000000000001
 20
1.342861891534334
 30
0.0
 10
12.00000000000002
 20
1.02196563255683
 30
0.0
 10
12.0
 20
0.2756079604285199
 30
0.0
 10
12.0
 20
-0.1504248106136206
 30
0.0
 10
12.0
 20
-1.026984292215227
 30
0.0
 10
12.00000000000001
 20
-1.474908506979437
 30
0.0
 10
12.0
 20
-2.267646017422107
 30
0.0
 10
11.99999999999997
 20
-2.609428818962503
 30
0.0
 10
11.99999999999998
 20
-3.116291685477703
 30
0.0
 10
11.99999999999998
 20
-3.282174510113743
 30
0.0
 10
11.99999999999998
 20
-3.3716564431805
 30
0.0
  0
SPLINE
  5
BC
330
1F
100
AcDbEntity
  8
0
  6
Continuous
 62
     1
370
    15
100
AcDbSpline
210
0.0
220
0.0
230
1.0
 70
     8
 71
     3
 72
    11
 73
     7
 74
     0
 42
0.000000001
 43
0.00000001
 40
0.0
 40
0.0
 40
0.0
 40
0.0
 40
0.3180259920122876
 40
0.6355582937109789
 40
0.9534114325653661
 40
1.0
 40
1.0
 40
1.0
 40
1.0
 10
53.27499999999998
 20
7.879576497803182
 30
0.0
 10
52.83415176498004
 20
7.912643175366384
 30
0.0
 10
51.95313964939182
 20
7.97872519915879
 30
0.0
 10
50.63334547693204
 20
7.781121998660002
 30
0.0
 10
49.68847968950392
 20
7.548125551205695
 30
0.0
 10
49.18327536621663
 20
7.319136387387104
 30
0.0
 10
49.11869234710115
 20
7.289863455896925
 30
0.0
1001
PE_URL
1000

  0
SPLINE
  5
BD
330
1F
100
AcDbEntity
  8
0
  6
Continuous
 62
     1
370
    15
100
AcDbSpline
210
0.0
220
0.0
230
1.0
 70
     8
 71
     3
 72
    19
 73
    15
 74
     0
 42
0.000000001
 43
0.00000001
 40
0.0
 40
0.0
 40
0.0
 40
0.0
 40
0.0342552324767767
 40
0.1200925046194792
 40
0.2059557880640384
 40
0.2919723792196239
 40
0.377832531370215
 40
0.4666476538977891
 40
0.5556106410395455
 40
0.6445134937542226
 40
0.7333154800267198
 40
0.8221899539347322
 40
0.9111712331329809
 40
0.9999999999999999
 40
0.9999999999999999
 40
0.9999999999999999
 40
0.9999999999999999
 10
27.37865328309014
 20
-7.911139028603912
 30
0.0
 10
27.20293110547531
 20
-7.917739296098531
 30
0.0
 10
26.58688167590974
 20
-7.940878612263582
 30
0.0
 10
25.53200604045985
 20
-7.750719384077962
 30
0.0
 10
24.21154390146478
 20
-7.349318103484275
 30
0.0
 10
22.88872446199838
 20
-6.732133261091509
 30
0.0
 10
21.5531456402409
 20
-5.922292591068011
 30
0.0
 10
20.2024717617174
 20
-4.931294147535546
 30
0.0
 10
18.83427984346194
 20
-3.784790820049537
 30
0.0
 10
17.4670498291801
 20
-2.525731242660394
 30
0.0
 10
16.10139551035768
 20
-1.190874976759467
 30
0.0
 10
14.73461798414027
 20
0.1773004508812027
 30
0.0
 10
13.36611387508531
 20
1.544862197596052
 30
0.0
 10
12.45511082797447
 20
2.412546600446013
 30
0.0
 10
11.99999999999996
 20
2.846016684057691
 30
0.0
1001
PE_URL
1000

  0
LINE
  5
BE
330
1F
100
AcDbEntity
  8
0
  6
Continuous
 62
     1
370
    15
100
AcDbLine
 10
53.27499999999998
 20
-7.937500000000001
 30
0.0
 11
53.27499999999998
 21
-7.879576497803176
 31
0.0
1001
PE_URL
1000

  0
LINE
  5
BF
330
1F
100
AcDbEntity
  8
0
  6
Continuous
 62
     1
370
    15
100
AcDbLine
 10
53.27499999999998
 20
7.879576497803182
 30
0.0
 11
53.27499999999998
 21
7.937500000000003
 31
0.0
1001
PE_URL
1000

  0
LINE
  5
C0
330
1F
100
AcDbEntity
  8
외형선
  6
Continuous
370
    15
100
AcDbLine
 10
11.99999999999995
 20
2.846016684057686
 30
0.0
 11
11.99999999999999
 21
4.537264201744727
 31
0.0
  0
LINE
  5
C1
330
1F
100
AcDbEntity
  8
0
  6
Continuous
 62
     1
370
    15
100
AcDbLine
 10
53.27499999999998
 20
-4.768724524468496
 30
0.0
 11
53.27499999999998
 21
-3.110851973334562
 31
0.0
1001
PE_URL
1000

  0
LINE
  5
C2
330
1F
100
AcDbEntity
  8
외형선
  6
Continuous
370
    15
100
AcDbLine
 10
11.99999999999995
 20
7.840022559174463
 30
0.0
 11
11.99999999999999
 21
7.937500000000004
 31
0.0
  0
LINE
  5
C3
330
1F
100
AcDbEntity
  8
0
  6
Continuous
 62
     1
370
    15
100
AcDbLine
 10
53.27499999999998
 20
3.110851973334713
 30
0.0
 11
53.27499999999998
 21
4.768724524468538
 31
0.0
1001
PE_URL
1000

  0
LINE
  5
C4
330
1F
100
AcDbEntity
  8
외형선
  6
Continuous
370
    15
100
AcDbLine
 10
11.99999999999995
 20
-4.994005875116701
 30
0.0
 11
11.99999999999998
 21
-3.371656443180534
 31
0.0
  0
LINE
  5
C5
330
1F
100
AcDbEntity
  8
외형선
  6
Continuous
370
    15
100
AcDbLine
 10
11.00014028244145
 20
-7.76163211621568
 30
0.0
 11
11.00014028244146
 21
-4.178950030496738
 31
0.0
  0
SPLINE
  5
C6
330
1F
100
AcDbEntity
  8
외형선
  6
Continuous
370
    15
100
AcDbSpline
210
0.0
220
0.0
230
1.0
 70
     8
 71
     3
 72
     8
 73
     4
 74
     0
 42
0.000000001
 43
0.00000001
 40
0.0
 40
0.0
 40
0.0
 40
0.0
 40
1.0
 40
1.0
 40
1.0
 40
1.0
 10
11.99999999999999
 20
-7.908920644925249
 30
0.0
 10
11.66529439183335
 20
-7.880612088072778
 30
0.0
 10
11.33174680551727
 20
-7.831305964963034
 30
0.0
 10
11.00014028244146
 20
-7.76162374166447
 30
0.0
  0
SPLINE
  5
C7
330
1F
100
AcDbEntity
  8
외형선
  6
Continuous
370
    15
100
AcDbSpline
210
0.0
220
0.0
230
1.0
 70
     8
 71
     3
 72
     8
 73
     4
 74
     0
 42
0.000000001
 43
0.00000001
 40
0.0
 40
0.0
 40
0.0
 40
0.0
 40
1.0
 40
1.0
 40
1.0
 40
1.0
 10
11.99999999999999
 20
7.840022559174459
 30
0.0
 10
11.66529439183335
 20
7.892189742934873
 30
0.0
 10
11.33174680551722
 20
7.923448316709239
 30
0.0
 10
11.00014028244146
 20
7.933719900908663
 30
0.0
  0
LINE
  5
C8
330
1F
100
AcDbEntity
  8
외형선
  6
Continuous
370
    15
100
AcDbLine
 10
11.00014028244145
 20
5.319819135553058
 30
0.0
 11
11.00014028244146
 21
7.933721088905641
 31
0.0
  0
SPLINE
  5
C9
330
1F
100
AcDbEntity
  8
외형선
  6
Continuous
370
    15
100
AcDbSpline
210
0.0
220
0.0
230
1.0
 70
     8
 71
     3
 72
     8
 73
     4
 74
     0
 42
0.000000001
 43
0.00000001
 40
0.0
 40
0.0
 40
0.0
 40
0.0
 40
1.0
 40
1.0
 40
1.0
 40
1.0
 10
11.99999999999999
 20
4.537264201744733
 30
0.0
 10
11.66529439183335
 20
4.811230169696633
 30
0.0
 10
11.33174680551727
 20
5.072810171938636
 30
0.0
 10
11.00014028244146
 20
5.319848825577544
 30
0.0
  0
SPLINE
  5
CA
330
1F
100
AcDbEntity
  8
외형선
  6
Continuous
370
    15
100
AcDbSpline
210
0.0
220
0.0
230
1.0
 70
     8
 71
     3
 72
     8
 73
     4
 74
     0
 42
0.000000001
 43
0.00000001
 40
0.0
 40
0.0
 40
0.0
 40
0.0
 40
1.0
 40
1.0
 40
1.0
 40
1.0
 10
11.99999999999999
 20
2.846016684057675
 30
0.0
 10
11.66529439183335
 20
3.157710580146574
 30
0.0
 10
11.33174680551722
 20
3.461471544078865
 30
0.0
 10
11.00014028244146
 20
3.754737137102262
 30
0.0
  0
LINE
  5
CB
330
1F
100
AcDbEntity
  8
외형선
  6
Continuous
370
    15
100
AcDbLine
 10
11.00014028244145
 20
-2.441812980662657
 30
0.0
 11
11.00014028244146
 21
3.754771058408824
 31
0.0
  0
SPLINE
  5
CC
330
1F
100
AcDbEntity
  8
외형선
  6
Continuous
370
    15
100
AcDbSpline
210
0.0
220
0.0
230
1.0
 70
     8
 71
     3
 72
     8
 73
     4
 74
     0
 42
0.000000001
 43
0.00000001
 40
0.0
 40
0.0
 40
0.0
 40
0.0
 40
1.0
 40
1.0
 40
1.0
 40
1.0
 10
11.99999999999999
 20
-3.371656443180538
 30
0.0
 10
11.66529439183335
 20
-3.069381918376171
 30
0.0
 10
11.33174680551727
 20
-2.75849579302443
 30
0.0
 10
11.00014028244146
 20
-2.44177491608696
 30
0.0
  0
SPLINE
  5
CD
330
1F
100
AcDbEntity
  8
외형선
  6
Continuous
370
    15
100
AcDbSpline
210
0.0
220
0.0
230
1.0
 70
     8
 71
     3
 72
     8
 73
     4
 74
     0
 42
0.000000001
 43
0.00000001
 40
0.0
 40
0.0
 40
0.0
 40
0.0
 40
1.0
 40
1.0
 40
1.0
 40
1.0
 10
11.99999999999999
 20
-4.994005875116708
 30
0.0
 10
11.66529439183335
 20
-4.734479162788222
 30
0.0
 10
11.33174680551722
 20
-4.461976772630295
 30
0.0
 10
11.00014028244146
 20
-4.178982763806322
 30
0.0
  0
LINE
  5
CE
330
1F
100
AcDbEntity
  8
외형선
  6
Continuous
370
    15
100
AcDbLine
 10
-40.38750000000002
 20
0.0000000000000006
 30
0.0
 11
-40.38750000000002
 21
7.937499999999994
 31
0.0
  0
LINE
  5
CF
330
1F
100
AcDbEntity
  8
외형선
  6
Continuous
370
    15
100
AcDbLine
 10
-40.38750000000002
 20
-7.937499999999986
 30
0.0
 11
-40.38750000000002
 21
0.0000000000000006
 31
0.0
  0
LINE
  5
D0
330
1F
100
AcDbEntity
  8
외형선
  6
Continuous
370
    15
100
AcDbLine
 10
-41.97500000000002
 20
0.0000000000000006
 30
0.0
 11
-41.97500000000002
 21
6.350000000000008
 31
0.0
  0
LINE
  5
D1
330
1F
100
AcDbEntity
  8
외형선
  6
Continuous
370
    15
100
AcDbLine
 10
-41.97500000000002
 20
-6.350000000000006
 30
0.0
 11
-41.97500000000002
 21
0.0000000000000006
 31
0.0
  0
SPLINE
  5
D2
330
1F
100
AcDbEntity
  8
외형선
  6
Continuous
370
    15
100
AcDbSpline
210
0.0
220
0.0
230
1.0
 70
    24
 71
     3
 72
    24
 73
    20
 74
     0
 42
0.000000001
 43
0.00000001
 40
0.0
 40
0.0
 40
0.0
 40
0.0
 40
0.125
 40
0.125
 40
0.25
 40
0.25
 40
0.375
 40
0.375
 40
0.5
 40
0.5
 40
0.625
 40
0.625
 40
0.75
 40
0.75
 40
0.8124999999999999
 40
0.8124999999999999
 40
0.8749999999999998
 40
0.8749999999999998
 40
1.0
 40
1.0
 40
1.0
 40
1.0
 10
11.99999999999999
 20
-3.371656443180501
 30
0.0
 10
11.99999999999999
 20
-3.28217451011374
 30
0.0
 10
12.0
 20
-3.116291685477694
 30
0.0
 10
12.0
 20
-2.609428818962468
 30
0.0
 10
12.0
 20
-2.267646017422057
 30
0.0
 10
12.0
 20
-1.474908506979351
 30
0.0
 10
12.0
 20
-1.026984292215122
 30
0.0
 10
12.0
 20
-0.1504248106134927
 30
0.0
 10
12.0
 20
0.2756079604286535
 30
0.0
 10
11.99999999999998
 20
1.021965632556962
 30
0.0
 10
11.99999999999998
 20
1.342861891534462
 30
0.0
 10
11.99999999999998
 20
1.868671304058314
 30
0.0
 10
11.99999999999999
 20
2.074937351561754
 30
0.0
 10
11.99999999999999
 20
2.317643678754852
 30
0.0
 10
11.99999999999998
 20
2.387571949788759
 30
0.0
 10
11.99999999999999
 20
2.509221332913121
 30
0.0
 10
11.99999999999998
 20
2.560654910645966
 30
0.0
 10
12.0
 20
2.710483606982744
 30
0.0
 10
11.99999999999999
 20
2.796422055226467
 30
0.0
 10
12.0
 20
2.846016684057716
 30
0.0
  0
SPLINE
  5
D3
330
1F
100
AcDbEntity
  8
외형선
  6
Continuous
370
    15
100
AcDbSpline
210
0.0
220
0.0
230
1.0
 70
    24
 71
     3
 72
    14
 73
    10
 74
     0
 42
0.000000001
 43
0.00000001
 40
0.0
 40
0.0
 40
0.0
 40
0.0
 40
0.0720351725324215
 40
0.2495307948082902
 40
0.4270264170841593
 40
0.6045220393600328
 40
0.7820176616359064
 40
0.9595132839117794
 40
1.0
 40
1.0
 40
1.0
 40
1.0
 10
11.99999999999999
 20
-7.908920644925249
 30
0.0
 10
11.99999999999999
 20
-7.839073023572989
 30
0.0
 10
11.99999999999998
 20
-7.597119935119517
 30
0.0
 10
12.0
 20
-7.168943533028997
 30
0.0
 10
11.99999999999999
 20
-6.632341470876971
 30
0.0
 10
11.99999999999998
 20
-6.105118370126577
 30
0.0
 10
11.99999999999998
 20
-5.607988162634491
 30
0.0
 10
11.99999999999997
 20
-5.25574807590916
 30
0.0
 10
11.99999999999998
 20
-5.091435233973289
 30
0.0
 10
11.99999999999999
 20
-5.060916764307207
 30
0.0
  0
SPLINE
  5
D4
330
1F
100
AcDbEntity
  8
외형선
  6
Continuous
370
    15
100
AcDbSpline
210
0.0
220
0.0
230
1.0
 70
    24
 71
     3
 72
    14
 73
    10
 74
     0
 42
0.000000001
 43
0.00000001
 40
0.0
 40
0.0
 40
0.0
 40
0.0
 40
0.1003808512295946
 40
0.2546451887688308
 40
0.4089095263080672
 40
0.5609765170970028
 40
0.7152408546362526
 40
0.8695051921755027
 40
1.0
 40
1.0
 40
1.0
 40
1.0
 10
12.0
 20
4.604175090935232
 30
0.0
 10
12.0
 20
4.690080571644804
 30
0.0
 10
12.00000000000002
 20
4.90800477814044
 30
0.0
 10
11.99999999999998
 20
5.32170088196629
 30
0.0
 10
11.99999999999998
 20
5.817725535000134
 30
0.0
 10
11.99999999999996
 20
6.342058506483394
 30
0.0
 10
11.99999999999996
 20
6.875979479409763
 30
0.0
 10
11.99999999999999
 20
7.383175231674052
 30
0.0
 10
11.99999999999998
 20
7.696456907963869
 30
0.0
 10
11.99999999999997
 20
7.840022559174664
 30
0.0
  0
LINE
  5
D5
330
1F
100
AcDbEntity
  8
중심선
 62
     1
100
AcDbLine
 10
-48.97500000000001
 20
-0.000000000000006
 30
0.0
 11
60.275
 21
0.000000000000007
 31
0.0
  0
LINE
  5
D6
330
1F
100
AcDbEntity
  8
참조1
100
AcDbLine
 10
5.649999999999994
 20
-0.0000000000000051
 30
0.0
 11
5.649999999999999
 21
-40.00000000000001
 31
0.0
  0
LINE
  5
D7
330
1F
100
AcDbEntity
  8
참조1
100
AcDbLine
 10
5.649999999999999
 20
-40.00000000000001
 30
0.0
 11
-9.508856814308682
 21
-40.0
 31
0.0
  0
CIRCLE
  5
D8
330
1F
100
AcDbEntity
  8
해칭선
100
AcDbCircle
 10
0.0
 20
0.0
 30
0.0
 40
3.000000000000002
  0
INSERT
  5
D9
330
1F
100
AcDbEntity
  8
0
  6
Continuous
 62
     7
100
AcDbBlockReference
 66
     1
  2
블럭10
 10
-8.29027293212521
 20
-52.04717430164393
 30
0.0
  0
ATTRIB
  5
DA
330
D9
100
AcDbEntity
  8
FORMAT
 62
     2
100
AcDbText
 10
-17.47156822086649
 20
-49.97180738881174
 30
0.0
 40
4.233333333333333
  1
E1042040 [ 6 FLUTE ]
 41
0.75
  7
SLDTEXTSTYLE0
 11
-17.47156822086649
 21
-52.08847405547841
 31
0.0
100
AcDbAttribute
  2
AUTOATTR0
 70
     0
 74
     1
  0
SEQEND
  5
DB
330
D9
100
AcDbEntity
  8
0
  6
Continuous
 62
     7
  0
HATCH
  5
DC
330
1F
100
AcDbEntity
  8
중심선
100
AcDbHatch
 10
0.0
 20
0.0
 30
0.0
210
0.0
220
0.0
230
1.0
  2
SOLID
 70
     1
 71
     0
 91
        1
 92
        0
 93
        4
 72
     1
 10
-2.575363627744376
 20
-35.8
 11
-6.021638871581658
 21
-35.8
 72
     1
 10
-6.021638871581658
 20
-35.8
 11
-8.14986873078568
 21
-38.3363255805726
 72
     1
 10
-8.14986873078568
 20
-38.3363255805726
 11
-4.703560401835249
 21
-38.33628615127011
 72
     1
 10
-4.703560401835249
 20
-38.33628615127011
 11
-2.575363627744376
 21
-35.8
 97
        0
 75
     0
 76
     1
 98
        1
 10
-0.0000000000000497
 20
-0.0010749287238943
  0
HATCH
  5
DD
330
1F
100
AcDbEntity
  8
중심선
100
AcDbHatch
 10
0.0
 20
0.0
 30
0.0
210
0.0
220
0.0
230
1.0
  2
SOLID
 70
     1
 71
     0
 91
        1
 92
        0
 93
        4
 72
     1
 10
2.437400363291603
 20
-35.8
 11
-1.008874880545679
 21
-35.8
 72
     1
 10
-1.008874880545679
 20
-35.8
 11
-5.540012888903096
 21
-41.20000000000002
 72
     1
 10
-5.540012888903095
 20
-41.20000000000002
 11
-2.093737645065813
 21
-41.20000000000002
 72
     1
 10
-2.093737645065813
 20
-41.20000000000002
 11
2.437400363291604
 21
-35.8
 97
        0
 75
     0
 76
     1
 98
        1
 10
-0.0000000000000497
 20
-0.0010749287238943
  0
HATCH
  5
DE
330
1F
100
AcDbEntity
  8
중심선
100
AcDbHatch
 10
0.0
 20
0.0
 30
0.0
210
0.0
220
0.0
230
1.0
  2
SOLID
 70
     1
 71
     0
 91
        1
 92
        0
 93
        4
 72
     1
 10
7.450164354327471
 20
-35.8
 11
4.003889110490356
 21
-35.8
 72
     1
 10
4.003889110490356
 20
-35.8
 11
-3.044547791398895
 21
-44.20000000000002
 72
     1
 10
-3.044547791398894
 20
-44.20000000000002
 11
0.4017274524383887
 21
-44.20000000000002
 72
     1
 10
0.4017274524383887
 20
-44.20000000000002
 11
7.450164354327471
 21
-35.8
 97
        0
 75
     0
 76
     1
 98
        1
 10
-0.0000000000000497
 20
-0.0010749287238943
  0
HATCH
  5
DF
330
1F
100
AcDbEntity
  8
중심선
100
AcDbHatch
 10
0.0
 20
0.0
 30
0.0
210
0.0
220
0.0
230
1.0
  2
SOLID
 70
     1
 71
     0
 91
        1
 92
        0
 93
        6
 72
     3
 10
12.25005478533967
 20
-40.00000000005127
 11
3.960054785062283
 21
1.540882976769353E-10
 40
0.3939339440162628
 50
17.09539180608436
 51
320.0019657685075
 73
     0
 72
     1
 10
13.93305444104027
 20
-38.58789400463827
 11
16.2383563147413
 21
-36.65356729459038
 72
     3
 10
12.25005478528682
 20
-40.00000000000015
 11
6.600054785286829
 21
-1.278976924368180E-13
 40
0.636358354079598
 50
39.99873849337411
 51
368.4976242363724
 73
     1
 72
     1
 10
18.67538727718743
 20
-39.03999999993002
 11
10.93012209212275
 21
-39.03999999993
 72
     1
 10
10.93012209212275
 20
-39.03999999993
 11
10.93009704767681
 21
-40.95999999992991
 72
     1
 10
10.93009704767681
 20
-40.95999999992991
 11
15.37147681714885
 21
-40.95999999992988
 97
        0
 75
     0
 76
     1
 98
        1
 10
-0.0000000000000497
 20
-0.0010749287238943
  0
DIMENSION
  5
E0
330
1F
100
AcDbEntity
  8
치수문자_일반주서
100
AcDbDimension
  2
_D
 10
-56.97499999999997
 20
-7.937500000000075
 30
0.0
 11
-56.9750000000001
 21
28.54149999999997
 31
0.0
 70
   160
  1
%%c<>
 71
     2
 42
15.87500000000003
 52
-270.0
  3
SLDDIMSTYLE0
100
AcDbAlignedDimension
 13
-40.38750000000002
 23
7.937500000000014
 33
0.0
 14
-40.38750000000002
 24
-7.937500000000013
 34
0.0
 50
90.0000000000002
100
AcDbRotatedDimension
1001
PE_URL
1000

1001
ACAD
1000
DSTYLE
1002
{
1070
   171
1070
     8
1070
   273
1070
     7
1002
}
  0
DIMENSION
  5
F5
330
1F
100
AcDbEntity
  8
치수문자_일반주서
100
AcDbDimension
  2
_D_1
 10
11.99999999999995
 20
22.9375
 30
0.0
 11
32.63749999999997
 21
22.9375
 31
0.0
 70
   160
  1
<>
 71
     2
 42
41.27500000000003
  3
SLDDIMSTYLE0
100
AcDbAlignedDimension
 13
53.27499999999998
 23
7.879576497803182
 33
0.0
 14
11.99999999999995
 24
7.840022559174463
 34
0.0
100
AcDbRotatedDimension
1001
PE_URL
1000

1001
ACAD
1000
DSTYLE
1002
{
1070
   171
1070
     8
1070
   273
1070
     7
1002
}
  0
DIMENSION
  5
109
330
1F
100
AcDbEntity
  8
치수문자_일반주서
100
AcDbDimension
  2
_D_2
 10
-41.97500000000002
 20
37.9375
 30
0.0
 11
5.649999999999984
 21
37.9375
 31
0.0
 70
   160
  1
<>
 71
     2
 42
95.25
  3
SLDDIMSTYLE0
100
AcDbAlignedDimension
 13
53.27499999999998
 23
7.879576497803182
 33
0.0
 14
-41.97500000000002
 24
6.350000000000008
 34
0.0
100
AcDbRotatedDimension
1001
PE_URL
1000

1001
ACAD
1000
DSTYLE
1002
{
1070
   171
1070
     8
1070
   273
1070
     7
1002
}
  0
DIMENSION
  5
11C
330
1F
100
AcDbEntity
  8
치수문자_일반주서
100
AcDbDimension
  2
_D_3
 10
68.27500000000003
 20
-7.937499999999947
 30
0.0
 11
68.2749999999999
 21
28.54150000000006
 31
0.0
 70
   160
  1
%%c<>
 71
     2
 42
15.87500000000001
 52
-270.0
  3
SLDDIMSTYLE0
100
AcDbAlignedDimension
 13
53.27499999999998
 23
7.937500000000004
 33
0.0
 14
53.27499999999998
 24
-7.937500000000003
 34
0.0
 50
90.0000000000002
100
AcDbRotatedDimension
1001
PE_URL
1000

1001
ACAD
1000
DSTYLE
1002
{
1070
   171
1070
     8
1070
   273
1070
     7
1002
}
  0
LINE
  5
12F
330
1F
100
AcDbEntity
  8
참조1
100
AcDbLine
 10
88.4634838153456
 20
7.440000000000001
 30
0.0
 11
88.4634838153456
 21
-7.440000000000003
 31
0.0
  0
LINE
  5
130
330
1F
100
AcDbEntity
  8
참조1
100
AcDbLine
 10
101.1634838153456
 20
5.440000000000001
 30
0.0
 11
88.4634838153456
 21
5.440000000000001
 31
0.0
  0
SOLID
  5
131
330
1F
100
AcDbEntity
  8
참조1
100
AcDbTrace
 10
88.4634838153456
 20
5.440000000000001
 30
0.0
 11
94.81348381534559
 21
4.424000000000001
 31
0.0
 12
94.81348381534559
 22
6.456000000000001
 32
0.0
 13
94.81348381534559
 23
6.456000000000001
 33
0.0
  0
LINE
  5
132
330
1F
100
AcDbEntity
  8
참조1
100
AcDbLine
 10
101.1634838153456
 20
-5.440000000000003
 30
0.0
 11
88.4634838153456
 21
-5.440000000000003
 31
0.0
  0
SOLID
  5
133
330
1F
100
AcDbEntity
  8
참조1
100
AcDbTrace
 10
88.4634838153456
 20
-5.440000000000003
 30
0.0
 11
94.81348381534559
 21
-6.456000000000003
 31
0.0
 12
94.81348381534559
 22
-4.424000000000003
 32
0.0
 13
94.81348381534559
 23
-4.424000000000003
 33
0.0
  0
MTEXT
  5
134
330
1F
100
AcDbEntity
  8
참조1
100
AcDbMText
 10
97.86097390781586
 20
10.98821664464993
 30
0.0
 40
3.5
 41
0.0
 71
     1
 72
     1
  1
A
  7
SLDTEXTSTYLE0
 73
     1
 44
1.0
  0
MTEXT
  5
135
330
1F
100
AcDbEntity
  8
참조1
100
AcDbMText
 10
97.86097390781586
 20
0.1082166446499308
 30
0.0
 40
3.5
 41
0.0
 71
     1
 72
     1
  1
A
  7
SLDTEXTSTYLE0
 73
     1
 44
1.0
  0
INSERT
  5
13C
330
1F
100
AcDbEntity
  8
해칭선
100
AcDbBlockReference
  2
SW_DOWELSYMBOL_0
 10
0.0
 20
0.0
 30
0.0
  0
LINE
  5
1EB
330
1F
100
AcDbEntity
  8
외형선
  6
Continuous
370
    15
100
AcDbLine
 10
-22.85832500000003
 20
6.286499999999961
 30
0.0
 11
-12.67292500000001
 21
6.286499999999961
 31
0.0
1001
PE_URL
1000

  0
LINE
  5
1EC
330
1F
100
AcDbEntity
  8
외형선
  6
Continuous
370
    15
100
AcDbLine
 10
-22.85832500000003
 20
6.286500000000061
 30
0.0
 11
-24.50932499999998
 21
7.937499999999972
 31
0.0
1001
PE_URL
1000

  0
LINE
  5
1ED
330
1F
100
AcDbEntity
  8
외형선
  6
Continuous
370
    15
100
AcDbLine
 10
-12.67292500000013
 20
6.286500000000061
 30
0.0
 11
-11.02192500000012
 21
7.937499999999972
 31
0.0
1001
PE_URL
1000

  0
LINE
  5
1F0
330
1F
100
AcDbEntity
  8
외형선
  6
Continuous
370
    15
100
AcDbLine
 10
-24.50932500000001
 20
7.937500000000001
 30
0.0
 11
-40.38750000000002
 21
7.937500000000001
 31
0.0
  0
ENDSEC
  0
SECTION
  2
OBJECTS
  0
DICTIONARY
  5
C
330
0
100
AcDbDictionary
281
     1
  3
ACAD_DETAILVIEWSTYLE
350
1BF
  3
ACAD_GROUP
350
D
  3
ACAD_LAYOUT
350
1A
  3
ACAD_MLINESTYLE
350
17
  3
ACAD_PLOTSETTINGS
350
19
  3
ACAD_PLOTSTYLENAME
350
E
  3
ACAD_SCALELIST
350
47
  3
ACAD_SECTIONVIEWSTYLE
350
1C0
  3
AcDbVariableDictionary
350
1BA
  3
APPDATA
350
15E
  3
DWGPROPS
350
213
  0
DICTIONARY
  5
194
330
2
100
AcDbDictionary
280
     1
281
     1
  3
ACAD_LAYERSTATES
360
195
  0
DICTIONARY
  5
1BF
102
{ACAD_REACTORS
330
C
102
}
330
C
100
AcDbDictionary
281
     1
  0
DICTIONARY
  5
D
102
{ACAD_REACTORS
330
C
102
}
330
C
100
AcDbDictionary
281
     1
  0
DICTIONARY
  5
1A
102
{ACAD_REACTORS
330
C
102
}
330
C
100
AcDbDictionary
281
     1
  3
Layout1
350
1E
  3
Layout2
350
26
  3
Model
350
22
  0
DICTIONARY
  5
17
102
{ACAD_REACTORS
330
C
102
}
330
C
100
AcDbDictionary
281
     1
  3
Standard
350
18
  0
DICTIONARY
  5
19
102
{ACAD_REACTORS
330
C
102
}
330
C
100
AcDbDictionary
281
     1
  0
ACDBDICTIONARYWDFLT
  5
E
102
{ACAD_REACTORS
330
C
102
}
330
C
100
AcDbDictionary
281
     1
  3
Normal
350
F
100
AcDbDictionaryWithDefault
340
F
  0
DICTIONARY
  5
47
102
{ACAD_REACTORS
330
C
102
}
330
C
100
AcDbDictionary
281
     1
  3
A0
350
48
  3
A1
350
49
  3
A2
350
4A
  3
A3
350
4B
  3
A4
350
4C
  3
A5
350
4D
  3
A6
350
4E
  3
A7
350
4F
  3
A8
350
50
  3
A9
350
51
  3
B0
350
52
  3
B1
350
53
  3
B2
350
54
  3
B3
350
55
  3
B4
350
56
  3
B5
350
57
  3
B6
350
58
  3
B7
350
59
  3
B8
350
5A
  3
B9
350
5B
  3
C0
350
5C
  3
C1
350
5D
  3
C2
350
5E
  3
C3
350
5F
  3
C4
350
60
  3
C5
350
61
  3
C6
350
62
  3
C7
350
63
  3
C8
350
64
  3
C9
350
65
  3
D0
350
66
  3
D1
350
67
  3
D2
350
68
  0
DICTIONARY
  5
1C0
102
{ACAD_REACTORS
330
C
102
}
330
C
100
AcDbDictionary
281
     1
  0
DICTIONARY
  5
1BA
102
{ACAD_REACTORS
330
C
102
}
330
C
100
AcDbDictionary
281
     1
  0
DICTIONARY
  5
15E
102
{ACAD_REACTORS
330
C
102
}
330
C
100
AcDbDictionary
281
     1
  0
XRECORD
  5
213
102
{ACAD_REACTORS
330
C
102
}
330
C
100
AcDbXrecord
280
     1
  1
DWGPROPS COOKIE
  2

  3

  4

  6

  7

  8
120170442
  9

300
=
301
=
302
=
303
=
304
=
305
=
306
=
307
=
308
=
309
=
 40
0.0
 41
2458323.062508831
 42
2458323.426946794
  1

 90
        0
  0
DICTIONARY
  5
195
102
{ACAD_REACTORS
330
194
102
}
330
194
100
AcDbDictionary
281
     1
  0
LAYOUT
  5
1E
102
{ACAD_REACTORS
330
1A
102
}
330
1A
100
AcDbPlotSettings
  1

  2
none_device
  4

  6

 40
0.0
 41
0.0
 42
0.0
 43
0.0
 44
0.0
 45
0.0
 46
0.0
 47
0.0
 48
0.0
 49
0.0
140
0.0
141
0.0
142
1.0
143
1.0
 70
   688
 72
     1
 73
     0
 74
     5
  7

 75
    16
147
1.0
148
0.0
149
0.0
100
AcDbLayout
  1
Layout1
 70
     1
 71
     1
 10
0.0
 20
0.0
 11
420.0
 21
297.0
 12
0.0
 22
0.0
 32
0.0
 14
1.000000000000000E+20
 24
1.000000000000000E+20
 34
1.000000000000000E+20
 15
-1.000000000000000E+20
 25
-1.000000000000000E+20
 35
-1.000000000000000E+20
146
0.0
 13
0.0
 23
0.0
 33
0.0
 16
1.0
 26
0.0
 36
0.0
 17
0.0
 27
1.0
 37
0.0
 76
     0
330
1B
  0
LAYOUT
  5
26
102
{ACAD_REACTORS
330
1A
102
}
330
1A
100
AcDbPlotSettings
  1

  2
none_device
  4

  6

 40
0.0
 41
0.0
 42
0.0
 43
0.0
 44
0.0
 45
0.0
 46
0.0
 47
0.0
 48
0.0
 49
0.0
140
0.0
141
0.0
142
1.0
143
1.0
 70
   688
 72
     1
 73
     0
 74
     5
  7

 75
    16
147
1.0
148
0.0
149
0.0
100
AcDbLayout
  1
Layout2
 70
     1
 71
     2
 10
0.0
 20
0.0
 11
0.0
 21
0.0
 12
0.0
 22
0.0
 32
0.0
 14
0.0
 24
0.0
 34
0.0
 15
0.0
 25
0.0
 35
0.0
146
0.0
 13
0.0
 23
0.0
 33
0.0
 16
1.0
 26
0.0
 36
0.0
 17
0.0
 27
1.0
 37
0.0
 76
     0
330
23
  0
LAYOUT
  5
22
102
{ACAD_REACTORS
330
1A
102
}
330
1A
100
AcDbPlotSettings
  1

  2
none_device
  4
ANSI_A_(11.00_x_8.50_Inches)
  6

 40
6.35
 41
19.05
 42
6.35000508
 43
19.05000254
 44
279.4
 45
215.9
 46
65.09816932784993
 47
87.56921713296987
 48
0.0
 49
0.0
140
0.0
141
0.0
142
0.0419341490149411
143
1.0
 70
  1696
 72
     0
 73
     0
 74
     0
  7

 75
     0
147
0.0235690232323232
148
0.0
149
0.0
100
AcDbLayout
  1
Model
 70
     1
 71
     0
 10
0.0
 20
0.0
 11
420.0
 21
297.0
 12
0.0
 22
0.0
 32
0.0
 14
-61.35000000000015
 24
-49.97180738881174
 34
0.0
 15
101.1634838153456
 25
42.54150000000004
 35
0.0
146
0.0
 13
0.0
 23
0.0
 33
0.0
 16
1.0
 26
0.0
 36
0.0
 17
0.0
 27
1.0
 37
0.0
 76
     0
330
1F
331
29
  0
MLINESTYLE
  5
18
102
{ACAD_REACTORS
330
17
102
}
330
17
100
AcDbMlineStyle
  2
Standard
 70
     0
  3

 62
   256
 51
90.0
 52
90.0
 71
     2
 49
0.5
 62
   256
  6
BYLAYER
 49
-0.5
 62
   256
  6
BYLAYER
  0
ACDBPLACEHOLDER
  5
F
102
{ACAD_REACTORS
330
E
102
}
330
E
  0
SCALE
  5
48
102
{ACAD_REACTORS
330
47
102
}
330
47
100
AcDbScale
 70
     0
300
1:1
140
1.0
141
1.0
290
     1
  0
SCALE
  5
49
102
{ACAD_REACTORS
330
47
102
}
330
47
100
AcDbScale
 70
     0
300
1:2
140
1.0
141
2.0
290
     0
  0
SCALE
  5
4A
102
{ACAD_REACTORS
330
47
102
}
330
47
100
AcDbScale
 70
     0
300
1:4
140
1.0
141
4.0
290
     0
  0
SCALE
  5
4B
102
{ACAD_REACTORS
330
47
102
}
330
47
100
AcDbScale
 70
     0
300
1:5
140
1.0
141
5.0
290
     0
  0
SCALE
  5
4C
102
{ACAD_REACTORS
330
47
102
}
330
47
100
AcDbScale
 70
     0
300
1:8
140
1.0
141
8.0
290
     0
  0
SCALE
  5
4D
102
{ACAD_REACTORS
330
47
102
}
330
47
100
AcDbScale
 70
     0
300
1:10
140
1.0
141
10.0
290
     0
  0
SCALE
  5
4E
102
{ACAD_REACTORS
330
47
102
}
330
47
100
AcDbScale
 70
     0
300
1:16
140
1.0
141
16.0
290
     0
  0
SCALE
  5
4F
102
{ACAD_REACTORS
330
47
102
}
330
47
100
AcDbScale
 70
     0
300
1:20
140
1.0
141
20.0
290
     0
  0
SCALE
  5
50
102
{ACAD_REACTORS
330
47
102
}
330
47
100
AcDbScale
 70
     0
300
1:30
140
1.0
141
30.0
290
     0
  0
SCALE
  5
51
102
{ACAD_REACTORS
330
47
102
}
330
47
100
AcDbScale
 70
     0
300
1:40
140
1.0
141
40.0
290
     0
  0
SCALE
  5
52
102
{ACAD_REACTORS
330
47
102
}
330
47
100
AcDbScale
 70
     0
300
1:50
140
1.0
141
50.0
290
     0
  0
SCALE
  5
53
102
{ACAD_REACTORS
330
47
102
}
330
47
100
AcDbScale
 70
     0
300
1:100
140
1.0
141
100.0
290
     0
  0
SCALE
  5
54
102
{ACAD_REACTORS
330
47
102
}
330
47
100
AcDbScale
 70
     0
300
2:1
140
2.0
141
1.0
290
     0
  0
SCALE
  5
55
102
{ACAD_REACTORS
330
47
102
}
330
47
100
AcDbScale
 70
     0
300
4:1
140
4.0
141
1.0
290
     0
  0
SCALE
  5
56
102
{ACAD_REACTORS
330
47
102
}
330
47
100
AcDbScale
 70
     0
300
8:1
140
8.0
141
1.0
290
     0
  0
SCALE
  5
57
102
{ACAD_REACTORS
330
47
102
}
330
47
100
AcDbScale
 70
     0
300
10:1
140
10.0
141
1.0
290
     0
  0
SCALE
  5
58
102
{ACAD_REACTORS
330
47
102
}
330
47
100
AcDbScale
 70
     0
300
100:1
140
100.0
141
1.0
290
     0
  0
SCALE
  5
59
102
{ACAD_REACTORS
330
47
102
}
330
47
100
AcDbScale
 70
     0
300
1/128" = 1'-0"
140
0.0078125
141
12.0
290
     0
  0
SCALE
  5
5A
102
{ACAD_REACTORS
330
47
102
}
330
47
100
AcDbScale
 70
     0
300
1/64" = 1'-0"
140
0.015625
141
12.0
290
     0
  0
SCALE
  5
5B
102
{ACAD_REACTORS
330
47
102
}
330
47
100
AcDbScale
 70
     0
300
1/32" = 1'-0"
140
0.03125
141
12.0
290
     0
  0
SCALE
  5
5C
102
{ACAD_REACTORS
330
47
102
}
330
47
100
AcDbScale
 70
     0
300
1/16" = 1'-0"
140
0.0625
141
12.0
290
     0
  0
SCALE
  5
5D
102
{ACAD_REACTORS
330
47
102
}
330
47
100
AcDbScale
 70
     0
300
3/32" = 1'-0"
140
0.09375
141
12.0
290
     0
  0
SCALE
  5
5E
102
{ACAD_REACTORS
330
47
102
}
330
47
100
AcDbScale
 70
     0
300
1/8" = 1'-0"
140
0.125
141
12.0
290
     0
  0
SCALE
  5
5F
102
{ACAD_REACTORS
330
47
102
}
330
47
100
AcDbScale
 70
     0
300
3/16" = 1'-0"
140
0.1875
141
12.0
290
     0
  0
SCALE
  5
60
102
{ACAD_REACTORS
330
47
102
}
330
47
100
AcDbScale
 70
     0
300
1/4" = 1'-0"
140
0.25
141
12.0
290
     0
  0
SCALE
  5
61
102
{ACAD_REACTORS
330
47
102
}
330
47
100
AcDbScale
 70
     0
300
3/8" = 1'-0"
140
0.375
141
12.0
290
     0
  0
SCALE
  5
62
102
{ACAD_REACTORS
330
47
102
}
330
47
100
AcDbScale
 70
     0
300
1/2" = 1'-0"
140
0.5
141
12.0
290
     0
  0
SCALE
  5
63
102
{ACAD_REACTORS
330
47
102
}
330
47
100
AcDbScale
 70
     0
300
3/4" = 1'-0"
140
0.75
141
12.0
290
     0
  0
SCALE
  5
64
102
{ACAD_REACTORS
330
47
102
}
330
47
100
AcDbScale
 70
     0
300
1" = 1'-0"
140
1.0
141
12.0
290
     0
  0
SCALE
  5
65
102
{ACAD_REACTORS
330
47
102
}
330
47
100
AcDbScale
 70
     0
300
1-1/2" = 1'-0"
140
1.5
141
12.0
290
     0
  0
SCALE
  5
66
102
{ACAD_REACTORS
330
47
102
}
330
47
100
AcDbScale
 70
     0
300
3" = 1'-0"
140
3.0
141
12.0
290
     0
  0
SCALE
  5
67
102
{ACAD_REACTORS
330
47
102
}
330
47
100
AcDbScale
 70
     0
300
6" = 1'-0"
140
6.0
141
12.0
290
     0
  0
SCALE
  5
68
102
{ACAD_REACTORS
330
47
102
}
330
47
100
AcDbScale
 70
     0
300
1'-0" = 1'-0"
140
12.0
141
12.0
290
     0
  0
ENDSEC
  0
EOF
