  0
SECTION
  2
HEADER
  9
$ACADVER
  1
AC1015
  9
$ACADMAINTVER
 70
     6
  9
$DWGCODEPAGE
  3
ANSI_949
  9
$INSBASE
 10
0.0
 20
0.0
 30
0.0
  9
$EXTMIN
 10
-60.17500000000058
 20
-49.97180738881175
 30
0.0
  9
$EXTMAX
 10
101.7503333333329
 20
40.72499999999999
 30
0.0
  9
$LIMMIN
 10
0.0
 20
0.0
  9
$LIMMAX
 10
420.0
 20
297.0
  9
$ORTHOMODE
 70
     1
  9
$REGENMODE
 70
     1
  9
$FILLMODE
 70
     1
  9
$QTEXTMODE
 70
     0
  9
$MIRRTEXT
 70
     1
  9
$LTSCALE
 40
1.0
  9
$ATTMODE
 70
     1
  9
$TEXTSIZE
 40
3.5
  9
$TRACEWID
 40
1.0
  9
$TEXTSTYLE
  7
Standard
  9
$CLAYER
  8
0
  9
$CELTYPE
  6
ByLayer
  9
$CECOLOR
 62
   256
  9
$CELTSCALE
 40
1.0
  9
$DISPSILH
 70
     0
  9
$DIMSCALE
 40
1.0
  9
$DIMASZ
 40
3.302
  9
$DIMEXO
 40
1.0
  9
$DIMDLI
 40
3.75
  9
$DIMRND
 40
0.0
  9
$DIMDLE
 40
0.0
  9
$DIMEXE
 40
1.0
  9
$DIMTP
 40
0.0
  9
$DIMTM
 40
0.0
  9
$DIMTXT
 40
3.5
  9
$DIMCEN
 40
2.5
  9
$DIMTSZ
 40
0.0
  9
$DIMTOL
 70
     0
  9
$DIMLIM
 70
     0
  9
$DIMTIH
 70
     1
  9
$DIMTOH
 70
     1
  9
$DIMSE1
 70
     0
  9
$DIMSE2
 70
     0
  9
$DIMTAD
 70
     1
  9
$DIMZIN
 70
     0
  9
$DIMBLK
  1

  9
$DIMASO
 70
     1
  9
$DIMSHO
 70
     1
  9
$DIMPOST
  1

  9
$DIMAPOST
  1

  9
$DIMALT
 70
     0
  9
$DIMALTD
 70
     3
  9
$DIMALTF
 40
0.0393700787401575
  9
$DIMLFAC
 40
1.0
  9
$DIMTOFL
 70
     1
  9
$DIMTVP
 40
0.0
  9
$DIMTIX
 70
     0
  9
$DIMSOXD
 70
     0
  9
$DIMSAH
 70
     0
  9
$DIMBLK1
  1

  9
$DIMBLK2
  1

  9
$DIMSTYLE
  2
ISO-25
  9
$DIMCLRD
 70
     0
  9
$DIMCLRE
 70
     0
  9
$DIMCLRT
 70
     0
  9
$DIMTFAC
 40
1.0
  9
$DIMGAP
 40
1.524
  9
$DIMJUST
 70
     0
  9
$DIMSD1
 70
     0
  9
$DIMSD2
 70
     0
  9
$DIMTOLJ
 70
     0
  9
$DIMTZIN
 70
     0
  9
$DIMALTZ
 70
     0
  9
$DIMALTTZ
 70
     0
  9
$DIMUPT
 70
     0
  9
$DIMDEC
 70
     2
  9
$DIMTDEC
 70
     2
  9
$DIMALTU
 70
     2
  9
$DIMALTTD
 70
     3
  9
$DIMTXSTY
  7
Standard
  9
$DIMAUNIT
 70
     0
  9
$DIMADEC
 70
     2
  9
$DIMALTRND
 40
0.0
  9
$DIMAZIN
 70
     0
  9
$DIMDSEP
 70
    44
  9
$DIMATFIT
 70
     3
  9
$DIMFRAC
 70
     0
  9
$DIMLDRBLK
  1

  9
$DIMLUNIT
 70
     2
  9
$DIMLWD
 70
    -2
  9
$DIMLWE
 70
    -2
  9
$DIMTMOVE
 70
     0
  9
$LUNITS
 70
     2
  9
$LUPREC
 70
     2
  9
$SKETCHINC
 40
1.0
  9
$FILLETRAD
 40
10.0
  9
$AUNITS
 70
     0
  9
$AUPREC
 70
     2
  9
$MENU
  1
.
  9
$ELEVATION
 40
0.0
  9
$PELEVATION
 40
0.0
  9
$THICKNESS
 40
0.0
  9
$LIMCHECK
 70
     0
  9
$CHAMFERA
 40
0.0
  9
$CHAMFERB
 40
0.0
  9
$CHAMFERC
 40
0.0
  9
$CHAMFERD
 40
0.0
  9
$SKPOLY
 70
     0
  9
$TDCREATE
 40
2458312.633097291
  9
$TDUCREATE
 40
2458312.258097291
  9
$TDUPDATE
 40
2458323.718413669
  9
$TDUUPDATE
 40
2458323.343413669
  9
$TDINDWG
 40
0.0027532292
  9
$TDUSRTIMER
 40
0.0009951273
  9
$USRTIMER
 70
     1
  9
$ANGBASE
 50
0.0
  9
$ANGDIR
 70
     0
  9
$PDMODE
 70
     0
  9
$PDSIZE
 40
-1.0
  9
$PLINEWID
 40
0.0
  9
$SPLFRAME
 70
     0
  9
$SPLINETYPE
 70
     6
  9
$SPLINESEGS
 70
     8
  9
$HANDSEED
  5
20B
  9
$SURFTAB1
 70
     6
  9
$SURFTAB2
 70
     6
  9
$SURFTYPE
 70
     6
  9
$SURFU
 70
     6
  9
$SURFV
 70
     6
  9
$UCSBASE
  2

  9
$UCSNAME
  2

  9
$UCSORG
 10
0.0
 20
0.0
 30
0.0
  9
$UCSXDIR
 10
1.0
 20
0.0
 30
0.0
  9
$UCSYDIR
 10
0.0
 20
1.0
 30
0.0
  9
$UCSORTHOREF
  2

  9
$UCSORTHOVIEW
 70
     0
  9
$UCSORGTOP
 10
0.0
 20
0.0
 30
0.0
  9
$UCSORGBOTTOM
 10
0.0
 20
0.0
 30
0.0
  9
$UCSORGLEFT
 10
0.0
 20
0.0
 30
0.0
  9
$UCSORGRIGHT
 10
0.0
 20
0.0
 30
0.0
  9
$UCSORGFRONT
 10
0.0
 20
0.0
 30
0.0
  9
$UCSORGBACK
 10
0.0
 20
0.0
 30
0.0
  9
$PUCSBASE
  2

  9
$PUCSNAME
  2

  9
$PUCSORG
 10
0.0
 20
0.0
 30
0.0
  9
$PUCSXDIR
 10
1.0
 20
0.0
 30
0.0
  9
$PUCSYDIR
 10
0.0
 20
1.0
 30
0.0
  9
$PUCSORTHOREF
  2

  9
$PUCSORTHOVIEW
 70
     0
  9
$PUCSORGTOP
 10
0.0
 20
0.0
 30
0.0
  9
$PUCSORGBOTTOM
 10
0.0
 20
0.0
 30
0.0
  9
$PUCSORGLEFT
 10
0.0
 20
0.0
 30
0.0
  9
$PUCSORGRIGHT
 10
0.0
 20
0.0
 30
0.0
  9
$PUCSORGFRONT
 10
0.0
 20
0.0
 30
0.0
  9
$PUCSORGBACK
 10
0.0
 20
0.0
 30
0.0
  9
$USERI1
 70
     0
  9
$USERI2
 70
     0
  9
$USERI3
 70
     0
  9
$USERI4
 70
     0
  9
$USERI5
 70
     0
  9
$USERR1
 40
0.0
  9
$USERR2
 40
0.0
  9
$USERR3
 40
0.0
  9
$USERR4
 40
0.0
  9
$USERR5
 40
0.0
  9
$WORLDVIEW
 70
     1
  9
$SHADEDGE
 70
     3
  9
$SHADEDIF
 70
    70
  9
$TILEMODE
 70
     1
  9
$MAXACTVP
 70
    64
  9
$PINSBASE
 10
0.0
 20
0.0
 30
0.0
  9
$PLIMCHECK
 70
     0
  9
$PEXTMIN
 10
1.000000000000000E+20
 20
1.000000000000000E+20
 30
1.000000000000000E+20
  9
$PEXTMAX
 10
-1.000000000000000E+20
 20
-1.000000000000000E+20
 30
-1.000000000000000E+20
  9
$PLIMMIN
 10
0.0
 20
0.0
  9
$PLIMMAX
 10
0.0
 20
0.0
  9
$UNITMODE
 70
     0
  9
$VISRETAIN
 70
     1
  9
$PLINEGEN
 70
     0
  9
$PSLTSCALE
 70
     1
  9
$TREEDEPTH
 70
  3020
  9
$CMLSTYLE
  2
Standard
  9
$CMLJUST
 70
     0
  9
$CMLSCALE
 40
20.0
  9
$PROXYGRAPHICS
 70
     1
  9
$MEASUREMENT
 70
     1
  9
$CELWEIGHT
370
    -1
  9
$ENDCAPS
280
     0
  9
$JOINSTYLE
280
     0
  9
$LWDISPLAY
290
     1
  9
$INSUNITS
 70
     4
  9
$HYPERLINKBASE
  1

  9
$STYLESHEET
  1

  9
$XEDIT
290
     1
  9
$CEPSNTYPE
380
     0
  9
$PSTYLEMODE
290
     1
  9
$FINGERPRINTGUID
  2
{8EAA4F16-9D5F-411F-BC00-6ECC04989C99}
  9
$VERSIONGUID
  2
{FAEB1C32-E019-11D5-929B-00C0DF256EC4}
  9
$EXTNAMES
290
     1
  9
$PSVPSCALE
 40
0.0
  9
$OLESTARTUP
290
     0
  0
ENDSEC
  0
SECTION
  2
CLASSES
  0
CLASS
  1
ACDBDICTIONARYWDFLT
  2
AcDbDictionaryWithDefault
  3
ObjectDBX Classes
 90
        0
280
     0
281
     0
  0
CLASS
  1
VISUALSTYLE
  2
AcDbVisualStyle
  3
ObjectDBX Classes
 90
     4095
280
     0
281
     0
  0
CLASS
  1
MATERIAL
  2
AcDbMaterial
  3
ObjectDBX Classes
 90
     1153
280
     0
281
     0
  0
CLASS
  1
SCALE
  2
AcDbScale
  3
ObjectDBX Classes
 90
     1153
280
     0
281
     0
  0
CLASS
  1
SUN
  2
AcDbSun
  3
SCENEOE
 90
     1153
280
     0
281
     0
  0
CLASS
  1
ACDBPLACEHOLDER
  2
AcDbPlaceHolder
  3
ObjectDBX Classes
 90
        0
280
     0
281
     0
  0
CLASS
  1
LAYOUT
  2
AcDbLayout
  3
ObjectDBX Classes
 90
        0
280
     0
281
     0
  0
CLASS
  1
TABLESTYLE
  2
AcDbTableStyle
  3
ObjectDBX Classes
 90
     4095
280
     0
281
     0
  0
CLASS
  1
MLEADERSTYLE
  2
AcDbMLeaderStyle
  3
ACDB_MLEADERSTYLE_CLASS
 90
     4095
280
     0
281
     0
  0
ENDSEC
  0
SECTION
  2
TABLES
  0
TABLE
  2
VPORT
  5
8
330
0
100
AcDbSymbolTable
 70
     1
  0
VPORT
  5
29
330
8
100
AcDbSymbolTableRecord
100
AcDbViewportTableRecord
  2
*Active
 70
     0
 10
0.0
 20
0.0
 11
1.0
 21
1.0
 12
20.78766666666618
 22
-4.62340369440588
 13
0.0
 23
0.0
 14
10.0
 24
10.0
 15
10.0
 25
10.0
 16
0.0
 26
0.0
 36
1.0
 17
0.0
 27
0.0
 37
0.0
 40
92.6448824370862
 41
1.782762691853601
 42
50.0
 43
0.0
 44
0.0
 50
0.0
 51
0.0
 71
    16
 72
  2000
 73
     1
 74
     3
 75
     0
 76
     0
 77
     0
 78
     0
281
     0
 65
     1
110
0.0
120
0.0
130
0.0
111
1.0
121
0.0
131
0.0
112
0.0
122
1.0
132
0.0
 79
     0
146
0.0
  0
ENDTAB
  0
TABLE
  2
LTYPE
  5
5
330
0
100
AcDbSymbolTable
 70
     6
  0
LTYPE
  5
14
330
5
100
AcDbSymbolTableRecord
100
AcDbLinetypeTableRecord
  2
ByBlock
 70
     0
  3

 72
    65
 73
     0
 40
0.0
  0
LTYPE
  5
15
330
5
100
AcDbSymbolTableRecord
100
AcDbLinetypeTableRecord
  2
ByLayer
 70
     0
  3

 72
    65
 73
     0
 40
0.0
  0
LTYPE
  5
16
330
5
100
AcDbSymbolTableRecord
100
AcDbLinetypeTableRecord
  2
Continuous
 70
     0
  3
Solid line
 72
    65
 73
     0
 40
0.0
  0
LTYPE
  5
6A
330
5
100
AcDbSymbolTableRecord
100
AcDbLinetypeTableRecord
  2
HIDDEN
 70
     0
  3
Hidden __ __ __ __ __ __ __ __ __ __ __ __ __ __
 72
    65
 73
     2
 40
1.905
 49
1.27
 74
     0
 49
-0.635
 74
     0
  0
LTYPE
  5
6B
330
5
100
AcDbSymbolTableRecord
100
AcDbLinetypeTableRecord
  2
PHANTOM
 70
     0
  3
Phantom ______  __  __  ______  __  __  ______
 72
    65
 73
     6
 40
12.7
 49
6.35
 74
     0
 49
-1.27
 74
     0
 49
1.27
 74
     0
 49
-1.27
 74
     0
 49
1.27
 74
     0
 49
-1.27
 74
     0
  0
LTYPE
  5
6C
330
5
100
AcDbSymbolTableRecord
100
AcDbLinetypeTableRecord
  2
CENTER
 70
     0
  3
Center ____ _ ____ _ ____ _ ____ _ ____ _ ____
 72
    65
 73
     4
 40
10.16
 49
6.35
 74
     0
 49
-1.27
 74
     0
 49
1.27
 74
     0
 49
-1.27
 74
     0
  0
LTYPE
  5
6D
330
5
100
AcDbSymbolTableRecord
100
AcDbLinetypeTableRecord
  2
CENTERX2
 70
     0
  3
Center (2x) ________  __  ________  __  _____
 72
    65
 73
     4
 40
20.32
 49
12.7
 74
     0
 49
-2.54
 74
     0
 49
2.54
 74
     0
 49
-2.54
 74
     0
  0
LTYPE
  5
6E
330
5
100
AcDbSymbolTableRecord
100
AcDbLinetypeTableRecord
  2
DOT2
 70
     0
  3
Dot (.5x) ........................................
 72
    65
 73
     2
 40
0.635
 49
0.0
 74
     0
 49
-0.635
 74
     0
  0
ENDTAB
  0
TABLE
  2
LAYER
  5
2
102
{ACAD_XDICTIONARY
360
187
102
}
330
0
100
AcDbSymbolTable
 70
    18
  0
LAYER
  5
10
330
2
100
AcDbSymbolTableRecord
100
AcDbLayerTableRecord
  2
0
 70
     0
 62
     7
  6
Continuous
370
    -3
390
F
  0
LAYER
  5
6F
330
2
100
AcDbSymbolTableRecord
100
AcDbLayerTableRecord
  2
FORMAT
 70
     0
 62
     2
  6
Continuous
370
    -3
390
F
  0
LAYER
  5
70
330
2
100
AcDbSymbolTableRecord
100
AcDbLayerTableRecord
  2
외형선
 70
     0
 62
     4
  6
Continuous
370
    30
390
F
  0
LAYER
  5
71
330
2
100
AcDbSymbolTableRecord
100
AcDbLayerTableRecord
  2
숨은선
 70
     0
 62
     2
  6
HIDDEN
370
    15
390
F
  0
LAYER
  5
72
330
2
100
AcDbSymbolTableRecord
100
AcDbLayerTableRecord
  2
중심선
 70
     0
 62
     1
  6
CENTERX2
370
    -3
390
F
  0
LAYER
  5
73
330
2
100
AcDbSymbolTableRecord
100
AcDbLayerTableRecord
  2
파단선
 70
     0
 62
     4
  6
Continuous
370
    -3
390
F
  0
LAYER
  5
74
330
2
100
AcDbSymbolTableRecord
100
AcDbLayerTableRecord
  2
해칭선
 70
     0
 62
   100
  6
Continuous
370
    -3
390
F
  0
LAYER
  5
75
330
2
100
AcDbSymbolTableRecord
100
AcDbLayerTableRecord
  2
가는실선
 70
     0
 62
     4
  6
Continuous
370
    -3
390
F
  0
LAYER
  5
76
330
2
100
AcDbSymbolTableRecord
100
AcDbLayerTableRecord
  2
치수_보조선
 70
     0
 62
     4
  6
Continuous
370
    -3
390
F
  0
LAYER
  5
77
330
2
100
AcDbSymbolTableRecord
100
AcDbLayerTableRecord
  2
치수문자_일반주서
 70
     0
 62
     7
  6
Continuous
370
    15
390
F
  0
LAYER
  5
78
330
2
100
AcDbSymbolTableRecord
100
AcDbLayerTableRecord
  2
개별주서
 70
     0
 62
   100
  6
Continuous
370
    30
390
F
  0
LAYER
  5
79
330
2
100
AcDbSymbolTableRecord
100
AcDbLayerTableRecord
  2
중간선
 70
     0
 62
     2
  6
Continuous
370
    15
390
F
  0
LAYER
  5
7A
330
2
100
AcDbSymbolTableRecord
100
AcDbLayerTableRecord
  2
윤곽선
 70
     0
 62
     3
  6
Continuous
370
    40
390
F
  0
LAYER
  5
7B
330
2
100
AcDbSymbolTableRecord
100
AcDbLayerTableRecord
  2
중심마크
 70
     0
 62
   100
  6
Continuous
370
    30
390
F
  0
LAYER
  5
7C
330
2
100
AcDbSymbolTableRecord
100
AcDbLayerTableRecord
  2
가상선
 70
     0
 62
     4
  6
PHANTOM
370
    -3
390
F
  0
LAYER
  5
7D
330
2
100
AcDbSymbolTableRecord
100
AcDbLayerTableRecord
  2
특수지정선
 70
     0
 62
     5
  6
CENTERX2
370
    60
390
F
  0
LAYER
  5
7E
330
2
100
AcDbSymbolTableRecord
100
AcDbLayerTableRecord
  2
참조1
 70
     0
 62
    -4
  6
Continuous
370
    -3
390
F
  0
LAYER
  5
153
330
2
100
AcDbSymbolTableRecord
100
AcDbLayerTableRecord
  2
Defpoints
 70
     0
 62
     7
  6
Continuous
290
     0
370
    -3
390
F
  0
ENDTAB
  0
TABLE
  2
STYLE
  5
3
330
0
100
AcDbSymbolTable
 70
     2
  0
STYLE
  5
11
330
3
100
AcDbSymbolTableRecord
100
AcDbTextStyleTableRecord
  2
Standard
 70
     0
 40
0.0
 41
1.0
 50
0.0
 71
     0
 42
3.5
  3
txt
  4

  0
STYLE
  5
94
330
3
100
AcDbSymbolTableRecord
100
AcDbTextStyleTableRecord
  2
SLDTEXTSTYLE0
 70
     0
 40
0.0
 41
0.75
 50
0.0
 71
     0
 42
3.5
  3
TXT
  4

  0
ENDTAB
  0
TABLE
  2
VIEW
  5
6
330
0
100
AcDbSymbolTable
 70
     0
  0
ENDTAB
  0
TABLE
  2
UCS
  5
7
330
0
100
AcDbSymbolTable
 70
     0
  0
ENDTAB
  0
TABLE
  2
APPID
  5
9
330
0
100
AcDbSymbolTable
 70
     4
  0
APPID
  5
12
330
9
100
AcDbSymbolTableRecord
100
AcDbRegAppTableRecord
  2
ACAD
 70
     0
  0
APPID
  5
15A
330
9
100
AcDbSymbolTableRecord
100
AcDbRegAppTableRecord
  2
PE_URL
 70
     0
  0
APPID
  5
1E5
330
9
100
AcDbSymbolTableRecord
100
AcDbRegAppTableRecord
  2
ACAD_DSTYLE_DIMFLIPARROW_SYMBOL
 70
     0
  0
APPID
  5
1E6
330
9
100
AcDbSymbolTableRecord
100
AcDbRegAppTableRecord
  2
ACAD_DSTYLE_DIMFLIPARROW_WHICH_SYMBOL
 70
     0
  0
ENDTAB
  0
TABLE
  2
DIMSTYLE
  5
A
330
0
100
AcDbSymbolTable
 70
     4
100
AcDbDimStyleTable
  0
DIMSTYLE
105
27
330
A
100
AcDbSymbolTableRecord
100
AcDbDimStyleTableRecord
  2
ISO-25
 70
     0
 41
2.5
 42
0.625
 43
3.75
 44
1.25
 73
     0
 74
     0
 77
     1
 78
     8
140
2.5
141
2.5
143
0.03937007874016
147
0.625
171
     3
172
     1
178
     0
271
     2
272
     2
274
     3
278
    44
283
     0
284
     8
340
11
  0
DIMSTYLE
105
D2
102
{ACAD_REACTORS
330
D1
330
10F
330
E6
330
FA
102
}
330
A
100
AcDbSymbolTableRecord
100
AcDbDimStyleTableRecord
  2
SLDDIMSTYLE0
 70
     0
 41
3.302
 44
0.0
 45
0.000000001
 73
     0
 74
     0
 77
     1
 78
     4
 79
     1
140
3.5
143
0.0393700787401575
147
0.875
148
0.000000001
170
     1
173
     1
178
     0
271
     2
272
     2
276
     2
284
    12
340
94
  0
DIMSTYLE
105
E7
330
A
100
AcDbSymbolTableRecord
100
AcDbDimStyleTableRecord
  2
SLDDIMSTYLE1
 70
     0
 41
3.302
 44
0.0
 45
0.000000001
 73
     0
 74
     0
 77
     1
 78
    12
 79
     3
140
3.5
143
0.0393700787401575
147
0.875
148
0.000000001
170
     1
173
     1
178
     0
271
     2
272
     2
276
     2
284
    12
340
94
  0
DIMSTYLE
105
FB
330
A
100
AcDbSymbolTableRecord
100
AcDbDimStyleTableRecord
  2
SLDDIMSTYLE2
 70
     0
 41
3.302
 44
0.0
 45
0.000000001
 73
     0
 74
     0
 77
     1
 78
     4
 79
     1
140
3.5
143
0.0393700787401575
147
0.875
148
0.000000001
170
     1
172
     1
173
     1
178
     0
271
     2
272
     2
276
     2
284
    12
289
     0
340
94
  0
ENDTAB
  0
TABLE
  2
BLOCK_RECORD
  5
1
330
0
100
AcDbSymbolTable
 70
     9
  0
BLOCK_RECORD
  5
1F
330
1
100
AcDbSymbolTableRecord
100
AcDbBlockTableRecord
  2
*Model_Space
340
22
  0
BLOCK_RECORD
  5
1B
330
1
100
AcDbSymbolTableRecord
100
AcDbBlockTableRecord
  2
*Paper_Space
340
1E
  0
BLOCK_RECORD
  5
23
330
1
100
AcDbSymbolTableRecord
100
AcDbBlockTableRecord
  2
*Paper_Space0
340
26
  0
BLOCK_RECORD
  5
7F
330
1
100
AcDbSymbolTableRecord
100
AcDbBlockTableRecord
  2
블럭10
340
0
102
{BLKREFS
331
CA
102
}
  0
BLOCK_RECORD
  5
D3
330
1
100
AcDbSymbolTableRecord
100
AcDbBlockTableRecord
  2
_D
340
0
  0
BLOCK_RECORD
  5
E8
330
1
100
AcDbSymbolTableRecord
100
AcDbBlockTableRecord
  2
_D_1
340
0
  0
BLOCK_RECORD
  5
FC
330
1
100
AcDbSymbolTableRecord
100
AcDbBlockTableRecord
  2
_D_2
340
0
  0
BLOCK_RECORD
  5
110
330
1
100
AcDbSymbolTableRecord
100
AcDbBlockTableRecord
  2
_D_3
340
0
  0
BLOCK_RECORD
  5
129
330
1
100
AcDbSymbolTableRecord
100
AcDbBlockTableRecord
  2
SW_DOWELSYMBOL_0
340
0
102
{BLKREFS
331
12F
102
}
  0
BLOCK_RECORD
  5
18B
330
1
100
AcDbSymbolTableRecord
100
AcDbBlockTableRecord
  2
*D7
340
0
  0
BLOCK_RECORD
  5
19A
330
1
100
AcDbSymbolTableRecord
100
AcDbBlockTableRecord
  2
*D8
340
0
  0
ENDTAB
  0
ENDSEC
  0
SECTION
  2
BLOCKS
  0
BLOCK
  5
20
330
1F
100
AcDbEntity
  8
0
100
AcDbBlockBegin
  2
*Model_Space
 70
     0
 10
0.0
 20
0.0
 30
0.0
  3
*Model_Space
  1

  0
ENDBLK
  5
21
330
1F
100
AcDbEntity
  8
0
100
AcDbBlockEnd
  0
BLOCK
  5
1C
330
1B
100
AcDbEntity
 67
     1
  8
0
100
AcDbBlockBegin
  2
*Paper_Space
 70
     0
 10
0.0
 20
0.0
 30
0.0
  3
*Paper_Space
  1

  0
ENDBLK
  5
1D
330
1B
100
AcDbEntity
 67
     1
  8
0
100
AcDbBlockEnd
  0
BLOCK
  5
24
330
23
100
AcDbEntity
  8
0
100
AcDbBlockBegin
  2
*Paper_Space0
 70
     0
 10
0.0
 20
0.0
 30
0.0
  3
*Paper_Space0
  1

  0
ENDBLK
  5
25
330
23
100
AcDbEntity
  8
0
100
AcDbBlockEnd
  0
BLOCK
  5
80
330
7F
100
AcDbEntity
  8
0
100
AcDbBlockBegin
  2
블럭10
 70
     2
 10
0.0
 20
0.0
 30
0.0
  3
블럭10
  1

  0
ELLIPSE
  5
82
330
7F
100
AcDbEntity
  8
중심선
100
AcDbEllipse
 10
20.54032771741204
 20
12.0471743016438
 30
0.0
 11
6.600054785286829
 21
-1.261213355974178E-13
 31
0.0
210
0.0
220
0.0
230
1.0
 40
0.636358354079598
 41
0.9219305317359503
 42
6.513795318482858
  0
ELLIPSE
  5
83
330
7F
100
AcDbEntity
  8
중심선
100
AcDbEllipse
 10
20.54032771746488
 20
12.04717430159265
 30
0.0
 11
3.960054785062283
 21
1.540847449632565E-10
 31
0.0
210
0.0
220
0.0
230
1.0
 40
0.3939339440162632
 41
1.131841032648279
 42
5.62031148352944
  0
LINE
  5
84
330
7F
100
AcDbEntity
  8
중심선
100
AcDbLine
 10
2.268634060543552
 20
16.24717430164393
 30
0.0
 11
5.714909304380834
 21
16.24717430164393
 31
0.0
  0
LINE
  5
85
330
7F
100
AcDbEntity
  8
중심선
100
AcDbLine
 10
5.245725140726316
 20
7.84717430164391
 30
0.0
 11
8.692000384563599
 21
7.84717430164391
 31
0.0
  0
LINE
  5
86
330
7F
100
AcDbEntity
  8
중심선
100
AcDbLine
 10
15.74043728645272
 20
16.24717430164393
 30
0.0
 11
8.692000384563599
 21
7.84717430164391
 31
0.0
  0
LINE
  5
87
330
7F
100
AcDbEntity
  8
중심선
100
AcDbLine
 10
0.1404042013395286
 20
13.71084872107135
 30
0.0
 11
3.58671253028996
 21
13.71088815037384
 31
0.0
  0
LINE
  5
88
330
7F
100
AcDbEntity
  8
중심선
100
AcDbLine
 10
2.750260043222114
 20
10.84717430164391
 30
0.0
 11
6.196535287059397
 21
10.84717430164391
 31
0.0
  0
LINE
  5
89
330
7F
100
AcDbEntity
  8
중심선
100
AcDbLine
 10
12.29416204261559
 20
16.24717430164393
 30
0.0
 11
5.245725140726316
 21
7.84717430164391
 31
0.0
  0
LINE
  5
8A
330
7F
100
AcDbEntity
  8
중심선
100
AcDbLine
 10
10.72767329541681
 20
16.24717430164393
 30
0.0
 11
6.196535287059397
 21
10.84717430164391
 31
0.0
  0
LINE
  5
8B
330
7F
100
AcDbEntity
  8
중심선
100
AcDbLine
 10
7.28139805157953
 20
16.24717430164393
 30
0.0
 11
2.750260043222114
 21
10.84717430164391
 31
0.0
  0
LINE
  5
8C
330
7F
100
AcDbEntity
  8
중심선
100
AcDbLine
 10
5.714909304380834
 20
16.24717430164393
 30
0.0
 11
3.58671253028996
 21
13.71088815037384
 31
0.0
  0
LINE
  5
8D
330
7F
100
AcDbEntity
  8
중심선
100
AcDbLine
 10
2.268634060543552
 20
16.24717430164393
 30
0.0
 11
0.1404042013395286
 21
13.71084872107135
 31
0.0
  0
LINE
  5
8E
330
7F
100
AcDbEntity
  8
중심선
100
AcDbLine
 10
7.28139805157953
 20
16.24717430164393
 30
0.0
 11
10.72767329541681
 21
16.24717430164393
 31
0.0
  0
LINE
  5
8F
330
7F
100
AcDbEntity
  8
중심선
100
AcDbLine
 10
12.29416204261559
 20
16.24717430164393
 30
0.0
 11
15.74043728645272
 21
16.24717430164393
 31
0.0
  0
LINE
  5
90
330
7F
100
AcDbEntity
  8
중심선
100
AcDbLine
 10
19.22036997980202
 20
11.08717430171403
 30
0.0
 11
23.66174974927406
 21
11.08717430171406
 31
0.0
  0
LINE
  5
91
330
7F
100
AcDbEntity
  8
중심선
100
AcDbLine
 10
19.22039502424796
 20
13.00717430171391
 30
0.0
 11
19.22036997980202
 21
11.08717430171403
 31
0.0
  0
LINE
  5
92
330
7F
100
AcDbEntity
  8
중심선
100
AcDbLine
 10
19.22039502424796
 20
13.00717430171391
 30
0.0
 11
26.96566020931264
 21
13.00717430171391
 31
0.0
  0
LINE
  5
93
330
7F
100
AcDbEntity
  8
중심선
100
AcDbLine
 10
22.22332737316547
 20
13.45928029700563
 30
0.0
 11
24.52862924686651
 21
15.39360700705356
 31
0.0
  0
ATTDEF
  5
95
330
7F
100
AcDbEntity
  8
FORMAT
 62
     2
100
AcDbText
 10
4.408487351596664
 20
2.075366912832191
 30
0.0
 40
4.233333333333333
  1
E1041032
 41
0.75
  7
SLDTEXTSTYLE0
 11
4.408487351596664
 21
-0.0412997538344756
 31
0.0
100
AcDbAttributeDefinition
  3

  2
AUTOATTR0
 70
     0
 74
     1
  0
ENDBLK
  5
81
330
7F
100
AcDbEntity
  8
0
100
AcDbBlockEnd
  0
BLOCK
  5
D4
330
D3
100
AcDbEntity
  8
0
100
AcDbBlockBegin
  2
_D
 70
     0
 10
0.0
 20
0.0
 30
0.0
  3
_D
  1

  0
LINE
  5
D6
330
D3
100
AcDbEntity
  8
치수문자_일반주서
 62
     0
370
    -2
100
AcDbLine
 10
86.19999999999955
 20
6.38914845620485
 30
0.0
 11
86.19999999999955
 21
21.34999999999999
 31
0.0
  0
LINE
  5
D7
330
D3
100
AcDbEntity
  8
치수문자_일반주서
 62
     0
370
    -2
100
AcDbLine
 10
9.999999999999542
 20
5.671521115338832
 30
0.0
 11
9.999999999999538
 21
21.34999999999999
 31
0.0
  0
LINE
  5
D8
330
D3
100
AcDbEntity
  8
치수문자_일반주서
 62
     0
370
    -2
100
AcDbLine
 10
82.89799999999954
 20
21.34999999999999
 30
0.0
 11
13.30199999999954
 21
21.34999999999999
 31
0.0
  0
SOLID
  5
D9
330
D3
100
AcDbEntity
  8
치수문자_일반주서
 62
     0
100
AcDbTrace
 10
82.89799999999954
 20
20.79966666666665
 30
0.0
 11
82.89799999999954
 21
21.90033333333332
 31
0.0
 12
86.19999999999955
 22
21.34999999999999
 32
0.0
 13
86.19999999999955
 23
21.34999999999999
 33
0.0
  0
SOLID
  5
DA
330
D3
100
AcDbEntity
  8
치수문자_일반주서
 62
     0
100
AcDbTrace
 10
13.30199999999954
 20
21.90033333333332
 30
0.0
 11
13.30199999999954
 21
20.79966666666665
 31
0.0
 12
9.999999999999538
 22
21.34999999999999
 32
0.0
 13
9.999999999999538
 23
21.34999999999999
 33
0.0
  0
MTEXT
  5
DB
330
D3
100
AcDbEntity
  8
치수문자_일반주서
 62
     0
100
AcDbMText
 10
48.09999999999949
 20
25.72499999999999
 30
0.0
 40
3.5
 41
0.0
 71
     2
 72
     1
  1
\A1;76.20 [3]
  7
SLDTEXTSTYLE0
 73
     1
 44
1.0
  0
POINT
  5
DC
330
D3
100
AcDbEntity
  8
Defpoints
 62
     0
100
AcDbPoint
 10
86.19999999999955
 20
6.32664845620485
 30
0.0
  0
POINT
  5
DD
330
D3
100
AcDbEntity
  8
Defpoints
 62
     0
100
AcDbPoint
 10
9.999999999999542
 20
5.609021115338832
 30
0.0
  0
POINT
  5
DE
330
D3
100
AcDbEntity
  8
Defpoints
 62
     0
100
AcDbPoint
 10
9.999999999999542
 20
21.34999999999999
 30
0.0
  0
ENDBLK
  5
D5
330
D3
100
AcDbEntity
  8
0
100
AcDbBlockEnd
  0
BLOCK
  5
E9
330
E8
100
AcDbEntity
  8
0
100
AcDbBlockBegin
  2
_D_1
 70
     0
 10
0.0
 20
0.0
 30
0.0
  3
_D_1
  1

  0
LINE
  5
EB
330
E8
100
AcDbEntity
  8
치수문자_일반주서
 62
     0
370
    -2
100
AcDbLine
 10
86.19999999999955
 20
6.38914845620485
 30
0.0
 11
86.19999999999953
 21
36.34999999999999
 31
0.0
  0
LINE
  5
EC
330
E8
100
AcDbEntity
  8
치수문자_일반주서
 62
     0
370
    -2
100
AcDbLine
 10
-40.80000000000046
 20
5.142499999999997
 30
0.0
 11
-40.80000000000047
 21
36.34999999999999
 31
0.0
  0
LINE
  5
ED
330
E8
100
AcDbEntity
  8
치수문자_일반주서
 62
     0
370
    -2
100
AcDbLine
 10
82.89799999999953
 20
36.34999999999999
 30
0.0
 11
-37.49800000000047
 21
36.34999999999999
 31
0.0
  0
SOLID
  5
EE
330
E8
100
AcDbEntity
  8
치수문자_일반주서
 62
     0
100
AcDbTrace
 10
82.89799999999953
 20
35.79966666666665
 30
0.0
 11
82.89799999999953
 21
36.90033333333332
 31
0.0
 12
86.19999999999953
 22
36.34999999999999
 32
0.0
 13
86.19999999999953
 23
36.34999999999999
 33
0.0
  0
SOLID
  5
EF
330
E8
100
AcDbEntity
  8
치수문자_일반주서
 62
     0
100
AcDbTrace
 10
-37.49800000000047
 20
36.90033333333332
 30
0.0
 11
-37.49800000000047
 21
35.79966666666665
 31
0.0
 12
-40.80000000000047
 22
36.34999999999999
 32
0.0
 13
-40.80000000000047
 23
36.34999999999999
 33
0.0
  0
MTEXT
  5
F0
330
E8
100
AcDbEntity
  8
치수문자_일반주서
 62
     0
100
AcDbMText
 10
22.69999999999948
 20
40.72499999999999
 30
0.0
 40
3.5
 41
0.0
 71
     2
 72
     1
  1
\A1;127.00 [5]
  7
SLDTEXTSTYLE0
 73
     1
 44
1.0
  0
POINT
  5
F1
330
E8
100
AcDbEntity
  8
Defpoints
 62
     0
100
AcDbPoint
 10
86.19999999999955
 20
6.32664845620485
 30
0.0
  0
POINT
  5
F2
330
E8
100
AcDbEntity
  8
Defpoints
 62
     0
100
AcDbPoint
 10
-40.80000000000046
 20
5.079999999999997
 30
0.0
  0
POINT
  5
F3
330
E8
100
AcDbEntity
  8
Defpoints
 62
     0
100
AcDbPoint
 10
-40.80000000000046
 20
36.34999999999999
 30
0.0
  0
ENDBLK
  5
EA
330
E8
100
AcDbEntity
  8
0
100
AcDbBlockEnd
  0
BLOCK
  5
FD
330
FC
100
AcDbEntity
  8
0
100
AcDbBlockBegin
  2
_D_2
 70
     0
 10
0.0
 20
0.0
 30
0.0
  3
_D_2
  1

  0
LINE
  5
FF
330
FC
100
AcDbEntity
  8
치수문자_일반주서
 62
     0
370
    -2
100
AcDbLine
 10
-39.59250000000046
 20
6.349999999999987
 30
0.0
 11
-55.80000000000047
 21
6.349999999999927
 31
0.0
  0
LINE
  5
100
330
FC
100
AcDbEntity
  8
치수문자_일반주서
 62
     0
370
    -2
100
AcDbLine
 10
-39.59250000000046
 20
-6.350000000000001
 30
0.0
 11
-55.80000000000043
 21
-6.350000000000062
 31
0.0
  0
LINE
  5
101
330
FC
100
AcDbEntity
  8
치수문자_일반주서
 62
     0
370
    -2
100
AcDbLine
 10
-55.80000000000047
 20
6.349999999999927
 30
0.0
 11
-55.80000000000057
 21
36.33949999999994
 31
0.0
  0
LINE
  5
102
330
FC
100
AcDbEntity
  8
치수문자_일반주서
 62
     0
370
    -2
100
AcDbLine
 10
-55.80000000000047
 20
6.349999999999927
 30
0.0
 11
-55.80000000000043
 21
-6.350000000000062
 31
0.0
  0
LINE
  5
103
330
FC
100
AcDbEntity
  8
치수문자_일반주서
 62
     0
370
    -2
100
AcDbLine
 10
-55.80000000000049
 20
9.651999999999926
 30
0.0
 11
-55.8000000000005
 21
12.95399999999993
 31
0.0
  0
LINE
  5
104
330
FC
100
AcDbEntity
  8
치수문자_일반주서
 62
     0
370
    -2
100
AcDbLine
 10
-55.80000000000042
 20
-9.652000000000061
 30
0.0
 11
-55.8000000000004
 21
-12.95400000000006
 31
0.0
  0
SOLID
  5
105
330
FC
100
AcDbEntity
  8
치수문자_일반주서
 62
     0
100
AcDbTrace
 10
-56.35033333333382
 20
9.651999999999925
 30
0.0
 11
-55.24966666666715
 21
9.651999999999928
 31
0.0
 12
-55.80000000000047
 22
6.349999999999927
 32
0.0
 13
-55.80000000000047
 23
6.349999999999927
 33
0.0
  0
SOLID
  5
106
330
FC
100
AcDbEntity
  8
치수문자_일반주서
 62
     0
100
AcDbTrace
 10
-55.24966666666708
 20
-9.65200000000006
 30
0.0
 11
-56.35033333333375
 21
-9.652000000000063
 31
0.0
 12
-55.80000000000043
 22
-6.350000000000062
 32
0.0
 13
-55.80000000000043
 23
-6.350000000000062
 33
0.0
  0
MTEXT
  5
107
330
FC
100
AcDbEntity
  8
치수문자_일반주서
 62
     0
100
AcDbMText
 10
-60.17500000000053
 20
22.99574999999993
 30
0.0
 40
3.5
 41
0.0
 71
     2
 72
     1
  1
\A1;%%c12.70 [1/2]
  7
SLDTEXTSTYLE0
 11
-3.356894814614650E-15
 21
1.0
 31
0.0
 73
     1
 44
1.0
  0
POINT
  5
1DF
330
FC
100
AcDbEntity
  8
Defpoints
 62
     0
100
AcDbPoint
 10
-39.53000000000046
 20
6.349999999999987
 30
0.0
  0
POINT
  5
1E0
330
FC
100
AcDbEntity
  8
Defpoints
 62
     0
100
AcDbPoint
 10
-39.53000000000046
 20
-6.350000000000001
 30
0.0
  0
POINT
  5
1E1
330
FC
100
AcDbEntity
  8
Defpoints
 62
     0
100
AcDbPoint
 10
-55.80000000000043
 20
-6.350000000000062
 30
0.0
  0
ENDBLK
  5
FE
330
FC
100
AcDbEntity
  8
0
100
AcDbBlockEnd
  0
BLOCK
  5
111
330
110
100
AcDbEntity
  8
0
100
AcDbBlockBegin
  2
_D_3
 70
     0
 10
0.0
 20
0.0
 30
0.0
  3
_D_3
  1

  0
LINE
  5
113
330
110
100
AcDbEntity
  8
치수문자_일반주서
 62
     0
370
    -2
100
AcDbLine
 10
86.26249999999955
 20
-6.326648456204865
 30
0.0
 11
101.1999999999996
 21
-6.326648456204808
 31
0.0
  0
LINE
  5
114
330
110
100
AcDbEntity
  8
치수문자_일반주서
 62
     0
370
    -2
100
AcDbLine
 10
86.26249999999955
 20
6.32664845620485
 30
0.0
 11
101.1999999999995
 21
6.326648456204907
 31
0.0
  0
LINE
  5
115
330
110
100
AcDbEntity
  8
치수문자_일반주서
 62
     0
370
    -2
100
AcDbLine
 10
101.1999999999995
 20
6.326648456204907
 30
0.0
 11
101.1999999999994
 21
36.75364845620491
 31
0.0
  0
LINE
  5
116
330
110
100
AcDbEntity
  8
치수문자_일반주서
 62
     0
370
    -2
100
AcDbLine
 10
101.1999999999996
 20
-6.326648456204808
 30
0.0
 11
101.1999999999995
 21
6.326648456204907
 31
0.0
  0
LINE
  5
117
330
110
100
AcDbEntity
  8
치수문자_일반주서
 62
     0
370
    -2
100
AcDbLine
 10
101.1999999999996
 20
-9.628648456204807
 30
0.0
 11
101.1999999999996
 21
-12.93064845620481
 31
0.0
  0
LINE
  5
118
330
110
100
AcDbEntity
  8
치수문자_일반주서
 62
     0
370
    -2
100
AcDbLine
 10
101.1999999999995
 20
9.628648456204907
 30
0.0
 11
101.1999999999995
 21
12.93064845620491
 31
0.0
  0
SOLID
  5
119
330
110
100
AcDbEntity
  8
치수문자_일반주서
 62
     0
100
AcDbTrace
 10
101.7503333333329
 20
-9.628648456204806
 30
0.0
 11
100.6496666666663
 21
-9.62864845620481
 31
0.0
 12
101.1999999999996
 22
-6.326648456204808
 32
0.0
 13
101.1999999999996
 23
-6.326648456204808
 33
0.0
  0
SOLID
  5
11A
330
110
100
AcDbEntity
  8
치수문자_일반주서
 62
     0
100
AcDbTrace
 10
100.6496666666662
 20
9.628648456204905
 30
0.0
 11
101.7503333333329
 21
9.628648456204909
 31
0.0
 12
101.1999999999995
 22
6.326648456204907
 32
0.0
 13
101.1999999999995
 23
6.326648456204907
 33
0.0
  0
MTEXT
  5
11B
330
110
100
AcDbEntity
  8
치수문자_일반주서
 62
     0
100
AcDbMText
 10
96.82499999999949
 20
23.19114845620489
 30
0.0
 40
3.5
 41
0.0
 71
     2
 72
     1
  1
\A1;%%c12.65 [1/2]
  7
SLDTEXTSTYLE0
 11
-3.369285052008393E-15
 21
1.0
 31
0.0
 73
     1
 44
1.0
  0
POINT
  5
11C
330
110
100
AcDbEntity
  8
Defpoints
 62
     0
100
AcDbPoint
 10
86.19999999999955
 20
-6.326648456204865
 30
0.0
  0
POINT
  5
1E2
330
110
100
AcDbEntity
  8
Defpoints
 62
     0
100
AcDbPoint
 10
86.19999999999955
 20
6.32664845620485
 30
0.0
  0
POINT
  5
1E3
330
110
100
AcDbEntity
  8
Defpoints
 62
     0
100
AcDbPoint
 10
101.1999999999995
 20
6.326648456204906
 30
0.0
  0
ENDBLK
  5
112
330
110
100
AcDbEntity
  8
0
100
AcDbBlockEnd
  0
BLOCK
  5
12A
330
129
100
AcDbEntity
  8
0
100
AcDbBlockBegin
  2
SW_DOWELSYMBOL_0
 70
     0
 10
0.0
 20
0.0
 30
0.0
  3
SW_DOWELSYMBOL_0
  1

  0
CIRCLE
  5
12C
330
129
100
AcDbEntity
  8
해칭선
 62
     0
100
AcDbCircle
 10
0.0
 20
0.0
 30
0.0
 40
3.000000000000001
  0
HATCH
  5
12D
330
129
100
AcDbEntity
  8
0
  6
Continuous
 62
     0
370
     0
100
AcDbHatch
 10
0.0
 20
0.0
 30
0.0
210
0.0
220
0.0
230
1.0
  2
SOLID
 70
     1
 71
     0
 91
        1
 92
        0
 93
        3
 72
     2
 10
0.0
 20
0.0
 40
3.000000000000001
 50
0.0
 51
90.0
 73
     1
 72
     1
 10
0.0
 20
3.000000000000001
 11
0.0
 21
0.0
 72
     1
 10
0.0
 20
0.0
 11
3.000000000000001
 21
0.0
 97
        0
 75
     0
 76
     1
 98
        1
 10
0.0
 20
0.0
  0
HATCH
  5
12E
330
129
100
AcDbEntity
  8
0
  6
Continuous
 62
     0
370
     0
100
AcDbHatch
 10
0.0
 20
0.0
 30
0.0
210
0.0
220
0.0
230
1.0
  2
SOLID
 70
     1
 71
     0
 91
        1
 92
        0
 93
        3
 72
     2
 10
0.0
 20
0.0
 40
3.000000000000001
 50
180.0
 51
270.0000000000007
 73
     1
 72
     1
 10
0.0
 20
-3.000000000000001
 11
0.0
 21
0.0
 72
     1
 10
0.0
 20
0.0
 11
-3.000000000000001
 21
0.0
 97
        0
 75
     0
 76
     1
 98
        1
 10
0.0
 20
0.0
  0
ENDBLK
  5
12B
330
129
100
AcDbEntity
  8
0
100
AcDbBlockEnd
  0
BLOCK
  5
18C
330
18B
100
AcDbEntity
  8
0
100
AcDbBlockBegin
  2
*D7
 70
     1
 10
0.0
 20
0.0
 30
0.0
  3
*D7
  1

  0
LINE
  5
18E
330
18B
100
AcDbEntity
  8
치수문자_일반주서
 62
     0
370
    -2
100
AcDbLine
 10
76.20000000000002
 20
11.94578347999475
 30
0.0
 11
76.20000000000002
 21
22.3020505523027
 31
0.0
  0
LINE
  5
18F
330
18B
100
AcDbEntity
  8
치수문자_일반주서
 62
     0
370
    -2
100
AcDbLine
 10
0.0
 20
11.96566059165964
 30
0.0
 11
0.0
 21
22.3020505523027
 31
0.0
  0
LINE
  5
190
330
18B
100
AcDbEntity
  8
치수문자_일반주서
 62
     0
370
    -2
100
AcDbLine
 10
72.89800000000002
 20
22.3020505523027
 30
0.0
 11
3.302
 21
22.3020505523027
 31
0.0
  0
SOLID
  5
191
330
18B
100
AcDbEntity
  8
치수문자_일반주서
 62
     0
100
AcDbTrace
 10
72.89800000000002
 20
21.75171721896936
 30
0.0
 11
72.89800000000002
 21
22.85238388563603
 31
0.0
 12
76.20000000000002
 22
22.3020505523027
 32
0.0
 13
76.20000000000002
 23
22.3020505523027
 33
0.0
  0
SOLID
  5
192
330
18B
100
AcDbEntity
  8
치수문자_일반주서
 62
     0
100
AcDbTrace
 10
3.302
 20
22.85238388563603
 30
0.0
 11
3.302
 21
21.75171721896936
 31
0.0
 12
0.0
 22
22.3020505523027
 32
0.0
 13
0.0
 23
22.3020505523027
 33
0.0
  0
MTEXT
  5
193
330
18B
100
AcDbEntity
  8
치수문자_일반주서
 62
     0
100
AcDbMText
 10
38.10000000000001
 20
26.6770505523027
 30
0.0
 40
3.5
 41
0.0
 71
     2
 72
     1
  1
\A1;76.20 [3]
  7
SLDTEXTSTYLE0
 73
     1
 44
1.0
  0
POINT
  5
194
330
18B
100
AcDbEntity
  8
Defpoints
 62
     0
100
AcDbPoint
 10
76.20000000000002
 20
11.88328347999475
 30
0.0
  0
POINT
  5
195
330
18B
100
AcDbEntity
  8
Defpoints
 62
     0
100
AcDbPoint
 10
0.0
 20
11.90316059165964
 30
0.0
  0
POINT
  5
196
330
18B
100
AcDbEntity
  8
Defpoints
 62
     0
100
AcDbPoint
 10
0.0
 20
22.3020505523027
 30
0.0
  0
ENDBLK
  5
18D
330
18B
100
AcDbEntity
  8
0
100
AcDbBlockEnd
  0
BLOCK
  5
19B
330
19A
100
AcDbEntity
  8
0
100
AcDbBlockBegin
  2
*D8
 70
     1
 10
0.0
 20
0.0
 30
0.0
  3
*D8
  1

  0
LINE
  5
19D
330
19A
100
AcDbEntity
  8
치수문자_일반주서
 62
     0
370
    -2
100
AcDbLine
 10
239.2011470281503
 20
-44.72979594603488
 30
0.0
 11
239.2011470281503
 21
-34.37352887372693
 31
0.0
  0
LINE
  5
19E
330
19A
100
AcDbEntity
  8
치수문자_일반주서
 62
     0
370
    -2
100
AcDbLine
 10
163.0011470281503
 20
-44.70991883436999
 30
0.0
 11
163.0011470281503
 21
-34.37352887372693
 31
0.0
  0
LINE
  5
19F
330
19A
100
AcDbEntity
  8
치수문자_일반주서
 62
     0
370
    -2
100
AcDbLine
 10
235.8991470281503
 20
-34.37352887372693
 30
0.0
 11
166.3031470281503
 21
-34.37352887372693
 31
0.0
  0
SOLID
  5
1A0
330
19A
100
AcDbEntity
  8
치수문자_일반주서
 62
     0
100
AcDbTrace
 10
235.8991470281503
 20
-34.92386220706026
 30
0.0
 11
235.8991470281503
 21
-33.82319554039359
 31
0.0
 12
239.2011470281503
 22
-34.37352887372693
 32
0.0
 13
239.2011470281503
 23
-34.37352887372693
 33
0.0
  0
SOLID
  5
1A1
330
19A
100
AcDbEntity
  8
치수문자_일반주서
 62
     0
100
AcDbTrace
 10
166.3031470281503
 20
-33.82319554039359
 30
0.0
 11
166.3031470281503
 21
-34.92386220706026
 31
0.0
 12
163.0011470281503
 22
-34.37352887372693
 32
0.0
 13
163.0011470281503
 23
-34.37352887372693
 33
0.0
  0
MTEXT
  5
1A2
330
19A
100
AcDbEntity
  8
치수문자_일반주서
 62
     0
100
AcDbMText
 10
201.1011470281503
 20
-29.99852887372693
 30
0.0
 40
3.5
 41
0.0
 71
     2
 72
     1
  1
\A1;76.20 [3]
  7
SLDTEXTSTYLE0
 73
     1
 44
1.0
  0
POINT
  5
1A3
330
19A
100
AcDbEntity
  8
Defpoints
 62
     0
100
AcDbPoint
 10
239.2011470281503
 20
-44.79229594603488
 30
0.0
  0
POINT
  5
1A4
330
19A
100
AcDbEntity
  8
Defpoints
 62
     0
100
AcDbPoint
 10
163.0011470281503
 20
-44.77241883436999
 30
0.0
  0
POINT
  5
1A5
330
19A
100
AcDbEntity
  8
Defpoints
 62
     0
100
AcDbPoint
 10
163.0011470281503
 20
-34.37352887372693
 30
0.0
  0
ENDBLK
  5
19C
330
19A
100
AcDbEntity
  8
0
100
AcDbBlockEnd
  0
ENDSEC
  0
SECTION
  2
ENTITIES
  0
LINE
  5
96
330
1F
100
AcDbEntity
  8
0
  6
Continuous
 62
     1
370
    15
100
AcDbLine
 10
18.03778071573685
 20
-6.350000000000012
 30
0.0
 11
21.9089869670701
 21
-6.350000000000012
 31
0.0
1001
PE_URL
1000

  0
LINE
  5
97
330
1F
100
AcDbEntity
  8
0
  6
Continuous
 62
     1
370
    15
100
AcDbLine
 10
56.46182091843609
 20
6.349999999999998
 30
0.0
 11
52.58928937439312
 21
6.349999999999998
 31
0.0
1001
PE_URL
1000

  0
LINE
  5
98
330
1F
100
AcDbEntity
  8
0
  6
Continuous
 62
     1
370
    15
100
AcDbLine
 10
35.31442436298367
 20
-6.350000000000012
 30
0.0
 11
39.18717434936325
 21
-6.350000000000012
 31
0.0
1001
PE_URL
1000

  0
LINE
  5
99
330
1F
100
AcDbEntity
  8
0
  6
Continuous
 62
     1
370
    15
100
AcDbLine
 10
73.73813652849138
 20
6.349999999999998
 30
0.0
 11
69.86689223122697
 21
6.349999999999998
 31
0.0
1001
PE_URL
1000

  0
LINE
  5
9A
330
1F
100
AcDbEntity
  8
0
  6
Continuous
 62
     1
370
    15
100
AcDbLine
 10
52.58928937439316
 20
-6.350000000000012
 30
0.0
 11
56.46182091843612
 21
-6.350000000000012
 31
0.0
1001
PE_URL
1000

  0
LINE
  5
9B
330
1F
100
AcDbEntity
  8
0
  6
Continuous
 62
     1
370
    15
100
AcDbLine
 10
21.9089869670701
 20
6.349999999999998
 30
0.0
 11
18.03778071573685
 21
6.349999999999998
 31
0.0
1001
PE_URL
1000

  0
LINE
  5
9C
330
1F
100
AcDbEntity
  8
0
  6
Continuous
 62
     1
370
    15
100
AcDbLine
 10
69.86689223122694
 20
-6.350000000000012
 30
0.0
 11
73.73813652849145
 21
-6.350000000000012
 31
0.0
1001
PE_URL
1000

  0
LINE
  5
9D
330
1F
100
AcDbEntity
  8
0
  6
Continuous
 62
     1
370
    15
100
AcDbLine
 10
39.1871743493633
 20
6.349999999999998
 30
0.0
 11
35.31442436298356
 21
6.349999999999998
 31
0.0
1001
PE_URL
1000

  0
LINE
  5
9E
330
1F
100
AcDbEntity
  8
외형선
  6
Continuous
370
    15
100
AcDbLine
 10
-39.53000000000046
 20
-6.350000000000007
 30
0.0
 11
9.50014432417551
 21
-6.350000000000007
 31
0.0
  0
LINE
  5
9F
330
1F
100
AcDbEntity
  8
외형선
  6
Continuous
370
    15
100
AcDbLine
 10
9.50014432417551
 20
6.349999999999993
 30
0.0
 11
-11.06612500000043
 21
6.349999999999993
 31
0.0
  0
LINE
  5
A0
330
1F
100
AcDbEntity
  8
외형선
  6
Continuous
370
    15
100
AcDbLine
 10
-39.53000000000046
 20
6.349999999999993
 30
0.0
 11
-40.80000000000046
 21
5.079999999999997
 31
0.0
  0
LINE
  5
A1
330
1F
100
AcDbEntity
  8
외형선
  6
Continuous
370
    15
100
AcDbLine
 10
-40.80000000000046
 20
-5.080000000000009
 30
0.0
 11
-39.53000000000046
 21
-6.350000000000007
 31
0.0
  0
SPLINE
  5
A2
330
1F
100
AcDbEntity
  8
0
  6
Continuous
 62
     1
370
    15
100
AcDbSpline
210
0.0
220
0.0
230
1.0
 70
     8
 71
     3
 72
    27
 73
    23
 74
     0
 42
0.000000001
 43
0.00000001
 40
0.0
 40
0.0
 40
0.0
 40
0.0
 40
0.0508084640545358
 40
0.1073769952187379
 40
0.1639457925434647
 40
0.2160108619440512
 40
0.2680706281160313
 40
0.320124906559219
 40
0.3721746376614926
 40
0.4242207661563324
 40
0.4753336988288484
 40
0.526444350124956
 40
0.5775545629058534
 40
0.6286661806847232
 40
0.6807106212452619
 40
0.7327581027755136
 40
0.7848095721615205
 40
0.8368659724747053
 40
0.8889282420777904
 40
0.9400667647509109
 40
0.9911962325079727
 40
1.0
 40
1.0
 40
1.0
 40
1.0
 10
21.90898696707009
 20
6.336955369600689
 30
0.0
 10
22.60783439090228
 20
6.319993539103189
 30
0.0
 10
24.08475635427654
 20
6.284146944916122
 30
0.0
 10
26.33975638717461
 20
5.88143508585974
 30
0.0
 10
28.61204157777879
 20
5.243909503933791
 30
0.0
 10
30.8223186204536
 20
4.40443083917301
 30
0.0
 10
32.97044361480773
 20
3.422633991816186
 30
0.0
 10
35.1183148110831
 20
2.310347660186935
 30
0.0
 10
37.26595508993388
 20
1.11040030341253
 30
0.0
 10
39.40063970502989
 20
-0.1243393399539758
 30
0.0
 10
41.52231064476954
 20
-1.346749777626466
 30
0.0
 10
43.63110658612552
 20
-2.512406336666923
 30
0.0
 10
45.73988129985986
 20
-3.585950804169064
 30
0.0
 10
47.86149254481483
 20
-4.533748180963133
 30
0.0
 10
49.9960919456768
 20
-5.317728988309259
 30
0.0
 10
52.14362058689546
 20
-5.904235356923088
 30
0.0
 10
54.29135302557662
 20
-6.266682834078086
 30
0.0
 10
56.43932602858438
 20
-6.389693010500642
 30
0.0
 10
58.5747978754831
 20
-6.27515087515911
 30
0.0
 10
60.69754905140385
 20
-5.910712577704631
 30
0.0
 10
62.22523243393256
 20
-5.537252941661222
 30
0.0
 10
63.04952791142759
 20
-5.236300865625461
 30
0.0
 10
63.17061107502514
 20
-5.192093138599709
 30
0.0
1001
PE_URL
1000

  0
SPLINE
  5
A3
330
1F
100
AcDbEntity
  8
0
  6
Continuous
 62
     1
370
    15
100
AcDbSpline
210
0.0
220
0.0
230
1.0
 70
     8
 71
     3
 72
    28
 73
    24
 74
     0
 42
0.000000001
 43
0.00000001
 40
0.0
 40
0.0
 40
0.0
 40
0.0
 40
0.0177509456405263
 40
0.0688700123274674
 40
0.1209222835547943
 40
0.1729779758025369
 40
0.2250380346591304
 40
0.2771034015387557
 40
0.3291747099950332
 40
0.3803169093057087
 40
0.4314503765792375
 40
0.4825769308746208
 40
0.5336984014886604
 40
0.5857474771650826
 40
0.6377954133271089
 40
0.6898431629947378
 40
0.7418916793669299
 40
0.7939419149069904
 40
0.8450656400631853
 40
0.8961953437101274
 40
0.9473328504779048
 40
0.9984788536364302
 40
0.9999999999999999
 40
0.9999999999999999
 40
0.9999999999999999
 40
0.9999999999999999
 10
69.86689223122693
 20
-6.323561243128678
 30
0.0
 10
69.62279564238287
 20
-6.330725194394095
 30
0.0
 10
68.67575116243121
 20
-6.358519849504534
 30
0.0
 10
67.01292560994621
 20
-6.165636602609215
 30
0.0
 10
64.87827049399648
 20
-5.746794503967275
 30
0.0
 10
62.7306685029165
 20
-5.090773422469422
 30
0.0
 10
60.58284305308425
 20
-4.245584319218828
 30
0.0
 10
58.43476681385614
 20
-3.237809544138818
 30
0.0
 10
56.29923882337535
 20
-2.113995732612461
 30
0.0
 10
54.1765684953622
 20
-0.9184519556567315
 30
0.0
 10
52.06697667640828
 20
0.3036024622407911
 30
0.0
 10
49.95771793288344
 20
1.51444916932228
 30
0.0
 10
47.83593258578852
 20
2.676740518656238
 30
0.0
 10
45.70142274096808
 20
3.746024866761719
 30
0.0
 10
43.55420414706855
 20
4.679334239073988
 30
0.0
 10
41.40698833702972
 20
5.434847149231885
 30
0.0
 10
39.25974065964721
 20
5.983697962120194
 30
0.0
 10
37.12516781498709
 20
6.303700434661771
 30
0.0
 10
35.00327273017066
 20
6.385412442792534
 30
0.0
 10
32.89385802491451
 20
6.238846132087328
 30
0.0
 10
30.78408296554173
 20
5.839779662854065
 30
0.0
 10
29.35646963733949
 20
5.484755567373455
 30
0.0
 10
28.63214979805428
 20
5.21182501928949
 30
0.0
 10
28.61122980334053
 20
5.203942167939221
 30
0.0
1001
PE_URL
1000

  0
LINE
  5
A4
330
1F
100
AcDbEntity
  8
0
  6
Continuous
 62
     1
370
    15
100
AcDbLine
 10
86.19999999999955
 20
-5.751076567773994
 30
0.0
 11
86.19999999999955
 21
0.5440765677740562
 31
0.0
1001
PE_URL
1000

  0
SPLINE
  5
A5
330
1F
100
AcDbEntity
  8
0
  6
Continuous
 62
     1
370
    15
100
AcDbSpline
210
0.0
220
0.0
230
1.0
 70
     8
 71
     3
 72
    15
 73
    11
 74
     0
 42
0.000000001
 43
0.00000001
 40
0.0
 40
0.0
 40
0.0
 40
0.0
 40
0.1254231655268179
 40
0.250845804315298
 40
0.3762679003052044
 40
0.5016894374567201
 40
0.6271103997510313
 40
0.7525307715149498
 40
0.8779511706216994
 40
1.0
 40
1.0
 40
1.0
 40
1.0
 10
9.999999999999531
 20
-2.976807371611861
 30
0.0
 10
10.77809529184669
 20
-3.360676069216081
 30
0.0
 10
12.33428260778245
 20
-4.128411852295221
 30
0.0
 10
14.66855611144286
 20
-5.058923428638236
 30
0.0
 10
17.00281764394916
 20
-5.772083984658481
 30
0.0
 10
19.33706661937453
 20
-6.22329056396412
 30
0.0
 10
21.67130293504208
 20
-6.397190995298443
 30
0.0
 10
24.00552938536481
 20
-6.279000022719918
 30
0.0
 10
26.31883605290243
 20
-5.900477900726015
 30
0.0
 10
27.85407066656419
 20
-5.434002293548096
 30
0.0
 10
28.61122980334061
 20
-5.203942167939241
 30
0.0
1001
PE_URL
1000

  0
SPLINE
  5
A6
330
1F
100
AcDbEntity
  8
0
  6
Continuous
 62
     1
370
    15
100
AcDbSpline
210
0.0
220
0.0
230
1.0
 70
     8
 71
     3
 72
    21
 73
    17
 74
     0
 42
0.000000001
 43
0.00000001
 40
0.0
 40
0.0
 40
0.0
 40
0.0
 40
0.0714763449058902
 40
0.1424298063268299
 40
0.213370704271086
 40
0.2843011990278114
 40
0.3552238242148876
 40
0.4274323268726267
 40
0.4996387195581863
 40
0.5718443239376243
 40
0.6440504624334201
 40
0.716258456955521
 40
0.7871800944289272
 40
0.8581092094565086
 40
0.9290483377006618
 40
1.0
 40
1.0
 40
1.0
 40
1.0
 10
56.4618209184361
 20
6.348745333607944
 30
0.0
 10
57.17038069941714
 20
6.326400572423674
 30
0.0
 10
58.58231680931458
 20
6.28187451261906
 30
0.0
 10
60.69755291295887
 20
5.918423389844616
 30
0.0
 10
62.80726573547751
 20
5.356119670036698
 30
0.0
 10
64.9166256621998
 20
4.592810467780605
 30
0.0
 10
67.0384805984986
 20
3.656730560321009
 30
0.0
 10
69.17302990083712
 20
2.577560172378432
 30
0.0
 10
71.32026563225996
 20
1.39406967110611
 30
0.0
 10
73.46747948738782
 20
0.1576028975572222
 30
0.0
 10
75.61470604283687
 20
-1.084930935203
 30
0.0
 10
77.74923541676208
 20
-2.278798246503522
 30
0.0
 10
79.8710558218615
 20
-3.381574164164684
 30
0.0
 10
81.98036603815244
 20
-4.349696148872239
 30
0.0
 10
84.09002139191377
 20
-5.17351125667399
 30
0.0
 10
85.49663237920693
 20
-5.558543460014519
 30
0.0
 10
86.19999999999958
 20
-5.751076567773994
 30
0.0
1001
PE_URL
1000

  0
SPLINE
  5
A7
330
1F
100
AcDbEntity
  8
외형선
  6
Continuous
370
    15
100
AcDbSpline
210
0.0
220
0.0
230
1.0
 70
    24
 71
     3
 72
    22
 73
    18
 74
     0
 42
0.000000001
 43
0.00000001
 40
0.0
 40
0.0
 40
0.0
 40
0.0
 40
0.1249999999999999
 40
0.1249999999999999
 40
0.25
 40
0.25
 40
0.3750000000000001
 40
0.3750000000000001
 40
0.5000000000000001
 40
0.5000000000000001
 40
0.6250000000000001
 40
0.6250000000000001
 40
0.7500000000000001
 40
0.7500000000000001
 40
0.8750000000000001
 40
0.8750000000000001
 40
1.0
 40
1.0
 40
1.0
 40
1.0
 10
9.999999999999524
 20
4.238651299789421
 30
0.0
 10
9.999999999999538
 20
4.111864331500177
 30
0.0
 10
9.999999999999545
 20
3.964584302469939
 30
0.0
 10
9.99999999999951
 20
3.661290793520596
 30
0.0
 10
9.999999999999524
 20
3.474545878746278
 30
0.0
 10
9.999999999999538
 20
3.007344602993194
 30
0.0
 10
9.99999999999956
 20
2.726206831225731
 30
0.0
 10
9.999999999999545
 20
2.057251830810535
 30
0.0
 10
9.99999999999951
 20
1.668432645166344
 30
0.0
 10
9.999999999999517
 20
0.8087191195992512
 30
0.0
 10
9.999999999999517
 20
0.3377420832891943
 30
0.0
 10
9.999999999999524
 20
-0.6017479548112719
 30
0.0
 10
9.999999999999517
 20
-1.068057775402831
 30
0.0
 10
9.99999999999951
 20
-1.882459064957692
 30
0.0
 10
9.999999999999531
 20
-2.228165526469006
 30
0.0
 10
9.999999999999545
 20
-2.73523641937708
 30
0.0
 10
9.999999999999531
 20
-2.897066818023777
 30
0.0
 10
9.999999999999524
 20
-2.976807371611861
 30
0.0
  0
SPLINE
  5
A8
330
1F
100
AcDbEntity
  8
0
  6
Continuous
 62
     1
370
    15
100
AcDbSpline
210
0.0
220
0.0
230
1.0
 70
     8
 71
     3
 72
    18
 73
    14
 74
     0
 42
0.000000001
 43
0.00000001
 40
0.0
 40
0.0
 40
0.0
 40
0.0
 40
0.0932795270501211
 40
0.1865482163121946
 40
0.2798077471989651
 40
0.3730598078655781
 40
0.4663060936107523
 40
0.5578808552655258
 40
0.6494525902968127
 40
0.7410246013760728
 40
0.8326001907643302
 40
0.9258475390743414
 40
1.0
 40
1.0
 40
1.0
 40
1.0
 10
86.19999999999958
 20
0.5440765677740554
 30
0.0
 10
85.48389138912137
 20
0.9538992488461667
 30
0.0
 10
84.05175736925922
 20
1.773496995275612
 30
0.0
 10
81.90373386491785
 20
2.929984183967217
 30
0.0
 10
79.75595767867227
 20
3.97653073708836
 30
0.0
 10
77.60839478554863
 20
4.871518703045453
 30
0.0
 10
75.47376960624563
 20
5.577176822187523
 30
0.0
 10
73.35214119155972
 20
6.070981467718399
 30
0.0
 10
71.24336179386381
 20
6.338819821035029
 30
0.0
 10
69.13457519377269
 20
6.375849958390674
 30
0.0
 10
67.01292503210146
 20
6.17199181625443
 30
0.0
 10
65.02490165129153
 20
5.786690072861786
 30
0.0
 10
63.73984691540697
 20
5.374624339424006
 30
0.0
 10
63.17061107502521
 20
5.192093138599695
 30
0.0
1001
PE_URL
1000

  0
SPLINE
  5
A9
330
1F
100
AcDbEntity
  8
0
  6
Continuous
 62
     1
370
    15
100
AcDbSpline
210
0.0
220
0.0
230
1.0
 70
     8
 71
     3
 72
    19
 73
    15
 74
     0
 42
0.000000001
 43
0.00000001
 40
0.0
 40
0.0
 40
0.0
 40
0.0
 40
0.0122896862625631
 40
0.095621923589488
 40
0.178966878602434
 40
0.2623256812068921
 40
0.3545345808450692
 40
0.4467430466333096
 40
0.5389514923192341
 40
0.6311603721602241
 40
0.7233696746334267
 40
0.8155793879618899
 40
0.907789500353217
 40
1.0
 40
1.0
 40
1.0
 40
1.0
 10
35.31442436298367
 20
-6.335345741623327
 30
0.0
 10
35.21073074809732
 20
-6.340039431359981
 30
0.0
 10
34.40392553700066
 20
-6.376559455692787
 30
0.0
 10
32.89385648635625
 20
-6.220991515977257
 30
0.0
 10
30.78408270727927
 20
-5.858298592884417
 30
0.0
 10
28.5993078364837
 20
-5.237589089694131
 30
0.0
 10
26.33975683525193
 20
-4.383912739811603
 30
0.0
 10
24.00552916812822
 20
-3.303537603635204
 30
0.0
 10
21.67130299325064
 20
-2.07531030747765
 30
0.0
 10
19.33706660377786
 20
-0.754085518651914
 30
0.0
 10
17.00281764812684
 20
0.6019300526750642
 30
0.0
 10
14.66855611032876
 20
1.927284447183286
 30
0.0
 10
12.33428260806096
 20
3.17980390827994
 30
0.0
 10
10.77809529193953
 20
3.885701675193334
 30
0.0
 10
9.999999999999531
 20
4.238651299789424
 30
0.0
1001
PE_URL
1000

  0
LINE
  5
AA
330
1F
100
AcDbEntity
  8
0
  6
Continuous
 62
     1
370
    15
100
AcDbLine
 10
86.19999999999955
 20
2.676919815606503
 30
0.0
 11
86.19999999999955
 21
6.32664845620485
 31
0.0
1001
PE_URL
1000

  0
SPLINE
  5
AB
330
1F
100
AcDbEntity
  8
0
  6
Continuous
 62
     1
370
    15
100
AcDbSpline
210
0.0
220
0.0
230
1.0
 70
     8
 71
     3
 72
    24
 73
    20
 74
     0
 42
0.000000001
 43
0.00000001
 40
0.0
 40
0.0
 40
0.0
 40
0.0
 40
0.0650354060836027
 40
0.1300705390387003
 40
0.1951053905376131
 40
0.260139952263249
 40
0.3251742159094068
 40
0.3902081733491014
 40
0.4552421449668159
 40
0.5202764225757883
 40
0.5801329925801164
 40
0.639983465731449
 40
0.6998276299192789
 40
0.7596665662598612
 40
0.8195013608653695
 40
0.8782633075574926
 40
0.9370226314668508
 40
0.9957814512375092
 40
1.0
 40
1.0
 40
1.0
 40
1.0
 10
9.999999999999531
 20
5.609021115338841
 30
0.0
 10
10.77809529189237
 20
5.374017700521454
 30
0.0
 10
12.33428260791946
 20
4.90401185782803
 30
0.0
 10
14.66855611089487
 20
3.911472614785493
 30
0.0
 10
17.00281764600414
 20
2.761470133643839
 30
0.0
 10
19.33706661170255
 20
1.482698467307554
 30
0.0
 10
21.67130296367484
 20
0.1386899075793036
 30
0.0
 10
24.00552927850621
 20
-1.211900488068996
 30
0.0
 10
26.33975642331481
 20
-2.507975818138275
 30
0.0
 10
28.61204156873869
 20
-3.660239636248426
 30
0.0
 10
30.82231862350099
 20
-4.629978173359191
 30
0.0
 10
32.9704436113192
 20
-5.396725234869162
 30
0.0
 10
35.11831482198853
 20
-5.958159278931641
 30
0.0
 10
37.26595504980516
 20
-6.293519069086235
 30
0.0
 10
39.40063985349564
 20
-6.387631387339948
 30
0.0
 10
41.52231010178399
 20
-6.248831955576735
 30
0.0
 10
43.63110861367927
 20
-5.86181783887306
 30
0.0
 10
45.08740632493546
 20
-5.497622013549439
 30
0.0
 10
45.84079233352163
 20
-5.218507008120396
 30
0.0
 10
45.89125801172041
 20
-5.199810446352727
 30
0.0
1001
PE_URL
1000

  0
SPLINE
  5
AC
330
1F
100
AcDbEntity
  8
0
  6
Continuous
 62
     1
370
    15
100
AcDbSpline
210
0.0
220
0.0
230
1.0
 70
     8
 71
     3
 72
    13
 73
     9
 74
     0
 42
0.000000001
 43
0.00000001
 40
0.0
 40
0.0
 40
0.0
 40
0.0
 40
0.15058768580668
 40
0.3228996380839149
 40
0.4921419206403222
 40
0.6614020470929173
 40
0.8306860683636345
 40
1.0
 40
1.0
 40
1.0
 40
1.0
 10
73.73813652849138
 20
6.33669384569558
 30
0.0
 10
74.36365390977114
 20
6.324265165343984
 30
0.0
 10
75.7049278323263
 20
6.297614803025894
 30
0.0
 10
77.74923547266086
 20
5.965622725828224
 30
0.0
 10
79.87105580700086
 20
5.422532428535158
 30
0.0
 10
81.98036604211597
 20
4.675932054742752
 30
0.0
 10
84.09002139092263
 20
3.766508458246773
 30
0.0
 10
85.49663237887653
 20
3.050283974738801
 30
0.0
 10
86.19999999999958
 20
2.69214009880628
 30
0.0
1001
PE_URL
1000

  0
SPLINE
  5
AD
330
1F
100
AcDbEntity
  8
0
  6
Continuous
 62
     1
370
    15
100
AcDbSpline
210
0.0
220
0.0
230
1.0
 70
     8
 71
     3
 72
    10
 73
     6
 74
     0
 42
0.000000001
 43
0.00000001
 40
0.0
 40
0.0
 40
0.0
 40
0.0
 40
0.373324828751656
 40
0.7466062823330585
 40
1.0
 40
1.0
 40
1.0
 40
1.0
 10
86.19999999999955
 20
6.32664845620485
 30
0.0
 10
85.48389167849572
 20
6.266502669610544
 30
0.0
 10
84.0517582373487
 20
6.146218084528622
 30
0.0
 10
82.13362119352367
 20
5.741933840288596
 30
0.0
 10
80.93159924992948
 20
5.346586462914606
 30
0.0
 10
80.44556625711468
 20
5.186729257269912
 30
0.0
1001
PE_URL
1000

  0
SPLINE
  5
AE
330
1F
100
AcDbEntity
  8
0
  6
Continuous
 62
     1
370
    15
100
AcDbSpline
210
0.0
220
0.0
230
1.0
 70
     8
 71
     3
 72
    27
 73
    23
 74
     0
 42
0.000000001
 43
0.00000001
 40
0.0
 40
0.0
 40
0.0
 40
0.0
 40
0.0126631215394545
 40
0.0637928706534969
 40
0.1149175357685244
 40
0.1669698639105284
 40
0.21902105246693
 40
0.2710720545172805
 40
0.3231238233201044
 40
0.3751773113982247
 40
0.4263042311962903
 40
0.4774371298586897
 40
0.5285778321295291
 40
0.579727031322043
 40
0.6363066753135149
 40
0.6928860530934274
 40
0.7494654185385017
 40
0.8060450503823632
 40
0.8626249415545565
 40
0.9192050848287103
 40
0.9757854729689764
 40
1.0
 40
1.0
 40
1.0
 40
1.0
 10
52.58928937439318
 20
-6.328271265350939
 30
0.0
 10
52.41515571531274
 20
-6.334812544120981
 30
0.0
 10
51.53792446111299
 20
-6.36776547355355
 30
0.0
 10
49.95772109679914
 20
-6.19525754683321
 30
0.0
 10
47.83593172089587
 20
-5.80527057722905
 30
0.0
 10
45.70142297453681
 20
-5.176539791524327
 30
0.0
 10
43.55420408423043
 20
-4.352467568599872
 30
0.0
 10
41.4069883548169
 20
-3.36161148721427
 30
0.0
 10
39.2597406513372
 20
-2.243367122337149
 30
0.0
 10
37.12516783029871
 20
-1.046911819307434
 30
0.0
 10
35.00327267816049
 20
0.1810901740496803
 30
0.0
 10
32.89385821808455
 20
1.395095169266243
 30
0.0
 10
30.78408224471156
 20
2.558044139898005
 30
0.0
 10
28.59930797515315
 20
3.664861868306282
 30
0.0
 10
26.33975679658788
 20
4.660134498224876
 30
0.0
 10
24.00552917825484
 20
5.478879718476298
 30
0.0
 10
21.67130299140812
 20
6.052070151974133
 30
0.0
 10
19.3370666010212
 20
6.35265729444993
 30
0.0
 10
17.00281766099611
 20
6.37184038450447
 30
0.0
 10
14.66855606160815
 20
6.091327240951031
 30
0.0
 10
12.7793800218074
 20
5.684568956407411
 30
0.0
 10
11.66829052755578
 20
5.295055827236213
 30
0.0
 10
11.33529300493441
 20
5.178317339730429
 30
0.0
1001
PE_URL
1000

  0
LINE
  5
AF
330
1F
100
AcDbEntity
  8
0
  6
Continuous
 62
     1
370
    15
100
AcDbLine
 10
9.999999999999531
 20
-5.609021115338855
 30
0.0
 11
11.33529300493442
 21
-5.178317339730445
 31
0.0
1001
PE_URL
1000

  0
SPLINE
  5
B0
330
1F
100
AcDbEntity
  8
0
  6
Continuous
 62
     1
370
    15
100
AcDbSpline
210
0.0
220
0.0
230
1.0
 70
     8
 71
     3
 72
    28
 73
    24
 74
     0
 42
0.000000001
 43
0.00000001
 40
0.0
 40
0.0
 40
0.0
 40
0.0
 40
0.0054845325128142
 40
0.0566000858829152
 40
0.1077133577596356
 40
0.1588261910986619
 40
0.2099404295076988
 40
0.2619875385267383
 40
0.3140376886714095
 40
0.366091826876304
 40
0.4181508962611983
 40
0.4702158352369274
 40
0.5213569799197011
 40
0.5724890692221463
 40
0.6236136602164327
 40
0.6747325790589739
 40
0.7267783201375911
 40
0.7788225404110166
 40
0.8308661924968356
 40
0.8829102295578394
 40
0.9349556043874018
 40
0.9860738113153064
 40
1.0
 40
1.0
 40
1.0
 40
1.0
 10
39.1871743493633
 20
6.33861450947035
 30
0.0
 10
39.26260231192532
 20
6.342326787159234
 30
0.0
 10
40.04101490206118
 20
6.380637296855577
 30
0.0
 10
41.52230641691474
 20
6.230308176138674
 30
0.0
 10
43.63110771897284
 20
5.878384966334002
 30
0.0
 10
45.73988099619314
 20
5.286705222414298
 30
0.0
 10
47.86149262894956
 20
4.502971522957909
 30
0.0
 10
49.99609191871731
 20
3.543948849548673
 30
0.0
 10
52.14362060992806
 20
2.444933227566692
 30
0.0
 10
54.29135296040045
 20
1.252827401204436
 30
0.0
 10
56.43932626628945
 20
0.0130936007683394
 30
0.0
 10
58.5747969963855
 20
-1.219833339817526
 30
0.0
 10
60.69755226686679
 20
-2.399547736006543
 30
0.0
 10
62.80726590828704
 20
-3.484288386806616
 30
0.0
 10
64.91662561691085
 20
-4.441172208496264
 30
0.0
 10
67.0384806072012
 20
-5.240025764182143
 30
0.0
 10
69.17302991251519
 20
-5.847542088769622
 30
0.0
 10
71.32026557686542
 20
-6.236744348586328
 30
0.0
 10
73.46747969728665
 20
-6.387866444667452
 30
0.0
 10
75.6147052586203
 20
-6.300201969328992
 30
0.0
 10
77.7492383217701
 20
-5.960317597839927
 30
0.0
 10
79.35949448441585
 20
-5.576739403273709
 30
0.0
 10
80.25404126630563
 20
-5.255506194030922
 30
0.0
 10
80.44556625711468
 20
-5.186729257269926
 30
0.0
1001
PE_URL
1000

  0
LINE
  5
B1
330
1F
100
AcDbEntity
  8
외형선
  6
Continuous
370
    15
100
AcDbLine
 10
9.999999999999567
 20
-4.815797788743746
 30
0.0
 11
9.999999999999531
 21
-5.609021115338855
 31
0.0
  0
SPLINE
  5
B2
330
1F
100
AcDbEntity
  8
0
  6
Continuous
 62
     1
370
    15
100
AcDbSpline
210
0.0
220
0.0
230
1.0
 70
     8
 71
     3
 72
    26
 73
    22
 74
     0
 42
0.000000001
 43
0.00000001
 40
0.0
 40
0.0
 40
0.0
 40
0.0
 40
0.0532934583448151
 40
0.1065807247284985
 40
0.1598627586511249
 40
0.2131405246075707
 40
0.2664149911740552
 40
0.3187344646965006
 40
0.3710522090160029
 40
0.4233701110501895
 40
0.4756900574821932
 40
0.5289651311245996
 40
0.5822437061534063
 40
0.6355267503706387
 40
0.6888152273060071
 40
0.7421097853964572
 40
0.7944534078795521
 40
0.8467880931940842
 40
0.8991157031320552
 40
0.9514381099637723
 40
1.0
 40
1.0
 40
1.0
 40
1.0
 10
86.19999999999955
 20
-6.326648456204865
 30
0.0
 10
85.48389138912646
 20
-6.267943630131056
 30
0.0
 10
84.05175736927447
 20
-6.150540798670487
 30
0.0
 10
81.90373386485678
 20
-5.676192130657395
 30
0.0
 10
79.7559576789012
 20
-5.003372607998628
 30
0.0
 10
77.60839478469417
 20
-4.135782110586513
 30
0.0
 10
75.47376960940998
 20
-3.118374152419633
 30
0.0
 10
73.35214117998571
 20
-1.990924056549629
 30
0.0
 10
71.24336183708313
 20
-0.7973796434806617
 30
0.0
 10
69.1345750324657
 20
0.4254228567014735
 30
0.0
 10
67.01292563878046
 20
1.639957000563399
 30
0.0
 10
64.8782704861884
 20
2.800692717757318
 30
0.0
 10
62.73066850509251
 20
3.861974822711802
 30
0.0
 10
60.58284305218915
 20
4.77650645041893
 30
0.0
 10
58.43476681526049
 20
5.50948571015233
 30
0.0
 10
56.29923881868923
 20
6.029997365742624
 30
0.0
 10
54.17656851236894
 20
6.322480306238425
 30
0.0
 10
52.0669766129521
 20
6.382601850164582
 30
0.0
 10
49.95771816966145
 20
6.204072906004599
 30
0.0
 10
47.89921256239884
 20
5.824578002877566
 30
0.0
 10
46.54373413110321
 20
5.40282595318272
 30
0.0
 10
45.89125801172041
 20
5.199810446352714
 30
0.0
1001
PE_URL
1000

  0
SPLINE
  5
B3
330
1F
100
AcDbEntity
  8
0
  6
Continuous
 62
     1
370
    15
100
AcDbSpline
210
0.0
220
0.0
230
1.0
 70
     8
 71
     3
 72
    11
 73
     7
 74
     0
 42
0.000000001
 43
0.00000001
 40
0.0
 40
0.0
 40
0.0
 40
0.0
 40
0.1287621016908348
 40
0.419173490021177
 40
0.7095861351865768
 40
1.0
 40
1.0
 40
1.0
 40
1.0
 10
18.03778071573687
 20
-6.314737338391868
 30
0.0
 10
17.69279410270623
 20
-6.322818179161048
 30
0.0
 10
16.56972108125265
 20
-6.34912463255877
 30
0.0
 10
14.66855603741846
 20
-6.087087753712302
 30
0.0
 10
12.33428262628865
 20
-5.568714872164959
 30
0.0
 10
10.77809529801543
 20
-5.008404439888658
 30
0.0
 10
9.999999999999531
 20
-4.72824863546683
 30
0.0
1001
PE_URL
1000

  0
LINE
  5
B4
330
1F
100
AcDbEntity
  8
0
  6
Continuous
 62
     1
370
    15
100
AcDbLine
 10
86.19999999999955
 20
-6.326648456204865
 30
0.0
 11
86.19999999999955
 21
-5.751076567773994
 31
0.0
1001
PE_URL
1000

  0
LINE
  5
B5
330
1F
100
AcDbEntity
  8
외형선
  6
Continuous
370
    15
100
AcDbLine
 10
9.999999999999524
 20
-4.728248635466823
 30
0.0
 11
9.999999999999531
 21
-2.976807371611863
 31
0.0
  0
LINE
  5
B6
330
1F
100
AcDbEntity
  8
외형선
  6
Continuous
370
    15
100
AcDbLine
 10
9.999999999999524
 20
4.238651299789421
 30
0.0
 11
9.999999999999531
 21
5.609021115338841
 31
0.0
  0
LINE
  5
B7
330
1F
100
AcDbEntity
  8
0
  6
Continuous
 62
     1
370
    15
100
AcDbLine
 10
86.19999999999955
 20
0.5440765677740561
 30
0.0
 11
86.19999999999955
 21
2.69214009880628
 31
0.0
1001
PE_URL
1000

  0
LINE
  5
B8
330
1F
100
AcDbEntity
  8
외형선
  6
Continuous
370
    15
100
AcDbLine
 10
9.500144324175517
 20
-2.718848749673144
 30
0.0
 11
9.50014432417551
 21
4.449202168880968
 31
0.0
  0
SPLINE
  5
B9
330
1F
100
AcDbEntity
  8
외형선
  6
Continuous
370
    15
100
AcDbSpline
210
0.0
220
0.0
230
1.0
 70
     8
 71
     3
 72
     8
 73
     4
 74
     0
 42
0.000000001
 43
0.00000001
 40
0.0
 40
0.0
 40
0.0
 40
0.0
 40
1.0
 40
1.0
 40
1.0
 40
1.0
 10
9.999999999999538
 20
-2.976807371611868
 30
0.0
 10
9.833795272720398
 20
-2.891872747146707
 30
0.0
 10
9.667091073180273
 20
-2.805828742448299
 30
0.0
 10
9.500144324175496
 20
-2.718804170772703
 30
0.0
  0
SPLINE
  5
BA
330
1F
100
AcDbEntity
  8
외형선
  6
Continuous
370
    15
100
AcDbSpline
210
0.0
220
0.0
230
1.0
 70
     8
 71
     3
 72
     8
 73
     4
 74
     0
 42
0.000000001
 43
0.00000001
 40
0.0
 40
0.0
 40
0.0
 40
0.0
 40
1.0
 40
1.0
 40
1.0
 40
1.0
 10
9.999999999999545
 20
-4.728248635466825
 30
0.0
 10
9.833795272720408
 20
-4.66406484136381
 30
0.0
 10
9.667091073180284
 20
-4.598189726443707
 30
0.0
 10
9.500144324175503
 20
-4.530718155785204
 30
0.0
  0
LINE
  5
BB
330
1F
100
AcDbEntity
  8
외형선
  6
Continuous
370
    15
100
AcDbLine
 10
9.50014432417551
 20
-6.350000000000007
 30
0.0
 11
9.50014432417551
 21
-4.530684281697999
 31
0.0
  0
SPLINE
  5
BC
330
1F
100
AcDbEntity
  8
외형선
  6
Continuous
370
    15
100
AcDbSpline
210
0.0
220
0.0
230
1.0
 70
     8
 71
     3
 72
     8
 73
     4
 74
     0
 42
0.000000001
 43
0.00000001
 40
0.0
 40
0.0
 40
0.0
 40
0.0
 40
1.0
 40
1.0
 40
1.0
 40
1.0
 10
9.999999999999538
 20
-5.609021115338846
 30
0.0
 10
9.833795272720398
 20
-5.65409743275929
 30
0.0
 10
9.667091073180273
 20
-5.697288680504505
 30
0.0
 10
9.500144324175496
 20
-5.738519310849165
 30
0.0
  0
LINE
  5
BD
330
1F
100
AcDbEntity
  8
외형선
  6
Continuous
370
    15
100
AcDbLine
 10
9.500144324175517
 20
5.73849818997971
 30
0.0
 11
9.50014432417551
 21
6.349999999999993
 31
0.0
  0
SPLINE
  5
BE
330
1F
100
AcDbEntity
  8
외형선
  6
Continuous
370
    15
100
AcDbSpline
210
0.0
220
0.0
230
1.0
 70
     8
 71
     3
 72
     8
 73
     4
 74
     0
 42
0.000000001
 43
0.00000001
 40
0.0
 40
0.0
 40
0.0
 40
0.0
 40
1.0
 40
1.0
 40
1.0
 40
1.0
 10
9.999999999999538
 20
5.609021115338832
 30
0.0
 10
9.833795272720398
 20
5.654097432759277
 30
0.0
 10
9.667091073180273
 20
5.69728868050449
 30
0.0
 10
9.500144324175496
 20
5.738519310849153
 30
0.0
  0
SPLINE
  5
BF
330
1F
100
AcDbEntity
  8
외형선
  6
Continuous
370
    15
100
AcDbSpline
210
0.0
220
0.0
230
1.0
 70
     8
 71
     3
 72
     8
 73
     4
 74
     0
 42
0.000000001
 43
0.00000001
 40
0.0
 40
0.0
 40
0.0
 40
0.0
 40
1.0
 40
1.0
 40
1.0
 40
1.0
 10
9.999999999999545
 20
4.238651299789421
 30
0.0
 10
9.833795272720408
 20
4.310248823487994
 30
0.0
 10
9.667091073180284
 20
4.380459391500157
 30
0.0
 10
9.500144324175503
 20
4.449167674165443
 30
0.0
  0
LINE
  5
C0
330
1F
100
AcDbEntity
  8
외형선
  6
Continuous
370
    15
100
AcDbLine
 10
-39.53000000000046
 20
-0.0000000000000069
 30
0.0
 11
-39.53000000000046
 21
6.349999999999993
 31
0.0
  0
LINE
  5
C1
330
1F
100
AcDbEntity
  8
외형선
  6
Continuous
370
    15
100
AcDbLine
 10
-39.53000000000046
 20
-6.350000000000007
 30
0.0
 11
-39.53000000000046
 21
-0.0000000000000069
 31
0.0
  0
LINE
  5
C2
330
1F
100
AcDbEntity
  8
외형선
  6
Continuous
370
    15
100
AcDbLine
 10
-40.80000000000046
 20
-0.0000000000000069
 30
0.0
 11
-40.80000000000046
 21
5.079999999999997
 31
0.0
  0
LINE
  5
C3
330
1F
100
AcDbEntity
  8
외형선
  6
Continuous
370
    15
100
AcDbLine
 10
-40.80000000000046
 20
-5.080000000000009
 30
0.0
 11
-40.80000000000046
 21
-0.0000000000000069
 31
0.0
  0
SPLINE
  5
C4
330
1F
100
AcDbEntity
  8
외형선
  6
Continuous
370
    15
100
AcDbSpline
210
0.0
220
0.0
230
1.0
 70
    24
 71
     3
 72
    22
 73
    18
 74
     0
 42
0.000000001
 43
0.00000001
 40
0.0
 40
0.0
 40
0.0
 40
0.0
 40
0.1250000000000001
 40
0.1250000000000001
 40
0.25
 40
0.25
 40
0.3749999999999999
 40
0.3749999999999999
 40
0.4999999999999999
 40
0.4999999999999999
 40
0.6249999999999998
 40
0.6249999999999998
 40
0.7499999999999999
 40
0.7499999999999999
 40
0.8749999999999999
 40
0.8749999999999999
 40
1.0
 40
1.0
 40
1.0
 40
1.0
 10
9.999999999999531
 20
-2.976807371611859
 30
0.0
 10
9.999999999999545
 20
-2.897066818023929
 30
0.0
 10
9.999999999999517
 20
-2.735236419377719
 30
0.0
 10
9.99999999999951
 20
-2.228165526471323
 30
0.0
 10
9.999999999999531
 20
-1.8824590649612
 30
0.0
 10
9.999999999999538
 20
-1.068057775408834
 30
0.0
 10
9.999999999999531
 20
-0.6017479548185465
 30
0.0
 10
9.999999999999538
 20
0.3377420832800099
 30
0.0
 10
9.999999999999538
 20
0.808719119589442
 30
0.0
 10
9.999999999999538
 20
1.668432645156066
 30
0.0
 10
9.999999999999538
 20
2.057251830800397
 30
0.0
 10
9.999999999999524
 20
2.726206831216324
 30
0.0
 10
9.999999999999531
 20
3.007344602984367
 30
0.0
 10
9.999999999999531
 20
3.474545878738725
 30
0.0
 10
9.999999999999545
 20
3.661290793513734
 30
0.0
 10
9.999999999999524
 20
3.964584302464394
 30
0.0
 10
9.999999999999503
 20
4.111864331493829
 30
0.0
 10
9.999999999999517
 20
4.238651299783491
 30
0.0
  0
SPLINE
  5
C5
330
1F
100
AcDbEntity
  8
외형선
  6
Continuous
370
    15
100
AcDbSpline
210
0.0
220
0.0
230
1.0
 70
    24
 71
     3
 72
    10
 73
     6
 74
     0
 42
0.000000001
 43
0.00000001
 40
0.0
 40
0.0
 40
0.0
 40
0.0
 40
0.354503749006483
 40
0.7111479209156151
 40
0.9999999999999999
 40
0.9999999999999999
 40
0.9999999999999999
 40
0.9999999999999999
 10
9.999999999999538
 20
-5.609021115338846
 30
0.0
 10
9.999999999999538
 20
-5.512932151387947
 30
0.0
 10
9.999999999999531
 20
-5.320174057494365
 30
0.0
 10
9.99999999999956
 20
-5.054741377036409
 30
0.0
 10
9.999999999999538
 20
-4.889666762487686
 30
0.0
 10
9.999999999999524
 20
-4.815797788743746
 30
0.0
  0
LINE
  5
C6
330
1F
100
AcDbEntity
  8
중심선
 62
     1
100
AcDbLine
 10
-47.80000000000046
 20
-0.0000000000000102
 30
0.0
 11
93.19999999999955
 21
0.0000000000000036
 31
0.0
  0
LINE
  5
C7
330
1F
100
AcDbEntity
  8
참조1
100
AcDbLine
 10
22.69999999999954
 20
-0.0000000000000108
 30
0.0
 11
22.69999999999954
 21
-40.00000000000001
 31
0.0
  0
LINE
  5
C8
330
1F
100
AcDbEntity
  8
참조1
100
AcDbLine
 10
22.69999999999954
 20
-40.00000000000001
 30
0.0
 11
-26.59010681430913
 21
-40.00000000000001
 31
0.0
  0
CIRCLE
  5
C9
330
1F
100
AcDbEntity
  8
해칭선
100
AcDbCircle
 10
0.0
 20
0.0
 30
0.0
 40
3.000000000000003
  0
INSERT
  5
CA
330
1F
100
AcDbEntity
  8
0
  6
Continuous
 62
     7
100
AcDbBlockReference
 66
     1
  2
블럭10
 10
8.759727067874335
 20
-52.04717430164394
 30
0.0
  0
ATTRIB
  5
CB
330
CA
100
AcDbEntity
  8
FORMAT
 62
     2
100
AcDbText
 10
-0.4215682208669449
 20
-49.97180738881175
 30
0.0
 40
4.233333333333333
  1
E1041032 [ 4 FLUTE ]
 41
0.75
  7
SLDTEXTSTYLE0
 11
-0.4215682208669449
 21
-52.08847405547842
 31
0.0
100
AcDbAttribute
  2
AUTOATTR0
 70
     0
 74
     1
  0
SEQEND
  5
CC
330
CA
100
AcDbEntity
  8
0
  6
Continuous
 62
     7
  0
HATCH
  5
CD
330
1F
100
AcDbEntity
  8
중심선
100
AcDbHatch
 10
0.0
 20
0.0
 30
0.0
210
0.0
220
0.0
230
1.0
  2
SOLID
 70
     1
 71
     0
 91
        1
 92
        0
 93
        4
 72
     1
 10
14.47463637225518
 20
-35.8
 11
11.02836112841789
 21
-35.8
 72
     1
 10
11.02836112841789
 20
-35.8
 11
8.90013126921387
 21
-38.33632558057261
 72
     1
 10
8.90013126921387
 20
-38.33632558057261
 11
12.3464395981643
 21
-38.33628615127012
 72
     1
 10
12.3464395981643
 20
-38.33628615127012
 11
14.47463637225518
 21
-35.8
 97
        0
 75
     0
 76
     1
 98
        1
 10
-6.436761314031628
 20
-0.0010749287239
  0
HATCH
  5
CE
330
1F
100
AcDbEntity
  8
중심선
100
AcDbHatch
 10
0.0
 20
0.0
 30
0.0
210
0.0
220
0.0
230
1.0
  2
SOLID
 70
     1
 71
     0
 91
        1
 92
        0
 93
        4
 72
     1
 10
19.48740036329115
 20
-35.79999999999998
 11
16.04112511945387
 21
-35.8
 72
     1
 10
16.04112511945387
 20
-35.8
 11
11.50998711109646
 21
-41.20000000000002
 72
     1
 10
11.50998711109646
 20
-41.20000000000002
 11
14.95626235493374
 21
-41.20000000000002
 72
     1
 10
14.95626235493374
 20
-41.20000000000002
 11
19.48740036329115
 21
-35.79999999999998
 97
        0
 75
     0
 76
     1
 98
        1
 10
-6.436761314031628
 20
-0.0010749287239
  0
HATCH
  5
CF
330
1F
100
AcDbEntity
  8
중심선
100
AcDbHatch
 10
0.0
 20
0.0
 30
0.0
210
0.0
220
0.0
230
1.0
  2
SOLID
 70
     1
 71
     0
 91
        1
 92
        0
 93
        4
 72
     1
 10
24.50016435432705
 20
-35.79999999999998
 11
21.05388911048993
 21
-35.79999999999998
 72
     1
 10
21.05388911048993
 20
-35.79999999999998
 11
14.00545220860066
 21
-44.20000000000002
 72
     1
 10
14.00545220860066
 20
-44.20000000000002
 11
17.45172745243794
 21
-44.20000000000002
 72
     1
 10
17.45172745243794
 20
-44.20000000000002
 11
24.50016435432705
 21
-35.79999999999998
 97
        0
 75
     0
 76
     1
 98
        1
 10
-6.436761314031628
 20
-0.0010749287239
  0
HATCH
  5
D0
330
1F
100
AcDbEntity
  8
중심선
100
AcDbHatch
 10
0.0
 20
0.0
 30
0.0
210
0.0
220
0.0
230
1.0
  2
SOLID
 70
     1
 71
     0
 91
        1
 92
        0
 93
        6
 72
     3
 10
29.30005478533922
 20
-40.00000000005128
 11
3.960054785062283
 21
1.540882976769353E-10
 40
0.3939339440162628
 50
17.09539180608436
 51
320.0019657685075
 73
     0
 72
     1
 10
30.98305444103982
 20
-38.58789400463828
 11
33.28835631474085
 21
-36.65356729459039
 72
     3
 10
29.30005478528638
 20
-40.00000000000016
 11
6.600054785286829
 21
-1.278976924368180E-13
 40
0.636358354079598
 50
39.99873849337413
 51
368.4976242363724
 73
     1
 72
     1
 10
35.72538727718698
 20
-39.03999999993003
 11
27.9801220921223
 21
-39.03999999993003
 72
     1
 10
27.9801220921223
 20
-39.03999999993003
 11
27.98009704767637
 21
-40.95999999992992
 72
     1
 10
27.98009704767637
 20
-40.95999999992992
 11
32.4214768171484
 21
-40.95999999992989
 97
        0
 75
     0
 76
     1
 98
        1
 10
-6.436761314031628
 20
-0.0010749287239
  0
DIMENSION
  5
D1
330
1F
100
AcDbEntity
  8
치수문자_일반주서
100
AcDbDimension
  2
_D
 10
9.999999999999538
 20
21.34999999999999
 30
0.0
 11
48.09999999999949
 21
21.34999999999999
 31
0.0
 70
   160
  1
<>
 71
     2
 42
76.2
  3
SLDDIMSTYLE0
100
AcDbAlignedDimension
 13
86.19999999999955
 23
6.32664845620485
 33
0.0
 14
9.999999999999542
 24
5.609021115338832
 34
0.0
 50
0.0000000000000053
100
AcDbRotatedDimension
1001
PE_URL
1000

1001
ACAD
1000
DSTYLE
1002
{
1070
   171
1070
     8
1070
   273
1070
     7
1002
}
  0
DIMENSION
  5
E6
330
1F
100
AcDbEntity
  8
치수문자_일반주서
100
AcDbDimension
  2
_D_1
 10
-40.80000000000047
 20
36.34999999999999
 30
0.0
 11
22.69999999999948
 21
36.34999999999999
 31
0.0
 70
   160
  1
<>
 71
     2
 42
127.0
  3
SLDDIMSTYLE0
100
AcDbAlignedDimension
 13
86.19999999999955
 23
6.32664845620485
 33
0.0
 14
-40.80000000000046
 24
5.079999999999997
 34
0.0
 50
0.0000000000000032
100
AcDbRotatedDimension
1001
PE_URL
1000

1001
ACAD
1000
DSTYLE
1002
{
1070
   171
1070
     8
1070
   273
1070
     7
1002
}
  0
DIMENSION
  5
FA
330
1F
100
AcDbEntity
  8
치수문자_일반주서
100
AcDbDimension
  2
_D_2
 10
-55.80000000000043
 20
-6.350000000000062
 30
0.0
 11
-55.80000000000053
 21
22.99574999999994
 31
0.0
 70
   160
  1
%%c<>
 71
     2
 42
12.69999999999999
 52
-270.0
  3
SLDDIMSTYLE0
100
AcDbAlignedDimension
 13
-39.53000000000046
 23
6.349999999999987
 33
0.0
 14
-39.53000000000046
 24
-6.350000000000001
 34
0.0
 50
90.0000000000002
100
AcDbRotatedDimension
1001
PE_URL
1000

1001
ACAD
1000
DSTYLE
1002
{
1070
   171
1070
     8
1070
   273
1070
     7
1002
}
1001
ACAD_DSTYLE_DIMFLIPARROW_SYMBOL
1070
   385
1070
     0
1001
ACAD_DSTYLE_DIMFLIPARROW_WHICH_SYMBOL
1070
   386
1070
     3
  0
DIMENSION
  5
10F
330
1F
100
AcDbEntity
  8
치수문자_일반주서
100
AcDbDimension
  2
_D_3
 10
101.1999999999995
 20
6.326648456204907
 30
0.0
 11
101.1999999999995
 21
23.19114845620491
 31
0.0
 70
   160
  1
%%c<>
 71
     2
 42
12.65329691240971
 52
-270.0
  3
SLDDIMSTYLE0
100
AcDbAlignedDimension
 13
86.19999999999955
 23
-6.326648456204865
 33
0.0
 14
86.19999999999955
 24
6.32664845620485
 34
0.0
 50
90.0000000000002
100
AcDbRotatedDimension
1001
PE_URL
1000

1001
ACAD
1000
DSTYLE
1002
{
1070
   171
1070
     8
1070
   273
1070
     7
1002
}
1001
ACAD_DSTYLE_DIMFLIPARROW_SYMBOL
1070
   385
1070
     0
1001
ACAD_DSTYLE_DIMFLIPARROW_WHICH_SYMBOL
1070
   386
1070
     3
  0
LINE
  5
122
330
1F
100
AcDbEntity
  8
참조1
100
AcDbLine
 10
71.38223381534513
 20
7.439999999999996
 30
0.0
 11
71.38223381534513
 21
-7.440000000000008
 31
0.0
  0
LINE
  5
123
330
1F
100
AcDbEntity
  8
참조1
100
AcDbLine
 10
84.08223381534513
 20
5.439999999999996
 30
0.0
 11
71.38223381534513
 21
5.439999999999996
 31
0.0
  0
SOLID
  5
124
330
1F
100
AcDbEntity
  8
참조1
100
AcDbTrace
 10
71.38223381534513
 20
5.439999999999996
 30
0.0
 11
77.73223381534513
 21
4.423999999999996
 31
0.0
 12
77.73223381534513
 22
6.455999999999996
 32
0.0
 13
77.73223381534513
 23
6.455999999999996
 33
0.0
  0
LINE
  5
125
330
1F
100
AcDbEntity
  8
참조1
100
AcDbLine
 10
84.08223381534513
 20
-5.440000000000008
 30
0.0
 11
71.38223381534513
 21
-5.440000000000008
 31
0.0
  0
SOLID
  5
126
330
1F
100
AcDbEntity
  8
참조1
100
AcDbTrace
 10
71.38223381534513
 20
-5.440000000000008
 30
0.0
 11
77.73223381534513
 21
-6.456000000000008
 31
0.0
 12
77.73223381534513
 22
-4.424000000000008
 32
0.0
 13
77.73223381534513
 23
-4.424000000000008
 33
0.0
  0
MTEXT
  5
127
330
1F
100
AcDbEntity
  8
참조1
100
AcDbMText
 10
80.76658394797113
 20
11.01029177718832
 30
0.0
 40
3.5
 41
0.0
 71
     1
 72
     1
  1
A
  7
SLDTEXTSTYLE0
 73
     1
 44
1.0
  0
MTEXT
  5
128
330
1F
100
AcDbEntity
  8
참조1
100
AcDbMText
 10
80.76658394797113
 20
0.1302917771883201
 30
0.0
 40
3.5
 41
0.0
 71
     1
 72
     1
  1
A
  7
SLDTEXTSTYLE0
 73
     1
 44
1.0
  0
INSERT
  5
12F
330
1F
100
AcDbEntity
  8
해칭선
100
AcDbBlockReference
  2
SW_DOWELSYMBOL_0
 10
0.0
 20
0.0
 30
0.0
  0
LINE
  5
1D7
330
1F
100
AcDbEntity
  8
외형선
  6
Continuous
370
    15
100
AcDbLine
 10
-23.76612500000044
 20
4.825999999999985
 30
0.0
 11
-12.59012500000056
 21
4.825999999999985
 31
0.0
1001
PE_URL
1000

  0
LINE
  5
1D8
330
1F
100
AcDbEntity
  8
외형선
  6
Continuous
370
    15
100
AcDbLine
 10
-23.76612500000044
 20
4.825999999999985
 30
0.0
 11
-25.29012500000044
 21
6.349999999999985
 31
0.0
1001
PE_URL
1000

  0
LINE
  5
1D9
330
1F
100
AcDbEntity
  8
외형선
  6
Continuous
370
    15
100
AcDbLine
 10
-12.59012500000045
 20
4.825999999999985
 30
0.0
 11
-11.06612500000045
 21
6.349999999999985
 31
0.0
1001
PE_URL
1000

  0
LINE
  5
1DA
330
1F
100
AcDbEntity
  8
외형선
  6
Continuous
370
    15
100
AcDbLine
 10
-25.29012500000044
 20
6.349999999999993
 30
0.0
 11
-39.53000000000046
 21
6.349999999999993
 31
0.0
  0
ENDSEC
  0
SECTION
  2
OBJECTS
  0
DICTIONARY
  5
C
330
0
100
AcDbDictionary
281
     1
  3
ACAD_GROUP
350
D
  3
ACAD_LAYOUT
350
1A
  3
ACAD_MLINESTYLE
350
17
  3
ACAD_PLOTSETTINGS
350
19
  3
ACAD_PLOTSTYLENAME
350
E
  3
ACAD_SCALELIST
350
47
  3
APPDATA
350
151
  3
DWGPROPS
350
20A
  0
DICTIONARY
  5
187
330
2
100
AcDbDictionary
280
     1
281
     1
  3
ACAD_LAYERSTATES
360
188
  0
DICTIONARY
  5
D
102
{ACAD_REACTORS
330
C
102
}
330
C
100
AcDbDictionary
281
     1
  0
DICTIONARY
  5
1A
102
{ACAD_REACTORS
330
C
102
}
330
C
100
AcDbDictionary
281
     1
  3
Layout1
350
1E
  3
Layout2
350
26
  3
Model
350
22
  0
DICTIONARY
  5
17
102
{ACAD_REACTORS
330
C
102
}
330
C
100
AcDbDictionary
281
     1
  3
Standard
350
18
  0
DICTIONARY
  5
19
102
{ACAD_REACTORS
330
C
102
}
330
C
100
AcDbDictionary
281
     1
  0
ACDBDICTIONARYWDFLT
  5
E
102
{ACAD_REACTORS
330
C
102
}
330
C
100
AcDbDictionary
281
     1
  3
Normal
350
F
100
AcDbDictionaryWithDefault
340
F
  0
DICTIONARY
  5
47
102
{ACAD_REACTORS
330
C
102
}
330
C
100
AcDbDictionary
281
     1
  3
A0
350
48
  3
A1
350
49
  3
A2
350
4A
  3
A3
350
4B
  3
A4
350
4C
  3
A5
350
4D
  3
A6
350
4E
  3
A7
350
4F
  3
A8
350
50
  3
A9
350
51
  3
B0
350
52
  3
B1
350
53
  3
B2
350
54
  3
B3
350
55
  3
B4
350
56
  3
B5
350
57
  3
B6
350
58
  3
B7
350
59
  3
B8
350
5A
  3
B9
350
5B
  3
C0
350
5C
  3
C1
350
5D
  3
C2
350
5E
  3
C3
350
5F
  3
C4
350
60
  3
C5
350
61
  3
C6
350
62
  3
C7
350
63
  3
C8
350
64
  3
C9
350
65
  3
D0
350
66
  3
D1
350
67
  3
D2
350
68
  0
DICTIONARY
  5
151
102
{ACAD_REACTORS
330
C
102
}
330
C
100
AcDbDictionary
281
     1
  0
XRECORD
  5
20A
102
{ACAD_REACTORS
330
C
102
}
330
C
100
AcDbXrecord
280
     1
  1
DWGPROPS COOKIE
  2

  3

  4

  6

  7

  8
120170442
  9

300
=
301
=
302
=
303
=
304
=
305
=
306
=
307
=
308
=
309
=
 40
0.0
 41
2458312.258097291
 42
2458323.343413669
  1

 90
        0
  0
DICTIONARY
  5
188
102
{ACAD_REACTORS
330
187
102
}
330
187
100
AcDbDictionary
281
     1
  0
LAYOUT
  5
1E
102
{ACAD_REACTORS
330
1A
102
}
330
1A
100
AcDbPlotSettings
  1

  2
none_device
  4

  6

 40
0.0
 41
0.0
 42
0.0
 43
0.0
 44
0.0
 45
0.0
 46
0.0
 47
0.0
 48
0.0
 49
0.0
140
0.0
141
0.0
142
1.0
143
1.0
 70
   688
 72
     1
 73
     0
 74
     5
  7

 75
    16
147
1.0
148
0.0
149
0.0
100
AcDbLayout
  1
Layout1
 70
     1
 71
     1
 10
0.0
 20
0.0
 11
420.0
 21
297.0
 12
0.0
 22
0.0
 32
0.0
 14
1.000000000000000E+20
 24
1.000000000000000E+20
 34
1.000000000000000E+20
 15
-1.000000000000000E+20
 25
-1.000000000000000E+20
 35
-1.000000000000000E+20
146
0.0
 13
0.0
 23
0.0
 33
0.0
 16
1.0
 26
0.0
 36
0.0
 17
0.0
 27
1.0
 37
0.0
 76
     0
330
1B
  0
LAYOUT
  5
26
102
{ACAD_REACTORS
330
1A
102
}
330
1A
100
AcDbPlotSettings
  1

  2
none_device
  4

  6

 40
0.0
 41
0.0
 42
0.0
 43
0.0
 44
0.0
 45
0.0
 46
0.0
 47
0.0
 48
0.0
 49
0.0
140
0.0
141
0.0
142
1.0
143
1.0
 70
   688
 72
     1
 73
     0
 74
     5
  7

 75
    16
147
1.0
148
0.0
149
0.0
100
AcDbLayout
  1
Layout2
 70
     1
 71
     2
 10
0.0
 20
0.0
 11
0.0
 21
0.0
 12
0.0
 22
0.0
 32
0.0
 14
0.0
 24
0.0
 34
0.0
 15
0.0
 25
0.0
 35
0.0
146
0.0
 13
0.0
 23
0.0
 33
0.0
 16
1.0
 26
0.0
 36
0.0
 17
0.0
 27
1.0
 37
0.0
 76
     0
330
23
  0
LAYOUT
  5
22
102
{ACAD_REACTORS
330
1A
102
}
330
1A
100
AcDbPlotSettings
  1

  2
none_device
  4
ANSI_A_(11.00_x_8.50_Inches)
  6

 40
6.35
 41
19.05
 42
6.35000508
 43
19.05000254
 44
279.4
 45
215.9
 46
49.44986553122016
 47
69.13375903935821
 48
0.0
 49
0.0
140
0.0
141
0.0
142
0.0381522684170088
143
1.0
 70
  1696
 72
     0
 73
     0
 74
     0
  7

 75
     0
147
0.0235690232323232
148
0.0
149
0.0
100
AcDbLayout
  1
Model
 70
     1
 71
     0
 10
0.0
 20
0.0
 11
420.0
 21
297.0
 12
0.0
 22
0.0
 32
0.0
 14
-60.17500000000058
 24
-49.97180738881175
 34
0.0
 15
101.7503333333329
 25
40.72499999999999
 35
0.0
146
0.0
 13
0.0
 23
0.0
 33
0.0
 16
1.0
 26
0.0
 36
0.0
 17
0.0
 27
1.0
 37
0.0
 76
     0
330
1F
331
29
  0
MLINESTYLE
  5
18
102
{ACAD_REACTORS
330
17
102
}
330
17
100
AcDbMlineStyle
  2
Standard
 70
     0
  3

 62
   256
 51
90.0
 52
90.0
 71
     2
 49
0.5
 62
   256
  6
BYLAYER
 49
-0.5
 62
   256
  6
BYLAYER
  0
ACDBPLACEHOLDER
  5
F
102
{ACAD_REACTORS
330
E
102
}
330
E
  0
SCALE
  5
48
102
{ACAD_REACTORS
330
47
102
}
330
47
100
AcDbScale
 70
     0
300
1:1
140
1.0
141
1.0
290
     1
  0
SCALE
  5
49
102
{ACAD_REACTORS
330
47
102
}
330
47
100
AcDbScale
 70
     0
300
1:2
140
1.0
141
2.0
290
     0
  0
SCALE
  5
4A
102
{ACAD_REACTORS
330
47
102
}
330
47
100
AcDbScale
 70
     0
300
1:4
140
1.0
141
4.0
290
     0
  0
SCALE
  5
4B
102
{ACAD_REACTORS
330
47
102
}
330
47
100
AcDbScale
 70
     0
300
1:5
140
1.0
141
5.0
290
     0
  0
SCALE
  5
4C
102
{ACAD_REACTORS
330
47
102
}
330
47
100
AcDbScale
 70
     0
300
1:8
140
1.0
141
8.0
290
     0
  0
SCALE
  5
4D
102
{ACAD_REACTORS
330
47
102
}
330
47
100
AcDbScale
 70
     0
300
1:10
140
1.0
141
10.0
290
     0
  0
SCALE
  5
4E
102
{ACAD_REACTORS
330
47
102
}
330
47
100
AcDbScale
 70
     0
300
1:16
140
1.0
141
16.0
290
     0
  0
SCALE
  5
4F
102
{ACAD_REACTORS
330
47
102
}
330
47
100
AcDbScale
 70
     0
300
1:20
140
1.0
141
20.0
290
     0
  0
SCALE
  5
50
102
{ACAD_REACTORS
330
47
102
}
330
47
100
AcDbScale
 70
     0
300
1:30
140
1.0
141
30.0
290
     0
  0
SCALE
  5
51
102
{ACAD_REACTORS
330
47
102
}
330
47
100
AcDbScale
 70
     0
300
1:40
140
1.0
141
40.0
290
     0
  0
SCALE
  5
52
102
{ACAD_REACTORS
330
47
102
}
330
47
100
AcDbScale
 70
     0
300
1:50
140
1.0
141
50.0
290
     0
  0
SCALE
  5
53
102
{ACAD_REACTORS
330
47
102
}
330
47
100
AcDbScale
 70
     0
300
1:100
140
1.0
141
100.0
290
     0
  0
SCALE
  5
54
102
{ACAD_REACTORS
330
47
102
}
330
47
100
AcDbScale
 70
     0
300
2:1
140
2.0
141
1.0
290
     0
  0
SCALE
  5
55
102
{ACAD_REACTORS
330
47
102
}
330
47
100
AcDbScale
 70
     0
300
4:1
140
4.0
141
1.0
290
     0
  0
SCALE
  5
56
102
{ACAD_REACTORS
330
47
102
}
330
47
100
AcDbScale
 70
     0
300
8:1
140
8.0
141
1.0
290
     0
  0
SCALE
  5
57
102
{ACAD_REACTORS
330
47
102
}
330
47
100
AcDbScale
 70
     0
300
10:1
140
10.0
141
1.0
290
     0
  0
SCALE
  5
58
102
{ACAD_REACTORS
330
47
102
}
330
47
100
AcDbScale
 70
     0
300
100:1
140
100.0
141
1.0
290
     0
  0
SCALE
  5
59
102
{ACAD_REACTORS
330
47
102
}
330
47
100
AcDbScale
 70
     0
300
1/128" = 1'-0"
140
0.0078125
141
12.0
290
     0
  0
SCALE
  5
5A
102
{ACAD_REACTORS
330
47
102
}
330
47
100
AcDbScale
 70
     0
300
1/64" = 1'-0"
140
0.015625
141
12.0
290
     0
  0
SCALE
  5
5B
102
{ACAD_REACTORS
330
47
102
}
330
47
100
AcDbScale
 70
     0
300
1/32" = 1'-0"
140
0.03125
141
12.0
290
     0
  0
SCALE
  5
5C
102
{ACAD_REACTORS
330
47
102
}
330
47
100
AcDbScale
 70
     0
300
1/16" = 1'-0"
140
0.0625
141
12.0
290
     0
  0
SCALE
  5
5D
102
{ACAD_REACTORS
330
47
102
}
330
47
100
AcDbScale
 70
     0
300
3/32" = 1'-0"
140
0.09375
141
12.0
290
     0
  0
SCALE
  5
5E
102
{ACAD_REACTORS
330
47
102
}
330
47
100
AcDbScale
 70
     0
300
1/8" = 1'-0"
140
0.125
141
12.0
290
     0
  0
SCALE
  5
5F
102
{ACAD_REACTORS
330
47
102
}
330
47
100
AcDbScale
 70
     0
300
3/16" = 1'-0"
140
0.1875
141
12.0
290
     0
  0
SCALE
  5
60
102
{ACAD_REACTORS
330
47
102
}
330
47
100
AcDbScale
 70
     0
300
1/4" = 1'-0"
140
0.25
141
12.0
290
     0
  0
SCALE
  5
61
102
{ACAD_REACTORS
330
47
102
}
330
47
100
AcDbScale
 70
     0
300
3/8" = 1'-0"
140
0.375
141
12.0
290
     0
  0
SCALE
  5
62
102
{ACAD_REACTORS
330
47
102
}
330
47
100
AcDbScale
 70
     0
300
1/2" = 1'-0"
140
0.5
141
12.0
290
     0
  0
SCALE
  5
63
102
{ACAD_REACTORS
330
47
102
}
330
47
100
AcDbScale
 70
     0
300
3/4" = 1'-0"
140
0.75
141
12.0
290
     0
  0
SCALE
  5
64
102
{ACAD_REACTORS
330
47
102
}
330
47
100
AcDbScale
 70
     0
300
1" = 1'-0"
140
1.0
141
12.0
290
     0
  0
SCALE
  5
65
102
{ACAD_REACTORS
330
47
102
}
330
47
100
AcDbScale
 70
     0
300
1-1/2" = 1'-0"
140
1.5
141
12.0
290
     0
  0
SCALE
  5
66
102
{ACAD_REACTORS
330
47
102
}
330
47
100
AcDbScale
 70
     0
300
3" = 1'-0"
140
3.0
141
12.0
290
     0
  0
SCALE
  5
67
102
{ACAD_REACTORS
330
47
102
}
330
47
100
AcDbScale
 70
     0
300
6" = 1'-0"
140
6.0
141
12.0
290
     0
  0
SCALE
  5
68
102
{ACAD_REACTORS
330
47
102
}
330
47
100
AcDbScale
 70
     0
300
1'-0" = 1'-0"
140
12.0
141
12.0
290
     0
  0
ENDSEC
  0
EOF
