  0
SECTION
  2
HEADER
  9
$ACADVER
  1
AC1015
  9
$ACADMAINTVER
 70
     6
  9
$DWGCODEPAGE
  3
ANSI_949
  9
$INSBASE
 10
0.0
 20
0.0
 30
0.0
  9
$EXTMIN
 10
1.000000000000000E+20
 20
1.000000000000000E+20
 30
1.000000000000000E+20
  9
$EXTMAX
 10
-1.000000000000000E+20
 20
-1.000000000000000E+20
 30
-1.000000000000000E+20
  9
$LIMMIN
 10
0.0
 20
0.0
  9
$LIMMAX
 10
420.0
 20
297.0
  9
$ORTHOMODE
 70
     1
  9
$REGENMODE
 70
     1
  9
$FILLMODE
 70
     1
  9
$QTEXTMODE
 70
     0
  9
$MIRRTEXT
 70
     1
  9
$LTSCALE
 40
1.0
  9
$ATTMODE
 70
     1
  9
$TEXTSIZE
 40
3.5
  9
$TRACEWID
 40
1.0
  9
$TEXTSTYLE
  7
Standard
  9
$CLAYER
  8
0
  9
$CELTYPE
  6
ByLayer
  9
$CECOLOR
 62
   256
  9
$CELTSCALE
 40
1.0
  9
$DISPSILH
 70
     0
  9
$DIMSCALE
 40
1.0
  9
$DIMASZ
 40
3.302
  9
$DIMEXO
 40
1.0
  9
$DIMDLI
 40
3.75
  9
$DIMRND
 40
0.0
  9
$DIMDLE
 40
0.0
  9
$DIMEXE
 40
1.0
  9
$DIMTP
 40
0.0
  9
$DIMTM
 40
0.0
  9
$DIMTXT
 40
3.5
  9
$DIMCEN
 40
2.5
  9
$DIMTSZ
 40
0.0
  9
$DIMTOL
 70
     0
  9
$DIMLIM
 70
     0
  9
$DIMTIH
 70
     1
  9
$DIMTOH
 70
     1
  9
$DIMSE1
 70
     0
  9
$DIMSE2
 70
     0
  9
$DIMTAD
 70
     1
  9
$DIMZIN
 70
     0
  9
$DIMBLK
  1

  9
$DIMASO
 70
     1
  9
$DIMSHO
 70
     1
  9
$DIMPOST
  1

  9
$DIMAPOST
  1

  9
$DIMALT
 70
     0
  9
$DIMALTD
 70
     3
  9
$DIMALTF
 40
0.0393700787401575
  9
$DIMLFAC
 40
1.0
  9
$DIMTOFL
 70
     1
  9
$DIMTVP
 40
0.0
  9
$DIMTIX
 70
     0
  9
$DIMSOXD
 70
     0
  9
$DIMSAH
 70
     0
  9
$DIMBLK1
  1

  9
$DIMBLK2
  1

  9
$DIMSTYLE
  2
ISO-25
  9
$DIMCLRD
 70
     0
  9
$DIMCLRE
 70
     0
  9
$DIMCLRT
 70
     0
  9
$DIMTFAC
 40
1.0
  9
$DIMGAP
 40
1.524
  9
$DIMJUST
 70
     0
  9
$DIMSD1
 70
     0
  9
$DIMSD2
 70
     0
  9
$DIMTOLJ
 70
     0
  9
$DIMTZIN
 70
     0
  9
$DIMALTZ
 70
     0
  9
$DIMALTTZ
 70
     0
  9
$DIMUPT
 70
     0
  9
$DIMDEC
 70
     2
  9
$DIMTDEC
 70
     2
  9
$DIMALTU
 70
     2
  9
$DIMALTTD
 70
     3
  9
$DIMTXSTY
  7
Standard
  9
$DIMAUNIT
 70
     0
  9
$DIMADEC
 70
     2
  9
$DIMALTRND
 40
0.0
  9
$DIMAZIN
 70
     0
  9
$DIMDSEP
 70
    44
  9
$DIMATFIT
 70
     3
  9
$DIMFRAC
 70
     0
  9
$DIMLDRBLK
  1

  9
$DIMLUNIT
 70
     2
  9
$DIMLWD
 70
    -2
  9
$DIMLWE
 70
    -2
  9
$DIMTMOVE
 70
     0
  9
$LUNITS
 70
     2
  9
$LUPREC
 70
     2
  9
$SKETCHINC
 40
1.0
  9
$FILLETRAD
 40
10.0
  9
$AUNITS
 70
     0
  9
$AUPREC
 70
     2
  9
$MENU
  1
.
  9
$ELEVATION
 40
0.0
  9
$PELEVATION
 40
0.0
  9
$THICKNESS
 40
0.0
  9
$LIMCHECK
 70
     0
  9
$CHAMFERA
 40
0.0
  9
$CHAMFERB
 40
0.0
  9
$CHAMFERC
 40
0.0
  9
$CHAMFERD
 40
0.0
  9
$SKPOLY
 70
     0
  9
$TDCREATE
 40
2458312.74546662
  9
$TDUCREATE
 40
2458312.37046662
  9
$TDUPDATE
 40
2458330.643231713
  9
$TDUUPDATE
 40
2458330.268231713
  9
$TDINDWG
 40
0.0009006481
  9
$TDUSRTIMER
 40
2458330.267331319
  9
$USRTIMER
 70
     1
  9
$ANGBASE
 50
0.0
  9
$ANGDIR
 70
     0
  9
$PDMODE
 70
     0
  9
$PDSIZE
 40
-1.0
  9
$PLINEWID
 40
0.0
  9
$SPLFRAME
 70
     0
  9
$SPLINETYPE
 70
     6
  9
$SPLINESEGS
 70
     8
  9
$HANDSEED
  5
26E
  9
$SURFTAB1
 70
     6
  9
$SURFTAB2
 70
     6
  9
$SURFTYPE
 70
     6
  9
$SURFU
 70
     6
  9
$SURFV
 70
     6
  9
$UCSBASE
  2

  9
$UCSNAME
  2

  9
$UCSORG
 10
0.0
 20
0.0
 30
0.0
  9
$UCSXDIR
 10
1.0
 20
0.0
 30
0.0
  9
$UCSYDIR
 10
0.0
 20
1.0
 30
0.0
  9
$UCSORTHOREF
  2

  9
$UCSORTHOVIEW
 70
     0
  9
$UCSORGTOP
 10
0.0
 20
0.0
 30
0.0
  9
$UCSORGBOTTOM
 10
0.0
 20
0.0
 30
0.0
  9
$UCSORGLEFT
 10
0.0
 20
0.0
 30
0.0
  9
$UCSORGRIGHT
 10
0.0
 20
0.0
 30
0.0
  9
$UCSORGFRONT
 10
0.0
 20
0.0
 30
0.0
  9
$UCSORGBACK
 10
0.0
 20
0.0
 30
0.0
  9
$PUCSBASE
  2

  9
$PUCSNAME
  2

  9
$PUCSORG
 10
0.0
 20
0.0
 30
0.0
  9
$PUCSXDIR
 10
1.0
 20
0.0
 30
0.0
  9
$PUCSYDIR
 10
0.0
 20
1.0
 30
0.0
  9
$PUCSORTHOREF
  2

  9
$PUCSORTHOVIEW
 70
     0
  9
$PUCSORGTOP
 10
0.0
 20
0.0
 30
0.0
  9
$PUCSORGBOTTOM
 10
0.0
 20
0.0
 30
0.0
  9
$PUCSORGLEFT
 10
0.0
 20
0.0
 30
0.0
  9
$PUCSORGRIGHT
 10
0.0
 20
0.0
 30
0.0
  9
$PUCSORGFRONT
 10
0.0
 20
0.0
 30
0.0
  9
$PUCSORGBACK
 10
0.0
 20
0.0
 30
0.0
  9
$USERI1
 70
     0
  9
$USERI2
 70
     0
  9
$USERI3
 70
     0
  9
$USERI4
 70
     0
  9
$USERI5
 70
     0
  9
$USERR1
 40
0.0
  9
$USERR2
 40
0.0
  9
$USERR3
 40
0.0
  9
$USERR4
 40
0.0
  9
$USERR5
 40
0.0
  9
$WORLDVIEW
 70
     1
  9
$SHADEDGE
 70
     3
  9
$SHADEDIF
 70
    70
  9
$TILEMODE
 70
     1
  9
$MAXACTVP
 70
    64
  9
$PINSBASE
 10
0.0
 20
0.0
 30
0.0
  9
$PLIMCHECK
 70
     0
  9
$PEXTMIN
 10
1.000000000000000E+20
 20
1.000000000000000E+20
 30
1.000000000000000E+20
  9
$PEXTMAX
 10
-1.000000000000000E+20
 20
-1.000000000000000E+20
 30
-1.000000000000000E+20
  9
$PLIMMIN
 10
0.0
 20
0.0
  9
$PLIMMAX
 10
0.0
 20
0.0
  9
$UNITMODE
 70
     0
  9
$VISRETAIN
 70
     1
  9
$PLINEGEN
 70
     0
  9
$PSLTSCALE
 70
     1
  9
$TREEDEPTH
 70
  3020
  9
$CMLSTYLE
  2
Standard
  9
$CMLJUST
 70
     0
  9
$CMLSCALE
 40
20.0
  9
$PROXYGRAPHICS
 70
     1
  9
$MEASUREMENT
 70
     1
  9
$CELWEIGHT
370
    -1
  9
$ENDCAPS
280
     0
  9
$JOINSTYLE
280
     0
  9
$LWDISPLAY
290
     1
  9
$INSUNITS
 70
     4
  9
$HYPERLINKBASE
  1

  9
$STYLESHEET
  1

  9
$XEDIT
290
     1
  9
$CEPSNTYPE
380
     0
  9
$PSTYLEMODE
290
     1
  9
$FINGERPRINTGUID
  2
{5FE99C2E-6282-4BFC-ADA3-6B4BC3EA29C9}
  9
$VERSIONGUID
  2
{FAEB1C32-E019-11D5-929B-00C0DF256EC4}
  9
$EXTNAMES
290
     1
  9
$PSVPSCALE
 40
0.0
  9
$OLESTARTUP
290
     0
  0
ENDSEC
  0
SECTION
  2
CLASSES
  0
CLASS
  1
ACDBDICTIONARYWDFLT
  2
AcDbDictionaryWithDefault
  3
ObjectDBX Classes
 90
        0
280
     0
281
     0
  0
CLASS
  1
VISUALSTYLE
  2
AcDbVisualStyle
  3
ObjectDBX Classes
 90
     4095
280
     0
281
     0
  0
CLASS
  1
MATERIAL
  2
AcDbMaterial
  3
ObjectDBX Classes
 90
     1153
280
     0
281
     0
  0
CLASS
  1
SCALE
  2
AcDbScale
  3
ObjectDBX Classes
 90
     1153
280
     0
281
     0
  0
CLASS
  1
SUN
  2
AcDbSun
  3
SCENEOE
 90
     1153
280
     0
281
     0
  0
CLASS
  1
ACDBPLACEHOLDER
  2
AcDbPlaceHolder
  3
ObjectDBX Classes
 90
        0
280
     0
281
     0
  0
CLASS
  1
LAYOUT
  2
AcDbLayout
  3
ObjectDBX Classes
 90
        0
280
     0
281
     0
  0
CLASS
  1
TABLESTYLE
  2
AcDbTableStyle
  3
ObjectDBX Classes
 90
     4095
280
     0
281
     0
  0
CLASS
  1
MLEADERSTYLE
  2
AcDbMLeaderStyle
  3
ACDB_MLEADERSTYLE_CLASS
 90
     4095
280
     0
281
     0
  0
CLASS
  1
RASTERVARIABLES
  2
AcDbRasterVariables
  3
ISM
 90
        0
280
     0
281
     0
  0
ENDSEC
  0
SECTION
  2
TABLES
  0
TABLE
  2
VPORT
  5
8
330
0
100
AcDbSymbolTable
 70
     1
  0
VPORT
  5
29
330
8
100
AcDbSymbolTableRecord
100
AcDbViewportTableRecord
  2
*Active
 70
     0
 10
0.0
 20
0.0
 11
1.0
 21
1.0
 12
46.52282140482055
 22
-1.019314784805772
 13
0.0
 23
0.0
 14
10.0
 24
10.0
 15
10.0
 25
10.0
 16
0.0
 26
0.0
 36
1.0
 17
0.0
 27
0.0
 37
0.0
 40
220.2072008882182
 41
1.516441005802708
 42
50.0
 43
0.0
 44
0.0
 50
0.0
 51
0.0
 71
    16
 72
  2000
 73
     1
 74
     3
 75
     0
 76
     0
 77
     0
 78
     0
281
     0
 65
     1
110
0.0
120
0.0
130
0.0
111
1.0
121
0.0
131
0.0
112
0.0
122
1.0
132
0.0
 79
     0
146
0.0
  0
ENDTAB
  0
TABLE
  2
LTYPE
  5
5
330
0
100
AcDbSymbolTable
 70
     6
  0
LTYPE
  5
14
330
5
100
AcDbSymbolTableRecord
100
AcDbLinetypeTableRecord
  2
ByBlock
 70
     0
  3

 72
    65
 73
     0
 40
0.0
  0
LTYPE
  5
15
330
5
100
AcDbSymbolTableRecord
100
AcDbLinetypeTableRecord
  2
ByLayer
 70
     0
  3

 72
    65
 73
     0
 40
0.0
  0
LTYPE
  5
16
330
5
100
AcDbSymbolTableRecord
100
AcDbLinetypeTableRecord
  2
Continuous
 70
     0
  3
Solid line
 72
    65
 73
     0
 40
0.0
  0
LTYPE
  5
6A
330
5
100
AcDbSymbolTableRecord
100
AcDbLinetypeTableRecord
  2
HIDDEN
 70
     0
  3
Hidden __ __ __ __ __ __ __ __ __ __ __ __ __ __
 72
    65
 73
     2
 40
1.905
 49
1.27
 74
     0
 49
-0.635
 74
     0
  0
LTYPE
  5
6B
330
5
100
AcDbSymbolTableRecord
100
AcDbLinetypeTableRecord
  2
PHANTOM
 70
     0
  3
Phantom ______  __  __  ______  __  __  ______
 72
    65
 73
     6
 40
12.7
 49
6.35
 74
     0
 49
-1.27
 74
     0
 49
1.27
 74
     0
 49
-1.27
 74
     0
 49
1.27
 74
     0
 49
-1.27
 74
     0
  0
LTYPE
  5
6C
330
5
100
AcDbSymbolTableRecord
100
AcDbLinetypeTableRecord
  2
CENTER
 70
     0
  3
Center ____ _ ____ _ ____ _ ____ _ ____ _ ____
 72
    65
 73
     4
 40
10.16
 49
6.35
 74
     0
 49
-1.27
 74
     0
 49
1.27
 74
     0
 49
-1.27
 74
     0
  0
LTYPE
  5
6D
330
5
100
AcDbSymbolTableRecord
100
AcDbLinetypeTableRecord
  2
CENTERX2
 70
     0
  3
Center (2x) ________  __  ________  __  _____
 72
    65
 73
     4
 40
20.32
 49
12.7
 74
     0
 49
-2.54
 74
     0
 49
2.54
 74
     0
 49
-2.54
 74
     0
  0
LTYPE
  5
6E
330
5
100
AcDbSymbolTableRecord
100
AcDbLinetypeTableRecord
  2
DOT2
 70
     0
  3
Dot (.5x) ........................................
 72
    65
 73
     2
 40
0.635
 49
0.0
 74
     0
 49
-0.635
 74
     0
  0
ENDTAB
  0
TABLE
  2
LAYER
  5
2
102
{ACAD_XDICTIONARY
360
1C4
102
}
330
0
100
AcDbSymbolTable
 70
    18
  0
LAYER
  5
10
330
2
100
AcDbSymbolTableRecord
100
AcDbLayerTableRecord
  2
0
 70
     0
 62
     7
  6
Continuous
370
    -3
390
F
  0
LAYER
  5
6F
330
2
100
AcDbSymbolTableRecord
100
AcDbLayerTableRecord
  2
FORMAT
 70
     0
 62
     2
  6
Continuous
370
    -3
390
F
  0
LAYER
  5
70
330
2
100
AcDbSymbolTableRecord
100
AcDbLayerTableRecord
  2
외형선
 70
     0
 62
     4
  6
Continuous
370
    30
390
F
  0
LAYER
  5
71
330
2
100
AcDbSymbolTableRecord
100
AcDbLayerTableRecord
  2
숨은선
 70
     0
 62
     2
  6
HIDDEN
370
    15
390
F
  0
LAYER
  5
72
330
2
100
AcDbSymbolTableRecord
100
AcDbLayerTableRecord
  2
중심선
 70
     0
 62
     1
  6
CENTERX2
370
    -3
390
F
  0
LAYER
  5
73
330
2
100
AcDbSymbolTableRecord
100
AcDbLayerTableRecord
  2
파단선
 70
     0
 62
     4
  6
Continuous
370
    -3
390
F
  0
LAYER
  5
74
330
2
100
AcDbSymbolTableRecord
100
AcDbLayerTableRecord
  2
해칭선
 70
     0
 62
   100
  6
Continuous
370
    -3
390
F
  0
LAYER
  5
75
330
2
100
AcDbSymbolTableRecord
100
AcDbLayerTableRecord
  2
가는실선
 70
     0
 62
     4
  6
Continuous
370
    -3
390
F
  0
LAYER
  5
76
330
2
100
AcDbSymbolTableRecord
100
AcDbLayerTableRecord
  2
치수_보조선
 70
     0
 62
     4
  6
Continuous
370
    -3
390
F
  0
LAYER
  5
77
330
2
100
AcDbSymbolTableRecord
100
AcDbLayerTableRecord
  2
치수문자_일반주서
 70
     0
 62
     7
  6
Continuous
370
    15
390
F
  0
LAYER
  5
78
330
2
100
AcDbSymbolTableRecord
100
AcDbLayerTableRecord
  2
개별주서
 70
     0
 62
   100
  6
Continuous
370
    30
390
F
  0
LAYER
  5
79
330
2
100
AcDbSymbolTableRecord
100
AcDbLayerTableRecord
  2
중간선
 70
     0
 62
     2
  6
Continuous
370
    15
390
F
  0
LAYER
  5
7A
330
2
100
AcDbSymbolTableRecord
100
AcDbLayerTableRecord
  2
윤곽선
 70
     0
 62
     3
  6
Continuous
370
    40
390
F
  0
LAYER
  5
7B
330
2
100
AcDbSymbolTableRecord
100
AcDbLayerTableRecord
  2
중심마크
 70
     0
 62
   100
  6
Continuous
370
    30
390
F
  0
LAYER
  5
7C
330
2
100
AcDbSymbolTableRecord
100
AcDbLayerTableRecord
  2
가상선
 70
     0
 62
     4
  6
PHANTOM
370
    -3
390
F
  0
LAYER
  5
7D
330
2
100
AcDbSymbolTableRecord
100
AcDbLayerTableRecord
  2
특수지정선
 70
     0
 62
     5
  6
CENTERX2
370
    60
390
F
  0
LAYER
  5
7E
330
2
100
AcDbSymbolTableRecord
100
AcDbLayerTableRecord
  2
참조1
 70
     0
 62
    -4
  6
Continuous
370
    -3
390
F
  0
LAYER
  5
129
330
2
100
AcDbSymbolTableRecord
100
AcDbLayerTableRecord
  2
Defpoints
 70
     0
 62
     7
  6
Continuous
290
     0
370
    -3
390
F
  0
ENDTAB
  0
TABLE
  2
STYLE
  5
3
330
0
100
AcDbSymbolTable
 70
     2
  0
STYLE
  5
11
330
3
100
AcDbSymbolTableRecord
100
AcDbTextStyleTableRecord
  2
Standard
 70
     0
 40
0.0
 41
1.0
 50
0.0
 71
     0
 42
3.5
  3
txt
  4

  0
STYLE
  5
94
330
3
100
AcDbSymbolTableRecord
100
AcDbTextStyleTableRecord
  2
SLDTEXTSTYLE0
 70
     0
 40
0.0
 41
0.75
 50
0.0
 71
     0
 42
3.5
  3
TXT
  4

  0
ENDTAB
  0
TABLE
  2
VIEW
  5
6
330
0
100
AcDbSymbolTable
 70
     0
  0
ENDTAB
  0
TABLE
  2
UCS
  5
7
330
0
100
AcDbSymbolTable
 70
     0
  0
ENDTAB
  0
TABLE
  2
APPID
  5
9
330
0
100
AcDbSymbolTable
 70
     2
  0
APPID
  5
12
330
9
100
AcDbSymbolTableRecord
100
AcDbRegAppTableRecord
  2
ACAD
 70
     0
  0
APPID
  5
135
330
9
100
AcDbSymbolTableRecord
100
AcDbRegAppTableRecord
  2
PE_URL
 70
     0
  0
ENDTAB
  0
TABLE
  2
DIMSTYLE
  5
A
330
0
100
AcDbSymbolTable
 70
     4
100
AcDbDimStyleTable
  0
DIMSTYLE
105
27
330
A
100
AcDbSymbolTableRecord
100
AcDbDimStyleTableRecord
  2
ISO-25
 70
     0
 41
2.5
 42
0.625
 43
3.75
 44
1.25
 73
     0
 74
     0
 77
     1
 78
     8
140
2.5
141
2.5
143
0.03937007874016
147
0.625
171
     3
172
     1
178
     0
271
     2
272
     2
274
     3
278
    44
283
     0
284
     8
340
11
  0
DIMSTYLE
105
A8
330
A
100
AcDbSymbolTableRecord
100
AcDbDimStyleTableRecord
  2
SLDDIMSTYLE0
 70
     0
 41
3.302
 44
0.0
 45
0.000000001
 73
     0
 74
     0
 77
     1
 78
    12
 79
     3
140
3.5
143
0.0393700787401575
147
0.875
148
0.000000001
170
     1
173
     1
178
     0
271
     2
272
     2
276
     2
284
    12
340
94
  0
DIMSTYLE
105
CF
330
A
100
AcDbSymbolTableRecord
100
AcDbDimStyleTableRecord
  2
SLDDIMSTYLE1
 70
     0
 41
3.302
 44
0.0
 45
0.000000001
 73
     0
 74
     0
 77
     1
 78
     4
 79
     1
140
3.5
143
0.0393700787401575
147
0.875
148
0.000000001
170
     1
173
     1
178
     0
271
     2
272
     2
276
     2
284
    12
340
94
  0
DIMSTYLE
105
E3
102
{ACAD_REACTORS
330
17D
330
18A
330
197
330
1A7
330
228
330
229
330
22A
330
22B
102
}
330
A
100
AcDbSymbolTableRecord
100
AcDbDimStyleTableRecord
  2
SLDDIMSTYLE2
 70
     0
 41
3.302
 44
0.0
 45
0.000000001
 73
     0
 74
     0
 77
     1
 78
    12
 79
     3
140
3.5
143
0.0393700787401575
147
0.875
148
0.000000001
170
     1
172
     1
173
     1
178
     0
271
     2
272
     2
276
     2
284
    12
289
     0
340
94
  0
ENDTAB
  0
TABLE
  2
BLOCK_RECORD
  5
1
330
0
100
AcDbSymbolTable
 70
    16
  0
BLOCK_RECORD
  5
1F
330
1
100
AcDbSymbolTableRecord
100
AcDbBlockTableRecord
  2
*Model_Space
340
22
  0
BLOCK_RECORD
  5
1B
330
1
100
AcDbSymbolTableRecord
100
AcDbBlockTableRecord
  2
*Paper_Space
340
1E
  0
BLOCK_RECORD
  5
23
330
1
100
AcDbSymbolTableRecord
100
AcDbBlockTableRecord
  2
*Paper_Space0
340
26
  0
BLOCK_RECORD
  5
7F
330
1
100
AcDbSymbolTableRecord
100
AcDbBlockTableRecord
  2
블럭10
340
0
102
{BLKREFS
331
A0
102
}
  0
BLOCK_RECORD
  5
A9
330
1
100
AcDbSymbolTableRecord
100
AcDbBlockTableRecord
  2
_D
340
0
  0
BLOCK_RECORD
  5
BC
330
1
100
AcDbSymbolTableRecord
100
AcDbBlockTableRecord
  2
_D_1
340
0
  0
BLOCK_RECORD
  5
D0
330
1
100
AcDbSymbolTableRecord
100
AcDbBlockTableRecord
  2
_D_2
340
0
  0
BLOCK_RECORD
  5
E4
330
1
100
AcDbSymbolTableRecord
100
AcDbBlockTableRecord
  2
_D_3
340
0
  0
BLOCK_RECORD
  5
FE
330
1
100
AcDbSymbolTableRecord
100
AcDbBlockTableRecord
  2
SW_DOWELSYMBOL_0
340
0
102
{BLKREFS
331
0
331
1B7
331
22C
102
}
  0
BLOCK_RECORD
  5
1C8
330
1
100
AcDbSymbolTableRecord
100
AcDbBlockTableRecord
  2
*D8
340
0
  0
BLOCK_RECORD
  5
1D4
330
1
100
AcDbSymbolTableRecord
100
AcDbBlockTableRecord
  2
*D9
340
0
  0
BLOCK_RECORD
  5
1E0
330
1
100
AcDbSymbolTableRecord
100
AcDbBlockTableRecord
  2
*D10
340
0
  0
BLOCK_RECORD
  5
1EF
330
1
100
AcDbSymbolTableRecord
100
AcDbBlockTableRecord
  2
*D11
340
0
  0
BLOCK_RECORD
  5
233
330
1
100
AcDbSymbolTableRecord
100
AcDbBlockTableRecord
  2
*D12
340
0
  0
BLOCK_RECORD
  5
23F
330
1
100
AcDbSymbolTableRecord
100
AcDbBlockTableRecord
  2
*D13
340
0
  0
BLOCK_RECORD
  5
24B
330
1
100
AcDbSymbolTableRecord
100
AcDbBlockTableRecord
  2
*D14
340
0
  0
BLOCK_RECORD
  5
25A
330
1
100
AcDbSymbolTableRecord
100
AcDbBlockTableRecord
  2
*D15
340
0
  0
ENDTAB
  0
ENDSEC
  0
SECTION
  2
BLOCKS
  0
BLOCK
  5
20
330
1F
100
AcDbEntity
  8
0
100
AcDbBlockBegin
  2
*Model_Space
 70
     0
 10
0.0
 20
0.0
 30
0.0
  3
*Model_Space
  1
*Model_Space
  0
ENDBLK
  5
21
330
1F
100
AcDbEntity
  8
0
100
AcDbBlockEnd
  0
BLOCK
  5
1C
330
1B
100
AcDbEntity
 67
     1
  8
0
100
AcDbBlockBegin
  2
*Paper_Space
 70
     0
 10
0.0
 20
0.0
 30
0.0
  3
*Paper_Space
  1
*Paper_Space
  0
ENDBLK
  5
1D
330
1B
100
AcDbEntity
 67
     1
  8
0
100
AcDbBlockEnd
  0
BLOCK
  5
24
330
23
100
AcDbEntity
  8
0
100
AcDbBlockBegin
  2
*Paper_Space0
 70
     0
 10
0.0
 20
0.0
 30
0.0
  3
*Paper_Space0
  1
*Paper_Space0
  0
ENDBLK
  5
25
330
23
100
AcDbEntity
  8
0
100
AcDbBlockEnd
  0
BLOCK
  5
80
330
7F
100
AcDbEntity
  8
0
100
AcDbBlockBegin
  2
블럭10
 70
     2
 10
0.0
 20
0.0
 30
0.0
  3
블럭10
  1
블럭10
  0
ELLIPSE
  5
82
330
7F
100
AcDbEntity
  8
중심선
100
AcDbEllipse
 10
20.54032771741204
 20
12.0471743016438
 30
0.0
 11
6.600054785286829
 21
-1.261213355974178E-13
 31
0.0
210
0.0
220
0.0
230
1.0
 40
0.636358354079598
 41
0.9219305317359503
 42
6.513795318482858
  0
ELLIPSE
  5
83
330
7F
100
AcDbEntity
  8
중심선
100
AcDbEllipse
 10
20.54032771746488
 20
12.04717430159265
 30
0.0
 11
3.960054785062283
 21
1.540847449632565E-10
 31
0.0
210
0.0
220
0.0
230
1.0
 40
0.3939339440162632
 41
1.131841032648279
 42
5.62031148352944
  0
LINE
  5
84
330
7F
100
AcDbEntity
  8
중심선
100
AcDbLine
 10
2.268634060543552
 20
16.24717430164393
 30
0.0
 11
5.714909304380834
 21
16.24717430164393
 31
0.0
  0
LINE
  5
85
330
7F
100
AcDbEntity
  8
중심선
100
AcDbLine
 10
5.245725140726316
 20
7.84717430164391
 30
0.0
 11
8.692000384563599
 21
7.84717430164391
 31
0.0
  0
LINE
  5
86
330
7F
100
AcDbEntity
  8
중심선
100
AcDbLine
 10
15.74043728645272
 20
16.24717430164393
 30
0.0
 11
8.692000384563599
 21
7.84717430164391
 31
0.0
  0
LINE
  5
87
330
7F
100
AcDbEntity
  8
중심선
100
AcDbLine
 10
0.1404042013395286
 20
13.71084872107135
 30
0.0
 11
3.58671253028996
 21
13.71088815037384
 31
0.0
  0
LINE
  5
88
330
7F
100
AcDbEntity
  8
중심선
100
AcDbLine
 10
2.750260043222114
 20
10.84717430164391
 30
0.0
 11
6.196535287059397
 21
10.84717430164391
 31
0.0
  0
LINE
  5
89
330
7F
100
AcDbEntity
  8
중심선
100
AcDbLine
 10
12.29416204261559
 20
16.24717430164393
 30
0.0
 11
5.245725140726316
 21
7.84717430164391
 31
0.0
  0
LINE
  5
8A
330
7F
100
AcDbEntity
  8
중심선
100
AcDbLine
 10
10.72767329541681
 20
16.24717430164393
 30
0.0
 11
6.196535287059397
 21
10.84717430164391
 31
0.0
  0
LINE
  5
8B
330
7F
100
AcDbEntity
  8
중심선
100
AcDbLine
 10
7.28139805157953
 20
16.24717430164393
 30
0.0
 11
2.750260043222114
 21
10.84717430164391
 31
0.0
  0
LINE
  5
8C
330
7F
100
AcDbEntity
  8
중심선
100
AcDbLine
 10
5.714909304380834
 20
16.24717430164393
 30
0.0
 11
3.58671253028996
 21
13.71088815037384
 31
0.0
  0
LINE
  5
8D
330
7F
100
AcDbEntity
  8
중심선
100
AcDbLine
 10
2.268634060543552
 20
16.24717430164393
 30
0.0
 11
0.1404042013395286
 21
13.71084872107135
 31
0.0
  0
LINE
  5
8E
330
7F
100
AcDbEntity
  8
중심선
100
AcDbLine
 10
7.28139805157953
 20
16.24717430164393
 30
0.0
 11
10.72767329541681
 21
16.24717430164393
 31
0.0
  0
LINE
  5
8F
330
7F
100
AcDbEntity
  8
중심선
100
AcDbLine
 10
12.29416204261559
 20
16.24717430164393
 30
0.0
 11
15.74043728645272
 21
16.24717430164393
 31
0.0
  0
LINE
  5
90
330
7F
100
AcDbEntity
  8
중심선
100
AcDbLine
 10
19.22036997980202
 20
11.08717430171403
 30
0.0
 11
23.66174974927406
 21
11.08717430171406
 31
0.0
  0
LINE
  5
91
330
7F
100
AcDbEntity
  8
중심선
100
AcDbLine
 10
19.22039502424796
 20
13.00717430171391
 30
0.0
 11
19.22036997980202
 21
11.08717430171403
 31
0.0
  0
LINE
  5
92
330
7F
100
AcDbEntity
  8
중심선
100
AcDbLine
 10
19.22039502424796
 20
13.00717430171391
 30
0.0
 11
26.96566020931264
 21
13.00717430171391
 31
0.0
  0
LINE
  5
93
330
7F
100
AcDbEntity
  8
중심선
100
AcDbLine
 10
22.22332737316547
 20
13.45928029700563
 30
0.0
 11
24.52862924686651
 21
15.39360700705356
 31
0.0
  0
ATTDEF
  5
95
330
7F
100
AcDbEntity
  8
FORMAT
 62
     2
100
AcDbText
 10
4.408487351596664
 20
2.075366912832191
 30
0.0
 40
4.233333333333333
  1
E1040132
 41
0.75
  7
SLDTEXTSTYLE0
 11
4.408487351596664
 21
-0.0412997538344756
 31
0.0
100
AcDbAttributeDefinition
  3

  2
AUTOATTR0
 70
     0
 74
     1
  0
ENDBLK
  5
81
330
7F
100
AcDbEntity
  8
0
100
AcDbBlockEnd
  0
BLOCK
  5
AA
330
A9
100
AcDbEntity
  8
0
100
AcDbBlockBegin
  2
_D
 70
     0
 10
0.0
 20
0.0
 30
0.0
  3
_D
  1
_D
  0
SOLID
  5
AC
330
A9
100
AcDbEntity
  8
치수문자_일반주서
100
AcDbTrace
 10
-1.841524023601865
 20
5.218258589704702
 30
0.0
 11
-2.349524023601865
 21
1.916258589704702
 31
0.0
 12
-1.333524023601865
 22
1.916258589704702
 32
0.0
 13
-1.333524023601865
 23
1.916258589704702
 33
0.0
  0
SOLID
  5
AD
330
A9
100
AcDbEntity
  8
치수문자_일반주서
100
AcDbTrace
 10
-1.841524023601868
 20
-5.100491410295307
 30
0.0
 11
-1.333524023601868
 21
-1.798491410295307
 31
0.0
 12
-2.349524023601868
 22
-1.798491410295307
 32
0.0
 13
-2.349524023601868
 23
-1.798491410295307
 33
0.0
  0
LINE
  5
AE
330
A9
100
AcDbEntity
  8
치수문자_일반주서
100
AcDbLine
 10
-12.63440573964458
 20
10.23472747827022
 30
0.0
 11
-12.63440573964457
 21
9.52378999270572
 31
0.0
  0
LINE
  5
AF
330
A9
100
AcDbEntity
  8
치수문자_일반주서
100
AcDbLine
 10
-12.63440573964457
 20
9.52378999270572
 30
0.0
 11
-7.078155748585271
 21
9.523789992705758
 31
0.0
  0
LINE
  5
B0
330
A9
100
AcDbEntity
  8
치수문자_일반주서
100
AcDbLine
 10
-7.078155748585271
 20
9.523789992705758
 30
0.0
 11
-7.078155748585276
 21
10.23472747827026
 31
0.0
  0
LINE
  5
B1
330
A9
100
AcDbEntity
  8
치수문자_일반주서
100
AcDbLine
 10
-12.63440573964466
 20
21.06346034040748
 30
0.0
 11
-12.63440573964466
 21
21.77439782597198
 31
0.0
  0
LINE
  5
B2
330
A9
100
AcDbEntity
  8
치수문자_일반주서
100
AcDbLine
 10
-12.63440573964466
 20
21.77439782597198
 30
0.0
 11
-7.078155748585358
 21
21.77439782597202
 31
0.0
  0
LINE
  5
B3
330
A9
100
AcDbEntity
  8
치수문자_일반주서
100
AcDbLine
 10
-7.078155748585358
 20
21.77439782597202
 30
0.0
 11
-7.078155748585353
 21
21.06346034040752
 31
0.0
  0
LINE
  5
B4
330
A9
100
AcDbEntity
  8
치수문자_일반주서
100
AcDbLine
 10
3.481157664253888
 20
5.218258589704702
 30
0.0
 11
-2.841524023601865
 21
5.218258589704702
 31
0.0
  0
LINE
  5
B5
330
A9
100
AcDbEntity
  8
치수문자_일반주서
100
AcDbLine
 10
3.481157664253888
 20
-5.100491410295314
 30
0.0
 11
-2.841524023601868
 21
-5.100491410295307
 31
0.0
  0
LINE
  5
B6
330
A9
100
AcDbEntity
  8
치수문자_일반주서
100
AcDbLine
 10
-1.841524023601865
 20
5.218258589704702
 30
0.0
 11
-1.84152402360186
 21
24.10706285215994
 31
0.0
  0
LINE
  5
B7
330
A9
100
AcDbEntity
  8
치수문자_일반주서
100
AcDbLine
 10
-1.841524023601865
 20
5.218258589704702
 30
0.0
 11
-1.841524023601868
 21
-5.100491410295307
 31
0.0
  0
MTEXT
  5
B8
330
A9
100
AcDbEntity
  8
치수문자_일반주서
100
AcDbMText
 10
-11.58989266316418
 20
11.1233993788816
 30
0.0
 40
3.5
 41
0.0
 71
     1
 72
     1
  1
0.41
  7
SLDTEXTSTYLE0
 11
-7.044195017643634E-15
 21
1.0
 31
0.0
 73
     1
 44
1.0
  0
MTEXT
  5
B9
330
A9
100
AcDbEntity
  8
치수문자_일반주서
100
AcDbMText
 10
-6.353261112803678
 20
7.191124966517865
 30
0.0
 40
3.5
 41
0.0
 71
     1
 72
     1
  1
%%c
  7
SLDTEXTSTYLE0
 11
-7.044195017643634E-15
 21
1.0
 31
0.0
 73
     1
 44
1.0
  0
MTEXT
  5
BA
330
A9
100
AcDbEntity
  8
치수문자_일반주서
100
AcDbMText
 10
-6.353261112803716
 20
12.46956236489195
 30
0.0
 40
3.5
 41
0.0
 71
     1
 72
     1
  1
10.32
  7
SLDTEXTSTYLE0
 11
-7.044195017643634E-15
 21
1.0
 31
0.0
 73
     1
 44
1.0
  0
ENDBLK
  5
AB
330
A9
100
AcDbEntity
  8
0
100
AcDbBlockEnd
  0
BLOCK
  5
BD
330
BC
100
AcDbEntity
  8
0
100
AcDbBlockBegin
  2
_D_1
 70
     0
 10
0.0
 20
0.0
 30
0.0
  3
_D_1
  1
_D_1
  0
SOLID
  5
BF
330
BC
100
AcDbEntity
  8
치수문자_일반주서
100
AcDbTrace
 10
63.21865766425388
 20
20.38758007042971
 30
0.0
 11
59.91665766425388
 21
20.89558007042971
 31
0.0
 12
59.91665766425388
 22
19.87958007042971
 32
0.0
 13
59.91665766425388
 23
19.87958007042971
 33
0.0
  0
SOLID
  5
C0
330
BC
100
AcDbEntity
  8
치수문자_일반주서
100
AcDbTrace
 10
15.59365766425388
 20
20.38758007042971
 30
0.0
 11
18.89565766425388
 21
19.87958007042971
 31
0.0
 12
18.89565766425388
 22
20.89558007042971
 32
0.0
 13
18.89565766425388
 23
20.89558007042971
 33
0.0
  0
LINE
  5
C1
330
BC
100
AcDbEntity
  8
치수문자_일반주서
100
AcDbLine
 10
33.99179158243119
 20
31.18046178647244
 30
0.0
 11
33.28085409686669
 21
31.18046178647245
 31
0.0
  0
LINE
  5
C2
330
BC
100
AcDbEntity
  8
치수문자_일반주서
100
AcDbLine
 10
33.28085409686669
 20
31.18046178647245
 30
0.0
 11
33.28085409686665
 21
25.62421179541314
 31
0.0
  0
LINE
  5
C3
330
BC
100
AcDbEntity
  8
치수문자_일반주서
100
AcDbLine
 10
33.28085409686665
 20
25.62421179541314
 30
0.0
 11
33.99179158243115
 21
25.62421179541314
 31
0.0
  0
LINE
  5
C4
330
BC
100
AcDbEntity
  8
치수문자_일반주서
100
AcDbLine
 10
44.82052444456845
 20
31.18046178647236
 30
0.0
 11
45.53146193013295
 21
31.18046178647236
 31
0.0
  0
LINE
  5
C5
330
BC
100
AcDbEntity
  8
치수문자_일반주서
100
AcDbLine
 10
45.53146193013295
 20
31.18046178647236
 30
0.0
 11
45.53146193013291
 21
25.62421179541306
 31
0.0
  0
LINE
  5
C6
330
BC
100
AcDbEntity
  8
치수문자_일반주서
100
AcDbLine
 10
45.53146193013291
 20
25.62421179541306
 30
0.0
 11
44.82052444456841
 21
25.62421179541306
 31
0.0
  0
LINE
  5
C7
330
BC
100
AcDbEntity
  8
치수문자_일반주서
100
AcDbLine
 10
63.21865766425388
 20
11.33968733103758
 30
0.0
 11
63.21865766425388
 21
21.38758007042971
 31
0.0
  0
LINE
  5
C8
330
BC
100
AcDbEntity
  8
치수문자_일반주서
100
AcDbLine
 10
15.59365766425388
 20
11.36976846216373
 30
0.0
 11
15.59365766425388
 21
21.38758007042971
 31
0.0
  0
LINE
  5
C9
330
BC
100
AcDbEntity
  8
치수문자_일반주서
100
AcDbLine
 10
63.21865766425388
 20
20.38758007042971
 30
0.0
 11
15.59365766425388
 21
20.38758007042971
 31
0.0
  0
MTEXT
  5
CA
330
BC
100
AcDbEntity
  8
치수문자_일반주서
100
AcDbMText
 10
32.76709537137994
 20
24.95278933629142
 30
0.0
 40
3.5
 41
0.0
 71
     1
 72
     1
  1

  7
SLDTEXTSTYLE0
 73
     1
 44
1.0
  0
MTEXT
  5
CB
330
BC
100
AcDbEntity
  8
치수문자_일반주서
100
AcDbMText
 10
34.88046348304255
 20
30.13594870999203
 30
0.0
 40
3.5
 41
0.0
 71
     1
 72
     1
  1
1.88
  7
SLDTEXTSTYLE0
 73
     1
 44
1.0
  0
MTEXT
  5
CC
330
BC
100
AcDbEntity
  8
치수문자_일반주서
100
AcDbMText
 10
33.58740776986578
 20
24.89931715963156
 30
0.0
 40
3.5
 41
0.0
 71
     1
 72
     1
  1
47.63
  7
SLDTEXTSTYLE0
 73
     1
 44
1.0
  0
MTEXT
  5
CD
330
BC
100
AcDbEntity
  8
치수문자_일반주서
100
AcDbMText
 10
47.37716517527351
 20
24.95278933629132
 30
0.0
 40
3.5
 41
0.0
 71
     1
 72
     1
  1

  7
SLDTEXTSTYLE0
 73
     1
 44
1.0
  0
ENDBLK
  5
BE
330
BC
100
AcDbEntity
  8
0
100
AcDbBlockEnd
  0
BLOCK
  5
D1
330
D0
100
AcDbEntity
  8
0
100
AcDbBlockBegin
  2
_D_2
 70
     0
 10
0.0
 20
0.0
 30
0.0
  3
_D_2
  1
_D_2
  0
SOLID
  5
D3
330
D0
100
AcDbEntity
  8
치수문자_일반주서
100
AcDbTrace
 10
63.21865766425388
 20
32.38758007042967
 30
0.0
 11
59.91665766425388
 21
32.89558007042967
 31
0.0
 12
59.91665766425388
 22
31.87958007042967
 32
0.0
 13
59.91665766425388
 23
31.87958007042967
 33
0.0
  0
SOLID
  5
D4
330
D0
100
AcDbEntity
  8
치수문자_일반주서
100
AcDbTrace
 10
-38.38134233574612
 20
32.38758007042966
 30
0.0
 11
-35.07934233574612
 21
31.87958007042966
 31
0.0
 12
-35.07934233574612
 22
32.89558007042967
 32
0.0
 13
-35.07934233574612
 23
32.89558007042967
 33
0.0
  0
LINE
  5
D5
330
D0
100
AcDbEntity
  8
치수문자_일반주서
100
AcDbLine
 10
8.391667713730453
 20
43.1804617864724
 30
0.0
 11
7.680730228165951
 21
43.18046178647241
 31
0.0
  0
LINE
  5
D6
330
D0
100
AcDbEntity
  8
치수문자_일반주서
100
AcDbLine
 10
7.680730228165951
 20
43.18046178647241
 30
0.0
 11
7.680730228165911
 21
37.6242117954131
 31
0.0
  0
LINE
  5
D7
330
D0
100
AcDbEntity
  8
치수문자_일반주서
100
AcDbLine
 10
7.680730228165911
 20
37.6242117954131
 30
0.0
 11
8.391667713730412
 21
37.6242117954131
 31
0.0
  0
LINE
  5
D8
330
D0
100
AcDbEntity
  8
치수문자_일반주서
100
AcDbLine
 10
19.22040057586771
 20
43.18046178647232
 30
0.0
 11
19.93133806143221
 21
43.18046178647231
 31
0.0
  0
LINE
  5
D9
330
D0
100
AcDbEntity
  8
치수문자_일반주서
100
AcDbLine
 10
19.93133806143221
 20
43.18046178647231
 30
0.0
 11
19.93133806143217
 21
37.62421179541301
 31
0.0
  0
LINE
  5
DA
330
D0
100
AcDbEntity
  8
치수문자_일반주서
100
AcDbLine
 10
19.93133806143217
 20
37.62421179541301
 30
0.0
 11
19.22040057586767
 21
37.62421179541302
 31
0.0
  0
LINE
  5
DB
330
D0
100
AcDbEntity
  8
치수문자_일반주서
100
AcDbLine
 10
63.21865766425388
 20
11.33968733103758
 30
0.0
 11
63.21865766425388
 21
33.38758007042967
 31
0.0
  0
LINE
  5
DC
330
D0
100
AcDbEntity
  8
치수문자_일반주서
100
AcDbLine
 10
-38.38134233574612
 20
7.408883589704699
 30
0.0
 11
-38.38134233574612
 21
33.38758007042966
 31
0.0
  0
LINE
  5
DD
330
D0
100
AcDbEntity
  8
치수문자_일반주서
100
AcDbLine
 10
63.21865766425388
 20
32.38758007042967
 30
0.0
 11
-38.38134233574612
 21
32.38758007042966
 31
0.0
  0
MTEXT
  5
DE
330
D0
100
AcDbEntity
  8
치수문자_일반주서
100
AcDbMText
 10
6.713672591226917
 20
36.95278933629138
 30
0.0
 40
3.5
 41
0.0
 71
     1
 72
     1
  1

  7
SLDTEXTSTYLE0
 73
     1
 44
1.0
  0
MTEXT
  5
DF
330
D0
100
AcDbEntity
  8
치수문자_일반주서
100
AcDbMText
 10
9.280339614341813
 20
42.13594870999199
 30
0.0
 40
3.5
 41
0.0
 71
     1
 72
     1
  1
4.00
  7
SLDTEXTSTYLE0
 73
     1
 44
1.0
  0
MTEXT
  5
E0
330
D0
100
AcDbEntity
  8
치수문자_일반주서
100
AcDbMText
 10
6.694228187988321
 20
36.89931715963153
 30
0.0
 40
3.5
 41
0.0
 71
     1
 72
     1
  1
101.60
  7
SLDTEXTSTYLE0
 73
     1
 44
1.0
  0
MTEXT
  5
E1
330
D0
100
AcDbEntity
  8
치수문자_일반주서
100
AcDbMText
 10
22.23034021802507
 20
36.95278933629127
 30
0.0
 40
3.5
 41
0.0
 71
     1
 72
     1
  1

  7
SLDTEXTSTYLE0
 73
     1
 44
1.0
  0
ENDBLK
  5
D2
330
D0
100
AcDbEntity
  8
0
100
AcDbBlockEnd
  0
BLOCK
  5
E5
330
E4
100
AcDbEntity
  8
0
100
AcDbBlockBegin
  2
_D_3
 70
     0
 10
0.0
 20
0.0
 30
0.0
  3
_D_3
  1
_D_3
  0
SOLID
  5
E7
330
E4
100
AcDbEntity
  8
치수문자_일반주서
100
AcDbTrace
 10
-50.74634233574614
 20
7.996383589704708
 30
0.0
 11
-50.23834233574613
 21
11.29838358970471
 31
0.0
 12
-51.25434233574614
 22
11.29838358970471
 32
0.0
 13
-51.25434233574614
 23
11.29838358970471
 33
0.0
  0
SOLID
  5
E8
330
E4
100
AcDbEntity
  8
치수문자_일반주서
100
AcDbTrace
 10
-50.74634233574614
 20
-7.87861641029532
 30
0.0
 11
-51.25434233574614
 21
-11.18061641029532
 31
0.0
 12
-50.23834233574613
 22
-11.18061641029532
 32
0.0
 13
-50.23834233574613
 23
-11.18061641029532
 33
0.0
  0
LINE
  5
E9
330
E4
100
AcDbEntity
  8
치수문자_일반주서
100
AcDbLine
 10
-61.53922405178886
 20
-5.355482841363996
 30
0.0
 11
-61.53922405178885
 21
-6.066420326928496
 31
0.0
  0
LINE
  5
EA
330
E4
100
AcDbEntity
  8
치수문자_일반주서
100
AcDbLine
 10
-61.53922405178885
 20
-6.066420326928496
 30
0.0
 11
-55.98297406072955
 21
-6.066420326928457
 31
0.0
  0
LINE
  5
EB
330
E4
100
AcDbEntity
  8
치수문자_일반주서
100
AcDbLine
 10
-55.98297406072955
 20
-6.066420326928457
 30
0.0
 11
-55.98297406072955
 21
-5.355482841363957
 31
0.0
  0
LINE
  5
EC
330
E4
100
AcDbEntity
  8
치수문자_일반주서
100
AcDbLine
 10
-61.53922405178892
 20
5.473250020773262
 30
0.0
 11
-61.53922405178893
 21
6.184187506337762
 31
0.0
  0
LINE
  5
ED
330
E4
100
AcDbEntity
  8
치수문자_일반주서
100
AcDbLine
 10
-61.53922405178893
 20
6.184187506337762
 30
0.0
 11
-55.98297406072962
 21
6.184187506337802
 31
0.0
  0
LINE
  5
EE
330
E4
100
AcDbEntity
  8
치수문자_일반주서
100
AcDbLine
 10
-55.98297406072962
 20
6.184187506337802
 30
0.0
 11
-55.98297406072962
 21
5.473250020773301
 31
0.0
  0
LINE
  5
EF
330
E4
100
AcDbEntity
  8
치수문자_일반주서
100
AcDbLine
 10
-37.79384233574613
 20
7.996383589704708
 30
0.0
 11
-51.74634233574614
 21
7.996383589704708
 31
0.0
  0
LINE
  5
F0
330
E4
100
AcDbEntity
  8
치수문자_일반주서
100
AcDbLine
 10
-37.79384233574613
 20
-7.87861641029532
 30
0.0
 11
-51.74634233574614
 21
-7.87861641029532
 31
0.0
  0
LINE
  5
F1
330
E4
100
AcDbEntity
  8
치수문자_일반주서
100
AcDbLine
 10
-50.74634233574614
 20
7.996383589704708
 30
0.0
 11
-50.74634233574614
 21
14.34638358970471
 31
0.0
  0
LINE
  5
F2
330
E4
100
AcDbEntity
  8
치수문자_일반주서
100
AcDbLine
 10
-50.74634233574614
 20
7.996383589704708
 30
0.0
 11
-50.74634233574614
 21
-7.87861641029532
 31
0.0
  0
LINE
  5
F3
330
E4
100
AcDbEntity
  8
치수문자_일반주서
100
AcDbLine
 10
-50.74634233574614
 20
-7.87861641029532
 30
0.0
 11
-50.74634233574614
 21
-14.22861641029532
 31
0.0
  0
MTEXT
  5
F4
330
E4
100
AcDbEntity
  8
치수문자_일반주서
100
AcDbMText
 10
-60.49471097530844
 20
-4.466810940752618
 30
0.0
 40
3.5
 41
0.0
 71
     1
 72
     1
  1
0.63
  7
SLDTEXTSTYLE0
 11
-7.044195017643634E-15
 21
1.0
 31
0.0
 73
     1
 44
1.0
  0
MTEXT
  5
F5
330
E4
100
AcDbEntity
  8
치수문자_일반주서
100
AcDbMText
 10
-55.25807942494794
 20
-8.39908535311635
 30
0.0
 40
3.5
 41
0.0
 71
     1
 72
     1
  1
%%c
  7
SLDTEXTSTYLE0
 11
-7.044195017643634E-15
 21
1.0
 31
0.0
 73
     1
 44
1.0
  0
MTEXT
  5
F6
330
E4
100
AcDbEntity
  8
치수문자_일반주서
100
AcDbMText
 10
-55.25807942494798
 20
-3.120647954742269
 30
0.0
 40
3.5
 41
0.0
 71
     1
 72
     1
  1
15.88
  7
SLDTEXTSTYLE0
 11
-7.044195017643634E-15
 21
1.0
 31
0.0
 73
     1
 44
1.0
  0
ENDBLK
  5
E6
330
E4
100
AcDbEntity
  8
0
100
AcDbBlockEnd
  0
BLOCK
  5
FF
330
FE
100
AcDbEntity
  8
0
100
AcDbBlockBegin
  2
SW_DOWELSYMBOL_0
 70
     0
 10
0.0
 20
0.0
 30
0.0
  3
SW_DOWELSYMBOL_0
  1
SW_DOWELSYMBOL_0
  0
CIRCLE
  5
101
330
FE
100
AcDbEntity
  8
해칭선
 62
     0
100
AcDbCircle
 10
0.0
 20
0.0
 30
0.0
 40
2.999999999999999
  0
HATCH
  5
102
330
FE
100
AcDbEntity
  8
0
  6
Continuous
 62
     0
370
     0
100
AcDbHatch
 10
0.0
 20
0.0
 30
0.0
210
0.0
220
0.0
230
1.0
  2
SOLID
 70
     1
 71
     0
 91
        1
 92
        0
 93
        3
 72
     2
 10
0.0
 20
0.0
 40
2.999999999999999
 50
0.0
 51
90.0
 73
     1
 72
     1
 10
0.0
 20
2.999999999999999
 11
0.0
 21
0.0
 72
     1
 10
0.0
 20
0.0
 11
2.999999999999999
 21
0.0
 97
        0
 75
     0
 76
     1
 98
        1
 10
0.0
 20
0.0
  0
HATCH
  5
103
330
FE
100
AcDbEntity
  8
0
  6
Continuous
 62
     0
370
     0
100
AcDbHatch
 10
0.0
 20
0.0
 30
0.0
210
0.0
220
0.0
230
1.0
  2
SOLID
 70
     1
 71
     0
 91
        1
 92
        0
 93
        3
 72
     2
 10
0.0
 20
0.0
 40
2.999999999999999
 50
180.0
 51
270.0000000000008
 73
     1
 72
     1
 10
0.0
 20
-2.999999999999999
 11
0.0
 21
0.0
 72
     1
 10
0.0
 20
0.0
 11
-2.999999999999999
 21
0.0
 97
        0
 75
     0
 76
     1
 98
        1
 10
0.0
 20
0.0
  0
ENDBLK
  5
100
330
FE
100
AcDbEntity
  8
0
100
AcDbBlockEnd
  0
BLOCK
  5
1C9
330
1C8
100
AcDbEntity
  8
0
100
AcDbBlockBegin
  2
*D8
 70
     1
 10
0.0
 20
0.0
 30
0.0
  3
*D8
  1
*D8
  0
LINE
  5
1CB
330
1C8
100
AcDbEntity
  8
치수문자_일반주서
 62
     0
370
    -2
100
AcDbLine
 10
184.9750000000001
 20
39.81250000000009
 30
0.0
 11
184.9750000000001
 21
54.78125000000007
 31
0.0
  0
LINE
  5
1CC
330
1C8
100
AcDbEntity
  8
치수문자_일반주서
 62
     0
370
    -2
100
AcDbLine
 10
83.37500000000018
 20
37.22035572695179
 30
0.0
 11
83.37500000000018
 21
54.78125000000007
 31
0.0
  0
LINE
  5
1CD
330
1C8
100
AcDbEntity
  8
치수문자_일반주서
 62
     0
370
    -2
100
AcDbLine
 10
180.9750000000001
 20
54.78125000000007
 30
0.0
 11
87.37500000000018
 21
54.78125000000007
 31
0.0
  0
SOLID
  5
1CE
330
1C8
100
AcDbEntity
  8
치수문자_일반주서
 62
     0
100
AcDbTrace
 10
180.9750000000001
 20
54.11458333333341
 30
0.0
 11
180.9750000000001
 21
55.44791666666674
 31
0.0
 12
184.9750000000001
 22
54.78125000000007
 32
0.0
 13
184.9750000000001
 23
54.78125000000007
 33
0.0
  0
SOLID
  5
1CF
330
1C8
100
AcDbEntity
  8
치수문자_일반주서
 62
     0
100
AcDbTrace
 10
87.37500000000018
 20
55.44791666666674
 30
0.0
 11
87.37500000000018
 21
54.11458333333341
 31
0.0
 12
83.37500000000018
 22
54.78125000000007
 32
0.0
 13
83.37500000000018
 23
54.78125000000007
 33
0.0
  0
MTEXT
  5
1D0
330
1C8
100
AcDbEntity
  8
치수문자_일반주서
 62
     0
100
AcDbMText
 10
134.1750000000002
 20
59.65625000000007
 30
0.0
 40
4.0
 41
0.0
 71
     2
 72
     1
  1
\A1;101.6 [4]
  7
SLDTEXTSTYLE0
 73
     1
 44
1.0
  0
POINT
  5
1D1
330
1C8
100
AcDbEntity
  8
Defpoints
 62
     0
100
AcDbPoint
 10
184.9750000000001
 20
39.75000000000009
 30
0.0
  0
POINT
  5
1D2
330
1C8
100
AcDbEntity
  8
Defpoints
 62
     0
100
AcDbPoint
 10
83.37500000000018
 20
37.15785572695179
 30
0.0
  0
POINT
  5
1D3
330
1C8
100
AcDbEntity
  8
Defpoints
 62
     0
100
AcDbPoint
 10
83.37500000000018
 20
54.78125000000007
 30
0.0
  0
ENDBLK
  5
1CA
330
1C8
100
AcDbEntity
  8
0
100
AcDbBlockEnd
  0
BLOCK
  5
1D5
330
1D4
100
AcDbEntity
  8
0
100
AcDbBlockBegin
  2
*D9
 70
     1
 10
0.0
 20
0.0
 30
0.0
  3
*D9
  1
*D9
  0
LINE
  5
1D7
330
1D4
100
AcDbEntity
  8
치수문자_일반주서
 62
     0
370
    -2
100
AcDbLine
 10
184.9750000000001
 20
39.81250000000009
 30
0.0
 11
184.9750000000001
 21
69.75000000000006
 31
0.0
  0
LINE
  5
1D8
330
1D4
100
AcDbEntity
  8
치수문자_일반주서
 62
     0
370
    -2
100
AcDbLine
 10
19.87500000000017
 20
37.90750000000007
 30
0.0
 11
19.87500000000017
 21
69.75000000000006
 31
0.0
  0
LINE
  5
1D9
330
1D4
100
AcDbEntity
  8
치수문자_일반주서
 62
     0
370
    -2
100
AcDbLine
 10
180.9750000000001
 20
69.75000000000006
 30
0.0
 11
23.87500000000017
 21
69.75000000000006
 31
0.0
  0
SOLID
  5
1DA
330
1D4
100
AcDbEntity
  8
치수문자_일반주서
 62
     0
100
AcDbTrace
 10
180.9750000000001
 20
69.08333333333339
 30
0.0
 11
180.9750000000001
 21
70.41666666666673
 31
0.0
 12
184.9750000000001
 22
69.75000000000006
 32
0.0
 13
184.9750000000001
 23
69.75000000000006
 33
0.0
  0
SOLID
  5
1DB
330
1D4
100
AcDbEntity
  8
치수문자_일반주서
 62
     0
100
AcDbTrace
 10
23.87500000000017
 20
70.41666666666673
 30
0.0
 11
23.87500000000017
 21
69.08333333333339
 31
0.0
 12
19.87500000000017
 22
69.75000000000006
 32
0.0
 13
19.87500000000017
 23
69.75000000000006
 33
0.0
  0
MTEXT
  5
1DC
330
1D4
100
AcDbEntity
  8
치수문자_일반주서
 62
     0
100
AcDbMText
 10
102.4250000000002
 20
74.62500000000006
 30
0.0
 40
4.0
 41
0.0
 71
     2
 72
     1
  1
\A1;165.1 [6 1/2]
  7
SLDTEXTSTYLE0
 73
     1
 44
1.0
  0
POINT
  5
1DD
330
1D4
100
AcDbEntity
  8
Defpoints
 62
     0
100
AcDbPoint
 10
184.9750000000001
 20
39.75000000000009
 30
0.0
  0
POINT
  5
1DE
330
1D4
100
AcDbEntity
  8
Defpoints
 62
     0
100
AcDbPoint
 10
19.87500000000017
 20
37.84500000000007
 30
0.0
  0
POINT
  5
1DF
330
1D4
100
AcDbEntity
  8
Defpoints
 62
     0
100
AcDbPoint
 10
19.87500000000017
 20
69.75000000000006
 30
0.0
  0
ENDBLK
  5
1D6
330
1D4
100
AcDbEntity
  8
0
100
AcDbBlockEnd
  0
BLOCK
  5
1E1
330
1E0
100
AcDbEntity
  8
0
100
AcDbBlockBegin
  2
*D10
 70
     1
 10
0.0
 20
0.0
 30
0.0
  3
*D10
  1
*D10
  0
LINE
  5
1E3
330
1E0
100
AcDbEntity
  8
치수문자_일반주서
 62
     0
370
    -2
100
AcDbLine
 10
34.41750000000017
 20
39.75000000000007
 30
0.0
 11
4.875000000000162
 21
39.74999999999996
 31
0.0
  0
LINE
  5
1E4
330
1E0
100
AcDbEntity
  8
치수문자_일반주서
 62
     0
370
    -2
100
AcDbLine
 10
22.98750000000018
 20
8.000000000000071
 30
0.0
 11
4.875000000000273
 21
8.0
 31
0.0
  0
LINE
  5
1E5
330
1E0
100
AcDbEntity
  8
치수문자_일반주서
 62
     0
370
    -2
100
AcDbLine
 10
4.875000000000162
 20
39.74999999999996
 30
0.0
 11
4.875000000000009
 21
83.50000000000001
 31
0.0
  0
LINE
  5
1E6
330
1E0
100
AcDbEntity
  8
치수문자_일반주서
 62
     0
370
    -2
100
AcDbLine
 10
4.875000000000162
 20
39.74999999999996
 30
0.0
 11
4.875000000000273
 21
8.0
 31
0.0
  0
LINE
  5
1E7
330
1E0
100
AcDbEntity
  8
치수문자_일반주서
 62
     0
370
    -2
100
AcDbLine
 10
4.875000000000147
 20
43.74999999999996
 30
0.0
 11
4.875000000000133
 21
47.74999999999996
 31
0.0
  0
LINE
  5
1E8
330
1E0
100
AcDbEntity
  8
치수문자_일반주서
 62
     0
370
    -2
100
AcDbLine
 10
4.875000000000287
 20
4.0
 30
0.0
 11
4.875000000000301
 21
0.0
 31
0.0
  0
SOLID
  5
1E9
330
1E0
100
AcDbEntity
  8
치수문자_일반주서
 62
     0
100
AcDbTrace
 10
4.20833333333348
 20
43.74999999999996
 30
0.0
 11
5.541666666666814
 21
43.74999999999996
 31
0.0
 12
4.875000000000162
 22
39.74999999999996
 32
0.0
 13
4.875000000000162
 23
39.74999999999996
 33
0.0
  0
SOLID
  5
1EA
330
1E0
100
AcDbEntity
  8
치수문자_일반주서
 62
     0
100
AcDbTrace
 10
5.541666666666954
 20
4.000000000000003
 30
0.0
 11
4.20833333333362
 21
3.999999999999998
 31
0.0
 12
4.875000000000273
 22
8.0
 32
0.0
 13
4.875000000000273
 23
8.0
 33
0.0
  0
MTEXT
  5
1EB
330
1E0
100
AcDbEntity
  8
치수문자_일반주서
 62
     0
100
AcDbMText
 10
0.0000000000000711
 20
65.625
 30
0.0
 40
4.0
 41
0.0
 71
     2
 72
     1
  1
\A1;%%c31.75 [1 1/4]
  7
SLDTEXTSTYLE0
 11
-3.496765431890262E-15
 21
1.0
 31
0.0
 73
     1
 44
1.0
  0
POINT
  5
1EC
330
1E0
100
AcDbEntity
  8
Defpoints
 62
     0
100
AcDbPoint
 10
34.48000000000017
 20
39.75000000000007
 30
0.0
  0
POINT
  5
1ED
330
1E0
100
AcDbEntity
  8
Defpoints
 62
     0
100
AcDbPoint
 10
23.05000000000018
 20
8.000000000000071
 30
0.0
  0
POINT
  5
1EE
330
1E0
100
AcDbEntity
  8
Defpoints
 62
     0
100
AcDbPoint
 10
4.875000000000284
 20
8.000000000000004
 30
0.0
  0
ENDBLK
  5
1E2
330
1E0
100
AcDbEntity
  8
0
100
AcDbBlockEnd
  0
BLOCK
  5
1F0
330
1EF
100
AcDbEntity
  8
0
100
AcDbBlockBegin
  2
*D11
 70
     1
 10
0.0
 20
0.0
 30
0.0
  3
*D11
  1
*D11
  0
LINE
  5
1F2
330
1EF
100
AcDbEntity
  8
치수문자_일반주서
 62
     0
370
    -2
100
AcDbLine
 10
185.0375000000001
 20
8.000000000000082
 30
0.0
 11
199.9750000000003
 21
8.000000000000142
 31
0.0
  0
LINE
  5
1F3
330
1EF
100
AcDbEntity
  8
치수문자_일반주서
 62
     0
370
    -2
100
AcDbLine
 10
185.0375000000001
 20
39.75000000000009
 30
0.0
 11
199.9750000000002
 21
39.75000000000015
 31
0.0
  0
LINE
  5
1F4
330
1EF
100
AcDbEntity
  8
치수문자_일반주서
 62
     0
370
    -2
100
AcDbLine
 10
199.9750000000002
 20
39.75000000000015
 30
0.0
 11
199.9750000000001
 21
83.50000000000014
 31
0.0
  0
LINE
  5
1F5
330
1EF
100
AcDbEntity
  8
치수문자_일반주서
 62
     0
370
    -2
100
AcDbLine
 10
199.9750000000003
 20
8.000000000000142
 30
0.0
 11
199.9750000000002
 21
39.75000000000015
 31
0.0
  0
LINE
  5
1F6
330
1EF
100
AcDbEntity
  8
치수문자_일반주서
 62
     0
370
    -2
100
AcDbLine
 10
199.9750000000004
 20
4.000000000000142
 30
0.0
 11
199.9750000000004
 21
0.0000000000001421
 31
0.0
  0
LINE
  5
1F7
330
1EF
100
AcDbEntity
  8
치수문자_일반주서
 62
     0
370
    -2
100
AcDbLine
 10
199.9750000000002
 20
43.75000000000015
 30
0.0
 11
199.9750000000002
 21
47.75000000000015
 31
0.0
  0
SOLID
  5
1F8
330
1EF
100
AcDbEntity
  8
치수문자_일반주서
 62
     0
100
AcDbTrace
 10
200.641666666667
 20
4.000000000000145
 30
0.0
 11
199.3083333333337
 21
4.000000000000139
 31
0.0
 12
199.9750000000003
 22
8.000000000000142
 32
0.0
 13
199.9750000000003
 23
8.000000000000142
 33
0.0
  0
SOLID
  5
1F9
330
1EF
100
AcDbEntity
  8
치수문자_일반주서
 62
     0
100
AcDbTrace
 10
199.3083333333335
 20
43.75000000000015
 30
0.0
 11
200.6416666666669
 21
43.75000000000015
 31
0.0
 12
199.9750000000002
 22
39.75000000000015
 32
0.0
 13
199.9750000000002
 23
39.75000000000015
 33
0.0
  0
MTEXT
  5
1FA
330
1EF
100
AcDbEntity
  8
치수문자_일반주서
 62
     0
100
AcDbMText
 10
195.1000000000001
 20
65.62500000000013
 30
0.0
 40
4.0
 41
0.0
 71
     2
 72
     1
  1
\A1;%%c31.75 [1 1/4]
  7
SLDTEXTSTYLE0
 11
-3.580687802255622E-15
 21
1.0
 31
0.0
 73
     1
 44
1.0
  0
POINT
  5
1FB
330
1EF
100
AcDbEntity
  8
Defpoints
 62
     0
100
AcDbPoint
 10
184.9750000000001
 20
8.000000000000082
 30
0.0
  0
POINT
  5
1FC
330
1EF
100
AcDbEntity
  8
Defpoints
 62
     0
100
AcDbPoint
 10
184.9750000000001
 20
39.75000000000009
 30
0.0
  0
POINT
  5
1FD
330
1EF
100
AcDbEntity
  8
Defpoints
 62
     0
100
AcDbPoint
 10
199.9750000000001
 20
39.75000000000015
 30
0.0
  0
ENDBLK
  5
1F1
330
1EF
100
AcDbEntity
  8
0
100
AcDbBlockEnd
  0
BLOCK
  5
234
330
233
100
AcDbEntity
  8
0
100
AcDbBlockBegin
  2
*D12
 70
     1
 10
0.0
 20
0.0
 30
0.0
  3
*D12
  1
*D12
  0
LINE
  5
236
330
233
100
AcDbEntity
  8
치수문자_일반주서
 62
     0
370
    -2
100
AcDbLine
 10
113.5999999999991
 20
15.93750000000002
 30
0.0
 11
113.5999999999991
 21
30.90625
 31
0.0
  0
LINE
  5
237
330
233
100
AcDbEntity
  8
치수문자_일반주서
 62
     0
370
    -2
100
AcDbLine
 10
11.99999999999918
 20
13.34535572695172
 30
0.0
 11
11.99999999999918
 21
30.90625
 31
0.0
  0
LINE
  5
238
330
233
100
AcDbEntity
  8
치수문자_일반주서
 62
     0
370
    -2
100
AcDbLine
 10
109.5999999999991
 20
30.90625
 30
0.0
 11
15.99999999999918
 21
30.90625
 31
0.0
  0
SOLID
  5
239
330
233
100
AcDbEntity
  8
치수문자_일반주서
 62
     0
100
AcDbTrace
 10
109.5999999999991
 20
30.23958333333333
 30
0.0
 11
109.5999999999991
 21
31.57291666666667
 31
0.0
 12
113.5999999999991
 22
30.90625
 32
0.0
 13
113.5999999999991
 23
30.90625
 33
0.0
  0
SOLID
  5
23A
330
233
100
AcDbEntity
  8
치수문자_일반주서
 62
     0
100
AcDbTrace
 10
15.99999999999918
 20
31.57291666666667
 30
0.0
 11
15.99999999999918
 21
30.23958333333333
 31
0.0
 12
11.99999999999918
 22
30.90625
 32
0.0
 13
11.99999999999918
 23
30.90625
 33
0.0
  0
MTEXT
  5
23B
330
233
100
AcDbEntity
  8
치수문자_일반주서
 62
     0
100
AcDbMText
 10
62.79999999999917
 20
35.78125
 30
0.0
 40
4.0
 41
0.0
 71
     2
 72
     1
  1
\A1;101.6 [4]
  7
SLDTEXTSTYLE0
 73
     1
 44
1.0
  0
POINT
  5
23C
330
233
100
AcDbEntity
  8
Defpoints
 62
     0
100
AcDbPoint
 10
113.5999999999991
 20
15.87500000000002
 30
0.0
  0
POINT
  5
23D
330
233
100
AcDbEntity
  8
Defpoints
 62
     0
100
AcDbPoint
 10
11.99999999999918
 20
13.28285572695172
 30
0.0
  0
POINT
  5
23E
330
233
100
AcDbEntity
  8
Defpoints
 62
     0
100
AcDbPoint
 10
11.99999999999918
 20
30.90625
 30
0.0
  0
ENDBLK
  5
235
330
233
100
AcDbEntity
  8
0
100
AcDbBlockEnd
  0
BLOCK
  5
240
330
23F
100
AcDbEntity
  8
0
100
AcDbBlockBegin
  2
*D13
 70
     1
 10
0.0
 20
0.0
 30
0.0
  3
*D13
  1
*D13
  0
LINE
  5
242
330
23F
100
AcDbEntity
  8
치수문자_일반주서
 62
     0
370
    -2
100
AcDbLine
 10
113.5999999999991
 20
15.93750000000002
 30
0.0
 11
113.5999999999991
 21
45.87499999999999
 31
0.0
  0
LINE
  5
243
330
23F
100
AcDbEntity
  8
치수문자_일반주서
 62
     0
370
    -2
100
AcDbLine
 10
-51.50000000000084
 20
14.0325
 30
0.0
 11
-51.50000000000084
 21
45.87499999999999
 31
0.0
  0
LINE
  5
244
330
23F
100
AcDbEntity
  8
치수문자_일반주서
 62
     0
370
    -2
100
AcDbLine
 10
109.5999999999991
 20
45.87499999999999
 30
0.0
 11
-47.50000000000084
 21
45.87499999999999
 31
0.0
  0
SOLID
  5
245
330
23F
100
AcDbEntity
  8
치수문자_일반주서
 62
     0
100
AcDbTrace
 10
109.5999999999991
 20
45.20833333333332
 30
0.0
 11
109.5999999999991
 21
46.54166666666665
 31
0.0
 12
113.5999999999991
 22
45.87499999999999
 32
0.0
 13
113.5999999999991
 23
45.87499999999999
 33
0.0
  0
SOLID
  5
246
330
23F
100
AcDbEntity
  8
치수문자_일반주서
 62
     0
100
AcDbTrace
 10
-47.50000000000084
 20
46.54166666666665
 30
0.0
 11
-47.50000000000084
 21
45.20833333333332
 31
0.0
 12
-51.50000000000084
 22
45.87499999999999
 32
0.0
 13
-51.50000000000084
 23
45.87499999999999
 33
0.0
  0
MTEXT
  5
247
330
23F
100
AcDbEntity
  8
치수문자_일반주서
 62
     0
100
AcDbMText
 10
31.04999999999917
 20
50.74999999999999
 30
0.0
 40
4.0
 41
0.0
 71
     2
 72
     1
  1
\A1;165.1 [6 1/2]
  7
SLDTEXTSTYLE0
 73
     1
 44
1.0
  0
POINT
  5
248
330
23F
100
AcDbEntity
  8
Defpoints
 62
     0
100
AcDbPoint
 10
113.5999999999991
 20
15.87500000000002
 30
0.0
  0
POINT
  5
249
330
23F
100
AcDbEntity
  8
Defpoints
 62
     0
100
AcDbPoint
 10
-51.50000000000084
 20
13.97
 30
0.0
  0
POINT
  5
24A
330
23F
100
AcDbEntity
  8
Defpoints
 62
     0
100
AcDbPoint
 10
-51.50000000000084
 20
45.87499999999999
 30
0.0
  0
ENDBLK
  5
241
330
23F
100
AcDbEntity
  8
0
100
AcDbBlockEnd
  0
BLOCK
  5
24C
330
24B
100
AcDbEntity
  8
0
100
AcDbBlockBegin
  2
*D14
 70
     1
 10
0.0
 20
0.0
 30
0.0
  3
*D14
  1
*D14
  0
LINE
  5
24E
330
24B
100
AcDbEntity
  8
치수문자_일반주서
 62
     0
370
    -2
100
AcDbLine
 10
-36.95750000000084
 20
15.875
 30
0.0
 11
-66.50000000000084
 21
15.87499999999989
 31
0.0
  0
LINE
  5
24F
330
24B
100
AcDbEntity
  8
치수문자_일반주서
 62
     0
370
    -2
100
AcDbLine
 10
-48.38750000000083
 20
-15.875
 30
0.0
 11
-66.50000000000072
 21
-15.87500000000007
 31
0.0
  0
LINE
  5
250
330
24B
100
AcDbEntity
  8
치수문자_일반주서
 62
     0
370
    -2
100
AcDbLine
 10
-66.50000000000084
 20
15.87499999999989
 30
0.0
 11
-66.50000000000101
 21
59.62499999999994
 31
0.0
  0
LINE
  5
251
330
24B
100
AcDbEntity
  8
치수문자_일반주서
 62
     0
370
    -2
100
AcDbLine
 10
-66.50000000000084
 20
15.87499999999989
 30
0.0
 11
-66.50000000000072
 21
-15.87500000000007
 31
0.0
  0
LINE
  5
252
330
24B
100
AcDbEntity
  8
치수문자_일반주서
 62
     0
370
    -2
100
AcDbLine
 10
-66.50000000000085
 20
19.87499999999989
 30
0.0
 11
-66.50000000000087
 21
23.87499999999989
 31
0.0
  0
LINE
  5
253
330
24B
100
AcDbEntity
  8
치수문자_일반주서
 62
     0
370
    -2
100
AcDbLine
 10
-66.50000000000071
 20
-19.87500000000007
 30
0.0
 11
-66.5000000000007
 21
-23.87500000000007
 31
0.0
  0
SOLID
  5
254
330
24B
100
AcDbEntity
  8
치수문자_일반주서
 62
     0
100
AcDbTrace
 10
-67.16666666666752
 20
19.87499999999989
 30
0.0
 11
-65.83333333333418
 21
19.87499999999989
 31
0.0
 12
-66.50000000000084
 22
15.87499999999989
 32
0.0
 13
-66.50000000000084
 23
15.87499999999989
 33
0.0
  0
SOLID
  5
255
330
24B
100
AcDbEntity
  8
치수문자_일반주서
 62
     0
100
AcDbTrace
 10
-65.83333333333404
 20
-19.87500000000007
 30
0.0
 11
-67.16666666666738
 21
-19.87500000000007
 31
0.0
 12
-66.50000000000072
 22
-15.87500000000007
 32
0.0
 13
-66.50000000000072
 23
-15.87500000000007
 33
0.0
  0
MTEXT
  5
256
330
24B
100
AcDbEntity
  8
치수문자_일반주서
 62
     0
100
AcDbMText
 10
-71.37500000000094
 20
41.74999999999993
 30
0.0
 40
4.0
 41
0.0
 71
     2
 72
     1
  1
\A1;%%c31.75 [1 1/4]
  7
SLDTEXTSTYLE0
 11
-3.580687802255628E-15
 21
1.0
 31
0.0
 73
     1
 44
1.0
  0
POINT
  5
257
330
24B
100
AcDbEntity
  8
Defpoints
 62
     0
100
AcDbPoint
 10
-36.89500000000084
 20
15.875
 30
0.0
  0
POINT
  5
258
330
24B
100
AcDbEntity
  8
Defpoints
 62
     0
100
AcDbPoint
 10
-48.32500000000083
 20
-15.875
 30
0.0
  0
POINT
  5
259
330
24B
100
AcDbEntity
  8
Defpoints
 62
     0
100
AcDbPoint
 10
-66.50000000000074
 20
-15.87500000000007
 30
0.0
  0
ENDBLK
  5
24D
330
24B
100
AcDbEntity
  8
0
100
AcDbBlockEnd
  0
BLOCK
  5
25B
330
25A
100
AcDbEntity
  8
0
100
AcDbBlockBegin
  2
*D15
 70
     1
 10
0.0
 20
0.0
 30
0.0
  3
*D15
  1
*D15
  0
LINE
  5
25D
330
25A
100
AcDbEntity
  8
치수문자_일반주서
 62
     0
370
    -2
100
AcDbLine
 10
113.6624999999991
 20
-19.04999999999999
 30
0.0
 11
128.5999999999993
 21
-19.04999999999993
 31
0.0
  0
LINE
  5
25E
330
25A
100
AcDbEntity
  8
치수문자_일반주서
 62
     0
370
    -2
100
AcDbLine
 10
113.6624999999991
 20
19.05000000000002
 30
0.0
 11
128.5999999999992
 21
19.05000000000007
 31
0.0
  0
LINE
  5
25F
330
25A
100
AcDbEntity
  8
치수문자_일반주서
 62
     0
370
    -2
100
AcDbLine
 10
128.5999999999992
 20
19.05000000000007
 30
0.0
 11
128.599999999999
 21
62.30000000000007
 31
0.0
  0
LINE
  5
260
330
25A
100
AcDbEntity
  8
치수문자_일반주서
 62
     0
370
    -2
100
AcDbLine
 10
128.5999999999993
 20
-19.04999999999993
 30
0.0
 11
128.5999999999992
 21
19.05000000000007
 31
0.0
  0
LINE
  5
261
330
25A
100
AcDbEntity
  8
치수문자_일반주서
 62
     0
370
    -2
100
AcDbLine
 10
128.5999999999994
 20
-23.04999999999993
 30
0.0
 11
128.5999999999994
 21
-27.04999999999993
 31
0.0
  0
LINE
  5
262
330
25A
100
AcDbEntity
  8
치수문자_일반주서
 62
     0
370
    -2
100
AcDbLine
 10
128.5999999999992
 20
23.05000000000007
 30
0.0
 11
128.5999999999991
 21
27.05000000000007
 31
0.0
  0
SOLID
  5
263
330
25A
100
AcDbEntity
  8
치수문자_일반주서
 62
     0
100
AcDbTrace
 10
129.266666666666
 20
-23.04999999999992
 30
0.0
 11
127.9333333333327
 21
-23.04999999999993
 31
0.0
 12
128.5999999999993
 22
-19.04999999999993
 32
0.0
 13
128.5999999999993
 23
-19.04999999999993
 33
0.0
  0
SOLID
  5
264
330
25A
100
AcDbEntity
  8
치수문자_일반주서
 62
     0
100
AcDbTrace
 10
127.9333333333325
 20
23.05000000000007
 30
0.0
 11
129.2666666666658
 21
23.05000000000008
 31
0.0
 12
128.5999999999992
 22
19.05000000000007
 32
0.0
 13
128.5999999999992
 23
19.05000000000007
 33
0.0
  0
MTEXT
  5
265
330
25A
100
AcDbEntity
  8
치수문자_일반주서
 62
     0
100
AcDbMText
 10
123.7249999999991
 20
45.92500000000005
 30
0.0
 40
4.0
 41
0.0
 71
     2
 72
     1
  1
\A1;%%c38.1 [1 1/2]
  7
SLDTEXTSTYLE0
 11
-3.729883127349606E-15
 21
1.0
 31
0.0
 73
     1
 44
1.0
  0
POINT
  5
266
330
25A
100
AcDbEntity
  8
Defpoints
 62
     0
100
AcDbPoint
 10
113.5999999999991
 20
-19.04999999999999
 30
0.0
  0
POINT
  5
267
330
25A
100
AcDbEntity
  8
Defpoints
 62
     0
100
AcDbPoint
 10
113.5999999999991
 20
19.05000000000002
 30
0.0
  0
POINT
  5
268
330
25A
100
AcDbEntity
  8
Defpoints
 62
     0
100
AcDbPoint
 10
128.5999999999992
 20
19.05000000000008
 30
0.0
  0
ENDBLK
  5
25C
330
25A
100
AcDbEntity
  8
0
100
AcDbBlockEnd
  0
ENDSEC
  0
SECTION
  2
ENTITIES
  0
LINE
  5
9D
330
1F
100
AcDbEntity
  8
참조1
100
AcDbLine
 10
6.862407664253888
 20
0.0010749287238892
 30
0.0
 11
6.862407664253894
 21
-39.99892507127611
 31
0.0
  0
LINE
  5
9E
330
1F
100
AcDbEntity
  8
참조1
100
AcDbLine
 10
6.862407664253894
 20
-39.99892507127611
 30
0.0
 11
-19.40894915005478
 21
-39.9989250712761
 31
0.0
  0
INSERT
  5
A0
330
1F
100
AcDbEntity
  8
0
  6
Continuous
 62
     7
100
AcDbBlockReference
 66
     1
  2
블럭10
 10
-7.077865267871316
 20
-52.04609937292004
 30
0.0
  0
ATTRIB
  5
A1
330
A0
100
AcDbEntity
  8
FORMAT
 62
     2
100
AcDbText
 10
-16.2591605566126
 20
-49.97073246008785
 30
0.0
 40
4.233333333333333
  1
E1040132 [ 4 FLUTE ]
 41
0.75
  7
SLDTEXTSTYLE0
 11
-16.2591605566126
 21
-52.08739912675452
 31
0.0
100
AcDbAttribute
  2
AUTOATTR0
 70
     0
 74
     1
  0
SEQEND
  5
A2
330
A0
100
AcDbEntity
  8
0
  6
Continuous
 62
     7
  0
HATCH
  5
A3
330
1F
100
AcDbEntity
  8
중심선
100
AcDbHatch
 10
0.0
 20
0.0
 30
0.0
210
0.0
220
0.0
230
1.0
  2
SOLID
 70
     1
 71
     0
 91
        1
 92
        0
 93
        4
 72
     1
 10
-1.362955963490481
 20
-35.7989250712761
 11
-4.809231207327763
 21
-35.7989250712761
 72
     1
 10
-4.809231207327763
 20
-35.7989250712761
 11
-6.937461066531786
 21
-38.3352506518487
 72
     1
 10
-6.937461066531786
 20
-38.3352506518487
 11
-3.491152737581355
 21
-38.33521122254621
 72
     1
 10
-3.491152737581355
 20
-38.33521122254621
 11
-1.362955963490481
 21
-35.7989250712761
 97
        0
 75
     0
 76
     1
 98
        1
 10
0.0
 20
0.0
  0
HATCH
  5
A4
330
1F
100
AcDbEntity
  8
중심선
100
AcDbHatch
 10
0.0
 20
0.0
 30
0.0
210
0.0
220
0.0
230
1.0
  2
SOLID
 70
     1
 71
     0
 91
        1
 92
        0
 93
        4
 72
     1
 10
3.649808027545498
 20
-35.7989250712761
 11
0.2035327837082157
 21
-35.7989250712761
 72
     1
 10
0.2035327837082157
 20
-35.7989250712761
 11
-4.327605224649201
 21
-41.19892507127612
 72
     1
 10
-4.327605224649201
 20
-41.19892507127612
 11
-0.8813299808119179
 21
-41.19892507127612
 72
     1
 10
-0.8813299808119179
 20
-41.19892507127612
 11
3.649808027545498
 21
-35.7989250712761
 97
        0
 75
     0
 76
     1
 98
        1
 10
0.0
 20
0.0
  0
HATCH
  5
A5
330
1F
100
AcDbEntity
  8
중심선
100
AcDbHatch
 10
0.0
 20
0.0
 30
0.0
210
0.0
220
0.0
230
1.0
  2
SOLID
 70
     1
 71
     0
 91
        1
 92
        0
 93
        4
 72
     1
 10
8.662572018581422
 20
-35.79892507127608
 11
5.216296774744277
 21
-35.7989250712761
 72
     1
 10
5.216296774744277
 20
-35.7989250712761
 11
-1.832140127144999
 21
-44.19892507127612
 72
     1
 10
-1.832140127144999
 20
-44.19892507127612
 11
1.614135116692283
 21
-44.19892507127612
 72
     1
 10
1.614135116692283
 20
-44.19892507127612
 11
8.662572018581422
 21
-35.79892507127608
 97
        0
 75
     0
 76
     1
 98
        1
 10
0.0
 20
0.0
  0
HATCH
  5
A6
330
1F
100
AcDbEntity
  8
중심선
100
AcDbHatch
 10
0.0
 20
0.0
 30
0.0
210
0.0
220
0.0
230
1.0
  2
SOLID
 70
     1
 71
     0
 91
        1
 92
        0
 93
        6
 72
     3
 10
13.46246244959356
 20
-39.99892507132738
 11
3.960054785062284
 21
1.540850780301639E-10
 40
0.3939339440162633
 50
17.09539180608433
 51
320.0019657685081
 73
     0
 72
     1
 10
15.14546210529416
 20
-38.58681907591441
 11
17.45076397899523
 21
-36.65249236586646
 72
     3
 10
13.46246244954072
 20
-39.99892507127625
 11
6.600054785286829
 21
-1.249000902703301E-13
 40
0.6363583540795982
 50
39.99873849337411
 51
368.4976242363725
 73
     1
 72
     1
 10
19.88779494144133
 20
-39.03892507120613
 11
12.14252975637664
 21
-39.03892507120613
 72
     1
 10
12.14252975637664
 20
-39.03892507120613
 11
12.14250471193071
 21
-40.95892507120602
 72
     1
 10
12.14250471193071
 20
-40.95892507120602
 11
16.58388448140274
 21
-40.95892507120599
 97
        0
 75
     0
 76
     1
 98
        1
 10
0.0
 20
0.0
  0
LINE
  5
F7
330
1F
100
AcDbEntity
  8
참조1
100
AcDbLine
 10
78.56339147959949
 20
7.441074928723896
 30
0.0
 11
78.56339147959949
 21
-7.438925071276109
 31
0.0
  0
LINE
  5
F8
330
1F
100
AcDbEntity
  8
참조1
100
AcDbLine
 10
91.26339147959949
 20
5.441074928723896
 30
0.0
 11
78.56339147959949
 21
5.441074928723896
 31
0.0
  0
SOLID
  5
F9
330
1F
100
AcDbEntity
  8
참조1
100
AcDbTrace
 10
78.56339147959949
 20
5.441074928723896
 30
0.0
 11
84.91339147959948
 21
4.425074928723896
 31
0.0
 12
84.91339147959948
 22
6.457074928723896
 32
0.0
 13
84.91339147959948
 23
6.457074928723896
 33
0.0
  0
LINE
  5
FA
330
1F
100
AcDbEntity
  8
참조1
100
AcDbLine
 10
91.26339147959949
 20
-5.438925071276109
 30
0.0
 11
78.56339147959949
 21
-5.438925071276109
 31
0.0
  0
SOLID
  5
FB
330
1F
100
AcDbEntity
  8
참조1
100
AcDbTrace
 10
78.56339147959949
 20
-5.438925071276109
 30
0.0
 11
84.91339147959948
 21
-6.454925071276109
 31
0.0
 12
84.91339147959948
 22
-4.422925071276109
 32
0.0
 13
84.91339147959948
 23
-4.422925071276109
 33
0.0
  0
MTEXT
  5
FC
330
1F
100
AcDbEntity
  8
참조1
100
AcDbMText
 10
87.94774161222547
 20
11.01136670591222
 30
0.0
 40
3.5
 41
0.0
 71
     1
 72
     1
  1
A
  7
SLDTEXTSTYLE0
 73
     1
 44
1.0
  0
MTEXT
  5
FD
330
1F
100
AcDbEntity
  8
참조1
100
AcDbMText
 10
87.94774161222547
 20
0.1313667059122192
 30
0.0
 40
3.5
 41
0.0
 71
     1
 72
     1
  1
A
  7
SLDTEXTSTYLE0
 73
     1
 44
1.0
  0
LINE
  5
1FF
330
1F
100
AcDbEntity
  8
0
  6
Continuous
 62
     1
370
    15
100
AcDbLine
 10
64.60299977286985
 20
-19.05000000000001
 30
0.0
 11
76.2158514116808
 21
-19.05000000000001
 31
0.0
1001
PE_URL
1000

  0
LINE
  5
200
330
1F
100
AcDbEntity
  8
0
  6
Continuous
 62
     1
370
    15
100
AcDbLine
 10
24.38839766404359
 20
19.04999999999999
 30
0.0
 11
12.77121846424519
 21
19.04999999999999
 31
0.0
1001
PE_URL
1000

  0
LINE
  5
201
330
1F
100
AcDbEntity
  8
0
  6
Continuous
 62
     1
370
    15
100
AcDbLine
 10
76.21585141168087
 20
19.04999999999999
 30
0.0
 11
64.60299977287019
 21
19.04999999999999
 31
0.0
1001
PE_URL
1000

  0
LINE
  5
202
330
1F
100
AcDbEntity
  8
0
  6
Continuous
 62
     1
370
    15
100
AcDbLine
 10
12.77121846424526
 20
-19.05000000000001
 30
0.0
 11
24.38839766404335
 21
-19.05000000000001
 31
0.0
1001
PE_URL
1000

  0
LINE
  5
203
330
1F
100
AcDbEntity
  8
외형선
  6
Continuous
370
    15
100
AcDbLine
 10
-48.38750000000083
 20
-15.875
 30
0.0
 11
11.9999999999991
 21
-15.875
 31
0.0
  0
LINE
  5
204
330
1F
100
AcDbEntity
  8
외형선
  6
Continuous
370
    15
100
AcDbLine
 10
11.9999999999991
 20
15.875
 30
0.0
 11
-14.06992500000082
 21
15.875
 31
0.0
  0
LINE
  5
205
330
1F
100
AcDbEntity
  8
외형선
  6
Continuous
370
    15
100
AcDbLine
 10
-51.50000000000084
 20
-12.70000000000001
 30
0.0
 11
-48.32500000000084
 21
-15.875
 31
0.0
  0
SPLINE
  5
206
330
1F
100
AcDbEntity
  8
0
  6
Continuous
 62
     1
370
    15
100
AcDbSpline
210
0.0
220
0.0
230
1.0
 70
     8
 71
     3
 72
    14
 73
    10
 74
     0
 42
0.000000001
 43
0.00000001
 40
0.3846249981630516
 40
0.3846249981630516
 40
0.3846249981630516
 40
0.3846249981630516
 40
0.4135765876697584
 40
0.5169676973293705
 40
0.6203566468567242
 40
0.723742964770367
 40
0.818521390066372
 40
0.913298698387737
 40
1.0
 40
1.0
 40
1.0
 40
1.0
 10
11.9999999999991
 20
-17.7231774578265
 30
0.0
 10
12.50984231426633
 20
-17.83106852300876
 30
0.0
 10
14.84041855819757
 20
-18.29523653219695
 30
0.0
 10
18.99168527954329
 20
-18.88199410307543
 30
0.0
 10
24.45371115828247
 20
-19.13672142792808
 30
0.0
 10
29.76412719604399
 20
-18.87827094038821
 30
0.0
 10
34.92256064871111
 20
-18.15158101644395
 30
0.0
 10
39.78725221006764
 20
-17.09174560836516
 30
0.0
 10
42.98294168548699
 20
-16.08351036021384
 30
0.0
 10
44.50968049602119
 20
-15.6018265497744
 30
0.0
1001
PE_URL
1000

  0
SPLINE
  5
208
330
1F
100
AcDbEntity
  8
0
  6
Continuous
 62
     1
370
    15
100
AcDbSpline
210
0.0
220
0.0
230
1.0
 70
     8
 71
     3
 72
    18
 73
    14
 74
     0
 42
0.000000001
 43
0.00000001
 40
0.0
 40
0.0
 40
0.0
 40
0.0
 40
0.058364791056635
 40
0.1270227947390572
 40
0.1956814545519363
 40
0.2643408562966342
 40
0.3330010856734952
 40
0.4016622282702279
 40
0.4703243695503236
 40
0.5389875948415112
 40
0.607651989324247
 40
0.6763166016413531
 40
0.7213418817027963
 40
0.7213418817027963
 40
0.7213418817027963
 40
0.7213418817027963
 10
64.60299977286992
 20
-19.02208342286216
 30
0.0
 10
63.18428716402808
 20
-19.00281841112709
 30
0.0
 10
60.09665783744057
 20
-18.96089081082277
 30
0.0
 10
55.34008608944777
 20
-18.36732605473403
 30
0.0
 10
50.33326691489792
 20
-17.36475912304691
 30
0.0
 10
45.32638262073077
 20
-15.95123473814784
 30
0.0
 10
40.31942596791303
 20
-14.17429478400844
 30
0.0
 10
35.31238938315047
 20
-12.07073347736375
 30
0.0
 10
30.3052654771488
 20
-9.689976693089449
 30
0.0
 10
25.29804652700638
 20
-7.086423504342467
 30
0.0
 10
20.29075122722292
 20
-4.320077593111823
 30
0.0
 10
15.85803259643109
 20
-1.783095123834381
 30
0.0
 10
13.0944643720199
 20
-0.1864734118953734
 30
0.0
 10
11.99999999999934
 20
0.4451791420207293
 30
0.0
1001
PE_URL
1000

  0
SPLINE
  5
20A
330
1F
100
AcDbEntity
  8
0
  6
Continuous
 62
     1
370
    15
100
AcDbSpline
210
0.0
220
0.0
230
1.0
 70
     8
 71
     3
 72
    27
 73
    23
 74
     0
 42
0.000000001
 43
0.00000001
 40
0.0
 40
0.0
 40
0.0
 40
0.0
 40
0.0451559152980428
 40
0.0903135379056578
 40
0.1354726631174865
 40
0.1806330857109676
 40
0.2257946000165731
 40
0.270956999988376
 40
0.3161200792748943
 40
0.3575180468459274
 40
0.3989162545425567
 40
0.4403147542411351
 40
0.4817135977782114
 40
0.5231128369434837
 40
0.5645125234727576
 40
0.6059127090409286
 40
0.6473134452549756
 40
0.6887147836469781
 40
0.7301167756671547
 40
0.7715194726769229
 40
0.8129223010346844
 40
0.8400712775044658
 40
0.8400712775044658
 40
0.8400712775044658
 40
0.8400712775044658
 10
113.5999999999991
 20
-19.04999999999999
 30
0.0
 10
111.7795759313426
 20
-18.83972609681099
 30
0.0
 10
108.13865896523
 20
-18.55928225162364
 30
0.0
 10
102.6771351006708
 20
-17.49220489797139
 30
0.0
 10
97.21539565259633
 20
-15.98414930257091
 30
0.0
 10
91.75347031077757
 20
-14.02909100095991
 30
0.0
 10
86.2913746385362
 20
-11.69313056839345
 30
0.0
 10
80.8291957256229
 20
-9.036734012632335
 30
0.0
 10
75.51856428905276
 20
-6.214138398769901
 30
0.0
 10
70.36025327846286
 20
-3.320368914740298
 30
0.0
 10
65.35355386753886
 20
-0.4354682277956246
 30
0.0
 10
60.34684981955689
 20
2.459456332433168
 30
0.0
 10
55.34008576218834
 20
5.29786650135568
 30
0.0
 10
50.3332670025885
 20
8.014534489712474
 30
0.0
 10
45.32638259723255
 20
10.54702552795601
 30
0.0
 10
40.31942597421408
 20
12.83713638110606
 30
0.0
 10
35.31238938144525
 20
14.83223376390729
 30
0.0
 10
30.3052654776687
 20
16.48645651853755
 30
0.0
 10
25.29804652663211
 20
17.76179851701323
 30
0.0
 10
20.29075122820007
 20
18.62887009185145
 30
0.0
 10
15.85803259226397
 20
19.01759743626894
 30
0.0
 10
13.09446437390143
 20
19.05938881623014
 30
0.0
 10
11.99999999999912
 20
19.04465907718585
 30
0.0
1001
PE_URL
1000

  0
LINE
  5
20B
330
1F
100
AcDbEntity
  8
0
  6
Continuous
 62
     1
370
    15
100
AcDbLine
 10
113.5999999999991
 20
-17.25322970332196
 30
0.0
 11
113.5999999999991
 21
1.632229703322181
 31
0.0
1001
PE_URL
1000

  0
SPLINE
  5
20C
330
1F
100
AcDbEntity
  8
0
  6
Continuous
 62
     1
370
    15
100
AcDbSpline
210
0.0
220
0.0
230
1.0
 70
     8
 71
     3
 72
    26
 73
    22
 74
     0
 42
0.000000001
 43
0.00000001
 40
0.0
 40
0.0
 40
0.0
 40
0.0
 40
0.0007327129308984
 40
0.061953654521843
 40
0.1180773714335441
 40
0.1742004269207882
 40
0.2303228910548855
 40
0.2864448339876705
 40
0.3425663259419793
 40
0.3986874372021044
 40
0.4548082381042343
 40
0.5109287990268742
 40
0.5670491903812581
 40
0.6231694826017481
 40
0.6792897461362318
 40
0.7354100514365065
 40
0.788321409785722
 40
0.8412348142730808
 40
0.8941515361074892
 40
0.9470728434029251
 40
1.0
 40
1.0
 40
1.0
 40
1.0
 10
24.38839766404359
 20
19.04692037454091
 30
0.0
 10
24.410187670912
 20
19.04794563189779
 30
0.0
 10
26.25261531293295
 20
19.13463502607273
 30
0.0
 10
29.76412888246868
 20
18.84069472925448
 30
0.0
 10
34.92256031792683
 20
18.16617037448415
 30
0.0
 10
39.92944710327308
 20
17.0384524340149
 30
0.0
 10
44.93624882482074
 20
15.53404345020002
 30
0.0
 10
49.94300058727539
 20
13.66865809639201
 30
0.0
 10
54.94970250121943
 20
11.49022245885139
 30
0.0
 10
59.95636411746248
 20
9.047447064313133
 30
0.0
 10
64.96299226078955
 20
6.396833428543401
 30
0.0
 10
69.96959525479022
 20
3.599197317809794
 30
0.0
 10
74.97617818225018
 20
0.7188592475498817
 30
0.0
 10
79.98275761229705
 20
-2.178006585805595
 30
0.0
 10
84.98930742508169
 20
-5.024787940467675
 30
0.0
 10
89.90053102951829
 20
-7.704148624408417
 30
0.0
 10
94.71604670356442
 20
-10.1645272459351
 30
0.0
 10
99.43642946225872
 20
-12.37027169818842
 30
0.0
 10
104.1571452321239
 20
-14.31651417885959
 30
0.0
 10
108.8783491744866
 20
-15.99556882685874
 30
0.0
 10
112.0260584095457
 20
-16.83399396707145
 30
0.0
 10
113.5999999999992
 20
-17.25322970332196
 30
0.0
1001
PE_URL
1000

  0
SPLINE
  5
20D
330
1F
100
AcDbEntity
  8
0
  6
Continuous
 62
     1
370
    15
100
AcDbSpline
210
0.0
220
0.0
230
1.0
 70
     8
 71
     3
 72
    21
 73
    17
 74
     0
 42
0.000000001
 43
0.00000001
 40
0.0
 40
0.0
 40
0.0
 40
0.0
 40
0.0790453949474943
 40
0.15809377853908
 40
0.2371447924381841
 40
0.3161980774028713
 40
0.3952532734087917
 40
0.4743100197727082
 40
0.5533679552765111
 40
0.625835065622466
 40
0.6983025963080927
 40
0.770770638142906
 40
0.8432392818667453
 40
0.9157086181374368
 40
0.9881787375184686
 40
1.0
 40
1.0
 40
1.0
 40
1.0
 10
113.5999999999992
 20
1.632229703322181
 30
0.0
 10
111.7795759313428
 20
2.675168758382055
 30
0.0
 10
108.1386589652304
 20
4.761086301205586
 30
0.0
 10
102.6771351006693
 20
7.747808119475261
 30
0.0
 10
97.21539565260213
 20
10.52596225043736
 30
0.0
 10
91.7534703107558
 20
13.01551140059568
 30
0.0
 10
86.29137463861758
 20
15.1494697048016
 30
0.0
 10
80.82919572531901
 20
16.86917955078692
 30
0.0
 10
75.51856429014676
 20
18.09274131098713
 30
0.0
 10
70.36025327475717
 20
18.83267349962136
 30
0.0
 10
65.35355388140891
 20
19.11868007835589
 30
0.0
 10
60.34684976778179
 20
18.96296744579361
 30
0.0
 10
55.34008595542088
 20
18.38020399236443
 30
0.0
 10
50.33326628142314
 20
17.34239169556507
 30
0.0
 10
46.72312580712315
 20
16.39454391212086
 30
0.0
 10
44.78192061790772
 20
15.6993258962747
 30
0.0
 10
44.50968049602143
 20
15.60182654977439
 30
0.0
1001
PE_URL
1000

  0
LINE
  5
20F
330
1F
100
AcDbEntity
  8
0
  6
Continuous
 62
     1
370
    15
100
AcDbLine
 10
113.5999999999991
 20
-19.04999999999999
 30
0.0
 11
113.5999999999991
 21
19.05000000000002
 31
0.0
1001
PE_URL
1000

  0
SPLINE
  5
211
330
1F
100
AcDbEntity
  8
0
  6
Continuous
 62
     1
370
    15
100
AcDbSpline
210
0.0
220
0.0
230
1.0
 70
     8
 71
     3
 72
    15
 73
    11
 74
     0
 42
0.000000001
 43
0.00000001
 40
0.0
 40
0.0
 40
0.0
 40
0.0
 40
0.100761093061829
 40
0.2346821055802948
 40
0.3686032177653812
 40
0.4948667496445621
 40
0.6211351642679541
 40
0.7474114951491787
 40
0.8736987684163611
 40
1.0
 40
1.0
 40
1.0
 40
1.0
 10
76.21585141168087
 20
19.00917672081849
 30
0.0
 10
77.47148652223167
 20
19.00156585762255
 30
0.0
 10
80.39597932625269
 20
18.98383943817002
 30
0.0
 10
84.98930731373049
 20
18.44220928544247
 30
0.0
 10
89.90053105746138
 20
17.50055944754044
 30
0.0
 10
94.71604669626416
 20
16.18762869426841
 30
0.0
 10
99.43642946421436
 20
14.57434676965029
 30
0.0
 10
104.1571452316023
 20
12.65907631555806
 30
0.0
 10
108.8783491746171
 20
10.49712808910671
 30
0.0
 10
112.0260584095893
 20
8.883352620312703
 30
0.0
 10
113.5999999999992
 20
8.076420296418847
 30
0.0
1001
PE_URL
1000

  0
LINE
  5
212
330
1F
100
AcDbEntity
  8
0
  6
Continuous
 62
     1
370
    15
100
AcDbLine
 10
113.5999999999991
 20
1.632229703322181
 30
0.0
 11
113.5999999999991
 21
8.076420296418847
 31
0.0
1001
PE_URL
1000

  0
SPLINE
  5
214
330
1F
100
AcDbEntity
  8
0
  6
Continuous
 62
     1
370
    15
100
AcDbSpline
210
0.0
220
0.0
230
1.0
 70
     8
 71
     3
 72
    11
 73
     7
 74
     0
 42
0.000000001
 43
0.00000001
 40
0.0
 40
0.0
 40
0.0
 40
0.0
 40
0.315930463240027
 40
0.6318728715619003
 40
0.9478257927577161
 40
1.0
 40
1.0
 40
1.0
 40
1.0
 10
113.5999999999991
 20
19.05000000000002
 30
0.0
 10
111.7795760869854
 20
18.84174883258868
 30
0.0
 10
108.1386594321643
 20
18.56535053543478
 30
0.0
 10
102.6771332328252
 20
17.46793035546729
 30
0.0
 10
98.73539707143867
 20
16.46278341244316
 30
0.0
 10
96.61416387887405
 20
15.69716766738889
 30
0.0
 10
96.31352409536322
 20
15.58865788512999
 30
0.0
1001
PE_URL
1000

  0
SPLINE
  5
215
330
1F
100
AcDbEntity
  8
0
  6
Continuous
 62
     1
370
    15
100
AcDbSpline
210
0.0
220
0.0
230
1.0
 70
     8
 71
     3
 72
     8
 73
     4
 74
     0
 42
0.000000001
 43
0.00000001
 40
0.0
 40
0.0
 40
0.0
 40
0.0
 40
0.0365644793696531
 40
0.0365644793696531
 40
0.0365644793696531
 40
0.0365644793696531
 10
12.77121846424526
 20
-19.00147264085644
 30
0.0
 10
12.5141455499115
 20
-19.00507889702849
 30
0.0
 10
12.25707263557775
 20
-19.00868515320053
 30
0.0
 10
11.99999999999892
 20
-19.01122165548779
 30
0.0
1001
PE_URL
1000

  0
LINE
  5
216
330
1F
100
AcDbEntity
  8
0
  6
Continuous
 62
     1
370
    15
100
AcDbLine
 10
113.5999999999991
 20
8.029775276608829
 30
0.0
 11
113.5999999999991
 21
19.05000000000002
 31
0.0
1001
PE_URL
1000

  0
LINE
  5
21F
330
1F
100
AcDbEntity
  8
외형선
  6
Continuous
370
    15
100
AcDbLine
 10
-48.32500000000084
 20
-0.0000000000000036
 30
0.0
 11
-48.32500000000084
 21
13.97
 31
0.0
  0
LINE
  5
220
330
1F
100
AcDbEntity
  8
외형선
  6
Continuous
370
    15
100
AcDbLine
 10
-48.32500000000084
 20
-15.875
 30
0.0
 11
-48.32500000000084
 21
-0.0000000000000036
 31
0.0
  0
LINE
  5
222
330
1F
100
AcDbEntity
  8
외형선
  6
Continuous
370
    15
100
AcDbLine
 10
-51.50000000000084
 20
-0.0000000000000036
 30
0.0
 11
-51.50000000000084
 21
13.97
 31
0.0
  0
LINE
  5
223
330
1F
100
AcDbEntity
  8
외형선
  6
Continuous
370
    15
100
AcDbLine
 10
-51.50000000000084
 20
-12.70000000000001
 30
0.0
 11
-51.50000000000084
 21
-0.0000000000000036
 31
0.0
  0
LINE
  5
226
330
1F
100
AcDbEntity
  8
중심선
 62
     1
100
AcDbLine
 10
-58.50000000000084
 20
-0.0000000000000071
 30
0.0
 11
116.5999999999992
 21
0.0000000000000142
 31
0.0
  0
CIRCLE
  5
227
330
1F
100
AcDbEntity
  8
해칭선
100
AcDbCircle
 10
0.0
 20
0.0
 30
0.0
 40
3.000000000000002
  0
DIMENSION
  5
228
330
1F
100
AcDbEntity
  8
치수문자_일반주서
100
AcDbDimension
  2
*D12
 10
11.99999999999918
 20
30.90625
 30
0.0
 11
62.79999999999917
 21
30.90625
 31
0.0
 70
   160
  1
<>
 71
     2
 42
101.5999999999999
  3
SLDDIMSTYLE2
100
AcDbAlignedDimension
 13
113.5999999999991
 23
15.87500000000002
 33
0.0
 14
11.99999999999918
 24
13.28285572695172
 34
0.0
 50
0.000000000000004
100
AcDbRotatedDimension
1001
PE_URL
1000

1001
ACAD
1000
DSTYLE
1002
{
1070
   171
1070
     8
1070
   273
1070
     7
1070
    41
1040
4.0
1070
   140
1040
4.0
1002
}
  0
DIMENSION
  5
229
330
1F
100
AcDbEntity
  8
치수문자_일반주서
100
AcDbDimension
  2
*D13
 10
-51.50000000000084
 20
45.87499999999999
 30
0.0
 11
31.04999999999917
 21
45.87499999999999
 31
0.0
 70
   160
  1
<>
 71
     2
 42
165.0999999999999
  3
SLDDIMSTYLE2
100
AcDbAlignedDimension
 13
113.5999999999991
 23
15.87500000000002
 33
0.0
 14
-51.50000000000084
 24
13.97
 34
0.0
 50
0.0000000000000025
100
AcDbRotatedDimension
1001
PE_URL
1000

1001
ACAD
1000
DSTYLE
1002
{
1070
   171
1070
     8
1070
   273
1070
     7
1070
    41
1040
4.0
1070
   140
1040
4.0
1002
}
  0
DIMENSION
  5
22A
330
1F
100
AcDbEntity
  8
치수문자_일반주서
100
AcDbDimension
  2
*D14
 10
-66.50000000000072
 20
-15.87500000000007
 30
0.0
 11
-66.50000000000094
 21
41.74999999999994
 31
0.0
 70
   160
  1
%%c<>
 71
     2
 42
31.74999999999996
 52
-270.0
  3
SLDDIMSTYLE2
100
AcDbAlignedDimension
 13
-36.89500000000084
 23
15.875
 33
0.0
 14
-48.32500000000083
 24
-15.875
 34
0.0
 50
90.0000000000002
100
AcDbRotatedDimension
1001
PE_URL
1000

1001
ACAD
1000
DSTYLE
1002
{
1070
   171
1070
     8
1070
   273
1070
     7
1070
    41
1040
4.0
1070
   140
1040
4.0
1002
}
  0
DIMENSION
  5
22B
330
1F
100
AcDbEntity
  8
치수문자_일반주서
100
AcDbDimension
  2
*D15
 10
128.5999999999992
 20
19.05000000000007
 30
0.0
 11
128.5999999999991
 21
45.92500000000007
 31
0.0
 70
   160
  1
%%c<>
 71
     2
 42
38.10000000000001
 52
-270.0
  3
SLDDIMSTYLE2
100
AcDbAlignedDimension
 13
113.5999999999991
 23
-19.04999999999999
 33
0.0
 14
113.5999999999991
 24
19.05000000000002
 34
0.0
 50
90.0000000000002
100
AcDbRotatedDimension
1001
PE_URL
1000

1001
ACAD
1000
DSTYLE
1002
{
1070
   171
1070
     8
1070
   273
1070
     7
1070
    41
1040
4.0
1070
   140
1040
4.0
1002
}
  0
INSERT
  5
22C
330
1F
100
AcDbEntity
  8
해칭선
100
AcDbBlockReference
  2
SW_DOWELSYMBOL_0
 10
0.0
 20
0.0
 30
0.0
  0
LINE
  5
22D
330
1F
100
AcDbEntity
  8
외형선
  6
Continuous
370
    15
100
AcDbLine
 10
-29.08132500000075
 20
13.97
 30
0.0
 11
-15.97492500000085
 21
13.97
 31
0.0
1001
PE_URL
1000

  0
LINE
  5
22E
330
1F
100
AcDbEntity
  8
외형선
  6
Continuous
370
    15
100
AcDbLine
 10
-29.08132500000075
 20
13.97000000000001
 30
0.0
 11
-30.98632500000072
 21
15.875
 31
0.0
1001
PE_URL
1000

  0
LINE
  5
22F
330
1F
100
AcDbEntity
  8
외형선
  6
Continuous
370
    15
100
AcDbLine
 10
-15.97492500000085
 20
13.97000000000001
 30
0.0
 11
-14.06992500000082
 21
15.875
 31
0.0
1001
PE_URL
1000

  0
LINE
  5
230
330
1F
100
AcDbEntity
  8
외형선
  6
Continuous
370
    15
100
AcDbLine
 10
-51.50000000000084
 20
13.97
 30
0.0
 11
-38.80000000000082
 21
13.97
 31
0.0
1001
PE_URL
1000

  0
LINE
  5
231
330
1F
100
AcDbEntity
  8
외형선
  6
Continuous
370
    15
100
AcDbLine
 10
-38.80000000000082
 20
13.97000000000001
 30
0.0
 11
-36.89500000000085
 21
15.87499999999999
 31
0.0
1001
PE_URL
1000

  0
LINE
  5
232
330
1F
100
AcDbEntity
  8
외형선
  6
Continuous
370
    15
100
AcDbLine
 10
-30.98632500000071
 20
15.875
 30
0.0
 11
-36.89500000000084
 21
15.875
 31
0.0
  0
LINE
  5
26A
330
1F
100
AcDbEntity
  8
외형선
  6
Continuous
370
    15
100
AcDbLine
 10
11.9999999999991
 20
19.05000000000001
 30
0.0
 11
11.9999999999991
 21
-19.04999999999998
 31
0.0
  0
SPLINE
  5
26C
330
1F
100
AcDbEntity
  8
0
  6
Continuous
 62
     1
370
    15
100
AcDbSpline
210
0.0
220
0.0
230
1.0
 70
     8
 71
     3
 72
    25
 73
    21
 74
     0
 42
0.000000001
 43
0.00000001
 40
0.194193121551774
 40
0.194193121551774
 40
0.194193121551774
 40
0.194193121551774
 40
0.2088104749941505
 40
0.2610115602631138
 40
0.3132115549039893
 40
0.3654102208707441
 40
0.4132628522703226
 40
0.4611149197211379
 40
0.5089664829679247
 40
0.5568176018240749
 40
0.6046683361635186
 40
0.6525187459125849
 40
0.7003688910418512
 40
0.748218831557975
 40
0.7960686274955198
 40
0.8439183389087679
 40
0.8917680258635349
 40
0.939617748428969
 40
0.9847314341800304
 40
1.0
 40
1.0
 40
1.0
 40
1.0
 10
11.9999999999991
 20
6.98561907518156
 30
0.0
 10
12.50984231430612
 20
6.711697185302063
 30
0.0
 10
14.84041855804578
 20
5.448079648733534
 30
0.0
 10
18.99168527706138
 20
3.116126562441514
 30
0.0
 10
24.45371116754475
 20
-0.0379706766853207
 30
0.0
 10
29.764127162694
 20
-3.103476315337118
 30
0.0
 10
34.92256076169678
 20
-6.002174908958067
 30
0.0
 10
39.92944698437461
 20
-8.67784436194834
 30
0.0
 10
44.93624885665159
 20
-11.15404708313659
 30
0.0
 10
49.94300057884884
 20
-13.37390942492371
 30
0.0
 10
54.94970250309493
 20
-15.28641455166235
 30
0.0
 10
59.95636411838738
 20
-16.84760544558759
 30
0.0
 10
64.96299225521479
 20
-18.02164868630724
 30
0.0
 10
69.96959527616455
 20
-18.78141092014558
 30
0.0
 10
74.97617810232755
 20
-19.11001509332646
 30
0.0
 10
79.98275791061252
 20
-18.99774315236631
 30
0.0
 10
84.98930631174245
 20
-18.45526621835348
 30
0.0
 10
89.9005350841484
 20
-17.48373432383439
 30
0.0
 10
93.6751235742658
 20
-16.50812564690846
 30
0.0
 10
95.78101706629032
 20
-15.7742335936844
 30
0.0
 10
96.31352409536322
 20
-15.58865788513
 30
0.0
  0
ENDSEC
  0
SECTION
  2
OBJECTS
  0
DICTIONARY
  5
C
330
0
100
AcDbDictionary
281
     1
  3
ACAD_GROUP
350
D
  3
ACAD_IMAGE_VARS
350
128
  3
ACAD_LAYOUT
350
1A
  3
ACAD_MLINESTYLE
350
17
  3
ACAD_PLOTSETTINGS
350
19
  3
ACAD_PLOTSTYLENAME
350
E
  3
ACAD_SCALELIST
350
47
  3
APPDATA
350
126
  3
DWGPROPS
350
26D
  0
DICTIONARY
  5
1C4
330
2
100
AcDbDictionary
280
     1
281
     1
  3
ACAD_LAYERSTATES
360
1C5
  0
DICTIONARY
  5
D
102
{ACAD_REACTORS
330
C
102
}
330
C
100
AcDbDictionary
281
     1
  0
RASTERVARIABLES
  5
128
102
{ACAD_REACTORS
330
C
102
}
330
C
100
AcDbRasterVariables
 90
        0
 70
     1
 71
     1
 72
     1
  0
DICTIONARY
  5
1A
102
{ACAD_REACTORS
330
C
102
}
330
C
100
AcDbDictionary
281
     1
  3
Layout1
350
1E
  3
Layout2
350
26
  3
Model
350
22
  0
DICTIONARY
  5
17
102
{ACAD_REACTORS
330
C
102
}
330
C
100
AcDbDictionary
281
     1
  3
Standard
350
18
  0
DICTIONARY
  5
19
102
{ACAD_REACTORS
330
C
102
}
330
C
100
AcDbDictionary
281
     1
  0
ACDBDICTIONARYWDFLT
  5
E
102
{ACAD_REACTORS
330
C
102
}
330
C
100
AcDbDictionary
281
     1
  3
Normal
350
F
100
AcDbDictionaryWithDefault
340
F
  0
DICTIONARY
  5
47
102
{ACAD_REACTORS
330
C
102
}
330
C
100
AcDbDictionary
281
     1
  3
A0
350
48
  3
A1
350
49
  3
A2
350
4A
  3
A3
350
4B
  3
A4
350
4C
  3
A5
350
4D
  3
A6
350
4E
  3
A7
350
4F
  3
A8
350
50
  3
A9
350
51
  3
B0
350
52
  3
B1
350
53
  3
B2
350
54
  3
B3
350
55
  3
B4
350
56
  3
B5
350
57
  3
B6
350
58
  3
B7
350
59
  3
B8
350
5A
  3
B9
350
5B
  3
C0
350
5C
  3
C1
350
5D
  3
C2
350
5E
  3
C3
350
5F
  3
C4
350
60
  3
C5
350
61
  3
C6
350
62
  3
C7
350
63
  3
C8
350
64
  3
C9
350
65
  3
D0
350
66
  3
D1
350
67
  3
D2
350
68
  0
DICTIONARY
  5
126
102
{ACAD_REACTORS
330
C
102
}
330
C
100
AcDbDictionary
281
     1
  0
XRECORD
  5
26D
102
{ACAD_REACTORS
330
C
102
}
330
C
100
AcDbXrecord
280
     1
  1
DWGPROPS COOKIE
  2

  3

  4

  6

  7

  8
12016016
  9

300
=
301
=
302
=
303
=
304
=
305
=
306
=
307
=
308
=
309
=
 40
0.0
 41
2458312.37046662
 42
2458330.268231713
  1

 90
        0
  0
DICTIONARY
  5
1C5
102
{ACAD_REACTORS
330
1C4
102
}
330
1C4
100
AcDbDictionary
281
     1
  0
LAYOUT
  5
1E
102
{ACAD_REACTORS
330
1A
102
}
330
1A
100
AcDbPlotSettings
  1

  2
none_device
  4

  6

 40
0.0
 41
0.0
 42
0.0
 43
0.0
 44
0.0
 45
0.0
 46
0.0
 47
0.0
 48
0.0
 49
0.0
140
0.0
141
0.0
142
1.0
143
1.0
 70
   688
 72
     1
 73
     0
 74
     5
  7

 75
    16
147
1.0
148
0.0
149
0.0
100
AcDbLayout
  1
Layout1
 70
     1
 71
     1
 10
0.0
 20
0.0
 11
420.0
 21
297.0
 12
0.0
 22
0.0
 32
0.0
 14
1.000000000000000E+20
 24
1.000000000000000E+20
 34
1.000000000000000E+20
 15
-1.000000000000000E+20
 25
-1.000000000000000E+20
 35
-1.000000000000000E+20
146
0.0
 13
0.0
 23
0.0
 33
0.0
 16
1.0
 26
0.0
 36
0.0
 17
0.0
 27
1.0
 37
0.0
 76
     0
330
1B
  0
LAYOUT
  5
26
102
{ACAD_REACTORS
330
1A
102
}
330
1A
100
AcDbPlotSettings
  1

  2
none_device
  4

  6

 40
0.0
 41
0.0
 42
0.0
 43
0.0
 44
0.0
 45
0.0
 46
0.0
 47
0.0
 48
0.0
 49
0.0
140
0.0
141
0.0
142
1.0
143
1.0
 70
   688
 72
     1
 73
     0
 74
     5
  7

 75
    16
147
1.0
148
0.0
149
0.0
100
AcDbLayout
  1
Layout2
 70
     1
 71
     2
 10
0.0
 20
0.0
 11
0.0
 21
0.0
 12
0.0
 22
0.0
 32
0.0
 14
0.0
 24
0.0
 34
0.0
 15
0.0
 25
0.0
 35
0.0
146
0.0
 13
0.0
 23
0.0
 33
0.0
 16
1.0
 26
0.0
 36
0.0
 17
0.0
 27
1.0
 37
0.0
 76
     0
330
23
  0
LAYOUT
  5
22
102
{ACAD_REACTORS
330
1A
102
}
330
1A
100
AcDbPlotSettings
  1

  2
none_device
  4
ANSI_A_(11.00_x_8.50_Inches)
  6

 40
6.35
 41
19.05
 42
6.35000508
 43
19.05000254
 44
279.4
 45
215.9
 46
96.59860135090054
 47
95.11647126007362
 48
0.0
 49
0.0
140
0.0
141
0.0
142
0.064968232911247
143
1.0
 70
  1696
 72
     0
 73
     0
 74
     0
  7

 75
     0
147
0.0235690232323232
148
0.0
149
0.0
100
AcDbLayout
  1
Model
 70
     1
 71
     0
 10
0.0
 20
0.0
 11
420.0
 21
297.0
 12
0.0
 22
0.0
 32
0.0
 14
1.000000000000000E+20
 24
1.000000000000000E+20
 34
1.000000000000000E+20
 15
-1.000000000000000E+20
 25
-1.000000000000000E+20
 35
-1.000000000000000E+20
146
0.0
 13
0.0
 23
0.0
 33
0.0
 16
1.0
 26
0.0
 36
0.0
 17
0.0
 27
1.0
 37
0.0
 76
     0
330
1F
331
29
  0
MLINESTYLE
  5
18
102
{ACAD_REACTORS
330
17
102
}
330
17
100
AcDbMlineStyle
  2
Standard
 70
     0
  3

 62
   256
 51
90.0
 52
90.0
 71
     2
 49
0.5
 62
   256
  6
BYLAYER
 49
-0.5
 62
   256
  6
BYLAYER
  0
ACDBPLACEHOLDER
  5
F
102
{ACAD_REACTORS
330
E
102
}
330
E
  0
SCALE
  5
48
102
{ACAD_REACTORS
330
47
102
}
330
47
100
AcDbScale
 70
     0
300
1:1
140
1.0
141
1.0
290
     1
  0
SCALE
  5
49
102
{ACAD_REACTORS
330
47
102
}
330
47
100
AcDbScale
 70
     0
300
1:2
140
1.0
141
2.0
290
     0
  0
SCALE
  5
4A
102
{ACAD_REACTORS
330
47
102
}
330
47
100
AcDbScale
 70
     0
300
1:4
140
1.0
141
4.0
290
     0
  0
SCALE
  5
4B
102
{ACAD_REACTORS
330
47
102
}
330
47
100
AcDbScale
 70
     0
300
1:5
140
1.0
141
5.0
290
     0
  0
SCALE
  5
4C
102
{ACAD_REACTORS
330
47
102
}
330
47
100
AcDbScale
 70
     0
300
1:8
140
1.0
141
8.0
290
     0
  0
SCALE
  5
4D
102
{ACAD_REACTORS
330
47
102
}
330
47
100
AcDbScale
 70
     0
300
1:10
140
1.0
141
10.0
290
     0
  0
SCALE
  5
4E
102
{ACAD_REACTORS
330
47
102
}
330
47
100
AcDbScale
 70
     0
300
1:16
140
1.0
141
16.0
290
     0
  0
SCALE
  5
4F
102
{ACAD_REACTORS
330
47
102
}
330
47
100
AcDbScale
 70
     0
300
1:20
140
1.0
141
20.0
290
     0
  0
SCALE
  5
50
102
{ACAD_REACTORS
330
47
102
}
330
47
100
AcDbScale
 70
     0
300
1:30
140
1.0
141
30.0
290
     0
  0
SCALE
  5
51
102
{ACAD_REACTORS
330
47
102
}
330
47
100
AcDbScale
 70
     0
300
1:40
140
1.0
141
40.0
290
     0
  0
SCALE
  5
52
102
{ACAD_REACTORS
330
47
102
}
330
47
100
AcDbScale
 70
     0
300
1:50
140
1.0
141
50.0
290
     0
  0
SCALE
  5
53
102
{ACAD_REACTORS
330
47
102
}
330
47
100
AcDbScale
 70
     0
300
1:100
140
1.0
141
100.0
290
     0
  0
SCALE
  5
54
102
{ACAD_REACTORS
330
47
102
}
330
47
100
AcDbScale
 70
     0
300
2:1
140
2.0
141
1.0
290
     0
  0
SCALE
  5
55
102
{ACAD_REACTORS
330
47
102
}
330
47
100
AcDbScale
 70
     0
300
4:1
140
4.0
141
1.0
290
     0
  0
SCALE
  5
56
102
{ACAD_REACTORS
330
47
102
}
330
47
100
AcDbScale
 70
     0
300
8:1
140
8.0
141
1.0
290
     0
  0
SCALE
  5
57
102
{ACAD_REACTORS
330
47
102
}
330
47
100
AcDbScale
 70
     0
300
10:1
140
10.0
141
1.0
290
     0
  0
SCALE
  5
58
102
{ACAD_REACTORS
330
47
102
}
330
47
100
AcDbScale
 70
     0
300
100:1
140
100.0
141
1.0
290
     0
  0
SCALE
  5
59
102
{ACAD_REACTORS
330
47
102
}
330
47
100
AcDbScale
 70
     0
300
1/128" = 1'-0"
140
0.0078125
141
12.0
290
     0
  0
SCALE
  5
5A
102
{ACAD_REACTORS
330
47
102
}
330
47
100
AcDbScale
 70
     0
300
1/64" = 1'-0"
140
0.015625
141
12.0
290
     0
  0
SCALE
  5
5B
102
{ACAD_REACTORS
330
47
102
}
330
47
100
AcDbScale
 70
     0
300
1/32" = 1'-0"
140
0.03125
141
12.0
290
     0
  0
SCALE
  5
5C
102
{ACAD_REACTORS
330
47
102
}
330
47
100
AcDbScale
 70
     0
300
1/16" = 1'-0"
140
0.0625
141
12.0
290
     0
  0
SCALE
  5
5D
102
{ACAD_REACTORS
330
47
102
}
330
47
100
AcDbScale
 70
     0
300
3/32" = 1'-0"
140
0.09375
141
12.0
290
     0
  0
SCALE
  5
5E
102
{ACAD_REACTORS
330
47
102
}
330
47
100
AcDbScale
 70
     0
300
1/8" = 1'-0"
140
0.125
141
12.0
290
     0
  0
SCALE
  5
5F
102
{ACAD_REACTORS
330
47
102
}
330
47
100
AcDbScale
 70
     0
300
3/16" = 1'-0"
140
0.1875
141
12.0
290
     0
  0
SCALE
  5
60
102
{ACAD_REACTORS
330
47
102
}
330
47
100
AcDbScale
 70
     0
300
1/4" = 1'-0"
140
0.25
141
12.0
290
     0
  0
SCALE
  5
61
102
{ACAD_REACTORS
330
47
102
}
330
47
100
AcDbScale
 70
     0
300
3/8" = 1'-0"
140
0.375
141
12.0
290
     0
  0
SCALE
  5
62
102
{ACAD_REACTORS
330
47
102
}
330
47
100
AcDbScale
 70
     0
300
1/2" = 1'-0"
140
0.5
141
12.0
290
     0
  0
SCALE
  5
63
102
{ACAD_REACTORS
330
47
102
}
330
47
100
AcDbScale
 70
     0
300
3/4" = 1'-0"
140
0.75
141
12.0
290
     0
  0
SCALE
  5
64
102
{ACAD_REACTORS
330
47
102
}
330
47
100
AcDbScale
 70
     0
300
1" = 1'-0"
140
1.0
141
12.0
290
     0
  0
SCALE
  5
65
102
{ACAD_REACTORS
330
47
102
}
330
47
100
AcDbScale
 70
     0
300
1-1/2" = 1'-0"
140
1.5
141
12.0
290
     0
  0
SCALE
  5
66
102
{ACAD_REACTORS
330
47
102
}
330
47
100
AcDbScale
 70
     0
300
3" = 1'-0"
140
3.0
141
12.0
290
     0
  0
SCALE
  5
67
102
{ACAD_REACTORS
330
47
102
}
330
47
100
AcDbScale
 70
     0
300
6" = 1'-0"
140
6.0
141
12.0
290
     0
  0
SCALE
  5
68
102
{ACAD_REACTORS
330
47
102
}
330
47
100
AcDbScale
 70
     0
300
1'-0" = 1'-0"
140
12.0
141
12.0
290
     0
  0
ENDSEC
  0
EOF
