  0
SECTION
  2
HEADER
  9
$ACADVER
  1
AC1015
  9
$ACADMAINTVER
 70
     6
  9
$DWGCODEPAGE
  3
ANSI_949
  9
$INSBASE
 10
0.0
 20
0.0
 30
0.0
  9
$EXTMIN
 10
-71.37500000000014
 20
-49.97180738881174
 30
0.0
  9
$EXTMAX
 10
129.2666666666667
 20
49.90329691240976
 30
0.0
  9
$LIMMIN
 10
0.0
 20
0.0
  9
$LIMMAX
 10
420.0
 20
297.0
  9
$ORTHOMODE
 70
     1
  9
$REGENMODE
 70
     1
  9
$FILLMODE
 70
     1
  9
$QTEXTMODE
 70
     0
  9
$MIRRTEXT
 70
     1
  9
$LTSCALE
 40
1.0
  9
$ATTMODE
 70
     1
  9
$TEXTSIZE
 40
3.5
  9
$TRACEWID
 40
1.0
  9
$TEXTSTYLE
  7
Standard
  9
$CLAYER
  8
0
  9
$CELTYPE
  6
ByLayer
  9
$CECOLOR
 62
   256
  9
$CELTSCALE
 40
1.0
  9
$DISPSILH
 70
     0
  9
$DIMSCALE
 40
1.0
  9
$DIMASZ
 40
3.302
  9
$DIMEXO
 40
1.0
  9
$DIMDLI
 40
3.75
  9
$DIMRND
 40
0.0
  9
$DIMDLE
 40
0.0
  9
$DIMEXE
 40
1.0
  9
$DIMTP
 40
0.0
  9
$DIMTM
 40
0.0
  9
$DIMTXT
 40
3.5
  9
$DIMCEN
 40
2.5
  9
$DIMTSZ
 40
0.0
  9
$DIMTOL
 70
     0
  9
$DIMLIM
 70
     0
  9
$DIMTIH
 70
     1
  9
$DIMTOH
 70
     1
  9
$DIMSE1
 70
     0
  9
$DIMSE2
 70
     0
  9
$DIMTAD
 70
     1
  9
$DIMZIN
 70
     0
  9
$DIMBLK
  1

  9
$DIMASO
 70
     1
  9
$DIMSHO
 70
     1
  9
$DIMPOST
  1

  9
$DIMAPOST
  1

  9
$DIMALT
 70
     0
  9
$DIMALTD
 70
     3
  9
$DIMALTF
 40
0.0393700787401575
  9
$DIMLFAC
 40
1.0
  9
$DIMTOFL
 70
     1
  9
$DIMTVP
 40
0.0
  9
$DIMTIX
 70
     0
  9
$DIMSOXD
 70
     0
  9
$DIMSAH
 70
     0
  9
$DIMBLK1
  1

  9
$DIMBLK2
  1

  9
$DIMSTYLE
  2
ISO-25
  9
$DIMCLRD
 70
     0
  9
$DIMCLRE
 70
     0
  9
$DIMCLRT
 70
     0
  9
$DIMTFAC
 40
1.0
  9
$DIMGAP
 40
1.524
  9
$DIMJUST
 70
     0
  9
$DIMSD1
 70
     0
  9
$DIMSD2
 70
     0
  9
$DIMTOLJ
 70
     0
  9
$DIMTZIN
 70
     0
  9
$DIMALTZ
 70
     0
  9
$DIMALTTZ
 70
     0
  9
$DIMUPT
 70
     0
  9
$DIMDEC
 70
     2
  9
$DIMTDEC
 70
     2
  9
$DIMALTU
 70
     2
  9
$DIMALTTD
 70
     3
  9
$DIMTXSTY
  7
Standard
  9
$DIMAUNIT
 70
     0
  9
$DIMADEC
 70
     2
  9
$DIMALTRND
 40
0.0
  9
$DIMAZIN
 70
     0
  9
$DIMDSEP
 70
    44
  9
$DIMATFIT
 70
     3
  9
$DIMFRAC
 70
     0
  9
$DIMLDRBLK
  1

  9
$DIMLUNIT
 70
     2
  9
$DIMLWD
 70
    -2
  9
$DIMLWE
 70
    -2
  9
$DIMTMOVE
 70
     0
  9
$LUNITS
 70
     2
  9
$LUPREC
 70
     2
  9
$SKETCHINC
 40
1.0
  9
$FILLETRAD
 40
10.0
  9
$AUNITS
 70
     0
  9
$AUPREC
 70
     2
  9
$MENU
  1
.
  9
$ELEVATION
 40
0.0
  9
$PELEVATION
 40
0.0
  9
$THICKNESS
 40
0.0
  9
$LIMCHECK
 70
     0
  9
$CHAMFERA
 40
0.0
  9
$CHAMFERB
 40
0.0
  9
$CHAMFERC
 40
0.0
  9
$CHAMFERD
 40
0.0
  9
$SKPOLY
 70
     0
  9
$TDCREATE
 40
2458312.631614757
  9
$TDUCREATE
 40
2458312.256614757
  9
$TDUPDATE
 40
2458323.67667588
  9
$TDUUPDATE
 40
2458323.30167588
  9
$TDINDWG
 40
0.0029865046
  9
$TDUSRTIMER
 40
0.0029864931
  9
$USRTIMER
 70
     1
  9
$ANGBASE
 50
0.0
  9
$ANGDIR
 70
     0
  9
$PDMODE
 70
     0
  9
$PDSIZE
 40
-1.0
  9
$PLINEWID
 40
0.0
  9
$SPLFRAME
 70
     0
  9
$SPLINETYPE
 70
     6
  9
$SPLINESEGS
 70
     8
  9
$HANDSEED
  5
1EE
  9
$SURFTAB1
 70
     6
  9
$SURFTAB2
 70
     6
  9
$SURFTYPE
 70
     6
  9
$SURFU
 70
     6
  9
$SURFV
 70
     6
  9
$UCSBASE
  2

  9
$UCSNAME
  2

  9
$UCSORG
 10
0.0
 20
0.0
 30
0.0
  9
$UCSXDIR
 10
1.0
 20
0.0
 30
0.0
  9
$UCSYDIR
 10
0.0
 20
1.0
 30
0.0
  9
$UCSORTHOREF
  2

  9
$UCSORTHOVIEW
 70
     0
  9
$UCSORGTOP
 10
0.0
 20
0.0
 30
0.0
  9
$UCSORGBOTTOM
 10
0.0
 20
0.0
 30
0.0
  9
$UCSORGLEFT
 10
0.0
 20
0.0
 30
0.0
  9
$UCSORGRIGHT
 10
0.0
 20
0.0
 30
0.0
  9
$UCSORGFRONT
 10
0.0
 20
0.0
 30
0.0
  9
$UCSORGBACK
 10
0.0
 20
0.0
 30
0.0
  9
$PUCSBASE
  2

  9
$PUCSNAME
  2

  9
$PUCSORG
 10
0.0
 20
0.0
 30
0.0
  9
$PUCSXDIR
 10
1.0
 20
0.0
 30
0.0
  9
$PUCSYDIR
 10
0.0
 20
1.0
 30
0.0
  9
$PUCSORTHOREF
  2

  9
$PUCSORTHOVIEW
 70
     0
  9
$PUCSORGTOP
 10
0.0
 20
0.0
 30
0.0
  9
$PUCSORGBOTTOM
 10
0.0
 20
0.0
 30
0.0
  9
$PUCSORGLEFT
 10
0.0
 20
0.0
 30
0.0
  9
$PUCSORGRIGHT
 10
0.0
 20
0.0
 30
0.0
  9
$PUCSORGFRONT
 10
0.0
 20
0.0
 30
0.0
  9
$PUCSORGBACK
 10
0.0
 20
0.0
 30
0.0
  9
$USERI1
 70
     0
  9
$USERI2
 70
     0
  9
$USERI3
 70
     0
  9
$USERI4
 70
     0
  9
$USERI5
 70
     0
  9
$USERR1
 40
0.0
  9
$USERR2
 40
0.0
  9
$USERR3
 40
0.0
  9
$USERR4
 40
0.0
  9
$USERR5
 40
0.0
  9
$WORLDVIEW
 70
     1
  9
$SHADEDGE
 70
     3
  9
$SHADEDIF
 70
    70
  9
$TILEMODE
 70
     1
  9
$MAXACTVP
 70
    64
  9
$PINSBASE
 10
0.0
 20
0.0
 30
0.0
  9
$PLIMCHECK
 70
     0
  9
$PEXTMIN
 10
1.000000000000000E+20
 20
1.000000000000000E+20
 30
1.000000000000000E+20
  9
$PEXTMAX
 10
-1.000000000000000E+20
 20
-1.000000000000000E+20
 30
-1.000000000000000E+20
  9
$PLIMMIN
 10
0.0
 20
0.0
  9
$PLIMMAX
 10
0.0
 20
0.0
  9
$UNITMODE
 70
     0
  9
$VISRETAIN
 70
     1
  9
$PLINEGEN
 70
     0
  9
$PSLTSCALE
 70
     1
  9
$TREEDEPTH
 70
  3020
  9
$CMLSTYLE
  2
Standard
  9
$CMLJUST
 70
     0
  9
$CMLSCALE
 40
20.0
  9
$PROXYGRAPHICS
 70
     1
  9
$MEASUREMENT
 70
     1
  9
$CELWEIGHT
370
    -1
  9
$ENDCAPS
280
     0
  9
$JOINSTYLE
280
     0
  9
$LWDISPLAY
290
     1
  9
$INSUNITS
 70
     4
  9
$HYPERLINKBASE
  1

  9
$STYLESHEET
  1

  9
$XEDIT
290
     1
  9
$CEPSNTYPE
380
     0
  9
$PSTYLEMODE
290
     1
  9
$FINGERPRINTGUID
  2
{3B737E27-C8BB-46FC-A0EE-FACDD0EF205C}
  9
$VERSIONGUID
  2
{FAEB1C32-E019-11D5-929B-00C0DF256EC4}
  9
$EXTNAMES
290
     1
  9
$PSVPSCALE
 40
0.0
  9
$OLESTARTUP
290
     0
  0
ENDSEC
  0
SECTION
  2
CLASSES
  0
CLASS
  1
ACDBDICTIONARYWDFLT
  2
AcDbDictionaryWithDefault
  3
ObjectDBX Classes
 90
        0
280
     0
281
     0
  0
CLASS
  1
VISUALSTYLE
  2
AcDbVisualStyle
  3
ObjectDBX Classes
 90
     4095
280
     0
281
     0
  0
CLASS
  1
MATERIAL
  2
AcDbMaterial
  3
ObjectDBX Classes
 90
     1153
280
     0
281
     0
  0
CLASS
  1
SCALE
  2
AcDbScale
  3
ObjectDBX Classes
 90
     1153
280
     0
281
     0
  0
CLASS
  1
SUN
  2
AcDbSun
  3
SCENEOE
 90
     1153
280
     0
281
     0
  0
CLASS
  1
ACDBPLACEHOLDER
  2
AcDbPlaceHolder
  3
ObjectDBX Classes
 90
        0
280
     0
281
     0
  0
CLASS
  1
LAYOUT
  2
AcDbLayout
  3
ObjectDBX Classes
 90
        0
280
     0
281
     0
  0
CLASS
  1
TABLESTYLE
  2
AcDbTableStyle
  3
ObjectDBX Classes
 90
     4095
280
     0
281
     0
  0
CLASS
  1
MLEADERSTYLE
  2
AcDbMLeaderStyle
  3
ACDB_MLEADERSTYLE_CLASS
 90
     4095
280
     0
281
     0
  0
CLASS
  1
DICTIONARYVAR
  2
AcDbDictionaryVar
  3
ObjectDBX Classes
 90
        0
280
     0
281
     0
  0
ENDSEC
  0
SECTION
  2
TABLES
  0
TABLE
  2
VPORT
  5
8
330
0
100
AcDbSymbolTable
 70
     1
  0
VPORT
  5
29
330
8
100
AcDbSymbolTableRecord
100
AcDbViewportTableRecord
  2
*Active
 70
     0
 10
0.0
 20
0.0
 11
1.0
 21
1.0
 12
28.94583333333327
 22
-0.0342552382009842
 13
0.0
 23
0.0
 14
10.0
 24
10.0
 15
10.0
 25
10.0
 16
0.0
 26
0.0
 36
1.0
 17
0.0
 27
0.0
 37
0.0
 40
114.7962658940398
 41
1.782762691853601
 42
50.0
 43
0.0
 44
0.0
 50
0.0
 51
0.0
 71
    16
 72
  2000
 73
     1
 74
     3
 75
     0
 76
     0
 77
     0
 78
     0
281
     0
 65
     1
110
0.0
120
0.0
130
0.0
111
1.0
121
0.0
131
0.0
112
0.0
122
1.0
132
0.0
 79
     0
146
0.0
  0
ENDTAB
  0
TABLE
  2
LTYPE
  5
5
330
0
100
AcDbSymbolTable
 70
     6
  0
LTYPE
  5
14
330
5
100
AcDbSymbolTableRecord
100
AcDbLinetypeTableRecord
  2
ByBlock
 70
     0
  3

 72
    65
 73
     0
 40
0.0
  0
LTYPE
  5
15
330
5
100
AcDbSymbolTableRecord
100
AcDbLinetypeTableRecord
  2
ByLayer
 70
     0
  3

 72
    65
 73
     0
 40
0.0
  0
LTYPE
  5
16
330
5
100
AcDbSymbolTableRecord
100
AcDbLinetypeTableRecord
  2
Continuous
 70
     0
  3
Solid line
 72
    65
 73
     0
 40
0.0
  0
LTYPE
  5
6A
330
5
100
AcDbSymbolTableRecord
100
AcDbLinetypeTableRecord
  2
HIDDEN
 70
     0
  3
Hidden __ __ __ __ __ __ __ __ __ __ __ __ __ __
 72
    65
 73
     2
 40
1.905
 49
1.27
 74
     0
 49
-0.635
 74
     0
  0
LTYPE
  5
6B
330
5
100
AcDbSymbolTableRecord
100
AcDbLinetypeTableRecord
  2
PHANTOM
 70
     0
  3
Phantom ______  __  __  ______  __  __  ______
 72
    65
 73
     6
 40
12.7
 49
6.35
 74
     0
 49
-1.27
 74
     0
 49
1.27
 74
     0
 49
-1.27
 74
     0
 49
1.27
 74
     0
 49
-1.27
 74
     0
  0
LTYPE
  5
6C
330
5
100
AcDbSymbolTableRecord
100
AcDbLinetypeTableRecord
  2
CENTER
 70
     0
  3
Center ____ _ ____ _ ____ _ ____ _ ____ _ ____
 72
    65
 73
     4
 40
10.16
 49
6.35
 74
     0
 49
-1.27
 74
     0
 49
1.27
 74
     0
 49
-1.27
 74
     0
  0
LTYPE
  5
6D
330
5
100
AcDbSymbolTableRecord
100
AcDbLinetypeTableRecord
  2
CENTERX2
 70
     0
  3
Center (2x) ________  __  ________  __  _____
 72
    65
 73
     4
 40
20.32
 49
12.7
 74
     0
 49
-2.54
 74
     0
 49
2.54
 74
     0
 49
-2.54
 74
     0
  0
LTYPE
  5
6E
330
5
100
AcDbSymbolTableRecord
100
AcDbLinetypeTableRecord
  2
DOT2
 70
     0
  3
Dot (.5x) ........................................
 72
    65
 73
     2
 40
0.635
 49
0.0
 74
     0
 49
-0.635
 74
     0
  0
ENDTAB
  0
TABLE
  2
LAYER
  5
2
102
{ACAD_XDICTIONARY
360
18C
102
}
330
0
100
AcDbSymbolTable
 70
    18
  0
LAYER
  5
10
330
2
100
AcDbSymbolTableRecord
100
AcDbLayerTableRecord
  2
0
 70
     0
 62
     7
  6
Continuous
370
    -3
390
F
  0
LAYER
  5
6F
330
2
100
AcDbSymbolTableRecord
100
AcDbLayerTableRecord
  2
FORMAT
 70
     0
 62
     2
  6
Continuous
370
    -3
390
F
  0
LAYER
  5
70
330
2
100
AcDbSymbolTableRecord
100
AcDbLayerTableRecord
  2
외형선
 70
     0
 62
     4
  6
Continuous
370
    30
390
F
  0
LAYER
  5
71
330
2
100
AcDbSymbolTableRecord
100
AcDbLayerTableRecord
  2
숨은선
 70
     0
 62
     2
  6
HIDDEN
370
    15
390
F
  0
LAYER
  5
72
330
2
100
AcDbSymbolTableRecord
100
AcDbLayerTableRecord
  2
중심선
 70
     0
 62
     1
  6
CENTERX2
370
    -3
390
F
  0
LAYER
  5
73
330
2
100
AcDbSymbolTableRecord
100
AcDbLayerTableRecord
  2
파단선
 70
     0
 62
     4
  6
Continuous
370
    -3
390
F
  0
LAYER
  5
74
330
2
100
AcDbSymbolTableRecord
100
AcDbLayerTableRecord
  2
해칭선
 70
     0
 62
   100
  6
Continuous
370
    -3
390
F
  0
LAYER
  5
75
330
2
100
AcDbSymbolTableRecord
100
AcDbLayerTableRecord
  2
가는실선
 70
     0
 62
     4
  6
Continuous
370
    -3
390
F
  0
LAYER
  5
76
330
2
100
AcDbSymbolTableRecord
100
AcDbLayerTableRecord
  2
치수_보조선
 70
     0
 62
     4
  6
Continuous
370
    -3
390
F
  0
LAYER
  5
77
330
2
100
AcDbSymbolTableRecord
100
AcDbLayerTableRecord
  2
치수문자_일반주서
 70
     0
 62
     7
  6
Continuous
370
    15
390
F
  0
LAYER
  5
78
330
2
100
AcDbSymbolTableRecord
100
AcDbLayerTableRecord
  2
개별주서
 70
     0
 62
   100
  6
Continuous
370
    30
390
F
  0
LAYER
  5
79
330
2
100
AcDbSymbolTableRecord
100
AcDbLayerTableRecord
  2
중간선
 70
     0
 62
     2
  6
Continuous
370
    15
390
F
  0
LAYER
  5
7A
330
2
100
AcDbSymbolTableRecord
100
AcDbLayerTableRecord
  2
윤곽선
 70
     0
 62
     3
  6
Continuous
370
    40
390
F
  0
LAYER
  5
7B
330
2
100
AcDbSymbolTableRecord
100
AcDbLayerTableRecord
  2
중심마크
 70
     0
 62
   100
  6
Continuous
370
    30
390
F
  0
LAYER
  5
7C
330
2
100
AcDbSymbolTableRecord
100
AcDbLayerTableRecord
  2
가상선
 70
     0
 62
     4
  6
PHANTOM
370
    -3
390
F
  0
LAYER
  5
7D
330
2
100
AcDbSymbolTableRecord
100
AcDbLayerTableRecord
  2
특수지정선
 70
     0
 62
     5
  6
CENTERX2
370
    60
390
F
  0
LAYER
  5
7E
330
2
100
AcDbSymbolTableRecord
100
AcDbLayerTableRecord
  2
참조1
 70
     0
 62
    -4
  6
Continuous
370
    -3
390
F
  0
LAYER
  5
158
330
2
100
AcDbSymbolTableRecord
100
AcDbLayerTableRecord
  2
Defpoints
 70
     0
 62
     7
  6
Continuous
290
     0
370
    -3
390
F
  0
ENDTAB
  0
TABLE
  2
STYLE
  5
3
330
0
100
AcDbSymbolTable
 70
     2
  0
STYLE
  5
11
330
3
100
AcDbSymbolTableRecord
100
AcDbTextStyleTableRecord
  2
Standard
 70
     0
 40
0.0
 41
1.0
 50
0.0
 71
     0
 42
3.5
  3
txt
  4

  0
STYLE
  5
94
330
3
100
AcDbSymbolTableRecord
100
AcDbTextStyleTableRecord
  2
SLDTEXTSTYLE0
 70
     0
 40
0.0
 41
0.75
 50
0.0
 71
     0
 42
3.5
  3
TXT
  4

  0
ENDTAB
  0
TABLE
  2
VIEW
  5
6
330
0
100
AcDbSymbolTable
 70
     0
  0
ENDTAB
  0
TABLE
  2
UCS
  5
7
330
0
100
AcDbSymbolTable
 70
     0
  0
ENDTAB
  0
TABLE
  2
APPID
  5
9
330
0
100
AcDbSymbolTable
 70
     4
  0
APPID
  5
12
330
9
100
AcDbSymbolTableRecord
100
AcDbRegAppTableRecord
  2
ACAD
 70
     0
  0
APPID
  5
15F
330
9
100
AcDbSymbolTableRecord
100
AcDbRegAppTableRecord
  2
PE_URL
 70
     0
  0
APPID
  5
1EC
330
9
100
AcDbSymbolTableRecord
100
AcDbRegAppTableRecord
  2
ACAD_DSTYLE_DIMFLIPARROW_SYMBOL
 70
     0
  0
APPID
  5
1ED
330
9
100
AcDbSymbolTableRecord
100
AcDbRegAppTableRecord
  2
ACAD_DSTYLE_DIMFLIPARROW_WHICH_SYMBOL
 70
     0
  0
ENDTAB
  0
TABLE
  2
DIMSTYLE
  5
A
330
0
100
AcDbSymbolTable
 70
     4
100
AcDbDimStyleTable
  0
DIMSTYLE
105
27
330
A
100
AcDbSymbolTableRecord
100
AcDbDimStyleTableRecord
  2
ISO-25
 70
     0
 41
2.5
 42
0.625
 43
3.75
 44
1.25
 73
     0
 74
     0
 77
     1
 78
     8
140
2.5
141
2.5
143
0.03937007874016
147
0.625
171
     3
172
     1
178
     0
271
     2
272
     2
274
     3
278
    44
283
     0
284
     8
340
11
  0
DIMSTYLE
105
D0
330
A
100
AcDbSymbolTableRecord
100
AcDbDimStyleTableRecord
  2
SLDDIMSTYLE0
 70
     0
 41
3.302
 44
0.0
 45
0.000000001
 73
     0
 74
     0
 77
     1
 78
     4
 79
     1
140
3.5
143
0.0393700787401575
147
0.875
148
0.000000001
170
     1
173
     1
178
     0
271
     2
272
     2
276
     2
284
    12
340
94
  0
DIMSTYLE
105
F8
330
A
100
AcDbSymbolTableRecord
100
AcDbDimStyleTableRecord
  2
SLDDIMSTYLE1
 70
     0
 41
3.302
 44
0.0
 45
0.000000001
 73
     0
 74
     0
 77
     1
 78
     4
 79
     1
140
3.5
143
0.0393700787401575
147
0.875
148
0.000000001
170
     1
172
     1
173
     1
178
     0
271
     2
272
     2
276
     2
284
    12
289
     0
340
94
  0
DIMSTYLE
105
10D
102
{ACAD_REACTORS
330
10C
330
17E
330
CF
330
E4
330
F7
102
}
330
A
100
AcDbSymbolTableRecord
100
AcDbDimStyleTableRecord
  2
SLDDIMSTYLE2
 70
     0
 41
3.302
 44
0.0
 45
0.000000001
 73
     0
 74
     0
 77
     1
 78
    12
 79
     3
140
3.5
143
0.0393700787401575
147
0.875
148
0.000000001
170
     1
173
     1
178
     0
271
     2
272
     2
276
     2
284
    12
340
94
  0
ENDTAB
  0
TABLE
  2
BLOCK_RECORD
  5
1
330
0
100
AcDbSymbolTable
 70
    11
  0
BLOCK_RECORD
  5
1F
330
1
100
AcDbSymbolTableRecord
100
AcDbBlockTableRecord
  2
*Model_Space
340
22
  0
BLOCK_RECORD
  5
1B
330
1
100
AcDbSymbolTableRecord
100
AcDbBlockTableRecord
  2
*Paper_Space
340
1E
  0
BLOCK_RECORD
  5
23
330
1
100
AcDbSymbolTableRecord
100
AcDbBlockTableRecord
  2
*Paper_Space0
340
26
  0
BLOCK_RECORD
  5
7F
330
1
100
AcDbSymbolTableRecord
100
AcDbBlockTableRecord
  2
블럭10
340
0
102
{BLKREFS
331
C8
102
}
  0
BLOCK_RECORD
  5
D1
330
1
100
AcDbSymbolTableRecord
100
AcDbBlockTableRecord
  2
_D
340
0
  0
BLOCK_RECORD
  5
E5
330
1
100
AcDbSymbolTableRecord
100
AcDbBlockTableRecord
  2
_D_1
340
0
  0
BLOCK_RECORD
  5
F9
330
1
100
AcDbSymbolTableRecord
100
AcDbBlockTableRecord
  2
_D_2
340
0
  0
BLOCK_RECORD
  5
10E
330
1
100
AcDbSymbolTableRecord
100
AcDbBlockTableRecord
  2
_D_3
340
0
  0
BLOCK_RECORD
  5
127
330
1
100
AcDbSymbolTableRecord
100
AcDbBlockTableRecord
  2
SW_DOWELSYMBOL_0
340
0
102
{BLKREFS
331
12D
102
}
  0
BLOCK_RECORD
  5
190
330
1
100
AcDbSymbolTableRecord
100
AcDbBlockTableRecord
  2
*D8
340
0
  0
BLOCK_RECORD
  5
19F
330
1
100
AcDbSymbolTableRecord
100
AcDbBlockTableRecord
  2
*D9
340
0
  0
ENDTAB
  0
ENDSEC
  0
SECTION
  2
BLOCKS
  0
BLOCK
  5
20
330
1F
100
AcDbEntity
  8
0
100
AcDbBlockBegin
  2
*Model_Space
 70
     0
 10
0.0
 20
0.0
 30
0.0
  3
*Model_Space
  1

  0
ENDBLK
  5
21
330
1F
100
AcDbEntity
  8
0
100
AcDbBlockEnd
  0
BLOCK
  5
1C
330
1B
100
AcDbEntity
 67
     1
  8
0
100
AcDbBlockBegin
  2
*Paper_Space
 70
     0
 10
0.0
 20
0.0
 30
0.0
  3
*Paper_Space
  1

  0
ENDBLK
  5
1D
330
1B
100
AcDbEntity
 67
     1
  8
0
100
AcDbBlockEnd
  0
BLOCK
  5
24
330
23
100
AcDbEntity
  8
0
100
AcDbBlockBegin
  2
*Paper_Space0
 70
     0
 10
0.0
 20
0.0
 30
0.0
  3
*Paper_Space0
  1

  0
ENDBLK
  5
25
330
23
100
AcDbEntity
  8
0
100
AcDbBlockEnd
  0
BLOCK
  5
80
330
7F
100
AcDbEntity
  8
0
100
AcDbBlockBegin
  2
블럭10
 70
     2
 10
0.0
 20
0.0
 30
0.0
  3
블럭10
  1

  0
ELLIPSE
  5
82
330
7F
100
AcDbEntity
  8
중심선
100
AcDbEllipse
 10
20.54032771741204
 20
12.0471743016438
 30
0.0
 11
6.600054785286829
 21
-1.261213355974178E-13
 31
0.0
210
0.0
220
0.0
230
1.0
 40
0.636358354079598
 41
0.9219305317359503
 42
6.513795318482858
  0
ELLIPSE
  5
83
330
7F
100
AcDbEntity
  8
중심선
100
AcDbEllipse
 10
20.54032771746488
 20
12.04717430159265
 30
0.0
 11
3.960054785062283
 21
1.540847449632565E-10
 31
0.0
210
0.0
220
0.0
230
1.0
 40
0.3939339440162632
 41
1.131841032648279
 42
5.62031148352944
  0
LINE
  5
84
330
7F
100
AcDbEntity
  8
중심선
100
AcDbLine
 10
2.268634060543552
 20
16.24717430164393
 30
0.0
 11
5.714909304380834
 21
16.24717430164393
 31
0.0
  0
LINE
  5
85
330
7F
100
AcDbEntity
  8
중심선
100
AcDbLine
 10
5.245725140726316
 20
7.84717430164391
 30
0.0
 11
8.692000384563599
 21
7.84717430164391
 31
0.0
  0
LINE
  5
86
330
7F
100
AcDbEntity
  8
중심선
100
AcDbLine
 10
15.74043728645272
 20
16.24717430164393
 30
0.0
 11
8.692000384563599
 21
7.84717430164391
 31
0.0
  0
LINE
  5
87
330
7F
100
AcDbEntity
  8
중심선
100
AcDbLine
 10
0.1404042013395286
 20
13.71084872107135
 30
0.0
 11
3.58671253028996
 21
13.71088815037384
 31
0.0
  0
LINE
  5
88
330
7F
100
AcDbEntity
  8
중심선
100
AcDbLine
 10
2.750260043222114
 20
10.84717430164391
 30
0.0
 11
6.196535287059397
 21
10.84717430164391
 31
0.0
  0
LINE
  5
89
330
7F
100
AcDbEntity
  8
중심선
100
AcDbLine
 10
12.29416204261559
 20
16.24717430164393
 30
0.0
 11
5.245725140726316
 21
7.84717430164391
 31
0.0
  0
LINE
  5
8A
330
7F
100
AcDbEntity
  8
중심선
100
AcDbLine
 10
10.72767329541681
 20
16.24717430164393
 30
0.0
 11
6.196535287059397
 21
10.84717430164391
 31
0.0
  0
LINE
  5
8B
330
7F
100
AcDbEntity
  8
중심선
100
AcDbLine
 10
7.28139805157953
 20
16.24717430164393
 30
0.0
 11
2.750260043222114
 21
10.84717430164391
 31
0.0
  0
LINE
  5
8C
330
7F
100
AcDbEntity
  8
중심선
100
AcDbLine
 10
5.714909304380834
 20
16.24717430164393
 30
0.0
 11
3.58671253028996
 21
13.71088815037384
 31
0.0
  0
LINE
  5
8D
330
7F
100
AcDbEntity
  8
중심선
100
AcDbLine
 10
2.268634060543552
 20
16.24717430164393
 30
0.0
 11
0.1404042013395286
 21
13.71084872107135
 31
0.0
  0
LINE
  5
8E
330
7F
100
AcDbEntity
  8
중심선
100
AcDbLine
 10
7.28139805157953
 20
16.24717430164393
 30
0.0
 11
10.72767329541681
 21
16.24717430164393
 31
0.0
  0
LINE
  5
8F
330
7F
100
AcDbEntity
  8
중심선
100
AcDbLine
 10
12.29416204261559
 20
16.24717430164393
 30
0.0
 11
15.74043728645272
 21
16.24717430164393
 31
0.0
  0
LINE
  5
90
330
7F
100
AcDbEntity
  8
중심선
100
AcDbLine
 10
19.22036997980202
 20
11.08717430171403
 30
0.0
 11
23.66174974927406
 21
11.08717430171406
 31
0.0
  0
LINE
  5
91
330
7F
100
AcDbEntity
  8
중심선
100
AcDbLine
 10
19.22039502424796
 20
13.00717430171391
 30
0.0
 11
19.22036997980202
 21
11.08717430171403
 31
0.0
  0
LINE
  5
92
330
7F
100
AcDbEntity
  8
중심선
100
AcDbLine
 10
19.22039502424796
 20
13.00717430171391
 30
0.0
 11
26.96566020931264
 21
13.00717430171391
 31
0.0
  0
LINE
  5
93
330
7F
100
AcDbEntity
  8
중심선
100
AcDbLine
 10
22.22332737316547
 20
13.45928029700563
 30
0.0
 11
24.52862924686651
 21
15.39360700705356
 31
0.0
  0
ATTDEF
  5
95
330
7F
100
AcDbEntity
  8
FORMAT
 62
     2
100
AcDbText
 10
4.408487351596664
 20
2.075366912832191
 30
0.0
 40
4.233333333333333
  1
E1040064
 41
0.75
  7
SLDTEXTSTYLE0
 11
4.408487351596664
 21
-0.0412997538344756
 31
0.0
100
AcDbAttributeDefinition
  3

  2
AUTOATTR0
 70
     0
 74
     1
  0
ENDBLK
  5
81
330
7F
100
AcDbEntity
  8
0
100
AcDbBlockEnd
  0
BLOCK
  5
D2
330
D1
100
AcDbEntity
  8
0
100
AcDbBlockBegin
  2
_D
 70
     0
 10
0.0
 20
0.0
 30
0.0
  3
_D
  1

  0
LINE
  5
D4
330
D1
100
AcDbEntity
  8
치수문자_일반주서
 62
     0
370
    -2
100
AcDbLine
 10
113.5999999999999
 20
12.76250000000001
 30
0.0
 11
113.5999999999999
 21
27.70789845620485
 31
0.0
  0
LINE
  5
D5
330
D1
100
AcDbEntity
  8
치수문자_일반주서
 62
     0
370
    -2
100
AcDbLine
 10
12.0
 20
12.76211163541703
 30
0.0
 11
12.00000000000001
 21
27.70789845620485
 31
0.0
  0
LINE
  5
D6
330
D1
100
AcDbEntity
  8
치수문자_일반주서
 62
     0
370
    -2
100
AcDbLine
 10
109.5999999999999
 20
27.70789845620485
 30
0.0
 11
16.00000000000001
 21
27.70789845620485
 31
0.0
  0
SOLID
  5
D7
330
D1
100
AcDbEntity
  8
치수문자_일반주서
 62
     0
100
AcDbTrace
 10
109.5999999999999
 20
27.04123178953818
 30
0.0
 11
109.5999999999999
 21
28.37456512287152
 31
0.0
 12
113.5999999999999
 22
27.70789845620485
 32
0.0
 13
113.5999999999999
 23
27.70789845620485
 33
0.0
  0
SOLID
  5
D8
330
D1
100
AcDbEntity
  8
치수문자_일반주서
 62
     0
100
AcDbTrace
 10
16.00000000000001
 20
28.37456512287152
 30
0.0
 11
16.00000000000001
 21
27.04123178953818
 31
0.0
 12
12.00000000000001
 22
27.70789845620485
 32
0.0
 13
12.00000000000001
 23
27.70789845620485
 33
0.0
  0
MTEXT
  5
D9
330
D1
100
AcDbEntity
  8
치수문자_일반주서
 62
     0
100
AcDbMText
 10
62.79999999999996
 20
32.58289845620484
 30
0.0
 40
4.0
 41
0.0
 71
     2
 72
     1
  1
\A1;101.6 [4]
  7
SLDTEXTSTYLE0
 73
     1
 44
1.0
  0
POINT
  5
DA
330
D1
100
AcDbEntity
  8
Defpoints
 62
     0
100
AcDbPoint
 10
113.5999999999999
 20
12.70000000000001
 30
0.0
  0
POINT
  5
DB
330
D1
100
AcDbEntity
  8
Defpoints
 62
     0
100
AcDbPoint
 10
12.0
 20
12.69961163541703
 30
0.0
  0
POINT
  5
DC
330
D1
100
AcDbEntity
  8
Defpoints
 62
     0
100
AcDbPoint
 10
12.0
 20
27.70789845620485
 30
0.0
  0
ENDBLK
  5
D3
330
D1
100
AcDbEntity
  8
0
100
AcDbBlockEnd
  0
BLOCK
  5
E6
330
E5
100
AcDbEntity
  8
0
100
AcDbBlockBegin
  2
_D_1
 70
     0
 10
0.0
 20
0.0
 30
0.0
  3
_D_1
  1

  0
LINE
  5
E8
330
E5
100
AcDbEntity
  8
치수문자_일반주서
 62
     0
370
    -2
100
AcDbLine
 10
113.5999999999999
 20
12.76250000000001
 30
0.0
 11
113.5999999999999
 21
42.69999999999999
 31
0.0
  0
LINE
  5
E9
330
E5
100
AcDbEntity
  8
치수문자_일반주서
 62
     0
370
    -2
100
AcDbLine
 10
-51.50000000000005
 20
10.8575
 30
0.0
 11
-51.50000000000005
 21
42.69999999999999
 31
0.0
  0
LINE
  5
EA
330
E5
100
AcDbEntity
  8
치수문자_일반주서
 62
     0
370
    -2
100
AcDbLine
 10
109.5999999999999
 20
42.69999999999999
 30
0.0
 11
-47.50000000000005
 21
42.69999999999999
 31
0.0
  0
SOLID
  5
EB
330
E5
100
AcDbEntity
  8
치수문자_일반주서
 62
     0
100
AcDbTrace
 10
109.5999999999999
 20
42.03333333333332
 30
0.0
 11
109.5999999999999
 21
43.36666666666665
 31
0.0
 12
113.5999999999999
 22
42.69999999999999
 32
0.0
 13
113.5999999999999
 23
42.69999999999999
 33
0.0
  0
SOLID
  5
EC
330
E5
100
AcDbEntity
  8
치수문자_일반주서
 62
     0
100
AcDbTrace
 10
-47.50000000000005
 20
43.36666666666665
 30
0.0
 11
-47.50000000000005
 21
42.03333333333332
 31
0.0
 12
-51.50000000000005
 22
42.69999999999999
 32
0.0
 13
-51.50000000000005
 23
42.69999999999999
 33
0.0
  0
MTEXT
  5
ED
330
E5
100
AcDbEntity
  8
치수문자_일반주서
 62
     0
100
AcDbMText
 10
31.04999999999996
 20
47.57499999999999
 30
0.0
 40
4.0
 41
0.0
 71
     2
 72
     1
  1
\A1;165.1 [6 1/2]
  7
SLDTEXTSTYLE0
 73
     1
 44
1.0
  0
POINT
  5
EE
330
E5
100
AcDbEntity
  8
Defpoints
 62
     0
100
AcDbPoint
 10
113.5999999999999
 20
12.70000000000001
 30
0.0
  0
POINT
  5
EF
330
E5
100
AcDbEntity
  8
Defpoints
 62
     0
100
AcDbPoint
 10
-51.50000000000005
 20
10.795
 30
0.0
  0
POINT
  5
F0
330
E5
100
AcDbEntity
  8
Defpoints
 62
     0
100
AcDbPoint
 10
-51.50000000000005
 20
42.69999999999999
 30
0.0
  0
ENDBLK
  5
E7
330
E5
100
AcDbEntity
  8
0
100
AcDbBlockEnd
  0
BLOCK
  5
FA
330
F9
100
AcDbEntity
  8
0
100
AcDbBlockBegin
  2
_D_2
 70
     0
 10
0.0
 20
0.0
 30
0.0
  3
_D_2
  1

  0
LINE
  5
FC
330
F9
100
AcDbEntity
  8
치수문자_일반주서
 62
     0
370
    -2
100
AcDbLine
 10
-36.95750000000006
 20
12.69999999999999
 30
0.0
 11
-66.50000000000006
 21
12.69999999999988
 31
0.0
  0
LINE
  5
FD
330
F9
100
AcDbEntity
  8
치수문자_일반주서
 62
     0
370
    -2
100
AcDbLine
 10
-49.02250000000005
 20
-12.69999999999999
 30
0.0
 11
-66.49999999999997
 21
-12.70000000000006
 31
0.0
  0
LINE
  5
FE
330
F9
100
AcDbEntity
  8
치수문자_일반주서
 62
     0
370
    -2
100
AcDbLine
 10
-66.50000000000006
 20
12.69999999999988
 30
0.0
 11
-66.50000000000016
 21
39.44999999999992
 31
0.0
  0
LINE
  5
FF
330
F9
100
AcDbEntity
  8
치수문자_일반주서
 62
     0
370
    -2
100
AcDbLine
 10
-66.50000000000006
 20
12.69999999999988
 30
0.0
 11
-66.49999999999997
 21
-12.70000000000006
 31
0.0
  0
LINE
  5
100
330
F9
100
AcDbEntity
  8
치수문자_일반주서
 62
     0
370
    -2
100
AcDbLine
 10
-66.50000000000007
 20
16.69999999999988
 30
0.0
 11
-66.50000000000009
 21
20.69999999999988
 31
0.0
  0
LINE
  5
101
330
F9
100
AcDbEntity
  8
치수문자_일반주서
 62
     0
370
    -2
100
AcDbLine
 10
-66.49999999999996
 20
-16.70000000000006
 30
0.0
 11
-66.49999999999994
 21
-20.70000000000006
 31
0.0
  0
SOLID
  5
102
330
F9
100
AcDbEntity
  8
치수문자_일반주서
 62
     0
100
AcDbTrace
 10
-67.16666666666674
 20
16.69999999999988
 30
0.0
 11
-65.8333333333334
 21
16.69999999999989
 31
0.0
 12
-66.50000000000006
 22
12.69999999999988
 32
0.0
 13
-66.50000000000006
 23
12.69999999999988
 33
0.0
  0
SOLID
  5
103
330
F9
100
AcDbEntity
  8
치수문자_일반주서
 62
     0
100
AcDbTrace
 10
-65.83333333333329
 20
-16.70000000000005
 30
0.0
 11
-67.16666666666663
 21
-16.70000000000006
 31
0.0
 12
-66.49999999999997
 22
-12.70000000000006
 32
0.0
 13
-66.49999999999997
 23
-12.70000000000006
 33
0.0
  0
MTEXT
  5
104
330
F9
100
AcDbEntity
  8
치수문자_일반주서
 62
     0
100
AcDbMText
 10
-71.37500000000011
 20
28.0749999999999
 30
0.0
 40
4.0
 41
0.0
 71
     2
 72
     1
  1
\A1;%%c25.4 [1]
  7
SLDTEXTSTYLE0
 11
-3.356894814614654E-15
 21
1.0
 31
0.0
 73
     1
 44
1.0
  0
POINT
  5
1E4
330
F9
100
AcDbEntity
  8
Defpoints
 62
     0
100
AcDbPoint
 10
-36.89500000000006
 20
12.69999999999999
 30
0.0
  0
POINT
  5
1E5
330
F9
100
AcDbEntity
  8
Defpoints
 62
     0
100
AcDbPoint
 10
-48.96000000000005
 20
-12.69999999999999
 30
0.0
  0
POINT
  5
1E6
330
F9
100
AcDbEntity
  8
Defpoints
 62
     0
100
AcDbPoint
 10
-66.49999999999997
 20
-12.70000000000006
 30
0.0
  0
ENDBLK
  5
FB
330
F9
100
AcDbEntity
  8
0
100
AcDbBlockEnd
  0
BLOCK
  5
10F
330
10E
100
AcDbEntity
  8
0
100
AcDbBlockBegin
  2
_D_3
 70
     0
 10
0.0
 20
0.0
 30
0.0
  3
_D_3
  1

  0
LINE
  5
111
330
10E
100
AcDbEntity
  8
치수문자_일반주서
 62
     0
370
    -2
100
AcDbLine
 10
113.6624999999999
 20
-12.69999999999999
 30
0.0
 11
128.6
 21
-12.69999999999993
 31
0.0
  0
LINE
  5
112
330
10E
100
AcDbEntity
  8
치수문자_일반주서
 62
     0
370
    -2
100
AcDbLine
 10
113.6624999999999
 20
12.70000000000001
 30
0.0
 11
128.5999999999999
 21
12.70000000000007
 31
0.0
  0
LINE
  5
113
330
10E
100
AcDbEntity
  8
치수문자_일반주서
 62
     0
370
    -2
100
AcDbLine
 10
128.5999999999999
 20
12.70000000000007
 30
0.0
 11
128.5999999999998
 21
49.90329691240976
 31
0.0
  0
LINE
  5
114
330
10E
100
AcDbEntity
  8
치수문자_일반주서
 62
     0
370
    -2
100
AcDbLine
 10
128.6
 20
-12.69999999999993
 30
0.0
 11
128.5999999999999
 21
12.70000000000007
 31
0.0
  0
LINE
  5
115
330
10E
100
AcDbEntity
  8
치수문자_일반주서
 62
     0
370
    -2
100
AcDbLine
 10
128.6
 20
-16.69999999999993
 30
0.0
 11
128.6
 21
-20.69999999999993
 31
0.0
  0
LINE
  5
116
330
10E
100
AcDbEntity
  8
치수문자_일반주서
 62
     0
370
    -2
100
AcDbLine
 10
128.5999999999999
 20
16.70000000000007
 30
0.0
 11
128.5999999999999
 21
20.70000000000007
 31
0.0
  0
SOLID
  5
117
330
10E
100
AcDbEntity
  8
치수문자_일반주서
 62
     0
100
AcDbTrace
 10
129.2666666666667
 20
-16.69999999999993
 30
0.0
 11
127.9333333333334
 21
-16.69999999999994
 31
0.0
 12
128.6
 22
-12.69999999999993
 32
0.0
 13
128.6
 23
-12.69999999999993
 33
0.0
  0
SOLID
  5
118
330
10E
100
AcDbEntity
  8
치수문자_일반주서
 62
     0
100
AcDbTrace
 10
127.9333333333333
 20
16.70000000000006
 30
0.0
 11
129.2666666666666
 21
16.70000000000007
 31
0.0
 12
128.5999999999999
 22
12.70000000000007
 32
0.0
 13
128.5999999999999
 23
12.70000000000007
 33
0.0
  0
MTEXT
  5
119
330
10E
100
AcDbEntity
  8
치수문자_일반주서
 62
     0
100
AcDbMText
 10
123.7249999999999
 20
38.52829691240975
 30
0.0
 40
4.0
 41
0.0
 71
     2
 72
     1
  1
\A1;%%c25.4 [1]
  7
SLDTEXTSTYLE0
 11
-3.356894814614647E-15
 21
1.0
 31
0.0
 73
     1
 44
1.0
  0
POINT
  5
11A
330
10E
100
AcDbEntity
  8
Defpoints
 62
     0
100
AcDbPoint
 10
113.5999999999999
 20
-12.69999999999999
 30
0.0
  0
POINT
  5
1E7
330
10E
100
AcDbEntity
  8
Defpoints
 62
     0
100
AcDbPoint
 10
113.5999999999999
 20
12.70000000000001
 30
0.0
  0
POINT
  5
1E8
330
10E
100
AcDbEntity
  8
Defpoints
 62
     0
100
AcDbPoint
 10
128.5999999999999
 20
12.70000000000007
 30
0.0
  0
ENDBLK
  5
110
330
10E
100
AcDbEntity
  8
0
100
AcDbBlockEnd
  0
BLOCK
  5
128
330
127
100
AcDbEntity
  8
0
100
AcDbBlockBegin
  2
SW_DOWELSYMBOL_0
 70
     0
 10
0.0
 20
0.0
 30
0.0
  3
SW_DOWELSYMBOL_0
  1

  0
CIRCLE
  5
12A
330
127
100
AcDbEntity
  8
해칭선
 62
     0
100
AcDbCircle
 10
0.0
 20
0.0
 30
0.0
 40
3.000000000000001
  0
HATCH
  5
12B
330
127
100
AcDbEntity
  8
0
  6
Continuous
 62
     0
370
     0
100
AcDbHatch
 10
0.0
 20
0.0
 30
0.0
210
0.0
220
0.0
230
1.0
  2
SOLID
 70
     1
 71
     0
 91
        1
 92
        0
 93
        3
 72
     2
 10
0.0
 20
0.0
 40
3.000000000000001
 50
0.0
 51
90.0
 73
     1
 72
     1
 10
0.0
 20
3.000000000000001
 11
0.0
 21
0.0
 72
     1
 10
0.0
 20
0.0
 11
3.000000000000001
 21
0.0
 97
        0
 75
     0
 76
     1
 98
        1
 10
0.0
 20
0.0
  0
HATCH
  5
12C
330
127
100
AcDbEntity
  8
0
  6
Continuous
 62
     0
370
     0
100
AcDbHatch
 10
0.0
 20
0.0
 30
0.0
210
0.0
220
0.0
230
1.0
  2
SOLID
 70
     1
 71
     0
 91
        1
 92
        0
 93
        3
 72
     2
 10
0.0
 20
0.0
 40
3.000000000000001
 50
180.0
 51
270.0000000000008
 73
     1
 72
     1
 10
0.0
 20
-3.000000000000001
 11
0.0
 21
0.0
 72
     1
 10
0.0
 20
0.0
 11
-3.000000000000001
 21
0.0
 97
        0
 75
     0
 76
     1
 98
        1
 10
0.0
 20
0.0
  0
ENDBLK
  5
129
330
127
100
AcDbEntity
  8
0
100
AcDbBlockEnd
  0
BLOCK
  5
191
330
190
100
AcDbEntity
  8
0
100
AcDbBlockBegin
  2
*D8
 70
     1
 10
0.0
 20
0.0
 30
0.0
  3
*D8
  1

  0
LINE
  5
193
330
190
100
AcDbEntity
  8
치수문자_일반주서
 62
     0
370
    -2
100
AcDbLine
 10
76.20000000000002
 20
8.77138514833892
 30
0.0
 11
76.20000000000002
 21
23.70888514833892
 31
0.0
  0
LINE
  5
194
330
190
100
AcDbEntity
  8
치수문자_일반주서
 62
     0
370
    -2
100
AcDbLine
 10
0.0
 20
8.771095130386014
 30
0.0
 11
0.0
 21
23.70888514833892
 31
0.0
  0
LINE
  5
195
330
190
100
AcDbEntity
  8
치수문자_일반주서
 62
     0
370
    -2
100
AcDbLine
 10
72.20000000000002
 20
23.70888514833892
 30
0.0
 11
4.0
 21
23.70888514833892
 31
0.0
  0
SOLID
  5
196
330
190
100
AcDbEntity
  8
치수문자_일반주서
 62
     0
100
AcDbTrace
 10
72.20000000000002
 20
23.04221848167225
 30
0.0
 11
72.20000000000002
 21
24.37555181500559
 31
0.0
 12
76.20000000000002
 22
23.70888514833892
 32
0.0
 13
76.20000000000002
 23
23.70888514833892
 33
0.0
  0
SOLID
  5
197
330
190
100
AcDbEntity
  8
치수문자_일반주서
 62
     0
100
AcDbTrace
 10
4.0
 20
24.37555181500559
 30
0.0
 11
4.0
 21
23.04221848167225
 31
0.0
 12
0.0
 22
23.70888514833892
 32
0.0
 13
0.0
 23
23.70888514833892
 33
0.0
  0
MTEXT
  5
198
330
190
100
AcDbEntity
  8
치수문자_일반주서
 62
     0
100
AcDbMText
 10
40.83893007191559
 20
28.58388514833892
 30
0.0
 40
4.0
 41
0.0
 71
     2
 72
     1
  1
\A1;76.2 [3]
  7
SLDTEXTSTYLE0
 73
     1
 44
1.0
  0
POINT
  5
199
330
190
100
AcDbEntity
  8
Defpoints
 62
     0
100
AcDbPoint
 10
76.20000000000002
 20
8.70888514833892
 30
0.0
  0
POINT
  5
19A
330
190
100
AcDbEntity
  8
Defpoints
 62
     0
100
AcDbPoint
 10
0.0
 20
8.708595130386014
 30
0.0
  0
POINT
  5
19B
330
190
100
AcDbEntity
  8
Defpoints
 62
     0
100
AcDbPoint
 10
0.0
 20
23.70888514833892
 30
0.0
  0
ENDBLK
  5
192
330
190
100
AcDbEntity
  8
0
100
AcDbBlockEnd
  0
BLOCK
  5
1A0
330
19F
100
AcDbEntity
  8
0
100
AcDbBlockBegin
  2
*D9
 70
     1
 10
0.0
 20
0.0
 30
0.0
  3
*D9
  1

  0
LINE
  5
1A2
330
19F
100
AcDbEntity
  8
치수문자_일반주서
 62
     0
370
    -2
100
AcDbLine
 10
269.3735289763066
 20
-16.37800049950314
 30
0.0
 11
269.3735289763066
 21
-1.440500499503145
 31
0.0
  0
LINE
  5
1A3
330
19F
100
AcDbEntity
  8
치수문자_일반주서
 62
     0
370
    -2
100
AcDbLine
 10
193.1735289763066
 20
-16.37829051745605
 30
0.0
 11
193.1735289763066
 21
-1.440500499503145
 31
0.0
  0
LINE
  5
1A4
330
19F
100
AcDbEntity
  8
치수문자_일반주서
 62
     0
370
    -2
100
AcDbLine
 10
265.3735289763066
 20
-1.440500499503145
 30
0.0
 11
197.1735289763066
 21
-1.440500499503145
 31
0.0
  0
SOLID
  5
1A5
330
19F
100
AcDbEntity
  8
치수문자_일반주서
 62
     0
100
AcDbTrace
 10
265.3735289763066
 20
-2.107167166169811
 30
0.0
 11
265.3735289763066
 21
-0.7738338328364781
 31
0.0
 12
269.3735289763066
 22
-1.440500499503145
 32
0.0
 13
269.3735289763066
 23
-1.440500499503145
 33
0.0
  0
SOLID
  5
1A6
330
19F
100
AcDbEntity
  8
치수문자_일반주서
 62
     0
100
AcDbTrace
 10
197.1735289763066
 20
-0.7738338328364781
 30
0.0
 11
197.1735289763066
 21
-2.107167166169811
 31
0.0
 12
193.1735289763066
 22
-1.440500499503145
 32
0.0
 13
193.1735289763066
 23
-1.440500499503145
 33
0.0
  0
MTEXT
  5
1A7
330
19F
100
AcDbEntity
  8
치수문자_일반주서
 62
     0
100
AcDbMText
 10
234.0124590482222
 20
3.434499500496855
 30
0.0
 40
4.0
 41
0.0
 71
     2
 72
     1
  1
\A1;76.2 [3]
  7
SLDTEXTSTYLE0
 73
     1
 44
1.0
  0
POINT
  5
1A8
330
19F
100
AcDbEntity
  8
Defpoints
 62
     0
100
AcDbPoint
 10
269.3735289763066
 20
-16.44050049950314
 30
0.0
  0
POINT
  5
1A9
330
19F
100
AcDbEntity
  8
Defpoints
 62
     0
100
AcDbPoint
 10
193.1735289763066
 20
-16.44079051745605
 30
0.0
  0
POINT
  5
1AA
330
19F
100
AcDbEntity
  8
Defpoints
 62
     0
100
AcDbPoint
 10
193.1735289763066
 20
-1.440500499503145
 30
0.0
  0
ENDBLK
  5
1A1
330
19F
100
AcDbEntity
  8
0
100
AcDbBlockEnd
  0
ENDSEC
  0
SECTION
  2
ENTITIES
  0
LINE
  5
96
330
1F
100
AcDbEntity
  8
0
  6
Continuous
 62
     1
370
    15
100
AcDbLine
 10
108.8751466465568
 20
3.761464440779613
 30
0.0
 11
108.7853356008711
 21
3.810008854573068
 31
0.0
1001
PE_URL
1000

  0
LINE
  5
97
330
1F
100
AcDbEntity
  8
0
  6
Continuous
 62
     1
370
    15
100
AcDbLine
 10
46.3819023183521
 20
-12.70000000000001
 30
0.0
 11
54.12580162390189
 21
-12.70000000000001
 31
0.0
1001
PE_URL
1000

  0
LINE
  5
98
330
1F
100
AcDbEntity
  8
0
  6
Continuous
 62
     1
370
    15
100
AcDbLine
 10
80.93404316324012
 20
-12.70000000000001
 30
0.0
 11
88.67706338841319
 21
-12.70000000000001
 31
0.0
1001
PE_URL
1000

  0
LINE
  5
99
330
1F
100
AcDbEntity
  8
0
  6
Continuous
 62
     1
370
    15
100
AcDbLine
 10
19.5710909410916
 20
12.7
 30
0.0
 11
11.99999999999996
 21
12.7
 31
0.0
1001
PE_URL
1000

  0
LINE
  5
9A
330
1F
100
AcDbEntity
  8
0
  6
Continuous
 62
     1
370
    15
100
AcDbLine
 10
54.1258016239021
 20
12.7
 30
0.0
 11
46.38190231835224
 21
12.7
 31
0.0
1001
PE_URL
1000

  0
LINE
  5
9B
330
1F
100
AcDbEntity
  8
0
  6
Continuous
 62
     1
370
    15
100
AcDbLine
 10
11.99999999999996
 20
-12.70000000000001
 30
0.0
 11
19.57109094109158
 21
-12.70000000000001
 31
0.0
1001
PE_URL
1000

  0
LINE
  5
9C
330
1F
100
AcDbEntity
  8
0
  6
Continuous
 62
     1
370
    15
100
AcDbLine
 10
88.67706338841313
 20
12.7
 30
0.0
 11
80.93404316324023
 21
12.7
 31
0.0
1001
PE_URL
1000

  0
LINE
  5
9D
330
1F
100
AcDbEntity
  8
외형선
  6
Continuous
370
    15
100
AcDbLine
 10
11.82828857428558
 20
-12.7
 30
0.0
 11
11.99999999999996
 21
-12.7
 31
0.0
  0
LINE
  5
9E
330
1F
100
AcDbEntity
  8
외형선
  6
Continuous
370
    15
100
AcDbLine
 10
-48.96000000000005
 20
-12.7
 30
0.0
 11
11.50009552270916
 21
-12.7
 31
0.0
  0
LINE
  5
9F
330
1F
100
AcDbEntity
  8
외형선
  6
Continuous
370
    15
100
AcDbLine
 10
11.50009552270916
 20
12.69999999999999
 30
0.0
 11
-14.06992500000004
 21
12.69999999999999
 31
0.0
  0
LINE
  5
A0
330
1F
100
AcDbEntity
  8
외형선
  6
Continuous
370
    15
100
AcDbLine
 10
11.99999999999996
 20
12.69999999999999
 30
0.0
 11
11.82828857428541
 21
12.69999999999999
 31
0.0
  0
LINE
  5
A2
330
1F
100
AcDbEntity
  8
외형선
  6
Continuous
370
    15
100
AcDbLine
 10
-51.50000000000004
 20
-10.16000000000001
 30
0.0
 11
-48.96000000000005
 21
-12.7
 31
0.0
  0
SPLINE
  5
A3
330
1F
100
AcDbEntity
  8
0
  6
Continuous
 62
     1
370
    15
100
AcDbSpline
210
0.0
220
0.0
230
1.0
 70
     8
 71
     3
 72
    23
 73
    19
 74
     0
 42
0.000000001
 43
0.00000001
 40
0.0
 40
0.0
 40
0.0
 40
0.0
 40
0.0643785613124746
 40
0.1287574183558881
 40
0.1931365822589292
 40
0.2575160580478297
 40
0.3218954521079492
 40
0.3862745312220942
 40
0.4506533065104492
 40
0.5163182373771815
 40
0.5819831616781717
 40
0.6476480793763236
 40
0.7133129904345508
 40
0.7789778948157711
 40
0.8446427924829083
 40
0.9103076833988921
 40
0.9759725675266551
 40
1.0
 40
1.0
 40
1.0
 40
1.0
 10
11.99999999999998
 20
4.28559749633041
 30
0.0
 10
13.19166069180042
 20
3.62705121014924
 30
0.0
 10
15.57498754944312
 20
2.309955612672522
 30
0.0
 10
19.14999047258414
 20
0.2431760995305034
 30
0.0
 10
22.72501312822684
 20
-1.821907899443232
 30
0.0
 10
26.30005070582978
 20
-3.841148204138595
 30
0.0
 10
29.87508473710781
 20
-5.75857819733157
 30
0.0
 10
33.45010328912062
 20
-7.524407480822248
 30
0.0
 10
37.04890845696809
 20
-9.102320701849576
 30
0.0
 10
40.67153331791577
 20
-10.44552254701752
 30
0.0
 10
44.31795994241212
 20
-11.51116283075165
 30
0.0
 10
47.96438747784013
 20
-12.26111749465747
 30
0.0
 10
51.61081420901815
 20
-12.67526893395396
 30
0.0
 10
55.25724059197348
 20
-12.7405683965995
 30
0.0
 10
58.90366650296031
 20
-12.4615584800289
 30
0.0
 10
62.5500919661193
 20
-11.82225148331773
 30
0.0
 10
65.4257964737138
 20
-11.11732062152887
 30
0.0
 10
67.0860258011447
 20
-10.53643592548535
 30
0.0
 10
67.53078015209454
 20
-10.38082429298557
 30
0.0
1001
PE_URL
1000

  0
SPLINE
  5
A4
330
1F
100
AcDbEntity
  8
0
  6
Continuous
 62
     1
370
    15
100
AcDbSpline
210
0.0
220
0.0
230
1.0
 70
     8
 71
     3
 72
    27
 73
    23
 74
     0
 42
0.000000001
 43
0.00000001
 40
0.0
 40
0.0
 40
0.0
 40
0.0
 40
0.0022025475020779
 40
0.0550997960513987
 40
0.1079970501884498
 40
0.1608943098833918
 40
0.2137915751063821
 40
0.2666888458275711
 40
0.3195861220171053
 40
0.3724834036451263
 40
0.425380690681772
 40
0.4782779830971745
 40
0.5311752808614622
 40
0.584072583944758
 40
0.6369698923171807
 40
0.6888311199788435
 40
0.740692592391643
 40
0.792554318513602
 40
0.8444161104733291
 40
0.8962776511890168
 40
0.9481389447096171
 40
1.0
 40
1.0
 40
1.0
 40
1.0
 10
80.93404316324012
 20
-12.69305087755884
 30
0.0
 10
80.88343296885981
 20
-12.69535359065939
 30
0.0
 10
79.6173484073033
 20
-12.75295916878449
 30
0.0
 10
77.13578927862883
 20
-12.54355193300395
 30
0.0
 10
73.48936564387864
 20
-12.0411985033982
 30
0.0
 10
69.842941540564
 20
-11.16872270510047
 30
0.0
 10
66.19651698231684
 20
-10.0007533451081
 30
0.0
 10
62.55009196920162
 20
-8.555724965057703
 30
0.0
 10
58.90366650213439
 20
-6.876896128244901
 30
0.0
 10
55.25724059219481
 20
-5.009319300448885
 30
0.0
 10
51.61081420895888
 20
-3.00445840701867
 30
0.0
 10
47.96438747785604
 20
-0.9172109980364778
 30
0.0
 10
44.31795994240779
 20
1.195182148036743
 30
0.0
 10
40.67153331791689
 20
3.27479836432259
 30
0.0
 10
37.04890845696775
 20
5.251676223859353
 30
0.0
 10
33.45010328912068
 20
7.074367655372886
 30
0.0
 10
29.87508473710785
 20
8.698722078592168
 30
0.0
 10
26.30005070582983
 20
10.09336170599843
 30
0.0
 10
22.7250131282269
 20
11.22372975137081
 30
0.0
 10
19.14999047258422
 20
12.05187200726302
 30
0.0
 10
15.57498754944319
 20
12.58643003460264
 30
0.0
 10
13.19166069180055
 20
12.66188449291316
 30
0.0
 10
12.00000000000013
 20
12.69961163541625
 30
0.0
1001
PE_URL
1000

  0
SPLINE
  5
A5
330
1F
100
AcDbEntity
  8
외형선
  6
Continuous
370
    15
100
AcDbSpline
210
0.0
220
0.0
230
1.0
 70
    24
 71
     3
 72
    15
 73
    11
 74
     0
 42
0.000000001
 43
0.00000001
 40
0.0
 40
0.0
 40
0.0
 40
0.0
 40
0.1421188815948881
 40
0.2886758961473089
 40
0.4258914970900421
 40
0.5670863597557603
 40
0.7043019606984955
 40
0.8454968233642154
 40
0.9827124243069513
 40
1.0
 40
1.0
 40
1.0
 40
1.0
 10
12.0
 20
12.69961163541703
 30
0.0
 10
11.99999999999998
 20
12.27664810343066
 30
0.0
 10
11.99999999999992
 20
11.41751260177479
 30
0.0
 10
11.99999999999991
 20
10.09897317172534
 30
0.0
 10
11.99999999999993
 20
8.796882275756744
 30
0.0
 10
11.99999999999995
 20
7.566844528237796
 30
0.0
 10
12.00000000000002
 20
6.400791892733858
 30
0.0
 10
11.99999999999999
 20
5.37470017371415
 30
0.0
 10
11.99999999999995
 20
4.698637124958635
 30
0.0
 10
11.99999999999993
 20
4.430929766779504
 30
0.0
 10
11.99999999999993
 20
4.400975617493513
 30
0.0
  0
SPLINE
  5
A6
330
1F
100
AcDbEntity
  8
0
  6
Continuous
 62
     1
370
    15
100
AcDbSpline
210
0.0
220
0.0
230
1.0
 70
     8
 71
     3
 72
    30
 73
    26
 74
     0
 42
0.000000001
 43
0.00000001
 40
0.0
 40
0.0
 40
0.0
 40
0.0
 40
0.0382247896029473
 40
0.0815534981849354
 40
0.1248821517617765
 40
0.1682105933735126
 40
0.211538830504256
 40
0.2557326767373373
 40
0.2999265185515393
 40
0.3441203559218957
 40
0.3883141888234464
 40
0.4325080172312345
 40
0.4767018411203069
 40
0.5208956604657143
 40
0.5650894752425101
 40
0.6092832854257543
 40
0.6534770909905078
 40
0.6976708919118382
 40
0.7418646881648161
 40
0.7860584797245146
 40
0.8302522665660123
 40
0.874446048664392
 40
0.9186398259947396
 40
0.9628335985321465
 40
1.0
 40
1.0
 40
1.0
 40
1.0
 10
19.57109094109161
 20
12.68259799190688
 30
0.0
 10
20.62239642459653
 20
12.66449182730538
 30
0.0
 10
22.86538168969317
 20
12.625861894288
 30
0.0
 10
26.30005075665014
 20
12.15869298354187
 30
0.0
 10
29.87508472349124
 20
11.3836306994262
 30
0.0
 10
33.4501032927668
 20
10.300085908201
 30
0.0
 10
37.04890845596906
 20
8.938384608743592
 30
0.0
 10
40.67153331818675
 20
7.325626383669197
 30
0.0
 10
44.3179599423355
 20
5.501612346257232
 30
0.0
 10
47.96438747787557
 20
3.526712031518579
 30
0.0
 10
51.61081420895314
 20
1.455134421783094
 30
0.0
 10
55.25724059219822
 20
-0.6563417072516771
 30
0.0
 10
58.90366650212633
 20
-2.749822040880157
 30
0.0
 10
62.55009196923046
 20
-4.767911551300731
 30
0.0
 10
66.1965169822098
 20
-6.655280296064346
 30
0.0
 10
69.84294154096338
 20
-8.360183962727032
 30
0.0
 10
73.48936564238826
 20
-9.835875986415697
 30
0.0
 10
77.13578928419099
 20
-11.04191176205427
 30
0.0
 10
80.78221246384496
 20
-11.94517372991684
 30
0.0
 10
84.42863517894955
 20
-12.52109184957995
 30
0.0
 10
88.07505742683466
 20
-12.75315098768938
 30
0.0
 10
91.72147920578598
 20
-12.63769615823963
 30
0.0
 10
95.36790051053674
 20
-12.16778915774121
 30
0.0
 10
98.82104574127248
 20
-11.43503358228283
 30
0.0
 10
101.0587171648772
 20
-10.72104919385404
 30
0.0
 10
102.0809150092114
 20
-10.39489170038054
 30
0.0
1001
PE_URL
1000

  0
SPLINE
  5
A7
330
1F
100
AcDbEntity
  8
0
  6
Continuous
 62
     1
370
    15
100
AcDbSpline
210
0.0
220
0.0
230
1.0
 70
     8
 71
     3
 72
    30
 73
    26
 74
     0
 42
0.000000001
 43
0.00000001
 40
0.0
 40
0.0
 40
0.0
 40
0.0
 40
0.0452272093170519
 40
0.0904544236410512
 40
0.1356816429465256
 40
0.1809088672079932
 40
0.226136096399971
 40
0.2713633304969717
 40
0.3165905694735023
 40
0.3618178133040675
 40
0.407045061963167
 40
0.4522723154252968
 40
0.4974995736649472
 40
0.5427268366566055
 40
0.587954104374756
 40
0.6331813767938775
 40
0.6784086538884451
 40
0.7236359356329298
 40
0.7688632220017996
 40
0.8140905129695172
 40
0.8593178085105421
 40
0.9045451085993298
 40
0.9497724132103316
 40
0.9941138667383783
 40
1.0
 40
1.0
 40
1.0
 40
1.0
 10
113.5999999999999
 20
-12.69999999999999
 30
0.0
 10
112.3845270356216
 20
-12.55963483015495
 30
0.0
 10
109.9535809723044
 20
-12.3723106552764
 30
0.0
 10
106.3071615738297
 20
-11.65916223191956
 30
0.0
 10
102.6607416993259
 20
-10.65126545140948
 30
0.0
 10
99.01432134387892
 20
-9.344672496158935
 30
0.0
 10
95.36790051192963
 20
-7.783667858872589
 30
0.0
 10
91.72147920541269
 20
-6.008781660015462
 30
0.0
 10
88.07505742693453
 20
-4.069282915225359
 30
0.0
 10
84.4286351789228
 20
-2.018183435545085
 30
0.0
 10
80.78221246385203
 20
0.0882388149960675
 30
0.0
 10
77.13578928418929
 20
2.192244423439956
 30
0.0
 10
73.48936564238792
 20
4.236145318431791
 30
0.0
 10
69.8429415409662
 20
6.163905568467082
 30
0.0
 10
66.19651698219886
 20
7.922671207875764
 30
0.0
 10
62.55009196927137
 20
9.464226116203507
 30
0.0
 10
58.9036665019734
 20
10.74629325304006
 30
0.0
 10
55.25724059276921
 20
11.73376973417083
 30
0.0
 10
51.61081420682225
 20
12.3994060236372
 30
0.0
 10
47.96438748582812
 20
12.72560991358711
 30
0.0
 10
44.31795991265609
 20
12.70098452259566
 30
0.0
 10
40.67153342895182
 20
12.33536117928344
 30
0.0
 10
37.04890804601017
 20
11.60936366138673
 30
0.0
 10
34.48358585791205
 20
10.94368072131638
 30
0.0
 10
33.13373037095928
 20
10.45541029700699
 30
0.0
 10
32.97554181785583
 20
10.39819025183084
 30
0.0
1001
PE_URL
1000

  0
LINE
  5
A8
330
1F
100
AcDbEntity
  8
0
  6
Continuous
 62
     1
370
    15
100
AcDbLine
 10
113.5999999999999
 20
-11.50215313554798
 30
0.0
 11
113.5999999999999
 21
1.088153135548119
 31
0.0
1001
PE_URL
1000

  0
SPLINE
  5
A9
330
1F
100
AcDbEntity
  8
0
  6
Continuous
 62
     1
370
    15
100
AcDbSpline
210
0.0
220
0.0
230
1.0
 70
     8
 71
     3
 72
    24
 73
    20
 74
     0
 42
0.000000001
 43
0.00000001
 40
0.0
 40
0.0
 40
0.0
 40
0.0
 40
0.0190240290531474
 40
0.080335075724396
 40
0.14164611609212
 40
0.2029571501217101
 40
0.2642681777785672
 40
0.3255791990280922
 40
0.3868902138356961
 40
0.4482012221667935
 40
0.5095122239868033
 40
0.570823219261151
 40
0.6321342079552688
 40
0.6934451900345925
 40
0.7547561654645659
 40
0.816067134210637
 40
0.8773780962382586
 40
0.9386890515128917
 40
1.0
 40
1.0
 40
1.0
 40
1.0
 10
54.1258016239021
 20
12.66268700068316
 30
0.0
 10
54.50294798331223
 20
12.67327326674211
 30
0.0
 10
56.09556967547585
 20
12.71797717689215
 30
0.0
 10
58.90366649993089
 20
12.44269366698259
 30
0.0
 10
62.55009196981872
 20
11.83811883767574
 30
0.0
 10
66.19651698205223
 20
10.88378677650927
 30
0.0
 10
69.84294154100544
 20
9.637808281853271
 30
0.0
 10
73.48936564237746
 20
8.12578401654872
 30
0.0
 10
77.13578928419213
 20
6.391462550581824
 30
0.0
 10
80.7822124638513
 20
4.481777929727721
 30
0.0
 10
84.42863517892303
 20
2.449254926819994
 30
0.0
 10
88.07505742693453
 20
0.3495638540353827
 30
0.0
 10
91.72147920541278
 20
-1.75967723842158
 30
0.0
 10
95.36790051192972
 20
-3.820791108433563
 30
0.0
 10
99.014321343879
 20
-5.776715736960724
 30
0.0
 10
102.6607416993259
 20
-7.575887543032452
 30
0.0
 10
106.3071615738298
 20
-9.161286932988217
 30
0.0
 10
109.9535809723044
 20
-10.51815542293268
 30
0.0
 10
112.3845270356217
 20
-11.17415391011344
 30
0.0
 10
113.6
 20
-11.50215313554798
 30
0.0
1001
PE_URL
1000

  0
SPLINE
  5
AA
330
1F
100
AcDbEntity
  8
0
  6
Continuous
 62
     1
370
    15
100
AcDbSpline
210
0.0
220
0.0
230
1.0
 70
     8
 71
     3
 72
    20
 73
    16
 74
     0
 42
0.000000001
 43
0.00000001
 40
0.0
 40
0.0
 40
0.0
 40
0.0
 40
0.0791508817276312
 40
0.1583017722177816
 40
0.2374526714258733
 40
0.316603579307311
 40
0.3957544958174974
 40
0.474905420911828
 40
0.5540563545456884
 40
0.6332072966744596
 40
0.7123582472535146
 40
0.7915092062382193
 40
0.87066017358393
 40
0.9498111492459975
 40
1.0
 40
1.0
 40
1.0
 40
1.0
 10
113.5999999999999
 20
1.088153135548121
 30
0.0
 10
112.3845270356216
 20
1.784443329674775
 30
0.0
 10
109.9535809723044
 20
3.177023795011953
 30
0.0
 10
106.3071615738297
 20
5.17079722366745
 30
0.0
 10
102.6607416993258
 20
7.024946332507784
 30
0.0
 10
99.01432134387912
 20
8.685922089309374
 30
0.0
 10
95.36790051192898
 20
10.10890818462914
 30
0.0
 10
91.7214792054153
 20
11.25471682742416
 30
0.0
 10
88.07505742692453
 20
12.09190837523409
 30
0.0
 10
84.42863517896029
 20
12.59780531302442
 30
0.0
 10
80.78221246371209
 20
12.75746074597643
 30
0.0
 10
77.13578928471162
 20
12.57052920049554
 30
0.0
 10
73.48936564043854
 20
12.02708533183719
 30
0.0
 10
70.28769588986361
 20
11.2992974958277
 30
0.0
 10
68.30150065583445
 20
10.63759170878579
 30
0.0
 10
67.5307801520947
 20
10.38082429298556
 30
0.0
1001
PE_URL
1000

  0
SPLINE
  5
AB
330
1F
100
AcDbEntity
  8
0
  6
Continuous
 62
     1
370
    15
100
AcDbSpline
210
0.0
220
0.0
230
1.0
 70
     8
 71
     3
 72
    11
 73
     7
 74
     0
 42
0.000000001
 43
0.00000001
 40
0.0
 40
0.0
 40
0.0
 40
0.0
 40
0.3165545702337966
 40
0.6331091755122505
 40
0.9496638156570771
 40
0.9999999999999999
 40
0.9999999999999999
 40
0.9999999999999999
 40
0.9999999999999999
 10
113.5999999999999
 20
12.70000000000001
 30
0.0
 10
112.3845270360113
 20
12.56100124247966
 30
0.0
 10
109.9535809734734
 20
12.37640989240182
 30
0.0
 10
106.3071615691534
 20
11.64276528054748
 30
0.0
 10
103.6829395366001
 20
10.97346330351865
 30
0.0
 10
102.2741906127216
 20
10.46469323828374
 30
0.0
 10
102.0809150092114
 20
10.39489170038053
 30
0.0
1001
PE_URL
1000

  0
SPLINE
  5
AC
330
1F
100
AcDbEntity
  8
0
  6
Continuous
 62
     1
370
    15
100
AcDbSpline
210
0.0
220
0.0
230
1.0
 70
     8
 71
     3
 72
    17
 73
    13
 74
     0
 42
0.000000001
 43
0.00000001
 40
0.0
 40
0.0
 40
0.0
 40
0.0
 40
0.0600298152731358
 40
0.1660862703212445
 40
0.2721427359737887
 40
0.3761219114636589
 40
0.4801015776673542
 40
0.5840817525452634
 40
0.6880620594246145
 40
0.7920418625721949
 40
0.896021170105951
 40
1.0
 40
1.0
 40
1.0
 40
1.0
 10
46.38190231835212
 20
-12.6571624845943
 30
0.0
 10
45.69392161116525
 20
-12.66307062237202
 30
0.0
 10
43.7904649839919
 20
-12.67941684238918
 30
0.0
 10
40.6715333284229
 20
-12.32069195561156
 30
0.0
 10
37.04890845421399
 20
-11.62871466756579
 30
0.0
 10
33.45010328985238
 20
-10.61386854380181
 30
0.0
 10
29.87508473691176
 20
-9.330241579997855
 30
0.0
 10
26.30005070588236
 20
-7.799592505192969
 30
0.0
 10
22.72501312821284
 20
-6.063712750111541
 30
0.0
 10
19.14999047258795
 20
-4.167897376498504
 30
0.0
 10
15.57498754944228
 20
-2.162456414947019
 30
0.0
 10
13.19166069180026
 20
-0.7870305724651199
 30
0.0
 10
12.00000000000014
 20
-0.099319230768026
 30
0.0
1001
PE_URL
1000

  0
LINE
  5
AD
330
1F
100
AcDbEntity
  8
외형선
  6
Continuous
370
    15
100
AcDbLine
 10
12.0
 20
-0.0993192307681893
 30
0.0
 11
11.99999999999999
 21
4.285597496330413
 31
0.0
  0
LINE
  5
AE
330
1F
100
AcDbEntity
  8
외형선
  6
Continuous
370
    15
100
AcDbLine
 10
12.0
 20
12.69961163541703
 30
0.0
 11
11.99999999999996
 21
12.7
 31
0.0
  0
LINE
  5
AF
330
1F
100
AcDbEntity
  8
0
  6
Continuous
 62
     1
370
    15
100
AcDbLine
 10
113.5999999999999
 20
-12.69999999999999
 30
0.0
 11
113.5999999999999
 21
-11.50215313554798
 31
0.0
1001
PE_URL
1000

  0
LINE
  5
B0
330
1F
100
AcDbEntity
  8
0
  6
Continuous
 62
     1
370
    15
100
AcDbLine
 10
113.5999999999999
 20
5.380134679717173
 30
0.0
 11
113.5999999999999
 21
12.70000000000001
 31
0.0
1001
PE_URL
1000

  0
SPLINE
  5
B1
330
1F
100
AcDbEntity
  8
0
  6
Continuous
 62
     1
370
    15
100
AcDbSpline
210
0.0
220
0.0
230
1.0
 70
     8
 71
     3
 72
    13
 73
     9
 74
     0
 42
0.000000001
 43
0.00000001
 40
0.0
 40
0.0
 40
0.0
 40
0.0
 40
0.1704360564472466
 40
0.3408728958137441
 40
0.5113105475616267
 40
0.6817490249973601
 40
0.8521872860639974
 40
1.0
 40
1.0
 40
1.0
 40
1.0
 10
11.99999999999998
 20
-11.95506813445441
 30
0.0
 10
13.1916606925364
 20
-12.15680425082195
 30
0.0
 10
15.57498755165108
 20
-12.560277410257
 30
0.0
 10
19.1499904637523
 20
-12.74957433375557
 30
0.0
 10
22.72501316134647
 20
-12.62742257809383
 30
0.0
 10
26.30005058218251
 20
-12.15919254266317
 30
0.0
 10
29.7168964786165
 20
-11.43279395253775
 30
0.0
 10
31.94205814860717
 20
-10.72631618070975
 30
0.0
 10
32.97554181785581
 20
-10.39819025183085
 30
0.0
1001
PE_URL
1000

  0
SPLINE
  5
B2
330
1F
100
AcDbEntity
  8
0
  6
Continuous
 62
     1
370
    15
100
AcDbSpline
210
0.0
220
0.0
230
1.0
 70
     8
 71
     3
 72
    14
 73
    10
 74
     0
 42
0.000000001
 43
0.00000001
 40
0.0
 40
0.0
 40
0.0
 40
0.0
 40
0.1221531707583622
 40
0.2684610155755304
 40
0.414768844525197
 40
0.5610766575249093
 40
0.7073844544922269
 40
0.853692235344729
 40
1.0
 40
1.0
 40
1.0
 40
1.0
 10
88.67706338841313
 20
12.67598007267469
 30
0.0
 10
89.69186870432179
 20
12.66222394543277
 30
0.0
 10
91.92214782052412
 20
12.63199154240282
 30
0.0
 10
95.36790051056286
 20
12.1667106900759
 30
0.0
 10
99.01432134424525
 20
11.37694276131122
 30
0.0
 10
102.6607416992279
 20
10.2662690477612
 30
0.0
 10
106.307161573856
 20
8.873899833580463
 30
0.0
 10
109.9535809722979
 20
7.24814012002828
 30
0.0
 10
112.3845270356196
 20
6.005566815490968
 30
0.0
 10
113.6
 20
5.384280197612568
 30
0.0
1001
PE_URL
1000

  0
SPLINE
  5
B3
330
1F
100
AcDbEntity
  8
외형선
  6
Continuous
370
    15
100
AcDbSpline
210
0.0
220
0.0
230
1.0
 70
    24
 71
     3
 72
    21
 73
    17
 74
     0
 42
0.000000001
 43
0.00000001
 40
0.0
 40
0.0
 40
0.0
 40
0.0
 40
0.0233683489421941
 40
0.0988553217124017
 40
0.1743422944826091
 40
0.2498292672528177
 40
0.3253162400230262
 40
0.4008032127932349
 40
0.4762901855634436
 40
0.5517771583336518
 40
0.6272641311038598
 40
0.7027511038740687
 40
0.7782380766442777
 40
0.8537250494144856
 40
0.9292120221846935
 40
1.0
 40
1.0
 40
1.0
 40
1.0
 10
11.99999999999995
 20
0.2442768816918489
 30
0.0
 10
11.99999999999995
 20
0.2534099170069687
 30
0.0
 10
11.99999999999992
 20
0.2920454725834562
 30
0.0
 10
11.99999999999998
 20
0.1323175161829306
 30
0.0
 10
11.99999999999996
 20
-0.2217549802981706
 30
0.0
 10
11.99999999999998
 20
-0.7988102895790055
 30
0.0
 10
12.0
 20
-1.55359935338037
 30
0.0
 10
11.99999999999995
 20
-2.477507520522779
 30
0.0
 10
11.99999999999993
 20
-3.536575166677392
 30
0.0
 10
11.99999999999995
 20
-4.706203663655998
 30
0.0
 10
11.99999999999999
 20
-5.949364855464803
 30
0.0
 10
11.99999999999998
 20
-7.232948606201097
 30
0.0
 10
11.99999999999992
 20
-8.520422885295512
 30
0.0
 10
11.99999999999995
 20
-9.771639751671872
 30
0.0
 10
11.99999999999995
 20
-10.93958091766816
 30
0.0
 10
11.99999999999998
 20
-11.62390017729476
 30
0.0
 10
11.99999999999999
 20
-11.95506813445441
 30
0.0
  0
LINE
  5
B4
330
1F
100
AcDbEntity
  8
0
  6
Continuous
 62
     1
370
    15
100
AcDbLine
 10
113.5999999999999
 20
1.088153135548121
 30
0.0
 11
113.5999999999999
 21
5.384280197612567
 31
0.0
1001
PE_URL
1000

  0
LINE
  5
B5
330
1F
100
AcDbEntity
  8
외형선
  6
Continuous
370
    15
100
AcDbLine
 10
11.99999999999996
 20
-12.70000000000001
 30
0.0
 11
11.99999999999999
 21
-11.95506813445441
 31
0.0
  0
SPLINE
  5
B6
330
1F
100
AcDbEntity
  8
외형선
  6
Continuous
370
    15
100
AcDbSpline
210
0.0
220
0.0
230
1.0
 70
    24
 71
     3
 72
    20
 73
    16
 74
     0
 42
0.000000001
 43
0.00000001
 40
0.0
 40
0.0
 40
0.0
 40
0.0
 40
0.0978500333985726
 40
0.1742542940975502
 40
0.2528742835327905
 40
0.3292785442317682
 40
0.4078985336670084
 40
0.4843027943659862
 40
0.5629227838012266
 40
0.6393270445002043
 40
0.7179470339354447
 40
0.7943512946344214
 40
0.8729712840696607
 40
0.9493755447686398
 40
1.0
 40
1.0
 40
1.0
 40
1.0
 10
11.99999999999999
 20
-11.9550681344544
 30
0.0
 10
11.99999999999998
 20
-11.50385599608108
 30
0.0
 10
11.99999999999996
 20
-10.70032379553271
 30
0.0
 10
11.99999999999999
 20
-9.375472904389524
 30
0.0
 10
12.0
 20
-8.115248852880207
 30
0.0
 10
11.99999999999996
 20
-6.818981129925477
 30
0.0
 10
11.99999999999999
 20
-5.550146846085458
 30
0.0
 10
12.0
 20
-4.320881372694602
 30
0.0
 10
11.99999999999996
 20
-3.188409004633093
 30
0.0
 10
11.99999999999999
 20
-2.164119535589828
 30
0.0
 10
11.99999999999998
 20
-1.296262200175283
 30
0.0
 10
11.99999999999995
 20
-0.590771494684854
 30
0.0
 10
11.99999999999996
 20
-0.0915104988501131
 30
0.0
 10
11.99999999999993
 20
0.1987321535210812
 30
0.0
 10
11.99999999999995
 20
0.2261697235730156
 30
0.0
 10
11.99999999999995
 20
0.2371043537987764
 30
0.0
  0
SPLINE
  5
B7
330
1F
100
AcDbEntity
  8
외형선
  6
Continuous
370
    15
100
AcDbSpline
210
0.0
220
0.0
230
1.0
 70
     8
 71
     3
 72
     8
 73
     4
 74
     0
 42
0.000000001
 43
0.00000001
 40
0.0
 40
0.0
 40
0.0
 40
0.0
 40
1.0
 40
1.0
 40
1.0
 40
1.0
 10
11.99999999999996
 20
-11.9550681344544
 30
0.0
 10
11.83326639295592
 20
-11.9225373997584
 30
0.0
 10
11.66684520782949
 20
-11.88899454822267
 30
0.0
 10
11.50009552270916
 20
-11.85440520636261
 30
0.0
  0
SPLINE
  5
B8
330
1F
100
AcDbEntity
  8
외형선
  6
Continuous
370
    15
100
AcDbSpline
210
0.0
220
0.0
230
1.0
 70
     8
 71
     3
 72
     8
 73
     4
 74
     0
 42
0.000000001
 43
0.00000001
 40
0.0
 40
0.0
 40
0.0
 40
0.0
 40
1.0
 40
1.0
 40
1.0
 40
1.0
 10
11.99999999999998
 20
-0.0993192307679431
 30
0.0
 10
11.83326639295593
 20
-0.0029201412109443
 30
0.0
 10
11.66684520782949
 20
0.093427361647735
 30
0.0
 10
11.50009552270915
 20
0.1898217260293856
 30
0.0
  0
LINE
  5
B9
330
1F
100
AcDbEntity
  8
외형선
  6
Continuous
370
    15
100
AcDbLine
 10
11.50009552270916
 20
-12.7
 30
0.0
 11
11.50009552270916
 21
-12.69857996332786
 31
0.0
  0
SPLINE
  5
BA
330
1F
100
AcDbEntity
  8
외형선
  6
Continuous
370
    15
100
AcDbSpline
210
0.0
220
0.0
230
1.0
 70
     8
 71
     3
 72
     8
 73
     4
 74
     0
 42
0.000000001
 43
0.00000001
 40
0.0
 40
0.0
 40
0.0
 40
0.0
 40
1.0
 40
1.0
 40
1.0
 40
1.0
 10
11.99999999999998
 20
12.69961163541624
 30
0.0
 10
11.83326639295593
 20
12.7003655390549
 30
0.0
 10
11.66684520782949
 20
12.70002225501413
 30
0.0
 10
11.50009552270915
 20
12.69858132675958
 30
0.0
  0
LINE
  5
BB
330
1F
100
AcDbEntity
  8
외형선
  6
Continuous
370
    15
100
AcDbLine
 10
11.50009552270915
 20
4.556565338834739
 30
0.0
 11
11.50009552270916
 21
12.69999999999999
 31
0.0
  0
SPLINE
  5
BC
330
1F
100
AcDbEntity
  8
외형선
  6
Continuous
370
    15
100
AcDbSpline
210
0.0
220
0.0
230
1.0
 70
     8
 71
     3
 72
     8
 73
     4
 74
     0
 42
0.000000001
 43
0.00000001
 40
0.0
 40
0.0
 40
0.0
 40
0.0
 40
1.0
 40
1.0
 40
1.0
 40
1.0
 10
11.99999999999996
 20
4.2855974963304
 30
0.0
 10
11.83326639295592
 20
4.376344970886183
 30
0.0
 10
11.66684520782949
 20
4.466665711925478
 30
0.0
 10
11.50009552270916
 20
4.556651973034963
 30
0.0
  0
LINE
  5
BD
330
1F
100
AcDbEntity
  8
외형선
  6
Continuous
370
    15
100
AcDbLine
 10
11.50009552270915
 20
-11.85443850686022
 30
0.0
 11
11.50009552270916
 21
0.189912914169473
 31
0.0
  0
LINE
  5
BE
330
1F
100
AcDbEntity
  8
외형선
  6
Continuous
370
    15
100
AcDbLine
 10
11.82828857428558
 20
-12.69925773626872
 30
0.0
 11
11.50009552270915
 21
-12.69858132675959
 31
0.0
  0
LINE
  5
BF
330
1F
100
AcDbEntity
  8
외형선
  6
Continuous
370
    15
100
AcDbLine
 10
-48.96000000000005
 20
-0.0000000000000053
 30
0.0
 11
-48.96000000000005
 21
10.795
 31
0.0
  0
LINE
  5
C0
330
1F
100
AcDbEntity
  8
외형선
  6
Continuous
370
    15
100
AcDbLine
 10
-48.96000000000005
 20
-12.7
 30
0.0
 11
-48.96000000000005
 21
-0.0000000000000053
 31
0.0
  0
LINE
  5
C1
330
1F
100
AcDbEntity
  8
외형선
  6
Continuous
370
    15
100
AcDbLine
 10
-51.50000000000004
 20
-0.0000000000000053
 30
0.0
 11
-51.50000000000004
 21
10.795
 31
0.0
  0
LINE
  5
C2
330
1F
100
AcDbEntity
  8
외형선
  6
Continuous
370
    15
100
AcDbLine
 10
-51.50000000000004
 20
-10.16000000000001
 30
0.0
 11
-51.50000000000004
 21
-0.0000000000000053
 31
0.0
  0
SPLINE
  5
C3
330
1F
100
AcDbEntity
  8
외형선
  6
Continuous
370
    15
100
AcDbSpline
210
0.0
220
0.0
230
1.0
 70
    24
 71
     3
 72
    19
 73
    15
 74
     0
 42
0.000000001
 43
0.00000001
 40
0.0
 40
0.0
 40
0.0
 40
0.0
 40
0.1283211503812457
 40
0.1992463605733284
 40
0.2676800111666566
 40
0.4068723826967856
 40
0.4777975928888672
 40
0.5462312434821974
 40
0.6151400407963542
 40
0.6855474245858755
 40
0.7564726347779596
 40
0.8165495699726882
 40
0.9382610248600814
 40
0.9999999999999999
 40
0.9999999999999999
 40
0.9999999999999999
 40
0.9999999999999999
 10
11.99999999999996
 20
4.400985617493513
 30
0.0
 10
11.99999999999996
 20
4.657756061950878
 30
0.0
 10
11.99999999999995
 20
5.056447753920023
 30
0.0
 10
11.99999999999995
 20
5.691437764734909
 30
0.0
 10
12.00000000000006
 20
6.389828355331997
 30
0.0
 10
12.00000000000007
 20
7.150193128563385
 30
0.0
 10
11.99999999999993
 20
7.951459717708485
 30
0.0
 10
11.99999999999999
 20
8.56780482408479
 30
0.0
 10
11.99999999999991
 20
9.19503091363373
 30
0.0
 10
12.0
 20
9.83810848550336
 30
0.0
 10
11.99999999999989
 20
10.45793194495462
 30
0.0
 10
12.00000000000007
 20
11.23391386925069
 30
0.0
 10
11.99999999999993
 20
11.97713117778303
 30
0.0
 10
11.99999999999996
 20
12.51769022252945
 30
0.0
 10
11.99999999999996
 20
12.69961163541624
 30
0.0
  0
LINE
  5
C4
330
1F
100
AcDbEntity
  8
중심선
 62
     1
100
AcDbLine
 10
-58.50000000000004
 20
-0.0000000000000082
 30
0.0
 11
120.6
 21
0.0000000000000126
 31
0.0
  0
LINE
  5
C5
330
1F
100
AcDbEntity
  8
참조1
100
AcDbLine
 10
31.04999999999996
 20
-0.0000000000000093
 30
0.0
 11
31.04999999999997
 21
-40.00000000000001
 31
0.0
  0
LINE
  5
C6
330
1F
100
AcDbEntity
  8
참조1
100
AcDbLine
 10
31.04999999999997
 20
-40.00000000000001
 30
0.0
 11
-37.29010681430871
 21
-40.0
 31
0.0
  0
CIRCLE
  5
C7
330
1F
100
AcDbEntity
  8
해칭선
100
AcDbCircle
 10
0.0
 20
0.0
 30
0.0
 40
3.000000000000002
  0
INSERT
  5
C8
330
1F
100
AcDbEntity
  8
0
  6
Continuous
 62
     7
100
AcDbBlockReference
 66
     1
  2
블럭10
 10
17.10972706787476
 20
-52.04717430164393
 30
0.0
  0
ATTRIB
  5
C9
330
C8
100
AcDbEntity
  8
FORMAT
 62
     2
100
AcDbText
 10
7.928431779133479
 20
-49.97180738881175
 30
0.0
 40
4.233333333333333
  1
E1040064 [ 4 FLUTE ]
 41
0.75
  7
SLDTEXTSTYLE0
 11
7.928431779133479
 21
-52.08847405547841
 31
0.0
100
AcDbAttribute
  2
AUTOATTR0
 70
     0
 74
     1
  0
SEQEND
  5
CA
330
C8
100
AcDbEntity
  8
0
  6
Continuous
 62
     7
  0
HATCH
  5
CB
330
1F
100
AcDbEntity
  8
중심선
100
AcDbHatch
 10
0.0
 20
0.0
 30
0.0
210
0.0
220
0.0
230
1.0
  2
SOLID
 70
     1
 71
     0
 91
        1
 92
        0
 93
        4
 72
     1
 10
22.82463637225558
 20
-35.8
 11
19.37836112841829
 21
-35.8
 72
     1
 10
19.37836112841829
 20
-35.8
 11
17.2501312692143
 21
-38.3363255805726
 72
     1
 10
17.2501312692143
 20
-38.3363255805726
 11
20.69643959816464
 21
-38.33628615127011
 72
     1
 10
20.69643959816464
 20
-38.33628615127011
 11
22.82463637225558
 21
-35.8
 97
        0
 75
     0
 76
     1
 98
        1
 10
-17.13676131403121
 20
-0.0010749287238985
  0
HATCH
  5
CC
330
1F
100
AcDbEntity
  8
중심선
100
AcDbHatch
 10
0.0
 20
0.0
 30
0.0
210
0.0
220
0.0
230
1.0
  2
SOLID
 70
     1
 71
     0
 91
        1
 92
        0
 93
        4
 72
     1
 10
27.83740036329158
 20
-35.79999999999998
 11
24.39112511945424
 21
-35.8
 72
     1
 10
24.39112511945424
 20
-35.8
 11
19.85998711109688
 21
-41.20000000000002
 72
     1
 10
19.85998711109688
 20
-41.20000000000002
 11
23.30626235493417
 21
-41.20000000000002
 72
     1
 10
23.30626235493417
 20
-41.20000000000002
 11
27.83740036329158
 21
-35.79999999999998
 97
        0
 75
     0
 76
     1
 98
        1
 10
-17.13676131403121
 20
-0.0010749287238985
  0
HATCH
  5
CD
330
1F
100
AcDbEntity
  8
중심선
100
AcDbHatch
 10
0.0
 20
0.0
 30
0.0
210
0.0
220
0.0
230
1.0
  2
SOLID
 70
     1
 71
     0
 91
        1
 92
        0
 93
        4
 72
     1
 10
32.85016435432748
 20
-35.79999999999998
 11
29.4038891104903
 21
-35.79999999999998
 72
     1
 10
29.4038891104903
 20
-35.79999999999998
 11
22.35545220860109
 21
-44.20000000000002
 72
     1
 10
22.35545220860109
 20
-44.20000000000002
 11
25.80172745243837
 21
-44.20000000000002
 72
     1
 10
25.80172745243837
 20
-44.20000000000002
 11
32.85016435432748
 21
-35.79999999999998
 97
        0
 75
     0
 76
     1
 98
        1
 10
-17.13676131403121
 20
-0.0010749287238985
  0
HATCH
  5
CE
330
1F
100
AcDbEntity
  8
중심선
100
AcDbHatch
 10
0.0
 20
0.0
 30
0.0
210
0.0
220
0.0
230
1.0
  2
SOLID
 70
     1
 71
     0
 91
        1
 92
        0
 93
        6
 72
     3
 10
37.65005478533962
 20
-40.00000000005127
 11
3.960054785062283
 21
1.540882976769353E-10
 40
0.3939339440162628
 50
17.0953918060842
 51
320.0019657685086
 73
     0
 72
     1
 10
39.33305444104025
 20
-38.5878940046383
 11
41.63835631474128
 21
-36.65356729459038
 72
     3
 10
37.65005478528678
 20
-40.00000000000015
 11
6.600054785286829
 21
-1.278976924368180E-13
 40
0.636358354079598
 50
39.99873849337392
 51
368.4976242363725
 73
     1
 72
     1
 10
44.07538727718741
 20
-39.03999999993002
 11
36.33012209212267
 21
-39.03999999993002
 72
     1
 10
36.33012209212267
 20
-39.03999999993002
 11
36.33009704767677
 21
-40.95999999992991
 72
     1
 10
36.33009704767677
 20
-40.95999999992991
 11
40.77147681714883
 21
-40.95999999992988
 97
        0
 75
     0
 76
     1
 98
        1
 10
-17.13676131403121
 20
-0.0010749287238985
  0
DIMENSION
  5
CF
330
1F
100
AcDbEntity
  8
치수문자_일반주서
100
AcDbDimension
  2
_D
 10
12.00000000000001
 20
27.70789845620485
 30
0.0
 11
62.79999999999996
 21
27.70789845620485
 31
0.0
 70
   160
  1
<>
 71
     2
 42
101.5999999999999
  3
SLDDIMSTYLE2
100
AcDbAlignedDimension
 13
113.5999999999999
 23
12.70000000000001
 33
0.0
 14
12.0
 24
12.69961163541703
 34
0.0
 50
-0.0000000000000902
100
AcDbRotatedDimension
1001
PE_URL
1000

1001
ACAD
1000
DSTYLE
1002
{
1070
   171
1070
     8
1070
   273
1070
     7
1070
    41
1040
4.0
1070
   140
1040
4.0
1002
}
  0
DIMENSION
  5
E4
330
1F
100
AcDbEntity
  8
치수문자_일반주서
100
AcDbDimension
  2
_D_1
 10
-51.50000000000005
 20
42.69999999999999
 30
0.0
 11
31.04999999999996
 21
42.69999999999999
 31
0.0
 70
   160
  1
<>
 71
     2
 42
165.1
  3
SLDDIMSTYLE2
100
AcDbAlignedDimension
 13
113.5999999999999
 23
12.70000000000001
 33
0.0
 14
-51.50000000000005
 24
10.795
 34
0.0
100
AcDbRotatedDimension
1001
PE_URL
1000

1001
ACAD
1000
DSTYLE
1002
{
1070
   171
1070
     8
1070
   273
1070
     7
1070
    41
1040
4.0
1070
   140
1040
4.0
1002
}
  0
DIMENSION
  5
F7
330
1F
100
AcDbEntity
  8
치수문자_일반주서
100
AcDbDimension
  2
_D_2
 10
-66.49999999999997
 20
-12.70000000000006
 30
0.0
 11
-66.50000000000011
 21
28.07499999999992
 31
0.0
 70
   160
  1
%%c<>
 71
     2
 42
25.39999999999994
 52
-270.0
  3
SLDDIMSTYLE2
100
AcDbAlignedDimension
 13
-36.89500000000006
 23
12.69999999999999
 33
0.0
 14
-48.96000000000005
 24
-12.69999999999999
 34
0.0
 50
90.0000000000002
100
AcDbRotatedDimension
1001
PE_URL
1000

1001
ACAD
1000
DSTYLE
1002
{
1070
   171
1070
     8
1070
   273
1070
     7
1070
    41
1040
4.0
1070
   140
1040
4.0
1002
}
1001
ACAD_DSTYLE_DIMFLIPARROW_SYMBOL
1070
   385
1070
     0
1001
ACAD_DSTYLE_DIMFLIPARROW_WHICH_SYMBOL
1070
   386
1070
     3
  0
DIMENSION
  5
10C
330
1F
100
AcDbEntity
  8
치수문자_일반주서
100
AcDbDimension
  2
_D_3
 10
128.5999999999999
 20
12.70000000000007
 30
0.0
 11
128.5999999999999
 21
38.52829691240976
 31
0.0
 70
   160
  1
%%c<>
 71
     2
 42
25.4
 52
-270.0
  3
SLDDIMSTYLE2
100
AcDbAlignedDimension
 13
113.5999999999999
 23
-12.69999999999999
 33
0.0
 14
113.5999999999999
 24
12.70000000000001
 34
0.0
 50
90.0000000000002
100
AcDbRotatedDimension
1001
PE_URL
1000

1001
ACAD
1000
DSTYLE
1002
{
1070
   171
1070
     8
1070
   273
1070
     7
1070
    41
1040
4.0
1070
   140
1040
4.0
1002
}
1001
ACAD_DSTYLE_DIMFLIPARROW_SYMBOL
1070
   385
1070
     0
1001
ACAD_DSTYLE_DIMFLIPARROW_WHICH_SYMBOL
1070
   386
1070
     3
  0
LINE
  5
120
330
1F
100
AcDbEntity
  8
참조1
100
AcDbLine
 10
60.68223381534555
 20
7.439999999999997
 30
0.0
 11
60.68223381534555
 21
-7.440000000000007
 31
0.0
  0
LINE
  5
121
330
1F
100
AcDbEntity
  8
참조1
100
AcDbLine
 10
73.38223381534556
 20
5.439999999999997
 30
0.0
 11
60.68223381534555
 21
5.439999999999997
 31
0.0
  0
SOLID
  5
122
330
1F
100
AcDbEntity
  8
참조1
100
AcDbTrace
 10
60.68223381534555
 20
5.439999999999997
 30
0.0
 11
67.03223381534553
 21
4.423999999999997
 31
0.0
 12
67.03223381534553
 22
6.455999999999997
 32
0.0
 13
67.03223381534553
 23
6.455999999999997
 33
0.0
  0
LINE
  5
123
330
1F
100
AcDbEntity
  8
참조1
100
AcDbLine
 10
73.38223381534556
 20
-5.440000000000007
 30
0.0
 11
60.68223381534555
 21
-5.440000000000007
 31
0.0
  0
SOLID
  5
124
330
1F
100
AcDbEntity
  8
참조1
100
AcDbTrace
 10
60.68223381534555
 20
-5.440000000000007
 30
0.0
 11
67.03223381534553
 21
-6.456000000000008
 31
0.0
 12
67.03223381534553
 22
-4.424000000000007
 32
0.0
 13
67.03223381534553
 23
-4.424000000000007
 33
0.0
  0
MTEXT
  5
125
330
1F
100
AcDbEntity
  8
참조1
100
AcDbMText
 10
70.06658394797154
 20
11.01029177718832
 30
0.0
 40
3.5
 41
0.0
 71
     1
 72
     1
  1
A
  7
SLDTEXTSTYLE0
 73
     1
 44
1.0
  0
MTEXT
  5
126
330
1F
100
AcDbEntity
  8
참조1
100
AcDbMText
 10
70.06658394797154
 20
0.1302917771883216
 30
0.0
 40
3.5
 41
0.0
 71
     1
 72
     1
  1
A
  7
SLDTEXTSTYLE0
 73
     1
 44
1.0
  0
INSERT
  5
12D
330
1F
100
AcDbEntity
  8
해칭선
100
AcDbBlockReference
  2
SW_DOWELSYMBOL_0
 10
0.0
 20
0.0
 30
0.0
  0
LINE
  5
1D8
330
1F
100
AcDbEntity
  8
0
100
AcDbLine
 10
-36.89500000000006
 20
12.7
 30
0.0
 11
-30.98632499999993
 21
12.7
 31
0.0
  0
LINE
  5
1D9
330
1F
100
AcDbEntity
  8
외형선
  6
Continuous
370
    15
100
AcDbLine
 10
-29.08132499999996
 20
10.795
 30
0.0
 11
-15.97492500000006
 21
10.795
 31
0.0
1001
PE_URL
1000

  0
LINE
  5
1DA
330
1F
100
AcDbEntity
  8
외형선
  6
Continuous
370
    15
100
AcDbLine
 10
-29.08132499999996
 20
10.79500000000001
 30
0.0
 11
-30.98632499999993
 21
12.7
 31
0.0
1001
PE_URL
1000

  0
LINE
  5
1DB
330
1F
100
AcDbEntity
  8
외형선
  6
Continuous
370
    15
100
AcDbLine
 10
-15.97492500000006
 20
10.79500000000001
 30
0.0
 11
-14.06992500000003
 21
12.7
 31
0.0
1001
PE_URL
1000

  0
LINE
  5
1DC
330
1F
100
AcDbEntity
  8
외형선
  6
Continuous
370
    15
100
AcDbLine
 10
-51.50000000000005
 20
10.795
 30
0.0
 11
-38.80000000000003
 21
10.795
 31
0.0
1001
PE_URL
1000

  0
LINE
  5
1DD
330
1F
100
AcDbEntity
  8
외형선
  6
Continuous
370
    15
100
AcDbLine
 10
-38.80000000000003
 20
10.79500000000001
 30
0.0
 11
-36.89500000000006
 21
12.69999999999999
 31
0.0
1001
PE_URL
1000

  0
LINE
  5
1EA
330
1F
100
AcDbEntity
  8
외형선
  6
Continuous
370
    15
100
AcDbLine
 10
-30.98632499999993
 20
12.69999999999999
 30
0.0
 11
-36.89500000000006
 21
12.69999999999999
 31
0.0
  0
ENDSEC
  0
SECTION
  2
OBJECTS
  0
DICTIONARY
  5
C
330
0
100
AcDbDictionary
281
     1
  3
ACAD_DETAILVIEWSTYLE
350
155
  3
ACAD_GROUP
350
D
  3
ACAD_LAYOUT
350
1A
  3
ACAD_MLINESTYLE
350
17
  3
ACAD_PLOTSETTINGS
350
19
  3
ACAD_PLOTSTYLENAME
350
E
  3
ACAD_SCALELIST
350
47
  3
ACAD_SECTIONVIEWSTYLE
350
156
  3
AcDbVariableDictionary
350
150
  3
APPDATA
350
14F
  3
DWGPROPS
350
1EB
  0
DICTIONARY
  5
18C
330
2
100
AcDbDictionary
280
     1
281
     1
  3
ACAD_LAYERSTATES
360
18D
  0
DICTIONARY
  5
155
102
{ACAD_REACTORS
330
C
102
}
330
C
100
AcDbDictionary
281
     1
  0
DICTIONARY
  5
D
102
{ACAD_REACTORS
330
C
102
}
330
C
100
AcDbDictionary
281
     1
  0
DICTIONARY
  5
1A
102
{ACAD_REACTORS
330
C
102
}
330
C
100
AcDbDictionary
281
     1
  3
Layout1
350
1E
  3
Layout2
350
26
  3
Model
350
22
  0
DICTIONARY
  5
17
102
{ACAD_REACTORS
330
C
102
}
330
C
100
AcDbDictionary
281
     1
  3
Standard
350
18
  0
DICTIONARY
  5
19
102
{ACAD_REACTORS
330
C
102
}
330
C
100
AcDbDictionary
281
     1
  0
ACDBDICTIONARYWDFLT
  5
E
102
{ACAD_REACTORS
330
C
102
}
330
C
100
AcDbDictionary
281
     1
  3
Normal
350
F
100
AcDbDictionaryWithDefault
340
F
  0
DICTIONARY
  5
47
102
{ACAD_REACTORS
330
C
102
}
330
C
100
AcDbDictionary
281
     1
  3
A0
350
48
  3
A1
350
49
  3
A2
350
4A
  3
A3
350
4B
  3
A4
350
4C
  3
A5
350
4D
  3
A6
350
4E
  3
A7
350
4F
  3
A8
350
50
  3
A9
350
51
  3
B0
350
52
  3
B1
350
53
  3
B2
350
54
  3
B3
350
55
  3
B4
350
56
  3
B5
350
57
  3
B6
350
58
  3
B7
350
59
  3
B8
350
5A
  3
B9
350
5B
  3
C0
350
5C
  3
C1
350
5D
  3
C2
350
5E
  3
C3
350
5F
  3
C4
350
60
  3
C5
350
61
  3
C6
350
62
  3
C7
350
63
  3
C8
350
64
  3
C9
350
65
  3
D0
350
66
  3
D1
350
67
  3
D2
350
68
  0
DICTIONARY
  5
156
102
{ACAD_REACTORS
330
C
102
}
330
C
100
AcDbDictionary
281
     1
  0
DICTIONARY
  5
150
102
{ACAD_REACTORS
330
C
102
}
330
C
100
AcDbDictionary
281
     1
  0
DICTIONARY
  5
14F
102
{ACAD_REACTORS
330
C
102
}
330
C
100
AcDbDictionary
281
     1
  0
XRECORD
  5
1EB
102
{ACAD_REACTORS
330
C
102
}
330
C
100
AcDbXrecord
280
     1
  1
DWGPROPS COOKIE
  2

  3

  4

  6

  7

  8
120170442
  9

300
=
301
=
302
=
303
=
304
=
305
=
306
=
307
=
308
=
309
=
 40
0.0
 41
2458312.256614757
 42
2458323.30167588
  1

 90
        0
  0
DICTIONARY
  5
18D
102
{ACAD_REACTORS
330
18C
102
}
330
18C
100
AcDbDictionary
281
     1
  0
LAYOUT
  5
1E
102
{ACAD_REACTORS
330
1A
102
}
330
1A
100
AcDbPlotSettings
  1

  2
none_device
  4

  6

 40
0.0
 41
0.0
 42
0.0
 43
0.0
 44
0.0
 45
0.0
 46
0.0
 47
0.0
 48
0.0
 49
0.0
140
0.0
141
0.0
142
1.0
143
1.0
 70
   688
 72
     1
 73
     0
 74
     5
  7

 75
    16
147
1.0
148
0.0
149
0.0
100
AcDbLayout
  1
Layout1
 70
     1
 71
     1
 10
0.0
 20
0.0
 11
420.0
 21
297.0
 12
0.0
 22
0.0
 32
0.0
 14
1.000000000000000E+20
 24
1.000000000000000E+20
 34
1.000000000000000E+20
 15
-1.000000000000000E+20
 25
-1.000000000000000E+20
 35
-1.000000000000000E+20
146
0.0
 13
0.0
 23
0.0
 33
0.0
 16
1.0
 26
0.0
 36
0.0
 17
0.0
 27
1.0
 37
0.0
 76
     0
330
1B
  0
LAYOUT
  5
26
102
{ACAD_REACTORS
330
1A
102
}
330
1A
100
AcDbPlotSettings
  1

  2
none_device
  4

  6

 40
0.0
 41
0.0
 42
0.0
 43
0.0
 44
0.0
 45
0.0
 46
0.0
 47
0.0
 48
0.0
 49
0.0
140
0.0
141
0.0
142
1.0
143
1.0
 70
   688
 72
     1
 73
     0
 74
     5
  7

 75
    16
147
1.0
148
0.0
149
0.0
100
AcDbLayout
  1
Layout2
 70
     1
 71
     2
 10
0.0
 20
0.0
 11
0.0
 21
0.0
 12
0.0
 22
0.0
 32
0.0
 14
0.0
 24
0.0
 34
0.0
 15
0.0
 25
0.0
 35
0.0
146
0.0
 13
0.0
 23
0.0
 33
0.0
 16
1.0
 26
0.0
 36
0.0
 17
0.0
 27
1.0
 37
0.0
 76
     0
330
23
  0
LAYOUT
  5
22
102
{ACAD_REACTORS
330
1A
102
}
330
1A
100
AcDbPlotSettings
  1

  2
none_device
  4
ANSI_A_(11.00_x_8.50_Inches)
  6

 40
6.35
 41
19.05
 42
6.35000508
 43
19.05000254
 44
279.4
 45
215.9
 46
36.55775366886388
 47
42.05354993995058
 48
0.0
 49
0.0
140
0.0
141
0.0
142
0.0297849428252809
143
1.0
 70
  1696
 72
     0
 73
     0
 74
     0
  7

 75
     0
147
0.0235690232323232
148
0.0
149
0.0
100
AcDbLayout
  1
Model
 70
     1
 71
     0
 10
0.0
 20
0.0
 11
420.0
 21
297.0
 12
0.0
 22
0.0
 32
0.0
 14
-71.37500000000014
 24
-49.97180738881174
 34
0.0
 15
129.2666666666667
 25
49.90329691240976
 35
0.0
146
0.0
 13
0.0
 23
0.0
 33
0.0
 16
1.0
 26
0.0
 36
0.0
 17
0.0
 27
1.0
 37
0.0
 76
     0
330
1F
331
29
  0
MLINESTYLE
  5
18
102
{ACAD_REACTORS
330
17
102
}
330
17
100
AcDbMlineStyle
  2
Standard
 70
     0
  3

 62
   256
 51
90.0
 52
90.0
 71
     2
 49
0.5
 62
   256
  6
BYLAYER
 49
-0.5
 62
   256
  6
BYLAYER
  0
ACDBPLACEHOLDER
  5
F
102
{ACAD_REACTORS
330
E
102
}
330
E
  0
SCALE
  5
48
102
{ACAD_REACTORS
330
47
102
}
330
47
100
AcDbScale
 70
     0
300
1:1
140
1.0
141
1.0
290
     1
  0
SCALE
  5
49
102
{ACAD_REACTORS
330
47
102
}
330
47
100
AcDbScale
 70
     0
300
1:2
140
1.0
141
2.0
290
     0
  0
SCALE
  5
4A
102
{ACAD_REACTORS
330
47
102
}
330
47
100
AcDbScale
 70
     0
300
1:4
140
1.0
141
4.0
290
     0
  0
SCALE
  5
4B
102
{ACAD_REACTORS
330
47
102
}
330
47
100
AcDbScale
 70
     0
300
1:5
140
1.0
141
5.0
290
     0
  0
SCALE
  5
4C
102
{ACAD_REACTORS
330
47
102
}
330
47
100
AcDbScale
 70
     0
300
1:8
140
1.0
141
8.0
290
     0
  0
SCALE
  5
4D
102
{ACAD_REACTORS
330
47
102
}
330
47
100
AcDbScale
 70
     0
300
1:10
140
1.0
141
10.0
290
     0
  0
SCALE
  5
4E
102
{ACAD_REACTORS
330
47
102
}
330
47
100
AcDbScale
 70
     0
300
1:16
140
1.0
141
16.0
290
     0
  0
SCALE
  5
4F
102
{ACAD_REACTORS
330
47
102
}
330
47
100
AcDbScale
 70
     0
300
1:20
140
1.0
141
20.0
290
     0
  0
SCALE
  5
50
102
{ACAD_REACTORS
330
47
102
}
330
47
100
AcDbScale
 70
     0
300
1:30
140
1.0
141
30.0
290
     0
  0
SCALE
  5
51
102
{ACAD_REACTORS
330
47
102
}
330
47
100
AcDbScale
 70
     0
300
1:40
140
1.0
141
40.0
290
     0
  0
SCALE
  5
52
102
{ACAD_REACTORS
330
47
102
}
330
47
100
AcDbScale
 70
     0
300
1:50
140
1.0
141
50.0
290
     0
  0
SCALE
  5
53
102
{ACAD_REACTORS
330
47
102
}
330
47
100
AcDbScale
 70
     0
300
1:100
140
1.0
141
100.0
290
     0
  0
SCALE
  5
54
102
{ACAD_REACTORS
330
47
102
}
330
47
100
AcDbScale
 70
     0
300
2:1
140
2.0
141
1.0
290
     0
  0
SCALE
  5
55
102
{ACAD_REACTORS
330
47
102
}
330
47
100
AcDbScale
 70
     0
300
4:1
140
4.0
141
1.0
290
     0
  0
SCALE
  5
56
102
{ACAD_REACTORS
330
47
102
}
330
47
100
AcDbScale
 70
     0
300
8:1
140
8.0
141
1.0
290
     0
  0
SCALE
  5
57
102
{ACAD_REACTORS
330
47
102
}
330
47
100
AcDbScale
 70
     0
300
10:1
140
10.0
141
1.0
290
     0
  0
SCALE
  5
58
102
{ACAD_REACTORS
330
47
102
}
330
47
100
AcDbScale
 70
     0
300
100:1
140
100.0
141
1.0
290
     0
  0
SCALE
  5
59
102
{ACAD_REACTORS
330
47
102
}
330
47
100
AcDbScale
 70
     0
300
1/128" = 1'-0"
140
0.0078125
141
12.0
290
     0
  0
SCALE
  5
5A
102
{ACAD_REACTORS
330
47
102
}
330
47
100
AcDbScale
 70
     0
300
1/64" = 1'-0"
140
0.015625
141
12.0
290
     0
  0
SCALE
  5
5B
102
{ACAD_REACTORS
330
47
102
}
330
47
100
AcDbScale
 70
     0
300
1/32" = 1'-0"
140
0.03125
141
12.0
290
     0
  0
SCALE
  5
5C
102
{ACAD_REACTORS
330
47
102
}
330
47
100
AcDbScale
 70
     0
300
1/16" = 1'-0"
140
0.0625
141
12.0
290
     0
  0
SCALE
  5
5D
102
{ACAD_REACTORS
330
47
102
}
330
47
100
AcDbScale
 70
     0
300
3/32" = 1'-0"
140
0.09375
141
12.0
290
     0
  0
SCALE
  5
5E
102
{ACAD_REACTORS
330
47
102
}
330
47
100
AcDbScale
 70
     0
300
1/8" = 1'-0"
140
0.125
141
12.0
290
     0
  0
SCALE
  5
5F
102
{ACAD_REACTORS
330
47
102
}
330
47
100
AcDbScale
 70
     0
300
3/16" = 1'-0"
140
0.1875
141
12.0
290
     0
  0
SCALE
  5
60
102
{ACAD_REACTORS
330
47
102
}
330
47
100
AcDbScale
 70
     0
300
1/4" = 1'-0"
140
0.25
141
12.0
290
     0
  0
SCALE
  5
61
102
{ACAD_REACTORS
330
47
102
}
330
47
100
AcDbScale
 70
     0
300
3/8" = 1'-0"
140
0.375
141
12.0
290
     0
  0
SCALE
  5
62
102
{ACAD_REACTORS
330
47
102
}
330
47
100
AcDbScale
 70
     0
300
1/2" = 1'-0"
140
0.5
141
12.0
290
     0
  0
SCALE
  5
63
102
{ACAD_REACTORS
330
47
102
}
330
47
100
AcDbScale
 70
     0
300
3/4" = 1'-0"
140
0.75
141
12.0
290
     0
  0
SCALE
  5
64
102
{ACAD_REACTORS
330
47
102
}
330
47
100
AcDbScale
 70
     0
300
1" = 1'-0"
140
1.0
141
12.0
290
     0
  0
SCALE
  5
65
102
{ACAD_REACTORS
330
47
102
}
330
47
100
AcDbScale
 70
     0
300
1-1/2" = 1'-0"
140
1.5
141
12.0
290
     0
  0
SCALE
  5
66
102
{ACAD_REACTORS
330
47
102
}
330
47
100
AcDbScale
 70
     0
300
3" = 1'-0"
140
3.0
141
12.0
290
     0
  0
SCALE
  5
67
102
{ACAD_REACTORS
330
47
102
}
330
47
100
AcDbScale
 70
     0
300
6" = 1'-0"
140
6.0
141
12.0
290
     0
  0
SCALE
  5
68
102
{ACAD_REACTORS
330
47
102
}
330
47
100
AcDbScale
 70
     0
300
1'-0" = 1'-0"
140
12.0
141
12.0
290
     0
  0
ENDSEC
  0
EOF
