  0
SECTION
  2
HEADER
  9
$ACADVER
  1
AC1015
  9
$ACADMAINTVER
 70
     6
  9
$DWGCODEPAGE
  3
ANSI_949
  9
$INSBASE
 10
0.0
 20
0.0
 30
0.0
  9
$EXTMIN
 10
-51.48786934298448
 20
-49.97073246008785
 30
0.0
  9
$EXTMAX
 10
87.7693644723612
 20
35.14339915682646
 30
0.0
  9
$LIMMIN
 10
0.0
 20
0.0
  9
$LIMMAX
 10
420.0
 20
297.0
  9
$ORTHOMODE
 70
     1
  9
$REGENMODE
 70
     1
  9
$FILLMODE
 70
     1
  9
$QTEXTMODE
 70
     0
  9
$MIRRTEXT
 70
     1
  9
$LTSCALE
 40
1.0
  9
$ATTMODE
 70
     1
  9
$TEXTSIZE
 40
3.5
  9
$TRACEWID
 40
1.0
  9
$TEXTSTYLE
  7
Standard
  9
$CLAYER
  8
0
  9
$CELTYPE
  6
ByLayer
  9
$CECOLOR
 62
   256
  9
$CELTSCALE
 40
1.0
  9
$DISPSILH
 70
     0
  9
$DIMSCALE
 40
1.0
  9
$DIMASZ
 40
3.302
  9
$DIMEXO
 40
1.0
  9
$DIMDLI
 40
3.75
  9
$DIMRND
 40
0.0
  9
$DIMDLE
 40
0.0
  9
$DIMEXE
 40
1.0
  9
$DIMTP
 40
0.0
  9
$DIMTM
 40
0.0
  9
$DIMTXT
 40
3.5
  9
$DIMCEN
 40
2.5
  9
$DIMTSZ
 40
0.0
  9
$DIMTOL
 70
     0
  9
$DIMLIM
 70
     0
  9
$DIMTIH
 70
     1
  9
$DIMTOH
 70
     1
  9
$DIMSE1
 70
     0
  9
$DIMSE2
 70
     0
  9
$DIMTAD
 70
     1
  9
$DIMZIN
 70
     0
  9
$DIMBLK
  1

  9
$DIMASO
 70
     1
  9
$DIMSHO
 70
     1
  9
$DIMPOST
  1

  9
$DIMAPOST
  1

  9
$DIMALT
 70
     0
  9
$DIMALTD
 70
     3
  9
$DIMALTF
 40
0.0393700787401575
  9
$DIMLFAC
 40
1.0
  9
$DIMTOFL
 70
     1
  9
$DIMTVP
 40
0.0
  9
$DIMTIX
 70
     0
  9
$DIMSOXD
 70
     0
  9
$DIMSAH
 70
     0
  9
$DIMBLK1
  1

  9
$DIMBLK2
  1

  9
$DIMSTYLE
  2
ISO-25
  9
$DIMCLRD
 70
     0
  9
$DIMCLRE
 70
     0
  9
$DIMCLRT
 70
     0
  9
$DIMTFAC
 40
1.0
  9
$DIMGAP
 40
1.524
  9
$DIMJUST
 70
     0
  9
$DIMSD1
 70
     0
  9
$DIMSD2
 70
     0
  9
$DIMTOLJ
 70
     0
  9
$DIMTZIN
 70
     0
  9
$DIMALTZ
 70
     0
  9
$DIMALTTZ
 70
     0
  9
$DIMUPT
 70
     0
  9
$DIMDEC
 70
     2
  9
$DIMTDEC
 70
     2
  9
$DIMALTU
 70
     2
  9
$DIMALTTD
 70
     3
  9
$DIMTXSTY
  7
Standard
  9
$DIMAUNIT
 70
     0
  9
$DIMADEC
 70
     2
  9
$DIMALTRND
 40
0.0
  9
$DIMAZIN
 70
     0
  9
$DIMDSEP
 70
    44
  9
$DIMATFIT
 70
     3
  9
$DIMFRAC
 70
     0
  9
$DIMLDRBLK
  1

  9
$DIMLUNIT
 70
     2
  9
$DIMLWD
 70
    -2
  9
$DIMLWE
 70
    -2
  9
$DIMTMOVE
 70
     0
  9
$LUNITS
 70
     2
  9
$LUPREC
 70
     2
  9
$SKETCHINC
 40
1.0
  9
$FILLETRAD
 40
10.0
  9
$AUNITS
 70
     0
  9
$AUPREC
 70
     2
  9
$MENU
  1
.
  9
$ELEVATION
 40
0.0
  9
$PELEVATION
 40
0.0
  9
$THICKNESS
 40
0.0
  9
$LIMCHECK
 70
     0
  9
$CHAMFERA
 40
0.0
  9
$CHAMFERB
 40
0.0
  9
$CHAMFERC
 40
0.0
  9
$CHAMFERD
 40
0.0
  9
$SKPOLY
 70
     0
  9
$TDCREATE
 40
2458312.62949684
  9
$TDUCREATE
 40
2458312.25449684
  9
$TDUPDATE
 40
2458323.635603449
  9
$TDUUPDATE
 40
2458323.260603449
  9
$TDINDWG
 40
0.0011211227
  9
$TDUSRTIMER
 40
0.0011211111
  9
$USRTIMER
 70
     1
  9
$ANGBASE
 50
0.0
  9
$ANGDIR
 70
     0
  9
$PDMODE
 70
     0
  9
$PDSIZE
 40
-1.0
  9
$PLINEWID
 40
0.0
  9
$SPLFRAME
 70
     0
  9
$SPLINETYPE
 70
     6
  9
$SPLINESEGS
 70
     8
  9
$HANDSEED
  5
1E9
  9
$SURFTAB1
 70
     6
  9
$SURFTAB2
 70
     6
  9
$SURFTYPE
 70
     6
  9
$SURFU
 70
     6
  9
$SURFV
 70
     6
  9
$UCSBASE
  2

  9
$UCSNAME
  2

  9
$UCSORG
 10
0.0
 20
0.0
 30
0.0
  9
$UCSXDIR
 10
1.0
 20
0.0
 30
0.0
  9
$UCSYDIR
 10
0.0
 20
1.0
 30
0.0
  9
$UCSORTHOREF
  2

  9
$UCSORTHOVIEW
 70
     0
  9
$UCSORGTOP
 10
0.0
 20
0.0
 30
0.0
  9
$UCSORGBOTTOM
 10
0.0
 20
0.0
 30
0.0
  9
$UCSORGLEFT
 10
0.0
 20
0.0
 30
0.0
  9
$UCSORGRIGHT
 10
0.0
 20
0.0
 30
0.0
  9
$UCSORGFRONT
 10
0.0
 20
0.0
 30
0.0
  9
$UCSORGBACK
 10
0.0
 20
0.0
 30
0.0
  9
$PUCSBASE
  2

  9
$PUCSNAME
  2

  9
$PUCSORG
 10
0.0
 20
0.0
 30
0.0
  9
$PUCSXDIR
 10
1.0
 20
0.0
 30
0.0
  9
$PUCSYDIR
 10
0.0
 20
1.0
 30
0.0
  9
$PUCSORTHOREF
  2

  9
$PUCSORTHOVIEW
 70
     0
  9
$PUCSORGTOP
 10
0.0
 20
0.0
 30
0.0
  9
$PUCSORGBOTTOM
 10
0.0
 20
0.0
 30
0.0
  9
$PUCSORGLEFT
 10
0.0
 20
0.0
 30
0.0
  9
$PUCSORGRIGHT
 10
0.0
 20
0.0
 30
0.0
  9
$PUCSORGFRONT
 10
0.0
 20
0.0
 30
0.0
  9
$PUCSORGBACK
 10
0.0
 20
0.0
 30
0.0
  9
$USERI1
 70
     0
  9
$USERI2
 70
     0
  9
$USERI3
 70
     0
  9
$USERI4
 70
     0
  9
$USERI5
 70
     0
  9
$USERR1
 40
0.0
  9
$USERR2
 40
0.0
  9
$USERR3
 40
0.0
  9
$USERR4
 40
0.0
  9
$USERR5
 40
0.0
  9
$WORLDVIEW
 70
     1
  9
$SHADEDGE
 70
     3
  9
$SHADEDIF
 70
    70
  9
$TILEMODE
 70
     1
  9
$MAXACTVP
 70
    64
  9
$PINSBASE
 10
0.0
 20
0.0
 30
0.0
  9
$PLIMCHECK
 70
     0
  9
$PEXTMIN
 10
1.000000000000000E+20
 20
1.000000000000000E+20
 30
1.000000000000000E+20
  9
$PEXTMAX
 10
-1.000000000000000E+20
 20
-1.000000000000000E+20
 30
-1.000000000000000E+20
  9
$PLIMMIN
 10
0.0
 20
0.0
  9
$PLIMMAX
 10
0.0
 20
0.0
  9
$UNITMODE
 70
     0
  9
$VISRETAIN
 70
     1
  9
$PLINEGEN
 70
     0
  9
$PSLTSCALE
 70
     1
  9
$TREEDEPTH
 70
  3020
  9
$CMLSTYLE
  2
Standard
  9
$CMLJUST
 70
     0
  9
$CMLSCALE
 40
20.0
  9
$PROXYGRAPHICS
 70
     1
  9
$MEASUREMENT
 70
     1
  9
$CELWEIGHT
370
    -1
  9
$ENDCAPS
280
     0
  9
$JOINSTYLE
280
     0
  9
$LWDISPLAY
290
     1
  9
$INSUNITS
 70
     4
  9
$HYPERLINKBASE
  1

  9
$STYLESHEET
  1

  9
$XEDIT
290
     1
  9
$CEPSNTYPE
380
     0
  9
$PSTYLEMODE
290
     1
  9
$FINGERPRINTGUID
  2
{F1FEE813-BB6F-4563-8501-2321C30BDD64}
  9
$VERSIONGUID
  2
{FAEB1C32-E019-11D5-929B-00C0DF256EC4}
  9
$EXTNAMES
290
     1
  9
$PSVPSCALE
 40
0.0
  9
$OLESTARTUP
290
     0
  0
ENDSEC
  0
SECTION
  2
CLASSES
  0
CLASS
  1
ACDBDICTIONARYWDFLT
  2
AcDbDictionaryWithDefault
  3
ObjectDBX Classes
 90
        0
280
     0
281
     0
  0
CLASS
  1
VISUALSTYLE
  2
AcDbVisualStyle
  3
ObjectDBX Classes
 90
     4095
280
     0
281
     0
  0
CLASS
  1
MATERIAL
  2
AcDbMaterial
  3
ObjectDBX Classes
 90
     1153
280
     0
281
     0
  0
CLASS
  1
SCALE
  2
AcDbScale
  3
ObjectDBX Classes
 90
     1153
280
     0
281
     0
  0
CLASS
  1
SUN
  2
AcDbSun
  3
SCENEOE
 90
     1153
280
     0
281
     0
  0
CLASS
  1
ACDBPLACEHOLDER
  2
AcDbPlaceHolder
  3
ObjectDBX Classes
 90
        0
280
     0
281
     0
  0
CLASS
  1
LAYOUT
  2
AcDbLayout
  3
ObjectDBX Classes
 90
        0
280
     0
281
     0
  0
CLASS
  1
TABLESTYLE
  2
AcDbTableStyle
  3
ObjectDBX Classes
 90
     4095
280
     0
281
     0
  0
CLASS
  1
MLEADERSTYLE
  2
AcDbMLeaderStyle
  3
ACDB_MLEADERSTYLE_CLASS
 90
     4095
280
     0
281
     0
  0
ENDSEC
  0
SECTION
  2
TABLES
  0
TABLE
  2
VPORT
  5
8
330
0
100
AcDbSymbolTable
 70
     1
  0
VPORT
  5
29
330
8
100
AcDbSymbolTableRecord
100
AcDbViewportTableRecord
  2
*Active
 70
     0
 10
0.0
 20
0.0
 11
1.0
 21
1.0
 12
18.14074756468835
 22
-7.413666651630749
 13
0.0
 23
0.0
 14
10.0
 24
10.0
 15
10.0
 25
10.0
 16
0.0
 26
0.0
 36
1.0
 17
0.0
 27
0.0
 37
0.0
 40
86.8164142492525
 41
1.782762691853601
 42
50.0
 43
0.0
 44
0.0
 50
0.0
 51
0.0
 71
    16
 72
  2000
 73
     1
 74
     3
 75
     0
 76
     0
 77
     0
 78
     0
281
     0
 65
     1
110
0.0
120
0.0
130
0.0
111
1.0
121
0.0
131
0.0
112
0.0
122
1.0
132
0.0
 79
     0
146
0.0
  0
ENDTAB
  0
TABLE
  2
LTYPE
  5
5
330
0
100
AcDbSymbolTable
 70
     6
  0
LTYPE
  5
14
330
5
100
AcDbSymbolTableRecord
100
AcDbLinetypeTableRecord
  2
ByBlock
 70
     0
  3

 72
    65
 73
     0
 40
0.0
  0
LTYPE
  5
15
330
5
100
AcDbSymbolTableRecord
100
AcDbLinetypeTableRecord
  2
ByLayer
 70
     0
  3

 72
    65
 73
     0
 40
0.0
  0
LTYPE
  5
16
330
5
100
AcDbSymbolTableRecord
100
AcDbLinetypeTableRecord
  2
Continuous
 70
     0
  3
Solid line
 72
    65
 73
     0
 40
0.0
  0
LTYPE
  5
6A
330
5
100
AcDbSymbolTableRecord
100
AcDbLinetypeTableRecord
  2
HIDDEN
 70
     0
  3
Hidden __ __ __ __ __ __ __ __ __ __ __ __ __ __
 72
    65
 73
     2
 40
1.905
 49
1.27
 74
     0
 49
-0.635
 74
     0
  0
LTYPE
  5
6B
330
5
100
AcDbSymbolTableRecord
100
AcDbLinetypeTableRecord
  2
PHANTOM
 70
     0
  3
Phantom ______  __  __  ______  __  __  ______
 72
    65
 73
     6
 40
12.7
 49
6.35
 74
     0
 49
-1.27
 74
     0
 49
1.27
 74
     0
 49
-1.27
 74
     0
 49
1.27
 74
     0
 49
-1.27
 74
     0
  0
LTYPE
  5
6C
330
5
100
AcDbSymbolTableRecord
100
AcDbLinetypeTableRecord
  2
CENTER
 70
     0
  3
Center ____ _ ____ _ ____ _ ____ _ ____ _ ____
 72
    65
 73
     4
 40
10.16
 49
6.35
 74
     0
 49
-1.27
 74
     0
 49
1.27
 74
     0
 49
-1.27
 74
     0
  0
LTYPE
  5
6D
330
5
100
AcDbSymbolTableRecord
100
AcDbLinetypeTableRecord
  2
CENTERX2
 70
     0
  3
Center (2x) ________  __  ________  __  _____
 72
    65
 73
     4
 40
20.32
 49
12.7
 74
     0
 49
-2.54
 74
     0
 49
2.54
 74
     0
 49
-2.54
 74
     0
  0
LTYPE
  5
6E
330
5
100
AcDbSymbolTableRecord
100
AcDbLinetypeTableRecord
  2
DOT2
 70
     0
  3
Dot (.5x) ........................................
 72
    65
 73
     2
 40
0.635
 49
0.0
 74
     0
 49
-0.635
 74
     0
  0
ENDTAB
  0
TABLE
  2
LAYER
  5
2
102
{ACAD_XDICTIONARY
360
17E
102
}
330
0
100
AcDbSymbolTable
 70
    18
  0
LAYER
  5
10
330
2
100
AcDbSymbolTableRecord
100
AcDbLayerTableRecord
  2
0
 70
     0
 62
     7
  6
Continuous
370
    -3
390
F
  0
LAYER
  5
6F
330
2
100
AcDbSymbolTableRecord
100
AcDbLayerTableRecord
  2
FORMAT
 70
     0
 62
     2
  6
Continuous
370
    -3
390
F
  0
LAYER
  5
70
330
2
100
AcDbSymbolTableRecord
100
AcDbLayerTableRecord
  2
외형선
 70
     0
 62
     4
  6
Continuous
370
    30
390
F
  0
LAYER
  5
71
330
2
100
AcDbSymbolTableRecord
100
AcDbLayerTableRecord
  2
숨은선
 70
     0
 62
     2
  6
HIDDEN
370
    15
390
F
  0
LAYER
  5
72
330
2
100
AcDbSymbolTableRecord
100
AcDbLayerTableRecord
  2
중심선
 70
     0
 62
     1
  6
CENTERX2
370
    -3
390
F
  0
LAYER
  5
73
330
2
100
AcDbSymbolTableRecord
100
AcDbLayerTableRecord
  2
파단선
 70
     0
 62
     4
  6
Continuous
370
    -3
390
F
  0
LAYER
  5
74
330
2
100
AcDbSymbolTableRecord
100
AcDbLayerTableRecord
  2
해칭선
 70
     0
 62
   100
  6
Continuous
370
    -3
390
F
  0
LAYER
  5
75
330
2
100
AcDbSymbolTableRecord
100
AcDbLayerTableRecord
  2
가는실선
 70
     0
 62
     4
  6
Continuous
370
    -3
390
F
  0
LAYER
  5
76
330
2
100
AcDbSymbolTableRecord
100
AcDbLayerTableRecord
  2
치수_보조선
 70
     0
 62
     4
  6
Continuous
370
    -3
390
F
  0
LAYER
  5
77
330
2
100
AcDbSymbolTableRecord
100
AcDbLayerTableRecord
  2
치수문자_일반주서
 70
     0
 62
     7
  6
Continuous
370
    15
390
F
  0
LAYER
  5
78
330
2
100
AcDbSymbolTableRecord
100
AcDbLayerTableRecord
  2
개별주서
 70
     0
 62
   100
  6
Continuous
370
    30
390
F
  0
LAYER
  5
79
330
2
100
AcDbSymbolTableRecord
100
AcDbLayerTableRecord
  2
중간선
 70
     0
 62
     2
  6
Continuous
370
    15
390
F
  0
LAYER
  5
7A
330
2
100
AcDbSymbolTableRecord
100
AcDbLayerTableRecord
  2
윤곽선
 70
     0
 62
     3
  6
Continuous
370
    40
390
F
  0
LAYER
  5
7B
330
2
100
AcDbSymbolTableRecord
100
AcDbLayerTableRecord
  2
중심마크
 70
     0
 62
   100
  6
Continuous
370
    30
390
F
  0
LAYER
  5
7C
330
2
100
AcDbSymbolTableRecord
100
AcDbLayerTableRecord
  2
가상선
 70
     0
 62
     4
  6
PHANTOM
370
    -3
390
F
  0
LAYER
  5
7D
330
2
100
AcDbSymbolTableRecord
100
AcDbLayerTableRecord
  2
특수지정선
 70
     0
 62
     5
  6
CENTERX2
370
    60
390
F
  0
LAYER
  5
7E
330
2
100
AcDbSymbolTableRecord
100
AcDbLayerTableRecord
  2
참조1
 70
     0
 62
    -4
  6
Continuous
370
    -3
390
F
  0
LAYER
  5
18A
330
2
100
AcDbSymbolTableRecord
100
AcDbLayerTableRecord
  2
Defpoints
 70
     0
 62
     7
  6
Continuous
290
     0
370
    -3
390
F
  0
ENDTAB
  0
TABLE
  2
STYLE
  5
3
330
0
100
AcDbSymbolTable
 70
     2
  0
STYLE
  5
11
330
3
100
AcDbSymbolTableRecord
100
AcDbTextStyleTableRecord
  2
Standard
 70
     0
 40
0.0
 41
1.0
 50
0.0
 71
     0
 42
3.5
  3
txt
  4

  0
STYLE
  5
94
330
3
100
AcDbSymbolTableRecord
100
AcDbTextStyleTableRecord
  2
SLDTEXTSTYLE0
 70
     0
 40
0.0
 41
0.75
 50
0.0
 71
     0
 42
3.5
  3
TXT
  4

  0
ENDTAB
  0
TABLE
  2
VIEW
  5
6
330
0
100
AcDbSymbolTable
 70
     0
  0
ENDTAB
  0
TABLE
  2
UCS
  5
7
330
0
100
AcDbSymbolTable
 70
     0
  0
ENDTAB
  0
TABLE
  2
APPID
  5
9
330
0
100
AcDbSymbolTable
 70
     4
  0
APPID
  5
12
330
9
100
AcDbSymbolTableRecord
100
AcDbRegAppTableRecord
  2
ACAD
 70
     0
  0
APPID
  5
191
330
9
100
AcDbSymbolTableRecord
100
AcDbRegAppTableRecord
  2
PE_URL
 70
     0
  0
APPID
  5
1E7
330
9
100
AcDbSymbolTableRecord
100
AcDbRegAppTableRecord
  2
ACAD_DSTYLE_DIMFLIPARROW_SYMBOL
 70
     0
  0
APPID
  5
1E8
330
9
100
AcDbSymbolTableRecord
100
AcDbRegAppTableRecord
  2
ACAD_DSTYLE_DIMFLIPARROW_WHICH_SYMBOL
 70
     0
  0
ENDTAB
  0
TABLE
  2
DIMSTYLE
  5
A
330
0
100
AcDbSymbolTable
 70
     3
100
AcDbDimStyleTable
  0
DIMSTYLE
105
27
330
A
100
AcDbSymbolTableRecord
100
AcDbDimStyleTableRecord
  2
ISO-25
 70
     0
 41
2.5
 42
0.625
 43
3.75
 44
1.25
 73
     0
 74
     0
 77
     1
 78
     8
140
2.5
141
2.5
143
0.03937007874016
147
0.625
171
     3
172
     1
178
     0
271
     2
272
     2
274
     3
278
    44
283
     0
284
     8
340
11
  0
DIMSTYLE
105
D6
102
{ACAD_REACTORS
330
D5
330
EA
330
1B0
330
112
330
FD
102
}
330
A
100
AcDbSymbolTableRecord
100
AcDbDimStyleTableRecord
  2
SLDDIMSTYLE0
 70
     0
 41
3.302
 44
0.0
 45
0.000000001
 73
     0
 74
     0
 77
     1
 78
    12
 79
     3
140
3.5
143
0.0393700787401575
147
0.875
148
0.000000001
170
     1
173
     1
178
     0
271
     2
272
     2
276
     2
284
    12
340
94
  0
DIMSTYLE
105
FE
330
A
100
AcDbSymbolTableRecord
100
AcDbDimStyleTableRecord
  2
SLDDIMSTYLE1
 70
     0
 41
3.302
 44
0.0
 45
0.000000001
 73
     0
 74
     0
 77
     1
 78
    12
 79
     3
140
3.5
143
0.0393700787401575
147
0.875
148
0.000000001
170
     1
172
     1
173
     1
178
     0
271
     2
272
     2
276
     2
284
    12
289
     0
340
94
  0
ENDTAB
  0
TABLE
  2
BLOCK_RECORD
  5
1
330
0
100
AcDbSymbolTable
 70
    11
  0
BLOCK_RECORD
  5
1F
330
1
100
AcDbSymbolTableRecord
100
AcDbBlockTableRecord
  2
*Model_Space
340
22
  0
BLOCK_RECORD
  5
1B
330
1
100
AcDbSymbolTableRecord
100
AcDbBlockTableRecord
  2
*Paper_Space
340
1E
  0
BLOCK_RECORD
  5
23
330
1
100
AcDbSymbolTableRecord
100
AcDbBlockTableRecord
  2
*Paper_Space0
340
26
  0
BLOCK_RECORD
  5
7F
330
1
100
AcDbSymbolTableRecord
100
AcDbBlockTableRecord
  2
블럭10
340
0
102
{BLKREFS
331
CE
102
}
  0
BLOCK_RECORD
  5
D7
330
1
100
AcDbSymbolTableRecord
100
AcDbBlockTableRecord
  2
_D
340
0
  0
BLOCK_RECORD
  5
EB
330
1
100
AcDbSymbolTableRecord
100
AcDbBlockTableRecord
  2
_D_1
340
0
  0
BLOCK_RECORD
  5
FF
330
1
100
AcDbSymbolTableRecord
100
AcDbBlockTableRecord
  2
_D_2
340
0
  0
BLOCK_RECORD
  5
113
330
1
100
AcDbSymbolTableRecord
100
AcDbBlockTableRecord
  2
_D_3
340
0
  0
BLOCK_RECORD
  5
12D
330
1
100
AcDbSymbolTableRecord
100
AcDbBlockTableRecord
  2
SW_DOWELSYMBOL_0
340
0
102
{BLKREFS
331
133
102
}
  0
BLOCK_RECORD
  5
1C0
330
1
100
AcDbSymbolTableRecord
100
AcDbBlockTableRecord
  2
*D9
340
0
  0
BLOCK_RECORD
  5
1CF
330
1
100
AcDbSymbolTableRecord
100
AcDbBlockTableRecord
  2
*D10
340
0
  0
ENDTAB
  0
ENDSEC
  0
SECTION
  2
BLOCKS
  0
BLOCK
  5
20
330
1F
100
AcDbEntity
  8
0
100
AcDbBlockBegin
  2
*Model_Space
 70
     0
 10
0.0
 20
0.0
 30
0.0
  3
*Model_Space
  1

  0
ENDBLK
  5
21
330
1F
100
AcDbEntity
  8
0
100
AcDbBlockEnd
  0
BLOCK
  5
1C
330
1B
100
AcDbEntity
 67
     1
  8
0
100
AcDbBlockBegin
  2
*Paper_Space
 70
     0
 10
0.0
 20
0.0
 30
0.0
  3
*Paper_Space
  1

  0
ENDBLK
  5
1D
330
1B
100
AcDbEntity
 67
     1
  8
0
100
AcDbBlockEnd
  0
BLOCK
  5
24
330
23
100
AcDbEntity
  8
0
100
AcDbBlockBegin
  2
*Paper_Space0
 70
     0
 10
0.0
 20
0.0
 30
0.0
  3
*Paper_Space0
  1

  0
ENDBLK
  5
25
330
23
100
AcDbEntity
  8
0
100
AcDbBlockEnd
  0
BLOCK
  5
80
330
7F
100
AcDbEntity
  8
0
100
AcDbBlockBegin
  2
블럭10
 70
     2
 10
0.0
 20
0.0
 30
0.0
  3
블럭10
  1

  0
ELLIPSE
  5
82
330
7F
100
AcDbEntity
  8
중심선
100
AcDbEllipse
 10
20.54032771741204
 20
12.0471743016438
 30
0.0
 11
6.600054785286829
 21
-1.261213355974178E-13
 31
0.0
210
0.0
220
0.0
230
1.0
 40
0.636358354079598
 41
0.9219305317359503
 42
6.513795318482858
  0
ELLIPSE
  5
83
330
7F
100
AcDbEntity
  8
중심선
100
AcDbEllipse
 10
20.54032771746488
 20
12.04717430159265
 30
0.0
 11
3.960054785062283
 21
1.540847449632565E-10
 31
0.0
210
0.0
220
0.0
230
1.0
 40
0.3939339440162632
 41
1.131841032648279
 42
5.62031148352944
  0
LINE
  5
84
330
7F
100
AcDbEntity
  8
중심선
100
AcDbLine
 10
2.268634060543552
 20
16.24717430164393
 30
0.0
 11
5.714909304380834
 21
16.24717430164393
 31
0.0
  0
LINE
  5
85
330
7F
100
AcDbEntity
  8
중심선
100
AcDbLine
 10
5.245725140726316
 20
7.84717430164391
 30
0.0
 11
8.692000384563599
 21
7.84717430164391
 31
0.0
  0
LINE
  5
86
330
7F
100
AcDbEntity
  8
중심선
100
AcDbLine
 10
15.74043728645272
 20
16.24717430164393
 30
0.0
 11
8.692000384563599
 21
7.84717430164391
 31
0.0
  0
LINE
  5
87
330
7F
100
AcDbEntity
  8
중심선
100
AcDbLine
 10
0.1404042013395286
 20
13.71084872107135
 30
0.0
 11
3.58671253028996
 21
13.71088815037384
 31
0.0
  0
LINE
  5
88
330
7F
100
AcDbEntity
  8
중심선
100
AcDbLine
 10
2.750260043222114
 20
10.84717430164391
 30
0.0
 11
6.196535287059397
 21
10.84717430164391
 31
0.0
  0
LINE
  5
89
330
7F
100
AcDbEntity
  8
중심선
100
AcDbLine
 10
12.29416204261559
 20
16.24717430164393
 30
0.0
 11
5.245725140726316
 21
7.84717430164391
 31
0.0
  0
LINE
  5
8A
330
7F
100
AcDbEntity
  8
중심선
100
AcDbLine
 10
10.72767329541681
 20
16.24717430164393
 30
0.0
 11
6.196535287059397
 21
10.84717430164391
 31
0.0
  0
LINE
  5
8B
330
7F
100
AcDbEntity
  8
중심선
100
AcDbLine
 10
7.28139805157953
 20
16.24717430164393
 30
0.0
 11
2.750260043222114
 21
10.84717430164391
 31
0.0
  0
LINE
  5
8C
330
7F
100
AcDbEntity
  8
중심선
100
AcDbLine
 10
5.714909304380834
 20
16.24717430164393
 30
0.0
 11
3.58671253028996
 21
13.71088815037384
 31
0.0
  0
LINE
  5
8D
330
7F
100
AcDbEntity
  8
중심선
100
AcDbLine
 10
2.268634060543552
 20
16.24717430164393
 30
0.0
 11
0.1404042013395286
 21
13.71084872107135
 31
0.0
  0
LINE
  5
8E
330
7F
100
AcDbEntity
  8
중심선
100
AcDbLine
 10
7.28139805157953
 20
16.24717430164393
 30
0.0
 11
10.72767329541681
 21
16.24717430164393
 31
0.0
  0
LINE
  5
8F
330
7F
100
AcDbEntity
  8
중심선
100
AcDbLine
 10
12.29416204261559
 20
16.24717430164393
 30
0.0
 11
15.74043728645272
 21
16.24717430164393
 31
0.0
  0
LINE
  5
90
330
7F
100
AcDbEntity
  8
중심선
100
AcDbLine
 10
19.22036997980202
 20
11.08717430171403
 30
0.0
 11
23.66174974927406
 21
11.08717430171406
 31
0.0
  0
LINE
  5
91
330
7F
100
AcDbEntity
  8
중심선
100
AcDbLine
 10
19.22039502424796
 20
13.00717430171391
 30
0.0
 11
19.22036997980202
 21
11.08717430171403
 31
0.0
  0
LINE
  5
92
330
7F
100
AcDbEntity
  8
중심선
100
AcDbLine
 10
19.22039502424796
 20
13.00717430171391
 30
0.0
 11
26.96566020931264
 21
13.00717430171391
 31
0.0
  0
LINE
  5
93
330
7F
100
AcDbEntity
  8
중심선
100
AcDbLine
 10
22.22332737316547
 20
13.45928029700563
 30
0.0
 11
24.52862924686651
 21
15.39360700705356
 31
0.0
  0
ATTDEF
  5
95
330
7F
100
AcDbEntity
  8
FORMAT
 62
     2
100
AcDbText
 10
4.408487351596664
 20
2.075366912832191
 30
0.0
 40
4.233333333333333
  1
E1040016
 41
0.75
  7
SLDTEXTSTYLE0
 11
4.408487351596664
 21
-0.0412997538344756
 31
0.0
100
AcDbAttributeDefinition
  3

  2
AUTOATTR0
 70
     0
 74
     1
  0
ENDBLK
  5
81
330
7F
100
AcDbEntity
  8
0
100
AcDbBlockEnd
  0
BLOCK
  5
D8
330
D7
100
AcDbEntity
  8
0
100
AcDbBlockBegin
  2
_D
 70
     0
 10
0.0
 20
0.0
 30
0.0
  3
_D
  1

  0
LINE
  5
DA
330
D7
100
AcDbEntity
  8
치수문자_일반주서
 62
     0
370
    -2
100
AcDbLine
 10
40.67463065701561
 20
3.226899156826323
 30
0.0
 11
40.67463065701561
 21
14.76357492872389
 31
0.0
  0
LINE
  5
DB
330
D7
100
AcDbEntity
  8
치수문자_일반주서
 62
     0
370
    -2
100
AcDbLine
 10
8.924630657015609
 20
3.230393872625961
 30
0.0
 11
8.924630657015609
 21
14.76357492872389
 31
0.0
  0
LINE
  5
DC
330
D7
100
AcDbEntity
  8
치수문자_일반주서
 62
     0
370
    -2
100
AcDbLine
 10
37.37263065701561
 20
14.76357492872389
 30
0.0
 11
12.22663065701561
 21
14.76357492872389
 31
0.0
  0
SOLID
  5
DD
330
D7
100
AcDbEntity
  8
치수문자_일반주서
 62
     0
100
AcDbTrace
 10
37.37263065701561
 20
14.21324159539056
 30
0.0
 11
37.37263065701561
 21
15.31390826205723
 31
0.0
 12
40.67463065701561
 22
14.76357492872389
 32
0.0
 13
40.67463065701561
 23
14.76357492872389
 33
0.0
  0
SOLID
  5
DE
330
D7
100
AcDbEntity
  8
치수문자_일반주서
 62
     0
100
AcDbTrace
 10
12.22663065701561
 20
15.31390826205723
 30
0.0
 11
12.22663065701561
 21
14.21324159539056
 31
0.0
 12
8.924630657015609
 22
14.76357492872389
 32
0.0
 13
8.924630657015609
 23
14.76357492872389
 33
0.0
  0
MTEXT
  5
DF
330
D7
100
AcDbEntity
  8
치수문자_일반주서
 62
     0
100
AcDbMText
 10
24.79963065701561
 20
19.13857492872389
 30
0.0
 40
3.5
 41
0.0
 71
     2
 72
     1
  1
\A1;31.75 [1 1/4]
  7
SLDTEXTSTYLE0
 73
     1
 44
1.0
  0
POINT
  5
E0
330
D7
100
AcDbEntity
  8
Defpoints
 62
     0
100
AcDbPoint
 10
40.67463065701561
 20
3.164399156826323
 30
0.0
  0
POINT
  5
E1
330
D7
100
AcDbEntity
  8
Defpoints
 62
     0
100
AcDbPoint
 10
8.924630657015609
 20
3.167893872625961
 30
0.0
  0
POINT
  5
E2
330
D7
100
AcDbEntity
  8
Defpoints
 62
     0
100
AcDbPoint
 10
8.924630657015609
 20
14.76357492872389
 30
0.0
  0
ENDBLK
  5
D9
330
D7
100
AcDbEntity
  8
0
100
AcDbBlockEnd
  0
BLOCK
  5
EC
330
EB
100
AcDbEntity
  8
0
100
AcDbBlockBegin
  2
_D_1
 70
     0
 10
0.0
 20
0.0
 30
0.0
  3
_D_1
  1

  0
LINE
  5
EE
330
EB
100
AcDbEntity
  8
치수문자_일반주서
 62
     0
370
    -2
100
AcDbLine
 10
40.67463065701561
 20
3.226899156826323
 30
0.0
 11
40.6746306570156
 21
24.76357492872389
 31
0.0
  0
LINE
  5
EF
330
EB
100
AcDbEntity
  8
치수문자_일반주서
 62
     0
370
    -2
100
AcDbLine
 10
-37.1128693429844
 20
3.873574928723895
 30
0.0
 11
-37.1128693429844
 21
24.76357492872389
 31
0.0
  0
LINE
  5
F0
330
EB
100
AcDbEntity
  8
치수문자_일반주서
 62
     0
370
    -2
100
AcDbLine
 10
37.3726306570156
 20
24.76357492872389
 30
0.0
 11
-33.8108693429844
 21
24.76357492872389
 31
0.0
  0
SOLID
  5
F1
330
EB
100
AcDbEntity
  8
치수문자_일반주서
 62
     0
100
AcDbTrace
 10
37.3726306570156
 20
24.21324159539056
 30
0.0
 11
37.3726306570156
 21
25.31390826205723
 31
0.0
 12
40.6746306570156
 22
24.76357492872389
 32
0.0
 13
40.6746306570156
 23
24.76357492872389
 33
0.0
  0
SOLID
  5
F2
330
EB
100
AcDbEntity
  8
치수문자_일반주서
 62
     0
100
AcDbTrace
 10
-33.8108693429844
 20
25.31390826205723
 30
0.0
 11
-33.8108693429844
 21
24.21324159539056
 31
0.0
 12
-37.1128693429844
 22
24.76357492872389
 32
0.0
 13
-37.1128693429844
 23
24.76357492872389
 33
0.0
  0
MTEXT
  5
F3
330
EB
100
AcDbEntity
  8
치수문자_일반주서
 62
     0
100
AcDbMText
 10
1.780880657015594
 20
29.13857492872389
 30
0.0
 40
3.5
 41
0.0
 71
     2
 72
     1
  1
\A1;77.79 [3 1/16]
  7
SLDTEXTSTYLE0
 73
     1
 44
1.0
  0
POINT
  5
F4
330
EB
100
AcDbEntity
  8
Defpoints
 62
     0
100
AcDbPoint
 10
40.67463065701561
 20
3.164399156826323
 30
0.0
  0
POINT
  5
F5
330
EB
100
AcDbEntity
  8
Defpoints
 62
     0
100
AcDbPoint
 10
-37.1128693429844
 20
3.811074928723895
 30
0.0
  0
POINT
  5
F6
330
EB
100
AcDbEntity
  8
Defpoints
 62
     0
100
AcDbPoint
 10
-37.1128693429844
 20
24.76357492872389
 30
0.0
  0
ENDBLK
  5
ED
330
EB
100
AcDbEntity
  8
0
100
AcDbBlockEnd
  0
BLOCK
  5
100
330
FF
100
AcDbEntity
  8
0
100
AcDbBlockBegin
  2
_D_2
 70
     0
 10
0.0
 20
0.0
 30
0.0
  3
_D_2
  1

  0
LINE
  5
102
330
FF
100
AcDbEntity
  8
치수문자_일반주서
 62
     0
370
    -2
100
AcDbLine
 10
-36.2228693429844
 20
4.763574928723896
 30
0.0
 11
-47.11286934298438
 21
4.763574928723855
 31
0.0
  0
LINE
  5
103
330
FF
100
AcDbEntity
  8
치수문자_일반주서
 62
     0
370
    -2
100
AcDbLine
 10
-36.2228693429844
 20
-4.761425071276109
 30
0.0
 11
-47.11286934298435
 21
-4.76142507127615
 31
0.0
  0
LINE
  5
104
330
FF
100
AcDbEntity
  8
치수문자_일반주서
 62
     0
370
    -2
100
AcDbLine
 10
-47.11286934298438
 20
4.763574928723855
 30
0.0
 11
-47.1128693429845
 21
34.31557492872385
 31
0.0
  0
LINE
  5
105
330
FF
100
AcDbEntity
  8
치수문자_일반주서
 62
     0
370
    -2
100
AcDbLine
 10
-47.11286934298438
 20
4.763574928723855
 30
0.0
 11
-47.11286934298435
 21
-4.76142507127615
 31
0.0
  0
LINE
  5
106
330
FF
100
AcDbEntity
  8
치수문자_일반주서
 62
     0
370
    -2
100
AcDbLine
 10
-47.1128693429844
 20
8.065574928723855
 30
0.0
 11
-47.11286934298441
 21
11.36757492872385
 31
0.0
  0
LINE
  5
107
330
FF
100
AcDbEntity
  8
치수문자_일반주서
 62
     0
370
    -2
100
AcDbLine
 10
-47.11286934298433
 20
-8.06342507127615
 30
0.0
 11
-47.11286934298432
 21
-11.36542507127615
 31
0.0
  0
SOLID
  5
108
330
FF
100
AcDbEntity
  8
치수문자_일반주서
 62
     0
100
AcDbTrace
 10
-47.66320267631773
 20
8.065574928723853
 30
0.0
 11
-46.56253600965106
 21
8.065574928723857
 31
0.0
 12
-47.11286934298438
 22
4.763574928723855
 32
0.0
 13
-47.11286934298438
 23
4.763574928723855
 33
0.0
  0
SOLID
  5
109
330
FF
100
AcDbEntity
  8
치수문자_일반주서
 62
     0
100
AcDbTrace
 10
-46.562536009651
 20
-8.063425071276148
 30
0.0
 11
-47.66320267631767
 21
-8.063425071276152
 31
0.0
 12
-47.11286934298435
 22
-4.76142507127615
 32
0.0
 13
-47.11286934298435
 23
-4.76142507127615
 33
0.0
  0
MTEXT
  5
10A
330
FF
100
AcDbEntity
  8
치수문자_일반주서
 62
     0
100
AcDbMText
 10
-51.48786934298445
 20
21.19057492872384
 30
0.0
 40
3.5
 41
0.0
 71
     2
 72
     1
  1
\A1;%%c9.53 [3/8]
  7
SLDTEXTSTYLE0
 11
-3.729883127349605E-15
 21
1.0
 31
0.0
 73
     1
 44
1.0
  0
POINT
  5
1E3
330
FF
100
AcDbEntity
  8
Defpoints
 62
     0
100
AcDbPoint
 10
-36.1603693429844
 20
4.763574928723896
 30
0.0
  0
POINT
  5
1E4
330
FF
100
AcDbEntity
  8
Defpoints
 62
     0
100
AcDbPoint
 10
-36.1603693429844
 20
-4.761425071276109
 30
0.0
  0
POINT
  5
1E5
330
FF
100
AcDbEntity
  8
Defpoints
 62
     0
100
AcDbPoint
 10
-47.11286934298435
 20
-4.76142507127615
 30
0.0
  0
ENDBLK
  5
101
330
FF
100
AcDbEntity
  8
0
100
AcDbBlockEnd
  0
BLOCK
  5
114
330
113
100
AcDbEntity
  8
0
100
AcDbBlockBegin
  2
_D_3
 70
     0
 10
0.0
 20
0.0
 30
0.0
  3
_D_3
  1

  0
LINE
  5
116
330
113
100
AcDbEntity
  8
치수문자_일반주서
 62
     0
370
    -2
100
AcDbLine
 10
40.73713065701561
 20
-3.162249299378536
 30
0.0
 11
50.67463065701561
 21
-3.162249299378502
 31
0.0
  0
LINE
  5
117
330
113
100
AcDbEntity
  8
치수문자_일반주서
 62
     0
370
    -2
100
AcDbLine
 10
40.73713065701561
 20
3.164399156826323
 30
0.0
 11
50.67463065701559
 21
3.164399156826359
 31
0.0
  0
LINE
  5
118
330
113
100
AcDbEntity
  8
치수문자_일반주서
 62
     0
370
    -2
100
AcDbLine
 10
50.67463065701559
 20
3.164399156826359
 30
0.0
 11
50.67463065701548
 21
35.14339915682636
 31
0.0
  0
LINE
  5
119
330
113
100
AcDbEntity
  8
치수문자_일반주서
 62
     0
370
    -2
100
AcDbLine
 10
50.67463065701563
 20
-6.464249299378501
 30
0.0
 11
50.67463065701564
 21
-9.7662492993785
 31
0.0
  0
LINE
  5
11A
330
113
100
AcDbEntity
  8
치수문자_일반주서
 62
     0
370
    -2
100
AcDbLine
 10
50.67463065701558
 20
6.466399156826359
 30
0.0
 11
50.67463065701556
 21
9.768399156826359
 31
0.0
  0
SOLID
  5
11B
330
113
100
AcDbEntity
  8
치수문자_일반주서
 62
     0
100
AcDbTrace
 10
51.22496399034896
 20
-6.464249299378499
 30
0.0
 11
50.12429732368229
 21
-6.464249299378503
 31
0.0
 12
50.67463065701561
 22
-3.162249299378502
 32
0.0
 13
50.67463065701561
 23
-3.162249299378502
 33
0.0
  0
SOLID
  5
11C
330
113
100
AcDbEntity
  8
치수문자_일반주서
 62
     0
100
AcDbTrace
 10
50.12429732368224
 20
6.466399156826357
 30
0.0
 11
51.22496399034891
 21
6.466399156826361
 31
0.0
 12
50.67463065701559
 22
3.164399156826359
 32
0.0
 13
50.67463065701559
 23
3.164399156826359
 33
0.0
  0
MTEXT
  5
11D
330
113
100
AcDbEntity
  8
치수문자_일반주서
 62
     0
100
AcDbMText
 10
46.29963065701553
 20
22.45589915682635
 30
0.0
 40
3.5
 41
0.0
 71
     2
 72
     1
  1
\A1;%%c6.33 [1/4]
  7
SLDTEXTSTYLE0
 11
-3.369285052008393E-15
 21
1.0
 31
0.0
 73
     1
 44
1.0
  0
POINT
  5
11E
330
113
100
AcDbEntity
  8
Defpoints
 62
     0
100
AcDbPoint
 10
40.67463065701561
 20
-3.162249299378536
 30
0.0
  0
POINT
  5
11F
330
113
100
AcDbEntity
  8
Defpoints
 62
     0
100
AcDbPoint
 10
40.67463065701561
 20
3.164399156826323
 30
0.0
  0
POINT
  5
120
330
113
100
AcDbEntity
  8
Defpoints
 62
     0
100
AcDbPoint
 10
50.67463065701562
 20
3.16439915682636
 30
0.0
  0
ENDBLK
  5
115
330
113
100
AcDbEntity
  8
0
100
AcDbBlockEnd
  0
BLOCK
  5
12E
330
12D
100
AcDbEntity
  8
0
100
AcDbBlockBegin
  2
SW_DOWELSYMBOL_0
 70
     0
 10
0.0
 20
0.0
 30
0.0
  3
SW_DOWELSYMBOL_0
  1

  0
CIRCLE
  5
130
330
12D
100
AcDbEntity
  8
해칭선
 62
     0
100
AcDbCircle
 10
0.0
 20
0.0
 30
0.0
 40
3.000000000000001
  0
HATCH
  5
131
330
12D
100
AcDbEntity
  8
0
  6
Continuous
 62
     0
370
     0
100
AcDbHatch
 10
0.0
 20
0.0
 30
0.0
210
0.0
220
0.0
230
1.0
  2
SOLID
 70
     1
 71
     0
 91
        1
 92
        0
 93
        3
 72
     2
 10
0.0
 20
0.0
 40
3.000000000000001
 50
0.0
 51
90.0
 73
     1
 72
     1
 10
0.0
 20
3.000000000000001
 11
0.0
 21
0.0
 72
     1
 10
0.0
 20
0.0
 11
3.000000000000001
 21
0.0
 97
        0
 75
     0
 76
     1
 98
        1
 10
0.0
 20
0.0
  0
HATCH
  5
132
330
12D
100
AcDbEntity
  8
0
  6
Continuous
 62
     0
370
     0
100
AcDbHatch
 10
0.0
 20
0.0
 30
0.0
210
0.0
220
0.0
230
1.0
  2
SOLID
 70
     1
 71
     0
 91
        1
 92
        0
 93
        3
 72
     2
 10
0.0
 20
0.0
 40
3.000000000000001
 50
180.0
 51
270.0000000000008
 73
     1
 72
     1
 10
0.0
 20
-3.000000000000001
 11
0.0
 21
0.0
 72
     1
 10
0.0
 20
0.0
 11
-3.000000000000001
 21
0.0
 97
        0
 75
     0
 76
     1
 98
        1
 10
0.0
 20
0.0
  0
ENDBLK
  5
12F
330
12D
100
AcDbEntity
  8
0
100
AcDbBlockEnd
  0
BLOCK
  5
1C1
330
1C0
100
AcDbEntity
  8
0
100
AcDbBlockBegin
  2
*D9
 70
     1
 10
0.0
 20
0.0
 30
0.0
  3
*D9
  1

  0
LINE
  5
1C3
330
1C0
100
AcDbEntity
  8
치수문자_일반주서
 62
     0
370
    -2
100
AcDbLine
 10
31.75000000000002
 20
4.816480165670898
 30
0.0
 11
31.75000000000002
 21
17.14398699459408
 31
0.0
  0
LINE
  5
1C4
330
1C0
100
AcDbEntity
  8
치수문자_일반주서
 62
     0
370
    -2
100
AcDbLine
 10
0.0
 20
4.819360328552659
 30
0.0
 11
0.0
 21
17.14398699459408
 31
0.0
  0
LINE
  5
1C5
330
1C0
100
AcDbEntity
  8
치수문자_일반주서
 62
     0
370
    -2
100
AcDbLine
 10
28.44800000000002
 20
17.14398699459408
 30
0.0
 11
3.302
 21
17.14398699459408
 31
0.0
  0
SOLID
  5
1C6
330
1C0
100
AcDbEntity
  8
치수문자_일반주서
 62
     0
100
AcDbTrace
 10
28.44800000000002
 20
16.59365366126075
 30
0.0
 11
28.44800000000002
 21
17.69432032792741
 31
0.0
 12
31.75000000000002
 22
17.14398699459408
 32
0.0
 13
31.75000000000002
 23
17.14398699459408
 33
0.0
  0
SOLID
  5
1C7
330
1C0
100
AcDbEntity
  8
치수문자_일반주서
 62
     0
100
AcDbTrace
 10
3.302
 20
17.69432032792741
 30
0.0
 11
3.302
 21
16.59365366126075
 31
0.0
 12
0.0
 22
17.14398699459408
 32
0.0
 13
0.0
 23
17.14398699459408
 33
0.0
  0
MTEXT
  5
1C8
330
1C0
100
AcDbEntity
  8
치수문자_일반주서
 62
     0
100
AcDbMText
 10
15.87500000000001
 20
21.51898699459408
 30
0.0
 40
3.5
 41
0.0
 71
     2
 72
     1
  1
\A1;31.75 [1 1/4]
  7
SLDTEXTSTYLE0
 73
     1
 44
1.0
  0
POINT
  5
1C9
330
1C0
100
AcDbEntity
  8
Defpoints
 62
     0
100
AcDbPoint
 10
31.75000000000002
 20
4.753980165670898
 30
0.0
  0
POINT
  5
1CA
330
1C0
100
AcDbEntity
  8
Defpoints
 62
     0
100
AcDbPoint
 10
0.0
 20
4.756860328552659
 30
0.0
  0
POINT
  5
1CB
330
1C0
100
AcDbEntity
  8
Defpoints
 62
     0
100
AcDbPoint
 10
0.0
 20
17.14398699459408
 30
0.0
  0
ENDBLK
  5
1C2
330
1C0
100
AcDbEntity
  8
0
100
AcDbBlockEnd
  0
BLOCK
  5
1D0
330
1CF
100
AcDbEntity
  8
0
100
AcDbBlockBegin
  2
*D10
 70
     1
 10
0.0
 20
0.0
 30
0.0
  3
*D10
  1

  0
LINE
  5
1D2
330
1CF
100
AcDbEntity
  8
치수문자_일반주서
 62
     0
370
    -2
100
AcDbLine
 10
147.9555425947684
 20
-3.374613656601019
 30
0.0
 11
147.9555425947684
 21
8.952893172322163
 31
0.0
  0
LINE
  5
1D3
330
1CF
100
AcDbEntity
  8
치수문자_일반주서
 62
     0
370
    -2
100
AcDbLine
 10
116.2055425947684
 20
-3.371733493719258
 30
0.0
 11
116.2055425947684
 21
8.952893172322163
 31
0.0
  0
LINE
  5
1D4
330
1CF
100
AcDbEntity
  8
치수문자_일반주서
 62
     0
370
    -2
100
AcDbLine
 10
144.6535425947685
 20
8.952893172322163
 30
0.0
 11
119.5075425947684
 21
8.952893172322163
 31
0.0
  0
SOLID
  5
1D5
330
1CF
100
AcDbEntity
  8
치수문자_일반주서
 62
     0
100
AcDbTrace
 10
144.6535425947685
 20
8.40255983898883
 30
0.0
 11
144.6535425947685
 21
9.503226505655496
 31
0.0
 12
147.9555425947684
 22
8.952893172322163
 32
0.0
 13
147.9555425947684
 23
8.952893172322163
 33
0.0
  0
SOLID
  5
1D6
330
1CF
100
AcDbEntity
  8
치수문자_일반주서
 62
     0
100
AcDbTrace
 10
119.5075425947684
 20
9.503226505655496
 30
0.0
 11
119.5075425947684
 21
8.40255983898883
 31
0.0
 12
116.2055425947684
 22
8.952893172322163
 32
0.0
 13
116.2055425947684
 23
8.952893172322163
 33
0.0
  0
MTEXT
  5
1D7
330
1CF
100
AcDbEntity
  8
치수문자_일반주서
 62
     0
100
AcDbMText
 10
132.0805425947684
 20
13.32789317232216
 30
0.0
 40
3.5
 41
0.0
 71
     2
 72
     1
  1
\A1;31.75 [1 1/4]
  7
SLDTEXTSTYLE0
 73
     1
 44
1.0
  0
POINT
  5
1D8
330
1CF
100
AcDbEntity
  8
Defpoints
 62
     0
100
AcDbPoint
 10
147.9555425947684
 20
-3.437113656601019
 30
0.0
  0
POINT
  5
1D9
330
1CF
100
AcDbEntity
  8
Defpoints
 62
     0
100
AcDbPoint
 10
116.2055425947684
 20
-3.434233493719258
 30
0.0
  0
POINT
  5
1DA
330
1CF
100
AcDbEntity
  8
Defpoints
 62
     0
100
AcDbPoint
 10
116.2055425947684
 20
8.952893172322163
 30
0.0
  0
ENDBLK
  5
1D1
330
1CF
100
AcDbEntity
  8
0
100
AcDbBlockEnd
  0
ENDSEC
  0
SECTION
  2
ENTITIES
  0
LINE
  5
96
330
1F
100
AcDbEntity
  8
0
  6
Continuous
 62
     1
370
    15
100
AcDbLine
 10
36.06297625200921
 20
-0.9207361817001861
 30
0.0
 11
36.12050551565729
 21
-0.9514842112859213
 31
0.0
1001
PE_URL
1000

  0
LINE
  5
97
330
1F
100
AcDbEntity
  8
0
  6
Continuous
 62
     1
370
    15
100
AcDbLine
 10
32.50819980335399
 20
-3.173925071276109
 30
0.0
 11
34.44296988264746
 21
-3.173925071276109
 31
0.0
1001
PE_URL
1000

  0
LINE
  5
98
330
1F
100
AcDbEntity
  8
0
  6
Continuous
 62
     1
370
    15
100
AcDbLine
 10
17.16689700411715
 20
3.176074928723895
 30
0.0
 11
15.23107327500008
 21
3.176074928723895
 31
0.0
1001
PE_URL
1000

  0
LINE
  5
99
330
1F
100
AcDbEntity
  8
0
  6
Continuous
 62
     1
370
    15
100
AcDbLine
 10
23.87067860299369
 20
-3.173925071276109
 30
0.0
 11
25.80694483863088
 21
-3.173925071276109
 31
0.0
1001
PE_URL
1000

  0
LINE
  5
9A
330
1F
100
AcDbEntity
  8
0
  6
Continuous
 62
     1
370
    15
100
AcDbLine
 10
25.8069448386309
 20
3.176074928723895
 30
0.0
 11
23.87067860299372
 21
3.176074928723895
 31
0.0
1001
PE_URL
1000

  0
LINE
  5
9B
330
1F
100
AcDbEntity
  8
0
  6
Continuous
 62
     1
370
    15
100
AcDbLine
 10
15.23107327500011
 20
-3.173925071276109
 30
0.0
 11
17.16689700411716
 21
-3.173925071276109
 31
0.0
1001
PE_URL
1000

  0
LINE
  5
9C
330
1F
100
AcDbEntity
  8
0
  6
Continuous
 62
     1
370
    15
100
AcDbLine
 10
34.44296988264746
 20
3.176074928723895
 30
0.0
 11
32.50819980335402
 21
3.176074928723895
 31
0.0
1001
PE_URL
1000

  0
LINE
  5
9D
330
1F
100
AcDbEntity
  8
외형선
  6
Continuous
370
    15
100
AcDbLine
 10
1.999999999999996
 20
-4.761425071276111
 30
0.0
 11
7.924630657015598
 21
-3.173925071276107
 31
0.0
  0
LINE
  5
9E
330
1F
100
AcDbEntity
  8
외형선
  6
Continuous
370
    15
100
AcDbLine
 10
7.924630657015598
 20
3.176074928723893
 30
0.0
 11
1.999999999999996
 21
4.763574928723898
 31
0.0
  0
LINE
  5
9F
330
1F
100
AcDbEntity
  8
외형선
  6
Continuous
370
    15
100
AcDbLine
 10
-36.1603693429844
 20
-4.761425071276109
 30
0.0
 11
1.999999999999996
 21
-4.761425071276109
 31
0.0
  0
LINE
  5
A0
330
1F
100
AcDbEntity
  8
외형선
  6
Continuous
370
    15
100
AcDbLine
 10
1.999999999999996
 20
4.763574928723895
 30
0.0
 11
-12.43041934298428
 21
4.763574928723895
 31
0.0
  0
LINE
  5
A1
330
1F
100
AcDbEntity
  8
외형선
  6
Continuous
370
    15
100
AcDbLine
 10
-36.1603693429844
 20
4.763574928723893
 30
0.0
 11
-37.1128693429844
 21
3.811074928723895
 31
0.0
  0
LINE
  5
A2
330
1F
100
AcDbEntity
  8
외형선
  6
Continuous
370
    15
100
AcDbLine
 10
-37.1128693429844
 20
-3.808925071276108
 30
0.0
 11
-36.1603693429844
 21
-4.761425071276106
 31
0.0
  0
LINE
  5
A3
330
1F
100
AcDbEntity
  8
외형선
  6
Continuous
370
    15
100
AcDbLine
 10
7.924630657015598
 20
-3.173925071276107
 30
0.0
 11
8.52975215993248
 21
-3.173925071276107
 31
0.0
  0
LINE
  5
A4
330
1F
100
AcDbEntity
  8
외형선
  6
Continuous
370
    15
100
AcDbLine
 10
8.529752159932444
 20
3.176074928723893
 30
0.0
 11
7.924630657015598
 21
3.176074928723893
 31
0.0
  0
SPLINE
  5
A5
330
1F
100
AcDbEntity
  8
0
  6
Continuous
 62
     1
370
    15
100
AcDbSpline
210
0.0
220
0.0
230
1.0
 70
     8
 71
     3
 72
    23
 73
    19
 74
     0
 42
0.000000001
 43
0.00000001
 40
0.0
 40
0.0
 40
0.0
 40
0.0
 40
0.0623239502498972
 40
0.1246174429724624
 40
0.1868921917613516
 40
0.2491600044839954
 40
0.3114327239640826
 40
0.3737221682923541
 40
0.4401405020425157
 40
0.506568771456725
 40
0.5730087444467218
 40
0.6394485286507388
 40
0.705876635066634
 40
0.7722948326052984
 40
0.8387049044771484
 40
0.9051086456510143
 40
0.9715078602768404
 40
1.0
 40
1.0
 40
1.0
 40
1.0
 10
8.924630657015605
 20
3.167893872625962
 30
0.0
 10
9.344990589134344
 20
3.134411983072451
 30
0.0
 10
10.1855050247353
 20
3.067464566464309
 30
0.0
 10
11.445878788496
 20
2.762242428524604
 30
0.0
 10
12.70581070891856
 20
2.324535452020031
 30
0.0
 10
13.96556914161639
 20
1.762170476144808
 30
0.0
 10
15.22545496742472
 20
1.108533663720332
 30
0.0
 10
16.51337015128305
 20
0.3811066668704445
 30
0.0
 10
17.82954642170237
 20
-0.3843917245279437
 30
0.0
 10
19.17369591786246
 20
-1.143211595426734
 30
0.0
 10
20.5180677433407
 20
-1.834019847810584
 30
0.0
 10
21.86243295300268
 20
-2.415737946461885
 30
0.0
 10
23.20659113636766
 20
-2.854023466373102
 30
0.0
 10
24.55051233842809
 20
-3.121977434359002
 30
0.0
 10
25.89423553397844
 20
-3.206794321658603
 30
0.0
 10
27.23780488478581
 20
-3.091976529580637
 30
0.0
 10
28.32562756749762
 20
-2.877590266454943
 30
0.0
 10
28.96559756293406
 20
-2.651345173451081
 30
0.0
 10
29.1577553696563
 20
-2.583412674797538
 30
0.0
1001
PE_URL
1000

  0
SPLINE
  5
A6
330
1F
100
AcDbEntity
  8
0
  6
Continuous
 62
     1
370
    15
100
AcDbSpline
210
0.0
220
0.0
230
1.0
 70
     8
 71
     3
 72
    23
 73
    19
 74
     0
 42
0.000000001
 43
0.00000001
 40
0.0
 40
0.0
 40
0.0
 40
0.0
 40
0.0601270717303687
 40
0.1252570835657135
 40
0.1903879793718255
 40
0.2555215392334989
 40
0.3206595393613625
 40
0.3858037495159325
 40
0.4509559304516159
 40
0.516117831388535
 40
0.5812911875198574
 40
0.646464728838655
 40
0.7116267896669304
 40
0.7767791042177439
 40
0.8378812313101907
 40
0.8989669523516541
 40
0.9600478601648074
 40
1.0
 40
1.0
 40
1.0
 40
1.0
 10
32.50819980335399
 20
-3.167229731511812
 30
0.0
 10
32.09480795268031
 20
-3.154358462942386
 30
0.0
 10
31.23362752105346
 20
-3.127544957537913
 30
0.0
 10
29.92465894734097
 20
-2.855490798411806
 30
0.0
 10
28.58126489566532
 20
-2.422832434968078
 30
0.0
 10
27.23780517438741
 20
-1.841826772168274
 30
0.0
 10
25.89423545637903
 20
-1.152489618545625
 30
0.0
 10
24.55051235918992
 20
-0.3942785549196139
 30
0.0
 10
23.20659113093194
 20
0.3873762333461604
 30
0.0
 10
21.86243295397964
 20
1.14614884643187
 30
0.0
 10
20.51806774487036
 20
1.836858705554525
 30
0.0
 10
19.17369591076734
 20
2.418450153651786
 30
0.0
 10
17.82954644854626
 20
2.856522734585087
 30
0.0
 10
16.51337005365057
 20
3.118905403526417
 30
0.0
 10
15.22545530665896
 20
3.204901083115624
 30
0.0
 10
13.96556787327916
 20
3.116074053882679
 30
0.0
 10
12.85110852531536
 20
2.911398364795276
 30
0.0
 10
12.15654494016578
 20
2.680451779131167
 30
0.0
 10
11.88188924953559
 20
2.589127103694001
 30
0.0
1001
PE_URL
1000

  0
LINE
  5
A7
330
1F
100
AcDbEntity
  8
0
  6
Continuous
 62
     1
370
    15
100
AcDbLine
 10
40.67463065701561
 20
1.347144978127036
 30
0.0
 11
40.67463065701561
 21
3.164399156826323
 31
0.0
1001
PE_URL
1000

  0
SPLINE
  5
A8
330
1F
100
AcDbEntity
  8
0
  6
Continuous
 62
     1
370
    15
100
AcDbSpline
210
0.0
220
0.0
230
1.0
 70
     8
 71
     3
 72
    17
 73
    13
 74
     0
 42
0.000000001
 43
0.00000001
 40
0.0
 40
0.0
 40
0.0
 40
0.0
 40
0.1087593065520153
 40
0.2174654627575161
 40
0.3261389095917323
 40
0.4348002525437006
 40
0.5434701581033793
 40
0.6521692496001406
 40
0.7680735190189392
 40
0.8839951268113104
 40
0.9999371580970855
 40
1.0
 40
1.0
 40
1.0
 40
1.0
 10
8.924630657015605
 20
-0.2267029818447467
 30
0.0
 10
9.344990589185448
 20
-0.4675141697832087
 30
0.0
 10
10.18550502488861
 20
-0.9490188619557284
 30
0.0
 10
11.44587878788324
 20
-1.618535106314503
 30
0.0
 10
12.70581071121561
 20
-2.204122408602492
 30
0.0
 10
13.9655691330414
 20
-2.674063030447176
 30
0.0
 10
15.22545499943451
 20
-3.00449754787558
 30
0.0
 10
16.51337002843731
 20
-3.180368905675492
 30
0.0
 10
17.82954691415499
 20
-3.185463400794858
 30
0.0
 10
19.1736940834838
 20
-2.983295308567109
 30
0.0
 10
20.07016519302589
 20
-2.774919521260426
 30
0.0
 10
20.51855389756258
 20
-2.602476575762465
 30
0.0
 10
20.51879679769827
 20
-2.602383160352047
 30
0.0
1001
PE_URL
1000

  0
SPLINE
  5
A9
330
1F
100
AcDbEntity
  8
0
  6
Continuous
 62
     1
370
    15
100
AcDbSpline
210
0.0
220
0.0
230
1.0
 70
     8
 71
     3
 72
    12
 73
     8
 74
     0
 42
0.000000001
 43
0.00000001
 40
0.0
 40
0.0
 40
0.0
 40
0.0
 40
0.1372816736627617
 40
0.3529158352301066
 40
0.5685764247056418
 40
0.7842692318671338
 40
1.0
 40
1.0
 40
1.0
 40
1.0
 10
34.44296988264746
 20
3.154184779486832
 30
0.0
 10
34.72811826455115
 20
3.155386428377994
 30
0.0
 10
35.4611613334408
 20
3.158475558272487
 30
0.0
 10
36.64218108051939
 20
2.950276136372075
 30
0.0
 10
37.98610334932602
 20
2.56541237500609
 30
0.0
 10
39.33026336978443
 20
2.026197707117717
 30
0.0
 10
40.22648194184023
 20
1.573509165149374
 30
0.0
 10
40.67463065701562
 20
1.347144978127037
 30
0.0
1001
PE_URL
1000

  0
SPLINE
  5
AA
330
1F
100
AcDbEntity
  8
0
  6
Continuous
 62
     1
370
    15
100
AcDbSpline
210
0.0
220
0.0
230
1.0
 70
     8
 71
     3
 72
    10
 73
     6
 74
     0
 42
0.000000001
 43
0.00000001
 40
0.0
 40
0.0
 40
0.0
 40
0.0
 40
0.4665993082048783
 40
0.9331165114641595
 40
1.0
 40
1.0
 40
1.0
 40
1.0
 10
40.67463065701561
 20
3.164399156826323
 30
0.0
 10
40.22648258433456
 20
3.121345640353316
 30
0.0
 10
39.33026529715442
 20
3.035246183300722
 30
0.0
 10
38.36984503434277
 20
2.811541281916154
 30
0.0
 10
37.85757435789785
 20
2.61917782374891
 30
0.0
 10
37.79334037687332
 20
2.595057234205346
 30
0.0
1001
PE_URL
1000

  0
SPLINE
  5
AB
330
1F
100
AcDbEntity
  8
0
  6
Continuous
 62
     1
370
    15
100
AcDbSpline
210
0.0
220
0.0
230
1.0
 70
     8
 71
     3
 72
    19
 73
    15
 74
     0
 42
0.000000001
 43
0.00000001
 40
0.0
 40
0.0
 40
0.0
 40
0.0
 40
0.0444260858374765
 40
0.1343525156197127
 40
0.224294754098754
 40
0.3142372481450555
 40
0.4041638985847406
 40
0.4940770987118471
 40
0.578400853275782
 40
0.6627019667324048
 40
0.7469964377118832
 40
0.8313002983263788
 40
0.9156295333663469
 40
1.0
 40
1.0
 40
1.0
 40
1.0
 10
23.87067860299371
 20
-3.150259094792654
 30
0.0
 10
23.64933720813637
 20
-3.154904334672956
 30
0.0
 10
22.9799608125059
 20
-3.168952379910584
 30
0.0
 10
21.86243179218942
 20
-2.988026743898282
 30
0.0
 10
20.51806805440912
 20
-2.629901875425984
 30
0.0
 10
19.17369583451496
 20
-2.105492906525126
 30
0.0
 10
17.82954644407763
 20
-1.458547691026225
 30
0.0
 10
16.51337014570136
 20
-0.7393907053847772
 30
0.0
 10
15.22545496887914
 20
0.0043587383182985
 30
0.0
 10
13.96556914122676
 20
0.7317696989558186
 30
0.0
 10
12.70581070902292
 20
1.421704232490302
 30
0.0
 10
11.44587878846815
 20
2.034474383702762
 30
0.0
 10
10.18550502474226
 20
2.551829771131358
 30
0.0
 10
9.344990589136648
 20
2.780694342108215
 30
0.0
 10
8.924630657015598
 20
2.895154595787772
 30
0.0
1001
PE_URL
1000

  0
SPLINE
  5
AC
330
1F
100
AcDbEntity
  8
외형선
  6
Continuous
370
    15
100
AcDbSpline
210
0.0
220
0.0
230
1.0
 70
    24
 71
     3
 72
    21
 73
    17
 74
     0
 42
0.000000001
 43
0.00000001
 40
0.0
 40
0.0
 40
0.0
 40
0.0
 40
0.0504942754804068
 40
0.125388425102927
 40
0.2002825747254471
 40
0.2751767243479676
 40
0.350070873970488
 40
0.4249650235930085
 40
0.499859173215529
 40
0.5747533228380496
 40
0.64964747246057
 40
0.7245416220830909
 40
0.7994357717056118
 40
0.8743299213281318
 40
0.9492240709506519
 40
1.0
 40
1.0
 40
1.0
 40
1.0
 10
8.92463065701559
 20
2.895154595787766
 30
0.0
 10
8.924630657015612
 20
2.839700435553089
 30
0.0
 10
8.924630657015681
 20
2.701995522450028
 30
0.0
 10
8.924630657015605
 20
2.452326201815331
 30
0.0
 10
8.924630657015612
 20
2.151378661735683
 30
0.0
 10
8.924630657015598
 20
1.834675897682572
 30
0.0
 10
8.92463065701562
 20
1.51234532370182
 30
0.0
 10
8.924630657015605
 20
1.19329328168189
 30
0.0
 10
8.924630657015612
 20
0.8863035553475669
 30
0.0
 10
8.924630657015612
 20
0.6007769090940428
 30
0.0
 10
8.92463065701559
 20
0.3437393338566177
 30
0.0
 10
8.92463065701559
 20
0.1240229083246024
 30
0.0
 10
8.924630657015586
 20
-0.0544594656955375
 30
0.0
 10
8.924630657015586
 20
-0.1821842251200765
 30
0.0
 10
8.924630657015605
 20
-0.2581216069498971
 30
0.0
 10
8.924630657015605
 20
-0.266573956233995
 30
0.0
 10
8.924630657015598
 20
-0.2699890562489339
 30
0.0
  0
SPLINE
  5
AD
330
1F
100
AcDbEntity
  8
0
  6
Continuous
 62
     1
370
    15
100
AcDbSpline
210
0.0
220
0.0
230
1.0
 70
     8
 71
     3
 72
    23
 73
    19
 74
     0
 42
0.000000001
 43
0.00000001
 40
0.0
 40
0.0
 40
0.0
 40
0.0
 40
0.0321222314487199
 40
0.0972857145354919
 40
0.1624606783633641
 40
0.2276354569997192
 40
0.2927987801916455
 40
0.3579523831701818
 40
0.4230980151936309
 40
0.4882374370548304
 40
0.5533724185529248
 40
0.61850473593731
 40
0.6836361693316355
 40
0.7487685001457778
 40
0.81390350848385
 40
0.8790429705562323
 40
0.9441886561036957
 40
1.0
 40
1.0
 40
1.0
 40
1.0
 10
17.16689700411715
 20
3.152410233383276
 30
0.0
 10
17.38775575797871
 20
3.157072671219765
 30
0.0
 10
18.05665081015281
 20
3.171193377532596
 30
0.0
 10
19.17369966623586
 20
2.990465349218494
 30
0.0
 10
20.51806673853066
 20
2.632537617676822
 30
0.0
 10
21.86243322352715
 20
2.10827626828059
 30
0.0
 10
23.20659105890578
 20
1.46144848415683
 30
0.0
 10
24.550512377807
 20
0.727173720634962
 30
0.0
 10
25.89423545392308
 20
-0.0500144957726423
 30
0.0
 10
27.2378051655981
 20
-0.8241869393400006
 30
0.0
 10
28.58126493327494
 20
-1.549305100152246
 30
0.0
 10
29.92465880569794
 20
-2.182296011950823
 30
0.0
 10
31.26803077892489
 20
-2.685665990164387
 30
0.0
 10
32.61142503391172
 20
-3.029140045080234
 30
0.0
 10
33.95488526468199
 20
-3.19373238868326
 30
0.0
 10
35.29845672518199
 20
-3.164356172031829
 30
0.0
 10
36.57794600972974
 20
-2.972164713905346
 30
0.0
 10
37.40960208866844
 20
-2.712650865192735
 30
0.0
 10
37.79334037687332
 20
-2.592907376757559
 30
0.0
1001
PE_URL
1000

  0
SPLINE
  5
AE
330
1F
100
AcDbEntity
  8
0
  6
Continuous
 62
     1
370
    15
100
AcDbSpline
210
0.0
220
0.0
230
1.0
 70
     8
 71
     3
 72
    22
 73
    18
 74
     0
 42
0.000000001
 43
0.00000001
 40
0.0
 40
0.0
 40
0.0
 40
0.0
 40
0.0666965809613087
 40
0.1333814256875759
 40
0.2000563098063771
 40
0.2667230233191325
 40
0.3333833680504897
 40
0.4000391550613027
 40
0.4666922020330926
 40
0.5333443306320157
 40
0.5999973638604881
 40
0.6666531234046614
 40
0.7333134269859812
 40
0.7999800857250382
 40
0.8666549015258372
 40
0.9333396644885372
 40
1.0
 40
1.0
 40
1.0
 40
1.0
 10
40.67463065701561
 20
-3.162249299378536
 30
0.0
 10
40.22648192964894
 20
-3.12181922213909
 30
0.0
 10
39.33026333321269
 20
-3.040966181921265
 30
0.0
 10
37.9861034955739
 20
-2.688535988972095
 30
0.0
 10
36.6421805322064
 20
-2.189803831990729
 30
0.0
 10
35.29845612995818
 20
-1.557313774158678
 30
0.0
 10
33.95488542415351
 20
-0.8332346231307832
 30
0.0
 10
32.61142499118412
 20
-0.0593534215992872
 30
0.0
 10
31.26803079037515
 20
0.7180338780347842
 30
0.0
 10
29.92465880262299
 20
1.45285068493317
 30
0.0
 10
28.58126493412439
 20
2.101412182525174
 30
0.0
 10
27.23780516527539
 20
2.625274513267938
 30
0.0
 10
25.89423545436443
 20
2.993041546684686
 30
0.0
 10
24.55051237636419
 20
3.183864648285266
 30
0.0
 10
23.20659106423664
 20
3.182608573974865
 30
0.0
 10
21.86267609449704
 20
3.003444474498047
 30
0.0
 10
20.9667018522077
 20
2.73748726315689
 30
0.0
 10
20.51879679769827
 20
2.604533017799834
 30
0.0
1001
PE_URL
1000

  0
LINE
  5
AF
330
1F
100
AcDbEntity
  8
0
  6
Continuous
 62
     1
370
    15
100
AcDbLine
 10
40.67463065701561
 20
-2.874463355163101
 30
0.0
 11
40.67463065701561
 21
0.2731132126109249
 31
0.0
1001
PE_URL
1000

  0
SPLINE
  5
B0
330
1F
100
AcDbEntity
  8
0
  6
Continuous
 62
     1
370
    15
100
AcDbSpline
210
0.0
220
0.0
230
1.0
 70
     8
 71
     3
 72
    10
 73
     6
 74
     0
 42
0.000000001
 43
0.00000001
 40
0.0
 40
0.0
 40
0.0
 40
0.0
 40
0.4263982373208086
 40
0.8525880951034864
 40
0.9999999999999999
 40
0.9999999999999999
 40
0.9999999999999999
 40
0.9999999999999999
 10
8.924630657015605
 20
-3.165744015178177
 30
0.0
 10
9.344989927888419
 20
-3.130564828798332
 30
0.0
 10
10.18550304132069
 20
-3.060223648001385
 30
0.0
 10
11.17121762908682
 20
-2.841413921211114
 30
0.0
 10
11.73659178564913
 20
-2.638997057546355
 30
0.0
 10
11.88188924953564
 20
-2.586977246246214
 30
0.0
1001
PE_URL
1000

  0
SPLINE
  5
B1
330
1F
100
AcDbEntity
  8
0
  6
Continuous
 62
     1
370
    15
100
AcDbSpline
210
0.0
220
0.0
230
1.0
 70
     8
 71
     3
 72
    19
 73
    15
 74
     0
 42
0.000000001
 43
0.00000001
 40
0.0
 40
0.0
 40
0.0
 40
0.0
 40
0.0058737196902461
 40
0.0962426631800578
 40
0.1866054464843621
 40
0.2769645338218559
 40
0.3673223947860497
 40
0.4576815007548565
 40
0.5480443212946835
 40
0.6384133205701008
 40
0.7287909537702884
 40
0.8191796635632352
 40
0.9095818765886142
 40
1.0
 40
1.0
 40
1.0
 40
1.0
 10
25.80694483863089
 20
3.170338436180573
 30
0.0
 10
25.83605455145048
 20
3.172229050992464
 30
0.0
 10
26.31302594843728
 20
3.203207343137784
 30
0.0
 10
27.23780321617534
 20
3.086823044100305
 30
0.0
 10
28.58126545634557
 20
2.811612200775878
 30
0.0
 10
29.92465866269887
 20
2.348773248896538
 30
0.0
 10
31.26803082786803
 20
1.752014820437398
 30
0.0
 10
32.61142498113747
 20
1.049775239246195
 30
0.0
 10
33.95488542684573
 20
0.2855614854639309
 30
0.0
 10
35.29845612923674
 20
-0.4954447007821319
 30
0.0
 10
36.64218053239972
 20
-1.247834311811187
 30
0.0
 10
37.98610349552236
 20
-1.922776555400625
 30
0.0
 10
39.33026333322557
 20
-2.495704328152711
 30
0.0
 10
40.22648192965323
 20
-2.748202940373198
 30
0.0
 10
40.67463065701562
 20
-2.874463355163101
 30
0.0
1001
PE_URL
1000

  0
SPLINE
  5
B2
330
1F
100
AcDbEntity
  8
0
  6
Continuous
 62
     1
370
    15
100
AcDbSpline
210
0.0
220
0.0
230
1.0
 70
     8
 71
     3
 72
    16
 73
    12
 74
     0
 42
0.000000001
 43
0.00000001
 40
0.0
 40
0.0
 40
0.0
 40
0.0
 40
0.1167258457691134
 40
0.2334311519252267
 40
0.3501190259984046
 40
0.4667926006744109
 40
0.5834550293308685
 40
0.7001094815097072
 40
0.8167591383397019
 40
0.9334071879231471
 40
1.0
 40
1.0
 40
1.0
 40
1.0
 10
40.67463065701561
 20
0.2731132126109244
 30
0.0
 10
40.22648192962378
 20
0.5292311300423228
 30
0.0
 10
39.33026333313727
 20
1.041421897226477
 30
0.0
 10
37.98610349587552
 20
1.743605906013282
 30
0.0
 10
36.64218053107557
 20
2.343323070177405
 30
0.0
 10
35.29845613417923
 20
2.80367761403204
 30
0.0
 10
33.95488540840186
 20
3.097083061977693
 30
0.0
 10
32.6114250499649
 20
3.208459026463355
 30
0.0
 10
31.26803057101304
 20
3.122144652618694
 30
0.0
 10
30.11681675818841
 20
2.912214881530852
 30
0.0
 10
29.41339182514823
 20
2.672631253547159
 30
0.0
 10
29.15775536965635
 20
2.585562532245324
 30
0.0
1001
PE_URL
1000

  0
SPLINE
  5
B3
330
1F
100
AcDbEntity
  8
0
  6
Continuous
 62
     1
370
    15
100
AcDbSpline
210
0.0
220
0.0
230
1.0
 70
     8
 71
     3
 72
    13
 73
     9
 74
     0
 42
0.000000001
 43
0.00000001
 40
0.0
 40
0.0
 40
0.0
 40
0.0
 40
0.000907715816935
 40
0.200681820335337
 40
0.4004401837221109
 40
0.6002207983680959
 40
0.8000615445226531
 40
1.0
 40
1.0
 40
1.0
 40
1.0
 10
15.23107327500011
 20
-3.173549630813917
 30
0.0
 10
15.22916510437748
 20
-3.173674718463134
 30
0.0
 10
14.80729831863505
 20
-3.201329648208723
 30
0.0
 10
13.9655767975904
 20
-3.104549398001884
 30
0.0
 10
12.70580865804812
 20
-2.873419752214863
 30
0.0
 10
11.44587933559541
 20
-2.470358166021373
 30
0.0
 10
10.18550488786527
 20
-1.948273483332872
 30
0.0
 10
9.34499054350356
 20
-1.519228742326038
 30
0.0
 10
8.924630657015598
 20
-1.304653940792043
 30
0.0
1001
PE_URL
1000

  0
SPLINE
  5
B4
330
1F
100
AcDbEntity
  8
외형선
  6
Continuous
370
    15
100
AcDbSpline
210
0.0
220
0.0
230
1.0
 70
    24
 71
     3
 72
    14
 73
    10
 74
     0
 42
0.000000001
 43
0.00000001
 40
0.0
 40
0.0
 40
0.0
 40
0.0
 40
0.1284207567027214
 40
0.293586893533661
 40
0.4540981918399052
 40
0.6192643286708472
 40
0.7797756269770972
 40
0.944941763808034
 40
1.0
 40
1.0
 40
1.0
 40
1.0
 10
8.924630657015598
 20
-1.358544047586656
 30
0.0
 10
8.924630657015605
 20
-1.418386154405721
 30
0.0
 10
8.924630657015598
 20
-1.555193152702645
 30
0.0
 10
8.924630657015571
 20
-1.808450113136934
 30
0.0
 10
8.924630657015578
 20
-2.103910208252442
 30
0.0
 10
8.92463065701559
 20
-2.415467501600429
 30
0.0
 10
8.924630657015605
 20
-2.738226893936639
 30
0.0
 10
8.92463065701559
 20
-2.989029333327677
 30
0.0
 10
8.924630657015598
 20
-3.130399978300356
 30
0.0
 10
8.924630657015605
 20
-3.165744015178176
 30
0.0
  0
LINE
  5
B5
330
1F
100
AcDbEntity
  8
외형선
  6
Continuous
370
    15
100
AcDbLine
 10
8.924630657015586
 20
2.895154595787765
 30
0.0
 11
8.924630657015605
 21
3.167893872625961
 31
0.0
  0
LINE
  5
B6
330
1F
100
AcDbEntity
  8
0
  6
Continuous
 62
     1
370
    15
100
AcDbLine
 10
40.67463065701561
 20
-3.162249299378536
 30
0.0
 11
40.67463065701561
 21
-2.874463355163101
 31
0.0
1001
PE_URL
1000

  0
LINE
  5
B7
330
1F
100
AcDbEntity
  8
0
  6
Continuous
 62
     1
370
    15
100
AcDbLine
 10
40.67463065701561
 20
0.2731132126109249
 30
0.0
 11
40.67463065701561
 21
1.347144978127036
 31
0.0
1001
PE_URL
1000

  0
LINE
  5
B8
330
1F
100
AcDbEntity
  8
외형선
  6
Continuous
370
    15
100
AcDbLine
 10
8.924630657015586
 20
-1.304653940792049
 30
0.0
 11
8.924630657015605
 21
-0.2267029818447489
 31
0.0
  0
LINE
  5
B9
330
1F
100
AcDbEntity
  8
외형선
  6
Continuous
370
    15
100
AcDbLine
 10
7.924630657015598
 20
0.0010749287238931
 30
0.0
 11
7.924630657015598
 21
3.176074928723893
 31
0.0
  0
LINE
  5
BA
330
1F
100
AcDbEntity
  8
외형선
  6
Continuous
370
    15
100
AcDbLine
 10
7.924630657015598
 20
-3.173925071276109
 30
0.0
 11
7.924630657015598
 21
0.0010749287238931
 31
0.0
  0
LINE
  5
BB
330
1F
100
AcDbEntity
  8
외형선
  6
Continuous
370
    15
100
AcDbLine
 10
1.999999999999996
 20
0.0010749287238931
 30
0.0
 11
1.999999999999996
 21
4.763574928723898
 31
0.0
  0
LINE
  5
BC
330
1F
100
AcDbEntity
  8
외형선
  6
Continuous
370
    15
100
AcDbLine
 10
1.999999999999996
 20
-4.761425071276111
 30
0.0
 11
1.999999999999996
 21
0.0010749287238931
 31
0.0
  0
LINE
  5
BD
330
1F
100
AcDbEntity
  8
외형선
  6
Continuous
370
    15
100
AcDbLine
 10
-36.1603693429844
 20
0.0010749287238931
 30
0.0
 11
-36.1603693429844
 21
4.763574928723895
 31
0.0
  0
LINE
  5
BE
330
1F
100
AcDbEntity
  8
외형선
  6
Continuous
370
    15
100
AcDbLine
 10
-36.1603693429844
 20
-4.761425071276109
 30
0.0
 11
-36.1603693429844
 21
0.0010749287238931
 31
0.0
  0
LINE
  5
BF
330
1F
100
AcDbEntity
  8
외형선
  6
Continuous
370
    15
100
AcDbLine
 10
-37.1128693429844
 20
0.0010749287238931
 30
0.0
 11
-37.1128693429844
 21
3.811074928723896
 31
0.0
  0
LINE
  5
C0
330
1F
100
AcDbEntity
  8
외형선
  6
Continuous
370
    15
100
AcDbLine
 10
-37.1128693429844
 20
-3.808925071276112
 30
0.0
 11
-37.1128693429844
 21
0.0010749287238931
 31
0.0
  0
SPLINE
  5
C1
330
1F
100
AcDbEntity
  8
외형선
  6
Continuous
370
    15
100
AcDbSpline
210
0.0
220
0.0
230
1.0
 70
    24
 71
     3
 72
    21
 73
    17
 74
     0
 42
0.000000001
 43
0.00000001
 40
0.0
 40
0.0
 40
0.0
 40
0.0
 40
0.0267101294536909
 40
0.1007004119236325
 40
0.1768364175976595
 40
0.2508267000676176
 40
0.3269627057416629
 40
0.4009529882116128
 40
0.4770889938856493
 40
0.5510792763555985
 40
0.6272152820296342
 40
0.7012055644995784
 40
0.7773415701736094
 40
0.8513318526435648
 40
0.9274678583176074
 40
1.0
 40
1.0
 40
1.0
 40
1.0
 10
8.92463065701559
 20
-0.2689765591326642
 30
0.0
 10
8.92463065701559
 20
-0.2687982444220944
 30
0.0
 10
8.924630657015564
 20
-0.2681259764408567
 30
0.0
 10
8.924630657015586
 20
-0.2102501823573104
 30
0.0
 10
8.924630657015586
 20
-0.099018342402951
 30
0.0
 10
8.924630657015605
 20
0.0662910029135814
 30
0.0
 10
8.924630657015557
 20
0.273198660127051
 30
0.0
 10
8.924630657015626
 20
0.5208670615707155
 30
0.0
 10
8.92463065701559
 20
0.7974832263250915
 30
0.0
 10
8.92463065701559
 20
1.10028467458232
 30
0.0
 10
8.924630657015564
 20
1.415242505568068
 30
0.0
 10
8.924630657015571
 20
1.739055085438747
 30
0.0
 10
8.924630657015598
 20
2.056958535756823
 30
0.0
 10
8.92463065701559
 20
2.364811267422742
 30
0.0
 10
8.924630657015612
 20
2.64971692566784
 30
0.0
 10
8.92463065701562
 20
2.81467495473175
 30
0.0
 10
8.924630657015612
 20
2.895154595787785
 30
0.0
  0
SPLINE
  5
C2
330
1F
100
AcDbEntity
  8
외형선
  6
Continuous
370
    15
100
AcDbSpline
210
0.0
220
0.0
230
1.0
 70
     8
 71
     3
 72
     8
 73
     4
 74
     0
 42
0.000000001
 43
0.00000001
 40
0.0
 40
0.0
 40
0.0
 40
0.0
 40
1.0
 40
1.0
 40
1.0
 40
1.0
 10
8.924630657015598
 20
-0.2267029818447426
 30
0.0
 10
8.75897400195562
 20
-0.1309258455546023
 30
0.0
 10
8.59199171478449
 20
-0.0345804898909203
 30
0.0
 10
8.424709945212939
 20
0.0617390950152693
 30
0.0
  0
SPLINE
  5
C3
330
1F
100
AcDbEntity
  8
외형선
  6
Continuous
370
    15
100
AcDbSpline
210
0.0
220
0.0
230
1.0
 70
     8
 71
     3
 72
     8
 73
     4
 74
     0
 42
0.000000001
 43
0.00000001
 40
0.0
 40
0.0
 40
0.0
 40
0.0
 40
1.0
 40
1.0
 40
1.0
 40
1.0
 10
8.924630657015578
 20
2.895154595787775
 30
0.0
 10
8.758974001955599
 20
2.934645003704655
 30
0.0
 10
8.591991714784468
 20
2.970261553003859
 30
0.0
 10
8.424709945212918
 20
3.001744727102787
 30
0.0
  0
LINE
  5
C4
330
1F
100
AcDbEntity
  8
외형선
  6
Continuous
370
    15
100
AcDbLine
 10
8.424709945212932
 20
-3.173345687467883
 30
0.0
 11
8.424709945212939
 21
-1.03651923848007
 31
0.0
  0
SPLINE
  5
C5
330
1F
100
AcDbEntity
  8
외형선
  6
Continuous
370
    15
100
AcDbSpline
210
0.0
220
0.0
230
1.0
 70
     8
 71
     3
 72
     8
 73
     4
 74
     0
 42
0.000000001
 43
0.00000001
 40
0.0
 40
0.0
 40
0.0
 40
0.0
 40
1.0
 40
1.0
 40
1.0
 40
1.0
 10
8.924630657015598
 20
-3.165744015178175
 30
0.0
 10
8.75897400195562
 20
-3.172632920534265
 30
0.0
 10
8.59199171478449
 20
-3.175186165979559
 30
0.0
 10
8.424709945212939
 20
-3.173345468597196
 30
0.0
  0
LINE
  5
C6
330
1F
100
AcDbEntity
  8
외형선
  6
Continuous
370
    15
100
AcDbLine
 10
8.529752159932444
 20
3.173898125762278
 30
0.0
 11
8.924630657015598
 21
3.16789387262596
 31
0.0
  0
LINE
  5
C7
330
1F
100
AcDbEntity
  8
외형선
  6
Continuous
370
    15
100
AcDbLine
 10
8.424709945212932
 20
0.0617276409189608
 30
0.0
 11
8.424709945212939
 21
3.001745411163484
 31
0.0
  0
SPLINE
  5
C8
330
1F
100
AcDbEntity
  8
외형선
  6
Continuous
370
    15
100
AcDbSpline
210
0.0
220
0.0
230
1.0
 70
     8
 71
     3
 72
     8
 73
     4
 74
     0
 42
0.000000001
 43
0.00000001
 40
0.0
 40
0.0
 40
0.0
 40
0.0
 40
1.0
 40
1.0
 40
1.0
 40
1.0
 10
8.924630657015578
 20
-1.304653940792032
 30
0.0
 10
8.758974001955599
 20
-1.217125519490702
 30
0.0
 10
8.591991714784468
 20
-1.127568788664471
 30
0.0
 10
8.424709945212918
 20
-1.036521216747313
 30
0.0
  0
SPLINE
  5
C9
330
1F
100
AcDbEntity
  8
외형선
  6
Continuous
370
    15
100
AcDbSpline
210
0.0
220
0.0
230
1.0
 70
    24
 71
     3
 72
    19
 73
    15
 74
     0
 42
0.000000001
 43
0.00000001
 40
0.0
 40
0.0
 40
0.0
 40
0.0
 40
0.0818693464100276
 40
0.1643324881995579
 40
0.2486727474636474
 40
0.3336627142556998
 40
0.4137861628521353
 40
0.5767552976069843
 40
0.65979591262235
 40
0.7399193612188042
 40
0.8205991208337683
 40
0.9030334546294927
 40
0.9860740696448786
 40
1.0
 40
1.0
 40
1.0
 40
1.0
 10
8.924630657015605
 20
-3.165744015178175
 30
0.0
 10
8.924630657015578
 20
-3.113137456926359
 30
0.0
 10
8.924630657015536
 20
-3.007542786977008
 30
0.0
 10
8.924630657015605
 20
-2.844847549580122
 30
0.0
 10
8.924630657015655
 20
-2.679447392180274
 30
0.0
 10
8.924630657015571
 20
-2.51585058228864
 30
0.0
 10
8.924630657015634
 20
-2.302855342455987
 30
0.0
 10
8.924630657015598
 20
-2.095913926110379
 30
0.0
 10
8.92463065701559
 20
-1.899098572712042
 30
0.0
 10
8.924630657015605
 20
-1.757819849162314
 30
0.0
 10
8.924630657015598
 20
-1.623415091521568
 30
0.0
 10
8.924630657015626
 20
-1.49616598644371
 30
0.0
 10
8.924630657015586
 20
-1.407477883613747
 30
0.0
 10
8.924630657015571
 20
-1.364689182214259
 30
0.0
 10
8.924630657015586
 20
-1.358544047586656
 30
0.0
  0
LINE
  5
CA
330
1F
100
AcDbEntity
  8
중심선
 62
     1
100
AcDbLine
 10
-40.1128693429844
 20
0.0010749287238892
 30
0.0
 11
43.67463065701562
 21
0.0010749287238995
 31
0.0
  0
LINE
  5
CB
330
1F
100
AcDbEntity
  8
참조1
100
AcDbLine
 10
1.780880657015612
 20
0.0010749287238892
 30
0.0
 11
1.780880657015615
 21
-39.99892507127611
 31
0.0
  0
LINE
  5
CC
330
1F
100
AcDbEntity
  8
참조1
100
AcDbLine
 10
1.780880657015615
 20
-39.99892507127611
 30
0.0
 11
-22.90297615729307
 21
-39.9989250712761
 31
0.0
  0
CIRCLE
  5
CD
330
1F
100
AcDbEntity
  8
해칭선
100
AcDbCircle
 10
0.0
 20
0.0
 30
0.0
 40
3.000000000000001
  0
INSERT
  5
CE
330
1F
100
AcDbEntity
  8
0
  6
Continuous
 62
     7
100
AcDbBlockReference
 66
     1
  2
블럭10
 10
-12.1593922751096
 20
-52.04609937292004
 30
0.0
  0
ATTRIB
  5
CF
330
CE
100
AcDbEntity
  8
FORMAT
 62
     2
100
AcDbText
 10
-21.34068756385088
 20
-49.97073246008785
 30
0.0
 40
4.233333333333333
  1
E1040016 [ 4 FLUTE ]
 41
0.75
  7
SLDTEXTSTYLE0
 11
-21.34068756385088
 21
-52.08739912675452
 31
0.0
100
AcDbAttribute
  2
AUTOATTR0
 70
     0
 74
     1
  0
SEQEND
  5
D0
330
CE
100
AcDbEntity
  8
0
  6
Continuous
 62
     7
  0
HATCH
  5
D1
330
1F
100
AcDbEntity
  8
중심선
100
AcDbHatch
 10
0.0
 20
0.0
 30
0.0
210
0.0
220
0.0
230
1.0
  2
SOLID
 70
     1
 71
     0
 91
        1
 92
        0
 93
        4
 72
     1
 10
-6.444482970728758
 20
-35.7989250712761
 11
-9.89075821456604
 21
-35.7989250712761
 72
     1
 10
-9.89075821456604
 20
-35.7989250712761
 11
-12.01898807377006
 21
-38.33525065184873
 72
     1
 10
-12.01898807377006
 20
-38.33525065184873
 11
-8.572679744819604
 21
-38.33521122254624
 72
     1
 10
-8.572679744819604
 20
-38.33521122254624
 11
-6.444482970728759
 21
-35.7989250712761
 97
        0
 75
     0
 76
     1
 98
        1
 10
-2.749630657015565
 20
0.0
  0
HATCH
  5
D2
330
1F
100
AcDbEntity
  8
중심선
100
AcDbHatch
 10
0.0
 20
0.0
 30
0.0
210
0.0
220
0.0
230
1.0
  2
SOLID
 70
     1
 71
     0
 91
        1
 92
        0
 93
        4
 72
     1
 10
-1.431718979692779
 20
-35.7989250712761
 11
-4.87799422353006
 21
-35.7989250712761
 72
     1
 10
-4.877994223530061
 20
-35.7989250712761
 11
-9.409132231887478
 21
-41.19892507127612
 72
     1
 10
-9.409132231887478
 20
-41.19892507127612
 11
-5.962856988050195
 21
-41.19892507127612
 72
     1
 10
-5.962856988050195
 20
-41.19892507127612
 11
-1.431718979692779
 21
-35.7989250712761
 97
        0
 75
     0
 76
     1
 98
        1
 10
-2.749630657015565
 20
0.0
  0
HATCH
  5
D3
330
1F
100
AcDbEntity
  8
중심선
100
AcDbHatch
 10
0.0
 20
0.0
 30
0.0
210
0.0
220
0.0
230
1.0
  2
SOLID
 70
     1
 71
     0
 91
        1
 92
        0
 93
        4
 72
     1
 10
3.581045011343089
 20
-35.7989250712761
 11
0.1347697675060009
 21
-35.7989250712761
 72
     1
 10
0.1347697675060009
 20
-35.7989250712761
 11
-6.913667134383276
 21
-44.19892507127612
 72
     1
 10
-6.913667134383276
 20
-44.19892507127612
 11
-3.467391890545994
 21
-44.19892507127612
 72
     1
 10
-3.467391890545994
 20
-44.19892507127612
 11
3.581045011343089
 21
-35.7989250712761
 97
        0
 75
     0
 76
     1
 98
        1
 10
-2.749630657015565
 20
0.0
  0
HATCH
  5
D4
330
1F
100
AcDbEntity
  8
중심선
100
AcDbHatch
 10
0.0
 20
0.0
 30
0.0
210
0.0
220
0.0
230
1.0
  2
SOLID
 70
     1
 71
     0
 91
        1
 92
        0
 93
        6
 72
     3
 10
8.380935442355288
 20
-39.99892507132738
 11
3.960054785062283
 21
1.540882976769353E-10
 40
0.3939339440162628
 50
17.09539180608437
 51
320.0019657685082
 73
     0
 72
     1
 10
10.06393509805586
 20
-38.58681907591443
 11
12.36923697175692
 21
-36.65249236586651
 72
     3
 10
8.380935442302441
 20
-39.99892507127625
 11
6.600054785286829
 21
-1.278976924368180E-13
 40
0.636358354079598
 50
39.99873849337382
 51
368.4976242363725
 73
     1
 72
     1
 10
14.80626793420305
 20
-39.03892507120613
 11
7.061002749138392
 21
-39.03892507120613
 72
     1
 10
7.061002749138392
 20
-39.03892507120613
 11
7.06097770469243
 21
-40.95892507120602
 72
     1
 10
7.06097770469243
 20
-40.95892507120602
 11
11.50235747416447
 21
-40.95892507120599
 97
        0
 75
     0
 76
     1
 98
        1
 10
-2.749630657015565
 20
0.0
  0
DIMENSION
  5
D5
330
1F
100
AcDbEntity
  8
치수문자_일반주서
100
AcDbDimension
  2
_D
 10
8.924630657015609
 20
14.76357492872389
 30
0.0
 11
24.79963065701561
 21
14.76357492872389
 31
0.0
 70
   160
  1
<>
 71
     2
 42
31.75
  3
SLDDIMSTYLE0
100
AcDbAlignedDimension
 13
40.67463065701561
 23
3.164399156826323
 33
0.0
 14
8.924630657015609
 24
3.167893872625961
 34
0.0
100
AcDbRotatedDimension
1001
PE_URL
1000

1001
ACAD
1000
DSTYLE
1002
{
1070
   171
1070
     8
1070
   273
1070
     7
1002
}
  0
DIMENSION
  5
EA
330
1F
100
AcDbEntity
  8
치수문자_일반주서
100
AcDbDimension
  2
_D_1
 10
-37.1128693429844
 20
24.76357492872389
 30
0.0
 11
1.780880657015594
 21
24.76357492872389
 31
0.0
 70
   160
  1
<>
 71
     2
 42
77.7875
  3
SLDDIMSTYLE0
100
AcDbAlignedDimension
 13
40.67463065701561
 23
3.164399156826323
 33
0.0
 14
-37.1128693429844
 24
3.811074928723895
 34
0.0
100
AcDbRotatedDimension
1001
PE_URL
1000

1001
ACAD
1000
DSTYLE
1002
{
1070
   171
1070
     8
1070
   273
1070
     7
1002
}
  0
DIMENSION
  5
FD
330
1F
100
AcDbEntity
  8
치수문자_일반주서
100
AcDbDimension
  2
_D_2
 10
-47.11286934298435
 20
-4.76142507127615
 30
0.0
 11
-47.11286934298445
 21
21.19057492872385
 31
0.0
 70
   160
  1
%%c<>
 71
     2
 42
9.525000000000006
 52
-270.0
  3
SLDDIMSTYLE0
100
AcDbAlignedDimension
 13
-36.1603693429844
 23
4.763574928723896
 33
0.0
 14
-36.1603693429844
 24
-4.761425071276109
 34
0.0
 50
90.0000000000002
100
AcDbRotatedDimension
1001
PE_URL
1000

1001
ACAD
1000
DSTYLE
1002
{
1070
   171
1070
     8
1070
   273
1070
     7
1002
}
1001
ACAD_DSTYLE_DIMFLIPARROW_SYMBOL
1070
   385
1070
     0
1001
ACAD_DSTYLE_DIMFLIPARROW_WHICH_SYMBOL
1070
   386
1070
     3
  0
DIMENSION
  5
112
330
1F
100
AcDbEntity
  8
치수문자_일반주서
100
AcDbDimension
  2
_D_3
 10
50.67463065701559
 20
3.164399156826359
 30
0.0
 11
50.67463065701553
 21
22.45589915682636
 31
0.0
 70
   160
  1
%%c<>
 71
     2
 42
6.326648456204859
 52
-270.0
  3
SLDDIMSTYLE0
100
AcDbAlignedDimension
 13
40.67463065701561
 23
-3.162249299378536
 33
0.0
 14
40.67463065701561
 24
3.164399156826323
 34
0.0
 50
90.0000000000002
100
AcDbRotatedDimension
1001
PE_URL
1000

1001
ACAD
1000
DSTYLE
1002
{
1070
   171
1070
     8
1070
   273
1070
     7
1002
}
  0
LINE
  5
126
330
1F
100
AcDbEntity
  8
참조1
100
AcDbLine
 10
75.0693644723612
 20
7.441074928723896
 30
0.0
 11
75.0693644723612
 21
-7.438925071276109
 31
0.0
  0
LINE
  5
127
330
1F
100
AcDbEntity
  8
참조1
100
AcDbLine
 10
87.7693644723612
 20
5.441074928723896
 30
0.0
 11
75.0693644723612
 21
5.441074928723896
 31
0.0
  0
SOLID
  5
128
330
1F
100
AcDbEntity
  8
참조1
100
AcDbTrace
 10
75.0693644723612
 20
5.441074928723896
 30
0.0
 11
81.4193644723612
 21
4.425074928723896
 31
0.0
 12
81.4193644723612
 22
6.457074928723896
 32
0.0
 13
81.4193644723612
 23
6.457074928723896
 33
0.0
  0
LINE
  5
129
330
1F
100
AcDbEntity
  8
참조1
100
AcDbLine
 10
87.7693644723612
 20
-5.438925071276109
 30
0.0
 11
75.0693644723612
 21
-5.438925071276109
 31
0.0
  0
SOLID
  5
12A
330
1F
100
AcDbEntity
  8
참조1
100
AcDbTrace
 10
75.0693644723612
 20
-5.438925071276109
 30
0.0
 11
81.4193644723612
 21
-6.454925071276109
 31
0.0
 12
81.4193644723612
 22
-4.422925071276109
 32
0.0
 13
81.4193644723612
 23
-4.422925071276109
 33
0.0
  0
MTEXT
  5
12B
330
1F
100
AcDbEntity
  8
참조1
100
AcDbMText
 10
84.4537146049872
 20
11.01136670591222
 30
0.0
 40
3.5
 41
0.0
 71
     1
 72
     1
  1
A
  7
SLDTEXTSTYLE0
 73
     1
 44
1.0
  0
MTEXT
  5
12C
330
1F
100
AcDbEntity
  8
참조1
100
AcDbMText
 10
84.4537146049872
 20
0.1313667059122201
 30
0.0
 40
3.5
 41
0.0
 71
     1
 72
     1
  1
A
  7
SLDTEXTSTYLE0
 73
     1
 44
1.0
  0
INSERT
  5
133
330
1F
100
AcDbEntity
  8
해칭선
100
AcDbBlockReference
  2
SW_DOWELSYMBOL_0
 10
0.0
 20
0.0
 30
0.0
  0
LINE
  5
1DB
330
1F
100
AcDbEntity
  8
외형선
  6
Continuous
370
    15
100
AcDbLine
 10
-20.83781934298451
 20
3.493574928723898
 30
0.0
 11
-13.70041934298438
 21
3.493574928723898
 31
0.0
1001
PE_URL
1000

  0
LINE
  5
1DC
330
1F
100
AcDbEntity
  8
외형선
  6
Continuous
370
    15
100
AcDbLine
 10
-20.83781934298451
 20
3.493574928723898
 30
0.0
 11
-22.10781934298449
 21
4.76357492872388
 31
0.0
1001
PE_URL
1000

  0
LINE
  5
1DD
330
1F
100
AcDbEntity
  8
외형선
  6
Continuous
370
    15
100
AcDbLine
 10
-13.70041934298438
 20
3.493574928723898
 30
0.0
 11
-12.43041934298429
 21
4.76357492872388
 31
0.0
1001
PE_URL
1000

  0
LINE
  5
1DE
330
1F
100
AcDbEntity
  8
외형선
  6
Continuous
370
    15
100
AcDbLine
 10
-22.10781934298451
 20
4.763574928723895
 30
0.0
 11
-36.1603693429844
 21
4.763574928723895
 31
0.0
  0
ENDSEC
  0
SECTION
  2
OBJECTS
  0
DICTIONARY
  5
C
330
0
100
AcDbDictionary
281
     1
  3
ACAD_GROUP
350
D
  3
ACAD_LAYOUT
350
1A
  3
ACAD_MLINESTYLE
350
17
  3
ACAD_PLOTSETTINGS
350
19
  3
ACAD_PLOTSTYLENAME
350
E
  3
ACAD_SCALELIST
350
47
  3
APPDATA
350
155
  3
DWGPROPS
350
1E6
  0
DICTIONARY
  5
17E
330
2
100
AcDbDictionary
280
     1
281
     1
  3
ACAD_LAYERSTATES
360
17F
  0
DICTIONARY
  5
D
102
{ACAD_REACTORS
330
C
102
}
330
C
100
AcDbDictionary
281
     1
  0
DICTIONARY
  5
1A
102
{ACAD_REACTORS
330
C
102
}
330
C
100
AcDbDictionary
281
     1
  3
Layout1
350
1E
  3
Layout2
350
26
  3
Model
350
22
  0
DICTIONARY
  5
17
102
{ACAD_REACTORS
330
C
102
}
330
C
100
AcDbDictionary
281
     1
  3
Standard
350
18
  0
DICTIONARY
  5
19
102
{ACAD_REACTORS
330
C
102
}
330
C
100
AcDbDictionary
281
     1
  0
ACDBDICTIONARYWDFLT
  5
E
102
{ACAD_REACTORS
330
C
102
}
330
C
100
AcDbDictionary
281
     1
  3
Normal
350
F
100
AcDbDictionaryWithDefault
340
F
  0
DICTIONARY
  5
47
102
{ACAD_REACTORS
330
C
102
}
330
C
100
AcDbDictionary
281
     1
  3
A0
350
48
  3
A1
350
49
  3
A2
350
4A
  3
A3
350
4B
  3
A4
350
4C
  3
A5
350
4D
  3
A6
350
4E
  3
A7
350
4F
  3
A8
350
50
  3
A9
350
51
  3
B0
350
52
  3
B1
350
53
  3
B2
350
54
  3
B3
350
55
  3
B4
350
56
  3
B5
350
57
  3
B6
350
58
  3
B7
350
59
  3
B8
350
5A
  3
B9
350
5B
  3
C0
350
5C
  3
C1
350
5D
  3
C2
350
5E
  3
C3
350
5F
  3
C4
350
60
  3
C5
350
61
  3
C6
350
62
  3
C7
350
63
  3
C8
350
64
  3
C9
350
65
  3
D0
350
66
  3
D1
350
67
  3
D2
350
68
  0
DICTIONARY
  5
155
102
{ACAD_REACTORS
330
C
102
}
330
C
100
AcDbDictionary
281
     1
  0
XRECORD
  5
1E6
102
{ACAD_REACTORS
330
C
102
}
330
C
100
AcDbXrecord
280
     1
  1
DWGPROPS COOKIE
  2

  3

  4

  6

  7

  8
120170442
  9

300
=
301
=
302
=
303
=
304
=
305
=
306
=
307
=
308
=
309
=
 40
0.0
 41
2458312.25449684
 42
2458323.260603449
  1

 90
        0
  0
DICTIONARY
  5
17F
102
{ACAD_REACTORS
330
17E
102
}
330
17E
100
AcDbDictionary
281
     1
  0
LAYOUT
  5
1E
102
{ACAD_REACTORS
330
1A
102
}
330
1A
100
AcDbPlotSettings
  1

  2
none_device
  4

  6

 40
0.0
 41
0.0
 42
0.0
 43
0.0
 44
0.0
 45
0.0
 46
0.0
 47
0.0
 48
0.0
 49
0.0
140
0.0
141
0.0
142
1.0
143
1.0
 70
   688
 72
     1
 73
     0
 74
     5
  7

 75
    16
147
1.0
148
0.0
149
0.0
100
AcDbLayout
  1
Layout1
 70
     1
 71
     1
 10
0.0
 20
0.0
 11
420.0
 21
297.0
 12
0.0
 22
0.0
 32
0.0
 14
1.000000000000000E+20
 24
1.000000000000000E+20
 34
1.000000000000000E+20
 15
-1.000000000000000E+20
 25
-1.000000000000000E+20
 35
-1.000000000000000E+20
146
0.0
 13
0.0
 23
0.0
 33
0.0
 16
1.0
 26
0.0
 36
0.0
 17
0.0
 27
1.0
 37
0.0
 76
     0
330
1B
  0
LAYOUT
  5
26
102
{ACAD_REACTORS
330
1A
102
}
330
1A
100
AcDbPlotSettings
  1

  2
none_device
  4

  6

 40
0.0
 41
0.0
 42
0.0
 43
0.0
 44
0.0
 45
0.0
 46
0.0
 47
0.0
 48
0.0
 49
0.0
140
0.0
141
0.0
142
1.0
143
1.0
 70
   688
 72
     1
 73
     0
 74
     5
  7

 75
    16
147
1.0
148
0.0
149
0.0
100
AcDbLayout
  1
Layout2
 70
     1
 71
     2
 10
0.0
 20
0.0
 11
0.0
 21
0.0
 12
0.0
 22
0.0
 32
0.0
 14
0.0
 24
0.0
 34
0.0
 15
0.0
 25
0.0
 35
0.0
146
0.0
 13
0.0
 23
0.0
 33
0.0
 16
1.0
 26
0.0
 36
0.0
 17
0.0
 27
1.0
 37
0.0
 76
     0
330
23
  0
LAYOUT
  5
22
102
{ACAD_REACTORS
330
1A
102
}
330
1A
100
AcDbPlotSettings
  1

  2
none_device
  4
ANSI_A_(11.00_x_8.50_Inches)
  6

 40
6.35
 41
19.05
 42
6.35000508
 43
19.05000254
 44
279.4
 45
215.9
 46
91.76590650608912
 47
90.6334538581928
 48
0.0
 49
0.0
140
0.0
141
0.0
142
0.0674466986454661
143
1.0
 70
  1696
 72
     0
 73
     0
 74
     0
  7

 75
     0
147
0.0235690232323232
148
0.0
149
0.0
100
AcDbLayout
  1
Model
 70
     1
 71
     0
 10
0.0
 20
0.0
 11
420.0
 21
297.0
 12
0.0
 22
0.0
 32
0.0
 14
-51.48786934298448
 24
-49.97073246008785
 34
0.0
 15
87.7693644723612
 25
35.14339915682646
 35
0.0
146
0.0
 13
0.0
 23
0.0
 33
0.0
 16
1.0
 26
0.0
 36
0.0
 17
0.0
 27
1.0
 37
0.0
 76
     0
330
1F
331
29
  0
MLINESTYLE
  5
18
102
{ACAD_REACTORS
330
17
102
}
330
17
100
AcDbMlineStyle
  2
Standard
 70
     0
  3

 62
   256
 51
90.0
 52
90.0
 71
     2
 49
0.5
 62
   256
  6
BYLAYER
 49
-0.5
 62
   256
  6
BYLAYER
  0
ACDBPLACEHOLDER
  5
F
102
{ACAD_REACTORS
330
E
102
}
330
E
  0
SCALE
  5
48
102
{ACAD_REACTORS
330
47
102
}
330
47
100
AcDbScale
 70
     0
300
1:1
140
1.0
141
1.0
290
     1
  0
SCALE
  5
49
102
{ACAD_REACTORS
330
47
102
}
330
47
100
AcDbScale
 70
     0
300
1:2
140
1.0
141
2.0
290
     0
  0
SCALE
  5
4A
102
{ACAD_REACTORS
330
47
102
}
330
47
100
AcDbScale
 70
     0
300
1:4
140
1.0
141
4.0
290
     0
  0
SCALE
  5
4B
102
{ACAD_REACTORS
330
47
102
}
330
47
100
AcDbScale
 70
     0
300
1:5
140
1.0
141
5.0
290
     0
  0
SCALE
  5
4C
102
{ACAD_REACTORS
330
47
102
}
330
47
100
AcDbScale
 70
     0
300
1:8
140
1.0
141
8.0
290
     0
  0
SCALE
  5
4D
102
{ACAD_REACTORS
330
47
102
}
330
47
100
AcDbScale
 70
     0
300
1:10
140
1.0
141
10.0
290
     0
  0
SCALE
  5
4E
102
{ACAD_REACTORS
330
47
102
}
330
47
100
AcDbScale
 70
     0
300
1:16
140
1.0
141
16.0
290
     0
  0
SCALE
  5
4F
102
{ACAD_REACTORS
330
47
102
}
330
47
100
AcDbScale
 70
     0
300
1:20
140
1.0
141
20.0
290
     0
  0
SCALE
  5
50
102
{ACAD_REACTORS
330
47
102
}
330
47
100
AcDbScale
 70
     0
300
1:30
140
1.0
141
30.0
290
     0
  0
SCALE
  5
51
102
{ACAD_REACTORS
330
47
102
}
330
47
100
AcDbScale
 70
     0
300
1:40
140
1.0
141
40.0
290
     0
  0
SCALE
  5
52
102
{ACAD_REACTORS
330
47
102
}
330
47
100
AcDbScale
 70
     0
300
1:50
140
1.0
141
50.0
290
     0
  0
SCALE
  5
53
102
{ACAD_REACTORS
330
47
102
}
330
47
100
AcDbScale
 70
     0
300
1:100
140
1.0
141
100.0
290
     0
  0
SCALE
  5
54
102
{ACAD_REACTORS
330
47
102
}
330
47
100
AcDbScale
 70
     0
300
2:1
140
2.0
141
1.0
290
     0
  0
SCALE
  5
55
102
{ACAD_REACTORS
330
47
102
}
330
47
100
AcDbScale
 70
     0
300
4:1
140
4.0
141
1.0
290
     0
  0
SCALE
  5
56
102
{ACAD_REACTORS
330
47
102
}
330
47
100
AcDbScale
 70
     0
300
8:1
140
8.0
141
1.0
290
     0
  0
SCALE
  5
57
102
{ACAD_REACTORS
330
47
102
}
330
47
100
AcDbScale
 70
     0
300
10:1
140
10.0
141
1.0
290
     0
  0
SCALE
  5
58
102
{ACAD_REACTORS
330
47
102
}
330
47
100
AcDbScale
 70
     0
300
100:1
140
100.0
141
1.0
290
     0
  0
SCALE
  5
59
102
{ACAD_REACTORS
330
47
102
}
330
47
100
AcDbScale
 70
     0
300
1/128" = 1'-0"
140
0.0078125
141
12.0
290
     0
  0
SCALE
  5
5A
102
{ACAD_REACTORS
330
47
102
}
330
47
100
AcDbScale
 70
     0
300
1/64" = 1'-0"
140
0.015625
141
12.0
290
     0
  0
SCALE
  5
5B
102
{ACAD_REACTORS
330
47
102
}
330
47
100
AcDbScale
 70
     0
300
1/32" = 1'-0"
140
0.03125
141
12.0
290
     0
  0
SCALE
  5
5C
102
{ACAD_REACTORS
330
47
102
}
330
47
100
AcDbScale
 70
     0
300
1/16" = 1'-0"
140
0.0625
141
12.0
290
     0
  0
SCALE
  5
5D
102
{ACAD_REACTORS
330
47
102
}
330
47
100
AcDbScale
 70
     0
300
3/32" = 1'-0"
140
0.09375
141
12.0
290
     0
  0
SCALE
  5
5E
102
{ACAD_REACTORS
330
47
102
}
330
47
100
AcDbScale
 70
     0
300
1/8" = 1'-0"
140
0.125
141
12.0
290
     0
  0
SCALE
  5
5F
102
{ACAD_REACTORS
330
47
102
}
330
47
100
AcDbScale
 70
     0
300
3/16" = 1'-0"
140
0.1875
141
12.0
290
     0
  0
SCALE
  5
60
102
{ACAD_REACTORS
330
47
102
}
330
47
100
AcDbScale
 70
     0
300
1/4" = 1'-0"
140
0.25
141
12.0
290
     0
  0
SCALE
  5
61
102
{ACAD_REACTORS
330
47
102
}
330
47
100
AcDbScale
 70
     0
300
3/8" = 1'-0"
140
0.375
141
12.0
290
     0
  0
SCALE
  5
62
102
{ACAD_REACTORS
330
47
102
}
330
47
100
AcDbScale
 70
     0
300
1/2" = 1'-0"
140
0.5
141
12.0
290
     0
  0
SCALE
  5
63
102
{ACAD_REACTORS
330
47
102
}
330
47
100
AcDbScale
 70
     0
300
3/4" = 1'-0"
140
0.75
141
12.0
290
     0
  0
SCALE
  5
64
102
{ACAD_REACTORS
330
47
102
}
330
47
100
AcDbScale
 70
     0
300
1" = 1'-0"
140
1.0
141
12.0
290
     0
  0
SCALE
  5
65
102
{ACAD_REACTORS
330
47
102
}
330
47
100
AcDbScale
 70
     0
300
1-1/2" = 1'-0"
140
1.5
141
12.0
290
     0
  0
SCALE
  5
66
102
{ACAD_REACTORS
330
47
102
}
330
47
100
AcDbScale
 70
     0
300
3" = 1'-0"
140
3.0
141
12.0
290
     0
  0
SCALE
  5
67
102
{ACAD_REACTORS
330
47
102
}
330
47
100
AcDbScale
 70
     0
300
6" = 1'-0"
140
6.0
141
12.0
290
     0
  0
SCALE
  5
68
102
{ACAD_REACTORS
330
47
102
}
330
47
100
AcDbScale
 70
     0
300
1'-0" = 1'-0"
140
12.0
141
12.0
290
     0
  0
ENDSEC
  0
EOF
