  0
SECTION
  2
HEADER
  9
$ACADVER
  1
AC1015
  9
$ACADMAINTVER
 70
     6
  9
$DWGCODEPAGE
  3
ANSI_949
  9
$INSBASE
 10
0.0
 20
0.0
 30
0.0
  9
$EXTMIN
 10
-64.41327283782726
 20
-49.97073246008787
 30
0.0
  9
$EXTMAX
 10
92.85089147959948
 20
45.93033999616127
 30
0.0
  9
$LIMMIN
 10
0.0
 20
0.0
  9
$LIMMAX
 10
420.0
 20
297.0
  9
$ORTHOMODE
 70
     1
  9
$REGENMODE
 70
     1
  9
$FILLMODE
 70
     1
  9
$QTEXTMODE
 70
     0
  9
$MIRRTEXT
 70
     1
  9
$LTSCALE
 40
1.0
  9
$ATTMODE
 70
     1
  9
$TEXTSIZE
 40
3.5
  9
$TRACEWID
 40
1.0
  9
$TEXTSTYLE
  7
Standard
  9
$CLAYER
  8
0
  9
$CELTYPE
  6
ByLayer
  9
$CECOLOR
 62
   256
  9
$CELTSCALE
 40
1.0
  9
$DISPSILH
 70
     0
  9
$DIMSCALE
 40
1.0
  9
$DIMASZ
 40
3.302
  9
$DIMEXO
 40
1.0
  9
$DIMDLI
 40
3.75
  9
$DIMRND
 40
0.0
  9
$DIMDLE
 40
0.0
  9
$DIMEXE
 40
1.0
  9
$DIMTP
 40
0.0
  9
$DIMTM
 40
0.0
  9
$DIMTXT
 40
3.5
  9
$DIMCEN
 40
2.5
  9
$DIMTSZ
 40
0.0
  9
$DIMTOL
 70
     0
  9
$DIMLIM
 70
     0
  9
$DIMTIH
 70
     1
  9
$DIMTOH
 70
     1
  9
$DIMSE1
 70
     0
  9
$DIMSE2
 70
     0
  9
$DIMTAD
 70
     1
  9
$DIMZIN
 70
     0
  9
$DIMBLK
  1

  9
$DIMASO
 70
     1
  9
$DIMSHO
 70
     1
  9
$DIMPOST
  1

  9
$DIMAPOST
  1

  9
$DIMALT
 70
     0
  9
$DIMALTD
 70
     3
  9
$DIMALTF
 40
0.0393700787401575
  9
$DIMLFAC
 40
1.0
  9
$DIMTOFL
 70
     1
  9
$DIMTVP
 40
0.0
  9
$DIMTIX
 70
     0
  9
$DIMSOXD
 70
     0
  9
$DIMSAH
 70
     0
  9
$DIMBLK1
  1

  9
$DIMBLK2
  1

  9
$DIMSTYLE
  2
ISO-25
  9
$DIMCLRD
 70
     0
  9
$DIMCLRE
 70
     0
  9
$DIMCLRT
 70
     0
  9
$DIMTFAC
 40
1.0
  9
$DIMGAP
 40
1.524
  9
$DIMJUST
 70
     0
  9
$DIMSD1
 70
     0
  9
$DIMSD2
 70
     0
  9
$DIMTOLJ
 70
     0
  9
$DIMTZIN
 70
     0
  9
$DIMALTZ
 70
     0
  9
$DIMALTTZ
 70
     0
  9
$DIMUPT
 70
     0
  9
$DIMDEC
 70
     2
  9
$DIMTDEC
 70
     2
  9
$DIMALTU
 70
     2
  9
$DIMALTTD
 70
     3
  9
$DIMTXSTY
  7
Standard
  9
$DIMAUNIT
 70
     0
  9
$DIMADEC
 70
     2
  9
$DIMALTRND
 40
0.0
  9
$DIMAZIN
 70
     0
  9
$DIMDSEP
 70
    44
  9
$DIMATFIT
 70
     3
  9
$DIMFRAC
 70
     0
  9
$DIMLDRBLK
  1

  9
$DIMLUNIT
 70
     2
  9
$DIMLWD
 70
    -2
  9
$DIMLWE
 70
    -2
  9
$DIMTMOVE
 70
     0
  9
$LUNITS
 70
     2
  9
$LUPREC
 70
     2
  9
$SKETCHINC
 40
1.0
  9
$FILLETRAD
 40
10.0
  9
$AUNITS
 70
     0
  9
$AUPREC
 70
     2
  9
$MENU
  1
.
  9
$ELEVATION
 40
0.0
  9
$PELEVATION
 40
0.0
  9
$THICKNESS
 40
0.0
  9
$LIMCHECK
 70
     0
  9
$CHAMFERA
 40
0.0
  9
$CHAMFERB
 40
0.0
  9
$CHAMFERC
 40
0.0
  9
$CHAMFERD
 40
0.0
  9
$SKPOLY
 70
     0
  9
$TDCREATE
 40
2458312.759868484
  9
$TDUCREATE
 40
2458312.384868484
  9
$TDUPDATE
 40
2458319.664090185
  9
$TDUUPDATE
 40
2458319.289090185
  9
$TDINDWG
 40
0.0001902662
  9
$TDUSRTIMER
 40
2458319.289053345
  9
$USRTIMER
 70
     1
  9
$ANGBASE
 50
0.0
  9
$ANGDIR
 70
     0
  9
$PDMODE
 70
     0
  9
$PDSIZE
 40
-1.0
  9
$PLINEWID
 40
0.0
  9
$SPLFRAME
 70
     0
  9
$SPLINETYPE
 70
     6
  9
$SPLINESEGS
 70
     8
  9
$HANDSEED
  5
281
  9
$SURFTAB1
 70
     6
  9
$SURFTAB2
 70
     6
  9
$SURFTYPE
 70
     6
  9
$SURFU
 70
     6
  9
$SURFV
 70
     6
  9
$UCSBASE
  2

  9
$UCSNAME
  2

  9
$UCSORG
 10
0.0
 20
0.0
 30
0.0
  9
$UCSXDIR
 10
1.0
 20
0.0
 30
0.0
  9
$UCSYDIR
 10
0.0
 20
1.0
 30
0.0
  9
$UCSORTHOREF
  2

  9
$UCSORTHOVIEW
 70
     0
  9
$UCSORGTOP
 10
0.0
 20
0.0
 30
0.0
  9
$UCSORGBOTTOM
 10
0.0
 20
0.0
 30
0.0
  9
$UCSORGLEFT
 10
0.0
 20
0.0
 30
0.0
  9
$UCSORGRIGHT
 10
0.0
 20
0.0
 30
0.0
  9
$UCSORGFRONT
 10
0.0
 20
0.0
 30
0.0
  9
$UCSORGBACK
 10
0.0
 20
0.0
 30
0.0
  9
$PUCSBASE
  2

  9
$PUCSNAME
  2

  9
$PUCSORG
 10
0.0
 20
0.0
 30
0.0
  9
$PUCSXDIR
 10
1.0
 20
0.0
 30
0.0
  9
$PUCSYDIR
 10
0.0
 20
1.0
 30
0.0
  9
$PUCSORTHOREF
  2

  9
$PUCSORTHOVIEW
 70
     0
  9
$PUCSORGTOP
 10
0.0
 20
0.0
 30
0.0
  9
$PUCSORGBOTTOM
 10
0.0
 20
0.0
 30
0.0
  9
$PUCSORGLEFT
 10
0.0
 20
0.0
 30
0.0
  9
$PUCSORGRIGHT
 10
0.0
 20
0.0
 30
0.0
  9
$PUCSORGFRONT
 10
0.0
 20
0.0
 30
0.0
  9
$PUCSORGBACK
 10
0.0
 20
0.0
 30
0.0
  9
$USERI1
 70
     0
  9
$USERI2
 70
     0
  9
$USERI3
 70
     0
  9
$USERI4
 70
     0
  9
$USERI5
 70
     0
  9
$USERR1
 40
0.0
  9
$USERR2
 40
0.0
  9
$USERR3
 40
0.0
  9
$USERR4
 40
0.0
  9
$USERR5
 40
0.0
  9
$WORLDVIEW
 70
     1
  9
$SHADEDGE
 70
     3
  9
$SHADEDIF
 70
    70
  9
$TILEMODE
 70
     1
  9
$MAXACTVP
 70
    64
  9
$PINSBASE
 10
0.0
 20
0.0
 30
0.0
  9
$PLIMCHECK
 70
     0
  9
$PEXTMIN
 10
1.000000000000000E+20
 20
1.000000000000000E+20
 30
1.000000000000000E+20
  9
$PEXTMAX
 10
-1.000000000000000E+20
 20
-1.000000000000000E+20
 30
-1.000000000000000E+20
  9
$PLIMMIN
 10
0.0
 20
0.0
  9
$PLIMMAX
 10
0.0
 20
0.0
  9
$UNITMODE
 70
     0
  9
$VISRETAIN
 70
     1
  9
$PLINEGEN
 70
     0
  9
$PSLTSCALE
 70
     1
  9
$TREEDEPTH
 70
  3020
  9
$CMLSTYLE
  2
Standard
  9
$CMLJUST
 70
     0
  9
$CMLSCALE
 40
20.0
  9
$PROXYGRAPHICS
 70
     1
  9
$MEASUREMENT
 70
     1
  9
$CELWEIGHT
370
    -1
  9
$ENDCAPS
280
     0
  9
$JOINSTYLE
280
     0
  9
$LWDISPLAY
290
     1
  9
$INSUNITS
 70
     4
  9
$HYPERLINKBASE
  1

  9
$STYLESHEET
  1

  9
$XEDIT
290
     1
  9
$CEPSNTYPE
380
     0
  9
$PSTYLEMODE
290
     1
  9
$FINGERPRINTGUID
  2
{2302A5BD-5842-4948-8996-7E488B2FA6AE}
  9
$VERSIONGUID
  2
{FAEB1C32-E019-11D5-929B-00C0DF256EC4}
  9
$EXTNAMES
290
     1
  9
$PSVPSCALE
 40
0.0
  9
$OLESTARTUP
290
     0
  0
ENDSEC
  0
SECTION
  2
CLASSES
  0
CLASS
  1
ACDBDICTIONARYWDFLT
  2
AcDbDictionaryWithDefault
  3
ObjectDBX Classes
 90
        0
280
     0
281
     0
  0
CLASS
  1
VISUALSTYLE
  2
AcDbVisualStyle
  3
ObjectDBX Classes
 90
     4095
280
     0
281
     0
  0
CLASS
  1
MATERIAL
  2
AcDbMaterial
  3
ObjectDBX Classes
 90
     1153
280
     0
281
     0
  0
CLASS
  1
SCALE
  2
AcDbScale
  3
ObjectDBX Classes
 90
     1153
280
     0
281
     0
  0
CLASS
  1
SUN
  2
AcDbSun
  3
SCENEOE
 90
     1153
280
     0
281
     0
  0
CLASS
  1
ACDBPLACEHOLDER
  2
AcDbPlaceHolder
  3
ObjectDBX Classes
 90
        0
280
     0
281
     0
  0
CLASS
  1
LAYOUT
  2
AcDbLayout
  3
ObjectDBX Classes
 90
        0
280
     0
281
     0
  0
CLASS
  1
TABLESTYLE
  2
AcDbTableStyle
  3
ObjectDBX Classes
 90
     4095
280
     0
281
     0
  0
CLASS
  1
MLEADERSTYLE
  2
AcDbMLeaderStyle
  3
ACDB_MLEADERSTYLE_CLASS
 90
     4095
280
     0
281
     0
  0
CLASS
  1
RASTERVARIABLES
  2
AcDbRasterVariables
  3
ISM
 90
        0
280
     0
281
     0
  0
ENDSEC
  0
SECTION
  2
TABLES
  0
TABLE
  2
VPORT
  5
8
330
0
100
AcDbSymbolTable
 70
     1
  0
VPORT
  5
29
330
8
100
AcDbSymbolTableRecord
100
AcDbViewportTableRecord
  2
*Active
 70
     0
 10
0.0
 20
0.0
 11
1.0
 21
1.0
 12
3.393809118197638
 22
-17.79794723197985
 13
0.0
 23
0.0
 14
10.0
 24
10.0
 15
10.0
 25
10.0
 16
0.0
 26
0.0
 36
1.0
 17
0.0
 27
0.0
 37
0.0
 40
182.3210840957422
 41
1.67311411992263
 42
50.0
 43
0.0
 44
0.0
 50
0.0
 51
0.0
 71
    16
 72
  2000
 73
     1
 74
     3
 75
     0
 76
     0
 77
     0
 78
     0
281
     0
 65
     1
110
0.0
120
0.0
130
0.0
111
1.0
121
0.0
131
0.0
112
0.0
122
1.0
132
0.0
 79
     0
146
0.0
  0
ENDTAB
  0
TABLE
  2
LTYPE
  5
5
330
0
100
AcDbSymbolTable
 70
     6
  0
LTYPE
  5
14
330
5
100
AcDbSymbolTableRecord
100
AcDbLinetypeTableRecord
  2
ByBlock
 70
     0
  3

 72
    65
 73
     0
 40
0.0
  0
LTYPE
  5
15
330
5
100
AcDbSymbolTableRecord
100
AcDbLinetypeTableRecord
  2
ByLayer
 70
     0
  3

 72
    65
 73
     0
 40
0.0
  0
LTYPE
  5
16
330
5
100
AcDbSymbolTableRecord
100
AcDbLinetypeTableRecord
  2
Continuous
 70
     0
  3
Solid line
 72
    65
 73
     0
 40
0.0
  0
LTYPE
  5
6A
330
5
100
AcDbSymbolTableRecord
100
AcDbLinetypeTableRecord
  2
HIDDEN
 70
     0
  3
Hidden __ __ __ __ __ __ __ __ __ __ __ __ __ __
 72
    65
 73
     2
 40
1.905
 49
1.27
 74
     0
 49
-0.635
 74
     0
  0
LTYPE
  5
6B
330
5
100
AcDbSymbolTableRecord
100
AcDbLinetypeTableRecord
  2
PHANTOM
 70
     0
  3
Phantom ______  __  __  ______  __  __  ______
 72
    65
 73
     6
 40
12.7
 49
6.35
 74
     0
 49
-1.27
 74
     0
 49
1.27
 74
     0
 49
-1.27
 74
     0
 49
1.27
 74
     0
 49
-1.27
 74
     0
  0
LTYPE
  5
6C
330
5
100
AcDbSymbolTableRecord
100
AcDbLinetypeTableRecord
  2
CENTER
 70
     0
  3
Center ____ _ ____ _ ____ _ ____ _ ____ _ ____
 72
    65
 73
     4
 40
10.16
 49
6.35
 74
     0
 49
-1.27
 74
     0
 49
1.27
 74
     0
 49
-1.27
 74
     0
  0
LTYPE
  5
6D
330
5
100
AcDbSymbolTableRecord
100
AcDbLinetypeTableRecord
  2
CENTERX2
 70
     0
  3
Center (2x) ________  __  ________  __  _____
 72
    65
 73
     4
 40
20.32
 49
12.7
 74
     0
 49
-2.54
 74
     0
 49
2.54
 74
     0
 49
-2.54
 74
     0
  0
LTYPE
  5
6E
330
5
100
AcDbSymbolTableRecord
100
AcDbLinetypeTableRecord
  2
DOT2
 70
     0
  3
Dot (.5x) ........................................
 72
    65
 73
     2
 40
0.635
 49
0.0
 74
     0
 49
-0.635
 74
     0
  0
ENDTAB
  0
TABLE
  2
LAYER
  5
2
102
{ACAD_XDICTIONARY
360
1C0
102
}
330
0
100
AcDbSymbolTable
 70
    18
  0
LAYER
  5
10
330
2
100
AcDbSymbolTableRecord
100
AcDbLayerTableRecord
  2
0
 70
     0
 62
     7
  6
Continuous
370
    -3
390
F
  0
LAYER
  5
6F
330
2
100
AcDbSymbolTableRecord
100
AcDbLayerTableRecord
  2
FORMAT
 70
     0
 62
     2
  6
Continuous
370
    -3
390
F
  0
LAYER
  5
70
330
2
100
AcDbSymbolTableRecord
100
AcDbLayerTableRecord
  2
외형선
 70
     0
 62
     4
  6
Continuous
370
    30
390
F
  0
LAYER
  5
71
330
2
100
AcDbSymbolTableRecord
100
AcDbLayerTableRecord
  2
숨은선
 70
     0
 62
     2
  6
HIDDEN
370
    15
390
F
  0
LAYER
  5
72
330
2
100
AcDbSymbolTableRecord
100
AcDbLayerTableRecord
  2
중심선
 70
     0
 62
     1
  6
CENTERX2
370
    -3
390
F
  0
LAYER
  5
73
330
2
100
AcDbSymbolTableRecord
100
AcDbLayerTableRecord
  2
파단선
 70
     0
 62
     4
  6
Continuous
370
    -3
390
F
  0
LAYER
  5
74
330
2
100
AcDbSymbolTableRecord
100
AcDbLayerTableRecord
  2
해칭선
 70
     0
 62
   100
  6
Continuous
370
    -3
390
F
  0
LAYER
  5
75
330
2
100
AcDbSymbolTableRecord
100
AcDbLayerTableRecord
  2
가는실선
 70
     0
 62
     4
  6
Continuous
370
    -3
390
F
  0
LAYER
  5
76
330
2
100
AcDbSymbolTableRecord
100
AcDbLayerTableRecord
  2
치수_보조선
 70
     0
 62
     4
  6
Continuous
370
    -3
390
F
  0
LAYER
  5
77
330
2
100
AcDbSymbolTableRecord
100
AcDbLayerTableRecord
  2
치수문자_일반주서
 70
     0
 62
     7
  6
Continuous
370
    15
390
F
  0
LAYER
  5
78
330
2
100
AcDbSymbolTableRecord
100
AcDbLayerTableRecord
  2
개별주서
 70
     0
 62
   100
  6
Continuous
370
    30
390
F
  0
LAYER
  5
79
330
2
100
AcDbSymbolTableRecord
100
AcDbLayerTableRecord
  2
중간선
 70
     0
 62
     2
  6
Continuous
370
    15
390
F
  0
LAYER
  5
7A
330
2
100
AcDbSymbolTableRecord
100
AcDbLayerTableRecord
  2
윤곽선
 70
     0
 62
     3
  6
Continuous
370
    40
390
F
  0
LAYER
  5
7B
330
2
100
AcDbSymbolTableRecord
100
AcDbLayerTableRecord
  2
중심마크
 70
     0
 62
   100
  6
Continuous
370
    30
390
F
  0
LAYER
  5
7C
330
2
100
AcDbSymbolTableRecord
100
AcDbLayerTableRecord
  2
가상선
 70
     0
 62
     4
  6
PHANTOM
370
    -3
390
F
  0
LAYER
  5
7D
330
2
100
AcDbSymbolTableRecord
100
AcDbLayerTableRecord
  2
특수지정선
 70
     0
 62
     5
  6
CENTERX2
370
    60
390
F
  0
LAYER
  5
7E
330
2
100
AcDbSymbolTableRecord
100
AcDbLayerTableRecord
  2
참조1
 70
     0
 62
    -4
  6
Continuous
370
    -3
390
F
  0
LAYER
  5
137
330
2
100
AcDbSymbolTableRecord
100
AcDbLayerTableRecord
  2
Defpoints
 70
     0
 62
     7
  6
Continuous
290
     0
370
    -3
390
F
  0
ENDTAB
  0
TABLE
  2
STYLE
  5
3
330
0
100
AcDbSymbolTable
 70
     2
  0
STYLE
  5
11
330
3
100
AcDbSymbolTableRecord
100
AcDbTextStyleTableRecord
  2
Standard
 70
     0
 40
0.0
 41
1.0
 50
0.0
 71
     0
 42
3.5
  3
txt
  4

  0
STYLE
  5
94
330
3
100
AcDbSymbolTableRecord
100
AcDbTextStyleTableRecord
  2
SLDTEXTSTYLE0
 70
     0
 40
0.0
 41
0.75
 50
0.0
 71
     0
 42
3.5
  3
TXT
  4

  0
ENDTAB
  0
TABLE
  2
VIEW
  5
6
330
0
100
AcDbSymbolTable
 70
     0
  0
ENDTAB
  0
TABLE
  2
UCS
  5
7
330
0
100
AcDbSymbolTable
 70
     0
  0
ENDTAB
  0
TABLE
  2
APPID
  5
9
330
0
100
AcDbSymbolTable
 70
     1
  0
APPID
  5
12
330
9
100
AcDbSymbolTableRecord
100
AcDbRegAppTableRecord
  2
ACAD
 70
     0
  0
ENDTAB
  0
TABLE
  2
DIMSTYLE
  5
A
330
0
100
AcDbSymbolTable
 70
     3
100
AcDbDimStyleTable
  0
DIMSTYLE
105
27
330
A
100
AcDbSymbolTableRecord
100
AcDbDimStyleTableRecord
  2
ISO-25
 70
     0
 41
2.5
 42
0.625
 43
3.75
 44
1.25
 73
     0
 74
     0
 77
     1
 78
     8
140
2.5
141
2.5
143
0.03937007874016
147
0.625
171
     3
172
     1
178
     0
271
     2
272
     2
274
     3
278
    44
283
     0
284
     8
340
11
  0
DIMSTYLE
105
B7
102
{ACAD_REACTORS
330
1D1
330
1D2
330
1D6
102
}
330
A
100
AcDbSymbolTableRecord
100
AcDbDimStyleTableRecord
  2
SLDDIMSTYLE0
 70
     0
 41
3.302
 44
0.0
 45
0.000000001
 73
     0
 74
     0
 77
     1
 78
    12
 79
     3
140
3.5
143
0.0393700787401575
147
0.875
148
0.000000001
170
     1
173
     1
178
     0
271
     2
272
     2
276
     2
284
    12
340
94
  0
DIMSTYLE
105
F1
102
{ACAD_REACTORS
330
1D3
102
}
330
A
100
AcDbSymbolTableRecord
100
AcDbDimStyleTableRecord
  2
SLDDIMSTYLE1
 70
     0
 41
3.302
 44
0.0
 45
0.000000001
 73
     0
 74
     0
 77
     1
 78
     4
 79
     1
140
3.5
143
0.0393700787401575
147
0.875
148
0.000000001
170
     1
172
     1
173
     1
178
     0
271
     2
272
     2
276
     2
284
    12
289
     0
340
94
  0
ENDTAB
  0
TABLE
  2
BLOCK_RECORD
  5
1
330
0
100
AcDbSymbolTable
 70
    15
  0
BLOCK_RECORD
  5
1F
330
1
100
AcDbSymbolTableRecord
100
AcDbBlockTableRecord
  2
*Model_Space
340
22
  0
BLOCK_RECORD
  5
1B
330
1
100
AcDbSymbolTableRecord
100
AcDbBlockTableRecord
  2
*Paper_Space
340
1E
  0
BLOCK_RECORD
  5
23
330
1
100
AcDbSymbolTableRecord
100
AcDbBlockTableRecord
  2
*Paper_Space0
340
26
  0
BLOCK_RECORD
  5
7F
330
1
100
AcDbSymbolTableRecord
100
AcDbBlockTableRecord
  2
블럭10
340
0
102
{BLKREFS
331
AF
102
}
  0
BLOCK_RECORD
  5
B8
330
1
100
AcDbSymbolTableRecord
100
AcDbBlockTableRecord
  2
_D
340
0
  0
BLOCK_RECORD
  5
CB
330
1
100
AcDbSymbolTableRecord
100
AcDbBlockTableRecord
  2
_D_1
340
0
  0
BLOCK_RECORD
  5
DE
330
1
100
AcDbSymbolTableRecord
100
AcDbBlockTableRecord
  2
_D_2
340
0
  0
BLOCK_RECORD
  5
F2
330
1
100
AcDbSymbolTableRecord
100
AcDbBlockTableRecord
  2
_D_3
340
0
  0
BLOCK_RECORD
  5
10C
330
1
100
AcDbSymbolTableRecord
100
AcDbBlockTableRecord
  2
SW_DOWELSYMBOL_0
340
0
102
{BLKREFS
331
1D4
102
}
  0
BLOCK_RECORD
  5
16F
330
1
100
AcDbSymbolTableRecord
100
AcDbBlockTableRecord
  2
*D7
340
0
  0
BLOCK_RECORD
  5
17C
330
1
100
AcDbSymbolTableRecord
100
AcDbBlockTableRecord
  2
*D8
340
0
  0
BLOCK_RECORD
  5
189
330
1
100
AcDbSymbolTableRecord
100
AcDbBlockTableRecord
  2
*D9
340
0
  0
BLOCK_RECORD
  5
19E
330
1
100
AcDbSymbolTableRecord
100
AcDbBlockTableRecord
  2
*D10
340
0
  0
BLOCK_RECORD
  5
1ED
330
1
100
AcDbSymbolTableRecord
100
AcDbBlockTableRecord
  2
*D11
340
0
  0
BLOCK_RECORD
  5
1F9
330
1
100
AcDbSymbolTableRecord
100
AcDbBlockTableRecord
  2
*D12
340
0
  0
BLOCK_RECORD
  5
205
330
1
100
AcDbSymbolTableRecord
100
AcDbBlockTableRecord
  2
*D13
340
0
  0
BLOCK_RECORD
  5
211
330
1
100
AcDbSymbolTableRecord
100
AcDbBlockTableRecord
  2
*D14
340
0
  0
ENDTAB
  0
ENDSEC
  0
SECTION
  2
BLOCKS
  0
BLOCK
  5
20
330
1F
100
AcDbEntity
  8
0
100
AcDbBlockBegin
  2
*Model_Space
 70
     0
 10
0.0
 20
0.0
 30
0.0
  3
*Model_Space
  1
*Model_Space
  0
ENDBLK
  5
21
330
1F
100
AcDbEntity
  8
0
100
AcDbBlockEnd
  0
BLOCK
  5
1C
330
1B
100
AcDbEntity
 67
     1
  8
0
100
AcDbBlockBegin
  2
*Paper_Space
 70
     0
 10
0.0
 20
0.0
 30
0.0
  3
*Paper_Space
  1
*Paper_Space
  0
ENDBLK
  5
1D
330
1B
100
AcDbEntity
 67
     1
  8
0
100
AcDbBlockEnd
  0
BLOCK
  5
24
330
23
100
AcDbEntity
  8
0
100
AcDbBlockBegin
  2
*Paper_Space0
 70
     0
 10
0.0
 20
0.0
 30
0.0
  3
*Paper_Space0
  1
*Paper_Space0
  0
ENDBLK
  5
25
330
23
100
AcDbEntity
  8
0
100
AcDbBlockEnd
  0
BLOCK
  5
80
330
7F
100
AcDbEntity
  8
0
100
AcDbBlockBegin
  2
블럭10
 70
     2
 10
0.0
 20
0.0
 30
0.0
  3
블럭10
  1
블럭10
  0
ELLIPSE
  5
82
330
7F
100
AcDbEntity
  8
중심선
100
AcDbEllipse
 10
20.54032771741204
 20
12.0471743016438
 30
0.0
 11
6.600054785286829
 21
-1.261213355974178E-13
 31
0.0
210
0.0
220
0.0
230
1.0
 40
0.636358354079598
 41
0.9219305317359503
 42
6.513795318482858
  0
ELLIPSE
  5
83
330
7F
100
AcDbEntity
  8
중심선
100
AcDbEllipse
 10
20.54032771746488
 20
12.04717430159265
 30
0.0
 11
3.960054785062283
 21
1.540847449632565E-10
 31
0.0
210
0.0
220
0.0
230
1.0
 40
0.3939339440162632
 41
1.131841032648279
 42
5.62031148352944
  0
LINE
  5
84
330
7F
100
AcDbEntity
  8
중심선
100
AcDbLine
 10
2.268634060543552
 20
16.24717430164393
 30
0.0
 11
5.714909304380834
 21
16.24717430164393
 31
0.0
  0
LINE
  5
85
330
7F
100
AcDbEntity
  8
중심선
100
AcDbLine
 10
5.245725140726316
 20
7.84717430164391
 30
0.0
 11
8.692000384563599
 21
7.84717430164391
 31
0.0
  0
LINE
  5
86
330
7F
100
AcDbEntity
  8
중심선
100
AcDbLine
 10
15.74043728645272
 20
16.24717430164393
 30
0.0
 11
8.692000384563599
 21
7.84717430164391
 31
0.0
  0
LINE
  5
87
330
7F
100
AcDbEntity
  8
중심선
100
AcDbLine
 10
0.1404042013395286
 20
13.71084872107135
 30
0.0
 11
3.58671253028996
 21
13.71088815037384
 31
0.0
  0
LINE
  5
88
330
7F
100
AcDbEntity
  8
중심선
100
AcDbLine
 10
2.750260043222114
 20
10.84717430164391
 30
0.0
 11
6.196535287059397
 21
10.84717430164391
 31
0.0
  0
LINE
  5
89
330
7F
100
AcDbEntity
  8
중심선
100
AcDbLine
 10
12.29416204261559
 20
16.24717430164393
 30
0.0
 11
5.245725140726316
 21
7.84717430164391
 31
0.0
  0
LINE
  5
8A
330
7F
100
AcDbEntity
  8
중심선
100
AcDbLine
 10
10.72767329541681
 20
16.24717430164393
 30
0.0
 11
6.196535287059397
 21
10.84717430164391
 31
0.0
  0
LINE
  5
8B
330
7F
100
AcDbEntity
  8
중심선
100
AcDbLine
 10
7.28139805157953
 20
16.24717430164393
 30
0.0
 11
2.750260043222114
 21
10.84717430164391
 31
0.0
  0
LINE
  5
8C
330
7F
100
AcDbEntity
  8
중심선
100
AcDbLine
 10
5.714909304380834
 20
16.24717430164393
 30
0.0
 11
3.58671253028996
 21
13.71088815037384
 31
0.0
  0
LINE
  5
8D
330
7F
100
AcDbEntity
  8
중심선
100
AcDbLine
 10
2.268634060543552
 20
16.24717430164393
 30
0.0
 11
0.1404042013395286
 21
13.71084872107135
 31
0.0
  0
LINE
  5
8E
330
7F
100
AcDbEntity
  8
중심선
100
AcDbLine
 10
7.28139805157953
 20
16.24717430164393
 30
0.0
 11
10.72767329541681
 21
16.24717430164393
 31
0.0
  0
LINE
  5
8F
330
7F
100
AcDbEntity
  8
중심선
100
AcDbLine
 10
12.29416204261559
 20
16.24717430164393
 30
0.0
 11
15.74043728645272
 21
16.24717430164393
 31
0.0
  0
LINE
  5
90
330
7F
100
AcDbEntity
  8
중심선
100
AcDbLine
 10
19.22036997980202
 20
11.08717430171403
 30
0.0
 11
23.66174974927406
 21
11.08717430171406
 31
0.0
  0
LINE
  5
91
330
7F
100
AcDbEntity
  8
중심선
100
AcDbLine
 10
19.22039502424796
 20
13.00717430171391
 30
0.0
 11
19.22036997980202
 21
11.08717430171403
 31
0.0
  0
LINE
  5
92
330
7F
100
AcDbEntity
  8
중심선
100
AcDbLine
 10
19.22039502424796
 20
13.00717430171391
 30
0.0
 11
26.96566020931264
 21
13.00717430171391
 31
0.0
  0
LINE
  5
93
330
7F
100
AcDbEntity
  8
중심선
100
AcDbLine
 10
22.22332737316547
 20
13.45928029700563
 30
0.0
 11
24.52862924686651
 21
15.39360700705356
 31
0.0
  0
ATTDEF
  5
95
330
7F
100
AcDbEntity
  8
FORMAT
 62
     2
100
AcDbText
 10
4.408487351596664
 20
2.075366912832191
 30
0.0
 40
4.233333333333333
  1
E2039964
 41
0.75
  7
SLDTEXTSTYLE0
 11
4.408487351596664
 21
-0.0412997538344756
 31
0.0
100
AcDbAttributeDefinition
  3

  2
AUTOATTR0
 70
     0
 74
     1
  0
ENDBLK
  5
81
330
7F
100
AcDbEntity
  8
0
100
AcDbBlockEnd
  0
BLOCK
  5
B9
330
B8
100
AcDbEntity
  8
0
100
AcDbBlockBegin
  2
_D
 70
     0
 10
0.0
 20
0.0
 30
0.0
  3
_D
  1
_D
  0
SOLID
  5
BB
330
B8
100
AcDbEntity
  8
치수문자_일반주서
100
AcDbTrace
 10
56.67052760992014
 20
5.218258589704695
 30
0.0
 11
56.16252760992013
 21
1.916258589704696
 31
0.0
 12
57.17852760992014
 22
1.916258589704696
 32
0.0
 13
57.17852760992014
 23
1.916258589704696
 33
0.0
  0
SOLID
  5
BC
330
B8
100
AcDbEntity
  8
치수문자_일반주서
100
AcDbTrace
 10
56.67052760992014
 20
-5.100491410295311
 30
0.0
 11
57.17852760992014
 21
-1.798491410295312
 31
0.0
 12
56.16252760992013
 22
-1.798491410295312
 32
0.0
 13
56.16252760992013
 23
-1.798491410295312
 33
0.0
  0
LINE
  5
BD
330
B8
100
AcDbEntity
  8
치수문자_일반주서
100
AcDbLine
 10
45.87764589387741
 20
10.23472747827019
 30
0.0
 11
45.87764589387741
 21
9.52378999270569
 31
0.0
  0
LINE
  5
BE
330
B8
100
AcDbEntity
  8
치수문자_일반주서
100
AcDbLine
 10
45.87764589387741
 20
9.52378999270569
 30
0.0
 11
51.43389588493672
 21
9.523789992705732
 31
0.0
  0
LINE
  5
BF
330
B8
100
AcDbEntity
  8
치수문자_일반주서
100
AcDbLine
 10
51.43389588493672
 20
9.523789992705732
 30
0.0
 11
51.43389588493671
 21
10.23472747827023
 31
0.0
  0
LINE
  5
C0
330
B8
100
AcDbEntity
  8
치수문자_일반주서
100
AcDbLine
 10
45.87764589387734
 20
21.06346034040745
 30
0.0
 11
45.87764589387733
 21
21.77439782597195
 31
0.0
  0
LINE
  5
C1
330
B8
100
AcDbEntity
  8
치수문자_일반주서
100
AcDbLine
 10
45.87764589387733
 20
21.77439782597195
 30
0.0
 11
51.43389588493663
 21
21.77439782597199
 31
0.0
  0
LINE
  5
C2
330
B8
100
AcDbEntity
  8
치수문자_일반주서
100
AcDbLine
 10
51.43389588493663
 20
21.77439782597199
 30
0.0
 11
51.43389588493664
 21
21.06346034040749
 31
0.0
  0
LINE
  5
C3
330
B8
100
AcDbEntity
  8
치수문자_일반주서
100
AcDbLine
 10
38.60512506455976
 20
5.218258589704698
 30
0.0
 11
57.67052760992014
 21
5.218258589704695
 31
0.0
  0
LINE
  5
C4
330
B8
100
AcDbEntity
  8
치수문자_일반주서
100
AcDbLine
 10
38.60512506455976
 20
-5.100491410295311
 30
0.0
 11
57.67052760992014
 21
-5.100491410295311
 31
0.0
  0
LINE
  5
C5
330
B8
100
AcDbEntity
  8
치수문자_일반주서
100
AcDbLine
 10
56.67052760992014
 20
5.218258589704695
 30
0.0
 11
56.67052760992014
 21
24.10706285215991
 31
0.0
  0
LINE
  5
C6
330
B8
100
AcDbEntity
  8
치수문자_일반주서
100
AcDbLine
 10
56.67052760992014
 20
5.218258589704695
 30
0.0
 11
56.67052760992014
 21
-5.100491410295311
 31
0.0
  0
MTEXT
  5
C7
330
B8
100
AcDbEntity
  8
치수문자_일반주서
100
AcDbMText
 10
46.92215897035781
 20
11.12339937888157
 30
0.0
 40
3.5
 41
0.0
 71
     1
 72
     1
  1
0.41
  7
SLDTEXTSTYLE0
 11
-7.044195017643634E-15
 21
1.0
 31
0.0
 73
     1
 44
1.0
  0
MTEXT
  5
C8
330
B8
100
AcDbEntity
  8
치수문자_일반주서
100
AcDbMText
 10
52.15879052071831
 20
7.191124966517838
 30
0.0
 40
3.5
 41
0.0
 71
     1
 72
     1
  1
%%c
  7
SLDTEXTSTYLE0
 11
-7.044195017643634E-15
 21
1.0
 31
0.0
 73
     1
 44
1.0
  0
MTEXT
  5
C9
330
B8
100
AcDbEntity
  8
치수문자_일반주서
100
AcDbMText
 10
52.15879052071828
 20
12.46956236489192
 30
0.0
 40
3.5
 41
0.0
 71
     1
 72
     1
  1
10.32
  7
SLDTEXTSTYLE0
 11
-7.044195017643634E-15
 21
1.0
 31
0.0
 73
     1
 44
1.0
  0
ENDBLK
  5
BA
330
B8
100
AcDbEntity
  8
0
100
AcDbBlockEnd
  0
BLOCK
  5
CC
330
CB
100
AcDbEntity
  8
0
100
AcDbBlockBegin
  2
_D_1
 70
     0
 10
0.0
 20
0.0
 30
0.0
  3
_D_1
  1
_D_1
  0
SOLID
  5
CE
330
CB
100
AcDbEntity
  8
치수문자_일반주서
100
AcDbTrace
 10
47.34365766425389
 20
16.63113254955809
 30
0.0
 11
44.04165766425389
 21
17.13913254955809
 31
0.0
 12
44.04165766425389
 22
16.12313254955809
 32
0.0
 13
44.04165766425389
 23
16.12313254955809
 33
0.0
  0
SOLID
  5
CF
330
CB
100
AcDbEntity
  8
치수문자_일반주서
100
AcDbTrace
 10
12.4186576642539
 20
16.63113254955814
 30
0.0
 11
15.7206576642539
 21
16.12313254955814
 31
0.0
 12
15.7206576642539
 22
17.13913254955813
 32
0.0
 13
15.7206576642539
 23
17.13913254955813
 33
0.0
  0
LINE
  5
D0
330
CB
100
AcDbEntity
  8
치수문자_일반주서
100
AcDbLine
 10
24.46679158243119
 20
27.42401426560085
 30
0.0
 11
23.75585409686669
 21
27.42401426560086
 31
0.0
  0
LINE
  5
D1
330
CB
100
AcDbEntity
  8
치수문자_일반주서
100
AcDbLine
 10
23.75585409686669
 20
27.42401426560086
 30
0.0
 11
23.75585409686664
 21
21.86776427454155
 31
0.0
  0
LINE
  5
D2
330
CB
100
AcDbEntity
  8
치수문자_일반주서
100
AcDbLine
 10
23.75585409686664
 20
21.86776427454155
 30
0.0
 11
24.46679158243114
 21
21.86776427454155
 31
0.0
  0
LINE
  5
D3
330
CB
100
AcDbEntity
  8
치수문자_일반주서
100
AcDbLine
 10
35.29552444456844
 20
27.42401426560076
 30
0.0
 11
36.00646193013294
 21
27.42401426560075
 31
0.0
  0
LINE
  5
D4
330
CB
100
AcDbEntity
  8
치수문자_일반주서
100
AcDbLine
 10
36.00646193013294
 20
27.42401426560075
 30
0.0
 11
36.0064619301329
 21
21.86776427454145
 31
0.0
  0
LINE
  5
D5
330
CB
100
AcDbEntity
  8
치수문자_일반주서
100
AcDbLine
 10
36.0064619301329
 20
21.86776427454145
 30
0.0
 11
35.2955244445684
 21
21.86776427454146
 31
0.0
  0
LINE
  5
D6
330
CB
100
AcDbEntity
  8
치수문자_일반주서
100
AcDbLine
 10
47.34365766425388
 20
7.583239810165953
 30
0.0
 11
47.34365766425389
 21
17.63113254955809
 31
0.0
  0
LINE
  5
D7
330
CB
100
AcDbEntity
  8
치수문자_일반주서
100
AcDbLine
 10
12.41865766425388
 20
7.605538961946342
 30
0.0
 11
12.4186576642539
 21
17.63113254955814
 31
0.0
  0
LINE
  5
D8
330
CB
100
AcDbEntity
  8
치수문자_일반주서
100
AcDbLine
 10
47.34365766425389
 20
16.63113254955809
 30
0.0
 11
12.4186576642539
 21
16.63113254955814
 31
0.0
  0
MTEXT
  5
D9
330
CB
100
AcDbEntity
  8
치수문자_일반주서
100
AcDbMText
 10
23.24209537137995
 20
21.19634181541983
 30
0.0
 40
3.5
 41
0.0
 71
     1
 72
     1
  1

  7
SLDTEXTSTYLE0
 73
     1
 44
1.0
  0
MTEXT
  5
DA
330
CB
100
AcDbEntity
  8
치수문자_일반주서
100
AcDbMText
 10
25.35546348304256
 20
26.37950118912043
 30
0.0
 40
3.5
 41
0.0
 71
     1
 72
     1
  1
1.38
  7
SLDTEXTSTYLE0
 73
     1
 44
1.0
  0
MTEXT
  5
DB
330
CB
100
AcDbEntity
  8
치수문자_일반주서
100
AcDbMText
 10
24.06240776986578
 20
21.14286963875997
 30
0.0
 40
3.5
 41
0.0
 71
     1
 72
     1
  1
34.93
  7
SLDTEXTSTYLE0
 73
     1
 44
1.0
  0
MTEXT
  5
DC
330
CB
100
AcDbEntity
  8
치수문자_일반주서
100
AcDbMText
 10
37.85216517527351
 20
21.19634181541971
 30
0.0
 40
3.5
 41
0.0
 71
     1
 72
     1
  1

  7
SLDTEXTSTYLE0
 73
     1
 44
1.0
  0
ENDBLK
  5
CD
330
CB
100
AcDbEntity
  8
0
100
AcDbBlockEnd
  0
BLOCK
  5
DF
330
DE
100
AcDbEntity
  8
0
100
AcDbBlockBegin
  2
_D_2
 70
     0
 10
0.0
 20
0.0
 30
0.0
  3
_D_2
  1
_D_2
  0
SOLID
  5
E1
330
DE
100
AcDbEntity
  8
치수문자_일반주서
100
AcDbTrace
 10
47.34365766425388
 20
28.63113254955805
 30
0.0
 11
44.04165766425388
 21
29.13913254955805
 31
0.0
 12
44.04165766425388
 22
28.12313254955805
 32
0.0
 13
44.04165766425388
 23
28.12313254955805
 33
0.0
  0
SOLID
  5
E2
330
DE
100
AcDbEntity
  8
치수문자_일반주서
100
AcDbTrace
 10
-38.38134233574612
 20
28.63113254955804
 30
0.0
 11
-35.07934233574612
 21
28.12313254955804
 31
0.0
 12
-35.07934233574612
 22
29.13913254955804
 32
0.0
 13
-35.07934233574612
 23
29.13913254955804
 33
0.0
  0
LINE
  5
E3
330
DE
100
AcDbEntity
  8
치수문자_일반주서
100
AcDbLine
 10
0.2373901932149428
 20
39.42401426560077
 30
0.0
 11
-0.4735472923495573
 21
39.42401426560077
 31
0.0
  0
LINE
  5
E4
330
DE
100
AcDbEntity
  8
치수문자_일반주서
100
AcDbLine
 10
-0.4735472923495573
 20
39.42401426560077
 30
0.0
 11
-0.4735472923495967
 21
33.86776427454147
 31
0.0
  0
LINE
  5
E5
330
DE
100
AcDbEntity
  8
치수문자_일반주서
100
AcDbLine
 10
-0.4735472923495967
 20
33.86776427454147
 30
0.0
 11
0.2373901932149033
 21
33.86776427454146
 31
0.0
  0
LINE
  5
E6
330
DE
100
AcDbEntity
  8
치수문자_일반주서
100
AcDbLine
 10
11.0661230553522
 20
39.4240142656007
 30
0.0
 11
11.7770605409167
 21
39.42401426560069
 31
0.0
  0
LINE
  5
E7
330
DE
100
AcDbEntity
  8
치수문자_일반주서
100
AcDbLine
 10
11.7770605409167
 20
39.42401426560069
 30
0.0
 11
11.77706054091666
 21
33.86776427454139
 31
0.0
  0
LINE
  5
E8
330
DE
100
AcDbEntity
  8
치수문자_일반주서
100
AcDbLine
 10
11.77706054091666
 20
33.86776427454139
 30
0.0
 11
11.06612305535216
 21
33.86776427454139
 31
0.0
  0
LINE
  5
E9
330
DE
100
AcDbEntity
  8
치수문자_일반주서
100
AcDbLine
 10
47.34365766425388
 20
7.583239810165953
 30
0.0
 11
47.34365766425388
 21
29.63113254955805
 31
0.0
  0
LINE
  5
EA
330
DE
100
AcDbEntity
  8
치수문자_일반주서
100
AcDbLine
 10
-38.38134233574612
 20
6.138883589704698
 30
0.0
 11
-38.38134233574612
 21
29.63113254955804
 31
0.0
  0
LINE
  5
EB
330
DE
100
AcDbEntity
  8
치수문자_일반주서
100
AcDbLine
 10
47.34365766425388
 20
28.63113254955805
 30
0.0
 11
-38.38134233574612
 21
28.63113254955804
 31
0.0
  0
MTEXT
  5
EC
330
DE
100
AcDbEntity
  8
치수문자_일반주서
100
AcDbMText
 10
-0.9873060178362975
 20
33.19634181541976
 30
0.0
 40
3.5
 41
0.0
 71
     1
 72
     1
  1

  7
SLDTEXTSTYLE0
 73
     1
 44
1.0
  0
MTEXT
  5
ED
330
DE
100
AcDbEntity
  8
치수문자_일반주서
100
AcDbMText
 10
1.126062093826306
 20
38.37950118912036
 30
0.0
 40
3.5
 41
0.0
 71
     1
 72
     1
  1
3.38
  7
SLDTEXTSTYLE0
 73
     1
 44
1.0
  0
MTEXT
  5
EE
330
DE
100
AcDbEntity
  8
치수문자_일반주서
100
AcDbMText
 10
-0.166993619350458
 20
33.1428696387599
 30
0.0
 40
3.5
 41
0.0
 71
     1
 72
     1
  1
85.73
  7
SLDTEXTSTYLE0
 73
     1
 44
1.0
  0
MTEXT
  5
EF
330
DE
100
AcDbEntity
  8
치수문자_일반주서
100
AcDbMText
 10
13.62276378605727
 20
33.19634181541966
 30
0.0
 40
3.5
 41
0.0
 71
     1
 72
     1
  1

  7
SLDTEXTSTYLE0
 73
     1
 44
1.0
  0
ENDBLK
  5
E0
330
DE
100
AcDbEntity
  8
0
100
AcDbBlockEnd
  0
BLOCK
  5
F3
330
F2
100
AcDbEntity
  8
0
100
AcDbBlockBegin
  2
_D_3
 70
     0
 10
0.0
 20
0.0
 30
0.0
  3
_D_3
  1
_D_3
  0
SOLID
  5
F5
330
F2
100
AcDbEntity
  8
치수문자_일반주서
100
AcDbTrace
 10
-51.06384233574614
 20
6.408883589704687
 30
0.0
 11
-50.55584233574614
 21
9.710883589704686
 31
0.0
 12
-51.57184233574614
 22
9.710883589704686
 32
0.0
 13
-51.57184233574614
 23
9.710883589704686
 33
0.0
  0
SOLID
  5
F6
330
F2
100
AcDbEntity
  8
치수문자_일반주서
100
AcDbTrace
 10
-51.06384233574614
 20
-6.291116410295301
 30
0.0
 11
-51.57184233574614
 21
-9.593116410295302
 31
0.0
 12
-50.55584233574614
 22
-9.593116410295302
 32
0.0
 13
-50.55584233574614
 23
-9.593116410295302
 33
0.0
  0
LINE
  5
F7
330
F2
100
AcDbEntity
  8
치수문자_일반주서
100
AcDbLine
 10
-61.85672405178885
 20
-5.35548284136401
 30
0.0
 11
-61.85672405178885
 21
-6.06642032692851
 31
0.0
  0
LINE
  5
F8
330
F2
100
AcDbEntity
  8
치수문자_일반주서
100
AcDbLine
 10
-61.85672405178885
 20
-6.06642032692851
 30
0.0
 11
-56.30047406072954
 21
-6.066420326928471
 31
0.0
  0
LINE
  5
F9
330
F2
100
AcDbEntity
  8
치수문자_일반주서
100
AcDbLine
 10
-56.30047406072954
 20
-6.066420326928471
 30
0.0
 11
-56.30047406072955
 21
-5.355482841363971
 31
0.0
  0
LINE
  5
FA
330
F2
100
AcDbEntity
  8
치수문자_일반주서
100
AcDbLine
 10
-61.85672405178892
 20
5.473250020773248
 30
0.0
 11
-61.85672405178893
 21
6.184187506337748
 31
0.0
  0
LINE
  5
FB
330
F2
100
AcDbEntity
  8
치수문자_일반주서
100
AcDbLine
 10
-61.85672405178893
 20
6.184187506337748
 30
0.0
 11
-56.30047406072963
 21
6.184187506337787
 31
0.0
  0
LINE
  5
FC
330
F2
100
AcDbEntity
  8
치수문자_일반주서
100
AcDbLine
 10
-56.30047406072963
 20
6.184187506337787
 30
0.0
 11
-56.30047406072962
 21
5.473250020773287
 31
0.0
  0
LINE
  5
FD
330
F2
100
AcDbEntity
  8
치수문자_일반주서
100
AcDbLine
 10
-38.11134233574612
 20
6.408883589704688
 30
0.0
 11
-52.06384233574614
 21
6.408883589704687
 31
0.0
  0
LINE
  5
FE
330
F2
100
AcDbEntity
  8
치수문자_일반주서
100
AcDbLine
 10
-38.11134233574612
 20
-6.291116410295301
 30
0.0
 11
-52.06384233574614
 21
-6.291116410295301
 31
0.0
  0
LINE
  5
FF
330
F2
100
AcDbEntity
  8
치수문자_일반주서
100
AcDbLine
 10
-51.06384233574614
 20
6.408883589704687
 30
0.0
 11
-51.06384233574614
 21
12.75888358970469
 31
0.0
  0
LINE
  5
100
330
F2
100
AcDbEntity
  8
치수문자_일반주서
100
AcDbLine
 10
-51.06384233574614
 20
6.408883589704687
 30
0.0
 11
-51.06384233574614
 21
-6.291116410295301
 31
0.0
  0
LINE
  5
101
330
F2
100
AcDbEntity
  8
치수문자_일반주서
100
AcDbLine
 10
-51.06384233574614
 20
-6.291116410295301
 30
0.0
 11
-51.06384233574614
 21
-12.6411164102953
 31
0.0
  0
MTEXT
  5
102
330
F2
100
AcDbEntity
  8
치수문자_일반주서
100
AcDbMText
 10
-60.81221097530845
 20
-4.466810940752632
 30
0.0
 40
3.5
 41
0.0
 71
     1
 72
     1
  1
0.50
  7
SLDTEXTSTYLE0
 11
-7.044195017643634E-15
 21
1.0
 31
0.0
 73
     1
 44
1.0
  0
MTEXT
  5
103
330
F2
100
AcDbEntity
  8
치수문자_일반주서
100
AcDbMText
 10
-55.57557942494794
 20
-8.399085353116362
 30
0.0
 40
3.5
 41
0.0
 71
     1
 72
     1
  1
%%c
  7
SLDTEXTSTYLE0
 11
-7.044195017643634E-15
 21
1.0
 31
0.0
 73
     1
 44
1.0
  0
MTEXT
  5
104
330
F2
100
AcDbEntity
  8
치수문자_일반주서
100
AcDbMText
 10
-55.57557942494797
 20
-3.120647954742283
 30
0.0
 40
3.5
 41
0.0
 71
     1
 72
     1
  1
12.70
  7
SLDTEXTSTYLE0
 11
-7.044195017643634E-15
 21
1.0
 31
0.0
 73
     1
 44
1.0
  0
ENDBLK
  5
F4
330
F2
100
AcDbEntity
  8
0
100
AcDbBlockEnd
  0
BLOCK
  5
10D
330
10C
100
AcDbEntity
  8
0
100
AcDbBlockBegin
  2
SW_DOWELSYMBOL_0
 70
     0
 10
0.0
 20
0.0
 30
0.0
  3
SW_DOWELSYMBOL_0
  1
SW_DOWELSYMBOL_0
  0
CIRCLE
  5
10F
330
10C
100
AcDbEntity
  8
해칭선
 62
     0
100
AcDbCircle
 10
0.0
 20
0.0
 30
0.0
 40
3.0
  0
HATCH
  5
110
330
10C
100
AcDbEntity
  8
0
  6
Continuous
 62
     0
370
     0
100
AcDbHatch
 10
0.0
 20
0.0
 30
0.0
210
0.0
220
0.0
230
1.0
  2
SOLID
 70
     1
 71
     0
 91
        1
 92
        0
 93
        3
 72
     2
 10
0.0
 20
0.0
 40
3.0
 50
0.0
 51
90.0
 73
     1
 72
     1
 10
0.0
 20
3.0
 11
0.0
 21
0.0
 72
     1
 10
0.0
 20
0.0
 11
2.999999999999999
 21
0.0
 97
        0
 75
     0
 76
     1
 98
        1
 10
0.0
 20
0.0
  0
HATCH
  5
111
330
10C
100
AcDbEntity
  8
0
  6
Continuous
 62
     0
370
     0
100
AcDbHatch
 10
0.0
 20
0.0
 30
0.0
210
0.0
220
0.0
230
1.0
  2
SOLID
 70
     1
 71
     0
 91
        1
 92
        0
 93
        3
 72
     2
 10
0.0
 20
0.0
 40
3.0
 50
180.0
 51
270.0000000000007
 73
     1
 72
     1
 10
0.0
 20
-3.0
 11
0.0
 21
0.0
 72
     1
 10
0.0
 20
0.0
 11
-2.999999999999999
 21
0.0
 97
        0
 75
     0
 76
     1
 98
        1
 10
0.0
 20
0.0
  0
ENDBLK
  5
10E
330
10C
100
AcDbEntity
  8
0
100
AcDbBlockEnd
  0
BLOCK
  5
170
330
16F
100
AcDbEntity
  8
0
100
AcDbBlockBegin
  2
*D7
 70
     1
 10
0.0
 20
0.0
 30
0.0
  3
*D7
  1
*D8
  0
LINE
  5
171
330
16F
100
AcDbEntity
  8
치수문자_일반주서
 62
     0
370
    -2
100
AcDbLine
 10
118.8007728378273
 20
25.62204691240975
 30
0.0
 11
118.8007728378273
 21
38.74038479835855
 31
0.0
  0
LINE
  5
172
330
16F
100
AcDbEntity
  8
치수문자_일반주서
 62
     0
370
    -2
100
AcDbLine
 10
71.17577283782725
 20
25.66875000000006
 30
0.0
 11
71.17577283782725
 21
38.74038479835855
 31
0.0
  0
LINE
  5
173
330
16F
100
AcDbEntity
  8
치수문자_일반주서
 62
     0
370
    -2
100
AcDbLine
 10
115.4987728378273
 20
38.74038479835855
 30
0.0
 11
74.47777283782725
 21
38.74038479835855
 31
0.0
  0
SOLID
  5
174
330
16F
100
AcDbEntity
  8
치수문자_일반주서
 62
     0
100
AcDbTrace
 10
115.4987728378273
 20
38.19005146502521
 30
0.0
 11
115.4987728378273
 21
39.29071813169188
 31
0.0
 12
118.8007728378273
 22
38.74038479835855
 32
0.0
 13
118.8007728378273
 23
38.74038479835855
 33
0.0
  0
SOLID
  5
175
330
16F
100
AcDbEntity
  8
치수문자_일반주서
 62
     0
100
AcDbTrace
 10
74.47777283782725
 20
39.29071813169188
 30
0.0
 11
74.47777283782725
 21
38.19005146502521
 31
0.0
 12
71.17577283782725
 22
38.74038479835855
 32
0.0
 13
71.17577283782725
 23
38.74038479835855
 33
0.0
  0
MTEXT
  5
176
330
16F
100
AcDbEntity
  8
치수문자_일반주서
 62
     0
100
AcDbMText
 10
93.40077283782729
 20
43.11538479835855
 30
0.0
 40
3.5
 41
0.0
 71
     2
 72
     1
  1
\A1;47.63 [1 7/8]
  7
SLDTEXTSTYLE0
 73
     1
 44
1.0
  0
POINT
  5
177
330
16F
100
AcDbEntity
  8
Defpoints
 62
     0
100
AcDbPoint
 10
118.8007728378273
 20
25.55954691240975
 30
0.0
  0
POINT
  5
178
330
16F
100
AcDbEntity
  8
Defpoints
 62
     0
100
AcDbPoint
 10
71.17577283782725
 20
25.60625000000006
 30
0.0
  0
POINT
  5
179
330
16F
100
AcDbEntity
  8
Defpoints
 62
     0
100
AcDbPoint
 10
71.17577283782725
 20
38.74038479835855
 30
0.0
  0
ENDBLK
  5
17A
330
16F
100
AcDbEntity
  8
0
100
AcDbBlockEnd
  0
BLOCK
  5
17D
330
17C
100
AcDbEntity
  8
0
100
AcDbBlockBegin
  2
*D8
 70
     1
 10
0.0
 20
0.0
 30
0.0
  3
*D8
  1
*D9
  0
LINE
  5
17E
330
17C
100
AcDbEntity
  8
치수문자_일반주서
 62
     0
370
    -2
100
AcDbLine
 10
118.8007728378273
 20
25.62204691240975
 30
0.0
 11
118.8007728378273
 21
54.46158999616134
 31
0.0
  0
LINE
  5
17F
330
17C
100
AcDbEntity
  8
치수문자_일반주서
 62
     0
370
    -2
100
AcDbLine
 10
14.02577283782728
 20
19.95375000000005
 30
0.0
 11
14.02577283782728
 21
54.46158999616134
 31
0.0
  0
LINE
  5
180
330
17C
100
AcDbEntity
  8
치수문자_일반주서
 62
     0
370
    -2
100
AcDbLine
 10
115.4987728378273
 20
54.46158999616134
 30
0.0
 11
17.32777283782728
 21
54.46158999616134
 31
0.0
  0
SOLID
  5
181
330
17C
100
AcDbEntity
  8
치수문자_일반주서
 62
     0
100
AcDbTrace
 10
115.4987728378273
 20
53.911256662828
 30
0.0
 11
115.4987728378273
 21
55.01192332949467
 31
0.0
 12
118.8007728378273
 22
54.46158999616134
 32
0.0
 13
118.8007728378273
 23
54.46158999616134
 33
0.0
  0
SOLID
  5
182
330
17C
100
AcDbEntity
  8
치수문자_일반주서
 62
     0
100
AcDbTrace
 10
17.32777283782728
 20
55.01192332949467
 30
0.0
 11
17.32777283782728
 21
53.911256662828
 31
0.0
 12
14.02577283782728
 22
54.46158999616134
 32
0.0
 13
14.02577283782728
 23
54.46158999616134
 33
0.0
  0
MTEXT
  5
183
330
17C
100
AcDbEntity
  8
치수문자_일반주서
 62
     0
100
AcDbMText
 10
66.41327283782726
 20
58.83658999616134
 30
0.0
 40
3.5
 41
0.0
 71
     2
 72
     1
  1
\A1;104.78 [4 1/8]
  7
SLDTEXTSTYLE0
 73
     1
 44
1.0
  0
POINT
  5
184
330
17C
100
AcDbEntity
  8
Defpoints
 62
     0
100
AcDbPoint
 10
118.8007728378273
 20
25.55954691240975
 30
0.0
  0
POINT
  5
185
330
17C
100
AcDbEntity
  8
Defpoints
 62
     0
100
AcDbPoint
 10
14.02577283782728
 20
19.89125000000005
 30
0.0
  0
POINT
  5
186
330
17C
100
AcDbEntity
  8
Defpoints
 62
     0
100
AcDbPoint
 10
14.02577283782728
 20
54.46158999616134
 30
0.0
  0
ENDBLK
  5
187
330
17C
100
AcDbEntity
  8
0
100
AcDbBlockEnd
  0
BLOCK
  5
18A
330
189
100
AcDbEntity
  8
0
100
AcDbBlockBegin
  2
*D9
 70
     1
 10
0.0
 20
0.0
 30
0.0
  3
*D9
  1
*D10
  0
LINE
  5
18B
330
189
100
AcDbEntity
  8
치수문자_일반주서
 62
     0
370
    -2
100
AcDbLine
 10
16.56577283782725
 20
22.43125000000006
 30
0.0
 11
4.375000000000009
 21
22.43125000000001
 31
0.0
  0
LINE
  5
18C
330
189
100
AcDbEntity
  8
치수문자_일반주서
 62
     0
370
    -2
100
AcDbLine
 10
16.50327283782725
 20
3.381250000000054
 30
0.0
 11
4.375000000000076
 21
3.381250000000009
 31
0.0
  0
LINE
  5
18D
330
189
100
AcDbEntity
  8
치수문자_일반주서
 62
     0
370
    -2
100
AcDbLine
 10
4.37500000000002
 20
19.12925000000001
 30
0.0
 11
4.375000000000065
 21
6.683250000000008
 31
0.0
  0
SOLID
  5
18E
330
189
100
AcDbEntity
  8
치수문자_일반주서
 62
     0
100
AcDbTrace
 10
4.925333333333354
 20
19.12925000000001
 30
0.0
 11
3.824666666666687
 21
19.12925000000001
 31
0.0
 12
4.375000000000009
 22
22.43125000000001
 32
0.0
 13
4.375000000000009
 23
22.43125000000001
 33
0.0
  0
SOLID
  5
18F
330
189
100
AcDbEntity
  8
치수문자_일반주서
 62
     0
100
AcDbTrace
 10
3.824666666666732
 20
6.683250000000006
 30
0.0
 11
4.925333333333398
 21
6.68325000000001
 31
0.0
 12
4.375000000000076
 22
3.381250000000009
 32
0.0
 13
4.375000000000076
 23
3.381250000000009
 33
0.0
  0
MTEXT
  5
190
330
189
100
AcDbEntity
  8
치수문자_일반주서
 62
     0
100
AcDbMText
 10
0.0000000000000426
 20
12.90624999999999
 30
0.0
 40
3.5
 41
0.0
 71
     2
 72
     1
  1
\A1;%%c19.05 [3/4]
  7
SLDTEXTSTYLE0
 11
-3.496765431890257E-15
 21
1.0
 31
0.0
 73
     1
 44
1.0
  0
POINT
  5
191
330
189
100
AcDbEntity
  8
Defpoints
 62
     0
100
AcDbPoint
 10
16.62827283782725
 20
22.43125000000006
 30
0.0
  0
POINT
  5
192
330
189
100
AcDbEntity
  8
Defpoints
 62
     0
100
AcDbPoint
 10
16.56577283782725
 20
3.381250000000055
 30
0.0
  0
POINT
  5
193
330
189
100
AcDbEntity
  8
Defpoints
 62
     0
100
AcDbPoint
 10
4.375000000000071
 20
3.381250000000009
 30
0.0
  0
ENDBLK
  5
194
330
189
100
AcDbEntity
  8
0
100
AcDbBlockEnd
  0
BLOCK
  5
19F
330
19E
100
AcDbEntity
  8
0
100
AcDbBlockBegin
  2
*D10
 70
     1
 10
0.0
 20
0.0
 30
0.0
  3
*D10
  1
*D11
  0
LINE
  5
1A0
330
19E
100
AcDbEntity
  8
치수문자_일반주서
 62
     0
370
    -2
100
AcDbLine
 10
118.8632728378273
 20
25.60625000000006
 30
0.0
 11
135.7527527703562
 21
25.60625000000006
 31
0.0
  0
LINE
  5
1A1
330
19E
100
AcDbEntity
  8
치수문자_일반주서
 62
     0
370
    -2
100
AcDbLine
 10
118.8632728378273
 20
0.206250000000054
 30
0.0
 11
135.7527527703562
 21
0.206250000000053
 31
0.0
  0
LINE
  5
1A2
330
19E
100
AcDbEntity
  8
치수문자_일반주서
 62
     0
370
    -2
100
AcDbLine
 10
135.7527527703562
 20
22.30425000000006
 30
0.0
 11
135.7527527703562
 21
3.508250000000053
 31
0.0
  0
SOLID
  5
1A3
330
19E
100
AcDbEntity
  8
치수문자_일반주서
 62
     0
100
AcDbTrace
 10
136.3030861036895
 20
22.30425000000006
 30
0.0
 11
135.2024194370229
 21
22.30425000000006
 31
0.0
 12
135.7527527703562
 22
25.60625000000006
 32
0.0
 13
135.7527527703562
 23
25.60625000000006
 33
0.0
  0
SOLID
  5
1A4
330
19E
100
AcDbEntity
  8
치수문자_일반주서
 62
     0
100
AcDbTrace
 10
135.2024194370229
 20
3.508250000000053
 30
0.0
 11
136.3030861036895
 21
3.508250000000053
 31
0.0
 12
135.7527527703562
 22
0.206250000000053
 32
0.0
 13
135.7527527703562
 23
0.206250000000053
 33
0.0
  0
MTEXT
  5
1A5
330
19E
100
AcDbEntity
  8
치수문자_일반주서
 62
     0
100
AcDbMText
 10
133.1277527703562
 20
12.90625000000006
 30
0.0
 40
3.5
 41
0.0
 71
     5
 72
     1
  1
\A1;{%%C25.4 [1]}
  7
SLDTEXTSTYLE0
 11
0.0
 21
1.0
 31
0.0
 73
     1
 44
1.0
  0
POINT
  5
1A6
330
19E
100
AcDbEntity
  8
Defpoints
 62
     0
100
AcDbPoint
 10
118.8007728378273
 20
25.60625000000006
 30
0.0
  0
POINT
  5
1A7
330
19E
100
AcDbEntity
  8
Defpoints
 62
     0
100
AcDbPoint
 10
118.8007728378273
 20
0.206250000000054
 30
0.0
  0
POINT
  5
1A8
330
19E
100
AcDbEntity
  8
Defpoints
 62
     0
100
AcDbPoint
 10
135.7527527703562
 20
0.206250000000053
 30
0.0
  0
ENDBLK
  5
1A9
330
19E
100
AcDbEntity
  8
0
100
AcDbBlockEnd
  0
BLOCK
  5
1EE
330
1ED
100
AcDbEntity
  8
0
100
AcDbBlockBegin
  2
*D11
 70
     1
 10
0.0
 20
0.0
 30
0.0
  3
*D11
  1
*D12
  0
LINE
  5
1F0
330
1ED
100
AcDbEntity
  8
치수문자_일반주서
 62
     0
370
    -2
100
AcDbLine
 10
54.3875
 20
12.71579691240969
 30
0.0
 11
54.3875
 21
25.83413479835848
 31
0.0
  0
LINE
  5
1F1
330
1ED
100
AcDbEntity
  8
치수문자_일반주서
 62
     0
370
    -2
100
AcDbLine
 10
6.762499999999989
 20
12.76249999999999
 30
0.0
 11
6.762499999999989
 21
25.83413479835848
 31
0.0
  0
LINE
  5
1F2
330
1ED
100
AcDbEntity
  8
치수문자_일반주서
 62
     0
370
    -2
100
AcDbLine
 10
51.0855
 20
25.83413479835848
 30
0.0
 11
10.06449999999999
 21
25.83413479835848
 31
0.0
  0
SOLID
  5
1F3
330
1ED
100
AcDbEntity
  8
치수문자_일반주서
 62
     0
100
AcDbTrace
 10
51.0855
 20
25.28380146502515
 30
0.0
 11
51.0855
 21
26.38446813169182
 31
0.0
 12
54.3875
 22
25.83413479835848
 32
0.0
 13
54.3875
 23
25.83413479835848
 33
0.0
  0
SOLID
  5
1F4
330
1ED
100
AcDbEntity
  8
치수문자_일반주서
 62
     0
100
AcDbTrace
 10
10.06449999999999
 20
26.38446813169182
 30
0.0
 11
10.06449999999999
 21
25.28380146502515
 31
0.0
 12
6.762499999999989
 22
25.83413479835848
 32
0.0
 13
6.762499999999989
 23
25.83413479835848
 33
0.0
  0
MTEXT
  5
1F5
330
1ED
100
AcDbEntity
  8
치수문자_일반주서
 62
     0
100
AcDbMText
 10
28.98750000000003
 20
30.20913479835848
 30
0.0
 40
3.5
 41
0.0
 71
     2
 72
     1
  1
\A1;47.63 [1 7/8]
  7
SLDTEXTSTYLE0
 73
     1
 44
1.0
  0
POINT
  5
1F6
330
1ED
100
AcDbEntity
  8
Defpoints
 62
     0
100
AcDbPoint
 10
54.3875
 20
12.65329691240969
 30
0.0
  0
POINT
  5
1F7
330
1ED
100
AcDbEntity
  8
Defpoints
 62
     0
100
AcDbPoint
 10
6.762499999999989
 20
12.69999999999999
 30
0.0
  0
POINT
  5
1F8
330
1ED
100
AcDbEntity
  8
Defpoints
 62
     0
100
AcDbPoint
 10
6.762499999999989
 20
25.83413479835848
 30
0.0
  0
ENDBLK
  5
1EF
330
1ED
100
AcDbEntity
  8
0
100
AcDbBlockEnd
  0
BLOCK
  5
1FA
330
1F9
100
AcDbEntity
  8
0
100
AcDbBlockBegin
  2
*D12
 70
     1
 10
0.0
 20
0.0
 30
0.0
  3
*D12
  1
*D13
  0
LINE
  5
1FC
330
1F9
100
AcDbEntity
  8
치수문자_일반주서
 62
     0
370
    -2
100
AcDbLine
 10
54.3875
 20
12.71579691240969
 30
0.0
 11
54.3875
 21
41.55533999616127
 31
0.0
  0
LINE
  5
1FD
330
1F9
100
AcDbEntity
  8
치수문자_일반주서
 62
     0
370
    -2
100
AcDbLine
 10
-47.21250000000001
 20
7.047499999999978
 30
0.0
 11
-47.21250000000001
 21
41.55533999616127
 31
0.0
  0
LINE
  5
1FE
330
1F9
100
AcDbEntity
  8
치수문자_일반주서
 62
     0
370
    -2
100
AcDbLine
 10
51.0855
 20
41.55533999616127
 30
0.0
 11
-43.91050000000001
 21
41.55533999616127
 31
0.0
  0
SOLID
  5
1FF
330
1F9
100
AcDbEntity
  8
치수문자_일반주서
 62
     0
100
AcDbTrace
 10
51.0855
 20
41.00500666282794
 30
0.0
 11
51.0855
 21
42.10567332949461
 31
0.0
 12
54.3875
 22
41.55533999616127
 32
0.0
 13
54.3875
 23
41.55533999616127
 33
0.0
  0
SOLID
  5
200
330
1F9
100
AcDbEntity
  8
치수문자_일반주서
 62
     0
100
AcDbTrace
 10
-43.91050000000001
 20
42.10567332949461
 30
0.0
 11
-43.91050000000001
 21
41.00500666282794
 31
0.0
 12
-47.21250000000001
 22
41.55533999616127
 32
0.0
 13
-47.21250000000001
 23
41.55533999616127
 33
0.0
  0
MTEXT
  5
201
330
1F9
100
AcDbEntity
  8
치수문자_일반주서
 62
     0
100
AcDbMText
 10
2.0
 20
45.93033999616127
 30
0.0
 40
3.5
 41
0.0
 71
     2
 72
     1
  1
\A1;101.6 [4]
  7
SLDTEXTSTYLE0
 73
     1
 44
1.0
  0
POINT
  5
202
330
1F9
100
AcDbEntity
  8
Defpoints
 62
     0
100
AcDbPoint
 10
54.3875
 20
12.65329691240969
 30
0.0
  0
POINT
  5
203
330
1F9
100
AcDbEntity
  8
Defpoints
 62
     0
100
AcDbPoint
 10
-47.21250000000001
 20
6.984999999999978
 30
0.0
  0
POINT
  5
204
330
1F9
100
AcDbEntity
  8
Defpoints
 62
     0
100
AcDbPoint
 10
-47.21250000000001
 20
41.55533999616127
 30
0.0
  0
ENDBLK
  5
1FB
330
1F9
100
AcDbEntity
  8
0
100
AcDbBlockEnd
  0
BLOCK
  5
206
330
205
100
AcDbEntity
  8
0
100
AcDbBlockBegin
  2
*D13
 70
     1
 10
0.0
 20
0.0
 30
0.0
  3
*D13
  1
*D14
  0
LINE
  5
208
330
205
100
AcDbEntity
  8
치수문자_일반주서
 62
     0
370
    -2
100
AcDbLine
 10
-44.73500000000001
 20
7.937500000000006
 30
0.0
 11
-60.03827283782725
 21
7.93749999999995
 31
0.0
  0
LINE
  5
209
330
205
100
AcDbEntity
  8
치수문자_일반주서
 62
     0
370
    -2
100
AcDbLine
 10
-44.73500000000003
 20
-7.937499999999996
 30
0.0
 11
-60.03827283782719
 21
-7.937500000000052
 31
0.0
  0
LINE
  5
20A
330
205
100
AcDbEntity
  8
치수문자_일반주서
 62
     0
370
    -2
100
AcDbLine
 10
-60.03827283782724
 20
4.635499999999951
 30
0.0
 11
-60.03827283782721
 21
-4.635500000000052
 31
0.0
  0
SOLID
  5
20B
330
205
100
AcDbEntity
  8
치수문자_일반주서
 62
     0
100
AcDbTrace
 10
-59.4879395044939
 20
4.635499999999952
 30
0.0
 11
-60.58860617116057
 21
4.635499999999949
 31
0.0
 12
-60.03827283782725
 22
7.93749999999995
 32
0.0
 13
-60.03827283782725
 23
7.93749999999995
 33
0.0
  0
SOLID
  5
20C
330
205
100
AcDbEntity
  8
치수문자_일반주서
 62
     0
100
AcDbTrace
 10
-60.58860617116054
 20
-4.635500000000054
 30
0.0
 11
-59.48793950449387
 21
-4.63550000000005
 31
0.0
 12
-60.03827283782719
 22
-7.937500000000052
 32
0.0
 13
-60.03827283782719
 23
-7.937500000000052
 33
0.0
  0
MTEXT
  5
20D
330
205
100
AcDbEntity
  8
치수문자_일반주서
 62
     0
100
AcDbMText
 10
-64.41327283782722
 20
-0.0000000000000706
 30
0.0
 40
3.5
 41
0.0
 71
     2
 72
     1
  1
\A1;%%c15.88 [5/8]
  7
SLDTEXTSTYLE0
 11
-3.580687802255622E-15
 21
1.0
 31
0.0
 73
     1
 44
1.0
  0
POINT
  5
20E
330
205
100
AcDbEntity
  8
Defpoints
 62
     0
100
AcDbPoint
 10
-44.67250000000001
 20
7.937500000000006
 30
0.0
  0
POINT
  5
20F
330
205
100
AcDbEntity
  8
Defpoints
 62
     0
100
AcDbPoint
 10
-44.67250000000003
 20
-7.937499999999996
 30
0.0
  0
POINT
  5
210
330
205
100
AcDbEntity
  8
Defpoints
 62
     0
100
AcDbPoint
 10
-60.03827283782719
 20
-7.937500000000053
 30
0.0
  0
ENDBLK
  5
207
330
205
100
AcDbEntity
  8
0
100
AcDbBlockEnd
  0
BLOCK
  5
212
330
211
100
AcDbEntity
  8
0
100
AcDbBlockBegin
  2
*D14
 70
     1
 10
0.0
 20
0.0
 30
0.0
  3
*D14
  1
*D15
  0
LINE
  5
214
330
211
100
AcDbEntity
  8
치수문자_일반주서
 62
     0
370
    -2
100
AcDbLine
 10
54.45
 20
12.69999999999999
 30
0.0
 11
71.33947993252895
 21
12.69999999999999
 31
0.0
  0
LINE
  5
215
330
211
100
AcDbEntity
  8
치수문자_일반주서
 62
     0
370
    -2
100
AcDbLine
 10
54.45
 20
-12.70000000000001
 30
0.0
 11
71.33947993252895
 21
-12.70000000000001
 31
0.0
  0
LINE
  5
216
330
211
100
AcDbEntity
  8
치수문자_일반주서
 62
     0
370
    -2
100
AcDbLine
 10
71.33947993252895
 20
9.397999999999994
 30
0.0
 11
71.33947993252895
 21
-9.398000000000012
 31
0.0
  0
SOLID
  5
217
330
211
100
AcDbEntity
  8
치수문자_일반주서
 62
     0
100
AcDbTrace
 10
71.88981326586227
 20
9.397999999999994
 30
0.0
 11
70.78914659919562
 21
9.397999999999994
 31
0.0
 12
71.33947993252895
 22
12.69999999999999
 32
0.0
 13
71.33947993252895
 23
12.69999999999999
 33
0.0
  0
SOLID
  5
218
330
211
100
AcDbEntity
  8
치수문자_일반주서
 62
     0
100
AcDbTrace
 10
70.78914659919562
 20
-9.398000000000012
 30
0.0
 11
71.88981326586227
 21
-9.398000000000012
 31
0.0
 12
71.33947993252895
 22
-12.70000000000001
 32
0.0
 13
71.33947993252895
 23
-12.70000000000001
 33
0.0
  0
MTEXT
  5
219
330
211
100
AcDbEntity
  8
치수문자_일반주서
 62
     0
100
AcDbMText
 10
68.71447993252895
 20
-0.0000000000000089
 30
0.0
 40
3.5
 41
0.0
 71
     5
 72
     1
  1
\A1;{%%C25.4 [1]}
  7
SLDTEXTSTYLE0
 11
0.0
 21
1.0
 31
0.0
 73
     1
 44
1.0
  0
POINT
  5
21A
330
211
100
AcDbEntity
  8
Defpoints
 62
     0
100
AcDbPoint
 10
54.3875
 20
12.69999999999999
 30
0.0
  0
POINT
  5
21B
330
211
100
AcDbEntity
  8
Defpoints
 62
     0
100
AcDbPoint
 10
54.3875
 20
-12.70000000000001
 30
0.0
  0
POINT
  5
21C
330
211
100
AcDbEntity
  8
Defpoints
 62
     0
100
AcDbPoint
 10
71.33947993252895
 20
-12.70000000000001
 30
0.0
  0
ENDBLK
  5
213
330
211
100
AcDbEntity
  8
0
100
AcDbBlockEnd
  0
ENDSEC
  0
SECTION
  2
ENTITIES
  0
LINE
  5
AC
330
1F
100
AcDbEntity
  8
참조1
100
AcDbLine
 10
8.44990766425388
 20
0.0010749287238803
 30
0.0
 11
8.449907664253885
 21
-39.99892507127612
 31
0.0
  0
LINE
  5
AD
330
1F
100
AcDbEntity
  8
참조1
100
AcDbLine
 10
8.449907664253885
 20
-39.99892507127612
 30
0.0
 11
-17.82144915005479
 21
-39.99892507127611
 31
0.0
  0
INSERT
  5
AF
330
1F
100
AcDbEntity
  8
0
  6
Continuous
 62
     7
100
AcDbBlockReference
 66
     1
  2
블럭10
 10
-5.490365267871324
 20
-52.04609937292005
 30
0.0
  0
ATTRIB
  5
B0
330
AF
100
AcDbEntity
  8
FORMAT
 62
     2
100
AcDbText
 10
-14.67166055661261
 20
-49.97073246008787
 30
0.0
 40
4.233333333333333
  1
E1039964 [ 4 FLUTE ]
 41
0.75
  7
SLDTEXTSTYLE0
 11
-14.67166055661261
 21
-52.08739912675453
 31
0.0
100
AcDbAttribute
  2
AUTOATTR0
 70
     0
 74
     1
  0
SEQEND
  5
B1
330
AF
100
AcDbEntity
  8
0
  6
Continuous
 62
     7
  0
HATCH
  5
B2
330
1F
100
AcDbEntity
  8
중심선
100
AcDbHatch
 10
0.0
 20
0.0
 30
0.0
210
0.0
220
0.0
230
1.0
  2
SOLID
 70
     1
 71
     0
 91
        1
 92
        0
 93
        4
 72
     1
 10
0.224544036509511
 20
-35.79892507127611
 11
-3.221731207327772
 21
-35.79892507127611
 72
     1
 10
-3.221731207327772
 20
-35.79892507127611
 11
-5.349961066531794
 21
-38.33525065184871
 72
     1
 10
-5.349961066531794
 20
-38.33525065184871
 11
-1.903652737581362
 21
-38.33521122254622
 72
     1
 10
-1.903652737581363
 20
-38.33521122254622
 11
0.2245440365095115
 21
-35.79892507127611
 97
        0
 75
     0
 76
     1
 98
        1
 10
1.587499999999992
 20
-0.0000000000000089
  0
HATCH
  5
B3
330
1F
100
AcDbEntity
  8
중심선
100
AcDbHatch
 10
0.0
 20
0.0
 30
0.0
210
0.0
220
0.0
230
1.0
  2
SOLID
 70
     1
 71
     0
 91
        1
 92
        0
 93
        4
 72
     1
 10
5.23730802754549
 20
-35.79892507127611
 11
1.791032783708208
 21
-35.79892507127611
 72
     1
 10
1.791032783708208
 20
-35.79892507127611
 11
-2.740105224649208
 21
-41.19892507127613
 72
     1
 10
-2.740105224649209
 20
-41.19892507127613
 11
0.706170019188074
 21
-41.19892507127613
 72
     1
 10
0.706170019188074
 20
-41.19892507127613
 11
5.23730802754549
 21
-35.79892507127611
 97
        0
 75
     0
 76
     1
 98
        1
 10
1.587499999999992
 20
-0.0000000000000089
  0
HATCH
  5
B4
330
1F
100
AcDbEntity
  8
중심선
100
AcDbHatch
 10
0.0
 20
0.0
 30
0.0
210
0.0
220
0.0
230
1.0
  2
SOLID
 70
     1
 71
     0
 91
        1
 92
        0
 93
        4
 72
     1
 10
10.25007201858141
 20
-35.79892507127609
 11
6.803796774744269
 21
-35.79892507127611
 72
     1
 10
6.803796774744269
 20
-35.79892507127611
 11
-0.2446401271450078
 21
-44.19892507127613
 72
     1
 10
-0.2446401271450069
 20
-44.19892507127613
 11
3.201635116692275
 21
-44.19892507127613
 72
     1
 10
3.201635116692275
 20
-44.19892507127613
 11
10.25007201858141
 21
-35.79892507127609
 97
        0
 75
     0
 76
     1
 98
        1
 10
1.587499999999992
 20
-0.0000000000000089
  0
HATCH
  5
B5
330
1F
100
AcDbEntity
  8
중심선
100
AcDbHatch
 10
0.0
 20
0.0
 30
0.0
210
0.0
220
0.0
230
1.0
  2
SOLID
 70
     1
 71
     0
 91
        1
 92
        0
 93
        6
 72
     3
 10
15.04996244959356
 20
-39.99892507132738
 11
3.960054785062285
 21
1.540882976769353E-10
 40
0.3939339440162626
 50
17.09539180608436
 51
320.0019657685081
 73
     0
 72
     1
 10
16.73296210529415
 20
-38.58681907591441
 11
19.03826397899522
 21
-36.65249236586646
 72
     3
 10
15.04996244954071
 20
-39.99892507127626
 11
6.600054785286828
 21
-1.278976924368180E-13
 40
0.6363583540795982
 50
39.99873849337411
 51
368.4976242363724
 73
     1
 72
     1
 10
21.47529494144132
 20
-39.03892507120614
 11
13.73002975637663
 21
-39.03892507120614
 72
     1
 10
13.73002975637663
 20
-39.03892507120614
 11
13.7300047119307
 21
-40.95892507120602
 72
     1
 10
13.7300047119307
 20
-40.95892507120602
 11
18.17138448140274
 21
-40.958925071206
 97
        0
 75
     0
 76
     1
 98
        1
 10
1.587499999999992
 20
-0.0000000000000089
  0
LINE
  5
105
330
1F
100
AcDbEntity
  8
참조1
100
AcDbLine
 10
80.15089147959948
 20
7.441074928723887
 30
0.0
 11
80.15089147959948
 21
-7.438925071276118
 31
0.0
  0
LINE
  5
106
330
1F
100
AcDbEntity
  8
참조1
100
AcDbLine
 10
92.85089147959948
 20
5.441074928723887
 30
0.0
 11
80.15089147959948
 21
5.441074928723887
 31
0.0
  0
SOLID
  5
107
330
1F
100
AcDbEntity
  8
참조1
100
AcDbTrace
 10
80.15089147959948
 20
5.441074928723887
 30
0.0
 11
86.50089147959947
 21
4.425074928723887
 31
0.0
 12
86.50089147959947
 22
6.457074928723887
 32
0.0
 13
86.50089147959947
 23
6.457074928723887
 33
0.0
  0
LINE
  5
108
330
1F
100
AcDbEntity
  8
참조1
100
AcDbLine
 10
92.85089147959948
 20
-5.438925071276118
 30
0.0
 11
80.15089147959948
 21
-5.438925071276118
 31
0.0
  0
SOLID
  5
109
330
1F
100
AcDbEntity
  8
참조1
100
AcDbTrace
 10
80.15089147959948
 20
-5.438925071276118
 30
0.0
 11
86.50089147959947
 21
-6.454925071276118
 31
0.0
 12
86.50089147959947
 22
-4.422925071276118
 32
0.0
 13
86.50089147959947
 23
-4.422925071276118
 33
0.0
  0
MTEXT
  5
10A
330
1F
100
AcDbEntity
  8
참조1
100
AcDbMText
 10
89.53524161222546
 20
11.01136670591221
 30
0.0
 40
3.5
 41
0.0
 71
     1
 72
     1
  1
A
  7
SLDTEXTSTYLE0
 73
     1
 44
1.0
  0
MTEXT
  5
10B
330
1F
100
AcDbEntity
  8
참조1
100
AcDbMText
 10
89.53524161222546
 20
0.1313667059122104
 30
0.0
 40
3.5
 41
0.0
 71
     1
 72
     1
  1
A
  7
SLDTEXTSTYLE0
 73
     1
 44
1.0
  0
LINE
  5
1C5
330
1F
100
AcDbEntity
  8
외형선
  6
Continuous
370
    15
100
AcDbLine
 10
-47.21250000000001
 20
-5.397500000000005
 30
0.0
 11
-44.67250000000003
 21
-7.937499999999996
 31
0.0
  0
LINE
  5
1C6
330
1F
100
AcDbEntity
  8
외형선
  6
Continuous
 62
     1
370
    15
100
AcDbLine
 10
49.65466257534182
 20
3.765779968501949
 30
0.0
 11
49.5728356001401
 21
3.810008854975429
 31
0.0
  0
LINE
  5
1C7
330
1F
100
AcDbEntity
  8
외형선
  6
Continuous
 62
     1
370
    15
100
AcDbLine
 10
29.46486888591626
 20
12.69999999999998
 30
0.0
 11
21.72153744126827
 21
12.69999999999998
 31
0.0
  0
LINE
  5
1C8
330
1F
100
AcDbEntity
  8
외형선
  6
Continuous
 62
     1
370
    15
100
AcDbLine
 10
21.7215374412681
 20
-12.70000000000003
 30
0.0
 11
29.46486888591627
 21
-12.70000000000003
 31
0.0
  0
LINE
  5
1C9
330
1F
100
AcDbEntity
  8
외형선
  6
Continuous
 62
     1
370
    15
100
AcDbLine
 10
54.3875
 20
-11.50215313554799
 30
0.0
 11
54.3875
 21
1.088153135548103
 31
0.0
  0
LINE
  5
1CA
330
1F
100
AcDbEntity
  8
외형선
  6
Continuous
 62
     1
370
    15
100
AcDbLine
 10
54.3875
 20
-12.65329691240974
 30
0.0
 11
54.3875
 21
-11.50215313554799
 31
0.0
  0
SPLINE
  5
1CB
330
1F
100
AcDbEntity
  8
외형선
  6
Continuous
 62
     1
370
    15
100
AcDbSpline
210
0.0
220
0.0
230
1.0
 70
     8
 71
     3
 72
    15
 73
    11
 74
     0
 42
0.000000001
 43
0.00000001
 40
0.0
 40
0.0
 40
0.0
 40
0.0
 40
0.103189974260182
 40
0.2313121825998095
 40
0.3594170849856921
 40
0.4875137615656505
 40
0.6156113083732392
 40
0.7437188197609343
 40
0.8718453708401903
 40
1.0
 40
1.0
 40
1.0
 40
1.0
 10
29.46486888591627
 20
12.68117925589061
 30
0.0
 10
30.32217341059784
 20
12.67200395494628
 30
0.0
 10
32.24391999672238
 20
12.65143646374706
 30
0.0
 10
35.22978315847779
 20
12.30491299307515
 30
0.0
 10
38.42249528389777
 20
11.70396850090757
 30
0.0
 10
41.6149557273862
 20
10.84910374525699
 30
0.0
 10
44.80744285162264
 20
9.768670315850414
 30
0.0
 10
48.00023097481998
 20
8.480012227642309
 30
0.0
 10
51.19357512621063
 20
7.021145569547222
 30
0.0
 10
53.32278061705595
 20
5.929941838896259
 30
0.0
 10
54.3875
 20
5.384280197612544
 30
0.0
  0
LINE
  5
1CC
330
1F
100
AcDbEntity
  8
외형선
  6
Continuous
 62
     1
370
    15
100
AcDbLine
 10
54.3875
 20
1.088153135548104
 30
0.0
 11
54.3875
 21
5.384280197612544
 31
0.0
  0
SPLINE
  5
1CD
330
1F
100
AcDbEntity
  8
외형선
  6
Continuous
 62
     1
370
    15
100
AcDbSpline
210
0.0
220
0.0
230
1.0
 70
     8
 71
     3
 72
    11
 73
     7
 74
     0
 42
0.000000001
 43
0.00000001
 40
0.0
 40
0.0
 40
0.0
 40
0.0
 40
0.2767052879046528
 40
0.5533482131093292
 40
0.8299492708718522
 40
0.9999999999999999
 40
0.9999999999999999
 40
0.9999999999999999
 40
0.9999999999999999
 10
54.3875
 20
12.65329691240969
 30
0.0
 10
53.32509973803433
 20
12.57565404647515
 30
0.0
 10
51.20053865350546
 20
12.42038581343593
 30
0.0
 10
48.01417297681043
 20
11.847533572544
 30
0.0
 10
45.23734757998075
 20
11.17912575466107
 30
0.0
 10
43.52262043415811
 20
10.6061345715483
 30
0.0
 10
42.86978390699934
 20
10.38798349428377
 30
0.0
  0
LINE
  5
1CE
330
1F
100
AcDbEntity
  8
외형선
  6
Continuous
 62
     1
370
    15
100
AcDbLine
 10
54.3875
 20
5.369567747644776
 30
0.0
 11
54.3875
 21
12.65329691240969
 31
0.0
  0
LINE
  5
1CF
330
1F
100
AcDbEntity
  8
중심선
 62
     1
100
AcDbLine
 10
-54.21250000000001
 20
-0.000000000000009
 30
0.0
 11
57.3875
 21
-0.0000000000000124
 31
0.0
  0
CIRCLE
  5
1D0
330
1F
100
AcDbEntity
  8
해칭선
100
AcDbCircle
 10
0.0
 20
0.0
 30
0.0
 40
3.0
  0
DIMENSION
  5
1D1
330
1F
100
AcDbEntity
  8
치수문자_일반주서
100
AcDbDimension
  2
*D11
 10
6.762499999999989
 20
25.83413479835848
 30
0.0
 11
28.98750000000003
 21
25.83413479835848
 31
0.0
 70
   160
  1
<>
 71
     2
 42
47.62500000000001
  3
SLDDIMSTYLE0
100
AcDbAlignedDimension
 13
54.3875
 23
12.65329691240969
 33
0.0
 14
6.762499999999989
 24
12.69999999999999
 34
0.0
 50
0.000000000000008
100
AcDbRotatedDimension
1001
ACAD
1000
DSTYLE
1002
{
1070
   171
1070
     6
1070
   273
1070
     7
1002
}
  0
DIMENSION
  5
1D2
330
1F
100
AcDbEntity
  8
치수문자_일반주서
100
AcDbDimension
  2
*D12
 10
-47.21250000000001
 20
41.55533999616127
 30
0.0
 11
2.0
 21
41.55533999616127
 31
0.0
 70
   160
  1
<>
 71
     2
 42
101.6
  3
SLDDIMSTYLE0
100
AcDbAlignedDimension
 13
54.3875
 23
12.65329691240969
 33
0.0
 14
-47.21250000000001
 24
6.984999999999978
 34
0.0
 50
0.0000000000000036
100
AcDbRotatedDimension
1001
ACAD
1000
DSTYLE
1002
{
1070
   171
1070
     6
1070
   273
1070
     7
1002
}
  0
DIMENSION
  5
1D3
330
1F
100
AcDbEntity
  8
치수문자_일반주서
100
AcDbDimension
  2
*D13
 10
-60.03827283782719
 20
-7.937500000000052
 30
0.0
 11
-60.03827283782722
 21
-0.0000000000000551
 31
0.0
 70
   160
  1
%%c<>
 71
     2
 42
15.875
 52
-270.0
  3
SLDDIMSTYLE1
100
AcDbAlignedDimension
 13
-44.67250000000001
 23
7.937500000000006
 33
0.0
 14
-44.67250000000003
 24
-7.937499999999996
 34
0.0
 50
90.0000000000002
100
AcDbRotatedDimension
1001
ACAD
1000
DSTYLE
1002
{
1070
   171
1070
     6
1070
   273
1070
     7
1002
}
  0
INSERT
  5
1D4
330
1F
100
AcDbEntity
  8
해칭선
100
AcDbBlockReference
  2
SW_DOWELSYMBOL_0
 10
0.0
 20
0.0
 30
0.0
  0
LINE
  5
1D5
330
1F
100
AcDbEntity
  8
0
 62
     1
100
AcDbLine
 10
54.3875
 20
12.69999999999999
 30
0.0
 11
54.3875
 21
-12.70000000000001
 31
0.0
  0
DIMENSION
  5
1D6
330
1F
100
AcDbEntity
  8
치수문자_일반주서
100
AcDbDimension
  2
*D14
 10
71.33947993252895
 20
-12.70000000000001
 30
0.0
 11
68.71447993252895
 21
-0.0000000000000089
 31
0.0
 70
    32
  1
{%%C<>[]}
 71
     5
 42
25.4
  3
SLDDIMSTYLE0
100
AcDbAlignedDimension
 13
54.3875
 23
12.69999999999999
 33
0.0
 14
54.3875
 24
-12.70000000000001
 34
0.0
 50
90.0
100
AcDbRotatedDimension
1001
ACAD
1000
DSTYLE
1002
{
1070
   283
1070
     1
1070
   170
1070
     1
1070
   171
1070
     6
1070
   273
1070
     7
1002
}
  0
LINE
  5
1D7
330
1F
100
AcDbEntity
  8
외형선
  6
Continuous
370
    15
100
AcDbLine
 10
6.762499999999989
 20
12.69999999999999
 30
0.0
 11
6.762499999999989
 21
-12.70000000000001
 31
0.0
  0
LINE
  5
1D8
330
1F
100
AcDbEntity
  8
외형선
  6
Continuous
 62
     1
370
    15
100
AcDbLine
 10
6.762499999999989
 20
12.69999999999999
 30
0.0
 11
21.7252653775378
 21
12.69989477345941
 31
0.0
  0
SPLINE
  5
1D9
330
1F
100
AcDbEntity
  8
외형선
  6
Continuous
 62
     1
370
    15
100
AcDbSpline
210
0.0
220
0.0
230
1.0
 70
     8
 71
     3
 72
    20
 73
    16
 74
     0
 42
0.000000001
 43
0.00000001
 40
0.0808199449342745
 40
0.0808199449342745
 40
0.0808199449342745
 40
0.0808199449342745
 40
0.0811346896674857
 40
0.1622512250185782
 40
0.2433538775755048
 40
0.3244486756578991
 40
0.4055416632245812
 40
0.4851902508376895
 40
0.5648528351145009
 40
0.6445379511573459
 40
0.7242209199663945
 40
0.8055079719358661
 40
0.8867840441542105
 40
0.9680548975153221
 40
1.0
 40
1.0
 40
1.0
 40
1.0
 10
6.762499999999989
 20
-6.515237515576414
 30
0.0
 10
6.76662148649622
 20
-6.517290098251095
 30
0.0
 10
7.832939195372759
 20
-7.048231486776404
 30
0.0
 10
9.961208022548405
 20
-8.052911288126642
 30
0.0
 10
13.1471362831152
 20
-9.39573677865706
 30
0.0
 10
16.33268766860471
 20
-10.53978620174031
 30
0.0
 10
19.49920310315909
 20
-11.45812565128731
 30
0.0
 10
22.64693728030399
 20
-12.13579457227479
 30
0.0
 10
25.77634726982251
 20
-12.56419349688836
 30
0.0
 10
28.90645615181323
 20
-12.73895685466506
 30
0.0
 10
32.05779373589665
 20
-12.65484901124944
 30
0.0
 10
35.22978432863046
 20
-12.31196503155269
 30
0.0
 10
38.42249593020746
 20
-11.69411416716671
 30
0.0
 10
40.96909383143272
 20
-11.04587250280745
 30
0.0
 10
42.45150547920395
 20
-10.53276290029356
 30
0.0
 10
42.86978390699936
 20
-10.38798349428382
 30
0.0
  0
SPLINE
  5
1DA
330
1F
100
AcDbEntity
  8
외형선
  6
Continuous
 62
     1
370
    15
100
AcDbSpline
210
0.0
220
0.0
230
1.0
 70
     8
 71
     3
 72
    13
 73
     9
 74
     0
 42
0.000000001
 43
0.00000001
 40
0.0
 40
0.0
 40
0.0
 40
0.0
 40
0.119586889687062
 40
0.2956361376781952
 40
0.4716899720998234
 40
0.6477608870216934
 40
0.8238613435400077
 40
0.8249266445602849
 40
0.8249266445602849
 40
0.8249266445602849
 40
0.8249266445602849
 10
21.7215374412681
 20
-12.67086899261527
 30
0.0
 10
20.99868996083072
 20
-12.67051333105232
 30
0.0
 10
19.21170613838895
 20
-12.66963408407913
 30
0.0
 10
16.36060210230669
 20
-12.36151244925887
 30
0.0
 10
13.16805941964361
 20
-11.79535607316065
 30
0.0
 10
9.975145146370636
 20
-10.96742687038574
 30
0.0
 10
7.839901434484503
 20
-10.2700744260707
 30
0.0
 10
6.768939714003125
 20
-9.876826829304248
 30
0.0
 10
6.762499999999989
 20
-9.874460661179882
 30
0.0
  0
SPLINE
  5
1DB
330
1F
100
AcDbEntity
  8
외형선
  6
Continuous
 62
     1
370
    15
100
AcDbSpline
210
0.0
220
0.0
230
1.0
 70
     8
 71
     3
 72
    56
 73
    52
 74
     0
 42
0.000000001
 43
0.00000001
 40
0.0
 40
0.0
 40
0.0
 40
0.0
 40
0.0625000000000007
 40
0.0625000000000007
 40
0.0937500000000007
 40
0.0937500000000007
 40
0.1250000000000007
 40
0.1250000000000007
 40
0.1562500000000007
 40
0.1562500000000007
 40
0.1875000000000008
 40
0.1875000000000008
 40
0.2500000000000008
 40
0.2500000000000008
 40
0.3125000000000008
 40
0.3125000000000008
 40
0.3437500000000009
 40
0.3437500000000009
 40
0.3750000000000009
 40
0.3750000000000009
 40
0.4062500000000009
 40
0.4062500000000009
 40
0.4375000000000009
 40
0.4375000000000009
 40
0.5000000000000009
 40
0.5000000000000009
 40
0.562500000000001
 40
0.562500000000001
 40
0.5937500000000007
 40
0.5937500000000007
 40
0.6250000000000003
 40
0.6250000000000003
 40
0.6562500000000001
 40
0.6562500000000001
 40
0.6874999999999998
 40
0.6874999999999998
 40
0.7499999999999992
 40
0.7499999999999992
 40
0.7812499999999992
 40
0.7812499999999992
 40
0.8124999999999992
 40
0.8124999999999992
 40
0.8437499999999992
 40
0.8437499999999992
 40
0.8749999999999992
 40
0.8749999999999992
 40
0.9062499999999993
 40
0.9062499999999993
 40
0.9374999999999993
 40
0.9374999999999993
 40
0.9375238101118121
 40
0.9375238101118121
 40
0.9375238101118121
 40
0.9375238101118121
 10
54.3875
 20
-12.65329691240974
 30
0.0
 10
53.33278912215177
 20
-12.60100312106295
 30
0.0
 10
52.26860882236274
 20
-12.50449091193718
 30
0.0
 10
50.6829375891276
 20
-12.29549712680132
 30
0.0
 10
50.155721030105
 20
-12.21517842628208
 30
0.0
 10
49.0963752826204
 20
-12.03322179628627
 30
0.0
 10
48.56579775907441
 20
-11.93164700191014
 30
0.0
 10
47.50697631308988
 20
-11.70810788127359
 30
0.0
 10
46.98020709619742
 20
-11.58627726970654
 30
0.0
 10
45.92226471075394
 20
-11.3224011437774
 30
0.0
 10
45.39178678841712
 20
-11.18038452601612
 30
0.0
 10
43.80204330703872
 20
-10.72570996270429
 30
0.0
 10
42.74777887898493
 20
-10.38481970970889
 30
0.0
 10
40.62750976528004
 20
-9.632112580086138
 30
0.0
 10
39.57313384410385
 20
-9.221671746608127
 30
0.0
 10
37.98352762568662
 20
-8.559150480444147
 30
0.0
 10
37.45301676490477
 20
-8.330583085040137
 30
0.0
 10
36.39485197164362
 20
-7.859800624780107
 30
0.0
 10
35.86814102976574
 20
-7.617746203085918
 30
0.0
 10
34.80950239901499
 20
-7.120045624287204
 30
0.0
 10
34.27893785047212
 20
-6.864594358992711
 30
0.0
 10
33.21946085106457
 20
-6.342474908740996
 30
0.0
 10
32.69203460006823
 20
-6.076064584556136
 30
0.0
 10
31.10677394483443
 20
-5.261237342997877
 30
0.0
 10
30.04255332313993
 20
-4.696526476595217
 30
0.0
 10
27.93242697067656
 20
-3.541728925053066
 30
0.0
 10
26.86899501270773
 20
-2.948472192483592
 30
0.0
 10
25.28293091793721
 20
-2.048007128335144
 30
0.0
 10
24.75588915968932
 20
-1.74612871307016
 30
0.0
 10
23.69668655858821
 20
-1.138890716854567
 30
0.0
 10
23.16610204116267
 20
-0.8338297402433312
 30
0.0
 10
22.10710965477143
 20
-0.223206253577823
 30
0.0
 10
21.580247254952
 20
0.0820574133461882
 30
0.0
 10
20.52253911926218
 20
0.6926790459717935
 30
0.0
 10
19.99210011274677
 20
0.9979579832963914
 30
0.0
 10
18.40223723725741
 20
1.910119887007159
 30
0.0
 10
17.34805526008914
 20
2.512609579220896
 30
0.0
 10
15.75787131084239
 20
3.401826742406183
 30
0.0
 10
15.22769362414657
 20
3.695551326947861
 30
0.0
 10
14.17123803972804
 20
4.275367716267173
 30
0.0
 10
13.64347651148657
 20
4.561737832250916
 30
0.0
 10
12.58384245031992
 20
5.126798150170497
 30
0.0
 10
12.05330462970853
 20
5.405242023322796
 30
0.0
 10
10.9949292788843
 20
5.951793997200578
 30
0.0
 10
10.46824170193069
 20
6.219718765459699
 30
0.0
 10
9.409797754397957
 20
6.745170722107972
 30
0.0
 10
8.879252161493469
 20
7.002480642036467
 30
0.0
 10
7.819655809540407
 20
7.504246325446861
 30
0.0
 10
7.291984983204841
 20
7.748496149017807
 30
0.0
 10
6.763305017452012
 20
7.98609784519401
 30
0.0
 10
6.762902509283862
 20
7.986278737824289
 30
0.0
 10
6.762499999999989
 20
7.98645962657929
 30
0.0
  0
SPLINE
  5
1DC
330
1F
100
AcDbEntity
  8
외형선
  6
Continuous
 62
     1
370
    15
100
AcDbSpline
210
0.0
220
0.0
230
1.0
 70
     8
 71
     3
 72
    56
 73
    52
 74
     0
 42
0.000000001
 43
0.00000001
 40
0.0
 40
0.0
 40
0.0
 40
0.0
 40
0.0625000000000003
 40
0.0625000000000003
 40
0.0937500000000002
 40
0.0937500000000002
 40
0.125
 40
0.125
 40
0.1562499999999998
 40
0.1562499999999998
 40
0.1874999999999996
 40
0.1874999999999996
 40
0.2499999999999992
 40
0.2499999999999992
 40
0.3124999999999988
 40
0.3124999999999988
 40
0.3437499999999986
 40
0.3437499999999986
 40
0.3749999999999984
 40
0.3749999999999984
 40
0.4062499999999983
 40
0.4062499999999983
 40
0.4374999999999981
 40
0.4374999999999981
 40
0.4999999999999977
 40
0.4999999999999977
 40
0.5624999999999973
 40
0.5624999999999973
 40
0.5937499999999971
 40
0.5937499999999971
 40
0.624999999999997
 40
0.624999999999997
 40
0.6562499999999968
 40
0.6562499999999968
 40
0.6874999999999967
 40
0.6874999999999967
 40
0.7499999999999969
 40
0.7499999999999969
 40
0.7812499999999972
 40
0.7812499999999972
 40
0.8124999999999977
 40
0.8124999999999977
 40
0.843749999999998
 40
0.843749999999998
 40
0.8749999999999984
 40
0.8749999999999984
 40
0.9062499999999988
 40
0.9062499999999988
 40
0.9374999999999992
 40
0.9374999999999992
 40
0.9375238101118124
 40
0.9375238101118124
 40
0.9375238101118124
 40
0.9375238101118124
 10
54.3875
 20
-11.50215313554799
 30
0.0
 10
53.33278912215168
 20
-11.24339872313265
 30
0.0
 10
52.26860882236265
 20
-10.94382056627385
 30
0.0
 10
50.6829375891276
 20
-10.44007049362534
 30
0.0
 10
50.15572103010503
 20
-10.26310493401649
 30
0.0
 10
49.09637528262037
 20
-9.891112676797833
 30
0.0
 10
48.56579775907441
 20
-9.696246525514486
 30
0.0
 10
47.50697631308982
 20
-9.290304186448756
 30
0.0
 10
46.98020709619747
 20
-9.079440646101936
 30
0.0
 10
45.92226471075396
 20
-8.641752399621415
 30
0.0
 10
45.39178678841715
 20
-8.41500117050177
 30
0.0
 10
43.80204330703874
 20
-7.713642019271537
 30
0.0
 10
42.74777887898499
 20
-7.21847363449152
 30
0.0
 10
40.62750976528007
 20
-6.179673857279221
 30
0.0
 10
39.57313384410388
 20
-5.63794314557137
 30
0.0
 10
37.98352762568662
 20
-4.797475180292736
 30
0.0
 10
37.45301676490483
 20
-4.512789205286889
 30
0.0
 10
36.39485197164366
 20
-3.936591945856392
 30
0.0
 10
35.86814102976572
 20
-3.645262671134343
 30
0.0
 10
34.80950239901502
 20
-3.055827749937498
 30
0.0
 10
34.27893785047216
 20
-2.757966735615911
 30
0.0
 10
33.2194608510646
 20
-2.158279385383345
 30
0.0
 10
32.69203460006823
 20
-1.856739166745712
 30
0.0
 10
31.10677394483442
 20
-0.9475119479599332
 30
0.0
 10
30.04255332313993
 20
-0.3345450281237312
 30
0.0
 10
27.93242697067664
 20
0.8859605199896325
 30
0.0
 10
26.86899501270769
 20
1.496856686790588
 30
0.0
 10
25.28293091793709
 20
2.400515088871799
 30
0.0
 10
24.75588915968932
 20
2.699603709837524
 30
0.0
 10
23.69668655858821
 20
3.293540063334653
 30
0.0
 10
23.16610204116266
 20
3.588085645613933
 30
0.0
 10
22.10710965477145
 20
4.170032831297291
 30
0.0
 10
21.58024725495196
 20
4.457160325793872
 30
0.0
 10
20.52253911926218
 20
5.023911470908896
 30
0.0
 10
19.9921001127468
 20
5.303451081201221
 30
0.0
 10
18.40223723725741
 20
6.127260815946247
 30
0.0
 10
17.34805526008913
 20
6.656103859321966
 30
0.0
 10
15.75787131084235
 20
7.413473006530804
 30
0.0
 10
15.2276936241466
 20
7.659716135667921
 30
0.0
 10
14.17123803972807
 20
8.137899802822336
 30
0.0
 10
13.64347651148658
 20
8.37007757984345
 30
0.0
 10
12.58384245031989
 20
8.82009119432578
 30
0.0
 10
12.05330462970855
 20
9.037722921417124
 30
0.0
 10
10.99492927888429
 20
9.456555375865527
 30
0.0
 10
10.46824170193067
 20
9.65762829093985
 30
0.0
 10
9.409797754397985
 20
10.0433157262361
 30
0.0
 10
8.879252161493483
 20
10.22775758064561
 30
0.0
 10
7.819655809540379
 20
10.57837832194138
 30
0.0
 10
7.291984983204898
 20
10.74442265115482
 30
0.0
 10
6.763305017452026
 20
10.90120069747098
 30
0.0
 10
6.762902509283876
 20
10.90132005400998
 30
0.0
 10
6.762499999999989
 20
10.90143940514243
 30
0.0
  0
SPLINE
  5
1DD
330
1F
100
AcDbEntity
  8
외형선
  6
Continuous
 62
     1
370
    15
100
AcDbSpline
210
0.0
220
0.0
230
1.0
 70
     8
 71
     3
 72
     8
 73
     4
 74
     0
 42
0.000000001
 43
0.00000001
 40
0.9991310861057315
 40
0.9991310861057315
 40
0.9991310861057315
 40
0.9991310861057315
 40
1.0
 40
1.0
 40
1.0
 40
1.0
 10
8.357960319434866
 20
10.40025243952964
 30
0.0
 10
8.344616409605479
 20
10.39572531154514
 30
0.0
 10
8.331272499650055
 20
10.39119793933741
 30
0.0
 10
8.317928589694603
 20
10.38667056712969
 30
0.0
  0
SPLINE
  5
1DE
330
1F
100
AcDbEntity
  8
외형선
  6
Continuous
 62
     1
370
    15
100
AcDbSpline
210
0.0
220
0.0
230
1.0
 70
     8
 71
     3
 72
    18
 73
    14
 74
     0
 42
0.000000001
 43
0.00000001
 40
0.0
 40
0.0
 40
0.0
 40
0.0
 40
0.0691775896771731
 40
0.1383395883936429
 40
0.2074911200577623
 40
0.2766373294002107
 40
0.3457833717514782
 40
0.4136995222226249
 40
0.48162934661527
 40
0.5495781220457667
 40
0.6175163413847785
 40
0.6868243734554202
 40
0.7377072983294719
 40
0.7377072983294719
 40
0.7377072983294719
 40
0.7377072983294719
 10
54.3875
 20
1.088153135548104
 30
0.0
 10
53.32509977453081
 20
1.69691793575949
 30
0.0
 10
51.20053876298668
 20
2.914310335274827
 30
0.0
 10
48.01417253902831
 20
4.673423351076039
 30
0.0
 10
44.82836995176511
 20
6.336164733285901
 30
0.0
 10
41.64286918308078
 20
7.865734039811063
 30
0.0
 10
38.47632441365198
 20
9.222571311326572
 30
0.0
 10
35.32846899300885
 20
10.38201847476294
 30
0.0
 10
32.19887672088018
 20
11.3247953122324
 30
0.0
 10
29.0686675398364
 20
12.03865477397836
 30
0.0
 10
25.91748073197211
 20
12.5125271075426
 30
0.0
 10
23.02847788889798
 20
12.71150738178958
 30
0.0
 10
21.18280471432807
 20
12.7039975160069
 30
0.0
 10
20.40144147370734
 20
12.67700330044853
 30
0.0
  0
LINE
  5
1DF
330
1F
100
AcDbEntity
  8
외형선
  6
Continuous
 62
     1
370
    15
100
AcDbLine
 10
6.762499999999989
 20
-12.70000000000001
 30
0.0
 11
21.7215374412681
 21
-12.70000000000003
 31
0.0
  0
LINE
  5
1E1
330
1F
100
AcDbEntity
  8
외형선
  6
Continuous
370
    15
100
AcDbLine
 10
-44.67250000000001
 20
-7.93750000000001
 30
0.0
 11
2.0
 21
-7.93750000000001
 31
0.0
  0
LINE
  5
1E2
330
1F
100
AcDbEntity
  8
외형선
  6
Continuous
370
    15
100
AcDbLine
 10
-47.21249999999999
 20
5.3975
 30
0.0
 11
-44.67250000000001
 21
7.937499999999992
 31
0.0
  0
LINE
  5
1E3
330
1F
100
AcDbEntity
  8
외형선
  6
Continuous
370
    15
100
AcDbLine
 10
-47.21249999999999
 20
-5.39750000000002
 30
0.0
 11
-47.21249999999999
 21
-0.0000000000000089
 31
0.0
  0
LINE
  5
1E4
330
1F
100
AcDbEntity
  8
외형선
  6
Continuous
370
    15
100
AcDbLine
 10
-47.21249999999999
 20
-0.0000000000000089
 30
0.0
 11
-47.21250000000001
 21
5.397499999999988
 31
0.0
  0
LINE
  5
1E5
330
1F
100
AcDbEntity
  8
외형선
  6
Continuous
370
    15
100
AcDbLine
 10
6.762499999999989
 20
12.69999999999999
 30
0.0
 11
2.000000000000008
 21
7.937500000000006
 31
0.0
  0
LINE
  5
1E6
330
1F
100
AcDbEntity
  8
외형선
  6
Continuous
370
    15
100
AcDbLine
 10
6.762499999999989
 20
-12.70000000000001
 30
0.0
 11
1.999999999999992
 21
-7.93750000000001
 31
0.0
  0
LINE
  5
1EC
330
1F
100
AcDbEntity
  8
외형선
  6
Continuous
370
    15
100
AcDbLine
 10
-44.67250000000001
 20
7.937500000000006
 30
0.0
 11
-29.746825
 21
7.937500000000006
 31
0.0
  0
LINE
  5
21E
330
1F
100
AcDbEntity
  8
외형선
  6
Continuous
370
    15
100
AcDbLine
 10
-44.67250000000001
 20
7.937499999999992
 30
0.0
 11
-44.67250000000001
 21
-7.93750000000001
 31
0.0
  0
LINE
  5
21F
330
1F
100
AcDbEntity
  8
외형선
  6
Continuous
370
    15
100
AcDbLine
 10
2.000000000000008
 20
7.937500000000006
 30
0.0
 11
1.999999999999992
 21
-7.93750000000001
 31
0.0
  0
LINE
  5
258
330
1F
100
AcDbEntity
  8
외형선
  6
Continuous
370
    15
100
AcDbLine
 10
-28.095825
 20
6.286499999999954
 30
0.0
 11
-17.91042499999999
 21
6.286499999999954
 31
0.0
  0
LINE
  5
259
330
1F
100
AcDbEntity
  8
외형선
  6
Continuous
370
    15
100
AcDbLine
 10
-28.095825
 20
6.286500000000053
 30
0.0
 11
-29.74682499999996
 21
7.937499999999964
 31
0.0
  0
LINE
  5
25A
330
1F
100
AcDbEntity
  8
외형선
  6
Continuous
370
    15
100
AcDbLine
 10
-17.9104250000001
 20
6.286500000000053
 30
0.0
 11
-16.25942500000009
 21
7.937499999999964
 31
0.0
  0
LINE
  5
25B
330
1F
100
AcDbEntity
  8
외형선
  6
Continuous
370
    15
100
AcDbLine
 10
-16.25942500000004
 20
7.937500000000006
 30
0.0
 11
1.999999999999993
 21
7.937500000000006
 31
0.0
  0
ENDSEC
  0
SECTION
  2
OBJECTS
  0
DICTIONARY
  5
C
330
0
100
AcDbDictionary
281
     1
  3
ACAD_GROUP
350
D
  3
ACAD_IMAGE_VARS
350
136
  3
ACAD_LAYOUT
350
1A
  3
ACAD_MLINESTYLE
350
17
  3
ACAD_PLOTSETTINGS
350
19
  3
ACAD_PLOTSTYLENAME
350
E
  3
ACAD_SCALELIST
350
47
  3
APPDATA
350
134
  3
DWGPROPS
350
280
  0
DICTIONARY
  5
1C0
330
2
100
AcDbDictionary
280
     1
281
     1
  3
ACAD_LAYERSTATES
360
1C1
  0
DICTIONARY
  5
D
102
{ACAD_REACTORS
330
C
102
}
330
C
100
AcDbDictionary
281
     1
  0
RASTERVARIABLES
  5
136
102
{ACAD_REACTORS
330
C
102
}
330
C
100
AcDbRasterVariables
 90
        0
 70
     1
 71
     1
 72
     1
  0
DICTIONARY
  5
1A
102
{ACAD_REACTORS
330
C
102
}
330
C
100
AcDbDictionary
281
     1
  3
Layout1
350
1E
  3
Layout2
350
26
  3
Model
350
22
  0
DICTIONARY
  5
17
102
{ACAD_REACTORS
330
C
102
}
330
C
100
AcDbDictionary
281
     1
  3
Standard
350
18
  0
DICTIONARY
  5
19
102
{ACAD_REACTORS
330
C
102
}
330
C
100
AcDbDictionary
281
     1
  0
ACDBDICTIONARYWDFLT
  5
E
102
{ACAD_REACTORS
330
C
102
}
330
C
100
AcDbDictionary
281
     1
  3
Normal
350
F
100
AcDbDictionaryWithDefault
340
F
  0
DICTIONARY
  5
47
102
{ACAD_REACTORS
330
C
102
}
330
C
100
AcDbDictionary
281
     1
  3
A0
350
48
  3
A1
350
49
  3
A2
350
4A
  3
A3
350
4B
  3
A4
350
4C
  3
A5
350
4D
  3
A6
350
4E
  3
A7
350
4F
  3
A8
350
50
  3
A9
350
51
  3
B0
350
52
  3
B1
350
53
  3
B2
350
54
  3
B3
350
55
  3
B4
350
56
  3
B5
350
57
  3
B6
350
58
  3
B7
350
59
  3
B8
350
5A
  3
B9
350
5B
  3
C0
350
5C
  3
C1
350
5D
  3
C2
350
5E
  3
C3
350
5F
  3
C4
350
60
  3
C5
350
61
  3
C6
350
62
  3
C7
350
63
  3
C8
350
64
  3
C9
350
65
  3
D0
350
66
  3
D1
350
67
  3
D2
350
68
  0
DICTIONARY
  5
134
102
{ACAD_REACTORS
330
C
102
}
330
C
100
AcDbDictionary
281
     1
  0
XRECORD
  5
280
102
{ACAD_REACTORS
330
C
102
}
330
C
100
AcDbXrecord
280
     1
  1
DWGPROPS COOKIE
  2

  3

  4

  6

  7

  8
12016016
  9

300
=
301
=
302
=
303
=
304
=
305
=
306
=
307
=
308
=
309
=
 40
0.0
 41
2458312.384868484
 42
2458319.289090185
  1

 90
        0
  0
DICTIONARY
  5
1C1
102
{ACAD_REACTORS
330
1C0
102
}
330
1C0
100
AcDbDictionary
281
     1
  0
LAYOUT
  5
1E
102
{ACAD_REACTORS
330
1A
102
}
330
1A
100
AcDbPlotSettings
  1

  2
none_device
  4

  6

 40
0.0
 41
0.0
 42
0.0
 43
0.0
 44
0.0
 45
0.0
 46
0.0
 47
0.0
 48
0.0
 49
0.0
140
0.0
141
0.0
142
1.0
143
1.0
 70
   688
 72
     1
 73
     0
 74
     5
  7

 75
    16
147
1.0
148
0.0
149
0.0
100
AcDbLayout
  1
Layout1
 70
     1
 71
     1
 10
0.0
 20
0.0
 11
420.0
 21
297.0
 12
0.0
 22
0.0
 32
0.0
 14
1.000000000000000E+20
 24
1.000000000000000E+20
 34
1.000000000000000E+20
 15
-1.000000000000000E+20
 25
-1.000000000000000E+20
 35
-1.000000000000000E+20
146
0.0
 13
0.0
 23
0.0
 33
0.0
 16
1.0
 26
0.0
 36
0.0
 17
0.0
 27
1.0
 37
0.0
 76
     0
330
1B
  0
LAYOUT
  5
26
102
{ACAD_REACTORS
330
1A
102
}
330
1A
100
AcDbPlotSettings
  1

  2
none_device
  4

  6

 40
0.0
 41
0.0
 42
0.0
 43
0.0
 44
0.0
 45
0.0
 46
0.0
 47
0.0
 48
0.0
 49
0.0
140
0.0
141
0.0
142
1.0
143
1.0
 70
   688
 72
     1
 73
     0
 74
     5
  7

 75
    16
147
1.0
148
0.0
149
0.0
100
AcDbLayout
  1
Layout2
 70
     1
 71
     2
 10
0.0
 20
0.0
 11
0.0
 21
0.0
 12
0.0
 22
0.0
 32
0.0
 14
0.0
 24
0.0
 34
0.0
 15
0.0
 25
0.0
 35
0.0
146
0.0
 13
0.0
 23
0.0
 33
0.0
 16
1.0
 26
0.0
 36
0.0
 17
0.0
 27
1.0
 37
0.0
 76
     0
330
23
  0
LAYOUT
  5
22
102
{ACAD_REACTORS
330
1A
102
}
330
1A
100
AcDbPlotSettings
  1

  2
none_device
  4
ANSI_A_(11.00_x_8.50_Inches)
  6

 40
6.35
 41
19.05
 42
6.35000508
 43
19.05000254
 44
279.4
 45
215.9
 46
106.7889521580535
 47
99.09810663031205
 48
0.0
 49
0.0
140
0.0
141
0.0
142
0.0711206359935618
143
1.0
 70
  1696
 72
     0
 73
     0
 74
     0
  7

 75
     0
147
0.0235690232323232
148
0.0
149
0.0
100
AcDbLayout
  1
Model
 70
     1
 71
     0
 10
0.0
 20
0.0
 11
420.0
 21
297.0
 12
0.0
 22
0.0
 32
0.0
 14
-64.41327283782726
 24
-49.97073246008787
 34
0.0
 15
92.85089147959948
 25
45.93033999616127
 35
0.0
146
0.0
 13
0.0
 23
0.0
 33
0.0
 16
1.0
 26
0.0
 36
0.0
 17
0.0
 27
1.0
 37
0.0
 76
     0
330
1F
331
29
  0
MLINESTYLE
  5
18
102
{ACAD_REACTORS
330
17
102
}
330
17
100
AcDbMlineStyle
  2
Standard
 70
     0
  3

 62
   256
 51
90.0
 52
90.0
 71
     2
 49
0.5
 62
   256
  6
BYLAYER
 49
-0.5
 62
   256
  6
BYLAYER
  0
ACDBPLACEHOLDER
  5
F
102
{ACAD_REACTORS
330
E
102
}
330
E
  0
SCALE
  5
48
102
{ACAD_REACTORS
330
47
102
}
330
47
100
AcDbScale
 70
     0
300
1:1
140
1.0
141
1.0
290
     1
  0
SCALE
  5
49
102
{ACAD_REACTORS
330
47
102
}
330
47
100
AcDbScale
 70
     0
300
1:2
140
1.0
141
2.0
290
     0
  0
SCALE
  5
4A
102
{ACAD_REACTORS
330
47
102
}
330
47
100
AcDbScale
 70
     0
300
1:4
140
1.0
141
4.0
290
     0
  0
SCALE
  5
4B
102
{ACAD_REACTORS
330
47
102
}
330
47
100
AcDbScale
 70
     0
300
1:5
140
1.0
141
5.0
290
     0
  0
SCALE
  5
4C
102
{ACAD_REACTORS
330
47
102
}
330
47
100
AcDbScale
 70
     0
300
1:8
140
1.0
141
8.0
290
     0
  0
SCALE
  5
4D
102
{ACAD_REACTORS
330
47
102
}
330
47
100
AcDbScale
 70
     0
300
1:10
140
1.0
141
10.0
290
     0
  0
SCALE
  5
4E
102
{ACAD_REACTORS
330
47
102
}
330
47
100
AcDbScale
 70
     0
300
1:16
140
1.0
141
16.0
290
     0
  0
SCALE
  5
4F
102
{ACAD_REACTORS
330
47
102
}
330
47
100
AcDbScale
 70
     0
300
1:20
140
1.0
141
20.0
290
     0
  0
SCALE
  5
50
102
{ACAD_REACTORS
330
47
102
}
330
47
100
AcDbScale
 70
     0
300
1:30
140
1.0
141
30.0
290
     0
  0
SCALE
  5
51
102
{ACAD_REACTORS
330
47
102
}
330
47
100
AcDbScale
 70
     0
300
1:40
140
1.0
141
40.0
290
     0
  0
SCALE
  5
52
102
{ACAD_REACTORS
330
47
102
}
330
47
100
AcDbScale
 70
     0
300
1:50
140
1.0
141
50.0
290
     0
  0
SCALE
  5
53
102
{ACAD_REACTORS
330
47
102
}
330
47
100
AcDbScale
 70
     0
300
1:100
140
1.0
141
100.0
290
     0
  0
SCALE
  5
54
102
{ACAD_REACTORS
330
47
102
}
330
47
100
AcDbScale
 70
     0
300
2:1
140
2.0
141
1.0
290
     0
  0
SCALE
  5
55
102
{ACAD_REACTORS
330
47
102
}
330
47
100
AcDbScale
 70
     0
300
4:1
140
4.0
141
1.0
290
     0
  0
SCALE
  5
56
102
{ACAD_REACTORS
330
47
102
}
330
47
100
AcDbScale
 70
     0
300
8:1
140
8.0
141
1.0
290
     0
  0
SCALE
  5
57
102
{ACAD_REACTORS
330
47
102
}
330
47
100
AcDbScale
 70
     0
300
10:1
140
10.0
141
1.0
290
     0
  0
SCALE
  5
58
102
{ACAD_REACTORS
330
47
102
}
330
47
100
AcDbScale
 70
     0
300
100:1
140
100.0
141
1.0
290
     0
  0
SCALE
  5
59
102
{ACAD_REACTORS
330
47
102
}
330
47
100
AcDbScale
 70
     0
300
1/128" = 1'-0"
140
0.0078125
141
12.0
290
     0
  0
SCALE
  5
5A
102
{ACAD_REACTORS
330
47
102
}
330
47
100
AcDbScale
 70
     0
300
1/64" = 1'-0"
140
0.015625
141
12.0
290
     0
  0
SCALE
  5
5B
102
{ACAD_REACTORS
330
47
102
}
330
47
100
AcDbScale
 70
     0
300
1/32" = 1'-0"
140
0.03125
141
12.0
290
     0
  0
SCALE
  5
5C
102
{ACAD_REACTORS
330
47
102
}
330
47
100
AcDbScale
 70
     0
300
1/16" = 1'-0"
140
0.0625
141
12.0
290
     0
  0
SCALE
  5
5D
102
{ACAD_REACTORS
330
47
102
}
330
47
100
AcDbScale
 70
     0
300
3/32" = 1'-0"
140
0.09375
141
12.0
290
     0
  0
SCALE
  5
5E
102
{ACAD_REACTORS
330
47
102
}
330
47
100
AcDbScale
 70
     0
300
1/8" = 1'-0"
140
0.125
141
12.0
290
     0
  0
SCALE
  5
5F
102
{ACAD_REACTORS
330
47
102
}
330
47
100
AcDbScale
 70
     0
300
3/16" = 1'-0"
140
0.1875
141
12.0
290
     0
  0
SCALE
  5
60
102
{ACAD_REACTORS
330
47
102
}
330
47
100
AcDbScale
 70
     0
300
1/4" = 1'-0"
140
0.25
141
12.0
290
     0
  0
SCALE
  5
61
102
{ACAD_REACTORS
330
47
102
}
330
47
100
AcDbScale
 70
     0
300
3/8" = 1'-0"
140
0.375
141
12.0
290
     0
  0
SCALE
  5
62
102
{ACAD_REACTORS
330
47
102
}
330
47
100
AcDbScale
 70
     0
300
1/2" = 1'-0"
140
0.5
141
12.0
290
     0
  0
SCALE
  5
63
102
{ACAD_REACTORS
330
47
102
}
330
47
100
AcDbScale
 70
     0
300
3/4" = 1'-0"
140
0.75
141
12.0
290
     0
  0
SCALE
  5
64
102
{ACAD_REACTORS
330
47
102
}
330
47
100
AcDbScale
 70
     0
300
1" = 1'-0"
140
1.0
141
12.0
290
     0
  0
SCALE
  5
65
102
{ACAD_REACTORS
330
47
102
}
330
47
100
AcDbScale
 70
     0
300
1-1/2" = 1'-0"
140
1.5
141
12.0
290
     0
  0
SCALE
  5
66
102
{ACAD_REACTORS
330
47
102
}
330
47
100
AcDbScale
 70
     0
300
3" = 1'-0"
140
3.0
141
12.0
290
     0
  0
SCALE
  5
67
102
{ACAD_REACTORS
330
47
102
}
330
47
100
AcDbScale
 70
     0
300
6" = 1'-0"
140
6.0
141
12.0
290
     0
  0
SCALE
  5
68
102
{ACAD_REACTORS
330
47
102
}
330
47
100
AcDbScale
 70
     0
300
1'-0" = 1'-0"
140
12.0
141
12.0
290
     0
  0
ENDSEC
  0
EOF
