  0
SECTION
  2
HEADER
  9
$ACADVER
  1
AC1015
  9
$ACADMAINTVER
 70
     6
  9
$DWGCODEPAGE
  3
ANSI_949
  9
$INSBASE
 10
0.0
 20
0.0
 30
0.0
  9
$EXTMIN
 10
-65.5882728378272
 20
-49.97180738881174
 30
0.0
  9
$EXTMAX
 10
80.30231326586227
 20
45.93033999616129
 30
0.0
  9
$LIMMIN
 10
0.0
 20
0.0
  9
$LIMMAX
 10
420.0
 20
297.0
  9
$ORTHOMODE
 70
     1
  9
$REGENMODE
 70
     1
  9
$FILLMODE
 70
     1
  9
$QTEXTMODE
 70
     0
  9
$MIRRTEXT
 70
     1
  9
$LTSCALE
 40
1.0
  9
$ATTMODE
 70
     1
  9
$TEXTSIZE
 40
3.5
  9
$TRACEWID
 40
1.0
  9
$TEXTSTYLE
  7
Standard
  9
$CLAYER
  8
0
  9
$CELTYPE
  6
ByLayer
  9
$CECOLOR
 62
   256
  9
$CELTSCALE
 40
1.0
  9
$DISPSILH
 70
     0
  9
$DIMSCALE
 40
1.0
  9
$DIMASZ
 40
3.302
  9
$DIMEXO
 40
1.0
  9
$DIMDLI
 40
3.75
  9
$DIMRND
 40
0.0
  9
$DIMDLE
 40
0.0
  9
$DIMEXE
 40
1.0
  9
$DIMTP
 40
0.0
  9
$DIMTM
 40
0.0
  9
$DIMTXT
 40
3.5
  9
$DIMCEN
 40
2.5
  9
$DIMTSZ
 40
0.0
  9
$DIMTOL
 70
     0
  9
$DIMLIM
 70
     0
  9
$DIMTIH
 70
     1
  9
$DIMTOH
 70
     1
  9
$DIMSE1
 70
     0
  9
$DIMSE2
 70
     0
  9
$DIMTAD
 70
     1
  9
$DIMZIN
 70
     0
  9
$DIMBLK
  1

  9
$DIMASO
 70
     1
  9
$DIMSHO
 70
     1
  9
$DIMPOST
  1

  9
$DIMAPOST
  1

  9
$DIMALT
 70
     0
  9
$DIMALTD
 70
     3
  9
$DIMALTF
 40
0.0393700787401575
  9
$DIMLFAC
 40
1.0
  9
$DIMTOFL
 70
     1
  9
$DIMTVP
 40
0.0
  9
$DIMTIX
 70
     0
  9
$DIMSOXD
 70
     0
  9
$DIMSAH
 70
     0
  9
$DIMBLK1
  1

  9
$DIMBLK2
  1

  9
$DIMSTYLE
  2
ISO-25
  9
$DIMCLRD
 70
     0
  9
$DIMCLRE
 70
     0
  9
$DIMCLRT
 70
     0
  9
$DIMTFAC
 40
1.0
  9
$DIMGAP
 40
1.524
  9
$DIMJUST
 70
     0
  9
$DIMSD1
 70
     0
  9
$DIMSD2
 70
     0
  9
$DIMTOLJ
 70
     0
  9
$DIMTZIN
 70
     0
  9
$DIMALTZ
 70
     0
  9
$DIMALTTZ
 70
     0
  9
$DIMUPT
 70
     0
  9
$DIMDEC
 70
     2
  9
$DIMTDEC
 70
     2
  9
$DIMALTU
 70
     2
  9
$DIMALTTD
 70
     3
  9
$DIMTXSTY
  7
Standard
  9
$DIMAUNIT
 70
     0
  9
$DIMADEC
 70
     2
  9
$DIMALTRND
 40
0.0
  9
$DIMAZIN
 70
     0
  9
$DIMDSEP
 70
    44
  9
$DIMATFIT
 70
     3
  9
$DIMFRAC
 70
     0
  9
$DIMLDRBLK
  1

  9
$DIMLUNIT
 70
     2
  9
$DIMLWD
 70
    -2
  9
$DIMLWE
 70
    -2
  9
$DIMTMOVE
 70
     0
  9
$LUNITS
 70
     2
  9
$LUPREC
 70
     2
  9
$SKETCHINC
 40
1.0
  9
$FILLETRAD
 40
10.0
  9
$AUNITS
 70
     0
  9
$AUPREC
 70
     2
  9
$MENU
  1
.
  9
$ELEVATION
 40
0.0
  9
$PELEVATION
 40
0.0
  9
$THICKNESS
 40
0.0
  9
$LIMCHECK
 70
     0
  9
$CHAMFERA
 40
0.0
  9
$CHAMFERB
 40
0.0
  9
$CHAMFERC
 40
0.0
  9
$CHAMFERD
 40
0.0
  9
$SKPOLY
 70
     0
  9
$TDCREATE
 40
2458312.680128021
  9
$TDUCREATE
 40
2458312.305128021
  9
$TDUPDATE
 40
2458319.664728704
  9
$TDUUPDATE
 40
2458319.289728704
  9
$TDINDWG
 40
0.000229213
  9
$TDUSRTIMER
 40
2458319.289689398
  9
$USRTIMER
 70
     1
  9
$ANGBASE
 50
0.0
  9
$ANGDIR
 70
     0
  9
$PDMODE
 70
     0
  9
$PDSIZE
 40
-1.0
  9
$PLINEWID
 40
0.0
  9
$SPLFRAME
 70
     0
  9
$SPLINETYPE
 70
     6
  9
$SPLINESEGS
 70
     8
  9
$HANDSEED
  5
1C5
  9
$SURFTAB1
 70
     6
  9
$SURFTAB2
 70
     6
  9
$SURFTYPE
 70
     6
  9
$SURFU
 70
     6
  9
$SURFV
 70
     6
  9
$UCSBASE
  2

  9
$UCSNAME
  2

  9
$UCSORG
 10
0.0
 20
0.0
 30
0.0
  9
$UCSXDIR
 10
1.0
 20
0.0
 30
0.0
  9
$UCSYDIR
 10
0.0
 20
1.0
 30
0.0
  9
$UCSORTHOREF
  2

  9
$UCSORTHOVIEW
 70
     0
  9
$UCSORGTOP
 10
0.0
 20
0.0
 30
0.0
  9
$UCSORGBOTTOM
 10
0.0
 20
0.0
 30
0.0
  9
$UCSORGLEFT
 10
0.0
 20
0.0
 30
0.0
  9
$UCSORGRIGHT
 10
0.0
 20
0.0
 30
0.0
  9
$UCSORGFRONT
 10
0.0
 20
0.0
 30
0.0
  9
$UCSORGBACK
 10
0.0
 20
0.0
 30
0.0
  9
$PUCSBASE
  2

  9
$PUCSNAME
  2

  9
$PUCSORG
 10
0.0
 20
0.0
 30
0.0
  9
$PUCSXDIR
 10
1.0
 20
0.0
 30
0.0
  9
$PUCSYDIR
 10
0.0
 20
1.0
 30
0.0
  9
$PUCSORTHOREF
  2

  9
$PUCSORTHOVIEW
 70
     0
  9
$PUCSORGTOP
 10
0.0
 20
0.0
 30
0.0
  9
$PUCSORGBOTTOM
 10
0.0
 20
0.0
 30
0.0
  9
$PUCSORGLEFT
 10
0.0
 20
0.0
 30
0.0
  9
$PUCSORGRIGHT
 10
0.0
 20
0.0
 30
0.0
  9
$PUCSORGFRONT
 10
0.0
 20
0.0
 30
0.0
  9
$PUCSORGBACK
 10
0.0
 20
0.0
 30
0.0
  9
$USERI1
 70
     0
  9
$USERI2
 70
     0
  9
$USERI3
 70
     0
  9
$USERI4
 70
     0
  9
$USERI5
 70
     0
  9
$USERR1
 40
0.0
  9
$USERR2
 40
0.0
  9
$USERR3
 40
0.0
  9
$USERR4
 40
0.0
  9
$USERR5
 40
0.0
  9
$WORLDVIEW
 70
     1
  9
$SHADEDGE
 70
     3
  9
$SHADEDIF
 70
    70
  9
$TILEMODE
 70
     1
  9
$MAXACTVP
 70
    64
  9
$PINSBASE
 10
0.0
 20
0.0
 30
0.0
  9
$PLIMCHECK
 70
     0
  9
$PEXTMIN
 10
1.000000000000000E+20
 20
1.000000000000000E+20
 30
1.000000000000000E+20
  9
$PEXTMAX
 10
-1.000000000000000E+20
 20
-1.000000000000000E+20
 30
-1.000000000000000E+20
  9
$PLIMMIN
 10
0.0
 20
0.0
  9
$PLIMMAX
 10
0.0
 20
0.0
  9
$UNITMODE
 70
     0
  9
$VISRETAIN
 70
     1
  9
$PLINEGEN
 70
     0
  9
$PSLTSCALE
 70
     1
  9
$TREEDEPTH
 70
  3020
  9
$CMLSTYLE
  2
Standard
  9
$CMLJUST
 70
     0
  9
$CMLSCALE
 40
20.0
  9
$PROXYGRAPHICS
 70
     1
  9
$MEASUREMENT
 70
     1
  9
$CELWEIGHT
370
    -1
  9
$ENDCAPS
280
     0
  9
$JOINSTYLE
280
     0
  9
$LWDISPLAY
290
     1
  9
$INSUNITS
 70
     4
  9
$HYPERLINKBASE
  1

  9
$STYLESHEET
  1

  9
$XEDIT
290
     1
  9
$CEPSNTYPE
380
     0
  9
$PSTYLEMODE
290
     1
  9
$FINGERPRINTGUID
  2
{128062D8-65B5-4A80-A48D-E669A9703D78}
  9
$VERSIONGUID
  2
{FAEB1C32-E019-11D5-929B-00C0DF256EC4}
  9
$EXTNAMES
290
     1
  9
$PSVPSCALE
 40
0.0
  9
$OLESTARTUP
290
     0
  0
ENDSEC
  0
SECTION
  2
CLASSES
  0
CLASS
  1
ACDBDICTIONARYWDFLT
  2
AcDbDictionaryWithDefault
  3
ObjectDBX Classes
 90
        0
280
     0
281
     0
  0
CLASS
  1
VISUALSTYLE
  2
AcDbVisualStyle
  3
ObjectDBX Classes
 90
     4095
280
     0
281
     0
  0
CLASS
  1
MATERIAL
  2
AcDbMaterial
  3
ObjectDBX Classes
 90
     1153
280
     0
281
     0
  0
CLASS
  1
SCALE
  2
AcDbScale
  3
ObjectDBX Classes
 90
     1153
280
     0
281
     0
  0
CLASS
  1
SUN
  2
AcDbSun
  3
SCENEOE
 90
     1153
280
     0
281
     0
  0
CLASS
  1
ACDBPLACEHOLDER
  2
AcDbPlaceHolder
  3
ObjectDBX Classes
 90
        0
280
     0
281
     0
  0
CLASS
  1
LAYOUT
  2
AcDbLayout
  3
ObjectDBX Classes
 90
        0
280
     0
281
     0
  0
CLASS
  1
TABLESTYLE
  2
AcDbTableStyle
  3
ObjectDBX Classes
 90
     4095
280
     0
281
     0
  0
CLASS
  1
MLEADERSTYLE
  2
AcDbMLeaderStyle
  3
ACDB_MLEADERSTYLE_CLASS
 90
     4095
280
     0
281
     0
  0
CLASS
  1
RASTERVARIABLES
  2
AcDbRasterVariables
  3
ISM
 90
        0
280
     0
281
     0
  0
CLASS
  1
DIMASSOC
  2
AcDbDimAssoc
  3
"AcDbDimAssoc|Product Desc:     AcDim ARX App For Dimension|Company:          Autodesk, Inc.|WEB Address:      www.autodesk.com"
 90
        0
280
     0
281
     0
  0
ENDSEC
  0
SECTION
  2
TABLES
  0
TABLE
  2
VPORT
  5
8
330
0
100
AcDbSymbolTable
 70
     1
  0
VPORT
  5
29
330
8
100
AcDbSymbolTableRecord
100
AcDbViewportTableRecord
  2
*Active
 70
     0
 10
0.0
 20
0.0
 11
1.0
 21
1.0
 12
-21.65982874936629
 22
-31.70356636312997
 13
0.0
 23
0.0
 14
10.0
 24
10.0
 15
10.0
 25
10.0
 16
0.0
 26
0.0
 36
1.0
 17
0.0
 27
0.0
 37
0.0
 40
135.067764153279
 41
1.67311411992263
 42
50.0
 43
0.0
 44
0.0
 50
0.0
 51
0.0
 71
    16
 72
  2000
 73
     1
 74
     3
 75
     0
 76
     0
 77
     0
 78
     0
281
     0
 65
     1
110
0.0
120
0.0
130
0.0
111
1.0
121
0.0
131
0.0
112
0.0
122
1.0
132
0.0
 79
     0
146
0.0
  0
ENDTAB
  0
TABLE
  2
LTYPE
  5
5
330
0
100
AcDbSymbolTable
 70
     6
  0
LTYPE
  5
14
330
5
100
AcDbSymbolTableRecord
100
AcDbLinetypeTableRecord
  2
ByBlock
 70
     0
  3

 72
    65
 73
     0
 40
0.0
  0
LTYPE
  5
15
330
5
100
AcDbSymbolTableRecord
100
AcDbLinetypeTableRecord
  2
ByLayer
 70
     0
  3

 72
    65
 73
     0
 40
0.0
  0
LTYPE
  5
16
330
5
100
AcDbSymbolTableRecord
100
AcDbLinetypeTableRecord
  2
Continuous
 70
     0
  3
Solid line
 72
    65
 73
     0
 40
0.0
  0
LTYPE
  5
6A
330
5
100
AcDbSymbolTableRecord
100
AcDbLinetypeTableRecord
  2
HIDDEN
 70
     0
  3
Hidden __ __ __ __ __ __ __ __ __ __ __ __ __ __
 72
    65
 73
     2
 40
1.905
 49
1.27
 74
     0
 49
-0.635
 74
     0
  0
LTYPE
  5
6B
330
5
100
AcDbSymbolTableRecord
100
AcDbLinetypeTableRecord
  2
PHANTOM
 70
     0
  3
Phantom ______  __  __  ______  __  __  ______
 72
    65
 73
     6
 40
12.7
 49
6.35
 74
     0
 49
-1.27
 74
     0
 49
1.27
 74
     0
 49
-1.27
 74
     0
 49
1.27
 74
     0
 49
-1.27
 74
     0
  0
LTYPE
  5
6C
330
5
100
AcDbSymbolTableRecord
100
AcDbLinetypeTableRecord
  2
CENTER
 70
     0
  3
Center ____ _ ____ _ ____ _ ____ _ ____ _ ____
 72
    65
 73
     4
 40
10.16
 49
6.35
 74
     0
 49
-1.27
 74
     0
 49
1.27
 74
     0
 49
-1.27
 74
     0
  0
LTYPE
  5
6D
330
5
100
AcDbSymbolTableRecord
100
AcDbLinetypeTableRecord
  2
CENTERX2
 70
     0
  3
Center (2x) ________  __  ________  __  _____
 72
    65
 73
     4
 40
20.32
 49
12.7
 74
     0
 49
-2.54
 74
     0
 49
2.54
 74
     0
 49
-2.54
 74
     0
  0
LTYPE
  5
6E
330
5
100
AcDbSymbolTableRecord
100
AcDbLinetypeTableRecord
  2
DOT2
 70
     0
  3
Dot (.5x) ........................................
 72
    65
 73
     2
 40
0.635
 49
0.0
 74
     0
 49
-0.635
 74
     0
  0
ENDTAB
  0
TABLE
  2
LAYER
  5
2
102
{ACAD_XDICTIONARY
360
18A
102
}
330
0
100
AcDbSymbolTable
 70
    18
  0
LAYER
  5
10
330
2
100
AcDbSymbolTableRecord
100
AcDbLayerTableRecord
  2
0
 70
     0
 62
     7
  6
Continuous
370
    -3
390
F
  0
LAYER
  5
6F
330
2
100
AcDbSymbolTableRecord
100
AcDbLayerTableRecord
  2
FORMAT
 70
     0
 62
     2
  6
Continuous
370
    -3
390
F
  0
LAYER
  5
70
330
2
100
AcDbSymbolTableRecord
100
AcDbLayerTableRecord
  2
외형선
 70
     0
 62
     4
  6
Continuous
370
    30
390
F
  0
LAYER
  5
71
330
2
100
AcDbSymbolTableRecord
100
AcDbLayerTableRecord
  2
숨은선
 70
     0
 62
     2
  6
HIDDEN
370
    15
390
F
  0
LAYER
  5
72
330
2
100
AcDbSymbolTableRecord
100
AcDbLayerTableRecord
  2
중심선
 70
     0
 62
     1
  6
CENTERX2
370
    -3
390
F
  0
LAYER
  5
73
330
2
100
AcDbSymbolTableRecord
100
AcDbLayerTableRecord
  2
파단선
 70
     0
 62
     4
  6
Continuous
370
    -3
390
F
  0
LAYER
  5
74
330
2
100
AcDbSymbolTableRecord
100
AcDbLayerTableRecord
  2
해칭선
 70
     0
 62
   100
  6
Continuous
370
    -3
390
F
  0
LAYER
  5
75
330
2
100
AcDbSymbolTableRecord
100
AcDbLayerTableRecord
  2
가는실선
 70
     0
 62
     4
  6
Continuous
370
    -3
390
F
  0
LAYER
  5
76
330
2
100
AcDbSymbolTableRecord
100
AcDbLayerTableRecord
  2
치수_보조선
 70
     0
 62
     4
  6
Continuous
370
    -3
390
F
  0
LAYER
  5
77
330
2
100
AcDbSymbolTableRecord
100
AcDbLayerTableRecord
  2
치수문자_일반주서
 70
     0
 62
     7
  6
Continuous
370
    15
390
F
  0
LAYER
  5
78
330
2
100
AcDbSymbolTableRecord
100
AcDbLayerTableRecord
  2
개별주서
 70
     0
 62
   100
  6
Continuous
370
    30
390
F
  0
LAYER
  5
79
330
2
100
AcDbSymbolTableRecord
100
AcDbLayerTableRecord
  2
중간선
 70
     0
 62
     2
  6
Continuous
370
    15
390
F
  0
LAYER
  5
7A
330
2
100
AcDbSymbolTableRecord
100
AcDbLayerTableRecord
  2
윤곽선
 70
     0
 62
     3
  6
Continuous
370
    40
390
F
  0
LAYER
  5
7B
330
2
100
AcDbSymbolTableRecord
100
AcDbLayerTableRecord
  2
중심마크
 70
     0
 62
   100
  6
Continuous
370
    30
390
F
  0
LAYER
  5
7C
330
2
100
AcDbSymbolTableRecord
100
AcDbLayerTableRecord
  2
가상선
 70
     0
 62
     4
  6
PHANTOM
370
    -3
390
F
  0
LAYER
  5
7D
330
2
100
AcDbSymbolTableRecord
100
AcDbLayerTableRecord
  2
특수지정선
 70
     0
 62
     5
  6
CENTERX2
370
    60
390
F
  0
LAYER
  5
7E
330
2
100
AcDbSymbolTableRecord
100
AcDbLayerTableRecord
  2
참조1
 70
     0
 62
    -4
  6
Continuous
370
    -3
390
F
  0
LAYER
  5
148
330
2
100
AcDbSymbolTableRecord
100
AcDbLayerTableRecord
  2
Defpoints
 70
     0
 62
     7
  6
Continuous
290
     0
370
    -3
390
F
  0
ENDTAB
  0
TABLE
  2
STYLE
  5
3
330
0
100
AcDbSymbolTable
 70
     2
  0
STYLE
  5
11
330
3
100
AcDbSymbolTableRecord
100
AcDbTextStyleTableRecord
  2
Standard
 70
     0
 40
0.0
 41
1.0
 50
0.0
 71
     0
 42
3.5
  3
txt
  4

  0
STYLE
  5
94
330
3
100
AcDbSymbolTableRecord
100
AcDbTextStyleTableRecord
  2
SLDTEXTSTYLE0
 70
     0
 40
0.0
 41
0.75
 50
0.0
 71
     0
 42
3.5
  3
TXT
  4

  0
ENDTAB
  0
TABLE
  2
VIEW
  5
6
330
0
100
AcDbSymbolTable
 70
     0
  0
ENDTAB
  0
TABLE
  2
UCS
  5
7
330
0
100
AcDbSymbolTable
 70
     0
  0
ENDTAB
  0
TABLE
  2
APPID
  5
9
330
0
100
AcDbSymbolTable
 70
     2
  0
APPID
  5
12
330
9
100
AcDbSymbolTableRecord
100
AcDbRegAppTableRecord
  2
ACAD
 70
     0
  0
APPID
  5
15A
330
9
100
AcDbSymbolTableRecord
100
AcDbRegAppTableRecord
  2
PE_DIMMEASUREMENT
 70
     0
  0
ENDTAB
  0
TABLE
  2
DIMSTYLE
  5
A
330
0
100
AcDbSymbolTable
 70
     3
100
AcDbDimStyleTable
  0
DIMSTYLE
105
27
330
A
100
AcDbSymbolTableRecord
100
AcDbDimStyleTableRecord
  2
ISO-25
 70
     0
 41
2.5
 42
0.625
 43
3.75
 44
1.25
 73
     0
 74
     0
 77
     1
 78
     8
140
2.5
141
2.5
143
0.03937007874016
147
0.625
171
     3
172
     1
178
     0
271
     2
272
     2
274
     3
278
    44
283
     0
284
     8
340
11
  0
DIMSTYLE
105
C7
102
{ACAD_REACTORS
330
C6
330
DB
330
14A
102
}
330
A
100
AcDbSymbolTableRecord
100
AcDbDimStyleTableRecord
  2
SLDDIMSTYLE0
 70
     0
 41
3.302
 44
0.0
 45
0.000000001
 73
     0
 74
     0
 77
     1
 78
     4
 79
     1
140
3.5
143
0.0393700787401575
147
0.875
148
0.000000001
170
     1
173
     1
178
     0
271
     2
272
     2
276
     2
284
    12
340
94
  0
DIMSTYLE
105
EF
102
{ACAD_REACTORS
330
EE
102
}
330
A
100
AcDbSymbolTableRecord
100
AcDbDimStyleTableRecord
  2
SLDDIMSTYLE1
 70
     0
 41
3.302
 44
0.0
 45
0.000000001
 73
     0
 74
     0
 77
     1
 78
     4
 79
     1
140
3.5
143
0.0393700787401575
147
0.875
148
0.000000001
170
     1
172
     1
173
     1
178
     0
271
     2
272
     2
276
     2
284
    12
289
     0
340
94
  0
ENDTAB
  0
TABLE
  2
BLOCK_RECORD
  5
1
330
0
100
AcDbSymbolTable
 70
     8
  0
BLOCK_RECORD
  5
1F
330
1
100
AcDbSymbolTableRecord
100
AcDbBlockTableRecord
  2
*Model_Space
340
22
  0
BLOCK_RECORD
  5
1B
330
1
100
AcDbSymbolTableRecord
100
AcDbBlockTableRecord
  2
*Paper_Space
340
1E
  0
BLOCK_RECORD
  5
23
330
1
100
AcDbSymbolTableRecord
100
AcDbBlockTableRecord
  2
*Paper_Space0
340
26
  0
BLOCK_RECORD
  5
7F
330
1
100
AcDbSymbolTableRecord
100
AcDbBlockTableRecord
  2
블럭10
340
0
102
{BLKREFS
331
BF
102
}
  0
BLOCK_RECORD
  5
C8
330
1
100
AcDbSymbolTableRecord
100
AcDbBlockTableRecord
  2
_D
340
0
  0
BLOCK_RECORD
  5
DC
330
1
100
AcDbSymbolTableRecord
100
AcDbBlockTableRecord
  2
_D_1
340
0
  0
BLOCK_RECORD
  5
F0
330
1
100
AcDbSymbolTableRecord
100
AcDbBlockTableRecord
  2
_D_2
340
0
  0
BLOCK_RECORD
  5
104
330
1
100
AcDbSymbolTableRecord
100
AcDbBlockTableRecord
  2
_D_3
340
0
  0
BLOCK_RECORD
  5
11D
330
1
100
AcDbSymbolTableRecord
100
AcDbBlockTableRecord
  2
SW_DOWELSYMBOL_0
340
0
102
{BLKREFS
331
123
102
}
  0
BLOCK_RECORD
  5
14D
330
1
100
AcDbSymbolTableRecord
100
AcDbBlockTableRecord
  2
*D7
340
0
  0
ENDTAB
  0
ENDSEC
  0
SECTION
  2
BLOCKS
  0
BLOCK
  5
20
330
1F
100
AcDbEntity
  8
0
100
AcDbBlockBegin
  2
*Model_Space
 70
     0
 10
0.0
 20
0.0
 30
0.0
  3
*Model_Space
  1
*Model_Space
  0
ENDBLK
  5
21
330
1F
100
AcDbEntity
  8
0
100
AcDbBlockEnd
  0
BLOCK
  5
1C
330
1B
100
AcDbEntity
 67
     1
  8
0
100
AcDbBlockBegin
  2
*Paper_Space
 70
     0
 10
0.0
 20
0.0
 30
0.0
  3
*Paper_Space
  1
*Paper_Space
  0
ENDBLK
  5
1D
330
1B
100
AcDbEntity
 67
     1
  8
0
100
AcDbBlockEnd
  0
BLOCK
  5
24
330
23
100
AcDbEntity
  8
0
100
AcDbBlockBegin
  2
*Paper_Space0
 70
     0
 10
0.0
 20
0.0
 30
0.0
  3
*Paper_Space0
  1
*Paper_Space0
  0
ENDBLK
  5
25
330
23
100
AcDbEntity
  8
0
100
AcDbBlockEnd
  0
BLOCK
  5
80
330
7F
100
AcDbEntity
  8
0
100
AcDbBlockBegin
  2
블럭10
 70
     2
 10
0.0
 20
0.0
 30
0.0
  3
블럭10
  1
블럭10
  0
ELLIPSE
  5
82
330
7F
100
AcDbEntity
  8
중심선
100
AcDbEllipse
 10
20.54032771741204
 20
12.0471743016438
 30
0.0
 11
6.600054785286829
 21
-1.261213355974178E-13
 31
0.0
210
0.0
220
0.0
230
1.0
 40
0.636358354079598
 41
0.9219305317359503
 42
6.513795318482858
  0
ELLIPSE
  5
83
330
7F
100
AcDbEntity
  8
중심선
100
AcDbEllipse
 10
20.54032771746488
 20
12.04717430159265
 30
0.0
 11
3.960054785062283
 21
1.540847449632565E-10
 31
0.0
210
0.0
220
0.0
230
1.0
 40
0.3939339440162632
 41
1.131841032648279
 42
5.62031148352944
  0
LINE
  5
84
330
7F
100
AcDbEntity
  8
중심선
100
AcDbLine
 10
2.268634060543552
 20
16.24717430164393
 30
0.0
 11
5.714909304380834
 21
16.24717430164393
 31
0.0
  0
LINE
  5
85
330
7F
100
AcDbEntity
  8
중심선
100
AcDbLine
 10
5.245725140726316
 20
7.84717430164391
 30
0.0
 11
8.692000384563599
 21
7.84717430164391
 31
0.0
  0
LINE
  5
86
330
7F
100
AcDbEntity
  8
중심선
100
AcDbLine
 10
15.74043728645272
 20
16.24717430164393
 30
0.0
 11
8.692000384563599
 21
7.84717430164391
 31
0.0
  0
LINE
  5
87
330
7F
100
AcDbEntity
  8
중심선
100
AcDbLine
 10
0.1404042013395286
 20
13.71084872107135
 30
0.0
 11
3.58671253028996
 21
13.71088815037384
 31
0.0
  0
LINE
  5
88
330
7F
100
AcDbEntity
  8
중심선
100
AcDbLine
 10
2.750260043222114
 20
10.84717430164391
 30
0.0
 11
6.196535287059397
 21
10.84717430164391
 31
0.0
  0
LINE
  5
89
330
7F
100
AcDbEntity
  8
중심선
100
AcDbLine
 10
12.29416204261559
 20
16.24717430164393
 30
0.0
 11
5.245725140726316
 21
7.84717430164391
 31
0.0
  0
LINE
  5
8A
330
7F
100
AcDbEntity
  8
중심선
100
AcDbLine
 10
10.72767329541681
 20
16.24717430164393
 30
0.0
 11
6.196535287059397
 21
10.84717430164391
 31
0.0
  0
LINE
  5
8B
330
7F
100
AcDbEntity
  8
중심선
100
AcDbLine
 10
7.28139805157953
 20
16.24717430164393
 30
0.0
 11
2.750260043222114
 21
10.84717430164391
 31
0.0
  0
LINE
  5
8C
330
7F
100
AcDbEntity
  8
중심선
100
AcDbLine
 10
5.714909304380834
 20
16.24717430164393
 30
0.0
 11
3.58671253028996
 21
13.71088815037384
 31
0.0
  0
LINE
  5
8D
330
7F
100
AcDbEntity
  8
중심선
100
AcDbLine
 10
2.268634060543552
 20
16.24717430164393
 30
0.0
 11
0.1404042013395286
 21
13.71084872107135
 31
0.0
  0
LINE
  5
8E
330
7F
100
AcDbEntity
  8
중심선
100
AcDbLine
 10
7.28139805157953
 20
16.24717430164393
 30
0.0
 11
10.72767329541681
 21
16.24717430164393
 31
0.0
  0
LINE
  5
8F
330
7F
100
AcDbEntity
  8
중심선
100
AcDbLine
 10
12.29416204261559
 20
16.24717430164393
 30
0.0
 11
15.74043728645272
 21
16.24717430164393
 31
0.0
  0
LINE
  5
90
330
7F
100
AcDbEntity
  8
중심선
100
AcDbLine
 10
19.22036997980202
 20
11.08717430171403
 30
0.0
 11
23.66174974927406
 21
11.08717430171406
 31
0.0
  0
LINE
  5
91
330
7F
100
AcDbEntity
  8
중심선
100
AcDbLine
 10
19.22039502424796
 20
13.00717430171391
 30
0.0
 11
19.22036997980202
 21
11.08717430171403
 31
0.0
  0
LINE
  5
92
330
7F
100
AcDbEntity
  8
중심선
100
AcDbLine
 10
19.22039502424796
 20
13.00717430171391
 30
0.0
 11
26.96566020931264
 21
13.00717430171391
 31
0.0
  0
LINE
  5
93
330
7F
100
AcDbEntity
  8
중심선
100
AcDbLine
 10
22.22332737316547
 20
13.45928029700563
 30
0.0
 11
24.52862924686651
 21
15.39360700705356
 31
0.0
  0
ATTDEF
  5
95
330
7F
100
AcDbEntity
  8
FORMAT
 62
     2
100
AcDbText
 10
4.408487351596664
 20
2.075366912832191
 30
0.0
 40
4.233333333333333
  1
E2039064
 41
0.75
  7
SLDTEXTSTYLE0
 11
4.408487351596664
 21
-0.0412997538344756
 31
0.0
100
AcDbAttributeDefinition
  3

  2
AUTOATTR0
 70
     0
 74
     1
  0
ENDBLK
  5
81
330
7F
100
AcDbEntity
  8
0
100
AcDbBlockEnd
  0
BLOCK
  5
C9
330
C8
100
AcDbEntity
  8
0
100
AcDbBlockBegin
  2
_D
 70
     0
 10
0.0
 20
0.0
 30
0.0
  3
_D
  1
_D
  0
LINE
  5
CB
330
C8
100
AcDbEntity
  8
치수문자_일반주서
 62
     0
370
    -2
100
AcDbLine
 10
62.80000000000002
 20
12.71579691240971
 30
0.0
 11
62.80000000000001
 21
25.83413479835851
 31
0.0
  0
LINE
  5
CC
330
C8
100
AcDbEntity
  8
치수문자_일반주서
 62
     0
370
    -2
100
AcDbLine
 10
12.00000000000003
 20
11.7875324249172
 30
0.0
 11
12.00000000000002
 21
25.83413479835851
 31
0.0
  0
LINE
  5
CD
330
C8
100
AcDbEntity
  8
치수문자_일반주서
 62
     0
370
    -2
100
AcDbLine
 10
59.49800000000001
 20
25.83413479835851
 30
0.0
 11
15.30200000000002
 21
25.83413479835851
 31
0.0
  0
SOLID
  5
CE
330
C8
100
AcDbEntity
  8
치수문자_일반주서
 62
     0
100
AcDbTrace
 10
59.49800000000001
 20
25.28380146502517
 30
0.0
 11
59.49800000000001
 21
26.38446813169184
 31
0.0
 12
62.80000000000001
 22
25.83413479835851
 32
0.0
 13
62.80000000000001
 23
25.83413479835851
 33
0.0
  0
SOLID
  5
CF
330
C8
100
AcDbEntity
  8
치수문자_일반주서
 62
     0
100
AcDbTrace
 10
15.30200000000002
 20
26.38446813169184
 30
0.0
 11
15.30200000000002
 21
25.28380146502517
 31
0.0
 12
12.00000000000002
 22
25.83413479835851
 32
0.0
 13
12.00000000000002
 23
25.83413479835851
 33
0.0
  0
MTEXT
  5
D0
330
C8
100
AcDbEntity
  8
치수문자_일반주서
 62
     0
100
AcDbMText
 10
37.40000000000003
 20
30.20913479835851
 30
0.0
 40
3.5
 41
0.0
 71
     2
 72
     1
  1
\A1;50.80 [2]
  7
SLDTEXTSTYLE0
 73
     1
 44
1.0
  0
POINT
  5
D1
330
C8
100
AcDbEntity
  8
Defpoints
 62
     0
100
AcDbPoint
 10
62.80000000000002
 20
12.65329691240971
 30
0.0
  0
POINT
  5
D2
330
C8
100
AcDbEntity
  8
Defpoints
 62
     0
100
AcDbPoint
 10
12.00000000000003
 20
11.7250324249172
 30
0.0
  0
POINT
  5
D3
330
C8
100
AcDbEntity
  8
Defpoints
 62
     0
100
AcDbPoint
 10
12.00000000000003
 20
25.83413479835851
 30
0.0
  0
ENDBLK
  5
CA
330
C8
100
AcDbEntity
  8
0
100
AcDbBlockEnd
  0
BLOCK
  5
DD
330
DC
100
AcDbEntity
  8
0
100
AcDbBlockBegin
  2
_D_1
 70
     0
 10
0.0
 20
0.0
 30
0.0
  3
_D_1
  1
_D_1
  0
LINE
  5
DF
330
DC
100
AcDbEntity
  8
치수문자_일반주서
 62
     0
370
    -2
100
AcDbLine
 10
62.80000000000002
 20
12.71579691240971
 30
0.0
 11
62.80000000000001
 21
41.55533999616129
 31
0.0
  0
LINE
  5
E0
330
DC
100
AcDbEntity
  8
치수문자_일반주서
 62
     0
370
    -2
100
AcDbLine
 10
-51.49999999999996
 20
10.2225
 30
0.0
 11
-51.49999999999997
 21
41.55533999616129
 31
0.0
  0
LINE
  5
E1
330
DC
100
AcDbEntity
  8
치수문자_일반주서
 62
     0
370
    -2
100
AcDbLine
 10
59.49800000000001
 20
41.55533999616129
 30
0.0
 11
-48.19799999999997
 21
41.55533999616129
 31
0.0
  0
SOLID
  5
E2
330
DC
100
AcDbEntity
  8
치수문자_일반주서
 62
     0
100
AcDbTrace
 10
59.49800000000001
 20
41.00500666282795
 30
0.0
 11
59.49800000000001
 21
42.10567332949462
 31
0.0
 12
62.80000000000001
 22
41.55533999616129
 32
0.0
 13
62.80000000000001
 23
41.55533999616129
 33
0.0
  0
SOLID
  5
E3
330
DC
100
AcDbEntity
  8
치수문자_일반주서
 62
     0
100
AcDbTrace
 10
-48.19799999999997
 20
42.10567332949462
 30
0.0
 11
-48.19799999999997
 21
41.00500666282795
 31
0.0
 12
-51.49999999999997
 22
41.55533999616129
 32
0.0
 13
-51.49999999999997
 23
41.55533999616129
 33
0.0
  0
MTEXT
  5
E4
330
DC
100
AcDbEntity
  8
치수문자_일반주서
 62
     0
100
AcDbMText
 10
5.650000000000023
 20
45.93033999616129
 30
0.0
 40
3.5
 41
0.0
 71
     2
 72
     1
  1
\A1;114.30 [4 1/2]
  7
SLDTEXTSTYLE0
 73
     1
 44
1.0
  0
POINT
  5
E5
330
DC
100
AcDbEntity
  8
Defpoints
 62
     0
100
AcDbPoint
 10
62.80000000000002
 20
12.65329691240971
 30
0.0
  0
POINT
  5
E6
330
DC
100
AcDbEntity
  8
Defpoints
 62
     0
100
AcDbPoint
 10
-51.49999999999996
 20
10.16
 30
0.0
  0
POINT
  5
E7
330
DC
100
AcDbEntity
  8
Defpoints
 62
     0
100
AcDbPoint
 10
-51.49999999999996
 20
41.55533999616129
 30
0.0
  0
ENDBLK
  5
DE
330
DC
100
AcDbEntity
  8
0
100
AcDbBlockEnd
  0
BLOCK
  5
F1
330
F0
100
AcDbEntity
  8
0
100
AcDbBlockBegin
  2
_D_2
 70
     0
 10
0.0
 20
0.0
 30
0.0
  3
_D_2
  1
_D_2
  0
LINE
  5
F3
330
F0
100
AcDbEntity
  8
치수문자_일반주서
 62
     0
370
    -2
100
AcDbLine
 10
-49.02249999999998
 20
12.69999999999999
 30
0.0
 11
-61.21327283782722
 21
12.69999999999994
 31
0.0
  0
LINE
  5
F4
330
F0
100
AcDbEntity
  8
치수문자_일반주서
 62
     0
370
    -2
100
AcDbLine
 10
-49.02249999999998
 20
-12.69999999999999
 30
0.0
 11
-61.21327283782713
 21
-12.70000000000004
 31
0.0
  0
LINE
  5
F5
330
F0
100
AcDbEntity
  8
치수문자_일반주서
 62
     0
370
    -2
100
AcDbLine
 10
-61.2132728378272
 20
9.39799999999994
 30
0.0
 11
-61.21327283782715
 21
-9.398000000000039
 31
0.0
  0
SOLID
  5
F6
330
F0
100
AcDbEntity
  8
치수문자_일반주서
 62
     0
100
AcDbTrace
 10
-60.66293950449387
 20
9.397999999999941
 30
0.0
 11
-61.76360617116054
 21
9.397999999999938
 31
0.0
 12
-61.21327283782722
 22
12.69999999999994
 32
0.0
 13
-61.21327283782722
 23
12.69999999999994
 33
0.0
  0
SOLID
  5
F7
330
F0
100
AcDbEntity
  8
치수문자_일반주서
 62
     0
100
AcDbTrace
 10
-61.76360617116048
 20
-9.39800000000004
 30
0.0
 11
-60.66293950449381
 21
-9.398000000000037
 31
0.0
 12
-61.21327283782713
 22
-12.70000000000004
 32
0.0
 13
-61.21327283782713
 23
-12.70000000000004
 33
0.0
  0
MTEXT
  5
F8
330
F0
100
AcDbEntity
  8
치수문자_일반주서
 62
     0
100
AcDbMText
 10
-65.58827283782718
 20
-0.0000000000000277
 30
0.0
 40
3.5
 41
0.0
 71
     2
 72
     1
  1
\A1;%%c25.40 [1]
  7
SLDTEXTSTYLE0
 11
-3.356894814614650E-15
 21
1.0
 31
0.0
 73
     1
 44
1.0
  0
POINT
  5
F9
330
F0
100
AcDbEntity
  8
Defpoints
 62
     0
100
AcDbPoint
 10
-48.95999999999998
 20
12.69999999999999
 30
0.0
  0
POINT
  5
FA
330
F0
100
AcDbEntity
  8
Defpoints
 62
     0
100
AcDbPoint
 10
-48.95999999999998
 20
-12.69999999999999
 30
0.0
  0
POINT
  5
FB
330
F0
100
AcDbEntity
  8
Defpoints
 62
     0
100
AcDbPoint
 10
-61.21327283782713
 20
-12.70000000000004
 30
0.0
  0
ENDBLK
  5
F2
330
F0
100
AcDbEntity
  8
0
100
AcDbBlockEnd
  0
BLOCK
  5
105
330
104
100
AcDbEntity
  8
0
100
AcDbBlockBegin
  2
_D_3
 70
     0
 10
0.0
 20
0.0
 30
0.0
  3
_D_3
  1
_D_3
  0
SOLID
  5
107
330
104
100
AcDbEntity
  8
치수문자_일반주서
100
AcDbTrace
 10
63.37720685700604
 20
12.70107492872389
 30
0.0
 11
62.86920685700604
 21
9.399074928723895
 31
0.0
 12
63.88520685700605
 22
9.399074928723895
 32
0.0
 13
63.88520685700605
 23
9.399074928723895
 33
0.0
  0
SOLID
  5
108
330
104
100
AcDbEntity
  8
치수문자_일반주서
100
AcDbTrace
 10
63.37720685700604
 20
-12.69892507127611
 30
0.0
 11
63.88520685700605
 21
-9.39692507127611
 31
0.0
 12
62.86920685700604
 22
-9.39692507127611
 32
0.0
 13
62.86920685700604
 23
-9.39692507127611
 33
0.0
  0
LINE
  5
109
330
104
100
AcDbEntity
  8
치수문자_일반주서
100
AcDbLine
 10
52.58432514096331
 20
99.56448627543307
 30
0.0
 11
52.58432514096332
 21
98.85354878986857
 31
0.0
  0
LINE
  5
10A
330
104
100
AcDbEntity
  8
치수문자_일반주서
100
AcDbLine
 10
52.58432514096332
 20
98.85354878986857
 30
0.0
 11
58.14057513202262
 21
98.85354878986861
 31
0.0
  0
LINE
  5
10B
330
104
100
AcDbEntity
  8
치수문자_일반주서
100
AcDbLine
 10
58.14057513202262
 20
98.85354878986861
 30
0.0
 11
58.14057513202261
 21
99.56448627543311
 31
0.0
  0
LINE
  5
10C
330
104
100
AcDbEntity
  8
치수문자_일반주서
100
AcDbLine
 10
52.58432514096324
 20
110.3932191375703
 30
0.0
 11
52.58432514096324
 21
111.1041566231348
 31
0.0
  0
LINE
  5
10D
330
104
100
AcDbEntity
  8
치수문자_일반주서
100
AcDbLine
 10
52.58432514096324
 20
111.1041566231348
 30
0.0
 11
58.14057513202254
 21
111.1041566231349
 31
0.0
  0
LINE
  5
10E
330
104
100
AcDbEntity
  8
치수문자_일반주서
100
AcDbLine
 10
58.14057513202254
 20
111.1041566231349
 30
0.0
 11
58.14057513202255
 21
110.3932191375704
 31
0.0
  0
LINE
  5
10F
330
104
100
AcDbEntity
  8
치수문자_일반주서
100
AcDbLine
 10
54.53256574320836
 20
12.7010749287239
 30
0.0
 11
64.37720685700604
 21
12.70107492872389
 31
0.0
  0
LINE
  5
110
330
104
100
AcDbEntity
  8
치수문자_일반주서
100
AcDbLine
 10
54.53256574320836
 20
-12.69892507127611
 30
0.0
 11
64.37720685700604
 21
-12.69892507127611
 31
0.0
  0
LINE
  5
111
330
104
100
AcDbEntity
  8
치수문자_일반주서
100
AcDbLine
 10
63.37720685700604
 20
12.70107492872389
 30
0.0
 11
63.37720685700604
 21
113.4368216493228
 31
0.0
  0
LINE
  5
112
330
104
100
AcDbEntity
  8
치수문자_일반주서
100
AcDbLine
 10
63.37720685700604
 20
12.70107492872389
 30
0.0
 11
63.37720685700604
 21
-12.69892507127611
 31
0.0
  0
MTEXT
  5
113
330
104
100
AcDbEntity
  8
치수문자_일반주서
100
AcDbMText
 10
53.62883821744372
 20
100.4531581760444
 30
0.0
 40
3.5
 41
0.0
 71
     1
 72
     1
  1
1.00
  7
SLDTEXTSTYLE0
 11
-7.044195017643634E-15
 21
1.0
 31
0.0
 73
     1
 44
1.0
  0
MTEXT
  5
114
330
104
100
AcDbEntity
  8
치수문자_일반주서
100
AcDbMText
 10
58.86546976780422
 20
96.52088376368073
 30
0.0
 40
3.5
 41
0.0
 71
     1
 72
     1
  1
%%c
  7
SLDTEXTSTYLE0
 11
-7.044195017643634E-15
 21
1.0
 31
0.0
 73
     1
 44
1.0
  0
MTEXT
  5
115
330
104
100
AcDbEntity
  8
치수문자_일반주서
100
AcDbMText
 10
58.86546976780419
 20
101.7993211620548
 30
0.0
 40
3.5
 41
0.0
 71
     1
 72
     1
  1
25.40
  7
SLDTEXTSTYLE0
 11
-7.044195017643634E-15
 21
1.0
 31
0.0
 73
     1
 44
1.0
  0
ENDBLK
  5
106
330
104
100
AcDbEntity
  8
0
100
AcDbBlockEnd
  0
BLOCK
  5
11E
330
11D
100
AcDbEntity
  8
0
100
AcDbBlockBegin
  2
SW_DOWELSYMBOL_0
 70
     0
 10
0.0
 20
0.0
 30
0.0
  3
SW_DOWELSYMBOL_0
  1
SW_DOWELSYMBOL_0
  0
CIRCLE
  5
120
330
11D
100
AcDbEntity
  8
해칭선
 62
     0
100
AcDbCircle
 10
0.0
 20
0.0
 30
0.0
 40
3.000000000000001
  0
HATCH
  5
121
330
11D
100
AcDbEntity
  8
0
  6
Continuous
 62
     0
370
     0
100
AcDbHatch
 10
0.0
 20
0.0
 30
0.0
210
0.0
220
0.0
230
1.0
  2
SOLID
 70
     1
 71
     0
 91
        1
 92
        0
 93
        3
 72
     2
 10
0.0
 20
0.0
 40
3.000000000000001
 50
0.0
 51
90.0
 73
     1
 72
     1
 10
0.0
 20
3.000000000000001
 11
0.0
 21
0.0
 72
     1
 10
0.0
 20
0.0
 11
3.000000000000001
 21
0.0
 97
        0
 75
     0
 76
     1
 98
        1
 10
0.0
 20
0.0
  0
HATCH
  5
122
330
11D
100
AcDbEntity
  8
0
  6
Continuous
 62
     0
370
     0
100
AcDbHatch
 10
0.0
 20
0.0
 30
0.0
210
0.0
220
0.0
230
1.0
  2
SOLID
 70
     1
 71
     0
 91
        1
 92
        0
 93
        3
 72
     2
 10
0.0
 20
0.0
 40
3.000000000000001
 50
180.0
 51
270.0000000000007
 73
     1
 72
     1
 10
0.0
 20
-3.000000000000001
 11
0.0
 21
0.0
 72
     1
 10
0.0
 20
0.0
 11
-3.000000000000001
 21
0.0
 97
        0
 75
     0
 76
     1
 98
        1
 10
0.0
 20
0.0
  0
ENDBLK
  5
11F
330
11D
100
AcDbEntity
  8
0
100
AcDbBlockEnd
  0
BLOCK
  5
14E
330
14D
100
AcDbEntity
  8
0
100
AcDbBlockBegin
  2
*D7
 70
     1
 10
0.0
 20
0.0
 30
0.0
  3
*D7
  1
*D7
  0
LINE
  5
150
330
14D
100
AcDbEntity
  8
치수문자_일반주서
 62
     0
370
    -2
100
AcDbLine
 10
62.8625
 20
12.70000000000001
 30
0.0
 11
79.75197993252894
 21
12.70000000000001
 31
0.0
  0
LINE
  5
151
330
14D
100
AcDbEntity
  8
치수문자_일반주서
 62
     0
370
    -2
100
AcDbLine
 10
62.8625
 20
-12.69999999999999
 30
0.0
 11
79.75197993252894
 21
-12.69999999999999
 31
0.0
  0
LINE
  5
152
330
14D
100
AcDbEntity
  8
치수문자_일반주서
 62
     0
370
    -2
100
AcDbLine
 10
79.75197993252894
 20
9.398000000000007
 30
0.0
 11
79.75197993252894
 21
-9.397999999999993
 31
0.0
  0
SOLID
  5
153
330
14D
100
AcDbEntity
  8
치수문자_일반주서
 62
     0
100
AcDbTrace
 10
80.30231326586227
 20
9.398000000000007
 30
0.0
 11
79.20164659919561
 21
9.398000000000007
 31
0.0
 12
79.75197993252894
 22
12.70000000000001
 32
0.0
 13
79.75197993252894
 23
12.70000000000001
 33
0.0
  0
SOLID
  5
154
330
14D
100
AcDbEntity
  8
치수문자_일반주서
 62
     0
100
AcDbTrace
 10
79.20164659919561
 20
-9.397999999999993
 30
0.0
 11
80.30231326586227
 21
-9.397999999999993
 31
0.0
 12
79.75197993252894
 22
-12.69999999999999
 32
0.0
 13
79.75197993252894
 23
-12.69999999999999
 33
0.0
  0
MTEXT
  5
155
330
14D
100
AcDbEntity
  8
치수문자_일반주서
 62
     0
100
AcDbMText
 10
77.12697993252894
 20
0.0000000000000071
 30
0.0
 40
3.5
 41
0.0
 71
     5
 72
     1
  1
\A1;{%%C25.40 [1]}
  7
SLDTEXTSTYLE0
 11
0.0
 21
1.0
 31
0.0
 73
     1
 44
1.0
  0
POINT
  5
156
330
14D
100
AcDbEntity
  8
Defpoints
 62
     0
100
AcDbPoint
 10
62.8
 20
12.70000000000001
 30
0.0
  0
POINT
  5
157
330
14D
100
AcDbEntity
  8
Defpoints
 62
     0
100
AcDbPoint
 10
62.8
 20
-12.69999999999999
 30
0.0
  0
POINT
  5
158
330
14D
100
AcDbEntity
  8
Defpoints
 62
     0
100
AcDbPoint
 10
79.75197993252894
 20
-12.69999999999999
 30
0.0
  0
ENDBLK
  5
14F
330
14D
100
AcDbEntity
  8
0
100
AcDbBlockEnd
  0
ENDSEC
  0
SECTION
  2
ENTITIES
  0
LINE
  5
96
330
1F
100
AcDbEntity
  8
외형선
  6
Continuous
370
    15
100
AcDbLine
 10
-48.95999999999997
 20
-12.7
 30
0.0
 11
11.50012422846725
 21
-12.7
 31
0.0
  0
LINE
  5
97
330
1F
100
AcDbEntity
  8
외형선
  6
Continuous
370
    15
100
AcDbLine
 10
11.50012422846725
 20
12.7
 30
0.0
 11
-14.06992499999996
 21
12.7
 31
0.0
  0
LINE
  5
99
330
1F
100
AcDbEntity
  8
외형선
  6
Continuous
370
    15
100
AcDbLine
 10
-51.49999999999996
 20
-10.16000000000001
 30
0.0
 11
-48.95999999999997
 21
-12.7
 31
0.0
  0
LINE
  5
9A
330
1F
100
AcDbEntity
  8
외형선
  6
Continuous
 62
     1
370
    15
100
AcDbLine
 10
58.06716257534183
 20
3.765779968501969
 30
0.0
 11
57.98533560014011
 21
3.810008854975449
 31
0.0
  0
LINE
  5
9B
330
1F
100
AcDbEntity
  8
외형선
  6
Continuous
 62
     1
370
    15
100
AcDbLine
 10
37.87736888591626
 20
12.7
 30
0.0
 11
30.13403744126827
 21
12.7
 31
0.0
  0
LINE
  5
9C
330
1F
100
AcDbEntity
  8
외형선
  6
Continuous
 62
     1
370
    15
100
AcDbLine
 10
30.13403744126811
 20
-12.70000000000001
 30
0.0
 11
37.87736888591628
 21
-12.70000000000001
 31
0.0
  0
LINE
  5
9D
330
1F
100
AcDbEntity
  8
외형선
  6
Continuous
370
    15
100
AcDbLine
 10
11.50012422846725
 20
11.83304650248308
 30
0.0
 11
11.50012422846725
 21
12.7
 31
0.0
  0
SPLINE
  5
9E
330
1F
100
AcDbEntity
  8
외형선
  6
Continuous
370
    15
100
AcDbSpline
210
0.0
220
0.0
230
1.0
 70
     8
 71
     3
 72
     8
 73
     4
 74
     0
 42
0.000000001
 43
0.00000001
 40
0.0
 40
0.0
 40
0.0
 40
0.0
 40
1.0
 40
1.0
 40
1.0
 40
1.0
 10
12.00000000000005
 20
11.72503242491719
 30
0.0
 10
11.83340511010735
 20
11.76205876500457
 30
0.0
 10
11.66693024059262
 20
11.79806427666619
 30
0.0
 10
11.50012422846725
 20
11.83307080794551
 30
0.0
  0
LINE
  5
9F
330
1F
100
AcDbEntity
  8
외형선
  6
Continuous
370
    15
100
AcDbLine
 10
12.00000000000003
 20
9.323412324438172
 30
0.0
 11
12.00000000000002
 21
11.72503242491718
 31
0.0
  0
SPLINE
  5
A0
330
1F
100
AcDbEntity
  8
외형선
  6
Continuous
370
    15
100
AcDbSpline
210
0.0
220
0.0
230
1.0
 70
     8
 71
     3
 72
     8
 73
     4
 74
     0
 42
0.000000001
 43
0.00000001
 40
0.0
 40
0.0
 40
0.0
 40
0.0
 40
1.0
 40
1.0
 40
1.0
 40
1.0
 10
12.00000000000002
 20
9.323412324438168
 30
0.0
 10
11.83340511010732
 20
9.388842704883693
 30
0.0
 10
11.6669302405926
 20
9.453452722490693
 30
0.0
 10
11.50012422846725
 20
9.517282863418773
 30
0.0
  0
LINE
  5
A1
330
1F
100
AcDbEntity
  8
외형선
  6
Continuous
370
    15
100
AcDbLine
 10
11.50012422846725
 20
-4.611833742674814
 30
0.0
 11
11.50012422846725
 21
9.517307914048898
 31
0.0
  0
SPLINE
  5
A2
330
1F
100
AcDbEntity
  8
외형선
  6
Continuous
370
    15
100
AcDbSpline
210
0.0
220
0.0
230
1.0
 70
     8
 71
     3
 72
     8
 73
     4
 74
     0
 42
0.000000001
 43
0.00000001
 40
0.0
 40
0.0
 40
0.0
 40
0.0
 40
1.0
 40
1.0
 40
1.0
 40
1.0
 10
12.00000000000005
 20
-4.879919531574434
 30
0.0
 10
11.83340511010735
 20
-4.790955966644391
 30
0.0
 10
11.66693024059262
 20
-4.701592562727431
 30
0.0
 10
11.50012422846725
 20
-4.61177137921525
 30
0.0
  0
LINE
  5
A3
330
1F
100
AcDbEntity
  8
외형선
  6
Continuous
370
    15
100
AcDbLine
 10
12.00000000000003
 20
-8.623455376385609
 30
0.0
 11
12.00000000000002
 21
-4.879919531574441
 31
0.0
  0
SPLINE
  5
A4
330
1F
100
AcDbEntity
  8
외형선
  6
Continuous
370
    15
100
AcDbSpline
210
0.0
220
0.0
230
1.0
 70
     8
 71
     3
 72
     8
 73
     4
 74
     0
 42
0.000000001
 43
0.00000001
 40
0.0
 40
0.0
 40
0.0
 40
0.0
 40
1.0
 40
1.0
 40
1.0
 40
1.0
 10
12.00000000000002
 20
-8.623455376385605
 30
0.0
 10
11.83340511010732
 20
-8.552714079676518
 30
0.0
 10
11.6669302405926
 20
-8.481245481995696
 30
0.0
 10
11.50012422846725
 20
-8.409002729079987
 30
0.0
  0
LINE
  5
A5
330
1F
100
AcDbEntity
  8
외형선
  6
Continuous
370
    15
100
AcDbLine
 10
11.50012422846725
 20
-12.7
 30
0.0
 11
11.50012422846725
 21
-8.40897437677043
 31
0.0
  0
SPLINE
  5
A6
330
1F
100
AcDbEntity
  8
외형선
  6
Continuous
370
    15
100
AcDbSpline
210
0.0
220
0.0
230
1.0
 70
     8
 71
     3
 72
     8
 73
     4
 74
     0
 42
0.000000001
 43
0.00000001
 40
0.0
 40
0.0
 40
0.0
 40
0.0
 40
1.0
 40
1.0
 40
1.0
 40
1.0
 10
12.00000000000005
 20
-11.72503242491716
 30
0.0
 10
11.83340511010735
 20
-11.76205876500455
 30
0.0
 10
11.66693024059262
 20
-11.79806427666616
 30
0.0
 10
11.50012422846725
 20
-11.83307080794548
 30
0.0
  0
LINE
  5
A7
330
1F
100
AcDbEntity
  8
외형선
  6
Continuous
370
    15
100
AcDbLine
 10
-48.95999999999997
 20
-0.0000000000000038
 30
0.0
 11
-48.95999999999997
 21
10.79499999999999
 31
0.0
  0
LINE
  5
A8
330
1F
100
AcDbEntity
  8
외형선
  6
Continuous
370
    15
100
AcDbLine
 10
-48.95999999999997
 20
-12.7
 30
0.0
 11
-48.95999999999997
 21
-0.0000000000000038
 31
0.0
  0
LINE
  5
A9
330
1F
100
AcDbEntity
  8
외형선
  6
Continuous
370
    15
100
AcDbLine
 10
-51.49999999999996
 20
-0.0000000000000038
 30
0.0
 11
-51.49999999999997
 21
10.79499999999999
 31
0.0
  0
LINE
  5
AA
330
1F
100
AcDbEntity
  8
외형선
  6
Continuous
370
    15
100
AcDbLine
 10
-51.49999999999996
 20
-10.16000000000001
 30
0.0
 11
-51.49999999999996
 21
-0.0000000000000038
 31
0.0
  0
SPLINE
  5
AB
330
1F
100
AcDbEntity
  8
외형선
  6
Continuous
370
    15
100
AcDbSpline
210
0.0
220
0.0
230
1.0
 70
    24
 71
     3
 72
    30
 73
    26
 74
     0
 42
0.000000001
 43
0.00000001
 40
0.0
 40
0.0
 40
0.0
 40
0.0
 40
0.0624999999999999
 40
0.0624999999999999
 40
0.1249999999999998
 40
0.1249999999999998
 40
0.1874999999999998
 40
0.1874999999999998
 40
0.2499999999999998
 40
0.2499999999999998
 40
0.3124999999999998
 40
0.3124999999999998
 40
0.3749999999999998
 40
0.3749999999999998
 40
0.4374999999999998
 40
0.4374999999999998
 40
0.4999999999999999
 40
0.4999999999999999
 40
0.6249999999999999
 40
0.6249999999999999
 40
0.75
 40
0.75
 40
0.875
 40
0.875
 40
1.0
 40
1.0
 40
1.0
 40
1.0
 10
12.00000000000002
 20
-4.879919531574414
 30
0.0
 10
12.00000000000002
 20
-4.840716067677428
 30
0.0
 10
12.00000000000003
 20
-4.762402063951133
 30
0.0
 10
12.00000000000002
 20
-4.516650852536852
 30
0.0
 10
12.00000000000003
 20
-4.349100042170011
 30
0.0
 10
12.00000000000005
 20
-3.921747520804296
 30
0.0
 10
12.00000000000003
 20
-3.661896102845643
 30
0.0
 10
12.00000000000005
 20
-3.057496334530477
 30
0.0
 10
12.00000000000005
 20
-2.713000902231305
 30
0.0
 10
12.00000000000006
 20
-1.957615670907431
 30
0.0
 10
12.00000000000003
 20
-1.546873079646874
 30
0.0
 10
12.00000000000002
 20
-0.6849555524200014
 30
0.0
 10
12.00000000000002
 20
-0.2339648166068806
 30
0.0
 10
12.00000000000003
 20
0.6800536495533915
 30
0.0
 10
12.00000000000003
 20
1.142930509757949
 30
0.0
 10
12.00000000000005
 20
2.055178576250479
 30
0.0
 10
12.00000000000002
 20
2.50447376191501
 30
0.0
 10
12.00000000000005
 20
3.803351893840562
 30
0.0
 10
12.00000000000002
 20
4.600549966276168
 30
0.0
 10
12.00000000000002
 20
5.991413653952704
 30
0.0
 10
12.00000000000002
 20
6.586951196729281
 30
0.0
 10
12.00000000000005
 20
7.591652515467604
 30
0.0
 10
12.00000000000001
 20
8.002201564031683
 30
0.0
 10
11.99999999999999
 20
8.681364061550703
 30
0.0
 10
12.00000000000002
 20
9.018781949785872
 30
0.0
 10
12.00000000000002
 20
9.323412324438175
 30
0.0
  0
SPLINE
  5
AC
330
1F
100
AcDbEntity
  8
외형선
  6
Continuous
370
    15
100
AcDbSpline
210
0.0
220
0.0
230
1.0
 70
    24
 71
     3
 72
    11
 73
     7
 74
     0
 42
0.000000001
 43
0.00000001
 40
0.0
 40
0.0
 40
0.0
 40
0.0
 40
0.2644481422731536
 40
0.5322078451493664
 40
0.9289758600896237
 40
0.9999999999999999
 40
0.9999999999999999
 40
0.9999999999999999
 40
0.9999999999999999
 10
12.00000000000002
 20
-11.72503242491716
 30
0.0
 10
12.00000000000005
 20
-11.4453814685914
 30
0.0
 10
12.00000000000006
 20
-10.88257761759531
 30
0.0
 10
12.00000000000007
 20
-9.93094087353545
 30
0.0
 10
12.00000000000002
 20
-9.185961760887569
 30
0.0
 10
12.00000000000006
 20
-8.768605938788493
 30
0.0
 10
12.00000000000006
 20
-8.705239467175389
 30
0.0
  0
LINE
  5
AD
330
1F
100
AcDbEntity
  8
외형선
  6
Continuous
 62
     1
370
    15
100
AcDbLine
 10
62.80000000000002
 20
-11.50215313554797
 30
0.0
 11
62.80000000000002
 21
1.088153135548122
 31
0.0
  0
SPLINE
  5
AE
330
1F
100
AcDbEntity
  8
외형선
  6
Continuous
 62
     1
370
    15
100
AcDbSpline
210
0.0
220
0.0
230
1.0
 70
     8
 71
     3
 72
    56
 73
    52
 74
     0
 42
0.000000001
 43
0.00000001
 40
0.0
 40
0.0
 40
0.0
 40
0.0
 40
0.0625000000000003
 40
0.0625000000000003
 40
0.0937500000000002
 40
0.0937500000000002
 40
0.125
 40
0.125
 40
0.1562499999999998
 40
0.1562499999999998
 40
0.1874999999999996
 40
0.1874999999999996
 40
0.2499999999999992
 40
0.2499999999999992
 40
0.3124999999999988
 40
0.3124999999999988
 40
0.3437499999999986
 40
0.3437499999999986
 40
0.3749999999999984
 40
0.3749999999999984
 40
0.4062499999999983
 40
0.4062499999999983
 40
0.4374999999999981
 40
0.4374999999999981
 40
0.4999999999999977
 40
0.4999999999999977
 40
0.5624999999999973
 40
0.5624999999999973
 40
0.5937499999999971
 40
0.5937499999999971
 40
0.624999999999997
 40
0.624999999999997
 40
0.6562499999999968
 40
0.6562499999999968
 40
0.6874999999999967
 40
0.6874999999999967
 40
0.7499999999999969
 40
0.7499999999999969
 40
0.7812499999999972
 40
0.7812499999999972
 40
0.8124999999999977
 40
0.8124999999999977
 40
0.843749999999998
 40
0.843749999999998
 40
0.8749999999999984
 40
0.8749999999999984
 40
0.9062499999999988
 40
0.9062499999999988
 40
0.9374999999999992
 40
0.9374999999999992
 40
1.0
 40
1.0
 40
1.0
 40
1.0
 10
62.80000000000002
 20
-11.50215313554797
 30
0.0
 10
61.74528912215168
 20
-11.24339872313263
 30
0.0
 10
60.68110882236265
 20
-10.94382056627383
 30
0.0
 10
59.09543758912761
 20
-10.44007049362532
 30
0.0
 10
58.56822103010503
 20
-10.26310493401647
 30
0.0
 10
57.50887528262037
 20
-9.891112676797814
 30
0.0
 10
56.97829775907443
 20
-9.696246525514466
 30
0.0
 10
55.91947631308984
 20
-9.290304186448736
 30
0.0
 10
55.39270709619748
 20
-9.079440646101917
 30
0.0
 10
54.33476471075398
 20
-8.641752399621396
 30
0.0
 10
53.80428678841715
 20
-8.41500117050175
 30
0.0
 10
52.21454330703875
 20
-7.713642019271518
 30
0.0
 10
51.16027887898499
 20
-7.218473634491501
 30
0.0
 10
49.04000976528007
 20
-6.179673857279202
 30
0.0
 10
47.98563384410388
 20
-5.637943145571351
 30
0.0
 10
46.39602762568663
 20
-4.797475180292715
 30
0.0
 10
45.86551676490483
 20
-4.51278920528687
 30
0.0
 10
44.80735197164366
 20
-3.936591945856373
 30
0.0
 10
44.28064102976573
 20
-3.645262671134325
 30
0.0
 10
43.22200239901502
 20
-3.055827749937478
 30
0.0
 10
42.69143785047216
 20
-2.757966735615891
 30
0.0
 10
41.6319608510646
 20
-2.158279385383326
 30
0.0
 10
41.10453460006823
 20
-1.856739166745693
 30
0.0
 10
39.51927394483442
 20
-0.9475119479599129
 30
0.0
 10
38.45505332313993
 20
-0.3345450281237125
 30
0.0
 10
36.34492697067665
 20
0.8859605199896528
 30
0.0
 10
35.2814950127077
 20
1.496856686790607
 30
0.0
 10
33.6954309179371
 20
2.400515088871818
 30
0.0
 10
33.16838915968933
 20
2.699603709837543
 30
0.0
 10
32.10918655858823
 20
3.293540063334674
 30
0.0
 10
31.57860204116266
 20
3.588085645613954
 30
0.0
 10
30.51960965477146
 20
4.170032831297311
 30
0.0
 10
29.99274725495196
 20
4.457160325793891
 30
0.0
 10
28.93503911926219
 20
5.023911470908916
 30
0.0
 10
28.40460011274681
 20
5.303451081201242
 30
0.0
 10
26.81473723725741
 20
6.127260815946266
 30
0.0
 10
25.76055526008913
 20
6.656103859321986
 30
0.0
 10
24.17037131084236
 20
7.413473006530825
 30
0.0
 10
23.6401936241466
 20
7.65971613566794
 30
0.0
 10
22.58373803972807
 20
8.137899802822357
 30
0.0
 10
22.05597651148659
 20
8.370077579843471
 30
0.0
 10
20.9963424503199
 20
8.8200911943258
 30
0.0
 10
20.46580462970856
 20
9.037722921417146
 30
0.0
 10
19.40742927888429
 20
9.456555375865547
 30
0.0
 10
18.88074170193067
 20
9.657628290939872
 30
0.0
 10
17.822297754398
 20
10.04331572623612
 30
0.0
 10
17.2917521614935
 20
10.22775758064563
 30
0.0
 10
16.23215580954039
 20
10.5783783219414
 30
0.0
 10
15.70448498320491
 20
10.74442265115484
 30
0.0
 10
14.11965260710086
 20
11.21439870426733
 30
0.0
 10
13.05540374017467
 20
11.49046497907073
 30
0.0
 10
12.00000000000005
 20
11.7250324249172
 30
0.0
  0
SPLINE
  5
AF
330
1F
100
AcDbEntity
  8
외형선
  6
Continuous
 62
     1
370
    15
100
AcDbSpline
210
0.0
220
0.0
230
1.0
 70
     8
 71
     3
 72
    22
 73
    18
 74
     0
 42
0.000000001
 43
0.00000001
 40
0.0
 40
0.0
 40
0.0
 40
0.0
 40
0.0691775896771731
 40
0.1383395883936429
 40
0.2074911200577623
 40
0.2766373294002107
 40
0.3457833717514782
 40
0.4136995222226249
 40
0.48162934661527
 40
0.5495781220457667
 40
0.6175163413847785
 40
0.6868243734554202
 40
0.7561243740055389
 40
0.8254212584463486
 40
0.8947199482078151
 40
0.9640253612326011
 40
1.0
 40
1.0
 40
1.0
 40
1.0
 10
62.8
 20
1.088153135548123
 30
0.0
 10
61.73759977453083
 20
1.696917935759509
 30
0.0
 10
59.61303876298668
 20
2.914310335274847
 30
0.0
 10
56.42667253902832
 20
4.673423351076059
 30
0.0
 10
53.24086995176513
 20
6.336164733285919
 30
0.0
 10
50.05536918308079
 20
7.865734039811082
 30
0.0
 10
46.88882441365199
 20
9.22257131132659
 30
0.0
 10
43.74096899300886
 20
10.38201847476296
 30
0.0
 10
40.61137672088019
 20
11.32479531223242
 30
0.0
 10
37.4811675398364
 20
12.03865477397838
 30
0.0
 10
34.32998073197211
 20
12.51252710754262
 30
0.0
 10
31.15815634552914
 20
12.73098673550412
 30
0.0
 10
27.96554231284301
 20
12.68231054377994
 30
0.0
 10
24.77310195411232
 20
12.36986965433037
 30
0.0
 10
21.58055530096078
 20
11.78613822142534
 30
0.0
 10
18.89967675575987
 20
11.12266128435534
 30
0.0
 10
17.28289108748417
 20
10.57411213160775
 30
0.0
 10
16.73042858969461
 20
10.38667056712971
 30
0.0
  0
LINE
  5
B0
330
1F
100
AcDbEntity
  8
외형선
  6
Continuous
 62
     1
370
    15
100
AcDbLine
 10
62.80000000000002
 20
-12.65329691240972
 30
0.0
 11
62.80000000000002
 21
-11.50215313554797
 31
0.0
  0
SPLINE
  5
B1
330
1F
100
AcDbEntity
  8
외형선
  6
Continuous
 62
     1
370
    15
100
AcDbSpline
210
0.0
220
0.0
230
1.0
 70
     8
 71
     3
 72
    56
 73
    52
 74
     0
 42
0.000000001
 43
0.00000001
 40
0.0
 40
0.0
 40
0.0
 40
0.0
 40
0.0625000000000007
 40
0.0625000000000007
 40
0.0937500000000007
 40
0.0937500000000007
 40
0.1250000000000007
 40
0.1250000000000007
 40
0.1562500000000007
 40
0.1562500000000007
 40
0.1875000000000008
 40
0.1875000000000008
 40
0.2500000000000008
 40
0.2500000000000008
 40
0.3125000000000008
 40
0.3125000000000008
 40
0.3437500000000009
 40
0.3437500000000009
 40
0.3750000000000009
 40
0.3750000000000009
 40
0.4062500000000009
 40
0.4062500000000009
 40
0.4375000000000009
 40
0.4375000000000009
 40
0.5000000000000009
 40
0.5000000000000009
 40
0.562500000000001
 40
0.562500000000001
 40
0.5937500000000007
 40
0.5937500000000007
 40
0.6250000000000003
 40
0.6250000000000003
 40
0.6562500000000001
 40
0.6562500000000001
 40
0.6874999999999998
 40
0.6874999999999998
 40
0.7499999999999992
 40
0.7499999999999992
 40
0.7812499999999992
 40
0.7812499999999992
 40
0.8124999999999992
 40
0.8124999999999992
 40
0.8437499999999992
 40
0.8437499999999992
 40
0.8749999999999992
 40
0.8749999999999992
 40
0.9062499999999993
 40
0.9062499999999993
 40
0.9374999999999993
 40
0.9374999999999993
 40
1.0
 40
1.0
 40
1.0
 40
1.0
 10
62.8
 20
-12.65329691240972
 30
0.0
 10
61.74528912215178
 20
-12.60100312106293
 30
0.0
 10
60.68110882236274
 20
-12.50449091193716
 30
0.0
 10
59.09543758912761
 20
-12.2954971268013
 30
0.0
 10
58.56822103010501
 20
-12.21517842628206
 30
0.0
 10
57.5088752826204
 20
-12.03322179628625
 30
0.0
 10
56.97829775907442
 20
-11.93164700191012
 30
0.0
 10
55.91947631308989
 20
-11.70810788127357
 30
0.0
 10
55.39270709619743
 20
-11.58627726970652
 30
0.0
 10
54.33476471075394
 20
-11.32240114377738
 30
0.0
 10
53.80428678841714
 20
-11.1803845260161
 30
0.0
 10
52.21454330703872
 20
-10.72570996270427
 30
0.0
 10
51.16027887898493
 20
-10.38481970970887
 30
0.0
 10
49.04000976528004
 20
-9.632112580086119
 30
0.0
 10
47.98563384410385
 20
-9.221671746608108
 30
0.0
 10
46.39602762568663
 20
-8.559150480444128
 30
0.0
 10
45.86551676490478
 20
-8.330583085040118
 30
0.0
 10
44.80735197164363
 20
-7.859800624780087
 30
0.0
 10
44.28064102976575
 20
-7.6177462030859
 30
0.0
 10
43.222002399015
 20
-7.120045624287184
 30
0.0
 10
42.69143785047213
 20
-6.864594358992692
 30
0.0
 10
41.63196085106458
 20
-6.342474908740976
 30
0.0
 10
41.10453460006823
 20
-6.076064584556116
 30
0.0
 10
39.51927394483444
 20
-5.261237342997858
 30
0.0
 10
38.45505332313994
 20
-4.696526476595198
 30
0.0
 10
36.34492697067656
 20
-3.541728925053046
 30
0.0
 10
35.28149501270774
 20
-2.948472192483572
 30
0.0
 10
33.69543091793721
 20
-2.048007128335125
 30
0.0
 10
33.16838915968933
 20
-1.746128713070141
 30
0.0
 10
32.10918655858822
 20
-1.138890716854547
 30
0.0
 10
31.57860204116268
 20
-0.833829740243312
 30
0.0
 10
30.51960965477144
 20
-0.2232062535778038
 30
0.0
 10
29.99274725495201
 20
0.0820574133462079
 30
0.0
 10
28.93503911926219
 20
0.6926790459718127
 30
0.0
 10
28.40460011274678
 20
0.9979579832964108
 30
0.0
 10
26.81473723725741
 20
1.910119887007179
 30
0.0
 10
25.76055526008914
 20
2.512609579220916
 30
0.0
 10
24.1703713108424
 20
3.401826742406202
 30
0.0
 10
23.64019362414658
 20
3.695551326947882
 30
0.0
 10
22.58373803972805
 20
4.275367716267194
 30
0.0
 10
22.05597651148658
 20
4.561737832250937
 30
0.0
 10
20.99634245031993
 20
5.126798150170516
 30
0.0
 10
20.46580462970854
 20
5.405242023322813
 30
0.0
 10
19.4074292788843
 20
5.9517939972006
 30
0.0
 10
18.8807417019307
 20
6.219718765459718
 30
0.0
 10
17.82229775439797
 20
6.745170722107991
 30
0.0
 10
17.29175216149348
 20
7.002480642036486
 30
0.0
 10
16.23215580954041
 20
7.504246325446881
 30
0.0
 10
15.70448498320485
 20
7.748496149017826
 30
0.0
 10
14.1196526071009
 20
8.460758548030899
 30
0.0
 10
13.05540374017462
 20
8.908901001265352
 30
0.0
 10
12.00000000000003
 20
9.323412324438173
 30
0.0
  0
SPLINE
  5
B2
330
1F
100
AcDbEntity
  8
외형선
  6
Continuous
 62
     1
370
    15
100
AcDbSpline
210
0.0
220
0.0
230
1.0
 70
     8
 71
     3
 72
    20
 73
    16
 74
     0
 42
0.000000001
 43
0.00000001
 40
0.0
 40
0.0
 40
0.0
 40
0.0
 40
0.0811346896674857
 40
0.1622512250185782
 40
0.2433538775755048
 40
0.3244486756578991
 40
0.4055416632245812
 40
0.4851902508376895
 40
0.5648528351145009
 40
0.6445379511573459
 40
0.7242209199663945
 40
0.8055079719358661
 40
0.8867840441542105
 40
0.9680548975153221
 40
1.0
 40
1.0
 40
1.0
 40
1.0
 10
12.00000000000005
 20
-4.879919531574439
 30
0.0
 10
13.06246531607835
 20
-5.436206106274835
 30
0.0
 10
15.18715821599507
 20
-6.548654783609194
 30
0.0
 10
18.37370802254841
 20
-8.052911288126623
 30
0.0
 10
21.55963628311521
 20
-9.39573677865704
 30
0.0
 10
24.74518766860471
 20
-10.53978620174029
 30
0.0
 10
27.9117031031591
 20
-11.45812565128729
 30
0.0
 10
31.059437280304
 20
-12.13579457227477
 30
0.0
 10
34.18884726982252
 20
-12.56419349688834
 30
0.0
 10
37.31895615181323
 20
-12.73895685466504
 30
0.0
 10
40.47029373589666
 20
-12.65484901124942
 30
0.0
 10
43.64228432863047
 20
-12.31196503155267
 30
0.0
 10
46.83499593020746
 20
-11.69411416716669
 30
0.0
 10
49.38159383143272
 20
-11.04587250280743
 30
0.0
 10
50.86400547920395
 20
-10.53276290029354
 30
0.0
 10
51.28228390699936
 20
-10.3879834942838
 30
0.0
  0
SPLINE
  5
B3
330
1F
100
AcDbEntity
  8
외형선
  6
Continuous
370
    15
100
AcDbSpline
210
0.0
220
0.0
230
1.0
 70
    24
 71
     3
 72
    30
 73
    26
 74
     0
 42
0.000000001
 43
0.00000001
 40
0.0
 40
0.0
 40
0.0
 40
0.0
 40
0.125
 40
0.125
 40
0.25
 40
0.25
 40
0.3749999999999999
 40
0.3749999999999999
 40
0.4999999999999999
 40
0.4999999999999999
 40
0.5624999999999999
 40
0.5624999999999999
 40
0.6249999999999999
 40
0.6249999999999999
 40
0.6874999999999998
 40
0.6874999999999998
 40
0.7499999999999998
 40
0.7499999999999998
 40
0.8124999999999998
 40
0.8124999999999998
 40
0.8749999999999999
 40
0.8749999999999999
 40
0.9375
 40
0.9375
 40
1.0
 40
1.0
 40
1.0
 40
1.0
 10
12.00000000000003
 20
9.323412324438168
 30
0.0
 10
12.00000000000003
 20
9.01878194978586
 30
0.0
 10
12.00000000000003
 20
8.681364061550697
 30
0.0
 10
12.00000000000005
 20
8.002201564031662
 30
0.0
 10
12.00000000000005
 20
7.591652515467579
 30
0.0
 10
12.00000000000006
 20
6.586951196729239
 30
0.0
 10
12.00000000000007
 20
5.99141365395265
 30
0.0
 10
12.00000000000005
 20
4.600549966276084
 30
0.0
 10
12.00000000000007
 20
3.803351893840464
 30
0.0
 10
12.00000000000006
 20
2.50447376191489
 30
0.0
 10
12.00000000000005
 20
2.055178576250352
 30
0.0
 10
12.00000000000003
 20
1.14293050975781
 30
0.0
 10
12.00000000000003
 20
0.6800536495532372
 30
0.0
 10
12.00000000000005
 20
-0.233964816607042
 30
0.0
 10
12.00000000000005
 20
-0.684955552420163
 30
0.0
 10
12.00000000000006
 20
-1.546873079647035
 30
0.0
 10
12.00000000000007
 20
-1.957615670907595
 30
0.0
 10
12.00000000000005
 20
-2.71300090223146
 30
0.0
 10
12.00000000000001
 20
-3.057496334530618
 30
0.0
 10
12.00000000000007
 20
-3.66189610284577
 30
0.0
 10
12.00000000000006
 20
-3.921747520804415
 30
0.0
 10
12.00000000000006
 20
-4.349100042170108
 30
0.0
 10
12.00000000000005
 20
-4.516650852536936
 30
0.0
 10
12.00000000000002
 20
-4.762402063951189
 30
0.0
 10
12.00000000000003
 20
-4.840716067677471
 30
0.0
 10
12.00000000000003
 20
-4.879919531574446
 30
0.0
  0
SPLINE
  5
B4
330
1F
100
AcDbEntity
  8
외형선
  6
Continuous
 62
     1
370
    15
100
AcDbSpline
210
0.0
220
0.0
230
1.0
 70
     8
 71
     3
 72
    15
 73
    11
 74
     0
 42
0.000000001
 43
0.00000001
 40
0.0
 40
0.0
 40
0.0
 40
0.0
 40
0.103189974260182
 40
0.2313121825998095
 40
0.3594170849856921
 40
0.4875137615656505
 40
0.6156113083732392
 40
0.7437188197609343
 40
0.8718453708401903
 40
1.0
 40
1.0
 40
1.0
 40
1.0
 10
37.87736888591628
 20
12.68117925589063
 30
0.0
 10
38.73467341059784
 20
12.6720039549463
 30
0.0
 10
40.65641999672239
 20
12.65143646374708
 30
0.0
 10
43.6422831584778
 20
12.30491299307517
 30
0.0
 10
46.83499528389778
 20
11.70396850090759
 30
0.0
 10
50.02745572738622
 20
10.84910374525701
 30
0.0
 10
53.21994285162264
 20
9.768670315850434
 30
0.0
 10
56.41273097482
 20
8.480012227642327
 30
0.0
 10
59.60607512621063
 20
7.021145569547243
 30
0.0
 10
61.73528061705597
 20
5.929941838896278
 30
0.0
 10
62.80000000000002
 20
5.384280197612565
 30
0.0
  0
LINE
  5
B5
330
1F
100
AcDbEntity
  8
외형선
  6
Continuous
 62
     1
370
    15
100
AcDbLine
 10
62.80000000000002
 20
1.088153135548123
 30
0.0
 11
62.80000000000002
 21
5.384280197612565
 31
0.0
  0
SPLINE
  5
B6
330
1F
100
AcDbEntity
  8
외형선
  6
Continuous
 62
     1
370
    15
100
AcDbSpline
210
0.0
220
0.0
230
1.0
 70
     8
 71
     3
 72
    13
 73
     9
 74
     0
 42
0.000000001
 43
0.00000001
 40
0.0
 40
0.0
 40
0.0
 40
0.0
 40
0.119586889687062
 40
0.2956361376781952
 40
0.4716899720998234
 40
0.6477608870216934
 40
0.8238613435400077
 40
1.0
 40
1.0
 40
1.0
 40
1.0
 10
30.13403744126811
 20
-12.67086899261525
 30
0.0
 10
29.41118996083073
 20
-12.6705133310523
 30
0.0
 10
27.62420613838896
 20
-12.66963408407911
 30
0.0
 10
24.7731021023067
 20
-12.36151244925885
 30
0.0
 10
21.58055941964362
 20
-11.79535607316063
 30
0.0
 10
18.38764514637064
 20
-10.96742687038572
 30
0.0
 10
15.19411867262518
 20
-9.924448272648046
 30
0.0
 10
13.06478319889968
 20
-9.05715102761497
 30
0.0
 10
12.00000000000003
 20
-8.623455376385612
 30
0.0
  0
SPLINE
  5
B7
330
1F
100
AcDbEntity
  8
외형선
  6
Continuous
 62
     1
370
    15
100
AcDbSpline
210
0.0
220
0.0
230
1.0
 70
     8
 71
     3
 72
    11
 73
     7
 74
     0
 42
0.000000001
 43
0.00000001
 40
0.0
 40
0.0
 40
0.0
 40
0.0
 40
0.2767052879046528
 40
0.5533482131093292
 40
0.8299492708718522
 40
0.9999999999999999
 40
0.9999999999999999
 40
0.9999999999999999
 40
0.9999999999999999
 10
62.8
 20
12.65329691240971
 30
0.0
 10
61.73759973803434
 20
12.57565404647517
 30
0.0
 10
59.61303865350548
 20
12.42038581343595
 30
0.0
 10
56.42667297681044
 20
11.84753357254402
 30
0.0
 10
53.64984757998075
 20
11.17912575466109
 30
0.0
 10
51.93512043415812
 20
10.60613457154832
 30
0.0
 10
51.28228390699935
 20
10.38798349428379
 30
0.0
  0
LINE
  5
B8
330
1F
100
AcDbEntity
  8
외형선
  6
Continuous
 62
     1
370
    15
100
AcDbLine
 10
62.80000000000002
 20
5.369567747644794
 30
0.0
 11
62.80000000000002
 21
12.65329691240971
 31
0.0
  0
SPLINE
  5
B9
330
1F
100
AcDbEntity
  8
외형선
  6
Continuous
 62
     1
370
    15
100
AcDbSpline
210
0.0
220
0.0
230
1.0
 70
     8
 71
     3
 72
     9
 73
     5
 74
     0
 42
0.000000001
 43
0.00000001
 40
0.0
 40
0.0
 40
0.0
 40
0.0
 40
0.6737905281186565
 40
1.0
 40
1.0
 40
1.0
 40
1.0
 10
12.00000000000005
 20
-11.72503242491717
 30
0.0
 10
13.06247082034768
 20
-11.47493050862241
 30
0.0
 10
14.63932709245088
 20
-11.10374405547785
 30
0.0
 10
16.21607762966214
 20
-10.56305006742262
 30
0.0
 10
16.73042858969446
 20
-10.38667056712971
 30
0.0
  0
SPLINE
  5
BA
330
1F
100
AcDbEntity
  8
외형선
  6
Continuous
370
    15
100
AcDbSpline
210
0.0
220
0.0
230
1.0
 70
    24
 71
     3
 72
    11
 73
     7
 74
     0
 42
0.000000001
 43
0.00000001
 40
0.0
 40
0.0
 40
0.0
 40
0.0
 40
0.0990045867694452
 40
0.4955673276378009
 40
0.9036304148564069
 40
0.9999999999999999
 40
0.9999999999999999
 40
0.9999999999999999
 40
0.9999999999999999
 10
12.00000000000005
 20
-8.705249467175388
 30
0.0
 10
12.00000000000005
 20
-8.794107336115577
 30
0.0
 10
12.00000000000006
 20
-9.238885281129626
 30
0.0
 10
12.00000000000009
 20
-10.15410784767939
 30
0.0
 10
12.00000000000016
 20
-11.08899285114718
 30
0.0
 10
12.00000000000005
 20
-11.62301072128113
 30
0.0
 10
12.00000000000003
 20
-11.72503242491717
 30
0.0
  0
LINE
  5
BB
330
1F
100
AcDbEntity
  8
중심선
 62
     1
100
AcDbLine
 10
-54.49999999999997
 20
-0.0000000000000077
 30
0.0
 11
65.80000000000001
 21
0.0000000000000075
 31
0.0
  0
LINE
  5
BC
330
1F
100
AcDbEntity
  8
참조1
100
AcDbLine
 10
5.650000000000023
 20
-0.0000000000000077
 30
0.0
 11
5.650000000000031
 21
-40.00000000000001
 31
0.0
  0
LINE
  5
BD
330
1F
100
AcDbEntity
  8
참조1
100
AcDbLine
 10
5.650000000000031
 20
-40.00000000000001
 30
0.0
 11
-37.29010681430864
 21
-40.0
 31
0.0
  0
CIRCLE
  5
BE
330
1F
100
AcDbEntity
  8
해칭선
100
AcDbCircle
 10
0.0
 20
0.0
 30
0.0
 40
3.0
  0
INSERT
  5
BF
330
1F
100
AcDbEntity
  8
0
  6
Continuous
 62
     7
100
AcDbBlockReference
 66
     1
  2
블럭10
 10
-8.290272932125179
 20
-52.04717430164393
 30
0.0
  0
ATTRIB
  5
C0
330
BF
100
AcDbEntity
  8
FORMAT
 62
     2
100
AcDbText
 10
-17.47156822086646
 20
-49.97180738881174
 30
0.0
 40
4.233333333333333
  1
E1039064 [ 4 FLUTE ]
 41
0.75
  7
SLDTEXTSTYLE0
 11
-17.47156822086646
 21
-52.08847405547841
 31
0.0
100
AcDbAttribute
  2
AUTOATTR0
 70
     0
 74
     1
  0
SEQEND
  5
C1
330
BF
100
AcDbEntity
  8
0
  6
Continuous
 62
     7
  0
HATCH
  5
C2
330
1F
100
AcDbEntity
  8
중심선
100
AcDbHatch
 10
0.0
 20
0.0
 30
0.0
210
0.0
220
0.0
230
1.0
  2
SOLID
 70
     1
 71
     0
 91
        1
 92
        0
 93
        4
 72
     1
 10
-2.575363627744331
 20
-35.8
 11
-6.021638871581613
 21
-35.8
 72
     1
 10
-6.021638871581613
 20
-35.8
 11
-8.149868730785636
 21
-38.33632558057257
 72
     1
 10
-8.149868730785636
 20
-38.33632558057257
 11
-4.703560401835205
 21
-38.33628615127008
 72
     1
 10
-4.703560401835205
 20
-38.33628615127008
 11
-2.575363627744331
 21
-35.8
 97
        0
 75
     0
 76
     1
 98
        1
 10
-15.65560364977726
 20
-0.0010749287238969
  0
HATCH
  5
C3
330
1F
100
AcDbEntity
  8
중심선
100
AcDbHatch
 10
0.0
 20
0.0
 30
0.0
210
0.0
220
0.0
230
1.0
  2
SOLID
 70
     1
 71
     0
 91
        1
 92
        0
 93
        4
 72
     1
 10
2.437400363291705
 20
-35.79999999999998
 11
-1.008874880545607
 21
-35.79999999999998
 72
     1
 10
-1.008874880545607
 20
-35.79999999999998
 11
-5.54001288890305
 21
-41.20000000000002
 72
     1
 10
-5.54001288890305
 20
-41.20000000000002
 11
-2.093737645065769
 21
-41.20000000000002
 72
     1
 10
-2.093737645065769
 20
-41.20000000000002
 11
2.437400363291705
 21
-35.79999999999998
 97
        0
 75
     0
 76
     1
 98
        1
 10
-15.65560364977726
 20
-0.0010749287238969
  0
HATCH
  5
C4
330
1F
100
AcDbEntity
  8
중심선
100
AcDbHatch
 10
0.0
 20
0.0
 30
0.0
210
0.0
220
0.0
230
1.0
  2
SOLID
 70
     1
 71
     0
 91
        1
 92
        0
 93
        4
 72
     1
 10
7.450164354327573
 20
-35.79999999999998
 11
4.003889110490455
 21
-35.79999999999998
 72
     1
 10
4.003889110490455
 20
-35.79999999999998
 11
-3.044547791398848
 21
-44.20000000000002
 72
     1
 10
-3.044547791398848
 20
-44.20000000000002
 11
0.4017274524384327
 21
-44.20000000000002
 72
     1
 10
0.4017274524384327
 20
-44.20000000000002
 11
7.450164354327573
 21
-35.79999999999998
 97
        0
 75
     0
 76
     1
 98
        1
 10
-15.65560364977726
 20
-0.0010749287238969
  0
HATCH
  5
C5
330
1F
100
AcDbEntity
  8
중심선
100
AcDbHatch
 10
0.0
 20
0.0
 30
0.0
210
0.0
220
0.0
230
1.0
  2
SOLID
 70
     1
 71
     0
 91
        1
 92
        0
 93
        6
 72
     3
 10
12.25005478533971
 20
-40.00000000005127
 11
3.960054785062283
 21
1.540882976769353E-10
 40
0.3939339440162628
 50
17.09539180608436
 51
320.0019657685077
 73
     0
 72
     1
 10
13.93305444104028
 20
-38.5878940046383
 11
16.23835631474132
 21
-36.65356729459035
 72
     3
 10
12.25005478528687
 20
-40.00000000000015
 11
6.600054785286833
 21
-1.278976924368180E-13
 40
0.6363583540795976
 50
39.99873849337446
 51
368.4976242363725
 73
     1
 72
     1
 10
18.67538727718745
 20
-39.03999999993002
 11
10.93012209212279
 21
-39.03999999993002
 72
     1
 10
10.93012209212279
 20
-39.03999999993002
 11
10.93009704767686
 21
-40.95999999992991
 72
     1
 10
10.93009704767686
 20
-40.95999999992991
 11
15.3714768171489
 21
-40.95999999992988
 97
        0
 75
     0
 76
     1
 98
        1
 10
-15.65560364977726
 20
-0.0010749287238969
  0
DIMENSION
  5
C6
330
1F
100
AcDbEntity
  8
치수문자_일반주서
100
AcDbDimension
  2
_D
 10
12.00000000000002
 20
25.83413479835851
 30
0.0
 11
37.40000000000003
 21
25.83413479835851
 31
0.0
 70
   160
  1
<>
 71
     2
 42
50.79999999999998
  3
SLDDIMSTYLE0
100
AcDbAlignedDimension
 13
62.80000000000002
 23
12.65329691240971
 33
0.0
 14
12.00000000000003
 24
11.7250324249172
 34
0.0
 50
0.000000000000008
100
AcDbRotatedDimension
1001
ACAD
1000
DSTYLE
1002
{
1070
   171
1070
     6
1070
   273
1070
     7
1002
}
  0
DIMENSION
  5
DB
330
1F
100
AcDbEntity
  8
치수문자_일반주서
100
AcDbDimension
  2
_D_1
 10
-51.49999999999997
 20
41.55533999616129
 30
0.0
 11
5.650000000000023
 21
41.55533999616129
 31
0.0
 70
   160
  1
<>
 71
     2
 42
114.3
  3
SLDDIMSTYLE0
100
AcDbAlignedDimension
 13
62.80000000000002
 23
12.65329691240971
 33
0.0
 14
-51.49999999999996
 24
10.16
 34
0.0
 50
0.0000000000000036
100
AcDbRotatedDimension
1001
ACAD
1000
DSTYLE
1002
{
1070
   171
1070
     6
1070
   273
1070
     7
1002
}
  0
DIMENSION
  5
EE
330
1F
100
AcDbEntity
  8
치수문자_일반주서
100
AcDbDimension
  2
_D_2
 10
-61.21327283782713
 20
-12.70000000000004
 30
0.0
 11
-61.21327283782718
 21
-0.0000000000000132
 31
0.0
 70
   160
  1
%%c<>
 71
     2
 42
25.39999999999998
 52
-270.0
  3
SLDDIMSTYLE1
100
AcDbAlignedDimension
 13
-48.95999999999998
 23
12.69999999999999
 33
0.0
 14
-48.95999999999998
 24
-12.69999999999999
 34
0.0
 50
90.0000000000002
100
AcDbRotatedDimension
1001
ACAD
1000
DSTYLE
1002
{
1070
   171
1070
     6
1070
   273
1070
     7
1002
}
  0
LINE
  5
116
330
1F
100
AcDbEntity
  8
참조1
100
AcDbLine
 10
60.68223381534562
 20
7.439999999999999
 30
0.0
 11
60.68223381534562
 21
-7.440000000000006
 31
0.0
  0
LINE
  5
117
330
1F
100
AcDbEntity
  8
참조1
100
AcDbLine
 10
73.38223381534561
 20
5.439999999999999
 30
0.0
 11
60.68223381534562
 21
5.439999999999999
 31
0.0
  0
SOLID
  5
118
330
1F
100
AcDbEntity
  8
참조1
100
AcDbTrace
 10
60.68223381534562
 20
5.439999999999999
 30
0.0
 11
67.03223381534562
 21
4.423999999999999
 31
0.0
 12
67.03223381534562
 22
6.455999999999999
 32
0.0
 13
67.03223381534562
 23
6.455999999999999
 33
0.0
  0
LINE
  5
119
330
1F
100
AcDbEntity
  8
참조1
100
AcDbLine
 10
73.38223381534561
 20
-5.440000000000006
 30
0.0
 11
60.68223381534562
 21
-5.440000000000006
 31
0.0
  0
SOLID
  5
11A
330
1F
100
AcDbEntity
  8
참조1
100
AcDbTrace
 10
60.68223381534562
 20
-5.440000000000006
 30
0.0
 11
67.03223381534562
 21
-6.456000000000006
 31
0.0
 12
67.03223381534562
 22
-4.424000000000006
 32
0.0
 13
67.03223381534562
 23
-4.424000000000006
 33
0.0
  0
MTEXT
  5
11B
330
1F
100
AcDbEntity
  8
참조1
100
AcDbMText
 10
70.06658394797162
 20
11.01029177718833
 30
0.0
 40
3.5
 41
0.0
 71
     1
 72
     1
  1
A
  7
SLDTEXTSTYLE0
 73
     1
 44
1.0
  0
MTEXT
  5
11C
330
1F
100
AcDbEntity
  8
참조1
100
AcDbMText
 10
70.06658394797162
 20
0.1302917771883232
 30
0.0
 40
3.5
 41
0.0
 71
     1
 72
     1
  1
A
  7
SLDTEXTSTYLE0
 73
     1
 44
1.0
  0
INSERT
  5
123
330
1F
100
AcDbEntity
  8
해칭선
100
AcDbBlockReference
  2
SW_DOWELSYMBOL_0
 10
0.0
 20
0.0
 30
0.0
  0
LINE
  5
149
330
1F
100
AcDbEntity
  8
0
 62
     1
100
AcDbLine
 10
62.8
 20
12.70000000000001
 30
0.0
 11
62.8
 21
-12.69999999999999
 31
0.0
  0
DIMENSION
  5
14A
330
1F
100
AcDbEntity
  8
치수문자_일반주서
100
AcDbDimension
  2
*D7
 10
79.75197993252894
 20
-12.69999999999999
 30
0.0
 11
77.12697993252894
 21
0.0000000000000071
 31
0.0
 70
    32
  1
{%%C<>[]}
 71
     5
 42
25.4
  3
SLDDIMSTYLE0
100
AcDbAlignedDimension
 13
62.8
 23
12.70000000000001
 33
0.0
 14
62.8
 24
-12.69999999999999
 34
0.0
 50
90.0
100
AcDbRotatedDimension
1001
ACAD
1000
DSTYLE
1002
{
1070
   283
1070
     1
1070
   170
1070
     1
1070
   171
1070
     6
1070
   273
1070
     7
1002
}
  0
LINE
  5
19A
330
1F
100
AcDbEntity
  8
외형선
  6
Continuous
370
    15
100
AcDbLine
 10
-36.89499999999998
 20
12.7
 30
0.0
 11
-30.98632499999985
 21
12.7
 31
0.0
  0
LINE
  5
19B
330
1F
100
AcDbEntity
  8
외형선
  6
Continuous
370
    15
100
AcDbLine
 10
-29.08132499999988
 20
10.79499999999999
 30
0.0
 11
-15.97492499999998
 21
10.79499999999999
 31
0.0
  0
LINE
  5
19C
330
1F
100
AcDbEntity
  8
외형선
  6
Continuous
370
    15
100
AcDbLine
 10
-29.08132499999988
 20
10.795
 30
0.0
 11
-30.98632499999985
 21
12.7
 31
0.0
  0
LINE
  5
19D
330
1F
100
AcDbEntity
  8
외형선
  6
Continuous
370
    15
100
AcDbLine
 10
-15.97492499999998
 20
10.795
 30
0.0
 11
-14.06992499999996
 21
12.7
 31
0.0
  0
LINE
  5
19E
330
1F
100
AcDbEntity
  8
외형선
  6
Continuous
370
    15
100
AcDbLine
 10
-51.49999999999997
 20
10.79499999999999
 30
0.0
 11
-38.79999999999995
 21
10.79499999999999
 31
0.0
  0
LINE
  5
19F
330
1F
100
AcDbEntity
  8
외형선
  6
Continuous
370
    15
100
AcDbLine
 10
-38.79999999999995
 20
10.795
 30
0.0
 11
-36.89499999999998
 21
12.69999999999999
 31
0.0
  0
LINE
  5
1A0
330
1F
100
AcDbEntity
  8
외형선
  6
Continuous
370
    15
100
AcDbLine
 10
-30.98632499999986
 20
12.7
 30
0.0
 11
-36.89499999999997
 21
12.7
 31
0.0
  0
ENDSEC
  0
SECTION
  2
OBJECTS
  0
DICTIONARY
  5
C
330
0
100
AcDbDictionary
281
     1
  3
ACAD_GROUP
350
D
  3
ACAD_IMAGE_VARS
350
147
  3
ACAD_LAYOUT
350
1A
  3
ACAD_MLINESTYLE
350
17
  3
ACAD_PLOTSETTINGS
350
19
  3
ACAD_PLOTSTYLENAME
350
E
  3
ACAD_SCALELIST
350
47
  3
APPDATA
350
145
  3
DWGPROPS
350
1C4
  0
DICTIONARY
  5
18A
330
2
100
AcDbDictionary
280
     1
281
     1
  3
ACAD_LAYERSTATES
360
18B
  0
DICTIONARY
  5
D
102
{ACAD_REACTORS
330
C
102
}
330
C
100
AcDbDictionary
281
     1
  0
RASTERVARIABLES
  5
147
102
{ACAD_REACTORS
330
C
102
}
330
C
100
AcDbRasterVariables
 90
        0
 70
     1
 71
     1
 72
     1
  0
DICTIONARY
  5
1A
102
{ACAD_REACTORS
330
C
102
}
330
C
100
AcDbDictionary
281
     1
  3
Layout1
350
1E
  3
Layout2
350
26
  3
Model
350
22
  0
DICTIONARY
  5
17
102
{ACAD_REACTORS
330
C
102
}
330
C
100
AcDbDictionary
281
     1
  3
Standard
350
18
  0
DICTIONARY
  5
19
102
{ACAD_REACTORS
330
C
102
}
330
C
100
AcDbDictionary
281
     1
  0
ACDBDICTIONARYWDFLT
  5
E
102
{ACAD_REACTORS
330
C
102
}
330
C
100
AcDbDictionary
281
     1
  3
Normal
350
F
100
AcDbDictionaryWithDefault
340
F
  0
DICTIONARY
  5
47
102
{ACAD_REACTORS
330
C
102
}
330
C
100
AcDbDictionary
281
     1
  3
A0
350
48
  3
A1
350
49
  3
A2
350
4A
  3
A3
350
4B
  3
A4
350
4C
  3
A5
350
4D
  3
A6
350
4E
  3
A7
350
4F
  3
A8
350
50
  3
A9
350
51
  3
B0
350
52
  3
B1
350
53
  3
B2
350
54
  3
B3
350
55
  3
B4
350
56
  3
B5
350
57
  3
B6
350
58
  3
B7
350
59
  3
B8
350
5A
  3
B9
350
5B
  3
C0
350
5C
  3
C1
350
5D
  3
C2
350
5E
  3
C3
350
5F
  3
C4
350
60
  3
C5
350
61
  3
C6
350
62
  3
C7
350
63
  3
C8
350
64
  3
C9
350
65
  3
D0
350
66
  3
D1
350
67
  3
D2
350
68
  0
DICTIONARY
  5
145
102
{ACAD_REACTORS
330
C
102
}
330
C
100
AcDbDictionary
281
     1
  0
XRECORD
  5
1C4
102
{ACAD_REACTORS
330
C
102
}
330
C
100
AcDbXrecord
280
     1
  1
DWGPROPS COOKIE
  2

  3

  4

  6

  7

  8
12016016
  9

300
=
301
=
302
=
303
=
304
=
305
=
306
=
307
=
308
=
309
=
 40
0.0
 41
2458312.305128021
 42
2458319.289728704
  1

 90
        0
  0
DICTIONARY
  5
18B
102
{ACAD_REACTORS
330
18A
102
}
330
18A
100
AcDbDictionary
281
     1
  0
LAYOUT
  5
1E
102
{ACAD_REACTORS
330
1A
102
}
330
1A
100
AcDbPlotSettings
  1

  2
none_device
  4

  6

 40
0.0
 41
0.0
 42
0.0
 43
0.0
 44
0.0
 45
0.0
 46
0.0
 47
0.0
 48
0.0
 49
0.0
140
0.0
141
0.0
142
1.0
143
1.0
 70
   688
 72
     1
 73
     0
 74
     5
  7

 75
    16
147
1.0
148
0.0
149
0.0
100
AcDbLayout
  1
Layout1
 70
     1
 71
     1
 10
0.0
 20
0.0
 11
420.0
 21
297.0
 12
0.0
 22
0.0
 32
0.0
 14
1.000000000000000E+20
 24
1.000000000000000E+20
 34
1.000000000000000E+20
 15
-1.000000000000000E+20
 25
-1.000000000000000E+20
 35
-1.000000000000000E+20
146
0.0
 13
0.0
 23
0.0
 33
0.0
 16
1.0
 26
0.0
 36
0.0
 17
0.0
 27
1.0
 37
0.0
 76
     0
330
1B
  0
LAYOUT
  5
26
102
{ACAD_REACTORS
330
1A
102
}
330
1A
100
AcDbPlotSettings
  1

  2
none_device
  4

  6

 40
0.0
 41
0.0
 42
0.0
 43
0.0
 44
0.0
 45
0.0
 46
0.0
 47
0.0
 48
0.0
 49
0.0
140
0.0
141
0.0
142
1.0
143
1.0
 70
   688
 72
     1
 73
     0
 74
     5
  7

 75
    16
147
1.0
148
0.0
149
0.0
100
AcDbLayout
  1
Layout2
 70
     1
 71
     2
 10
0.0
 20
0.0
 11
0.0
 21
0.0
 12
0.0
 22
0.0
 32
0.0
 14
0.0
 24
0.0
 34
0.0
 15
0.0
 25
0.0
 35
0.0
146
0.0
 13
0.0
 23
0.0
 33
0.0
 16
1.0
 26
0.0
 36
0.0
 17
0.0
 27
1.0
 37
0.0
 76
     0
330
23
  0
LAYOUT
  5
22
102
{ACAD_REACTORS
330
1A
102
}
330
1A
100
AcDbPlotSettings
  1

  2
none_device
  4
ANSI_A_(11.00_x_8.50_Inches)
  6

 40
6.35
 41
19.05
 42
6.35000508
 43
19.05000254
 44
279.4
 45
215.9
 46
63.24229151556445
 47
50.94692121852258
 48
0.0
 49
0.0
140
0.0
141
0.0
142
0.0476455696279762
143
1.0
 70
  1696
 72
     0
 73
     0
 74
     0
  7

 75
     0
147
0.0235690232323232
148
0.0
149
0.0
100
AcDbLayout
  1
Model
 70
     1
 71
     0
 10
0.0
 20
0.0
 11
420.0
 21
297.0
 12
0.0
 22
0.0
 32
0.0
 14
-65.5882728378272
 24
-49.97180738881174
 34
0.0
 15
80.30231326586227
 25
45.93033999616129
 35
0.0
146
0.0
 13
0.0
 23
0.0
 33
0.0
 16
1.0
 26
0.0
 36
0.0
 17
0.0
 27
1.0
 37
0.0
 76
     0
330
1F
331
29
  0
MLINESTYLE
  5
18
102
{ACAD_REACTORS
330
17
102
}
330
17
100
AcDbMlineStyle
  2
Standard
 70
     0
  3

 62
   256
 51
90.0
 52
90.0
 71
     2
 49
0.5
 62
   256
  6
BYLAYER
 49
-0.5
 62
   256
  6
BYLAYER
  0
ACDBPLACEHOLDER
  5
F
102
{ACAD_REACTORS
330
E
102
}
330
E
  0
SCALE
  5
48
102
{ACAD_REACTORS
330
47
102
}
330
47
100
AcDbScale
 70
     0
300
1:1
140
1.0
141
1.0
290
     1
  0
SCALE
  5
49
102
{ACAD_REACTORS
330
47
102
}
330
47
100
AcDbScale
 70
     0
300
1:2
140
1.0
141
2.0
290
     0
  0
SCALE
  5
4A
102
{ACAD_REACTORS
330
47
102
}
330
47
100
AcDbScale
 70
     0
300
1:4
140
1.0
141
4.0
290
     0
  0
SCALE
  5
4B
102
{ACAD_REACTORS
330
47
102
}
330
47
100
AcDbScale
 70
     0
300
1:5
140
1.0
141
5.0
290
     0
  0
SCALE
  5
4C
102
{ACAD_REACTORS
330
47
102
}
330
47
100
AcDbScale
 70
     0
300
1:8
140
1.0
141
8.0
290
     0
  0
SCALE
  5
4D
102
{ACAD_REACTORS
330
47
102
}
330
47
100
AcDbScale
 70
     0
300
1:10
140
1.0
141
10.0
290
     0
  0
SCALE
  5
4E
102
{ACAD_REACTORS
330
47
102
}
330
47
100
AcDbScale
 70
     0
300
1:16
140
1.0
141
16.0
290
     0
  0
SCALE
  5
4F
102
{ACAD_REACTORS
330
47
102
}
330
47
100
AcDbScale
 70
     0
300
1:20
140
1.0
141
20.0
290
     0
  0
SCALE
  5
50
102
{ACAD_REACTORS
330
47
102
}
330
47
100
AcDbScale
 70
     0
300
1:30
140
1.0
141
30.0
290
     0
  0
SCALE
  5
51
102
{ACAD_REACTORS
330
47
102
}
330
47
100
AcDbScale
 70
     0
300
1:40
140
1.0
141
40.0
290
     0
  0
SCALE
  5
52
102
{ACAD_REACTORS
330
47
102
}
330
47
100
AcDbScale
 70
     0
300
1:50
140
1.0
141
50.0
290
     0
  0
SCALE
  5
53
102
{ACAD_REACTORS
330
47
102
}
330
47
100
AcDbScale
 70
     0
300
1:100
140
1.0
141
100.0
290
     0
  0
SCALE
  5
54
102
{ACAD_REACTORS
330
47
102
}
330
47
100
AcDbScale
 70
     0
300
2:1
140
2.0
141
1.0
290
     0
  0
SCALE
  5
55
102
{ACAD_REACTORS
330
47
102
}
330
47
100
AcDbScale
 70
     0
300
4:1
140
4.0
141
1.0
290
     0
  0
SCALE
  5
56
102
{ACAD_REACTORS
330
47
102
}
330
47
100
AcDbScale
 70
     0
300
8:1
140
8.0
141
1.0
290
     0
  0
SCALE
  5
57
102
{ACAD_REACTORS
330
47
102
}
330
47
100
AcDbScale
 70
     0
300
10:1
140
10.0
141
1.0
290
     0
  0
SCALE
  5
58
102
{ACAD_REACTORS
330
47
102
}
330
47
100
AcDbScale
 70
     0
300
100:1
140
100.0
141
1.0
290
     0
  0
SCALE
  5
59
102
{ACAD_REACTORS
330
47
102
}
330
47
100
AcDbScale
 70
     0
300
1/128" = 1'-0"
140
0.0078125
141
12.0
290
     0
  0
SCALE
  5
5A
102
{ACAD_REACTORS
330
47
102
}
330
47
100
AcDbScale
 70
     0
300
1/64" = 1'-0"
140
0.015625
141
12.0
290
     0
  0
SCALE
  5
5B
102
{ACAD_REACTORS
330
47
102
}
330
47
100
AcDbScale
 70
     0
300
1/32" = 1'-0"
140
0.03125
141
12.0
290
     0
  0
SCALE
  5
5C
102
{ACAD_REACTORS
330
47
102
}
330
47
100
AcDbScale
 70
     0
300
1/16" = 1'-0"
140
0.0625
141
12.0
290
     0
  0
SCALE
  5
5D
102
{ACAD_REACTORS
330
47
102
}
330
47
100
AcDbScale
 70
     0
300
3/32" = 1'-0"
140
0.09375
141
12.0
290
     0
  0
SCALE
  5
5E
102
{ACAD_REACTORS
330
47
102
}
330
47
100
AcDbScale
 70
     0
300
1/8" = 1'-0"
140
0.125
141
12.0
290
     0
  0
SCALE
  5
5F
102
{ACAD_REACTORS
330
47
102
}
330
47
100
AcDbScale
 70
     0
300
3/16" = 1'-0"
140
0.1875
141
12.0
290
     0
  0
SCALE
  5
60
102
{ACAD_REACTORS
330
47
102
}
330
47
100
AcDbScale
 70
     0
300
1/4" = 1'-0"
140
0.25
141
12.0
290
     0
  0
SCALE
  5
61
102
{ACAD_REACTORS
330
47
102
}
330
47
100
AcDbScale
 70
     0
300
3/8" = 1'-0"
140
0.375
141
12.0
290
     0
  0
SCALE
  5
62
102
{ACAD_REACTORS
330
47
102
}
330
47
100
AcDbScale
 70
     0
300
1/2" = 1'-0"
140
0.5
141
12.0
290
     0
  0
SCALE
  5
63
102
{ACAD_REACTORS
330
47
102
}
330
47
100
AcDbScale
 70
     0
300
3/4" = 1'-0"
140
0.75
141
12.0
290
     0
  0
SCALE
  5
64
102
{ACAD_REACTORS
330
47
102
}
330
47
100
AcDbScale
 70
     0
300
1" = 1'-0"
140
1.0
141
12.0
290
     0
  0
SCALE
  5
65
102
{ACAD_REACTORS
330
47
102
}
330
47
100
AcDbScale
 70
     0
300
1-1/2" = 1'-0"
140
1.5
141
12.0
290
     0
  0
SCALE
  5
66
102
{ACAD_REACTORS
330
47
102
}
330
47
100
AcDbScale
 70
     0
300
3" = 1'-0"
140
3.0
141
12.0
290
     0
  0
SCALE
  5
67
102
{ACAD_REACTORS
330
47
102
}
330
47
100
AcDbScale
 70
     0
300
6" = 1'-0"
140
6.0
141
12.0
290
     0
  0
SCALE
  5
68
102
{ACAD_REACTORS
330
47
102
}
330
47
100
AcDbScale
 70
     0
300
1'-0" = 1'-0"
140
12.0
141
12.0
290
     0
  0
ENDSEC
  0
EOF
