  0
SECTION
  2
HEADER
  9
$ACADVER
  1
AC1015
  9
$ACADMAINTVER
 70
     6
  9
$DWGCODEPAGE
  3
ANSI_949
  9
$INSBASE
 10
0.0
 20
0.0
 30
0.0
  9
$EXTMIN
 10
-57.01577283782726
 20
-49.97180738881174
 30
0.0
  9
$EXTMAX
 10
82.90723381534556
 20
41.18535365400765
 30
0.0
  9
$LIMMIN
 10
0.0
 20
0.0
  9
$LIMMAX
 10
420.0
 20
297.0
  9
$ORTHOMODE
 70
     1
  9
$REGENMODE
 70
     1
  9
$FILLMODE
 70
     1
  9
$QTEXTMODE
 70
     0
  9
$MIRRTEXT
 70
     1
  9
$LTSCALE
 40
1.0
  9
$ATTMODE
 70
     1
  9
$TEXTSIZE
 40
3.5
  9
$TRACEWID
 40
1.0
  9
$TEXTSTYLE
  7
Standard
  9
$CLAYER
  8
0
  9
$CELTYPE
  6
ByLayer
  9
$CECOLOR
 62
   256
  9
$CELTSCALE
 40
1.0
  9
$DISPSILH
 70
     0
  9
$DIMSCALE
 40
1.0
  9
$DIMASZ
 40
3.302
  9
$DIMEXO
 40
1.0
  9
$DIMDLI
 40
3.75
  9
$DIMRND
 40
0.0
  9
$DIMDLE
 40
0.0
  9
$DIMEXE
 40
1.0
  9
$DIMTP
 40
0.0
  9
$DIMTM
 40
0.0
  9
$DIMTXT
 40
3.5
  9
$DIMCEN
 40
2.5
  9
$DIMTSZ
 40
0.0
  9
$DIMTOL
 70
     0
  9
$DIMLIM
 70
     0
  9
$DIMTIH
 70
     1
  9
$DIMTOH
 70
     1
  9
$DIMSE1
 70
     0
  9
$DIMSE2
 70
     0
  9
$DIMTAD
 70
     1
  9
$DIMZIN
 70
     0
  9
$DIMBLK
  1

  9
$DIMASO
 70
     1
  9
$DIMSHO
 70
     1
  9
$DIMPOST
  1

  9
$DIMAPOST
  1

  9
$DIMALT
 70
     0
  9
$DIMALTD
 70
     3
  9
$DIMALTF
 40
0.0393700787401575
  9
$DIMLFAC
 40
1.0
  9
$DIMTOFL
 70
     1
  9
$DIMTVP
 40
0.0
  9
$DIMTIX
 70
     0
  9
$DIMSOXD
 70
     0
  9
$DIMSAH
 70
     0
  9
$DIMBLK1
  1

  9
$DIMBLK2
  1

  9
$DIMSTYLE
  2
ISO-25
  9
$DIMCLRD
 70
     0
  9
$DIMCLRE
 70
     0
  9
$DIMCLRT
 70
     0
  9
$DIMTFAC
 40
1.0
  9
$DIMGAP
 40
1.524
  9
$DIMJUST
 70
     0
  9
$DIMSD1
 70
     0
  9
$DIMSD2
 70
     0
  9
$DIMTOLJ
 70
     0
  9
$DIMTZIN
 70
     0
  9
$DIMALTZ
 70
     0
  9
$DIMALTTZ
 70
     0
  9
$DIMUPT
 70
     0
  9
$DIMDEC
 70
     2
  9
$DIMTDEC
 70
     2
  9
$DIMALTU
 70
     2
  9
$DIMALTTD
 70
     3
  9
$DIMTXSTY
  7
Standard
  9
$DIMAUNIT
 70
     0
  9
$DIMADEC
 70
     2
  9
$DIMALTRND
 40
0.0
  9
$DIMAZIN
 70
     0
  9
$DIMDSEP
 70
    44
  9
$DIMATFIT
 70
     3
  9
$DIMFRAC
 70
     0
  9
$DIMLDRBLK
  1

  9
$DIMLUNIT
 70
     2
  9
$DIMLWD
 70
    -2
  9
$DIMLWE
 70
    -2
  9
$DIMTMOVE
 70
     0
  9
$LUNITS
 70
     2
  9
$LUPREC
 70
     2
  9
$SKETCHINC
 40
1.0
  9
$FILLETRAD
 40
10.0
  9
$AUNITS
 70
     0
  9
$AUPREC
 70
     2
  9
$MENU
  1
.
  9
$ELEVATION
 40
0.0
  9
$PELEVATION
 40
0.0
  9
$THICKNESS
 40
0.0
  9
$LIMCHECK
 70
     0
  9
$CHAMFERA
 40
0.0
  9
$CHAMFERB
 40
0.0
  9
$CHAMFERC
 40
0.0
  9
$CHAMFERD
 40
0.0
  9
$SKPOLY
 70
     0
  9
$TDCREATE
 40
2458312.679492813
  9
$TDUCREATE
 40
2458312.304492813
  9
$TDUPDATE
 40
2458319.664953333
  9
$TDUUPDATE
 40
2458319.289953333
  9
$TDINDWG
 40
0.0004383912
  9
$TDUSRTIMER
 40
2458319.289896053
  9
$USRTIMER
 70
     1
  9
$ANGBASE
 50
0.0
  9
$ANGDIR
 70
     0
  9
$PDMODE
 70
     0
  9
$PDSIZE
 40
-1.0
  9
$PLINEWID
 40
0.0
  9
$SPLFRAME
 70
     0
  9
$SPLINETYPE
 70
     6
  9
$SPLINESEGS
 70
     8
  9
$HANDSEED
  5
1C2
  9
$SURFTAB1
 70
     6
  9
$SURFTAB2
 70
     6
  9
$SURFTYPE
 70
     6
  9
$SURFU
 70
     6
  9
$SURFV
 70
     6
  9
$UCSBASE
  2

  9
$UCSNAME
  2

  9
$UCSORG
 10
0.0
 20
0.0
 30
0.0
  9
$UCSXDIR
 10
1.0
 20
0.0
 30
0.0
  9
$UCSYDIR
 10
0.0
 20
1.0
 30
0.0
  9
$UCSORTHOREF
  2

  9
$UCSORTHOVIEW
 70
     0
  9
$UCSORGTOP
 10
0.0
 20
0.0
 30
0.0
  9
$UCSORGBOTTOM
 10
0.0
 20
0.0
 30
0.0
  9
$UCSORGLEFT
 10
0.0
 20
0.0
 30
0.0
  9
$UCSORGRIGHT
 10
0.0
 20
0.0
 30
0.0
  9
$UCSORGFRONT
 10
0.0
 20
0.0
 30
0.0
  9
$UCSORGBACK
 10
0.0
 20
0.0
 30
0.0
  9
$PUCSBASE
  2

  9
$PUCSNAME
  2

  9
$PUCSORG
 10
0.0
 20
0.0
 30
0.0
  9
$PUCSXDIR
 10
1.0
 20
0.0
 30
0.0
  9
$PUCSYDIR
 10
0.0
 20
1.0
 30
0.0
  9
$PUCSORTHOREF
  2

  9
$PUCSORTHOVIEW
 70
     0
  9
$PUCSORGTOP
 10
0.0
 20
0.0
 30
0.0
  9
$PUCSORGBOTTOM
 10
0.0
 20
0.0
 30
0.0
  9
$PUCSORGLEFT
 10
0.0
 20
0.0
 30
0.0
  9
$PUCSORGRIGHT
 10
0.0
 20
0.0
 30
0.0
  9
$PUCSORGFRONT
 10
0.0
 20
0.0
 30
0.0
  9
$PUCSORGBACK
 10
0.0
 20
0.0
 30
0.0
  9
$USERI1
 70
     0
  9
$USERI2
 70
     0
  9
$USERI3
 70
     0
  9
$USERI4
 70
     0
  9
$USERI5
 70
     0
  9
$USERR1
 40
0.0
  9
$USERR2
 40
0.0
  9
$USERR3
 40
0.0
  9
$USERR4
 40
0.0
  9
$USERR5
 40
0.0
  9
$WORLDVIEW
 70
     1
  9
$SHADEDGE
 70
     3
  9
$SHADEDIF
 70
    70
  9
$TILEMODE
 70
     1
  9
$MAXACTVP
 70
    64
  9
$PINSBASE
 10
0.0
 20
0.0
 30
0.0
  9
$PLIMCHECK
 70
     0
  9
$PEXTMIN
 10
1.000000000000000E+20
 20
1.000000000000000E+20
 30
1.000000000000000E+20
  9
$PEXTMAX
 10
-1.000000000000000E+20
 20
-1.000000000000000E+20
 30
-1.000000000000000E+20
  9
$PLIMMIN
 10
0.0
 20
0.0
  9
$PLIMMAX
 10
0.0
 20
0.0
  9
$UNITMODE
 70
     0
  9
$VISRETAIN
 70
     1
  9
$PLINEGEN
 70
     0
  9
$PSLTSCALE
 70
     1
  9
$TREEDEPTH
 70
  3020
  9
$CMLSTYLE
  2
Standard
  9
$CMLJUST
 70
     0
  9
$CMLSCALE
 40
20.0
  9
$PROXYGRAPHICS
 70
     1
  9
$MEASUREMENT
 70
     1
  9
$CELWEIGHT
370
    -1
  9
$ENDCAPS
280
     0
  9
$JOINSTYLE
280
     0
  9
$LWDISPLAY
290
     1
  9
$INSUNITS
 70
     4
  9
$HYPERLINKBASE
  1

  9
$STYLESHEET
  1

  9
$XEDIT
290
     1
  9
$CEPSNTYPE
380
     0
  9
$PSTYLEMODE
290
     1
  9
$FINGERPRINTGUID
  2
{5B643CB9-98F8-435E-AA1F-17E7C2734323}
  9
$VERSIONGUID
  2
{FAEB1C32-E019-11D5-929B-00C0DF256EC4}
  9
$EXTNAMES
290
     1
  9
$PSVPSCALE
 40
0.0
  9
$OLESTARTUP
290
     0
  0
ENDSEC
  0
SECTION
  2
CLASSES
  0
CLASS
  1
ACDBDICTIONARYWDFLT
  2
AcDbDictionaryWithDefault
  3
ObjectDBX Classes
 90
        0
280
     0
281
     0
  0
CLASS
  1
VISUALSTYLE
  2
AcDbVisualStyle
  3
ObjectDBX Classes
 90
     4095
280
     0
281
     0
  0
CLASS
  1
MATERIAL
  2
AcDbMaterial
  3
ObjectDBX Classes
 90
     1153
280
     0
281
     0
  0
CLASS
  1
SCALE
  2
AcDbScale
  3
ObjectDBX Classes
 90
     1153
280
     0
281
     0
  0
CLASS
  1
SUN
  2
AcDbSun
  3
SCENEOE
 90
     1153
280
     0
281
     0
  0
CLASS
  1
ACDBPLACEHOLDER
  2
AcDbPlaceHolder
  3
ObjectDBX Classes
 90
        0
280
     0
281
     0
  0
CLASS
  1
LAYOUT
  2
AcDbLayout
  3
ObjectDBX Classes
 90
        0
280
     0
281
     0
  0
CLASS
  1
TABLESTYLE
  2
AcDbTableStyle
  3
ObjectDBX Classes
 90
     4095
280
     0
281
     0
  0
CLASS
  1
MLEADERSTYLE
  2
AcDbMLeaderStyle
  3
ACDB_MLEADERSTYLE_CLASS
 90
     4095
280
     0
281
     0
  0
CLASS
  1
RASTERVARIABLES
  2
AcDbRasterVariables
  3
ISM
 90
        0
280
     0
281
     0
  0
CLASS
  1
DIMASSOC
  2
AcDbDimAssoc
  3
"AcDbDimAssoc|Product Desc:     AcDim ARX App For Dimension|Company:          Autodesk, Inc.|WEB Address:      www.autodesk.com"
 90
        0
280
     0
281
     0
  0
ENDSEC
  0
SECTION
  2
TABLES
  0
TABLE
  2
VPORT
  5
8
330
0
100
AcDbSymbolTable
 70
     1
  0
VPORT
  5
29
330
8
100
AcDbSymbolTableRecord
100
AcDbViewportTableRecord
  2
*Active
 70
     0
 10
0.0
 20
0.0
 11
1.0
 21
1.0
 12
-18.80053583751096
 22
10.24206211311586
 13
0.0
 23
0.0
 14
10.0
 24
10.0
 15
10.0
 25
10.0
 16
0.0
 26
0.0
 36
1.0
 17
0.0
 27
0.0
 37
0.0
 40
251.3295023273415
 41
1.67311411992263
 42
50.0
 43
0.0
 44
0.0
 50
0.0
 51
0.0
 71
    16
 72
  2000
 73
     1
 74
     3
 75
     0
 76
     0
 77
     0
 78
     0
281
     0
 65
     1
110
0.0
120
0.0
130
0.0
111
1.0
121
0.0
131
0.0
112
0.0
122
1.0
132
0.0
 79
     0
146
0.0
  0
ENDTAB
  0
TABLE
  2
LTYPE
  5
5
330
0
100
AcDbSymbolTable
 70
     6
  0
LTYPE
  5
14
330
5
100
AcDbSymbolTableRecord
100
AcDbLinetypeTableRecord
  2
ByBlock
 70
     0
  3

 72
    65
 73
     0
 40
0.0
  0
LTYPE
  5
15
330
5
100
AcDbSymbolTableRecord
100
AcDbLinetypeTableRecord
  2
ByLayer
 70
     0
  3

 72
    65
 73
     0
 40
0.0
  0
LTYPE
  5
16
330
5
100
AcDbSymbolTableRecord
100
AcDbLinetypeTableRecord
  2
Continuous
 70
     0
  3
Solid line
 72
    65
 73
     0
 40
0.0
  0
LTYPE
  5
6A
330
5
100
AcDbSymbolTableRecord
100
AcDbLinetypeTableRecord
  2
HIDDEN
 70
     0
  3
Hidden __ __ __ __ __ __ __ __ __ __ __ __ __ __
 72
    65
 73
     2
 40
1.905
 49
1.27
 74
     0
 49
-0.635
 74
     0
  0
LTYPE
  5
6B
330
5
100
AcDbSymbolTableRecord
100
AcDbLinetypeTableRecord
  2
PHANTOM
 70
     0
  3
Phantom ______  __  __  ______  __  __  ______
 72
    65
 73
     6
 40
12.7
 49
6.35
 74
     0
 49
-1.27
 74
     0
 49
1.27
 74
     0
 49
-1.27
 74
     0
 49
1.27
 74
     0
 49
-1.27
 74
     0
  0
LTYPE
  5
6C
330
5
100
AcDbSymbolTableRecord
100
AcDbLinetypeTableRecord
  2
CENTER
 70
     0
  3
Center ____ _ ____ _ ____ _ ____ _ ____ _ ____
 72
    65
 73
     4
 40
10.16
 49
6.35
 74
     0
 49
-1.27
 74
     0
 49
1.27
 74
     0
 49
-1.27
 74
     0
  0
LTYPE
  5
6D
330
5
100
AcDbSymbolTableRecord
100
AcDbLinetypeTableRecord
  2
CENTERX2
 70
     0
  3
Center (2x) ________  __  ________  __  _____
 72
    65
 73
     4
 40
20.32
 49
12.7
 74
     0
 49
-2.54
 74
     0
 49
2.54
 74
     0
 49
-2.54
 74
     0
  0
LTYPE
  5
6E
330
5
100
AcDbSymbolTableRecord
100
AcDbLinetypeTableRecord
  2
DOT2
 70
     0
  3
Dot (.5x) ........................................
 72
    65
 73
     2
 40
0.635
 49
0.0
 74
     0
 49
-0.635
 74
     0
  0
ENDTAB
  0
TABLE
  2
LAYER
  5
2
102
{ACAD_XDICTIONARY
360
188
102
}
330
0
100
AcDbSymbolTable
 70
    18
  0
LAYER
  5
10
330
2
100
AcDbSymbolTableRecord
100
AcDbLayerTableRecord
  2
0
 70
     0
 62
     7
  6
Continuous
370
    -3
390
F
  0
LAYER
  5
6F
330
2
100
AcDbSymbolTableRecord
100
AcDbLayerTableRecord
  2
FORMAT
 70
     0
 62
     2
  6
Continuous
370
    -3
390
F
  0
LAYER
  5
70
330
2
100
AcDbSymbolTableRecord
100
AcDbLayerTableRecord
  2
외형선
 70
     0
 62
     4
  6
Continuous
370
    30
390
F
  0
LAYER
  5
71
330
2
100
AcDbSymbolTableRecord
100
AcDbLayerTableRecord
  2
숨은선
 70
     0
 62
     2
  6
HIDDEN
370
    15
390
F
  0
LAYER
  5
72
330
2
100
AcDbSymbolTableRecord
100
AcDbLayerTableRecord
  2
중심선
 70
     0
 62
     1
  6
CENTERX2
370
    -3
390
F
  0
LAYER
  5
73
330
2
100
AcDbSymbolTableRecord
100
AcDbLayerTableRecord
  2
파단선
 70
     0
 62
     4
  6
Continuous
370
    -3
390
F
  0
LAYER
  5
74
330
2
100
AcDbSymbolTableRecord
100
AcDbLayerTableRecord
  2
해칭선
 70
     0
 62
   100
  6
Continuous
370
    -3
390
F
  0
LAYER
  5
75
330
2
100
AcDbSymbolTableRecord
100
AcDbLayerTableRecord
  2
가는실선
 70
     0
 62
     4
  6
Continuous
370
    -3
390
F
  0
LAYER
  5
76
330
2
100
AcDbSymbolTableRecord
100
AcDbLayerTableRecord
  2
치수_보조선
 70
     0
 62
     4
  6
Continuous
370
    -3
390
F
  0
LAYER
  5
77
330
2
100
AcDbSymbolTableRecord
100
AcDbLayerTableRecord
  2
치수문자_일반주서
 70
     0
 62
     7
  6
Continuous
370
    15
390
F
  0
LAYER
  5
78
330
2
100
AcDbSymbolTableRecord
100
AcDbLayerTableRecord
  2
개별주서
 70
     0
 62
   100
  6
Continuous
370
    30
390
F
  0
LAYER
  5
79
330
2
100
AcDbSymbolTableRecord
100
AcDbLayerTableRecord
  2
중간선
 70
     0
 62
     2
  6
Continuous
370
    15
390
F
  0
LAYER
  5
7A
330
2
100
AcDbSymbolTableRecord
100
AcDbLayerTableRecord
  2
윤곽선
 70
     0
 62
     3
  6
Continuous
370
    40
390
F
  0
LAYER
  5
7B
330
2
100
AcDbSymbolTableRecord
100
AcDbLayerTableRecord
  2
중심마크
 70
     0
 62
   100
  6
Continuous
370
    30
390
F
  0
LAYER
  5
7C
330
2
100
AcDbSymbolTableRecord
100
AcDbLayerTableRecord
  2
가상선
 70
     0
 62
     4
  6
PHANTOM
370
    -3
390
F
  0
LAYER
  5
7D
330
2
100
AcDbSymbolTableRecord
100
AcDbLayerTableRecord
  2
특수지정선
 70
     0
 62
     5
  6
CENTERX2
370
    60
390
F
  0
LAYER
  5
7E
330
2
100
AcDbSymbolTableRecord
100
AcDbLayerTableRecord
  2
참조1
 70
     0
 62
    -4
  6
Continuous
370
    -3
390
F
  0
LAYER
  5
149
330
2
100
AcDbSymbolTableRecord
100
AcDbLayerTableRecord
  2
Defpoints
 70
     0
 62
     7
  6
Continuous
290
     0
370
    -3
390
F
  0
ENDTAB
  0
TABLE
  2
STYLE
  5
3
330
0
100
AcDbSymbolTable
 70
     2
  0
STYLE
  5
11
330
3
100
AcDbSymbolTableRecord
100
AcDbTextStyleTableRecord
  2
Standard
 70
     0
 40
0.0
 41
1.0
 50
0.0
 71
     0
 42
3.5
  3
txt
  4

  0
STYLE
  5
94
330
3
100
AcDbSymbolTableRecord
100
AcDbTextStyleTableRecord
  2
SLDTEXTSTYLE0
 70
     0
 40
0.0
 41
0.75
 50
0.0
 71
     0
 42
3.5
  3
TXT
  4

  0
ENDTAB
  0
TABLE
  2
VIEW
  5
6
330
0
100
AcDbSymbolTable
 70
     0
  0
ENDTAB
  0
TABLE
  2
UCS
  5
7
330
0
100
AcDbSymbolTable
 70
     0
  0
ENDTAB
  0
TABLE
  2
APPID
  5
9
330
0
100
AcDbSymbolTable
 70
     2
  0
APPID
  5
12
330
9
100
AcDbSymbolTableRecord
100
AcDbRegAppTableRecord
  2
ACAD
 70
     0
  0
APPID
  5
15C
330
9
100
AcDbSymbolTableRecord
100
AcDbRegAppTableRecord
  2
PE_DIMMEASUREMENT
 70
     0
  0
ENDTAB
  0
TABLE
  2
DIMSTYLE
  5
A
330
0
100
AcDbSymbolTable
 70
     3
100
AcDbDimStyleTable
  0
DIMSTYLE
105
27
330
A
100
AcDbSymbolTableRecord
100
AcDbDimStyleTableRecord
  2
ISO-25
 70
     0
 41
2.5
 42
0.625
 43
3.75
 44
1.25
 73
     0
 74
     0
 77
     1
 78
     8
140
2.5
141
2.5
143
0.03937007874016
147
0.625
171
     3
172
     1
178
     0
271
     2
272
     2
274
     3
278
    44
283
     0
284
     8
340
11
  0
DIMSTYLE
105
C8
102
{ACAD_REACTORS
330
C7
330
DC
330
14B
102
}
330
A
100
AcDbSymbolTableRecord
100
AcDbDimStyleTableRecord
  2
SLDDIMSTYLE0
 70
     0
 41
3.302
 44
0.0
 45
0.000000001
 73
     0
 74
     0
 77
     1
 78
    12
 79
     3
140
3.5
143
0.0393700787401575
147
0.875
148
0.000000001
170
     1
173
     1
178
     0
271
     2
272
     2
276
     2
284
    12
340
94
  0
DIMSTYLE
105
F0
102
{ACAD_REACTORS
330
EF
102
}
330
A
100
AcDbSymbolTableRecord
100
AcDbDimStyleTableRecord
  2
SLDDIMSTYLE1
 70
     0
 41
3.302
 44
0.0
 45
0.000000001
 73
     0
 74
     0
 77
     1
 78
    12
 79
     3
140
3.5
143
0.0393700787401575
147
0.875
148
0.000000001
170
     1
172
     1
173
     1
178
     0
271
     2
272
     2
276
     2
284
    12
289
     0
340
94
  0
ENDTAB
  0
TABLE
  2
BLOCK_RECORD
  5
1
330
0
100
AcDbSymbolTable
 70
     8
  0
BLOCK_RECORD
  5
1F
330
1
100
AcDbSymbolTableRecord
100
AcDbBlockTableRecord
  2
*Model_Space
340
22
  0
BLOCK_RECORD
  5
1B
330
1
100
AcDbSymbolTableRecord
100
AcDbBlockTableRecord
  2
*Paper_Space
340
1E
  0
BLOCK_RECORD
  5
23
330
1
100
AcDbSymbolTableRecord
100
AcDbBlockTableRecord
  2
*Paper_Space0
340
26
  0
BLOCK_RECORD
  5
7F
330
1
100
AcDbSymbolTableRecord
100
AcDbBlockTableRecord
  2
블럭10
340
0
102
{BLKREFS
331
C0
102
}
  0
BLOCK_RECORD
  5
C9
330
1
100
AcDbSymbolTableRecord
100
AcDbBlockTableRecord
  2
_D
340
0
  0
BLOCK_RECORD
  5
DD
330
1
100
AcDbSymbolTableRecord
100
AcDbBlockTableRecord
  2
_D_1
340
0
  0
BLOCK_RECORD
  5
F1
330
1
100
AcDbSymbolTableRecord
100
AcDbBlockTableRecord
  2
_D_2
340
0
  0
BLOCK_RECORD
  5
105
330
1
100
AcDbSymbolTableRecord
100
AcDbBlockTableRecord
  2
_D_3
340
0
  0
BLOCK_RECORD
  5
11E
330
1
100
AcDbSymbolTableRecord
100
AcDbBlockTableRecord
  2
SW_DOWELSYMBOL_0
340
0
102
{BLKREFS
331
124
102
}
  0
BLOCK_RECORD
  5
14E
330
1
100
AcDbSymbolTableRecord
100
AcDbBlockTableRecord
  2
*D7
340
0
  0
ENDTAB
  0
ENDSEC
  0
SECTION
  2
BLOCKS
  0
BLOCK
  5
20
330
1F
100
AcDbEntity
  8
0
100
AcDbBlockBegin
  2
*Model_Space
 70
     0
 10
0.0
 20
0.0
 30
0.0
  3
*Model_Space
  1
*Model_Space
  0
ENDBLK
  5
21
330
1F
100
AcDbEntity
  8
0
100
AcDbBlockEnd
  0
BLOCK
  5
1C
330
1B
100
AcDbEntity
 67
     1
  8
0
100
AcDbBlockBegin
  2
*Paper_Space
 70
     0
 10
0.0
 20
0.0
 30
0.0
  3
*Paper_Space
  1
*Paper_Space
  0
ENDBLK
  5
1D
330
1B
100
AcDbEntity
 67
     1
  8
0
100
AcDbBlockEnd
  0
BLOCK
  5
24
330
23
100
AcDbEntity
  8
0
100
AcDbBlockBegin
  2
*Paper_Space0
 70
     0
 10
0.0
 20
0.0
 30
0.0
  3
*Paper_Space0
  1
*Paper_Space0
  0
ENDBLK
  5
25
330
23
100
AcDbEntity
  8
0
100
AcDbBlockEnd
  0
BLOCK
  5
80
330
7F
100
AcDbEntity
  8
0
100
AcDbBlockBegin
  2
블럭10
 70
     2
 10
0.0
 20
0.0
 30
0.0
  3
블럭10
  1
블럭10
  0
ELLIPSE
  5
82
330
7F
100
AcDbEntity
  8
중심선
100
AcDbEllipse
 10
20.54032771741204
 20
12.0471743016438
 30
0.0
 11
6.600054785286829
 21
-1.261213355974178E-13
 31
0.0
210
0.0
220
0.0
230
1.0
 40
0.636358354079598
 41
0.9219305317359503
 42
6.513795318482858
  0
ELLIPSE
  5
83
330
7F
100
AcDbEntity
  8
중심선
100
AcDbEllipse
 10
20.54032771746488
 20
12.04717430159265
 30
0.0
 11
3.960054785062283
 21
1.540847449632565E-10
 31
0.0
210
0.0
220
0.0
230
1.0
 40
0.3939339440162632
 41
1.131841032648279
 42
5.62031148352944
  0
LINE
  5
84
330
7F
100
AcDbEntity
  8
중심선
100
AcDbLine
 10
2.268634060543552
 20
16.24717430164393
 30
0.0
 11
5.714909304380834
 21
16.24717430164393
 31
0.0
  0
LINE
  5
85
330
7F
100
AcDbEntity
  8
중심선
100
AcDbLine
 10
5.245725140726316
 20
7.84717430164391
 30
0.0
 11
8.692000384563599
 21
7.84717430164391
 31
0.0
  0
LINE
  5
86
330
7F
100
AcDbEntity
  8
중심선
100
AcDbLine
 10
15.74043728645272
 20
16.24717430164393
 30
0.0
 11
8.692000384563599
 21
7.84717430164391
 31
0.0
  0
LINE
  5
87
330
7F
100
AcDbEntity
  8
중심선
100
AcDbLine
 10
0.1404042013395286
 20
13.71084872107135
 30
0.0
 11
3.58671253028996
 21
13.71088815037384
 31
0.0
  0
LINE
  5
88
330
7F
100
AcDbEntity
  8
중심선
100
AcDbLine
 10
2.750260043222114
 20
10.84717430164391
 30
0.0
 11
6.196535287059397
 21
10.84717430164391
 31
0.0
  0
LINE
  5
89
330
7F
100
AcDbEntity
  8
중심선
100
AcDbLine
 10
12.29416204261559
 20
16.24717430164393
 30
0.0
 11
5.245725140726316
 21
7.84717430164391
 31
0.0
  0
LINE
  5
8A
330
7F
100
AcDbEntity
  8
중심선
100
AcDbLine
 10
10.72767329541681
 20
16.24717430164393
 30
0.0
 11
6.196535287059397
 21
10.84717430164391
 31
0.0
  0
LINE
  5
8B
330
7F
100
AcDbEntity
  8
중심선
100
AcDbLine
 10
7.28139805157953
 20
16.24717430164393
 30
0.0
 11
2.750260043222114
 21
10.84717430164391
 31
0.0
  0
LINE
  5
8C
330
7F
100
AcDbEntity
  8
중심선
100
AcDbLine
 10
5.714909304380834
 20
16.24717430164393
 30
0.0
 11
3.58671253028996
 21
13.71088815037384
 31
0.0
  0
LINE
  5
8D
330
7F
100
AcDbEntity
  8
중심선
100
AcDbLine
 10
2.268634060543552
 20
16.24717430164393
 30
0.0
 11
0.1404042013395286
 21
13.71084872107135
 31
0.0
  0
LINE
  5
8E
330
7F
100
AcDbEntity
  8
중심선
100
AcDbLine
 10
7.28139805157953
 20
16.24717430164393
 30
0.0
 11
10.72767329541681
 21
16.24717430164393
 31
0.0
  0
LINE
  5
8F
330
7F
100
AcDbEntity
  8
중심선
100
AcDbLine
 10
12.29416204261559
 20
16.24717430164393
 30
0.0
 11
15.74043728645272
 21
16.24717430164393
 31
0.0
  0
LINE
  5
90
330
7F
100
AcDbEntity
  8
중심선
100
AcDbLine
 10
19.22036997980202
 20
11.08717430171403
 30
0.0
 11
23.66174974927406
 21
11.08717430171406
 31
0.0
  0
LINE
  5
91
330
7F
100
AcDbEntity
  8
중심선
100
AcDbLine
 10
19.22039502424796
 20
13.00717430171391
 30
0.0
 11
19.22036997980202
 21
11.08717430171403
 31
0.0
  0
LINE
  5
92
330
7F
100
AcDbEntity
  8
중심선
100
AcDbLine
 10
19.22039502424796
 20
13.00717430171391
 30
0.0
 11
26.96566020931264
 21
13.00717430171391
 31
0.0
  0
LINE
  5
93
330
7F
100
AcDbEntity
  8
중심선
100
AcDbLine
 10
22.22332737316547
 20
13.45928029700563
 30
0.0
 11
24.52862924686651
 21
15.39360700705356
 31
0.0
  0
ATTDEF
  5
95
330
7F
100
AcDbEntity
  8
FORMAT
 62
     2
100
AcDbText
 10
4.408487351596664
 20
2.075366912832191
 30
0.0
 40
4.233333333333333
  1
E2039040
 41
0.75
  7
SLDTEXTSTYLE0
 11
4.408487351596664
 21
-0.0412997538344756
 31
0.0
100
AcDbAttributeDefinition
  3

  2
AUTOATTR0
 70
     0
 74
     1
  0
ENDBLK
  5
81
330
7F
100
AcDbEntity
  8
0
100
AcDbBlockEnd
  0
BLOCK
  5
CA
330
C9
100
AcDbEntity
  8
0
100
AcDbBlockBegin
  2
_D
 70
     0
 10
0.0
 20
0.0
 30
0.0
  3
_D
  1
_D
  0
LINE
  5
CC
330
C9
100
AcDbEntity
  8
치수문자_일반주서
 62
     0
370
    -2
100
AcDbLine
 10
53.27499999999998
 20
7.97081057025607
 30
0.0
 11
53.27499999999998
 21
21.08914845620485
 31
0.0
  0
LINE
  5
CD
330
C9
100
AcDbEntity
  8
치수문자_일반주서
 62
     0
370
    -2
100
AcDbLine
 10
11.99999999999998
 20
7.988630340252364
 30
0.0
 11
11.99999999999997
 21
21.08914845620485
 31
0.0
  0
LINE
  5
CE
330
C9
100
AcDbEntity
  8
치수문자_일반주서
 62
     0
370
    -2
100
AcDbLine
 10
49.97299999999998
 20
21.08914845620485
 30
0.0
 11
15.30199999999997
 21
21.08914845620485
 31
0.0
  0
SOLID
  5
CF
330
C9
100
AcDbEntity
  8
치수문자_일반주서
 62
     0
100
AcDbTrace
 10
49.97299999999998
 20
20.53881512287152
 30
0.0
 11
49.97299999999998
 21
21.63948178953818
 31
0.0
 12
53.27499999999998
 22
21.08914845620485
 32
0.0
 13
53.27499999999998
 23
21.08914845620485
 33
0.0
  0
SOLID
  5
D0
330
C9
100
AcDbEntity
  8
치수문자_일반주서
 62
     0
100
AcDbTrace
 10
15.30199999999997
 20
21.63948178953818
 30
0.0
 11
15.30199999999997
 21
20.53881512287152
 31
0.0
 12
11.99999999999997
 22
21.08914845620485
 32
0.0
 13
11.99999999999997
 23
21.08914845620485
 33
0.0
  0
MTEXT
  5
D1
330
C9
100
AcDbEntity
  8
치수문자_일반주서
 62
     0
100
AcDbMText
 10
32.63749999999998
 20
25.46414845620485
 30
0.0
 40
3.5
 41
0.0
 71
     2
 72
     1
  1
\A1;41.28 [1 5/8]
  7
SLDTEXTSTYLE0
 73
     1
 44
1.0
  0
POINT
  5
D2
330
C9
100
AcDbEntity
  8
Defpoints
 62
     0
100
AcDbPoint
 10
53.27499999999998
 20
7.90831057025607
 30
0.0
  0
POINT
  5
D3
330
C9
100
AcDbEntity
  8
Defpoints
 62
     0
100
AcDbPoint
 10
11.99999999999998
 20
7.926130340252364
 30
0.0
  0
POINT
  5
D4
330
C9
100
AcDbEntity
  8
Defpoints
 62
     0
100
AcDbPoint
 10
11.99999999999998
 20
21.08914845620485
 30
0.0
  0
ENDBLK
  5
CB
330
C9
100
AcDbEntity
  8
0
100
AcDbBlockEnd
  0
BLOCK
  5
DE
330
DD
100
AcDbEntity
  8
0
100
AcDbBlockBegin
  2
_D_1
 70
     0
 10
0.0
 20
0.0
 30
0.0
  3
_D_1
  1
_D_1
  0
LINE
  5
E0
330
DD
100
AcDbEntity
  8
치수문자_일반주서
 62
     0
370
    -2
100
AcDbLine
 10
53.27499999999998
 20
7.97081057025607
 30
0.0
 11
53.27499999999998
 21
36.81035365400765
 31
0.0
  0
LINE
  5
E1
330
DD
100
AcDbEntity
  8
치수문자_일반주서
 62
     0
370
    -2
100
AcDbLine
 10
-41.97500000000002
 20
6.412500000000002
 30
0.0
 11
-41.97500000000002
 21
36.81035365400765
 31
0.0
  0
LINE
  5
E2
330
DD
100
AcDbEntity
  8
치수문자_일반주서
 62
     0
370
    -2
100
AcDbLine
 10
49.97299999999998
 20
36.81035365400765
 30
0.0
 11
-38.67300000000002
 21
36.81035365400765
 31
0.0
  0
SOLID
  5
E3
330
DD
100
AcDbEntity
  8
치수문자_일반주서
 62
     0
100
AcDbTrace
 10
49.97299999999998
 20
36.26002032067431
 30
0.0
 11
49.97299999999998
 21
37.36068698734098
 31
0.0
 12
53.27499999999998
 22
36.81035365400765
 32
0.0
 13
53.27499999999998
 23
36.81035365400765
 33
0.0
  0
SOLID
  5
E4
330
DD
100
AcDbEntity
  8
치수문자_일반주서
 62
     0
100
AcDbTrace
 10
-38.67300000000002
 20
37.36068698734098
 30
0.0
 11
-38.67300000000002
 21
36.26002032067431
 31
0.0
 12
-41.97500000000002
 22
36.81035365400765
 32
0.0
 13
-41.97500000000002
 23
36.81035365400765
 33
0.0
  0
MTEXT
  5
E5
330
DD
100
AcDbEntity
  8
치수문자_일반주서
 62
     0
100
AcDbMText
 10
5.649999999999981
 20
41.18535365400765
 30
0.0
 40
3.5
 41
0.0
 71
     2
 72
     1
  1
\A1;95.25 [3 3/4]
  7
SLDTEXTSTYLE0
 73
     1
 44
1.0
  0
POINT
  5
E6
330
DD
100
AcDbEntity
  8
Defpoints
 62
     0
100
AcDbPoint
 10
53.27499999999998
 20
7.90831057025607
 30
0.0
  0
POINT
  5
E7
330
DD
100
AcDbEntity
  8
Defpoints
 62
     0
100
AcDbPoint
 10
-41.97500000000002
 20
6.350000000000002
 30
0.0
  0
POINT
  5
E8
330
DD
100
AcDbEntity
  8
Defpoints
 62
     0
100
AcDbPoint
 10
-41.97500000000002
 20
36.81035365400765
 30
0.0
  0
ENDBLK
  5
DF
330
DD
100
AcDbEntity
  8
0
100
AcDbBlockEnd
  0
BLOCK
  5
F2
330
F1
100
AcDbEntity
  8
0
100
AcDbBlockBegin
  2
_D_2
 70
     0
 10
0.0
 20
0.0
 30
0.0
  3
_D_2
  1
_D_2
  0
LINE
  5
F4
330
F1
100
AcDbEntity
  8
치수문자_일반주서
 62
     0
370
    -2
100
AcDbLine
 10
-40.45000000000002
 20
7.937500000000013
 30
0.0
 11
-52.64077283782725
 21
7.937499999999967
 31
0.0
  0
LINE
  5
F5
330
F1
100
AcDbEntity
  8
치수문자_일반주서
 62
     0
370
    -2
100
AcDbLine
 10
-40.45000000000002
 20
-7.937500000000015
 30
0.0
 11
-52.64077283782719
 21
-7.937500000000061
 31
0.0
  0
LINE
  5
F6
330
F1
100
AcDbEntity
  8
치수문자_일반주서
 62
     0
370
    -2
100
AcDbLine
 10
-52.64077283782724
 20
4.635499999999968
 30
0.0
 11
-52.64077283782721
 21
-4.635500000000062
 31
0.0
  0
SOLID
  5
F7
330
F1
100
AcDbEntity
  8
치수문자_일반주서
 62
     0
100
AcDbTrace
 10
-52.0904395044939
 20
4.635499999999969
 30
0.0
 11
-53.19110617116057
 21
4.635499999999966
 31
0.0
 12
-52.64077283782725
 22
7.937499999999967
 32
0.0
 13
-52.64077283782725
 23
7.937499999999967
 33
0.0
  0
SOLID
  5
F8
330
F1
100
AcDbEntity
  8
치수문자_일반주서
 62
     0
100
AcDbTrace
 10
-53.19110617116054
 20
-4.635500000000063
 30
0.0
 11
-52.09043950449387
 21
-4.63550000000006
 31
0.0
 12
-52.64077283782719
 22
-7.937500000000061
 32
0.0
 13
-52.64077283782719
 23
-7.937500000000061
 33
0.0
  0
MTEXT
  5
F9
330
F1
100
AcDbEntity
  8
치수문자_일반주서
 62
     0
100
AcDbMText
 10
-57.01577283782722
 20
-0.0000000000000021
 30
0.0
 40
3.5
 41
0.0
 71
     2
 72
     1
  1
\A1;%%c15.88 [5/8]
  7
SLDTEXTSTYLE0
 11
-3.580687802255617E-15
 21
1.0
 31
0.0
 73
     1
 44
1.0
  0
POINT
  5
FA
330
F1
100
AcDbEntity
  8
Defpoints
 62
     0
100
AcDbPoint
 10
-40.38750000000002
 20
7.937500000000013
 30
0.0
  0
POINT
  5
FB
330
F1
100
AcDbEntity
  8
Defpoints
 62
     0
100
AcDbPoint
 10
-40.38750000000002
 20
-7.937500000000015
 30
0.0
  0
POINT
  5
FC
330
F1
100
AcDbEntity
  8
Defpoints
 62
     0
100
AcDbPoint
 10
-52.64077283782719
 20
-7.937500000000061
 30
0.0
  0
ENDBLK
  5
F3
330
F1
100
AcDbEntity
  8
0
100
AcDbBlockEnd
  0
BLOCK
  5
106
330
105
100
AcDbEntity
  8
0
100
AcDbBlockBegin
  2
_D_3
 70
     0
 10
0.0
 20
0.0
 30
0.0
  3
_D_3
  1
_D_3
  0
SOLID
  5
108
330
105
100
AcDbEntity
  8
치수문자_일반주서
100
AcDbTrace
 10
63.37720685700604
 20
7.938574928723895
 30
0.0
 11
62.86920685700604
 21
4.636574928723896
 31
0.0
 12
63.88520685700605
 22
4.636574928723896
 32
0.0
 13
63.88520685700605
 23
4.636574928723896
 33
0.0
  0
SOLID
  5
109
330
105
100
AcDbEntity
  8
치수문자_일반주서
100
AcDbTrace
 10
63.37720685700604
 20
-7.936425071276112
 30
0.0
 11
63.88520685700605
 21
-4.634425071276112
 31
0.0
 12
62.86920685700604
 22
-4.634425071276112
 32
0.0
 13
62.86920685700604
 23
-4.634425071276112
 33
0.0
  0
LINE
  5
10A
330
105
100
AcDbEntity
  8
치수문자_일반주서
100
AcDbLine
 10
52.58432514096331
 20
60.19781960876636
 30
0.0
 11
52.58432514096332
 21
59.48688212320186
 31
0.0
  0
LINE
  5
10B
330
105
100
AcDbEntity
  8
치수문자_일반주서
100
AcDbLine
 10
52.58432514096332
 20
59.48688212320186
 30
0.0
 11
58.14057513202262
 21
59.48688212320189
 31
0.0
  0
LINE
  5
10C
330
105
100
AcDbEntity
  8
치수문자_일반주서
100
AcDbLine
 10
58.14057513202262
 20
59.48688212320189
 30
0.0
 11
58.14057513202261
 21
60.19781960876639
 31
0.0
  0
LINE
  5
10D
330
105
100
AcDbEntity
  8
치수문자_일반주서
100
AcDbLine
 10
52.58432514096324
 20
71.02655247090361
 30
0.0
 11
52.58432514096324
 21
71.73748995646811
 31
0.0
  0
LINE
  5
10E
330
105
100
AcDbEntity
  8
치수문자_일반주서
100
AcDbLine
 10
52.58432514096324
 20
71.73748995646811
 30
0.0
 11
58.14057513202254
 21
71.73748995646815
 31
0.0
  0
LINE
  5
10F
330
105
100
AcDbEntity
  8
치수문자_일반주서
100
AcDbLine
 10
58.14057513202254
 20
71.73748995646815
 30
0.0
 11
58.14057513202255
 21
71.02655247090365
 31
0.0
  0
LINE
  5
110
330
105
100
AcDbEntity
  8
치수문자_일반주서
100
AcDbLine
 10
44.82833444984459
 20
7.938574928723897
 30
0.0
 11
64.37720685700604
 21
7.938574928723895
 31
0.0
  0
LINE
  5
111
330
105
100
AcDbEntity
  8
치수문자_일반주서
100
AcDbLine
 10
44.82833444984459
 20
-7.93642507127611
 30
0.0
 11
64.37720685700604
 21
-7.936425071276112
 31
0.0
  0
LINE
  5
112
330
105
100
AcDbEntity
  8
치수문자_일반주서
100
AcDbLine
 10
63.37720685700604
 20
7.938574928723895
 30
0.0
 11
63.37720685700604
 21
74.07015498265609
 31
0.0
  0
LINE
  5
113
330
105
100
AcDbEntity
  8
치수문자_일반주서
100
AcDbLine
 10
63.37720685700604
 20
7.938574928723895
 30
0.0
 11
63.37720685700604
 21
-7.936425071276112
 31
0.0
  0
MTEXT
  5
114
330
105
100
AcDbEntity
  8
치수문자_일반주서
100
AcDbMText
 10
53.62883821744372
 20
61.08649150937774
 30
0.0
 40
3.5
 41
0.0
 71
     1
 72
     1
  1
0.63
  7
SLDTEXTSTYLE0
 11
-7.044195017643634E-15
 21
1.0
 31
0.0
 73
     1
 44
1.0
  0
MTEXT
  5
115
330
105
100
AcDbEntity
  8
치수문자_일반주서
100
AcDbMText
 10
58.86546976780422
 20
57.15421709701401
 30
0.0
 40
3.5
 41
0.0
 71
     1
 72
     1
  1
%%c
  7
SLDTEXTSTYLE0
 11
-7.044195017643634E-15
 21
1.0
 31
0.0
 73
     1
 44
1.0
  0
MTEXT
  5
116
330
105
100
AcDbEntity
  8
치수문자_일반주서
100
AcDbMText
 10
58.86546976780419
 20
62.43265449538809
 30
0.0
 40
3.5
 41
0.0
 71
     1
 72
     1
  1
15.88
  7
SLDTEXTSTYLE0
 11
-7.044195017643634E-15
 21
1.0
 31
0.0
 73
     1
 44
1.0
  0
ENDBLK
  5
107
330
105
100
AcDbEntity
  8
0
100
AcDbBlockEnd
  0
BLOCK
  5
11F
330
11E
100
AcDbEntity
  8
0
100
AcDbBlockBegin
  2
SW_DOWELSYMBOL_0
 70
     0
 10
0.0
 20
0.0
 30
0.0
  3
SW_DOWELSYMBOL_0
  1
SW_DOWELSYMBOL_0
  0
CIRCLE
  5
121
330
11E
100
AcDbEntity
  8
해칭선
 62
     0
100
AcDbCircle
 10
0.0
 20
0.0
 30
0.0
 40
3.000000000000001
  0
HATCH
  5
122
330
11E
100
AcDbEntity
  8
0
  6
Continuous
 62
     0
370
     0
100
AcDbHatch
 10
0.0
 20
0.0
 30
0.0
210
0.0
220
0.0
230
1.0
  2
SOLID
 70
     1
 71
     0
 91
        1
 92
        0
 93
        3
 72
     2
 10
0.0
 20
0.0
 40
3.000000000000001
 50
0.0
 51
90.0
 73
     1
 72
     1
 10
0.0
 20
3.000000000000001
 11
0.0
 21
0.0
 72
     1
 10
0.0
 20
0.0
 11
3.000000000000001
 21
0.0
 97
        0
 75
     0
 76
     1
 98
        1
 10
0.0
 20
0.0
  0
HATCH
  5
123
330
11E
100
AcDbEntity
  8
0
  6
Continuous
 62
     0
370
     0
100
AcDbHatch
 10
0.0
 20
0.0
 30
0.0
210
0.0
220
0.0
230
1.0
  2
SOLID
 70
     1
 71
     0
 91
        1
 92
        0
 93
        3
 72
     2
 10
0.0
 20
0.0
 40
3.000000000000001
 50
180.0
 51
270.0000000000007
 73
     1
 72
     1
 10
0.0
 20
-3.000000000000001
 11
0.0
 21
0.0
 72
     1
 10
0.0
 20
0.0
 11
-3.000000000000001
 21
0.0
 97
        0
 75
     0
 76
     1
 98
        1
 10
0.0
 20
0.0
  0
ENDBLK
  5
120
330
11E
100
AcDbEntity
  8
0
100
AcDbBlockEnd
  0
BLOCK
  5
14F
330
14E
100
AcDbEntity
  8
0
100
AcDbBlockBegin
  2
*D7
 70
     1
 10
0.0
 20
0.0
 30
0.0
  3
*D7
  1
*D7
  0
LINE
  5
151
330
14E
100
AcDbEntity
  8
치수문자_일반주서
 62
     0
370
    -2
100
AcDbLine
 10
53.33749999999998
 20
7.937500000000008
 30
0.0
 11
70.6558066938949
 21
7.937500000000007
 31
0.0
  0
LINE
  5
152
330
14E
100
AcDbEntity
  8
치수문자_일반주서
 62
     0
370
    -2
100
AcDbLine
 10
53.33749999999998
 20
-7.937499999999994
 30
0.0
 11
70.6558066938949
 21
-7.937499999999993
 31
0.0
  0
LINE
  5
153
330
14E
100
AcDbEntity
  8
치수문자_일반주서
 62
     0
370
    -2
100
AcDbLine
 10
70.6558066938949
 20
7.937500000000007
 30
0.0
 11
70.6558066938949
 21
39.23950000000001
 31
0.0
  0
LINE
  5
154
330
14E
100
AcDbEntity
  8
치수문자_일반주서
 62
     0
370
    -2
100
AcDbLine
 10
70.6558066938949
 20
4.635500000000008
 30
0.0
 11
70.6558066938949
 21
-4.635499999999993
 31
0.0
  0
SOLID
  5
155
330
14E
100
AcDbEntity
  8
치수문자_일반주서
 62
     0
100
AcDbTrace
 10
71.20614002722823
 20
4.635500000000008
 30
0.0
 11
70.10547336056158
 21
4.635500000000008
 31
0.0
 12
70.6558066938949
 22
7.937500000000007
 32
0.0
 13
70.6558066938949
 23
7.937500000000007
 33
0.0
  0
SOLID
  5
156
330
14E
100
AcDbEntity
  8
치수문자_일반주서
 62
     0
100
AcDbTrace
 10
70.10547336056158
 20
-4.635499999999993
 30
0.0
 11
71.20614002722823
 21
-4.635499999999993
 31
0.0
 12
70.6558066938949
 22
-7.937499999999993
 32
0.0
 13
70.6558066938949
 23
-7.937499999999993
 33
0.0
  0
MTEXT
  5
157
330
14E
100
AcDbEntity
  8
치수문자_일반주서
 62
     0
100
AcDbMText
 10
68.0308066938949
 20
25.23950000000001
 30
0.0
 40
3.5
 41
0.0
 71
     5
 72
     1
  1
\A1;{%%C15.88 [5/8]}
  7
SLDTEXTSTYLE0
 11
0.0
 21
1.0
 31
0.0
 73
     1
 44
1.0
  0
POINT
  5
158
330
14E
100
AcDbEntity
  8
Defpoints
 62
     0
100
AcDbPoint
 10
53.27499999999998
 20
7.937500000000008
 30
0.0
  0
POINT
  5
159
330
14E
100
AcDbEntity
  8
Defpoints
 62
     0
100
AcDbPoint
 10
53.27499999999998
 20
-7.937499999999994
 30
0.0
  0
POINT
  5
15A
330
14E
100
AcDbEntity
  8
Defpoints
 62
     0
100
AcDbPoint
 10
70.6558066938949
 20
-7.937499999999995
 30
0.0
  0
ENDBLK
  5
150
330
14E
100
AcDbEntity
  8
0
100
AcDbBlockEnd
  0
ENDSEC
  0
SECTION
  2
ENTITIES
  0
LINE
  5
96
330
1F
100
AcDbEntity
  8
외형선
  6
Continuous
370
    15
100
AcDbLine
 10
-40.38750000000002
 20
-7.937500000000001
 30
0.0
 11
11.99999999999998
 21
-7.937500000000001
 31
0.0
  0
LINE
  5
97
330
1F
100
AcDbEntity
  8
외형선
  6
Continuous
370
    15
100
AcDbLine
 10
11.99999999999998
 20
7.937499999999999
 30
0.0
 11
-11.02192500000009
 21
7.937499999999999
 31
0.0
  0
LINE
  5
98
330
1F
100
AcDbEntity
  8
외형선
  6
Continuous
370
    15
100
AcDbLine
 10
-40.38750000000002
 20
7.937499999999997
 30
0.0
 11
-41.97500000000002
 21
6.350000000000002
 31
0.0
  0
LINE
  5
99
330
1F
100
AcDbEntity
  8
외형선
  6
Continuous
370
    15
100
AcDbLine
 10
-41.97500000000002
 20
-6.350000000000004
 30
0.0
 11
-40.38750000000002
 21
-7.937499999999999
 31
0.0
  0
LINE
  5
9A
330
1F
100
AcDbEntity
  8
외형선
  6
Continuous
 62
     1
370
    15
100
AcDbLine
 10
16.10268742627361
 20
7.937500000000003
 30
0.0
 11
11.99999999999998
 21
7.937500000000003
 31
0.0
  0
LINE
  5
9B
330
1F
100
AcDbEntity
  8
외형선
  6
Continuous
 62
     1
370
    15
100
AcDbLine
 10
50.32205641257528
 20
2.351013683173144
 30
0.0
 11
50.26625678929665
 21
2.381177268610593
 31
0.0
  0
LINE
  5
9C
330
1F
100
AcDbEntity
  8
외형선
  6
Continuous
 62
     1
370
    15
100
AcDbLine
 10
32.85814870792788
 20
-7.937500000000004
 30
0.0
 11
37.69758289438436
 21
-7.937500000000004
 31
0.0
  0
LINE
  5
9D
330
1F
100
AcDbEntity
  8
외형선
  6
Continuous
 62
     1
370
    15
100
AcDbLine
 10
37.69758289438432
 20
7.937500000000003
 30
0.0
 11
32.85814870792795
 21
7.937500000000003
 31
0.0
  0
LINE
  5
9E
330
1F
100
AcDbEntity
  8
외형선
  6
Continuous
 62
     1
370
    15
100
AcDbLine
 10
11.99999999999998
 20
-7.937500000000004
 30
0.0
 11
16.1026874262735
 21
-7.937500000000004
 31
0.0
  0
SPLINE
  5
9F
330
1F
100
AcDbEntity
  8
외형선
  6
Continuous
370
    15
100
AcDbSpline
210
0.0
220
0.0
230
1.0
 70
     8
 71
     3
 72
     8
 73
     4
 74
     0
 42
0.000000001
 43
0.00000001
 40
0.0
 40
0.0
 40
0.0
 40
0.0
 40
1.0
 40
1.0
 40
1.0
 40
1.0
 10
11.99999999999999
 20
7.926130340251588
 30
0.0
 10
11.83347229077283
 20
7.931270622428278
 30
0.0
 10
11.66675785586973
 20
7.93467053891177
 30
0.0
 10
11.50002146901165
 20
7.936324544754905
 30
0.0
  0
LINE
  5
A0
330
1F
100
AcDbEntity
  8
외형선
  6
Continuous
370
    15
100
AcDbLine
 10
11.50002146901164
 20
2.608220557714442
 30
0.0
 11
11.50002146901165
 21
7.936324497857117
 31
0.0
  0
SPLINE
  5
A1
330
1F
100
AcDbEntity
  8
외형선
  6
Continuous
370
    15
100
AcDbSpline
210
0.0
220
0.0
230
1.0
 70
     8
 71
     3
 72
     8
 73
     4
 74
     0
 42
0.000000001
 43
0.00000001
 40
0.0
 40
0.0
 40
0.0
 40
0.0
 40
1.0
 40
1.0
 40
1.0
 40
1.0
 10
11.99999999999997
 20
2.334280612600501
 30
0.0
 10
11.83347229077282
 20
2.42610406485094
 30
0.0
 10
11.66675785586971
 20
2.517448718273778
 30
0.0
 10
11.50002146901164
 20
2.608223563705842
 30
0.0
  0
SPLINE
  5
A2
330
1F
100
AcDbEntity
  8
외형선
  6
Continuous
370
    15
100
AcDbSpline
210
0.0
220
0.0
230
1.0
 70
     8
 71
     3
 72
     8
 73
     4
 74
     0
 42
0.000000001
 43
0.00000001
 40
0.0
 40
0.0
 40
0.0
 40
0.0
 40
1.0
 40
1.0
 40
1.0
 40
1.0
 10
11.99999999999999
 20
-0.4246929235850838
 30
0.0
 10
11.83347229077283
 20
-0.3287587926978116
 30
0.0
 10
11.66675785586973
 20
-0.2326954593584599
 30
0.0
 10
11.50002146901165
 20
-0.1365978415673387
 30
0.0
  0
LINE
  5
A3
330
1F
100
AcDbEntity
  8
외형선
  6
Continuous
370
    15
100
AcDbLine
 10
11.50002146901164
 20
-7.496738742434315
 30
0.0
 11
11.50002146901165
 21
-0.1366005662980973
 31
0.0
  0
SPLINE
  5
A4
330
1F
100
AcDbEntity
  8
외형선
  6
Continuous
370
    15
100
AcDbSpline
210
0.0
220
0.0
230
1.0
 70
     8
 71
     3
 72
     8
 73
     4
 74
     0
 42
0.000000001
 43
0.00000001
 40
0.0
 40
0.0
 40
0.0
 40
0.0
 40
1.0
 40
1.0
 40
1.0
 40
1.0
 10
11.99999999999997
 20
-7.586503824004664
 30
0.0
 10
11.83347229077282
 20
-7.558250796082627
 30
0.0
 10
11.66675785586971
 20
-7.528319579344523
 30
0.0
 10
11.50002146901164
 20
-7.496737696607073
 30
0.0
  0
LINE
  5
A5
330
1F
100
AcDbEntity
  8
외형선
  6
Continuous
370
    15
100
AcDbLine
 10
-40.38750000000002
 20
-0.0000000000000014
 30
0.0
 11
-40.38750000000002
 21
7.93749999999999
 31
0.0
  0
LINE
  5
A6
330
1F
100
AcDbEntity
  8
외형선
  6
Continuous
370
    15
100
AcDbLine
 10
-40.38750000000002
 20
-7.937499999999986
 30
0.0
 11
-40.38750000000002
 21
-0.0000000000000014
 31
0.0
  0
LINE
  5
A7
330
1F
100
AcDbEntity
  8
외형선
  6
Continuous
370
    15
100
AcDbLine
 10
11.99999999999998
 20
-7.937500000000001
 30
0.0
 11
11.99999999999997
 21
-7.586503824004664
 31
0.0
  0
LINE
  5
A8
330
1F
100
AcDbEntity
  8
외형선
  6
Continuous
370
    15
100
AcDbLine
 10
12.0
 20
-0.4246929235851341
 30
0.0
 11
11.99999999999997
 21
2.334280612600501
 31
0.0
  0
LINE
  5
A9
330
1F
100
AcDbEntity
  8
외형선
  6
Continuous
370
    15
100
AcDbLine
 10
12.0
 20
7.926130340251704
 30
0.0
 11
11.99999999999998
 21
7.937499999999999
 31
0.0
  0
LINE
  5
AA
330
1F
100
AcDbEntity
  8
외형선
  6
Continuous
370
    15
100
AcDbLine
 10
-41.97500000000002
 20
-0.0000000000000014
 30
0.0
 11
-41.97500000000002
 21
6.350000000000002
 31
0.0
  0
LINE
  5
AB
330
1F
100
AcDbEntity
  8
외형선
  6
Continuous
370
    15
100
AcDbLine
 10
-41.97500000000002
 20
-6.350000000000004
 30
0.0
 11
-41.97500000000002
 21
-0.0000000000000014
 31
0.0
  0
SPLINE
  5
AC
330
1F
100
AcDbEntity
  8
외형선
  6
Continuous
370
    15
100
AcDbSpline
210
0.0
220
0.0
230
1.0
 70
    24
 71
     3
 72
    19
 73
    15
 74
     0
 42
0.000000001
 43
0.00000001
 40
0.0
 40
0.0
 40
0.0
 40
0.0
 40
0.0707757164085211
 40
0.1415514328170422
 40
0.2363243021063504
 40
0.3310971713956589
 40
0.4258700406849665
 40
0.5206429099742742
 40
0.6154157792635819
 40
0.7101886485528898
 40
0.8049615178421968
 40
0.8997343871315039
 40
0.9945072564208093
 40
1.0
 40
1.0
 40
1.0
 40
1.0
 10
11.99999999999998
 20
-7.586503824004665
 30
0.0
 10
12.0
 20
-7.417727838196944
 30
0.0
 10
11.99999999999999
 20
-7.080175866581498
 30
0.0
 10
11.99999999999996
 20
-6.465757463222432
 30
0.0
 10
11.99999999999999
 20
-5.754286736375168
 30
0.0
 10
11.99999999999995
 20
-4.95189658069182
 30
0.0
 10
11.99999999999997
 20
-4.147858051746423
 30
0.0
 10
11.99999999999998
 20
-3.36429926930831
 30
0.0
 10
11.99999999999999
 20
-2.624544923268221
 30
0.0
 10
11.99999999999997
 20
-1.948641024872312
 30
0.0
 10
11.99999999999999
 20
-1.354022347250195
 30
0.0
 10
11.99999999999999
 20
-0.871693989850016
 30
0.0
 10
12.0
 20
-0.5844275308619802
 30
0.0
 10
11.99999999999997
 20
-0.4964352322203927
 30
0.0
 10
11.99999999999997
 20
-0.4916148444567862
 30
0.0
  0
SPLINE
  5
AD
330
1F
100
AcDbEntity
  8
외형선
  6
Continuous
370
    15
100
AcDbSpline
210
0.0
220
0.0
230
1.0
 70
    24
 71
     3
 72
    16
 73
    12
 74
     0
 42
0.000000001
 43
0.00000001
 40
0.0
 40
0.0
 40
0.0
 40
0.0
 40
0.028081778051092
 40
0.1573337569851712
 40
0.2865857359192504
 40
0.415837714853327
 40
0.5450896937874037
 40
0.674341672721487
 40
0.8035936516555704
 40
0.9017968258277852
 40
1.0
 40
1.0
 40
1.0
 40
1.0
 10
11.99999999999996
 20
2.401202533472152
 30
0.0
 10
11.99999999999996
 20
2.432205806198408
 30
0.0
 10
11.99999999999996
 20
2.605907819225608
 30
0.0
 10
11.99999999999995
 20
3.031472435449469
 30
0.0
 10
12.00000000000004
 20
3.661397604769495
 30
0.0
 10
11.99999999999996
 20
4.376032958409316
 30
0.0
 10
11.99999999999995
 20
5.140348099588762
 30
0.0
 10
11.99999999999998
 20
5.937852453886494
 30
0.0
 10
11.99999999999998
 20
6.678879861517624
 30
0.0
 10
11.99999999999997
 20
7.346800884116001
 30
0.0
 10
11.99999999999999
 20
7.733020521539804
 30
0.0
 10
12.0
 20
7.926130340251704
 30
0.0
  0
SPLINE
  5
AE
330
1F
100
AcDbEntity
  8
외형선
  6
Continuous
 62
     1
370
    15
100
AcDbSpline
210
0.0
220
0.0
230
1.0
 70
     8
 71
     3
 72
    23
 73
    19
 74
     0
 42
0.000000001
 43
0.00000001
 40
0.0
 40
0.0
 40
0.0
 40
0.0
 40
0.0632686947398084
 40
0.126536063925475
 40
0.189833082878736
 40
0.2531737667163742
 40
0.3164737953647431
 40
0.3797421565684899
 40
0.4393916072502596
 40
0.4990972283399938
 40
0.5588107904489275
 40
0.6184630857297844
 40
0.6781110523459564
 40
0.7447181512795378
 40
0.8113585446996174
 40
0.8779795563104279
 40
0.9445720644200931
 40
0.9999999999999999
 40
0.9999999999999999
 40
0.9999999999999999
 40
0.9999999999999999
 10
11.99999999999997
 20
2.3342806126005
 30
0.0
 10
12.71876896769906
 20
1.93198720983762
 30
0.0
 10
14.15629184403542
 20
1.127408832835451
 30
0.0
 10
16.31284533919424
 20
-0.1228151392193272
 30
0.0
 10
18.47040300210809
 20
-1.366047357370834
 30
0.0
 10
20.62886011713275
 20
-2.576147709418829
 30
0.0
 10
22.78647502652017
 20
-3.723305202634561
 30
0.0
 10
24.90203283482237
 20
-4.758738589717605
 30
0.0
 10
26.97648448247635
 20
-5.664595643653535
 30
0.0
 10
29.01117307241843
 20
-6.428300901765175
 30
0.0
 10
31.04598343244506
 20
-7.051559941046681
 30
0.0
 10
33.07948873345131
 20
-7.521070863019045
 30
0.0
 10
35.1913073812218
 20
-7.837969629234752
 30
0.0
 10
37.38301841799575
 20
-7.971341456258001
 30
0.0
 10
39.65421029076969
 20
-7.894002652540244
 30
0.0
 10
41.92503003995784
 20
-7.596859740380871
 30
0.0
 10
44.06824375645032
 20
-7.13886372808987
 30
0.0
 10
45.4545065634358
 20
-6.695108138471715
 30
0.0
 10
46.08421813666931
 20
-6.493531619891322
 30
0.0
  0
SPLINE
  5
AF
330
1F
100
AcDbEntity
  8
외형선
  6
Continuous
 62
     1
370
    15
100
AcDbSpline
210
0.0
220
0.0
230
1.0
 70
     8
 71
     3
 72
    62
 73
    58
 74
     0
 42
0.000000001
 43
0.00000001
 40
0.0
 40
0.0
 40
0.0
 40
0.0
 40
0.0625000000000002
 40
0.0625000000000002
 40
0.1250000000000004
 40
0.1250000000000004
 40
0.1562500000000001
 40
0.1562500000000001
 40
0.1874999999999998
 40
0.1874999999999998
 40
0.2187499999999996
 40
0.2187499999999996
 40
0.2499999999999993
 40
0.2499999999999993
 40
0.281249999999999
 40
0.281249999999999
 40
0.3124999999999987
 40
0.3124999999999987
 40
0.3437499999999984
 40
0.3437499999999984
 40
0.3749999999999981
 40
0.3749999999999981
 40
0.4062499999999978
 40
0.4062499999999978
 40
0.4374999999999976
 40
0.4374999999999976
 40
0.4687499999999973
 40
0.4687499999999973
 40
0.499999999999997
 40
0.499999999999997
 40
0.5312499999999968
 40
0.5312499999999968
 40
0.5624999999999966
 40
0.5624999999999966
 40
0.5937499999999963
 40
0.5937499999999963
 40
0.6249999999999961
 40
0.6249999999999961
 40
0.6874999999999963
 40
0.6874999999999963
 40
0.7499999999999964
 40
0.7499999999999964
 40
0.7812499999999969
 40
0.7812499999999969
 40
0.8124999999999973
 40
0.8124999999999973
 40
0.8437499999999978
 40
0.8437499999999978
 40
0.8749999999999982
 40
0.8749999999999982
 40
0.9062499999999987
 40
0.9062499999999987
 40
0.9374999999999991
 40
0.9374999999999991
 40
0.9687499999999996
 40
0.9687499999999996
 40
1.0
 40
1.0
 40
1.0
 40
1.0
 10
53.27500000000001
 20
-7.908310570256073
 30
0.0
 10
52.41922148656897
 20
-7.865840255576184
 30
0.0
 10
51.55156863179584
 20
-7.776508687927943
 30
0.0
 10
49.83791154323649
 20
-7.508686194591222
 30
0.0
 10
48.9724020128784
 20
-7.329265663087186
 30
0.0
 10
47.68572844038333
 20
-6.998195802825657
 30
0.0
 10
47.25713610565067
 20
-6.877458814495768
 30
0.0
 10
46.39544813427965
 20
-6.61571633248369
 30
0.0
 10
45.96394505019251
 20
-6.474845785416889
 30
0.0
 10
45.10530538420465
 20
-6.175030973237231
 30
0.0
 10
44.67745801877402
 20
-6.016038102174012
 30
0.0
 10
43.81606432525465
 20
-5.680157275312375
 30
0.0
 10
43.38444342084138
 20
-5.503489099475367
 30
0.0
 10
42.52504334720022
 20
-5.135064702251351
 30
0.0
 10
42.09768319824534
 20
-4.943401809816268
 30
0.0
 10
41.23668170152882
 20
-4.545204037528732
 30
0.0
 10
40.80499228633839
 20
-4.338941187414889
 30
0.0
 10
39.94492896908867
 20
-3.914821960712717
 30
0.0
 10
39.51779809970647
 20
-3.697197907270153
 30
0.0
 10
38.65728657006533
 20
-3.250695502612716
 30
0.0
 10
38.22557797979944
 20
-3.022083641535576
 30
0.0
 10
37.36494883389307
 20
-2.5571524487823
 30
0.0
 10
36.93778922053912
 20
-2.321169638973567
 30
0.0
 10
36.07786524261956
 20
-1.842070794061109
 30
0.0
 10
35.64618682030081
 20
-1.599142715576759
 30
0.0
 10
34.78508947493157
 20
-1.109726071964207
 30
0.0
 10
34.35764310492403
 20
-0.8636210040124733
 30
0.0
 10
33.49840404094572
 20
-0.3687749693983461
 30
0.0
 10
33.06680511807925
 20
-0.1200671884047582
 30
0.0
 10
32.20533737984759
 20
0.3766404387949639
 30
0.0
 10
31.7773463488622
 20
0.6242779951235563
 30
0.0
 10
30.91888930199515
 20
1.117475849754429
 30
0.0
 10
30.48741917973972
 20
1.363224299930413
 30
0.0
 10
29.62567899567591
 20
1.849767058167711
 30
0.0
 10
29.19688560515608
 20
2.090286930503761
 30
0.0
 10
28.3393073831023
 20
2.564509090823527
 30
0.0
 10
27.90801531346582
 20
2.798664988196876
 30
0.0
 10
26.61514344417978
 20
3.487579900009763
 30
0.0
 10
25.7595752634498
 20
3.927933300039132
 30
0.0
 10
24.03559354656707
 20
4.759667855767399
 30
0.0
 10
23.18008356492683
 20
5.148967836391799
 30
0.0
 10
21.88713007712479
 20
5.685731731248239
 30
0.0
 10
21.45595792132411
 20
5.856568339632421
 30
0.0
 10
20.59890852875746
 20
6.179918416850503
 30
0.0
 10
20.16955936190629
 20
6.332884730913542
 30
0.0
 10
19.30771037380369
 20
6.620130864849946
 30
0.0
 10
18.87633288729577
 20
6.754266730605718
 30
0.0
 10
18.01835113867526
 20
7.001884291623403
 30
0.0
 10
17.58994707948569
 20
7.115569704541159
 30
0.0
 10
16.7283161868021
 20
7.322134654280661
 30
0.0
 10
16.29678258625576
 20
7.414845920992092
 30
0.0
 10
15.43796510986339
 20
7.577974299713198
 30
0.0
 10
15.01024861577656
 20
7.648461388391142
 30
0.0
 10
14.14893382742372
 20
7.767103027087725
 30
0.0
 10
13.71729338906824
 20
7.815123543635138
 30
0.0
 10
12.85773712874549
 20
7.88797734216834
 30
0.0
 10
12.43045039749499
 20
7.912843443335384
 30
0.0
 10
12.00000000000009
 20
7.926130340251588
 30
0.0
  0
SPLINE
  5
B0
330
1F
100
AcDbEntity
  8
외형선
  6
Continuous
370
    15
100
AcDbSpline
210
0.0
220
0.0
230
1.0
 70
    24
 71
     3
 72
    15
 73
    11
 74
     0
 42
0.000000001
 43
0.00000001
 40
0.0
 40
0.0
 40
0.0
 40
0.0
 40
0.132760038733959
 40
0.2655200774679178
 40
0.3947117669910777
 40
0.5239034565142373
 40
0.6530951460373967
 40
0.7822868355605558
 40
0.9114785250837151
 40
1.0
 40
1.0
 40
1.0
 40
1.0
 10
11.99999999999997
 20
7.926130340252364
 30
0.0
 10
11.99999999999999
 20
7.663509333574135
 30
0.0
 10
12.0
 20
7.138267320217672
 30
0.0
 10
12.00000000000001
 20
6.318238014154573
 30
0.0
 10
11.99999999999998
 20
5.50760125924132
 30
0.0
 10
11.99999999999996
 20
4.724509348703136
 30
0.0
 10
11.99999999999993
 20
3.984953059362934
 30
0.0
 10
11.99999999999993
 20
3.312591985293461
 30
0.0
 10
11.99999999999995
 20
2.773396686121878
 30
0.0
 10
11.99999999999995
 20
2.508790543166569
 30
0.0
 10
11.99999999999995
 20
2.401202533472152
 30
0.0
  0
LINE
  5
B1
330
1F
100
AcDbEntity
  8
외형선
  6
Continuous
 62
     1
370
    15
100
AcDbLine
 10
53.27499999999998
 20
-7.908310570256073
 30
0.0
 11
53.27499999999998
 21
-7.188845709717484
 31
0.0
  0
SPLINE
  5
B2
330
1F
100
AcDbEntity
  8
외형선
  6
Continuous
 62
     1
370
    15
100
AcDbSpline
210
0.0
220
0.0
230
1.0
 70
     8
 71
     3
 72
    25
 73
    21
 74
     0
 42
0.000000001
 43
0.00000001
 40
0.0
 40
0.0
 40
0.0
 40
0.0
 40
0.0056459337215402
 40
0.0636854164623974
 40
0.1217649372231346
 40
0.1798071796697436
 40
0.2378203850126155
 40
0.2925152714479874
 40
0.3472616627010822
 40
0.4020153353815554
 40
0.4567128301397577
 40
0.5114063557780324
 40
0.5724809787682358
 40
0.6335861307597481
 40
0.694673510821347
 40
0.7557347549212509
 40
0.8167839223045674
 40
0.8778351277205859
 40
0.9389024765462606
 40
1.0
 40
1.0
 40
1.0
 40
1.0
 10
16.1026874262736
 20
7.928930523494303
 30
0.0
 10
16.17263795909108
 20
7.931730080413232
 30
0.0
 10
16.96167109939376
 20
7.963308727468888
 30
0.0
 10
18.4704094088249
 20
7.839465577252605
 30
0.0
 10
20.62885840091475
 20
7.545740316367094
 30
0.0
 10
22.78647548689847
 20
7.046081402156012
 30
0.0
 10
24.90203271932528
 20
6.39150376842587
 30
0.0
 10
26.97648451267264
 20
5.601523350766809
 30
0.0
 10
29.01117306435643
 20
4.705550948721598
 30
0.0
 10
31.04598343447685
 20
3.706868515033827
 30
0.0
 10
33.07948873337723
 20
2.626524148076469
 30
0.0
 10
35.19130737942287
 20
1.445063440227695
 30
0.0
 10
37.38301842627901
 20
0.1824790287029225
 30
0.0
 10
39.65421025978624
 20
-1.130121889785985
 30
0.0
 10
41.92503015554455
 20
-2.41234526904362
 30
0.0
 10
44.19493783865654
 20
-3.628630740050018
 30
0.0
 10
46.46431222885992
 20
-4.747110286949472
 30
0.0
 10
48.73378196561113
 20
-5.73271161651039
 30
0.0
 10
51.00394809811921
 20
-6.57649687065266
 30
0.0
 10
52.51785805451404
 20
-6.984695821755147
 30
0.0
 10
53.275
 20
-7.188845709717485
 30
0.0
  0
LINE
  5
B3
330
1F
100
AcDbEntity
  8
외형선
  6
Continuous
 62
     1
370
    15
100
AcDbLine
 10
53.27499999999998
 20
-7.188845709717484
 30
0.0
 11
53.27499999999998
 21
0.6800957097175779
 31
0.0
  0
SPLINE
  5
B4
330
1F
100
AcDbEntity
  8
외형선
  6
Continuous
 62
     1
370
    15
100
AcDbSpline
210
0.0
220
0.0
230
1.0
 70
     8
 71
     3
 72
    21
 73
    17
 74
     0
 42
0.000000001
 43
0.00000001
 40
0.0
 40
0.0
 40
0.0
 40
0.0
 40
0.0749948533841222
 40
0.1499351411872597
 40
0.224857443779721
 40
0.2997984725098793
 40
0.374794765325224
 40
0.4497881570132679
 40
0.5204383101899637
 40
0.5910750638529613
 40
0.6617662386346547
 40
0.7324971430446229
 40
0.8031501108419096
 40
0.8819974892404794
 40
0.9608559073843231
 40
1.0
 40
1.0
 40
1.0
 40
1.0
 10
53.27500000000001
 20
0.680095709717578
 30
0.0
 10
52.55543607075474
 20
1.09217525645079
 30
0.0
 10
51.11683176050899
 20
1.916034524544342
 30
0.0
 10
48.95981610279062
 20
3.100784321041159
 30
0.0
 10
46.80337370277989
 20
4.210343927590503
 30
0.0
 10
44.64633178498314
 20
5.216277710957474
 30
0.0
 10
42.48815242022754
 20
6.093800490352406
 30
0.0
 10
40.3711207416454
 20
6.807740108432901
 30
0.0
 10
38.29652385205699
 20
7.351416419221089
 30
0.0
 10
36.26325849797689
 20
7.723629815527441
 30
0.0
 10
34.22885039831432
 20
7.927115700915992
 30
0.0
 10
32.19381491405304
 20
7.956875283839221
 30
0.0
 10
30.08143352565786
 20
7.809373525227397
 30
0.0
 10
27.89066194790651
 20
7.452718478422453
 30
0.0
 10
26.00226992733736
 20
7.005683991560503
 30
0.0
 10
24.87012480104262
 20
6.619085601461215
 30
0.0
 10
24.49456674390619
 20
6.490842201471551
 30
0.0
  0
SPLINE
  5
B5
330
1F
100
AcDbEntity
  8
외형선
  6
Continuous
 62
     1
370
    15
100
AcDbSpline
210
0.0
220
0.0
230
1.0
 70
     8
 71
     3
 72
    17
 73
    13
 74
     0
 42
0.000000001
 43
0.00000001
 40
0.0
 40
0.0
 40
0.0
 40
0.0
 40
0.0318751318508884
 40
0.1293649558064262
 40
0.2381617590983531
 40
0.3469737954775349
 40
0.4558261560713454
 40
0.5647270419772376
 40
0.673583583173189
 40
0.7823978561734277
 40
0.891194941828739
 40
1.0
 40
1.0
 40
1.0
 40
1.0
 10
32.85814870792788
 20
-7.918393276862285
 30
0.0
 10
32.63649706231116
 20
-7.923709345871713
 30
0.0
 10
31.73692571390806
 20
-7.945284567448382
 30
0.0
 10
30.08144657559284
 20
-7.799421013975111
 30
0.0
 10
27.89066631895578
 20
-7.460967355357615
 30
0.0
 10
25.62097697355158
 20
-6.893033166333959
 30
0.0
 10
23.35037272782733
 20
-6.141307138397619
 30
0.0
 10
21.07912370140628
 20
-5.221740427771157
 30
0.0
 10
18.80845952180831
 20
-4.160164475320161
 30
0.0
 10
16.53868033920543
 20
-2.98520695221201
 30
0.0
 10
14.26934367141512
 20
-1.729949356039311
 30
0.0
 10
12.75646636675793
 20
-0.8597890280593612
 30
0.0
 10
12.00000000000009
 20
-0.4246929235851347
 30
0.0
  0
SPLINE
  5
B6
330
1F
100
AcDbEntity
  8
외형선
  6
Continuous
 62
     1
370
    15
100
AcDbSpline
210
0.0
220
0.0
230
1.0
 70
     8
 71
     3
 72
    13
 73
     9
 74
     0
 42
0.000000001
 43
0.00000001
 40
0.0
 40
0.0
 40
0.0
 40
0.0
 40
0.1725910112959795
 40
0.3451784066057149
 40
0.5178466836752978
 40
0.6906340744168756
 40
0.8633105616498656
 40
0.9999999999999999
 40
0.9999999999999999
 40
0.9999999999999999
 40
0.9999999999999999
 10
11.99999999999997
 20
-7.586503824004666
 30
0.0
 10
12.71876899504212
 20
-7.690593255774653
 30
0.0
 10
14.15629192606408
 20
-7.898769938517661
 30
0.0
 10
16.31284501102352
 20
-7.96675399823408
 30
0.0
 10
18.47040423375194
 20
-7.85359448888322
 30
0.0
 10
20.6288555167836
 20
-7.539088699886396
 30
0.0
 10
22.63696994814855
 20
-7.091852960939325
 30
0.0
 10
23.92532381304179
 20
-6.675016252041493
 30
0.0
 10
24.49456674390609
 20
-6.490842201471552
 30
0.0
  0
SPLINE
  5
B7
330
1F
100
AcDbEntity
  8
외형선
  6
Continuous
370
    15
100
AcDbSpline
210
0.0
220
0.0
230
1.0
 70
    24
 71
     3
 72
    18
 73
    14
 74
     0
 42
0.000000001
 43
0.00000001
 40
0.0
 40
0.0
 40
0.0
 40
0.0
 40
0.0580082156995383
 40
0.1538364659123175
 40
0.2469640110084028
 40
0.3427922612211822
 40
0.4359198063172678
 40
0.5317480565300483
 40
0.6248756016261343
 40
0.7207038518389153
 40
0.813831396935001
 40
0.9096596471477815
 40
1.0
 40
1.0
 40
1.0
 40
1.0
 10
11.99999999999996
 20
-0.4916148444570271
 30
0.0
 10
11.99999999999996
 20
-0.5528985972938368
 30
0.0
 10
11.99999999999998
 20
-0.7154217130381777
 30
0.0
 10
11.9999999999999
 20
-1.112668822967618
 30
0.0
 10
12.00000000000001
 20
-1.658469676582988
 30
0.0
 10
11.99999999999993
 20
-2.295670723321341
 30
0.0
 10
12.00000000000003
 20
-3.011089291762917
 30
0.0
 10
11.99999999999996
 20
-3.773400879913773
 30
0.0
 10
11.99999999999996
 20
-4.574142513126005
 30
0.0
 10
12.00000000000001
 20
-5.376855353139417
 30
0.0
 10
11.99999999999999
 20
-6.171395049386721
 30
0.0
 10
11.99999999999993
 20
-6.92034972913227
 30
0.0
 10
11.99999999999996
 20
-7.368859531851108
 30
0.0
 10
11.99999999999997
 20
-7.586503824004666
 30
0.0
  0
SPLINE
  5
B8
330
1F
100
AcDbEntity
  8
외형선
  6
Continuous
 62
     1
370
    15
100
AcDbSpline
210
0.0
220
0.0
230
1.0
 70
     8
 71
     3
 72
    14
 73
    10
 74
     0
 42
0.000000001
 43
0.00000001
 40
0.0
 40
0.0
 40
0.0
 40
0.0
 40
0.1256056010384628
 40
0.2713819142654976
 40
0.4170958577504563
 40
0.5627809818750463
 40
0.7084709694737813
 40
0.854199481015436
 40
1.0
 40
1.0
 40
1.0
 40
1.0
 10
37.69758289438432
 20
7.924591795227322
 30
0.0
 10
38.34986014970124
 20
7.914331016744719
 30
0.0
 10
39.75916235212094
 20
7.892161705157969
 30
0.0
 10
41.92503267155761
 20
7.596452696233205
 30
0.0
 10
44.1949371647811
 20
7.10094181783077
 30
0.0
 10
46.46431240935204
 20
6.407061987998247
 30
0.0
 10
48.73378191746581
 20
5.538665898534177
 30
0.0
 10
51.00394811016383
 20
4.525611540901289
 30
0.0
 10
52.51785805852955
 20
3.752050952259462
 30
0.0
 10
53.275
 20
3.365175123507856
 30
0.0
  0
LINE
  5
B9
330
1F
100
AcDbEntity
  8
외형선
  6
Continuous
 62
     1
370
    15
100
AcDbLine
 10
53.27499999999998
 20
0.6800957097175775
 30
0.0
 11
53.27499999999998
 21
3.365175123507856
 31
0.0
  0
SPLINE
  5
BA
330
1F
100
AcDbEntity
  8
외형선
  6
Continuous
 62
     1
370
    15
100
AcDbSpline
210
0.0
220
0.0
230
1.0
 70
     8
 71
     3
 72
    11
 73
     7
 74
     0
 42
0.000000001
 43
0.00000001
 40
0.0
 40
0.0
 40
0.0
 40
0.0
 40
0.3001572397227865
 40
0.6000960877368999
 40
0.8999629522621636
 40
1.0
 40
1.0
 40
1.0
 40
1.0
 10
53.27500000000001
 20
7.90831057025607
 30
0.0
 10
52.55543690199733
 20
7.854537288279087
 30
0.0
 10
51.11683425363197
 20
7.747029849281572
 30
0.0
 10
48.95980613975966
 20
7.332902766496162
 30
0.0
 10
47.2825161868121
 20
6.913611384371865
 30
0.0
 10
46.32399484799554
 20
6.577588624248318
 30
0.0
 10
46.08421813666932
 20
6.49353161989132
 30
0.0
  0
LINE
  5
BB
330
1F
100
AcDbEntity
  8
외형선
  6
Continuous
 62
     1
370
    15
100
AcDbLine
 10
53.27499999999998
 20
3.347906598294017
 30
0.0
 11
53.27499999999998
 21
7.90831057025607
 31
0.0
  0
LINE
  5
BC
330
1F
100
AcDbEntity
  8
중심선
 62
     1
100
AcDbLine
 10
-44.97500000000002
 20
-0.0000000000000053
 30
0.0
 11
56.27499999999998
 21
0.0000000000000067
 31
0.0
  0
LINE
  5
BD
330
1F
100
AcDbEntity
  8
참조1
100
AcDbLine
 10
5.649999999999981
 20
-0.0000000000000054
 30
0.0
 11
5.649999999999988
 21
-40.00000000000001
 31
0.0
  0
LINE
  5
BE
330
1F
100
AcDbEntity
  8
참조1
100
AcDbLine
 10
5.649999999999988
 20
-40.00000000000001
 30
0.0
 11
-27.76510681430869
 21
-40.0
 31
0.0
  0
CIRCLE
  5
BF
330
1F
100
AcDbEntity
  8
해칭선
100
AcDbCircle
 10
0.0
 20
0.0
 30
0.0
 40
3.0
  0
INSERT
  5
C0
330
1F
100
AcDbEntity
  8
0
  6
Continuous
 62
     7
100
AcDbBlockReference
 66
     1
  2
블럭10
 10
-8.290272932125221
 20
-52.04717430164393
 30
0.0
  0
ATTRIB
  5
C1
330
C0
100
AcDbEntity
  8
FORMAT
 62
     2
100
AcDbText
 10
-17.4715682208665
 20
-49.97180738881174
 30
0.0
 40
4.233333333333333
  1
E1039040 [ 4 FLUTE ]
 41
0.75
  7
SLDTEXTSTYLE0
 11
-17.4715682208665
 21
-52.08847405547841
 31
0.0
100
AcDbAttribute
  2
AUTOATTR0
 70
     0
 74
     1
  0
SEQEND
  5
C2
330
C0
100
AcDbEntity
  8
0
  6
Continuous
 62
     7
  0
HATCH
  5
C3
330
1F
100
AcDbEntity
  8
중심선
100
AcDbHatch
 10
0.0
 20
0.0
 30
0.0
210
0.0
220
0.0
230
1.0
  2
SOLID
 70
     1
 71
     0
 91
        1
 92
        0
 93
        4
 72
     1
 10
-2.575363627744388
 20
-35.8
 11
-6.02163887158167
 21
-35.8
 72
     1
 10
-6.02163887158167
 20
-35.8
 11
-8.149868730785693
 21
-38.33632558057257
 72
     1
 10
-8.149868730785693
 20
-38.33632558057257
 11
-4.703560401835261
 21
-38.33628615127008
 72
     1
 10
-4.703560401835261
 20
-38.33628615127008
 11
-2.575363627744388
 21
-35.8
 97
        0
 75
     0
 76
     1
 98
        1
 10
-6.130603649777306
 20
-0.0010749287238946
  0
HATCH
  5
C4
330
1F
100
AcDbEntity
  8
중심선
100
AcDbHatch
 10
0.0
 20
0.0
 30
0.0
210
0.0
220
0.0
230
1.0
  2
SOLID
 70
     1
 71
     0
 91
        1
 92
        0
 93
        4
 72
     1
 10
2.437400363291619
 20
-35.79999999999998
 11
-1.008874880545692
 21
-35.80000000000003
 72
     1
 10
-1.008874880545692
 20
-35.80000000000003
 11
-5.540012888903108
 21
-41.20000000000002
 72
     1
 10
-5.540012888903108
 20
-41.20000000000002
 11
-2.093737645065826
 21
-41.20000000000002
 72
     1
 10
-2.093737645065826
 20
-41.20000000000002
 11
2.437400363291619
 21
-35.79999999999998
 97
        0
 75
     0
 76
     1
 98
        1
 10
-6.130603649777306
 20
-0.0010749287238946
  0
HATCH
  5
C5
330
1F
100
AcDbEntity
  8
중심선
100
AcDbHatch
 10
0.0
 20
0.0
 30
0.0
210
0.0
220
0.0
230
1.0
  2
SOLID
 70
     1
 71
     0
 91
        1
 92
        0
 93
        4
 72
     1
 10
7.450164354327487
 20
-35.79999999999998
 11
4.003889110490398
 21
-35.79999999999998
 72
     1
 10
4.003889110490398
 20
-35.79999999999998
 11
-3.044547791398906
 21
-44.20000000000002
 72
     1
 10
-3.044547791398906
 20
-44.20000000000002
 11
0.4017274524383758
 21
-44.20000000000002
 72
     1
 10
0.4017274524383758
 20
-44.20000000000002
 11
7.450164354327487
 21
-35.79999999999998
 97
        0
 75
     0
 76
     1
 98
        1
 10
-6.130603649777306
 20
-0.0010749287238946
  0
HATCH
  5
C6
330
1F
100
AcDbEntity
  8
중심선
100
AcDbHatch
 10
0.0
 20
0.0
 30
0.0
210
0.0
220
0.0
230
1.0
  2
SOLID
 70
     1
 71
     0
 91
        1
 92
        0
 93
        6
 72
     3
 10
12.25005478533966
 20
-40.00000000005127
 11
3.960054785062283
 21
1.540882976769353E-10
 40
0.3939339440162628
 50
17.09539180608436
 51
320.0019657685077
 73
     0
 72
     1
 10
13.93305444104023
 20
-38.5878940046383
 11
16.23835631474129
 21
-36.65356729459038
 72
     3
 10
12.25005478528681
 20
-40.00000000000015
 11
6.600054785286829
 21
-1.278976924368180E-13
 40
0.636358354079598
 50
39.99873849337408
 51
368.4976242363724
 73
     1
 72
     1
 10
18.67538727718742
 20
-39.03999999993002
 11
10.93012209212273
 21
-39.03999999993002
 72
     1
 10
10.93012209212273
 20
-39.03999999993002
 11
10.9300970476768
 21
-40.95999999992991
 72
     1
 10
10.9300970476768
 20
-40.95999999992991
 11
15.37147681714884
 21
-40.95999999992988
 97
        0
 75
     0
 76
     1
 98
        1
 10
-6.130603649777306
 20
-0.0010749287238946
  0
DIMENSION
  5
C7
330
1F
100
AcDbEntity
  8
치수문자_일반주서
100
AcDbDimension
  2
_D
 10
11.99999999999997
 20
21.08914845620485
 30
0.0
 11
32.63749999999998
 21
21.08914845620485
 31
0.0
 70
   160
  1
<>
 71
     2
 42
41.27500000000001
  3
SLDDIMSTYLE0
100
AcDbAlignedDimension
 13
53.27499999999998
 23
7.90831057025607
 33
0.0
 14
11.99999999999998
 24
7.926130340252364
 34
0.0
 50
0.0000000000000296
100
AcDbRotatedDimension
1001
ACAD
1000
DSTYLE
1002
{
1070
   171
1070
     6
1070
   273
1070
     7
1002
}
  0
DIMENSION
  5
DC
330
1F
100
AcDbEntity
  8
치수문자_일반주서
100
AcDbDimension
  2
_D_1
 10
-41.97500000000002
 20
36.81035365400765
 30
0.0
 11
5.649999999999981
 21
36.81035365400765
 31
0.0
 70
   160
  1
<>
 71
     2
 42
95.25
  3
SLDDIMSTYLE0
100
AcDbAlignedDimension
 13
53.27499999999998
 23
7.90831057025607
 33
0.0
 14
-41.97500000000002
 24
6.350000000000002
 34
0.0
 50
0.0000000000000043
100
AcDbRotatedDimension
1001
ACAD
1000
DSTYLE
1002
{
1070
   171
1070
     6
1070
   273
1070
     7
1002
}
  0
DIMENSION
  5
EF
330
1F
100
AcDbEntity
  8
치수문자_일반주서
100
AcDbDimension
  2
_D_2
 10
-52.64077283782719
 20
-7.937500000000061
 30
0.0
 11
-52.64077283782722
 21
0.0000000000000135
 31
0.0
 70
   160
  1
%%c<>
 71
     2
 42
15.87500000000003
 52
-270.0
  3
SLDDIMSTYLE1
100
AcDbAlignedDimension
 13
-40.38750000000002
 23
7.937500000000013
 33
0.0
 14
-40.38750000000002
 24
-7.937500000000015
 34
0.0
 50
90.0000000000002
100
AcDbRotatedDimension
1001
ACAD
1000
DSTYLE
1002
{
1070
   171
1070
     6
1070
   273
1070
     7
1002
}
  0
LINE
  5
117
330
1F
100
AcDbEntity
  8
참조1
100
AcDbLine
 10
70.20723381534557
 20
7.440000000000001
 30
0.0
 11
70.20723381534557
 21
-7.440000000000003
 31
0.0
  0
LINE
  5
118
330
1F
100
AcDbEntity
  8
참조1
100
AcDbLine
 10
82.90723381534556
 20
5.440000000000001
 30
0.0
 11
70.20723381534557
 21
5.440000000000001
 31
0.0
  0
SOLID
  5
119
330
1F
100
AcDbEntity
  8
참조1
100
AcDbTrace
 10
70.20723381534557
 20
5.440000000000001
 30
0.0
 11
76.55723381534557
 21
4.424000000000001
 31
0.0
 12
76.55723381534557
 22
6.456000000000001
 32
0.0
 13
76.55723381534557
 23
6.456000000000001
 33
0.0
  0
LINE
  5
11A
330
1F
100
AcDbEntity
  8
참조1
100
AcDbLine
 10
82.90723381534556
 20
-5.440000000000003
 30
0.0
 11
70.20723381534557
 21
-5.440000000000003
 31
0.0
  0
SOLID
  5
11B
330
1F
100
AcDbEntity
  8
참조1
100
AcDbTrace
 10
70.20723381534557
 20
-5.440000000000003
 30
0.0
 11
76.55723381534557
 21
-6.456000000000003
 31
0.0
 12
76.55723381534557
 22
-4.424000000000003
 32
0.0
 13
76.55723381534557
 23
-4.424000000000003
 33
0.0
  0
MTEXT
  5
11C
330
1F
100
AcDbEntity
  8
참조1
100
AcDbMText
 10
79.59158394797157
 20
11.01029177718833
 30
0.0
 40
3.5
 41
0.0
 71
     1
 72
     1
  1
A
  7
SLDTEXTSTYLE0
 73
     1
 44
1.0
  0
MTEXT
  5
11D
330
1F
100
AcDbEntity
  8
참조1
100
AcDbMText
 10
79.59158394797157
 20
0.1302917771883255
 30
0.0
 40
3.5
 41
0.0
 71
     1
 72
     1
  1
A
  7
SLDTEXTSTYLE0
 73
     1
 44
1.0
  0
INSERT
  5
124
330
1F
100
AcDbEntity
  8
해칭선
100
AcDbBlockReference
  2
SW_DOWELSYMBOL_0
 10
0.0
 20
0.0
 30
0.0
  0
LINE
  5
14A
330
1F
100
AcDbEntity
  8
0
 62
     1
100
AcDbLine
 10
53.27499999999998
 20
7.937500000000008
 30
0.0
 11
53.27499999999998
 21
-7.937499999999994
 31
0.0
  0
DIMENSION
  5
14B
330
1F
100
AcDbEntity
  8
치수문자_일반주서
100
AcDbDimension
  2
*D7
 10
70.6558066938949
 20
-7.937499999999993
 30
0.0
 11
70.6558066938949
 21
25.23950000000001
 31
0.0
 70
   160
  1
{%%C<>[]}
 71
     5
 42
15.875
  3
SLDDIMSTYLE0
100
AcDbAlignedDimension
 13
53.27499999999998
 23
7.937500000000008
 33
0.0
 14
53.27499999999998
 24
-7.937499999999994
 34
0.0
 50
90.0
100
AcDbRotatedDimension
1001
ACAD
1000
DSTYLE
1002
{
1070
   283
1070
     1
1070
   170
1070
     1
1070
   171
1070
     6
1070
   273
1070
     7
1002
}
  0
LINE
  5
196
330
1F
100
AcDbEntity
  8
외형선
  6
Continuous
370
    15
100
AcDbLine
 10
-22.85832500000003
 20
6.286499999999962
 30
0.0
 11
-12.67292500000001
 21
6.286499999999962
 31
0.0
  0
LINE
  5
197
330
1F
100
AcDbEntity
  8
외형선
  6
Continuous
370
    15
100
AcDbLine
 10
-22.85832500000003
 20
6.286500000000061
 30
0.0
 11
-24.50932499999998
 21
7.937499999999972
 31
0.0
  0
LINE
  5
198
330
1F
100
AcDbEntity
  8
외형선
  6
Continuous
370
    15
100
AcDbLine
 10
-12.67292500000013
 20
6.286500000000061
 30
0.0
 11
-11.02192500000012
 21
7.937499999999972
 31
0.0
  0
LINE
  5
199
330
1F
100
AcDbEntity
  8
외형선
  6
Continuous
370
    15
100
AcDbLine
 10
-24.509325
 20
7.937499999999999
 30
0.0
 11
-40.38750000000002
 21
7.937499999999999
 31
0.0
  0
ENDSEC
  0
SECTION
  2
OBJECTS
  0
DICTIONARY
  5
C
330
0
100
AcDbDictionary
281
     1
  3
ACAD_GROUP
350
D
  3
ACAD_IMAGE_VARS
350
148
  3
ACAD_LAYOUT
350
1A
  3
ACAD_MLINESTYLE
350
17
  3
ACAD_PLOTSETTINGS
350
19
  3
ACAD_PLOTSTYLENAME
350
E
  3
ACAD_SCALELIST
350
47
  3
APPDATA
350
146
  3
DWGPROPS
350
1C1
  0
DICTIONARY
  5
188
330
2
100
AcDbDictionary
280
     1
281
     1
  3
ACAD_LAYERSTATES
360
189
  0
DICTIONARY
  5
D
102
{ACAD_REACTORS
330
C
102
}
330
C
100
AcDbDictionary
281
     1
  0
RASTERVARIABLES
  5
148
102
{ACAD_REACTORS
330
C
102
}
330
C
100
AcDbRasterVariables
 90
        0
 70
     1
 71
     1
 72
     1
  0
DICTIONARY
  5
1A
102
{ACAD_REACTORS
330
C
102
}
330
C
100
AcDbDictionary
281
     1
  3
Layout1
350
1E
  3
Layout2
350
26
  3
Model
350
22
  0
DICTIONARY
  5
17
102
{ACAD_REACTORS
330
C
102
}
330
C
100
AcDbDictionary
281
     1
  3
Standard
350
18
  0
DICTIONARY
  5
19
102
{ACAD_REACTORS
330
C
102
}
330
C
100
AcDbDictionary
281
     1
  0
ACDBDICTIONARYWDFLT
  5
E
102
{ACAD_REACTORS
330
C
102
}
330
C
100
AcDbDictionary
281
     1
  3
Normal
350
F
100
AcDbDictionaryWithDefault
340
F
  0
DICTIONARY
  5
47
102
{ACAD_REACTORS
330
C
102
}
330
C
100
AcDbDictionary
281
     1
  3
A0
350
48
  3
A1
350
49
  3
A2
350
4A
  3
A3
350
4B
  3
A4
350
4C
  3
A5
350
4D
  3
A6
350
4E
  3
A7
350
4F
  3
A8
350
50
  3
A9
350
51
  3
B0
350
52
  3
B1
350
53
  3
B2
350
54
  3
B3
350
55
  3
B4
350
56
  3
B5
350
57
  3
B6
350
58
  3
B7
350
59
  3
B8
350
5A
  3
B9
350
5B
  3
C0
350
5C
  3
C1
350
5D
  3
C2
350
5E
  3
C3
350
5F
  3
C4
350
60
  3
C5
350
61
  3
C6
350
62
  3
C7
350
63
  3
C8
350
64
  3
C9
350
65
  3
D0
350
66
  3
D1
350
67
  3
D2
350
68
  0
DICTIONARY
  5
146
102
{ACAD_REACTORS
330
C
102
}
330
C
100
AcDbDictionary
281
     1
  0
XRECORD
  5
1C1
102
{ACAD_REACTORS
330
C
102
}
330
C
100
AcDbXrecord
280
     1
  1
DWGPROPS COOKIE
  2

  3

  4

  6

  7

  8
12016016
  9

300
=
301
=
302
=
303
=
304
=
305
=
306
=
307
=
308
=
309
=
 40
0.0
 41
2458312.304492813
 42
2458319.289953333
  1

 90
        0
  0
DICTIONARY
  5
189
102
{ACAD_REACTORS
330
188
102
}
330
188
100
AcDbDictionary
281
     1
  0
LAYOUT
  5
1E
102
{ACAD_REACTORS
330
1A
102
}
330
1A
100
AcDbPlotSettings
  1

  2
none_device
  4

  6

 40
0.0
 41
0.0
 42
0.0
 43
0.0
 44
0.0
 45
0.0
 46
0.0
 47
0.0
 48
0.0
 49
0.0
140
0.0
141
0.0
142
1.0
143
1.0
 70
   688
 72
     1
 73
     0
 74
     5
  7

 75
    16
147
1.0
148
0.0
149
0.0
100
AcDbLayout
  1
Layout1
 70
     1
 71
     1
 10
0.0
 20
0.0
 11
420.0
 21
297.0
 12
0.0
 22
0.0
 32
0.0
 14
1.000000000000000E+20
 24
1.000000000000000E+20
 34
1.000000000000000E+20
 15
-1.000000000000000E+20
 25
-1.000000000000000E+20
 35
-1.000000000000000E+20
146
0.0
 13
0.0
 23
0.0
 33
0.0
 16
1.0
 26
0.0
 36
0.0
 17
0.0
 27
1.0
 37
0.0
 76
     0
330
1B
  0
LAYOUT
  5
26
102
{ACAD_REACTORS
330
1A
102
}
330
1A
100
AcDbPlotSettings
  1

  2
none_device
  4

  6

 40
0.0
 41
0.0
 42
0.0
 43
0.0
 44
0.0
 45
0.0
 46
0.0
 47
0.0
 48
0.0
 49
0.0
140
0.0
141
0.0
142
1.0
143
1.0
 70
   688
 72
     1
 73
     0
 74
     5
  7

 75
    16
147
1.0
148
0.0
149
0.0
100
AcDbLayout
  1
Layout2
 70
     1
 71
     2
 10
0.0
 20
0.0
 11
0.0
 21
0.0
 12
0.0
 22
0.0
 32
0.0
 14
0.0
 24
0.0
 34
0.0
 15
0.0
 25
0.0
 35
0.0
146
0.0
 13
0.0
 23
0.0
 33
0.0
 16
1.0
 26
0.0
 36
0.0
 17
0.0
 27
1.0
 37
0.0
 76
     0
330
23
  0
LAYOUT
  5
22
102
{ACAD_REACTORS
330
1A
102
}
330
1A
100
AcDbPlotSettings
  1

  2
none_device
  4
ANSI_A_(11.00_x_8.50_Inches)
  6

 40
6.35
 41
19.05
 42
6.35000508
 43
19.05000254
 44
279.4
 45
215.9
 46
76.5915570497216
 47
72.28211881369143
 48
0.0
 49
0.0
140
0.0
141
0.0
142
0.0560252147351112
143
1.0
 70
  1696
 72
     0
 73
     0
 74
     0
  7

 75
     0
147
0.0235690232323232
148
0.0
149
0.0
100
AcDbLayout
  1
Model
 70
     1
 71
     0
 10
0.0
 20
0.0
 11
420.0
 21
297.0
 12
0.0
 22
0.0
 32
0.0
 14
-57.01577283782726
 24
-49.97180738881174
 34
0.0
 15
82.90723381534556
 25
41.18535365400765
 35
0.0
146
0.0
 13
0.0
 23
0.0
 33
0.0
 16
1.0
 26
0.0
 36
0.0
 17
0.0
 27
1.0
 37
0.0
 76
     0
330
1F
331
29
  0
MLINESTYLE
  5
18
102
{ACAD_REACTORS
330
17
102
}
330
17
100
AcDbMlineStyle
  2
Standard
 70
     0
  3

 62
   256
 51
90.0
 52
90.0
 71
     2
 49
0.5
 62
   256
  6
BYLAYER
 49
-0.5
 62
   256
  6
BYLAYER
  0
ACDBPLACEHOLDER
  5
F
102
{ACAD_REACTORS
330
E
102
}
330
E
  0
SCALE
  5
48
102
{ACAD_REACTORS
330
47
102
}
330
47
100
AcDbScale
 70
     0
300
1:1
140
1.0
141
1.0
290
     1
  0
SCALE
  5
49
102
{ACAD_REACTORS
330
47
102
}
330
47
100
AcDbScale
 70
     0
300
1:2
140
1.0
141
2.0
290
     0
  0
SCALE
  5
4A
102
{ACAD_REACTORS
330
47
102
}
330
47
100
AcDbScale
 70
     0
300
1:4
140
1.0
141
4.0
290
     0
  0
SCALE
  5
4B
102
{ACAD_REACTORS
330
47
102
}
330
47
100
AcDbScale
 70
     0
300
1:5
140
1.0
141
5.0
290
     0
  0
SCALE
  5
4C
102
{ACAD_REACTORS
330
47
102
}
330
47
100
AcDbScale
 70
     0
300
1:8
140
1.0
141
8.0
290
     0
  0
SCALE
  5
4D
102
{ACAD_REACTORS
330
47
102
}
330
47
100
AcDbScale
 70
     0
300
1:10
140
1.0
141
10.0
290
     0
  0
SCALE
  5
4E
102
{ACAD_REACTORS
330
47
102
}
330
47
100
AcDbScale
 70
     0
300
1:16
140
1.0
141
16.0
290
     0
  0
SCALE
  5
4F
102
{ACAD_REACTORS
330
47
102
}
330
47
100
AcDbScale
 70
     0
300
1:20
140
1.0
141
20.0
290
     0
  0
SCALE
  5
50
102
{ACAD_REACTORS
330
47
102
}
330
47
100
AcDbScale
 70
     0
300
1:30
140
1.0
141
30.0
290
     0
  0
SCALE
  5
51
102
{ACAD_REACTORS
330
47
102
}
330
47
100
AcDbScale
 70
     0
300
1:40
140
1.0
141
40.0
290
     0
  0
SCALE
  5
52
102
{ACAD_REACTORS
330
47
102
}
330
47
100
AcDbScale
 70
     0
300
1:50
140
1.0
141
50.0
290
     0
  0
SCALE
  5
53
102
{ACAD_REACTORS
330
47
102
}
330
47
100
AcDbScale
 70
     0
300
1:100
140
1.0
141
100.0
290
     0
  0
SCALE
  5
54
102
{ACAD_REACTORS
330
47
102
}
330
47
100
AcDbScale
 70
     0
300
2:1
140
2.0
141
1.0
290
     0
  0
SCALE
  5
55
102
{ACAD_REACTORS
330
47
102
}
330
47
100
AcDbScale
 70
     0
300
4:1
140
4.0
141
1.0
290
     0
  0
SCALE
  5
56
102
{ACAD_REACTORS
330
47
102
}
330
47
100
AcDbScale
 70
     0
300
8:1
140
8.0
141
1.0
290
     0
  0
SCALE
  5
57
102
{ACAD_REACTORS
330
47
102
}
330
47
100
AcDbScale
 70
     0
300
10:1
140
10.0
141
1.0
290
     0
  0
SCALE
  5
58
102
{ACAD_REACTORS
330
47
102
}
330
47
100
AcDbScale
 70
     0
300
100:1
140
100.0
141
1.0
290
     0
  0
SCALE
  5
59
102
{ACAD_REACTORS
330
47
102
}
330
47
100
AcDbScale
 70
     0
300
1/128" = 1'-0"
140
0.0078125
141
12.0
290
     0
  0
SCALE
  5
5A
102
{ACAD_REACTORS
330
47
102
}
330
47
100
AcDbScale
 70
     0
300
1/64" = 1'-0"
140
0.015625
141
12.0
290
     0
  0
SCALE
  5
5B
102
{ACAD_REACTORS
330
47
102
}
330
47
100
AcDbScale
 70
     0
300
1/32" = 1'-0"
140
0.03125
141
12.0
290
     0
  0
SCALE
  5
5C
102
{ACAD_REACTORS
330
47
102
}
330
47
100
AcDbScale
 70
     0
300
1/16" = 1'-0"
140
0.0625
141
12.0
290
     0
  0
SCALE
  5
5D
102
{ACAD_REACTORS
330
47
102
}
330
47
100
AcDbScale
 70
     0
300
3/32" = 1'-0"
140
0.09375
141
12.0
290
     0
  0
SCALE
  5
5E
102
{ACAD_REACTORS
330
47
102
}
330
47
100
AcDbScale
 70
     0
300
1/8" = 1'-0"
140
0.125
141
12.0
290
     0
  0
SCALE
  5
5F
102
{ACAD_REACTORS
330
47
102
}
330
47
100
AcDbScale
 70
     0
300
3/16" = 1'-0"
140
0.1875
141
12.0
290
     0
  0
SCALE
  5
60
102
{ACAD_REACTORS
330
47
102
}
330
47
100
AcDbScale
 70
     0
300
1/4" = 1'-0"
140
0.25
141
12.0
290
     0
  0
SCALE
  5
61
102
{ACAD_REACTORS
330
47
102
}
330
47
100
AcDbScale
 70
     0
300
3/8" = 1'-0"
140
0.375
141
12.0
290
     0
  0
SCALE
  5
62
102
{ACAD_REACTORS
330
47
102
}
330
47
100
AcDbScale
 70
     0
300
1/2" = 1'-0"
140
0.5
141
12.0
290
     0
  0
SCALE
  5
63
102
{ACAD_REACTORS
330
47
102
}
330
47
100
AcDbScale
 70
     0
300
3/4" = 1'-0"
140
0.75
141
12.0
290
     0
  0
SCALE
  5
64
102
{ACAD_REACTORS
330
47
102
}
330
47
100
AcDbScale
 70
     0
300
1" = 1'-0"
140
1.0
141
12.0
290
     0
  0
SCALE
  5
65
102
{ACAD_REACTORS
330
47
102
}
330
47
100
AcDbScale
 70
     0
300
1-1/2" = 1'-0"
140
1.5
141
12.0
290
     0
  0
SCALE
  5
66
102
{ACAD_REACTORS
330
47
102
}
330
47
100
AcDbScale
 70
     0
300
3" = 1'-0"
140
3.0
141
12.0
290
     0
  0
SCALE
  5
67
102
{ACAD_REACTORS
330
47
102
}
330
47
100
AcDbScale
 70
     0
300
6" = 1'-0"
140
6.0
141
12.0
290
     0
  0
SCALE
  5
68
102
{ACAD_REACTORS
330
47
102
}
330
47
100
AcDbScale
 70
     0
300
1'-0" = 1'-0"
140
12.0
141
12.0
290
     0
  0
ENDSEC
  0
EOF
