  0
SECTION
  2
HEADER
  9
$ACADVER
  1
AC1015
  9
$ACADMAINTVER
 70
     6
  9
$DWGCODEPAGE
  3
ANSI_949
  9
$INSBASE
 10
0.0
 20
0.0
 30
0.0
  9
$EXTMIN
 10
1.000000000000000E+20
 20
1.000000000000000E+20
 30
1.000000000000000E+20
  9
$EXTMAX
 10
-1.000000000000000E+20
 20
-1.000000000000000E+20
 30
-1.000000000000000E+20
  9
$LIMMIN
 10
0.0
 20
0.0
  9
$LIMMAX
 10
420.0
 20
297.0
  9
$ORTHOMODE
 70
     0
  9
$REGENMODE
 70
     1
  9
$FILLMODE
 70
     1
  9
$QTEXTMODE
 70
     0
  9
$MIRRTEXT
 70
     1
  9
$LTSCALE
 40
1.0
  9
$ATTMODE
 70
     1
  9
$TEXTSIZE
 40
3.5
  9
$TRACEWID
 40
1.0
  9
$TEXTSTYLE
  7
Standard
  9
$CLAYER
  8
0
  9
$CELTYPE
  6
ByLayer
  9
$CECOLOR
 62
   256
  9
$CELTSCALE
 40
1.0
  9
$DISPSILH
 70
     0
  9
$DIMSCALE
 40
1.0
  9
$DIMASZ
 40
3.302
  9
$DIMEXO
 40
1.0
  9
$DIMDLI
 40
3.75
  9
$DIMRND
 40
0.0
  9
$DIMDLE
 40
0.0
  9
$DIMEXE
 40
1.0
  9
$DIMTP
 40
0.0
  9
$DIMTM
 40
0.0
  9
$DIMTXT
 40
3.5
  9
$DIMCEN
 40
2.5
  9
$DIMTSZ
 40
0.0
  9
$DIMTOL
 70
     0
  9
$DIMLIM
 70
     0
  9
$DIMTIH
 70
     1
  9
$DIMTOH
 70
     1
  9
$DIMSE1
 70
     0
  9
$DIMSE2
 70
     0
  9
$DIMTAD
 70
     1
  9
$DIMZIN
 70
     0
  9
$DIMBLK
  1

  9
$DIMASO
 70
     1
  9
$DIMSHO
 70
     1
  9
$DIMPOST
  1

  9
$DIMAPOST
  1

  9
$DIMALT
 70
     0
  9
$DIMALTD
 70
     3
  9
$DIMALTF
 40
0.0393700787401575
  9
$DIMLFAC
 40
1.0
  9
$DIMTOFL
 70
     1
  9
$DIMTVP
 40
0.0
  9
$DIMTIX
 70
     0
  9
$DIMSOXD
 70
     0
  9
$DIMSAH
 70
     0
  9
$DIMBLK1
  1

  9
$DIMBLK2
  1

  9
$DIMSTYLE
  2
ISO-25
  9
$DIMCLRD
 70
     0
  9
$DIMCLRE
 70
     0
  9
$DIMCLRT
 70
     0
  9
$DIMTFAC
 40
1.0
  9
$DIMGAP
 40
1.524
  9
$DIMJUST
 70
     0
  9
$DIMSD1
 70
     0
  9
$DIMSD2
 70
     0
  9
$DIMTOLJ
 70
     0
  9
$DIMTZIN
 70
     0
  9
$DIMALTZ
 70
     0
  9
$DIMALTTZ
 70
     0
  9
$DIMUPT
 70
     0
  9
$DIMDEC
 70
     2
  9
$DIMTDEC
 70
     2
  9
$DIMALTU
 70
     2
  9
$DIMALTTD
 70
     3
  9
$DIMTXSTY
  7
Standard
  9
$DIMAUNIT
 70
     0
  9
$DIMADEC
 70
     2
  9
$DIMALTRND
 40
0.0
  9
$DIMAZIN
 70
     0
  9
$DIMDSEP
 70
    44
  9
$DIMATFIT
 70
     3
  9
$DIMFRAC
 70
     0
  9
$DIMLDRBLK
  1

  9
$DIMLUNIT
 70
     2
  9
$DIMLWD
 70
    -2
  9
$DIMLWE
 70
    -2
  9
$DIMTMOVE
 70
     0
  9
$LUNITS
 70
     2
  9
$LUPREC
 70
     2
  9
$SKETCHINC
 40
1.0
  9
$FILLETRAD
 40
10.0
  9
$AUNITS
 70
     0
  9
$AUPREC
 70
     2
  9
$MENU
  1
.
  9
$ELEVATION
 40
0.0
  9
$PELEVATION
 40
0.0
  9
$THICKNESS
 40
0.0
  9
$LIMCHECK
 70
     0
  9
$CHAMFERA
 40
0.0
  9
$CHAMFERB
 40
0.0
  9
$CHAMFERC
 40
0.0
  9
$CHAMFERD
 40
0.0
  9
$SKPOLY
 70
     0
  9
$TDCREATE
 40
2458323.476090185
  9
$TDUCREATE
 40
2458323.101090185
  9
$TDUPDATE
 40
2458330.636396736
  9
$TDUUPDATE
 40
2458330.261396736
  9
$TDINDWG
 40
0.0029199074
  9
$TDUSRTIMER
 40
2458330.258477037
  9
$USRTIMER
 70
     1
  9
$ANGBASE
 50
0.0
  9
$ANGDIR
 70
     0
  9
$PDMODE
 70
     0
  9
$PDSIZE
 40
-1.0
  9
$PLINEWID
 40
0.0
  9
$SPLFRAME
 70
     0
  9
$SPLINETYPE
 70
     6
  9
$SPLINESEGS
 70
     8
  9
$HANDSEED
  5
2E6
  9
$SURFTAB1
 70
     6
  9
$SURFTAB2
 70
     6
  9
$SURFTYPE
 70
     6
  9
$SURFU
 70
     6
  9
$SURFV
 70
     6
  9
$UCSBASE
  2

  9
$UCSNAME
  2

  9
$UCSORG
 10
0.0
 20
0.0
 30
0.0
  9
$UCSXDIR
 10
1.0
 20
0.0
 30
0.0
  9
$UCSYDIR
 10
0.0
 20
1.0
 30
0.0
  9
$UCSORTHOREF
  2

  9
$UCSORTHOVIEW
 70
     0
  9
$UCSORGTOP
 10
0.0
 20
0.0
 30
0.0
  9
$UCSORGBOTTOM
 10
0.0
 20
0.0
 30
0.0
  9
$UCSORGLEFT
 10
0.0
 20
0.0
 30
0.0
  9
$UCSORGRIGHT
 10
0.0
 20
0.0
 30
0.0
  9
$UCSORGFRONT
 10
0.0
 20
0.0
 30
0.0
  9
$UCSORGBACK
 10
0.0
 20
0.0
 30
0.0
  9
$PUCSBASE
  2

  9
$PUCSNAME
  2

  9
$PUCSORG
 10
0.0
 20
0.0
 30
0.0
  9
$PUCSXDIR
 10
1.0
 20
0.0
 30
0.0
  9
$PUCSYDIR
 10
0.0
 20
1.0
 30
0.0
  9
$PUCSORTHOREF
  2

  9
$PUCSORTHOVIEW
 70
     0
  9
$PUCSORGTOP
 10
0.0
 20
0.0
 30
0.0
  9
$PUCSORGBOTTOM
 10
0.0
 20
0.0
 30
0.0
  9
$PUCSORGLEFT
 10
0.0
 20
0.0
 30
0.0
  9
$PUCSORGRIGHT
 10
0.0
 20
0.0
 30
0.0
  9
$PUCSORGFRONT
 10
0.0
 20
0.0
 30
0.0
  9
$PUCSORGBACK
 10
0.0
 20
0.0
 30
0.0
  9
$USERI1
 70
     0
  9
$USERI2
 70
     0
  9
$USERI3
 70
     0
  9
$USERI4
 70
     0
  9
$USERI5
 70
     0
  9
$USERR1
 40
0.0
  9
$USERR2
 40
0.0
  9
$USERR3
 40
0.0
  9
$USERR4
 40
0.0
  9
$USERR5
 40
0.0
  9
$WORLDVIEW
 70
     1
  9
$SHADEDGE
 70
     3
  9
$SHADEDIF
 70
    70
  9
$TILEMODE
 70
     1
  9
$MAXACTVP
 70
    64
  9
$PINSBASE
 10
0.0
 20
0.0
 30
0.0
  9
$PLIMCHECK
 70
     0
  9
$PEXTMIN
 10
1.000000000000000E+20
 20
1.000000000000000E+20
 30
1.000000000000000E+20
  9
$PEXTMAX
 10
-1.000000000000000E+20
 20
-1.000000000000000E+20
 30
-1.000000000000000E+20
  9
$PLIMMIN
 10
0.0
 20
0.0
  9
$PLIMMAX
 10
0.0
 20
0.0
  9
$UNITMODE
 70
     0
  9
$VISRETAIN
 70
     1
  9
$PLINEGEN
 70
     0
  9
$PSLTSCALE
 70
     1
  9
$TREEDEPTH
 70
  3020
  9
$CMLSTYLE
  2
Standard
  9
$CMLJUST
 70
     0
  9
$CMLSCALE
 40
20.0
  9
$PROXYGRAPHICS
 70
     1
  9
$MEASUREMENT
 70
     1
  9
$CELWEIGHT
370
    -1
  9
$ENDCAPS
280
     0
  9
$JOINSTYLE
280
     0
  9
$LWDISPLAY
290
     1
  9
$INSUNITS
 70
     4
  9
$HYPERLINKBASE
  1

  9
$STYLESHEET
  1

  9
$XEDIT
290
     1
  9
$CEPSNTYPE
380
     0
  9
$PSTYLEMODE
290
     1
  9
$FINGERPRINTGUID
  2
{8DBE0C1B-3D82-4E05-93D4-A05C9E8B3147}
  9
$VERSIONGUID
  2
{FAEB1C32-E019-11D5-929B-00C0DF256EC4}
  9
$EXTNAMES
290
     1
  9
$PSVPSCALE
 40
0.0
  9
$OLESTARTUP
290
     0
  0
ENDSEC
  0
SECTION
  2
CLASSES
  0
CLASS
  1
ACDBDICTIONARYWDFLT
  2
AcDbDictionaryWithDefault
  3
ObjectDBX Classes
 90
        0
280
     0
281
     0
  0
CLASS
  1
VISUALSTYLE
  2
AcDbVisualStyle
  3
ObjectDBX Classes
 90
     4095
280
     0
281
     0
  0
CLASS
  1
MATERIAL
  2
AcDbMaterial
  3
ObjectDBX Classes
 90
     1153
280
     0
281
     0
  0
CLASS
  1
SCALE
  2
AcDbScale
  3
ObjectDBX Classes
 90
     1153
280
     0
281
     0
  0
CLASS
  1
SUN
  2
AcDbSun
  3
SCENEOE
 90
     1153
280
     0
281
     0
  0
CLASS
  1
ACDBPLACEHOLDER
  2
AcDbPlaceHolder
  3
ObjectDBX Classes
 90
        0
280
     0
281
     0
  0
CLASS
  1
LAYOUT
  2
AcDbLayout
  3
ObjectDBX Classes
 90
        0
280
     0
281
     0
  0
CLASS
  1
TABLESTYLE
  2
AcDbTableStyle
  3
ObjectDBX Classes
 90
     4095
280
     0
281
     0
  0
CLASS
  1
MLEADERSTYLE
  2
AcDbMLeaderStyle
  3
ACDB_MLEADERSTYLE_CLASS
 90
     4095
280
     0
281
     0
  0
CLASS
  1
RASTERVARIABLES
  2
AcDbRasterVariables
  3
ISM
 90
        0
280
     0
281
     0
  0
ENDSEC
  0
SECTION
  2
TABLES
  0
TABLE
  2
VPORT
  5
8
330
0
100
AcDbSymbolTable
 70
     1
  0
VPORT
  5
29
330
8
100
AcDbSymbolTableRecord
100
AcDbViewportTableRecord
  2
*Active
 70
     0
 10
0.0
 20
0.0
 11
1.0
 21
1.0
 12
72.89472976971032
 22
32.84825666266403
 13
0.0
 23
0.0
 14
10.0
 24
10.0
 15
10.0
 25
10.0
 16
0.0
 26
0.0
 36
1.0
 17
0.0
 27
0.0
 37
0.0
 40
369.0878762977842
 41
1.516441005802708
 42
50.0
 43
0.0
 44
0.0
 50
0.0
 51
0.0
 71
    16
 72
  2000
 73
     1
 74
     3
 75
     0
 76
     0
 77
     0
 78
     0
281
     0
 65
     1
110
0.0
120
0.0
130
0.0
111
1.0
121
0.0
131
0.0
112
0.0
122
1.0
132
0.0
 79
     0
146
0.0
  0
ENDTAB
  0
TABLE
  2
LTYPE
  5
5
330
0
100
AcDbSymbolTable
 70
     6
  0
LTYPE
  5
14
330
5
100
AcDbSymbolTableRecord
100
AcDbLinetypeTableRecord
  2
ByBlock
 70
     0
  3

 72
    65
 73
     0
 40
0.0
  0
LTYPE
  5
15
330
5
100
AcDbSymbolTableRecord
100
AcDbLinetypeTableRecord
  2
ByLayer
 70
     0
  3

 72
    65
 73
     0
 40
0.0
  0
LTYPE
  5
16
330
5
100
AcDbSymbolTableRecord
100
AcDbLinetypeTableRecord
  2
Continuous
 70
     0
  3
Solid line
 72
    65
 73
     0
 40
0.0
  0
LTYPE
  5
6A
330
5
100
AcDbSymbolTableRecord
100
AcDbLinetypeTableRecord
  2
HIDDEN
 70
     0
  3
Hidden __ __ __ __ __ __ __ __ __ __ __ __ __ __
 72
    65
 73
     2
 40
1.905
 49
1.27
 74
     0
 49
-0.635
 74
     0
  0
LTYPE
  5
6B
330
5
100
AcDbSymbolTableRecord
100
AcDbLinetypeTableRecord
  2
PHANTOM
 70
     0
  3
Phantom ______  __  __  ______  __  __  ______
 72
    65
 73
     6
 40
12.7
 49
6.35
 74
     0
 49
-1.27
 74
     0
 49
1.27
 74
     0
 49
-1.27
 74
     0
 49
1.27
 74
     0
 49
-1.27
 74
     0
  0
LTYPE
  5
6C
330
5
100
AcDbSymbolTableRecord
100
AcDbLinetypeTableRecord
  2
CENTER
 70
     0
  3
Center ____ _ ____ _ ____ _ ____ _ ____ _ ____
 72
    65
 73
     4
 40
10.16
 49
6.35
 74
     0
 49
-1.27
 74
     0
 49
1.27
 74
     0
 49
-1.27
 74
     0
  0
LTYPE
  5
6D
330
5
100
AcDbSymbolTableRecord
100
AcDbLinetypeTableRecord
  2
CENTERX2
 70
     0
  3
Center (2x) ________  __  ________  __  _____
 72
    65
 73
     4
 40
20.32
 49
12.7
 74
     0
 49
-2.54
 74
     0
 49
2.54
 74
     0
 49
-2.54
 74
     0
  0
LTYPE
  5
6E
330
5
100
AcDbSymbolTableRecord
100
AcDbLinetypeTableRecord
  2
DOT2
 70
     0
  3
Dot (.5x) ........................................
 72
    65
 73
     2
 40
0.635
 49
0.0
 74
     0
 49
-0.635
 74
     0
  0
ENDTAB
  0
TABLE
  2
LAYER
  5
2
102
{ACAD_XDICTIONARY
360
209
102
}
330
0
100
AcDbSymbolTable
 70
    18
  0
LAYER
  5
10
330
2
100
AcDbSymbolTableRecord
100
AcDbLayerTableRecord
  2
0
 70
     0
 62
     7
  6
Continuous
370
    -3
390
F
  0
LAYER
  5
6F
330
2
100
AcDbSymbolTableRecord
100
AcDbLayerTableRecord
  2
FORMAT
 70
     0
 62
     2
  6
Continuous
370
    -3
390
F
  0
LAYER
  5
70
330
2
100
AcDbSymbolTableRecord
100
AcDbLayerTableRecord
  2
외형선
 70
     0
 62
     4
  6
Continuous
370
    30
390
F
  0
LAYER
  5
71
330
2
100
AcDbSymbolTableRecord
100
AcDbLayerTableRecord
  2
숨은선
 70
     0
 62
     2
  6
HIDDEN
370
    15
390
F
  0
LAYER
  5
72
330
2
100
AcDbSymbolTableRecord
100
AcDbLayerTableRecord
  2
중심선
 70
     0
 62
     1
  6
CENTERX2
370
    -3
390
F
  0
LAYER
  5
73
330
2
100
AcDbSymbolTableRecord
100
AcDbLayerTableRecord
  2
파단선
 70
     0
 62
     4
  6
Continuous
370
    -3
390
F
  0
LAYER
  5
74
330
2
100
AcDbSymbolTableRecord
100
AcDbLayerTableRecord
  2
해칭선
 70
     0
 62
   100
  6
Continuous
370
    -3
390
F
  0
LAYER
  5
75
330
2
100
AcDbSymbolTableRecord
100
AcDbLayerTableRecord
  2
가는실선
 70
     0
 62
     4
  6
Continuous
370
    -3
390
F
  0
LAYER
  5
76
330
2
100
AcDbSymbolTableRecord
100
AcDbLayerTableRecord
  2
치수_보조선
 70
     0
 62
     4
  6
Continuous
370
    -3
390
F
  0
LAYER
  5
77
330
2
100
AcDbSymbolTableRecord
100
AcDbLayerTableRecord
  2
치수문자_일반주서
 70
     0
 62
     7
  6
Continuous
370
    15
390
F
  0
LAYER
  5
78
330
2
100
AcDbSymbolTableRecord
100
AcDbLayerTableRecord
  2
개별주서
 70
     0
 62
   100
  6
Continuous
370
    30
390
F
  0
LAYER
  5
79
330
2
100
AcDbSymbolTableRecord
100
AcDbLayerTableRecord
  2
중간선
 70
     0
 62
     2
  6
Continuous
370
    15
390
F
  0
LAYER
  5
7A
330
2
100
AcDbSymbolTableRecord
100
AcDbLayerTableRecord
  2
윤곽선
 70
     0
 62
     3
  6
Continuous
370
    40
390
F
  0
LAYER
  5
7B
330
2
100
AcDbSymbolTableRecord
100
AcDbLayerTableRecord
  2
중심마크
 70
     0
 62
   100
  6
Continuous
370
    30
390
F
  0
LAYER
  5
7C
330
2
100
AcDbSymbolTableRecord
100
AcDbLayerTableRecord
  2
가상선
 70
     0
 62
     4
  6
PHANTOM
370
    -3
390
F
  0
LAYER
  5
7D
330
2
100
AcDbSymbolTableRecord
100
AcDbLayerTableRecord
  2
특수지정선
 70
     0
 62
     5
  6
CENTERX2
370
    60
390
F
  0
LAYER
  5
7E
330
2
100
AcDbSymbolTableRecord
100
AcDbLayerTableRecord
  2
참조1
 70
     0
 62
    -4
  6
Continuous
370
    -3
390
F
  0
LAYER
  5
141
330
2
100
AcDbSymbolTableRecord
100
AcDbLayerTableRecord
  2
Defpoints
 70
     0
 62
     7
  6
Continuous
290
     0
370
    -3
390
F
  0
ENDTAB
  0
TABLE
  2
STYLE
  5
3
330
0
100
AcDbSymbolTable
 70
     2
  0
STYLE
  5
11
330
3
100
AcDbSymbolTableRecord
100
AcDbTextStyleTableRecord
  2
Standard
 70
     0
 40
0.0
 41
1.0
 50
0.0
 71
     0
 42
3.5
  3
txt
  4

  0
STYLE
  5
94
330
3
100
AcDbSymbolTableRecord
100
AcDbTextStyleTableRecord
  2
SLDTEXTSTYLE0
 70
     0
 40
0.0
 41
0.75
 50
0.0
 71
     0
 42
3.5
  3
TXT
  4

  0
ENDTAB
  0
TABLE
  2
VIEW
  5
6
330
0
100
AcDbSymbolTable
 70
     0
  0
ENDTAB
  0
TABLE
  2
UCS
  5
7
330
0
100
AcDbSymbolTable
 70
     0
  0
ENDTAB
  0
TABLE
  2
APPID
  5
9
330
0
100
AcDbSymbolTable
 70
     4
  0
APPID
  5
12
330
9
100
AcDbSymbolTableRecord
100
AcDbRegAppTableRecord
  2
ACAD
 70
     0
  0
APPID
  5
14D
330
9
100
AcDbSymbolTableRecord
100
AcDbRegAppTableRecord
  2
PE_URL
 70
     0
  0
APPID
  5
2E4
330
9
100
AcDbSymbolTableRecord
100
AcDbRegAppTableRecord
  2
ACAD_DSTYLE_DIMFLIPARROW_SYMBOL
 70
     0
  0
APPID
  5
2E5
330
9
100
AcDbSymbolTableRecord
100
AcDbRegAppTableRecord
  2
ACAD_DSTYLE_DIMFLIPARROW_WHICH_SYMBOL
 70
     0
  0
ENDTAB
  0
TABLE
  2
DIMSTYLE
  5
A
330
0
100
AcDbSymbolTable
 70
     3
100
AcDbDimStyleTable
  0
DIMSTYLE
105
27
330
A
100
AcDbSymbolTableRecord
100
AcDbDimStyleTableRecord
  2
ISO-25
 70
     0
 41
2.5
 42
0.625
 43
3.75
 44
1.25
 73
     0
 74
     0
 77
     1
 78
     8
140
2.5
141
2.5
143
0.03937007874016
147
0.625
171
     3
172
     1
178
     0
271
     2
272
     2
274
     3
278
    44
283
     0
284
     8
340
11
  0
DIMSTYLE
105
C0
102
{ACAD_REACTORS
330
1C2
330
1D2
330
1DF
330
1EC
330
296
330
297
330
298
330
299
102
}
330
A
100
AcDbSymbolTableRecord
100
AcDbDimStyleTableRecord
  2
SLDDIMSTYLE0
 70
     0
 41
3.302
 44
0.0
 45
0.000000001
 73
     0
 74
     0
 77
     1
 78
    12
 79
     3
140
3.5
143
0.0393700787401575
147
0.875
148
0.000000001
170
     1
172
     1
173
     1
178
     0
271
     2
272
     2
276
     2
284
    12
289
     0
340
94
  0
DIMSTYLE
105
E9
330
A
100
AcDbSymbolTableRecord
100
AcDbDimStyleTableRecord
  2
SLDDIMSTYLE1
 70
     0
 41
3.302
 44
0.0
 45
0.000000001
 73
     0
 74
     0
 77
     1
 78
    12
 79
     3
140
3.5
143
0.0393700787401575
147
0.875
148
0.000000001
170
     1
173
     1
178
     0
271
     2
272
     2
276
     2
284
    12
340
94
  0
ENDTAB
  0
TABLE
  2
BLOCK_RECORD
  5
1
330
0
100
AcDbSymbolTable
 70
    16
  0
BLOCK_RECORD
  5
1F
330
1
100
AcDbSymbolTableRecord
100
AcDbBlockTableRecord
  2
*Model_Space
340
22
  0
BLOCK_RECORD
  5
1B
330
1
100
AcDbSymbolTableRecord
100
AcDbBlockTableRecord
  2
*Paper_Space
340
1E
  0
BLOCK_RECORD
  5
23
330
1
100
AcDbSymbolTableRecord
100
AcDbBlockTableRecord
  2
*Paper_Space0
340
26
  0
BLOCK_RECORD
  5
7F
330
1
100
AcDbSymbolTableRecord
100
AcDbBlockTableRecord
  2
블럭10
340
0
102
{BLKREFS
331
B8
102
}
  0
BLOCK_RECORD
  5
C1
330
1
100
AcDbSymbolTableRecord
100
AcDbBlockTableRecord
  2
_D
340
0
  0
BLOCK_RECORD
  5
D5
330
1
100
AcDbSymbolTableRecord
100
AcDbBlockTableRecord
  2
_D_1
340
0
  0
BLOCK_RECORD
  5
EA
330
1
100
AcDbSymbolTableRecord
100
AcDbBlockTableRecord
  2
_D_2
340
0
  0
BLOCK_RECORD
  5
FD
330
1
100
AcDbSymbolTableRecord
100
AcDbBlockTableRecord
  2
_D_3
340
0
  0
BLOCK_RECORD
  5
116
330
1
100
AcDbSymbolTableRecord
100
AcDbBlockTableRecord
  2
SW_DOWELSYMBOL_0
340
0
102
{BLKREFS
331
0
331
1FC
331
29A
102
}
  0
BLOCK_RECORD
  5
20D
330
1
100
AcDbSymbolTableRecord
100
AcDbBlockTableRecord
  2
*D8
340
0
  0
BLOCK_RECORD
  5
21A
330
1
100
AcDbSymbolTableRecord
100
AcDbBlockTableRecord
  2
*D9
340
0
  0
BLOCK_RECORD
  5
226
330
1
100
AcDbSymbolTableRecord
100
AcDbBlockTableRecord
  2
*D10
340
0
  0
BLOCK_RECORD
  5
232
330
1
100
AcDbSymbolTableRecord
100
AcDbBlockTableRecord
  2
*D11
340
0
  0
BLOCK_RECORD
  5
2A1
330
1
100
AcDbSymbolTableRecord
100
AcDbBlockTableRecord
  2
*D12
340
0
  0
BLOCK_RECORD
  5
2AE
330
1
100
AcDbSymbolTableRecord
100
AcDbBlockTableRecord
  2
*D13
340
0
  0
BLOCK_RECORD
  5
2BA
330
1
100
AcDbSymbolTableRecord
100
AcDbBlockTableRecord
  2
*D14
340
0
  0
BLOCK_RECORD
  5
2C6
330
1
100
AcDbSymbolTableRecord
100
AcDbBlockTableRecord
  2
*D15
340
0
  0
ENDTAB
  0
ENDSEC
  0
SECTION
  2
BLOCKS
  0
BLOCK
  5
20
330
1F
100
AcDbEntity
  8
0
100
AcDbBlockBegin
  2
*Model_Space
 70
     0
 10
0.0
 20
0.0
 30
0.0
  3
*Model_Space
  1
*Model_Space
  0
ENDBLK
  5
21
330
1F
100
AcDbEntity
  8
0
100
AcDbBlockEnd
  0
BLOCK
  5
1C
330
1B
100
AcDbEntity
 67
     1
  8
0
100
AcDbBlockBegin
  2
*Paper_Space
 70
     0
 10
0.0
 20
0.0
 30
0.0
  3
*Paper_Space
  1
*Paper_Space
  0
ENDBLK
  5
1D
330
1B
100
AcDbEntity
 67
     1
  8
0
100
AcDbBlockEnd
  0
BLOCK
  5
24
330
23
100
AcDbEntity
  8
0
100
AcDbBlockBegin
  2
*Paper_Space0
 70
     0
 10
0.0
 20
0.0
 30
0.0
  3
*Paper_Space0
  1
*Paper_Space0
  0
ENDBLK
  5
25
330
23
100
AcDbEntity
  8
0
100
AcDbBlockEnd
  0
BLOCK
  5
80
330
7F
100
AcDbEntity
  8
0
100
AcDbBlockBegin
  2
블럭10
 70
     2
 10
0.0
 20
0.0
 30
0.0
  3
블럭10
  1
블럭10
  0
ELLIPSE
  5
82
330
7F
100
AcDbEntity
  8
중심선
100
AcDbEllipse
 10
20.54032771741204
 20
12.0471743016438
 30
0.0
 11
6.600054785286829
 21
-1.261213355974178E-13
 31
0.0
210
0.0
220
0.0
230
1.0
 40
0.636358354079598
 41
0.9219305317359503
 42
6.513795318482858
  0
ELLIPSE
  5
83
330
7F
100
AcDbEntity
  8
중심선
100
AcDbEllipse
 10
20.54032771746488
 20
12.04717430159265
 30
0.0
 11
3.960054785062283
 21
1.540847449632565E-10
 31
0.0
210
0.0
220
0.0
230
1.0
 40
0.3939339440162632
 41
1.131841032648279
 42
5.62031148352944
  0
LINE
  5
84
330
7F
100
AcDbEntity
  8
중심선
100
AcDbLine
 10
2.268634060543552
 20
16.24717430164393
 30
0.0
 11
5.714909304380834
 21
16.24717430164393
 31
0.0
  0
LINE
  5
85
330
7F
100
AcDbEntity
  8
중심선
100
AcDbLine
 10
5.245725140726316
 20
7.84717430164391
 30
0.0
 11
8.692000384563599
 21
7.84717430164391
 31
0.0
  0
LINE
  5
86
330
7F
100
AcDbEntity
  8
중심선
100
AcDbLine
 10
15.74043728645272
 20
16.24717430164393
 30
0.0
 11
8.692000384563599
 21
7.84717430164391
 31
0.0
  0
LINE
  5
87
330
7F
100
AcDbEntity
  8
중심선
100
AcDbLine
 10
0.1404042013395286
 20
13.71084872107135
 30
0.0
 11
3.58671253028996
 21
13.71088815037384
 31
0.0
  0
LINE
  5
88
330
7F
100
AcDbEntity
  8
중심선
100
AcDbLine
 10
2.750260043222114
 20
10.84717430164391
 30
0.0
 11
6.196535287059397
 21
10.84717430164391
 31
0.0
  0
LINE
  5
89
330
7F
100
AcDbEntity
  8
중심선
100
AcDbLine
 10
12.29416204261559
 20
16.24717430164393
 30
0.0
 11
5.245725140726316
 21
7.84717430164391
 31
0.0
  0
LINE
  5
8A
330
7F
100
AcDbEntity
  8
중심선
100
AcDbLine
 10
10.72767329541681
 20
16.24717430164393
 30
0.0
 11
6.196535287059397
 21
10.84717430164391
 31
0.0
  0
LINE
  5
8B
330
7F
100
AcDbEntity
  8
중심선
100
AcDbLine
 10
7.28139805157953
 20
16.24717430164393
 30
0.0
 11
2.750260043222114
 21
10.84717430164391
 31
0.0
  0
LINE
  5
8C
330
7F
100
AcDbEntity
  8
중심선
100
AcDbLine
 10
5.714909304380834
 20
16.24717430164393
 30
0.0
 11
3.58671253028996
 21
13.71088815037384
 31
0.0
  0
LINE
  5
8D
330
7F
100
AcDbEntity
  8
중심선
100
AcDbLine
 10
2.268634060543552
 20
16.24717430164393
 30
0.0
 11
0.1404042013395286
 21
13.71084872107135
 31
0.0
  0
LINE
  5
8E
330
7F
100
AcDbEntity
  8
중심선
100
AcDbLine
 10
7.28139805157953
 20
16.24717430164393
 30
0.0
 11
10.72767329541681
 21
16.24717430164393
 31
0.0
  0
LINE
  5
8F
330
7F
100
AcDbEntity
  8
중심선
100
AcDbLine
 10
12.29416204261559
 20
16.24717430164393
 30
0.0
 11
15.74043728645272
 21
16.24717430164393
 31
0.0
  0
LINE
  5
90
330
7F
100
AcDbEntity
  8
중심선
100
AcDbLine
 10
19.22036997980202
 20
11.08717430171403
 30
0.0
 11
23.66174974927406
 21
11.08717430171406
 31
0.0
  0
LINE
  5
91
330
7F
100
AcDbEntity
  8
중심선
100
AcDbLine
 10
19.22039502424796
 20
13.00717430171391
 30
0.0
 11
19.22036997980202
 21
11.08717430171403
 31
0.0
  0
LINE
  5
92
330
7F
100
AcDbEntity
  8
중심선
100
AcDbLine
 10
19.22039502424796
 20
13.00717430171391
 30
0.0
 11
26.96566020931264
 21
13.00717430171391
 31
0.0
  0
LINE
  5
93
330
7F
100
AcDbEntity
  8
중심선
100
AcDbLine
 10
22.22332737316547
 20
13.45928029700563
 30
0.0
 11
24.52862924686651
 21
15.39360700705356
 31
0.0
  0
ATTDEF
  5
95
330
7F
100
AcDbEntity
  8
FORMAT
 62
     2
100
AcDbText
 10
4.408487351596664
 20
2.075366912832191
 30
0.0
 40
4.233333333333333
  1
E1037132
 41
0.75
  7
SLDTEXTSTYLE0
 11
4.408487351596664
 21
-0.0412997538344756
 31
0.0
100
AcDbAttributeDefinition
  3

  2
AUTOATTR0
 70
     0
 74
     1
  0
ENDBLK
  5
81
330
7F
100
AcDbEntity
  8
0
100
AcDbBlockEnd
  0
BLOCK
  5
C2
330
C1
100
AcDbEntity
  8
0
100
AcDbBlockBegin
  2
_D
 70
     0
 10
0.0
 20
0.0
 30
0.0
  3
_D
  1
_D
  0
SOLID
  5
C4
330
C1
100
AcDbEntity
  8
치수문자_일반주서
100
AcDbTrace
 10
97.9119459855236
 20
12.5010749287239
 30
0.0
 11
98.4199459855236
 21
15.80307492872389
 31
0.0
 12
97.4039459855236
 22
15.80307492872389
 32
0.0
 13
97.4039459855236
 23
15.80307492872389
 33
0.0
  0
SOLID
  5
C5
330
C1
100
AcDbEntity
  8
치수문자_일반주서
100
AcDbTrace
 10
97.9119459855236
 20
-12.49892507127611
 30
0.0
 11
97.4039459855236
 21
-15.80092507127611
 31
0.0
 12
98.4199459855236
 22
-15.80092507127611
 32
0.0
 13
98.4199459855236
 23
-15.80092507127611
 33
0.0
  0
LINE
  5
C6
330
C1
100
AcDbEntity
  8
치수문자_일반주서
100
AcDbLine
 10
87.11906426948089
 20
-5.413291502344828
 30
0.0
 11
87.11906426948089
 21
-6.124228987909328
 31
0.0
  0
LINE
  5
C7
330
C1
100
AcDbEntity
  8
치수문자_일반주서
100
AcDbLine
 10
87.11906426948089
 20
-6.124228987909328
 30
0.0
 11
92.67531426054019
 21
-6.124228987909289
 31
0.0
  0
LINE
  5
C8
330
C1
100
AcDbEntity
  8
치수문자_일반주서
100
AcDbLine
 10
92.67531426054019
 20
-6.124228987909289
 30
0.0
 11
92.67531426054019
 21
-5.413291502344789
 31
0.0
  0
LINE
  5
C9
330
C1
100
AcDbEntity
  8
치수문자_일반주서
100
AcDbLine
 10
87.1190642694808
 20
5.41544135979243
 30
0.0
 11
87.1190642694808
 21
6.12637884535693
 31
0.0
  0
LINE
  5
CA
330
C1
100
AcDbEntity
  8
치수문자_일반주서
100
AcDbLine
 10
87.1190642694808
 20
6.12637884535693
 30
0.0
 11
92.6753142605401
 21
6.126378845356969
 31
0.0
  0
LINE
  5
CB
330
C1
100
AcDbEntity
  8
치수문자_일반주서
100
AcDbLine
 10
92.6753142605401
 20
6.126378845356969
 30
0.0
 11
92.6753142605401
 21
5.415441359792469
 31
0.0
  0
LINE
  5
CC
330
C1
100
AcDbEntity
  8
치수문자_일반주서
100
AcDbLine
 10
79.91194598552357
 20
12.5010749287239
 30
0.0
 11
98.9119459855236
 21
12.5010749287239
 31
0.0
  0
LINE
  5
CD
330
C1
100
AcDbEntity
  8
치수문자_일반주서
100
AcDbLine
 10
79.91194598552357
 20
-12.49892507127611
 30
0.0
 11
98.9119459855236
 21
-12.49892507127611
 31
0.0
  0
LINE
  5
CE
330
C1
100
AcDbEntity
  8
치수문자_일반주서
100
AcDbLine
 10
97.9119459855236
 20
12.5010749287239
 30
0.0
 11
97.9119459855236
 21
18.8510749287239
 31
0.0
  0
LINE
  5
CF
330
C1
100
AcDbEntity
  8
치수문자_일반주서
100
AcDbLine
 10
97.9119459855236
 20
12.5010749287239
 30
0.0
 11
97.9119459855236
 21
-12.49892507127611
 31
0.0
  0
LINE
  5
D0
330
C1
100
AcDbEntity
  8
치수문자_일반주서
100
AcDbLine
 10
97.9119459855236
 20
-12.49892507127611
 30
0.0
 11
97.9119459855236
 21
-18.84892507127611
 31
0.0
  0
MTEXT
  5
D1
330
C1
100
AcDbEntity
  8
치수문자_일반주서
100
AcDbMText
 10
88.16357734596129
 20
-4.52461960173345
 30
0.0
 40
3.5
 41
0.0
 71
     1
 72
     1
  1
0.98
  7
SLDTEXTSTYLE0
 11
-7.044195017643634E-15
 21
1.0
 31
0.0
 73
     1
 44
1.0
  0
MTEXT
  5
D2
330
C1
100
AcDbEntity
  8
치수문자_일반주서
100
AcDbMText
 10
93.40020889632177
 20
-5.22425519681665
 30
0.0
 40
3.5
 41
0.0
 71
     1
 72
     1
  1
%%c
  7
SLDTEXTSTYLE0
 11
-7.044195017643634E-15
 21
1.0
 31
0.0
 73
     1
 44
1.0
  0
MTEXT
  5
D3
330
C1
100
AcDbEntity
  8
치수문자_일반주서
100
AcDbMText
 10
93.40020889632173
 20
0.0541822015574309
 30
0.0
 40
3.5
 41
0.0
 71
     1
 72
     1
  1
25
  7
SLDTEXTSTYLE0
 11
-7.044195017643634E-15
 21
1.0
 31
0.0
 73
     1
 44
1.0
  0
ENDBLK
  5
C3
330
C1
100
AcDbEntity
  8
0
100
AcDbBlockEnd
  0
BLOCK
  5
D6
330
D5
100
AcDbEntity
  8
0
100
AcDbBlockBegin
  2
_D_1
 70
     0
 10
0.0
 20
0.0
 30
0.0
  3
_D_1
  1
_D_1
  0
SOLID
  5
D8
330
D5
100
AcDbEntity
  8
치수문자_일반주서
100
AcDbTrace
 10
-55.08805401447646
 20
7.938574928723906
 30
0.0
 11
-54.58005401447646
 21
11.24057492872391
 31
0.0
 12
-55.59605401447646
 22
11.24057492872391
 32
0.0
 13
-55.59605401447646
 23
11.24057492872391
 33
0.0
  0
SOLID
  5
D9
330
D5
100
AcDbEntity
  8
치수문자_일반주서
100
AcDbTrace
 10
-55.08805401447646
 20
-7.936425071276123
 30
0.0
 11
-55.59605401447646
 21
-11.23842507127612
 31
0.0
 12
-54.58005401447646
 22
-11.23842507127612
 32
0.0
 13
-54.58005401447646
 23
-11.23842507127612
 33
0.0
  0
LINE
  5
DA
330
D5
100
AcDbEntity
  8
치수문자_일반주서
100
AcDbLine
 10
-65.88093573051917
 20
-6.595745043212554
 30
0.0
 11
-65.88093573051917
 21
-7.306682528777054
 31
0.0
  0
LINE
  5
DB
330
D5
100
AcDbEntity
  8
치수문자_일반주서
100
AcDbLine
 10
-65.88093573051917
 20
-7.306682528777054
 30
0.0
 11
-60.32468573945987
 21
-7.306682528777015
 31
0.0
  0
LINE
  5
DC
330
D5
100
AcDbEntity
  8
치수문자_일반주서
100
AcDbLine
 10
-60.32468573945987
 20
-7.306682528777015
 30
0.0
 11
-60.32468573945987
 21
-6.595745043212514
 31
0.0
  0
LINE
  5
DD
330
D5
100
AcDbEntity
  8
치수문자_일반주서
100
AcDbLine
 10
-65.88093573051925
 20
4.232987818924705
 30
0.0
 11
-65.88093573051925
 21
4.943925304489205
 31
0.0
  0
LINE
  5
DE
330
D5
100
AcDbEntity
  8
치수문자_일반주서
100
AcDbLine
 10
-65.88093573051925
 20
4.943925304489205
 30
0.0
 11
-60.32468573945995
 21
4.943925304489244
 31
0.0
  0
LINE
  5
DF
330
D5
100
AcDbEntity
  8
치수문자_일반주서
100
AcDbLine
 10
-60.32468573945995
 20
4.943925304489244
 30
0.0
 11
-60.32468573945994
 21
4.232987818924744
 31
0.0
  0
LINE
  5
E0
330
D5
100
AcDbEntity
  8
치수문자_일반주서
100
AcDbLine
 10
-41.50055401447643
 20
7.938574928723908
 30
0.0
 11
-56.08805401447646
 21
7.938574928723906
 31
0.0
  0
LINE
  5
E1
330
D5
100
AcDbEntity
  8
치수문자_일반주서
100
AcDbLine
 10
-41.50055401447643
 20
-7.936425071276121
 30
0.0
 11
-56.08805401447646
 21
-7.936425071276123
 31
0.0
  0
LINE
  5
E2
330
D5
100
AcDbEntity
  8
치수문자_일반주서
100
AcDbLine
 10
-55.08805401447646
 20
7.938574928723906
 30
0.0
 11
-55.08805401447646
 21
14.28857492872391
 31
0.0
  0
LINE
  5
E3
330
D5
100
AcDbEntity
  8
치수문자_일반주서
100
AcDbLine
 10
-55.08805401447646
 20
7.938574928723906
 30
0.0
 11
-55.08805401447646
 21
-7.936425071276123
 31
0.0
  0
LINE
  5
E4
330
D5
100
AcDbEntity
  8
치수문자_일반주서
100
AcDbLine
 10
-55.08805401447646
 20
-7.936425071276123
 30
0.0
 11
-55.08805401447646
 21
-14.28642507127612
 31
0.0
  0
MTEXT
  5
E5
330
D5
100
AcDbEntity
  8
치수문자_일반주서
100
AcDbMText
 10
-64.83642265403878
 20
-5.707073142601175
 30
0.0
 40
3.5
 41
0.0
 71
     1
 72
     1
  1
0.63
  7
SLDTEXTSTYLE0
 11
-7.044195017643634E-15
 21
1.0
 31
0.0
 73
     1
 44
1.0
  0
MTEXT
  5
E6
330
D5
100
AcDbEntity
  8
치수문자_일반주서
100
AcDbMText
 10
-59.59979110367827
 20
-9.639347554964907
 30
0.0
 40
3.5
 41
0.0
 71
     1
 72
     1
  1
%%c
  7
SLDTEXTSTYLE0
 11
-7.044195017643634E-15
 21
1.0
 31
0.0
 73
     1
 44
1.0
  0
MTEXT
  5
E7
330
D5
100
AcDbEntity
  8
치수문자_일반주서
100
AcDbMText
 10
-59.59979110367831
 20
-4.360910156590827
 30
0.0
 40
3.5
 41
0.0
 71
     1
 72
     1
  1
15.88
  7
SLDTEXTSTYLE0
 11
-7.044195017643634E-15
 21
1.0
 31
0.0
 73
     1
 44
1.0
  0
ENDBLK
  5
D7
330
D5
100
AcDbEntity
  8
0
100
AcDbBlockEnd
  0
BLOCK
  5
EB
330
EA
100
AcDbEntity
  8
0
100
AcDbBlockBegin
  2
_D_2
 70
     0
 10
0.0
 20
0.0
 30
0.0
  3
_D_2
  1
_D_2
  0
SOLID
  5
ED
330
EA
100
AcDbEntity
  8
치수문자_일반주서
100
AcDbTrace
 10
78.9119459855236
 20
22.33656116902758
 30
0.0
 11
75.60994598552361
 21
22.84456116902758
 31
0.0
 12
75.60994598552361
 22
21.82856116902758
 32
0.0
 13
75.60994598552361
 23
21.82856116902758
 33
0.0
  0
SOLID
  5
EE
330
EA
100
AcDbEntity
  8
치수문자_일반주서
100
AcDbTrace
 10
33.9119459855236
 20
22.3365611690276
 30
0.0
 11
37.2139459855236
 21
21.8285611690276
 31
0.0
 12
37.2139459855236
 22
22.8445611690276
 32
0.0
 13
37.2139459855236
 23
22.8445611690276
 33
0.0
  0
LINE
  5
EF
330
EA
100
AcDbEntity
  8
치수문자_일반주서
100
AcDbLine
 10
50.99757990370091
 20
33.12944288507032
 30
0.0
 11
50.28664241813641
 21
33.12944288507033
 31
0.0
  0
LINE
  5
F0
330
EA
100
AcDbEntity
  8
치수문자_일반주서
100
AcDbLine
 10
50.28664241813641
 20
33.12944288507033
 30
0.0
 11
50.28664241813637
 21
27.57319289401102
 31
0.0
  0
LINE
  5
F1
330
EA
100
AcDbEntity
  8
치수문자_일반주서
100
AcDbLine
 10
50.28664241813637
 20
27.57319289401102
 30
0.0
 11
50.99757990370087
 21
27.57319289401102
 31
0.0
  0
LINE
  5
F2
330
EA
100
AcDbEntity
  8
치수문자_일반주서
100
AcDbLine
 10
61.82631276583817
 20
33.12944288507024
 30
0.0
 11
62.53725025140267
 21
33.12944288507023
 31
0.0
  0
LINE
  5
F3
330
EA
100
AcDbEntity
  8
치수문자_일반주서
100
AcDbLine
 10
62.53725025140267
 20
33.12944288507023
 30
0.0
 11
62.53725025140263
 21
27.57319289401093
 31
0.0
  0
LINE
  5
F4
330
EA
100
AcDbEntity
  8
치수문자_일반주서
100
AcDbLine
 10
62.53725025140263
 20
27.57319289401093
 30
0.0
 11
61.82631276583813
 21
27.57319289401094
 31
0.0
  0
LINE
  5
F5
330
EA
100
AcDbEntity
  8
치수문자_일반주서
100
AcDbLine
 10
78.9119459855236
 20
13.04623741649756
 30
0.0
 11
78.9119459855236
 21
23.33656116902758
 31
0.0
  0
LINE
  5
F6
330
EA
100
AcDbEntity
  8
치수문자_일반주서
100
AcDbLine
 10
33.91194598552359
 20
13.50102630229547
 30
0.0
 11
33.9119459855236
 21
23.3365611690276
 31
0.0
  0
LINE
  5
F7
330
EA
100
AcDbEntity
  8
치수문자_일반주서
100
AcDbLine
 10
78.9119459855236
 20
22.33656116902758
 30
0.0
 11
33.9119459855236
 21
22.3365611690276
 31
0.0
  0
MTEXT
  5
F8
330
EA
100
AcDbEntity
  8
치수문자_일반주서
100
AcDbMText
 10
49.77288369264966
 20
26.90177043488931
 30
0.0
 40
3.5
 41
0.0
 71
     1
 72
     1
  1

  7
SLDTEXTSTYLE0
 73
     1
 44
1.0
  0
MTEXT
  5
F9
330
EA
100
AcDbEntity
  8
치수문자_일반주서
100
AcDbMText
 10
51.88625180431227
 20
32.08492980858991
 30
0.0
 40
3.5
 41
0.0
 71
     1
 72
     1
  1
1.77
  7
SLDTEXTSTYLE0
 73
     1
 44
1.0
  0
MTEXT
  5
FA
330
EA
100
AcDbEntity
  8
치수문자_일반주서
100
AcDbMText
 10
53.82583514124668
 20
26.84829825822942
 30
0.0
 40
3.5
 41
0.0
 71
     1
 72
     1
  1
45
  7
SLDTEXTSTYLE0
 73
     1
 44
1.0
  0
MTEXT
  5
FB
330
EA
100
AcDbEntity
  8
치수문자_일반주서
100
AcDbMText
 10
64.38295349654321
 20
26.9017704348892
 30
0.0
 40
3.5
 41
0.0
 71
     1
 72
     1
  1

  7
SLDTEXTSTYLE0
 73
     1
 44
1.0
  0
ENDBLK
  5
EC
330
EA
100
AcDbEntity
  8
0
100
AcDbBlockEnd
  0
BLOCK
  5
FE
330
FD
100
AcDbEntity
  8
0
100
AcDbBlockBegin
  2
_D_3
 70
     0
 10
0.0
 20
0.0
 30
0.0
  3
_D_3
  1
_D_3
  0
SOLID
  5
100
330
FD
100
AcDbEntity
  8
치수문자_일반주서
100
AcDbTrace
 10
78.91194598552357
 20
38.36394344956528
 30
0.0
 11
75.60994598552358
 21
38.87194344956529
 31
0.0
 12
75.60994598552358
 22
37.85594344956528
 32
0.0
 13
75.60994598552358
 23
37.85594344956528
 33
0.0
  0
SOLID
  5
101
330
FD
100
AcDbEntity
  8
치수문자_일반주서
100
AcDbTrace
 10
-42.08805401447642
 20
38.36394344956528
 30
0.0
 11
-38.78605401447642
 21
37.85594344956527
 31
0.0
 12
-38.78605401447642
 22
38.87194344956528
 32
0.0
 13
-38.78605401447642
 23
38.87194344956528
 33
0.0
  0
LINE
  5
102
330
FD
100
AcDbEntity
  8
치수문자_일반주서
100
AcDbLine
 10
14.47912979228456
 20
49.15682516560803
 30
0.0
 11
13.76819230672006
 21
49.15682516560804
 31
0.0
  0
LINE
  5
103
330
FD
100
AcDbEntity
  8
치수문자_일반주서
100
AcDbLine
 10
13.76819230672006
 20
49.15682516560804
 30
0.0
 11
13.76819230672002
 21
43.60057517454874
 31
0.0
  0
LINE
  5
104
330
FD
100
AcDbEntity
  8
치수문자_일반주서
100
AcDbLine
 10
13.76819230672002
 20
43.60057517454874
 30
0.0
 11
14.47912979228452
 21
43.60057517454873
 31
0.0
  0
LINE
  5
105
330
FD
100
AcDbEntity
  8
치수문자_일반주서
100
AcDbLine
 10
25.30786265442182
 20
49.15682516560796
 30
0.0
 11
26.01880013998632
 21
49.15682516560796
 31
0.0
  0
LINE
  5
106
330
FD
100
AcDbEntity
  8
치수문자_일반주서
100
AcDbLine
 10
26.01880013998632
 20
49.15682516560796
 30
0.0
 11
26.01880013998629
 21
43.60057517454865
 31
0.0
  0
LINE
  5
107
330
FD
100
AcDbEntity
  8
치수문자_일반주서
100
AcDbLine
 10
26.01880013998629
 20
43.60057517454865
 30
0.0
 11
25.30786265442179
 21
43.60057517454866
 31
0.0
  0
LINE
  5
108
330
FD
100
AcDbEntity
  8
치수문자_일반주서
100
AcDbLine
 10
78.91194598552357
 20
13.21639659633511
 30
0.0
 11
78.91194598552357
 21
39.36394344956528
 31
0.0
  0
LINE
  5
109
330
FD
100
AcDbEntity
  8
치수문자_일반주서
100
AcDbLine
 10
-42.08805401447642
 20
7.351074928723897
 30
0.0
 11
-42.08805401447642
 21
39.36394344956528
 31
0.0
  0
LINE
  5
10A
330
FD
100
AcDbEntity
  8
치수문자_일반주서
100
AcDbLine
 10
78.91194598552357
 20
38.36394344956528
 30
0.0
 11
-42.08805401447642
 21
38.36394344956528
 31
0.0
  0
MTEXT
  5
10B
330
FD
100
AcDbEntity
  8
치수문자_일반주서
100
AcDbMText
 10
13.25443358123332
 20
42.92915271542702
 30
0.0
 40
3.5
 41
0.0
 71
     1
 72
     1
  1

  7
SLDTEXTSTYLE0
 73
     1
 44
1.0
  0
MTEXT
  5
10C
330
FD
100
AcDbEntity
  8
치수문자_일반주서
100
AcDbMText
 10
15.36780169289593
 20
48.11231208912763
 30
0.0
 40
3.5
 41
0.0
 71
     1
 72
     1
  1
4.76
  7
SLDTEXTSTYLE0
 73
     1
 44
1.0
  0
MTEXT
  5
10D
330
FD
100
AcDbEntity
  8
치수문자_일반주서
100
AcDbMText
 10
16.01432954948426
 20
42.87568053876715
 30
0.0
 40
3.5
 41
0.0
 71
     1
 72
     1
  1
121
  7
SLDTEXTSTYLE0
 73
     1
 44
1.0
  0
MTEXT
  5
10E
330
FD
100
AcDbEntity
  8
치수문자_일반주서
100
AcDbMText
 10
27.86450338512689
 20
42.92915271542692
 30
0.0
 40
3.5
 41
0.0
 71
     1
 72
     1
  1

  7
SLDTEXTSTYLE0
 73
     1
 44
1.0
  0
ENDBLK
  5
FF
330
FD
100
AcDbEntity
  8
0
100
AcDbBlockEnd
  0
BLOCK
  5
117
330
116
100
AcDbEntity
  8
0
100
AcDbBlockBegin
  2
SW_DOWELSYMBOL_0
 70
     0
 10
0.0
 20
0.0
 30
0.0
  3
SW_DOWELSYMBOL_0
  1
SW_DOWELSYMBOL_0
  0
CIRCLE
  5
119
330
116
100
AcDbEntity
  8
해칭선
 62
     0
100
AcDbCircle
 10
0.0
 20
0.0
 30
0.0
 40
3.000000000000001
  0
HATCH
  5
11A
330
116
100
AcDbEntity
  8
0
  6
Continuous
 62
     0
370
     0
100
AcDbHatch
 10
0.0
 20
0.0
 30
0.0
210
0.0
220
0.0
230
1.0
  2
SOLID
 70
     1
 71
     0
 91
        1
 92
        0
 93
        3
 72
     2
 10
0.0
 20
0.0
 40
3.000000000000001
 50
0.0
 51
90.0
 73
     1
 72
     1
 10
0.0
 20
3.000000000000001
 11
0.0
 21
0.0
 72
     1
 10
0.0
 20
0.0
 11
3.000000000000001
 21
0.0
 97
        0
 75
     0
 76
     1
 98
        1
 10
0.0
 20
0.0
  0
HATCH
  5
11B
330
116
100
AcDbEntity
  8
0
  6
Continuous
 62
     0
370
     0
100
AcDbHatch
 10
0.0
 20
0.0
 30
0.0
210
0.0
220
0.0
230
1.0
  2
SOLID
 70
     1
 71
     0
 91
        1
 92
        0
 93
        3
 72
     2
 10
0.0
 20
0.0
 40
3.000000000000001
 50
180.0
 51
270.0000000000008
 73
     1
 72
     1
 10
0.0
 20
-3.000000000000001
 11
0.0
 21
0.0
 72
     1
 10
0.0
 20
0.0
 11
-3.000000000000001
 21
0.0
 97
        0
 75
     0
 76
     1
 98
        1
 10
0.0
 20
0.0
  0
ENDBLK
  5
118
330
116
100
AcDbEntity
  8
0
100
AcDbBlockEnd
  0
BLOCK
  5
20E
330
20D
100
AcDbEntity
  8
0
100
AcDbBlockBegin
  2
*D8
 70
     1
 10
0.0
 20
0.0
 30
0.0
  3
*D8
  1
*D8
  0
LINE
  5
210
330
20D
100
AcDbEntity
  8
치수문자_일반주서
 62
     0
370
    -2
100
AcDbLine
 10
34.41750000000015
 20
38.35400000000007
 30
0.0
 11
4.875000000000145
 21
38.35399999999996
 31
0.0
  0
LINE
  5
211
330
20D
100
AcDbEntity
  8
치수문자_일반주서
 62
     0
370
    -2
100
AcDbLine
 10
22.98750000000018
 20
6.604000000000067
 30
0.0
 11
4.875000000000256
 21
6.603999999999999
 31
0.0
  0
LINE
  5
212
330
20D
100
AcDbEntity
  8
치수문자_일반주서
 62
     0
370
    -2
100
AcDbLine
 10
4.875000000000145
 20
38.35399999999996
 30
0.0
 11
4.874999999999997
 21
80.70799999999996
 31
0.0
  0
LINE
  5
213
330
20D
100
AcDbEntity
  8
치수문자_일반주서
 62
     0
370
    -2
100
AcDbLine
 10
4.875000000000156
 20
35.05199999999996
 30
0.0
 11
4.875000000000244
 21
9.905999999999999
 31
0.0
  0
SOLID
  5
214
330
20D
100
AcDbEntity
  8
치수문자_일반주서
 62
     0
100
AcDbTrace
 10
5.42533333333349
 20
35.05199999999996
 30
0.0
 11
4.324666666666823
 21
35.05199999999996
 31
0.0
 12
4.875000000000145
 22
38.35399999999996
 32
0.0
 13
4.875000000000145
 23
38.35399999999996
 33
0.0
  0
SOLID
  5
215
330
20D
100
AcDbEntity
  8
치수문자_일반주서
 62
     0
100
AcDbTrace
 10
4.324666666666911
 20
9.905999999999997
 30
0.0
 11
5.425333333333578
 21
9.906
 31
0.0
 12
4.875000000000256
 22
6.603999999999999
 32
0.0
 13
4.875000000000256
 23
6.603999999999999
 33
0.0
  0
MTEXT
  5
216
330
20D
100
AcDbEntity
  8
치수문자_일반주서
 62
     0
100
AcDbMText
 10
0.0000000000000595
 20
62.83299999999994
 30
0.0
 40
4.0
 41
0.0
 71
     2
 72
     1
  1
\A1;%%c31.75 [1 1/4]
  7
SLDTEXTSTYLE0
 11
-3.496765431890262E-15
 21
1.0
 31
0.0
 73
     1
 44
1.0
  0
POINT
  5
217
330
20D
100
AcDbEntity
  8
Defpoints
 62
     0
100
AcDbPoint
 10
34.48000000000015
 20
38.35400000000007
 30
0.0
  0
POINT
  5
218
330
20D
100
AcDbEntity
  8
Defpoints
 62
     0
100
AcDbPoint
 10
23.05000000000018
 20
6.604000000000067
 30
0.0
  0
POINT
  5
219
330
20D
100
AcDbEntity
  8
Defpoints
 62
     0
100
AcDbPoint
 10
4.875000000000256
 20
6.603999999999999
 30
0.0
  0
ENDBLK
  5
20F
330
20D
100
AcDbEntity
  8
0
100
AcDbBlockEnd
  0
BLOCK
  5
21B
330
21A
100
AcDbEntity
  8
0
100
AcDbBlockBegin
  2
*D9
 70
     1
 10
0.0
 20
0.0
 30
0.0
  3
*D9
  1
*D9
  0
LINE
  5
21D
330
21A
100
AcDbEntity
  8
치수문자_일반주서
 62
     0
370
    -2
100
AcDbLine
 10
235.7750000000001
 20
38.30065299560645
 30
0.0
 11
235.7750000000001
 21
53.35400000000008
 31
0.0
  0
LINE
  5
21E
330
21A
100
AcDbEntity
  8
치수문자_일반주서
 62
     0
370
    -2
100
AcDbLine
 10
83.3750000000002
 20
38.39308842807867
 30
0.0
 11
83.3750000000002
 21
53.35400000000008
 31
0.0
  0
LINE
  5
21F
330
21A
100
AcDbEntity
  8
치수문자_일반주서
 62
     0
370
    -2
100
AcDbLine
 10
232.4730000000001
 20
53.35400000000008
 30
0.0
 11
86.67700000000019
 21
53.35400000000008
 31
0.0
  0
SOLID
  5
220
330
21A
100
AcDbEntity
  8
치수문자_일반주서
 62
     0
100
AcDbTrace
 10
232.4730000000001
 20
52.80366666666674
 30
0.0
 11
232.4730000000001
 21
53.90433333333341
 31
0.0
 12
235.7750000000001
 22
53.35400000000008
 32
0.0
 13
235.7750000000001
 23
53.35400000000008
 33
0.0
  0
SOLID
  5
221
330
21A
100
AcDbEntity
  8
치수문자_일반주서
 62
     0
100
AcDbTrace
 10
86.67700000000019
 20
53.90433333333341
 30
0.0
 11
86.67700000000019
 21
52.80366666666674
 31
0.0
 12
83.3750000000002
 22
53.35400000000008
 32
0.0
 13
83.3750000000002
 23
53.35400000000008
 33
0.0
  0
MTEXT
  5
222
330
21A
100
AcDbEntity
  8
치수문자_일반주서
 62
     0
100
AcDbMText
 10
159.5750000000002
 20
58.22900000000008
 30
0.0
 40
4.0
 41
0.0
 71
     2
 72
     1
  1
\A1;152.4 [6]
  7
SLDTEXTSTYLE0
 73
     1
 44
1.0
  0
POINT
  5
223
330
21A
100
AcDbEntity
  8
Defpoints
 62
     0
100
AcDbPoint
 10
235.7750000000001
 20
38.23815299560645
 30
0.0
  0
POINT
  5
224
330
21A
100
AcDbEntity
  8
Defpoints
 62
     0
100
AcDbPoint
 10
83.3750000000002
 20
38.33058842807867
 30
0.0
  0
POINT
  5
225
330
21A
100
AcDbEntity
  8
Defpoints
 62
     0
100
AcDbPoint
 10
83.3750000000002
 20
53.35400000000008
 30
0.0
  0
ENDBLK
  5
21C
330
21A
100
AcDbEntity
  8
0
100
AcDbBlockEnd
  0
BLOCK
  5
227
330
226
100
AcDbEntity
  8
0
100
AcDbBlockBegin
  2
*D10
 70
     1
 10
0.0
 20
0.0
 30
0.0
  3
*D10
  1
*D10
  0
LINE
  5
229
330
226
100
AcDbEntity
  8
치수문자_일반주서
 62
     0
370
    -2
100
AcDbLine
 10
235.7750000000001
 20
38.30065299560645
 30
0.0
 11
235.7750000000001
 21
68.35400000000008
 31
0.0
  0
LINE
  5
22A
330
226
100
AcDbEntity
  8
치수문자_일반주서
 62
     0
370
    -2
100
AcDbLine
 10
19.87500000000016
 20
36.51150000000008
 30
0.0
 11
19.87500000000016
 21
68.35400000000008
 31
0.0
  0
LINE
  5
22B
330
226
100
AcDbEntity
  8
치수문자_일반주서
 62
     0
370
    -2
100
AcDbLine
 10
232.4730000000001
 20
68.35400000000008
 30
0.0
 11
23.17700000000016
 21
68.35400000000008
 31
0.0
  0
SOLID
  5
22C
330
226
100
AcDbEntity
  8
치수문자_일반주서
 62
     0
100
AcDbTrace
 10
232.4730000000001
 20
67.80366666666676
 30
0.0
 11
232.4730000000001
 21
68.90433333333341
 31
0.0
 12
235.7750000000001
 22
68.35400000000008
 32
0.0
 13
235.7750000000001
 23
68.35400000000008
 33
0.0
  0
SOLID
  5
22D
330
226
100
AcDbEntity
  8
치수문자_일반주서
 62
     0
100
AcDbTrace
 10
23.17700000000016
 20
68.90433333333341
 30
0.0
 11
23.17700000000016
 21
67.80366666666676
 31
0.0
 12
19.87500000000016
 22
68.35400000000008
 32
0.0
 13
19.87500000000016
 23
68.35400000000008
 33
0.0
  0
MTEXT
  5
22E
330
226
100
AcDbEntity
  8
치수문자_일반주서
 62
     0
100
AcDbMText
 10
127.8250000000002
 20
73.22900000000008
 30
0.0
 40
4.0
 41
0.0
 71
     2
 72
     1
  1
\A1;215.9 [8 1/2]
  7
SLDTEXTSTYLE0
 73
     1
 44
1.0
  0
POINT
  5
22F
330
226
100
AcDbEntity
  8
Defpoints
 62
     0
100
AcDbPoint
 10
235.7750000000001
 20
38.23815299560645
 30
0.0
  0
POINT
  5
230
330
226
100
AcDbEntity
  8
Defpoints
 62
     0
100
AcDbPoint
 10
19.87500000000016
 20
36.44900000000008
 30
0.0
  0
POINT
  5
231
330
226
100
AcDbEntity
  8
Defpoints
 62
     0
100
AcDbPoint
 10
19.87500000000016
 20
68.35400000000008
 30
0.0
  0
ENDBLK
  5
228
330
226
100
AcDbEntity
  8
0
100
AcDbBlockEnd
  0
BLOCK
  5
233
330
232
100
AcDbEntity
  8
0
100
AcDbBlockBegin
  2
*D11
 70
     1
 10
0.0
 20
0.0
 30
0.0
  3
*D11
  1
*D11
  0
LINE
  5
235
330
232
100
AcDbEntity
  8
치수문자_일반주서
 62
     0
370
    -2
100
AcDbLine
 10
235.8375000000001
 20
38.35400000000008
 30
0.0
 11
250.7750000000001
 21
38.35400000000014
 31
0.0
  0
LINE
  5
236
330
232
100
AcDbEntity
  8
치수문자_일반주서
 62
     0
370
    -2
100
AcDbLine
 10
235.8375000000001
 20
6.604000000000058
 30
0.0
 11
250.7750000000003
 21
6.604000000000113
 31
0.0
  0
LINE
  5
237
330
232
100
AcDbEntity
  8
치수문자_일반주서
 62
     0
370
    -2
100
AcDbLine
 10
250.7750000000001
 20
38.35400000000014
 30
0.0
 11
250.775
 21
84.97543577138471
 31
0.0
  0
LINE
  5
238
330
232
100
AcDbEntity
  8
치수문자_일반주서
 62
     0
370
    -2
100
AcDbLine
 10
250.7750000000001
 20
35.05200000000014
 30
0.0
 11
250.7750000000003
 21
9.906000000000112
 31
0.0
  0
SOLID
  5
239
330
232
100
AcDbEntity
  8
치수문자_일반주서
 62
     0
100
AcDbTrace
 10
251.3253333333335
 20
35.05200000000014
 30
0.0
 11
250.2246666666668
 21
35.05200000000014
 31
0.0
 12
250.7750000000001
 22
38.35400000000014
 32
0.0
 13
250.7750000000001
 23
38.35400000000014
 33
0.0
  0
SOLID
  5
23A
330
232
100
AcDbEntity
  8
치수문자_일반주서
 62
     0
100
AcDbTrace
 10
250.2246666666669
 20
9.90600000000011
 30
0.0
 11
251.3253333333336
 21
9.906000000000114
 31
0.0
 12
250.7750000000003
 22
6.604000000000113
 32
0.0
 13
250.7750000000003
 23
6.604000000000113
 33
0.0
  0
MTEXT
  5
23B
330
232
100
AcDbEntity
  8
치수문자_일반주서
 62
     0
100
AcDbMText
 10
245.9
 20
67.1004357713847
 30
0.0
 40
4.0
 41
0.0
 71
     2
 72
     1
  1
\A1;%%c31.75 [1 1/4]
  7
SLDTEXTSTYLE0
 11
-3.580687802255620E-15
 21
1.0
 31
0.0
 73
     1
 44
1.0
  0
POINT
  5
23C
330
232
100
AcDbEntity
  8
Defpoints
 62
     0
100
AcDbPoint
 10
235.7750000000001
 20
38.35400000000008
 30
0.0
  0
POINT
  5
23D
330
232
100
AcDbEntity
  8
Defpoints
 62
     0
100
AcDbPoint
 10
235.7750000000001
 20
6.604000000000058
 30
0.0
  0
POINT
  5
23E
330
232
100
AcDbEntity
  8
Defpoints
 62
     0
100
AcDbPoint
 10
250.7750000000002
 20
6.604000000000114
 30
0.0
  0
ENDBLK
  5
234
330
232
100
AcDbEntity
  8
0
100
AcDbBlockEnd
  0
BLOCK
  5
2A2
330
2A1
100
AcDbEntity
  8
0
100
AcDbBlockBegin
  2
*D12
 70
     1
 10
0.0
 20
0.0
 30
0.0
  3
*D12
  1
*D12
  0
LINE
  5
2A4
330
2A1
100
AcDbEntity
  8
치수문자_일반주서
 62
     0
370
    -2
100
AcDbLine
 10
-36.95749999999995
 20
15.87499999999984
 30
0.0
 11
-66.49999999999997
 21
15.87499999999973
 31
0.0
  0
LINE
  5
2A5
330
2A1
100
AcDbEntity
  8
치수문자_일반주서
 62
     0
370
    -2
100
AcDbLine
 10
-48.38749999999993
 20
-15.87500000000016
 30
0.0
 11
-66.49999999999986
 21
-15.87500000000023
 31
0.0
  0
LINE
  5
2A6
330
2A1
100
AcDbEntity
  8
치수문자_일반주서
 62
     0
370
    -2
100
AcDbLine
 10
-66.49999999999997
 20
15.87499999999973
 30
0.0
 11
-66.50000000000013
 21
58.22899999999974
 31
0.0
  0
LINE
  5
2A7
330
2A1
100
AcDbEntity
  8
치수문자_일반주서
 62
     0
370
    -2
100
AcDbLine
 10
-66.49999999999996
 20
12.57299999999973
 30
0.0
 11
-66.49999999999987
 21
-12.57300000000023
 31
0.0
  0
SOLID
  5
2A8
330
2A1
100
AcDbEntity
  8
치수문자_일반주서
 62
     0
100
AcDbTrace
 10
-65.94966666666663
 20
12.57299999999974
 30
0.0
 11
-67.05033333333328
 21
12.57299999999973
 31
0.0
 12
-66.49999999999997
 22
15.87499999999973
 32
0.0
 13
-66.49999999999997
 23
15.87499999999973
 33
0.0
  0
SOLID
  5
2A9
330
2A1
100
AcDbEntity
  8
치수문자_일반주서
 62
     0
100
AcDbTrace
 10
-67.0503333333332
 20
-12.57300000000024
 30
0.0
 11
-65.94966666666654
 21
-12.57300000000023
 31
0.0
 12
-66.49999999999986
 22
-15.87500000000023
 32
0.0
 13
-66.49999999999986
 23
-15.87500000000023
 33
0.0
  0
MTEXT
  5
2AA
330
2A1
100
AcDbEntity
  8
치수문자_일반주서
 62
     0
100
AcDbMText
 10
-71.37500000000006
 20
40.35399999999972
 30
0.0
 40
4.0
 41
0.0
 71
     2
 72
     1
  1
\A1;%%c31.75 [1 1/4]
  7
SLDTEXTSTYLE0
 11
-3.580687802255628E-15
 21
1.0
 31
0.0
 73
     1
 44
1.0
  0
POINT
  5
2AB
330
2A1
100
AcDbEntity
  8
Defpoints
 62
     0
100
AcDbPoint
 10
-36.89499999999995
 20
15.87499999999984
 30
0.0
  0
POINT
  5
2AC
330
2A1
100
AcDbEntity
  8
Defpoints
 62
     0
100
AcDbPoint
 10
-48.32499999999993
 20
-15.87500000000016
 30
0.0
  0
POINT
  5
2AD
330
2A1
100
AcDbEntity
  8
Defpoints
 62
     0
100
AcDbPoint
 10
-66.49999999999986
 20
-15.87500000000023
 30
0.0
  0
ENDBLK
  5
2A3
330
2A1
100
AcDbEntity
  8
0
100
AcDbBlockEnd
  0
BLOCK
  5
2AF
330
2AE
100
AcDbEntity
  8
0
100
AcDbBlockBegin
  2
*D13
 70
     1
 10
0.0
 20
0.0
 30
0.0
  3
*D13
  1
*D13
  0
LINE
  5
2B1
330
2AE
100
AcDbEntity
  8
치수문자_일반주서
 62
     0
370
    -2
100
AcDbLine
 10
215.2
 20
15.82165299560622
 30
0.0
 11
215.2
 21
30.87499999999985
 31
0.0
  0
LINE
  5
2B2
330
2AE
100
AcDbEntity
  8
치수문자_일반주서
 62
     0
370
    -2
100
AcDbLine
 10
12.0
 20
19.11249999999998
 30
0.0
 11
12.0
 21
30.87499999999985
 31
0.0
  0
LINE
  5
2B3
330
2AE
100
AcDbEntity
  8
치수문자_일반주서
 62
     0
370
    -2
100
AcDbLine
 10
211.898
 20
30.87499999999985
 30
0.0
 11
15.302
 21
30.87499999999985
 31
0.0
  0
SOLID
  5
2B4
330
2AE
100
AcDbEntity
  8
치수문자_일반주서
 62
     0
100
AcDbTrace
 10
211.898
 20
30.32466666666652
 30
0.0
 11
211.898
 21
31.42533333333319
 31
0.0
 12
215.2
 22
30.87499999999985
 32
0.0
 13
215.2
 23
30.87499999999985
 33
0.0
  0
SOLID
  5
2B5
330
2AE
100
AcDbEntity
  8
치수문자_일반주서
 62
     0
100
AcDbTrace
 10
15.302
 20
31.42533333333319
 30
0.0
 11
15.302
 21
30.32466666666652
 31
0.0
 12
12.0
 22
30.87499999999985
 32
0.0
 13
12.0
 23
30.87499999999985
 33
0.0
  0
MTEXT
  5
2B6
330
2AE
100
AcDbEntity
  8
치수문자_일반주서
 62
     0
100
AcDbMText
 10
139.0000000000001
 20
35.74999999999985
 30
0.0
 40
4.0
 41
0.0
 71
     2
 72
     1
  1
\A1;203.2 [8]
  7
SLDTEXTSTYLE0
 73
     1
 44
1.0
  0
POINT
  5
2B7
330
2AE
100
AcDbEntity
  8
Defpoints
 62
     0
100
AcDbPoint
 10
215.2
 20
15.75915299560622
 30
0.0
  0
POINT
  5
2B8
330
2AE
100
AcDbEntity
  8
Defpoints
 62
     0
100
AcDbPoint
 10
12.0
 20
19.04999999999998
 30
0.0
  0
POINT
  5
2B9
330
2AE
100
AcDbEntity
  8
Defpoints
 62
     0
100
AcDbPoint
 10
12.0
 20
30.87499999999985
 30
0.0
  0
ENDBLK
  5
2B0
330
2AE
100
AcDbEntity
  8
0
100
AcDbBlockEnd
  0
BLOCK
  5
2BB
330
2BA
100
AcDbEntity
  8
0
100
AcDbBlockBegin
  2
*D14
 70
     1
 10
0.0
 20
0.0
 30
0.0
  3
*D14
  1
*D14
  0
LINE
  5
2BD
330
2BA
100
AcDbEntity
  8
치수문자_일반주서
 62
     0
370
    -2
100
AcDbLine
 10
215.2
 20
15.82165299560622
 30
0.0
 11
215.2
 21
45.87499999999986
 31
0.0
  0
LINE
  5
2BE
330
2BA
100
AcDbEntity
  8
치수문자_일반주서
 62
     0
370
    -2
100
AcDbLine
 10
-51.49999999999996
 20
14.03249999999985
 30
0.0
 11
-51.49999999999997
 21
45.87499999999986
 31
0.0
  0
LINE
  5
2BF
330
2BA
100
AcDbEntity
  8
치수문자_일반주서
 62
     0
370
    -2
100
AcDbLine
 10
211.898
 20
45.87499999999986
 30
0.0
 11
-48.19799999999997
 21
45.87499999999986
 31
0.0
  0
SOLID
  5
2C0
330
2BA
100
AcDbEntity
  8
치수문자_일반주서
 62
     0
100
AcDbTrace
 10
211.898
 20
45.32466666666652
 30
0.0
 11
211.898
 21
46.42533333333319
 31
0.0
 12
215.2
 22
45.87499999999986
 32
0.0
 13
215.2
 23
45.87499999999986
 33
0.0
  0
SOLID
  5
2C1
330
2BA
100
AcDbEntity
  8
치수문자_일반주서
 62
     0
100
AcDbTrace
 10
-48.19799999999997
 20
46.42533333333319
 30
0.0
 11
-48.19799999999997
 21
45.32466666666652
 31
0.0
 12
-51.49999999999997
 22
45.87499999999986
 32
0.0
 13
-51.49999999999997
 23
45.87499999999986
 33
0.0
  0
MTEXT
  5
2C2
330
2BA
100
AcDbEntity
  8
치수문자_일반주서
 62
     0
100
AcDbMText
 10
81.85
 20
50.74999999999986
 30
0.0
 40
4.0
 41
0.0
 71
     2
 72
     1
  1
\A1;266.7 [10 1/2]
  7
SLDTEXTSTYLE0
 73
     1
 44
1.0
  0
POINT
  5
2C3
330
2BA
100
AcDbEntity
  8
Defpoints
 62
     0
100
AcDbPoint
 10
215.2
 20
15.75915299560622
 30
0.0
  0
POINT
  5
2C4
330
2BA
100
AcDbEntity
  8
Defpoints
 62
     0
100
AcDbPoint
 10
-51.49999999999996
 20
13.96999999999985
 30
0.0
  0
POINT
  5
2C5
330
2BA
100
AcDbEntity
  8
Defpoints
 62
     0
100
AcDbPoint
 10
-51.49999999999996
 20
45.87499999999986
 30
0.0
  0
ENDBLK
  5
2BC
330
2BA
100
AcDbEntity
  8
0
100
AcDbBlockEnd
  0
BLOCK
  5
2C7
330
2C6
100
AcDbEntity
  8
0
100
AcDbBlockBegin
  2
*D15
 70
     1
 10
0.0
 20
0.0
 30
0.0
  3
*D15
  1
*D15
  0
LINE
  5
2C9
330
2C6
100
AcDbEntity
  8
치수문자_일반주서
 62
     0
370
    -2
100
AcDbLine
 10
215.2625
 20
19.04999999999982
 30
0.0
 11
230.2
 21
19.04999999999987
 31
0.0
  0
LINE
  5
2CA
330
2C6
100
AcDbEntity
  8
치수문자_일반주서
 62
     0
370
    -2
100
AcDbLine
 10
215.2625
 20
-19.05000000000019
 30
0.0
 11
230.2000000000002
 21
-19.05000000000013
 31
0.0
  0
LINE
  5
2CB
330
2C6
100
AcDbEntity
  8
치수문자_일반주서
 62
     0
370
    -2
100
AcDbLine
 10
230.2
 20
19.04999999999987
 30
0.0
 11
230.1999999999999
 21
66.26498359472751
 31
0.0
  0
LINE
  5
2CC
330
2C6
100
AcDbEntity
  8
치수문자_일반주서
 62
     0
370
    -2
100
AcDbLine
 10
230.2
 20
15.74799999999987
 30
0.0
 11
230.2000000000002
 21
-15.74800000000013
 31
0.0
  0
SOLID
  5
2CD
330
2C6
100
AcDbEntity
  8
치수문자_일반주서
 62
     0
100
AcDbTrace
 10
230.7503333333334
 20
15.74799999999987
 30
0.0
 11
229.6496666666667
 21
15.74799999999987
 31
0.0
 12
230.2
 22
19.04999999999987
 32
0.0
 13
230.2
 23
19.04999999999987
 33
0.0
  0
SOLID
  5
2CE
330
2C6
100
AcDbEntity
  8
치수문자_일반주서
 62
     0
100
AcDbTrace
 10
229.6496666666669
 20
-15.74800000000013
 30
0.0
 11
230.7503333333335
 21
-15.74800000000013
 31
0.0
 12
230.2000000000002
 22
-19.05000000000013
 32
0.0
 13
230.2000000000002
 23
-19.05000000000013
 33
0.0
  0
MTEXT
  5
2CF
330
2C6
100
AcDbEntity
  8
치수문자_일반주서
 62
     0
100
AcDbMText
 10
225.3249999999999
 20
49.88998359472748
 30
0.0
 40
4.0
 41
0.0
 71
     2
 72
     1
  1
\A1;%%c38.1 [1 1/2]
  7
SLDTEXTSTYLE0
 11
-3.729883127349607E-15
 21
1.0
 31
0.0
 73
     1
 44
1.0
  0
POINT
  5
2D0
330
2C6
100
AcDbEntity
  8
Defpoints
 62
     0
100
AcDbPoint
 10
215.2
 20
19.04999999999982
 30
0.0
  0
POINT
  5
2D1
330
2C6
100
AcDbEntity
  8
Defpoints
 62
     0
100
AcDbPoint
 10
215.2
 20
-19.05000000000019
 30
0.0
  0
POINT
  5
2D2
330
2C6
100
AcDbEntity
  8
Defpoints
 62
     0
100
AcDbPoint
 10
230.2000000000002
 20
-19.05000000000013
 30
0.0
  0
ENDBLK
  5
2C8
330
2C6
100
AcDbEntity
  8
0
100
AcDbBlockEnd
  0
ENDSEC
  0
SECTION
  2
ENTITIES
  0
LINE
  5
B5
330
1F
100
AcDbEntity
  8
참조1
100
AcDbLine
 10
69.21194598552448
 20
0.00107492872374
 30
0.0
 11
69.2119459855245
 21
-39.99892507127626
 31
0.0
  0
LINE
  5
B6
330
1F
100
AcDbEntity
  8
참조1
100
AcDbLine
 10
69.2119459855245
 20
-39.99892507127626
 30
0.0
 11
54.05308917121581
 21
-39.99892507127625
 31
0.0
  0
INSERT
  5
B8
330
1F
100
AcDbEntity
  8
0
  6
Continuous
 62
     7
100
AcDbBlockReference
 66
     1
  2
블럭10
 10
55.27167305339928
 20
-52.04609937292019
 30
0.0
  0
ATTRIB
  5
B9
330
B8
100
AcDbEntity
  8
FORMAT
 62
     2
100
AcDbText
 10
46.090377764658
 20
-49.970732460088
 30
0.0
 40
4.233333333333333
  1
E1037132 [ 6 FLUTE ]
 41
0.75
  7
SLDTEXTSTYLE0
 11
46.090377764658
 21
-52.08739912675467
 31
0.0
100
AcDbAttribute
  2
AUTOATTR0
 70
     0
 74
     1
  0
SEQEND
  5
BA
330
B8
100
AcDbEntity
  8
0
  6
Continuous
 62
     7
  0
HATCH
  5
BB
330
1F
100
AcDbEntity
  8
중심선
100
AcDbHatch
 10
0.0
 20
0.0
 30
0.0
210
0.0
220
0.0
230
1.0
  2
SOLID
 70
     1
 71
     0
 91
        1
 92
        0
 93
        4
 72
     1
 10
60.98658235778012
 20
-35.79892507127625
 11
57.54030711394283
 21
-35.79892507127625
 72
     1
 10
57.54030711394283
 20
-35.79892507127625
 11
55.4120772547388
 21
-38.33525065184885
 72
     1
 10
55.41207725473881
 20
-38.33525065184885
 11
58.85838558368924
 21
-38.33521122254636
 72
     1
 10
58.85838558368924
 20
-38.33521122254636
 11
60.98658235778012
 21
-35.79892507127625
 97
        0
 75
     0
 76
     1
 98
        1
 10
50.80000000000089
 20
-0.0000000000001492
  0
HATCH
  5
BC
330
1F
100
AcDbEntity
  8
중심선
100
AcDbHatch
 10
0.0
 20
0.0
 30
0.0
210
0.0
220
0.0
230
1.0
  2
SOLID
 70
     1
 71
     0
 91
        1
 92
        0
 93
        4
 72
     1
 10
65.99934634881609
 20
-35.79892507127625
 11
62.55307110497881
 21
-35.79892507127625
 72
     1
 10
62.55307110497881
 20
-35.79892507127625
 11
58.0219330966214
 21
-41.19892507127627
 72
     1
 10
58.0219330966214
 20
-41.19892507127627
 11
61.46820834045867
 21
-41.19892507127627
 72
     1
 10
61.46820834045867
 20
-41.19892507127627
 11
65.99934634881609
 21
-35.79892507127625
 97
        0
 75
     0
 76
     1
 98
        1
 10
50.80000000000089
 20
-0.0000000000001492
  0
HATCH
  5
BD
330
1F
100
AcDbEntity
  8
중심선
100
AcDbHatch
 10
0.0
 20
0.0
 30
0.0
210
0.0
220
0.0
230
1.0
  2
SOLID
 70
     1
 71
     0
 91
        1
 92
        0
 93
        4
 72
     1
 10
71.01211033985196
 20
-35.79892507127625
 11
67.56583509601484
 21
-35.79892507127625
 72
     1
 10
67.56583509601485
 20
-35.79892507127625
 11
60.5173981941256
 21
-44.19892507127627
 72
     1
 10
60.5173981941256
 20
-44.19892507127627
 11
63.96367343796288
 21
-44.19892507127627
 72
     1
 10
63.96367343796288
 20
-44.19892507127627
 11
71.01211033985197
 21
-35.79892507127625
 97
        0
 75
     0
 76
     1
 98
        1
 10
50.80000000000089
 20
-0.0000000000001492
  0
HATCH
  5
BE
330
1F
100
AcDbEntity
  8
중심선
100
AcDbHatch
 10
0.0
 20
0.0
 30
0.0
210
0.0
220
0.0
230
1.0
  2
SOLID
 70
     1
 71
     0
 91
        1
 92
        0
 93
        6
 72
     3
 10
75.81200077086416
 20
-39.99892507132753
 11
3.960054785062283
 21
1.540882976769353E-10
 40
0.3939339440162628
 50
17.09539180608439
 51
320.0019657685075
 73
     0
 72
     1
 10
77.49500042656476
 20
-38.58681907591453
 11
79.8003023002658
 21
-36.65249236586664
 72
     3
 10
75.81200077081131
 20
-39.9989250712764
 11
6.600054785286829
 21
-1.278976924368180E-13
 40
0.636358354079598
 50
39.99873849337408
 51
368.4976242363725
 73
     1
 72
     1
 10
82.23733326271193
 20
-39.03892507120628
 11
74.49206807764725
 21
-39.03892507120625
 72
     1
 10
74.49206807764723
 20
-39.03892507120625
 11
74.4920430332013
 21
-40.95892507120617
 72
     1
 10
74.4920430332013
 20
-40.95892507120617
 11
78.93342280267333
 21
-40.95892507120614
 97
        0
 75
     0
 76
     1
 98
        1
 10
50.80000000000089
 20
-0.0000000000001492
  0
LINE
  5
10F
330
1F
100
AcDbEntity
  8
참조1
100
AcDbLine
 10
152.0254298008701
 20
7.441074928723746
 30
0.0
 11
152.0254298008701
 21
-7.438925071276258
 31
0.0
  0
LINE
  5
110
330
1F
100
AcDbEntity
  8
참조1
100
AcDbLine
 10
164.7254298008701
 20
5.441074928723746
 30
0.0
 11
152.0254298008701
 21
5.441074928723746
 31
0.0
  0
SOLID
  5
111
330
1F
100
AcDbEntity
  8
참조1
100
AcDbTrace
 10
152.0254298008701
 20
5.441074928723746
 30
0.0
 11
158.3754298008701
 21
4.425074928723746
 31
0.0
 12
158.3754298008701
 22
6.457074928723746
 32
0.0
 13
158.3754298008701
 23
6.457074928723746
 33
0.0
  0
LINE
  5
112
330
1F
100
AcDbEntity
  8
참조1
100
AcDbLine
 10
164.7254298008701
 20
-5.438925071276258
 30
0.0
 11
152.0254298008701
 21
-5.438925071276258
 31
0.0
  0
SOLID
  5
113
330
1F
100
AcDbEntity
  8
참조1
100
AcDbTrace
 10
152.0254298008701
 20
-5.438925071276258
 30
0.0
 11
158.3754298008701
 21
-6.454925071276258
 31
0.0
 12
158.3754298008701
 22
-4.422925071276258
 32
0.0
 13
158.3754298008701
 23
-4.422925071276258
 33
0.0
  0
MTEXT
  5
114
330
1F
100
AcDbEntity
  8
참조1
100
AcDbMText
 10
161.4229198933403
 20
10.98929157337368
 30
0.0
 40
3.5
 41
0.0
 71
     1
 72
     1
  1
A
  7
SLDTEXTSTYLE0
 73
     1
 44
1.0
  0
MTEXT
  5
115
330
1F
100
AcDbEntity
  8
참조1
100
AcDbMText
 10
161.4229198933403
 20
0.1092915733736767
 30
0.0
 40
3.5
 41
0.0
 71
     1
 72
     1
  1
A
  7
SLDTEXTSTYLE0
 73
     1
 44
1.0
  0
LINE
  5
240
330
1F
100
AcDbEntity
  8
0
  6
Continuous
 62
     1
370
    15
100
AcDbLine
 10
139.4438382598079
 20
3.611897590040187
 30
0.0
 11
139.2384931955679
 21
3.810532835027559
 31
0.0
1001
PE_URL
1000

  0
LINE
  5
241
330
1F
100
AcDbEntity
  8
0
  6
Continuous
 62
     1
370
    15
100
AcDbLine
 10
131.4177986626127
 20
-3.666332458919671
 30
0.0
 11
131.5658764034067
 21
-3.809163063222477
 31
0.0
1001
PE_URL
1000

  0
LINE
  5
242
330
1F
100
AcDbEntity
  8
0
  6
Continuous
 62
     1
370
    15
100
AcDbLine
 10
51.6399217531926
 20
-3.682357723200568
 30
0.0
 11
51.7715133092733
 21
-3.809913159625673
 31
0.0
1001
PE_URL
1000

  0
LINE
  5
243
330
1F
100
AcDbEntity
  8
0
  6
Continuous
 62
     1
370
    15
100
AcDbLine
 10
159.3226669460179
 20
3.677601218553747
 30
0.0
 11
159.1878918799778
 21
3.809965828085902
 31
0.0
1001
PE_URL
1000

  0
LINE
  5
244
330
1F
100
AcDbEntity
  8
0
  6
Continuous
 62
     1
370
    15
100
AcDbLine
 10
151.3748238619525
 20
-3.672567249923363
 30
0.0
 11
151.5179413859194
 21
-3.81046955544299
 31
0.0
1001
PE_URL
1000

  0
LINE
  5
245
330
1F
100
AcDbEntity
  8
0
  6
Continuous
 62
     1
370
    15
100
AcDbLine
 10
153.0483482145962
 20
-19.05000000000019
 30
0.0
 11
157.6545629139646
 21
-19.05000000000019
 31
0.0
1001
PE_URL
1000

  0
LINE
  5
246
330
1F
100
AcDbEntity
  8
0
  6
Continuous
 62
     1
370
    15
100
AcDbLine
 10
33.3536923098609
 20
-19.05000000000019
 30
0.0
 11
37.96035653272174
 21
-19.05000000000019
 31
0.0
1001
PE_URL
1000

  0
LINE
  5
247
330
1F
100
AcDbEntity
  8
0
  6
Continuous
 62
     1
370
    15
100
AcDbLine
 10
97.80681516206971
 20
19.04999999999982
 30
0.0
 11
93.2029314009719
 21
19.04999999999982
 31
0.0
1001
PE_URL
1000

  0
LINE
  5
248
330
1F
100
AcDbEntity
  8
0
  6
Continuous
 62
     1
370
    15
100
AcDbLine
 10
215.2
 20
19.04999999999982
 30
0.0
 11
212.8961165078193
 21
19.04999999999982
 31
0.0
1001
PE_URL
1000

  0
LINE
  5
249
330
1F
100
AcDbEntity
  8
0
  6
Continuous
 62
     1
370
    15
100
AcDbLine
 10
133.1012456542556
 20
-19.05000000000019
 30
0.0
 11
137.7063715512659
 21
-19.05000000000019
 31
0.0
1001
PE_URL
1000

  0
LINE
  5
24A
330
1F
100
AcDbEntity
  8
0
  6
Continuous
 62
     1
370
    15
100
AcDbLine
 10
77.85918837664924
 20
19.04999999999982
 30
0.0
 11
73.25501011887522
 21
19.04999999999982
 31
0.0
1001
PE_URL
1000

  0
LINE
  5
24B
330
1F
100
AcDbEntity
  8
0
  6
Continuous
 62
     1
370
    15
100
AcDbLine
 10
197.5535520910643
 20
19.04999999999982
 30
0.0
 11
192.947034240167
 21
19.04999999999982
 31
0.0
1001
PE_URL
1000

  0
LINE
  5
24C
330
1F
100
AcDbEntity
  8
0
  6
Continuous
 62
     1
370
    15
100
AcDbLine
 10
113.1514566115647
 20
-19.05000000000019
 30
0.0
 11
117.7570083674121
 21
-19.05000000000019
 31
0.0
1001
PE_URL
1000

  0
LINE
  5
24D
330
1F
100
AcDbEntity
  8
0
  6
Continuous
 62
     1
370
    15
100
AcDbLine
 10
57.90826108103875
 20
19.04999999999982
 30
0.0
 11
53.3043821232133
 21
19.04999999999982
 31
0.0
1001
PE_URL
1000

  0
LINE
  5
24E
330
1F
100
AcDbEntity
  8
0
  6
Continuous
 62
     1
370
    15
100
AcDbLine
 10
177.6057776781795
 20
19.04999999999982
 30
0.0
 11
172.9990856622976
 21
19.04999999999982
 31
0.0
1001
PE_URL
1000

  0
LINE
  5
24F
330
1F
100
AcDbEntity
  8
0
  6
Continuous
 62
     1
370
    15
100
AcDbLine
 10
212.8961165078193
 20
-19.05000000000019
 30
0.0
 11
215.2
 21
-19.05000000000019
 31
0.0
1001
PE_URL
1000

  0
LINE
  5
250
330
1F
100
AcDbEntity
  8
0
  6
Continuous
 62
     1
370
    15
100
AcDbLine
 10
93.2029314009719
 20
-19.05000000000019
 30
0.0
 11
97.80681516206992
 21
-19.05000000000019
 31
0.0
1001
PE_URL
1000

  0
LINE
  5
251
330
1F
100
AcDbEntity
  8
0
  6
Continuous
 62
     1
370
    15
100
AcDbLine
 10
37.9603565327218
 20
19.04999999999982
 30
0.0
 11
33.35369230986082
 21
19.04999999999982
 31
0.0
1001
PE_URL
1000

  0
LINE
  5
252
330
1F
100
AcDbEntity
  8
0
  6
Continuous
 62
     1
370
    15
100
AcDbLine
 10
157.6545629139646
 20
19.04999999999982
 30
0.0
 11
153.0483482145962
 21
19.04999999999982
 31
0.0
1001
PE_URL
1000

  0
LINE
  5
253
330
1F
100
AcDbEntity
  8
0
  6
Continuous
 62
     1
370
    15
100
AcDbLine
 10
192.9470342401669
 20
-19.05000000000019
 30
0.0
 11
197.5535520910644
 21
-19.05000000000019
 31
0.0
1001
PE_URL
1000

  0
LINE
  5
254
330
1F
100
AcDbEntity
  8
0
  6
Continuous
 62
     1
370
    15
100
AcDbLine
 10
73.2550101188751
 20
-19.05000000000019
 30
0.0
 11
77.8591883766492
 21
-19.05000000000019
 31
0.0
1001
PE_URL
1000

  0
LINE
  5
255
330
1F
100
AcDbEntity
  8
0
  6
Continuous
 62
     1
370
    15
100
AcDbLine
 10
137.7063715512659
 20
19.04999999999982
 30
0.0
 11
133.1012456542555
 21
19.04999999999982
 31
0.0
1001
PE_URL
1000

  0
LINE
  5
256
330
1F
100
AcDbEntity
  8
0
  6
Continuous
 62
     1
370
    15
100
AcDbLine
 10
172.9990856622974
 20
-19.05000000000019
 30
0.0
 11
177.6057776781793
 21
-19.05000000000019
 31
0.0
1001
PE_URL
1000

  0
LINE
  5
257
330
1F
100
AcDbEntity
  8
0
  6
Continuous
 62
     1
370
    15
100
AcDbLine
 10
53.30438212321317
 20
-19.05000000000019
 30
0.0
 11
57.90826108103863
 21
-19.05000000000019
 31
0.0
1001
PE_URL
1000

  0
LINE
  5
258
330
1F
100
AcDbEntity
  8
0
  6
Continuous
 62
     1
370
    15
100
AcDbLine
 10
117.7570083674119
 20
19.04999999999982
 30
0.0
 11
113.1514566115647
 21
19.04999999999982
 31
0.0
1001
PE_URL
1000

  0
LINE
  5
259
330
1F
100
AcDbEntity
  8
외형선
  6
Continuous
370
    15
100
AcDbLine
 10
-48.32499999999996
 20
-15.87500000000016
 30
0.0
 11
12.00000000000001
 21
-15.87500000000016
 31
0.0
  0
LINE
  5
25B
330
1F
100
AcDbEntity
  8
외형선
  6
Continuous
370
    15
100
AcDbLine
 10
-51.49999999999996
 20
-12.70000000000017
 30
0.0
 11
-48.32499999999996
 21
-15.87500000000016
 31
0.0
  0
LINE
  5
25C
330
1F
100
AcDbEntity
  8
0
  6
Continuous
 62
     1
370
    15
100
AcDbLine
 10
215.2
 20
11.3857022538036
 30
0.0
 11
215.2
 21
18.91098359472745
 31
0.0
1001
PE_URL
1000

  0
SPLINE
  5
25D
330
1F
100
AcDbEntity
  8
0
  6
Continuous
 62
     1
370
    15
100
AcDbSpline
210
0.0
220
0.0
230
1.0
 70
     8
 71
     3
 72
    28
 73
    24
 74
     0
 42
0.000000001
 43
0.00000001
 40
0.0
 40
0.0
 40
0.0
 40
0.0
 40
0.0380438584875185
 40
0.0867269030463782
 40
0.1354087679635503
 40
0.1840899723642639
 40
0.2327710358148329
 40
0.2814524779757174
 40
0.3301348182544408
 40
0.3788185754588818
 40
0.4275042674514468
 40
0.4761924108046137
 40
0.5248835204583706
 40
0.57357797885035
 40
0.6222712348413157
 40
0.670961199080663
 40
0.7196483852970795
 40
0.7683333090677161
 40
0.8170164874770743
 40
0.8656984387736906
 40
0.9143796820251208
 40
0.963060736771732
 40
1.0
 40
1.0
 40
1.0
 40
1.0
 10
77.85918837664924
 20
19.00162092366864
 30
0.0
 10
78.7153909723489
 20
18.98764585763726
 30
0.0
 10
80.66723819440872
 20
18.95578751715987
 30
0.0
 10
83.7146310784463
 20
18.23660926930629
 30
0.0
 10
87.0013871449401
 20
16.98521934268604
 30
0.0
 10
90.28807412408142
 20
15.21174204500841
 30
0.0
 10
93.57474740277787
 20
12.9912338691342
 30
0.0
 10
96.86145890780301
 20
10.38362782450947
 30
0.0
 10
100.1482613685442
 20
7.467953199912724
 30
0.0
 10
103.4352075913131
 20
4.330347921038857
 30
0.0
 10
106.7223488625673
 20
1.0640879572846
 30
0.0
 10
110.009741826047
 20
-2.233864548076296
 30
0.0
 10
113.2974193961279
 20
-5.465569713960757
 30
0.0
 10
116.5853772567116
 20
-8.534879284720912
 30
0.0
 10
119.8732388460836
 20
-11.35069903145041
 30
0.0
 10
123.1608102170156
 20
-13.82934501166517
 30
0.0
 10
126.4481044218211
 20
-15.89706096099515
 30
0.0
 10
129.7351683648665
 20
-17.49289803285147
 30
0.0
 10
133.0220558737383
 20
-18.56794009538793
 30
0.0
 10
136.3088187978271
 20
-19.09609727248569
 30
0.0
 10
139.5955107712766
 20
-19.0400278591382
 30
0.0
 10
142.6179278170626
 20
-18.52713956808008
 30
0.0
 10
144.5447990244617
 20
-17.79442104521432
 30
0.0
 10
145.3761110824005
 20
-17.47830352745052
 30
0.0
1001
PE_URL
1000

  0
SPLINE
  5
25E
330
1F
100
AcDbEntity
  8
0
  6
Continuous
 62
     1
370
    15
100
AcDbSpline
210
0.0
220
0.0
230
1.0
 70
     8
 71
     3
 72
    13
 73
     9
 74
     0
 42
0.000000001
 43
0.00000001
 40
0.0
 40
0.0
 40
0.0
 40
0.0
 40
0.068546145928444
 40
0.2548188868345339
 40
0.4410986683164687
 40
0.6273874678863465
 40
0.8136872570492888
 40
1.0
 40
1.0
 40
1.0
 40
1.0
 10
197.5535520910643
 20
18.98409460018952
 30
0.0
 10
197.9567268815732
 20
19.00143871597795
 30
0.0
 10
199.4555208681014
 20
19.06591510948593
 30
0.0
 10
202.0500180149976
 20
18.59024560972375
 30
0.0
 10
205.3371177749644
 20
17.57582109151798
 30
0.0
 10
208.6244611990938
 20
15.99567007789802
 30
0.0
 10
211.912085386315
 20
13.97464051407533
 30
0.0
 10
214.1040030616028
 20
12.28819228683441
 30
0.0
 10
215.2
 20
11.4449388587243
 30
0.0
1001
PE_URL
1000

  0
SPLINE
  5
25F
330
1F
100
AcDbEntity
  8
0
  6
Continuous
 62
     1
370
    15
100
AcDbSpline
210
0.0
220
0.0
230
1.0
 70
     8
 71
     3
 72
    11
 73
     7
 74
     0
 42
0.000000001
 43
0.00000001
 40
0.0
 40
0.0
 40
0.0
 40
0.0
 40
0.3295758130043118
 40
0.6591287115527
 40
0.9886621701851208
 40
0.9999999999999999
 40
0.9999999999999999
 40
0.9999999999999999
 40
0.9999999999999999
 10
215.2
 20
18.91098359472745
 30
0.0
 10
214.1040026182051
 20
18.99190487009037
 30
0.0
 10
211.9120840561528
 20
19.15374179459329
 30
0.0
 10
208.6244665191801
 20
18.62144729911818
 30
0.0
 10
206.395129203263
 20
18.06350079572901
 30
0.0
 10
205.2616786555672
 20
17.53493175806775
 30
0.0
 10
205.2239785914994
 20
17.5173508529064
 30
0.0
1001
PE_URL
1000

  0
SPLINE
  5
260
330
1F
100
AcDbEntity
  8
0
  6
Continuous
 62
     1
370
    15
100
AcDbSpline
210
0.0
220
0.0
230
1.0
 70
     8
 71
     3
 72
    29
 73
    25
 74
     0
 42
0.000000001
 43
0.00000001
 40
0.0
 40
0.0
 40
0.0
 40
0.0
 40
0.0045287099762297
 40
0.0532118901874427
 40
0.1018937009269429
 40
0.1505746610673378
 40
0.1992552900491759
 40
0.2479361075341841
 40
0.2966176330581853
 40
0.3453003856841971
 40
0.3939848836562219
 40
0.4426716440542392
 40
0.4913611824508906
 40
0.5400540125703712
 40
0.5887480450803491
 40
0.6374387288813921
 40
0.686126446407789
 40
0.7348117125950228
 40
0.783495044011055
 40
0.8321769585137605
 40
0.8808579749064834
 40
0.9295386125922032
 40
0.9782193912268343
 40
0.9999999999999999
 40
0.9999999999999999
 40
0.9999999999999999
 40
0.9999999999999999
 10
153.0483482145962
 20
-19.02611724163564
 30
0.0
 10
152.9464251502065
 20
-19.03392974345042
 30
0.0
 10
151.7488393170793
 20
-19.12572585996903
 30
0.0
 10
149.4556849799076
 20
-18.7680947441171
 30
0.0
 10
146.1688871759798
 20
-17.91950856771784
 30
0.0
 10
142.8821829072127
 20
-16.47941592292204
 30
0.0
 10
139.5955102137805
 20
-14.56581120495791
 30
0.0
 10
136.3088189472103
 20
-12.21536062449055
 30
0.0
 10
133.0220558337097
 20
-9.5032519093516
 30
0.0
 10
129.7351683755925
 20
-6.50856096571239
 30
0.0
 10
126.4481044189474
 20
-3.320589973971334
 30
0.0
 10
123.1608102177838
 20
-0.0338959597701016
 30
0.0
 10
119.8732388458844
 20
3.253898027896771
 30
0.0
 10
116.5853772567403
 20
6.445074466421995
 30
0.0
 10
113.2974193962122
 20
9.444766130605593
 30
0.0
 10
110.0097418256807
 20
12.16393758348598
 30
0.0
 10
106.7223488639476
 20
14.52174909441307
 30
0.0
 10
103.4352075861578
 20
16.44803134123905
 30
0.0
 10
100.1482613877839
 20
17.88633471621326
 30
0.0
 10
96.86145883600153
 20
18.79126583587843
 30
0.0
 10
93.57474767073893
 20
19.14608904037292
 30
0.0
 10
90.28807312404415
 20
18.90252611838053
 30
0.0
 10
87.6067918146395
 20
18.3365088845271
 30
0.0
 10
86.02104781006949
 20
17.66814079203338
 30
0.0
 10
85.53087196981754
 20
17.46153878667092
 30
0.0
1001
PE_URL
1000

  0
SPLINE
  5
262
330
1F
100
AcDbEntity
  8
0
  6
Continuous
 62
     1
370
    15
100
AcDbSpline
210
0.0
220
0.0
230
1.0
 70
     8
 71
     3
 72
    11
 73
     7
 74
     0
 42
0.000000001
 43
0.00000001
 40
0.0
 40
0.0
 40
0.0
 40
0.0
 40
0.2730642671712928
 40
0.546132487298297
 40
0.8192043538763625
 40
1.0
 40
1.0
 40
1.0
 40
1.0
 10
32.32000000000023
 20
-18.22107879489874
 30
0.0
 10
33.53148200403545
 20
-18.5118626746681
 30
0.0
 10
35.95446354986268
 20
-19.09343464367665
 30
0.0
 10
39.58899547846185
 20
-19.07226247793151
 30
0.0
 10
42.81417980896907
 20
-18.5643505879499
 30
0.0
 10
44.82786248121588
 20
-17.77080326489277
 30
0.0
 10
45.63000198146277
 20
-17.45469802055005
 30
0.0
1001
PE_URL
1000

  0
SPLINE
  5
263
330
1F
100
AcDbEntity
  8
0
  6
Continuous
 62
     1
370
    15
100
AcDbSpline
210
0.0
220
0.0
230
1.0
 70
     8
 71
     3
 72
    28
 73
    24
 74
     0
 42
0.000000001
 43
0.00000001
 40
0.0
 40
0.0
 40
0.0
 40
0.0
 40
0.0346794951907747
 40
0.0833625814204627
 40
0.1320476024116089
 40
0.1807350747295715
 40
0.2294255133072416
 40
0.2781193005769809
 40
0.3268118854622784
 40
0.3755011786413253
 40
0.4241876938357291
 40
0.4728719466155348
 40
0.5215544540581172
 40
0.57023573440487
 40
0.6189163067161952
 40
0.6675966905252997
 40
0.7162774054912933
 40
0.7649589710521084
 40
0.8136419060777385
 40
0.8623267285243142
 40
0.9110139550895061
 40
0.9597041008697705
 40
1.0
 40
1.0
 40
1.0
 40
1.0
 10
97.80681516206971
 20
18.99194936157526
 30
0.0
 10
98.58728740008873
 20
18.98729748114318
 30
0.0
 10
100.4633868107162
 20
18.97611528950102
 30
0.0
 10
103.4352084120746
 20
18.3027088148199
 30
0.0
 10
106.7223486426285
 20
17.08965665110489
 30
0.0
 10
110.0097418849877
 20
15.34877294696074
 30
0.0
 10
113.2974193803216
 20
13.15731852074154
 30
0.0
 10
116.5853772609901
 20
10.57361812976011
 30
0.0
 10
119.8732388447763
 20
7.676188450062412
 30
0.0
 10
123.1608102179667
 20
4.550671651948252
 30
0.0
 10
126.4481044193243
 20
1.29011002016827
 30
0.0
 10
129.7351683739025
 20
-2.008701474734969
 30
0.0
 10
133.0220558400925
 20
-5.247792287219228
 30
0.0
 10
136.3088189233702
 20
-8.330989087649291
 30
0.0
 10
139.5955103027572
 20
-11.16673860933352
 30
0.0
 10
142.8821825751457
 20
-13.67086845579733
 30
0.0
 10
146.1688884152894
 20
-15.76892498232333
 30
0.0
 10
149.4556803545966
 20
-17.3989649401595
 30
0.0
 10
152.7426112689693
 20
-18.51121437087782
 30
0.0
 10
156.0297324117835
 20
-19.07767541153958
 30
0.0
 10
159.3171005583799
 20
-19.06261592782226
 30
0.0
 10
162.4157427728454
 20
-18.56710479604041
 30
0.0
 10
164.41866278992
 20
-17.8249031646114
 30
0.0
 10
165.3256529034276
 20
-17.4888090938564
 30
0.0
1001
PE_URL
1000

  0
SPLINE
  5
265
330
1F
100
AcDbEntity
  8
0
  6
Continuous
 62
     1
370
    15
100
AcDbSpline
210
0.0
220
0.0
230
1.0
 70
     8
 71
     3
 72
    29
 73
    25
 74
     0
 42
0.000000001
 43
0.00000001
 40
0.0
 40
0.0
 40
0.0
 40
0.0
 40
0.0078621397384428
 40
0.0565505386140936
 40
0.1052422760220209
 40
0.1539346472407083
 40
0.2026236188034531
 40
0.251309671221525
 40
0.299993319578959
 40
0.3486750805609652
 40
0.3973554721111818
 40
0.4460350130870902
 40
0.4947142229140958
 40
0.5433936212387762
 40
0.5920737275818085
 40
0.6407550609910786
 40
0.689438139695481
 40
0.7381234807599205
 40
0.7868115997420091
 40
0.8355030103509653
 40
0.8841956233153663
 40
0.9328848876684552
 40
0.9815711858333718
 40
1.0
 40
1.0
 40
1.0
 40
1.0
 10
172.9990856622974
 20
-19.01165221431878
 30
0.0
 10
172.822132258241
 20
-19.02385479689428
 30
0.0
 10
171.5493476675457
 20
-19.11162512915548
 30
0.0
 10
169.1805730548341
 20
-18.7284145401794
 30
0.0
 10
165.8926912600703
 20
-17.83693253181736
 30
0.0
 10
162.604750924701
 20
-16.36291739044099
 30
0.0
 10
159.3171004240967
 20
-14.4169584964868
 30
0.0
 10
156.0297324477617
 20
-12.03905103689021
 30
0.0
 10
152.7426112593295
 20
-9.3046380197057
 30
0.0
 10
149.45568035718
 20
-6.293657077383549
 30
0.0
 10
146.168888414596
 20
-3.095874085680034
 30
0.0
 10
142.882182575337
 20
0.1938437207261375
 30
0.0
 10
139.5955103026861
 20
3.477788403697398
 30
0.0
 10
136.3088189234635
 20
6.658454907847172
 30
0.0
 10
133.0220558397895
 20
9.641399207263408
 30
0.0
 10
129.735168375021
 20
12.33802421022851
 30
0.0
 10
126.4481044151529
 20
14.6682986169248
 30
0.0
 10
123.1608102335344
 20
16.56278033592158
 30
0.0
 10
119.8732387866714
 20
17.96598909469943
 30
0.0
 10
116.5853774778586
 20
18.83314233400936
 30
0.0
 10
113.2974185709604
 20
19.14981066015148
 30
0.0
 10
110.0097449052524
 20
18.8642541842756
 30
0.0
 10
107.4032974203487
 20
18.29238711330256
 30
0.0
 10
105.8927644890497
 20
17.64298181974496
 30
0.0
 10
105.477994555477
 20
17.46466476032208
 30
0.0
1001
PE_URL
1000

  0
SPLINE
  5
266
330
1F
100
AcDbEntity
  8
0
  6
Continuous
 62
     1
370
    15
100
AcDbSpline
210
0.0
220
0.0
230
1.0
 70
     8
 71
     3
 72
    13
 73
     9
 74
     0
 42
0.000000001
 43
0.00000001
 40
0.0
 40
0.0
 40
0.0
 40
0.0
 40
0.1339736057371574
 40
0.3071831204453374
 40
0.4803907121819757
 40
0.6535961858154593
 40
0.8267993465585985
 40
0.9949592479886008
 40
0.9949592479886008
 40
0.9949592479886008
 40
0.9949592479886008
 10
53.30438212321317
 20
-18.98933006324861
 30
0.0
 10
52.36724952129362
 20
-18.97366911138662
 30
0.0
 10
50.21853287412446
 20
-18.93776069468288
 30
0.0
 10
46.85826660554799
 20
-18.06548752978513
 30
0.0
 10
43.22359692271155
 20
-16.54968469357693
 30
0.0
 10
39.58899498717051
 20
-14.40532374043286
 30
0.0
 10
35.98972241701914
 20
-11.79205331025118
 30
0.0
 10
33.60199888019955
 20
-9.726747916035418
 30
0.0
 10
12.00000000000001
 20
7.598102748650094
 30
0.0
1001
PE_URL
1000

  0
LINE
  5
267
330
1F
100
AcDbEntity
  8
0
  6
Continuous
 62
     1
370
    15
100
AcDbLine
 10
215.2
 20
-18.91098359472781
 30
0.0
 11
215.2
 21
-11.38443333431444
 31
0.0
1001
PE_URL
1000

  0
SPLINE
  5
268
330
1F
100
AcDbEntity
  8
0
  6
Continuous
 62
     1
370
    15
100
AcDbSpline
210
0.0
220
0.0
230
1.0
 70
     8
 71
     3
 72
    28
 73
    24
 74
     0
 42
0.000000001
 43
0.00000001
 40
0.0
 40
0.0
 40
0.0
 40
0.0
 40
0.0241194117201653
 40
0.0779463279550531
 40
0.1317739024310387
 40
0.1856020745072383
 40
0.2394307834455306
 40
0.2881181931260721
 40
0.3368081014401361
 40
0.3855010231773074
 40
0.4341971774228227
 40
0.4828916259199683
 40
0.5315828294900387
 40
0.5802713020609774
 40
0.628957559378134
 40
0.6776421186629236
 40
0.7263254982693221
 40
0.7750082173387107
 40
0.8236907954535692
 40
0.8723737522905265
 40
0.9210576072732667
 40
0.9697428792258107
 40
1.0
 40
1.0
 40
1.0
 40
1.0
 10
37.96035653272185
 20
18.9643154976033
 30
0.0
 10
38.50323143130251
 20
18.98358906114287
 30
0.0
 10
40.25763180284884
 20
19.04587513685436
 30
0.0
 10
43.22359474743524
 20
18.41419549740437
 30
0.0
 10
46.85827791133381
 20
17.11938954375067
 30
0.0
 10
50.49295163978732
 20
15.16373039404974
 30
0.0
 10
54.01220596349765
 20
12.74758721414326
 30
0.0
 10
57.41492874413325
 20
9.99894212079605
 30
0.0
 10
60.70239597894327
 20
7.047306836498351
 30
0.0
 10
63.99008702197911
 20
3.886084352541538
 30
0.0
 10
67.27806276770275
 20
0.6095296484198299
 30
0.0
 10
70.56589689343785
 20
-2.685200148794829
 30
0.0
 10
73.85344228478468
 20
-5.900108293869279
 30
0.0
 10
77.14071283000338
 20
-8.939678811417066
 30
0.0
 10
80.42775856764283
 20
-11.71365447221479
 30
0.0
 10
83.71463243499475
 20
-14.13971762630863
 30
0.0
 10
87.00138679115864
 20
-16.14570073729928
 30
0.0
 10
90.28807418269267
 20
-17.67258998011835
 30
0.0
 10
93.57474752211093
 20
-18.67304390986876
 30
0.0
 10
96.86145837184995
 20
-19.12485300022495
 30
0.0
 10
100.1482633930875
 20
-18.98660286038193
 30
0.0
 10
103.0204386595521
 20
-18.44503910714935
 30
0.0
 10
104.7970522768131
 20
-17.73630795785013
 30
0.0
 10
105.4779945554771
 20
-17.46466476032245
 30
0.0
1001
PE_URL
1000

  0
SPLINE
  5
269
330
1F
100
AcDbEntity
  8
0
  6
Continuous
 62
     1
370
    15
100
AcDbSpline
210
0.0
220
0.0
230
1.0
 70
     8
 71
     3
 72
    25
 73
    21
 74
     0
 42
0.000000001
 43
0.00000001
 40
0.0
 40
0.0
 40
0.0
 40
0.0
 40
0.0288896200268524
 40
0.0860186240061677
 40
0.1431516169577618
 40
0.2002838662301155
 40
0.2574121982493905
 40
0.3145372155558288
 40
0.3716595228949542
 40
0.4287797268176073
 40
0.4858984352773436
 40
0.5430162572257902
 40
0.6001338022065376
 40
0.6572516799481654
 40
0.7143704999570016
 40
0.7714908711102012
 40
0.8286134012497529
 40
0.8857386967779916
 40
0.942867362255218
 40
1.0
 40
1.0
 40
1.0
 40
1.0
 10
157.6545629139646
 20
18.97914874892063
 30
0.0
 10
158.2087228579453
 20
18.99248597400987
 30
0.0
 10
159.8587298783296
 20
19.03219746032132
 30
0.0
 10
162.6047540510784
 20
18.48380486826177
 30
0.0
 10
165.8926891864475
 20
17.38769641209318
 30
0.0
 10
169.1805782226303
 20
15.74574786202374
 30
0.0
 10
172.4681757369852
 20
13.64395068566843
 30
0.0
 10
175.7554941051398
 20
11.1348495386223
 30
0.0
 10
179.0425766962197
 20
8.295653222570634
 30
0.0
 10
182.3294782025085
 20
5.209977559168555
 30
0.0
 10
185.6162504651122
 20
1.9696498223345
 30
0.0
 10
188.9029462237459
 20
-1.329155377509626
 30
0.0
 10
192.1896180555266
 20
-4.588490680523026
 30
0.0
 10
195.4763186339103
 20
-7.711509168795094
 30
0.0
 10
198.7631005172587
 20
-10.60573752197717
 30
0.0
 10
202.0500164986257
 20
-13.18424291759872
 30
0.0
 10
205.3371181811628
 20
-15.37411098701494
 30
0.0
 10
208.6244610907653
 20
-17.09658450147481
 30
0.0
 10
211.9120854134
 20
-18.35160540665648
 30
0.0
 10
214.1040030706313
 20
-18.72451987727583
 30
0.0
 10
215.2
 20
-18.91098359472781
 30
0.0
1001
PE_URL
1000

  0
SPLINE
  5
26A
330
1F
100
AcDbEntity
  8
0
  6
Continuous
 62
     1
370
    15
100
AcDbSpline
210
0.0
220
0.0
230
1.0
 70
     8
 71
     3
 72
    23
 73
    19
 74
     0
 42
0.000000001
 43
0.00000001
 40
0.0
 40
0.0
 40
0.0
 40
0.0
 40
0.0659196256825069
 40
0.1318346681635238
 40
0.197745822398094
 40
0.263653785927764
 40
0.3295592584194249
 40
0.3954629412010384
 40
0.4613655367949406
 40
0.5272677484494077
 40
0.59317027966915
 40
0.6590738337454349
 40
0.7249791132865256
 40
0.7908868197491098
 40
0.8567976529714229
 40
0.9227123107087256
 40
0.9886314881718241
 40
1.0
 40
1.0
 40
1.0
 40
1.0
 10
215.2
 20
-11.44493885872457
 30
0.0
 10
214.1040030706312
 20
-10.53607094431644
 30
0.0
 10
211.9120854133998
 20
-8.718398306465488
 30
0.0
 10
208.6244610907655
 20
-5.641783590317507
 30
0.0
 10
205.3371181811618
 20
-2.422096467781896
 30
0.0
 10
202.0500164986292
 20
0.8759923954323152
 30
0.0
 10
198.7631005172452
 20
4.14624909386958
 30
0.0
 10
195.4763186339607
 20
7.293788761001264
 30
0.0
 10
192.1896180553387
 20
10.22456500983833
 30
0.0
 10
188.9029462244471
 20
12.85169525063282
 30
0.0
 10
185.6162504624948
 20
15.0972112840804
 30
0.0
 10
182.3294782122767
 20
16.89413518835682
 30
0.0
 10
179.0425766597624
 20
18.19023466159884
 30
0.0
 10
175.7554942412088
 20
18.94273270049168
 30
0.0
 10
172.4681752291302
 20
19.14517074580067
 30
0.0
 10
169.1805801181449
 20
18.73206405049052
 30
0.0
 10
166.799667372445
 20
18.15665317166763
 30
0.0
 10
165.5146678929528
 20
17.57444769783535
 30
0.0
 10
165.3256529034277
 20
17.48880909385605
 30
0.0
1001
PE_URL
1000

  0
SPLINE
  5
26B
330
1F
100
AcDbEntity
  8
0
  6
Continuous
 62
     1
370
    15
100
AcDbSpline
210
0.0
220
0.0
230
1.0
 70
     8
 71
     3
 72
    28
 73
    24
 74
     0
 42
0.000000001
 43
0.00000001
 40
0.0
 40
0.0
 40
0.0
 40
0.0
 40
0.0465284072301492
 40
0.0952147946997768
 40
0.1438987308972075
 40
0.1925807323762907
 40
0.2412613169807549
 40
0.2899410034997709
 40
0.3386203113221294
 40
0.3872997600895488
 40
0.4359798693496064
 40
0.484661158208809
 40
0.5333441449863127
 40
0.5820293468687846
 40
0.6307172795669328
 40
0.6794084569741753
 40
0.7281013400152027
 40
0.7767909907650323
 40
0.8254776282941839
 40
0.8741617673576616
 40
0.9279868603078549
 40
0.9818114164320183
 40
1.0
 40
1.0
 40
1.0
 40
1.0
 10
113.1514566115648
 20
-19.03799626328919
 30
0.0
 10
112.1041941080198
 20
-18.99294482223192
 30
0.0
 10
109.9610972300506
 20
-18.90075246133764
 30
0.0
 10
106.7223509821928
 20
-18.05751252433409
 30
0.0
 10
103.4352070238648
 20
-16.71054785092831
 30
0.0
 10
100.1482615188412
 20
-14.8551762947614
 30
0.0
 10
96.86145887403636
 20
-12.56189069691665
 30
0.0
 10
93.5747473875528
 20
-9.894683106783255
 30
0.0
 10
90.28807421874731
 20
-6.93386220323296
 30
0.0
 10
87.00138678149796
 20
-3.767049275642645
 30
0.0
 10
83.71463243758258
 20
-0.4883546244936475
 30
0.0
 10
80.42775856695255
 20
2.804888664118034
 30
0.0
 10
77.14071283017681
 20
6.014881499014762
 30
0.0
 10
73.85344228478169
 20
9.04629953149786
 30
0.0
 10
70.56589689327683
 20
11.80908675756874
 30
0.0
 10
67.27806276835025
 20
14.22118722317779
 30
0.0
 10
63.99008701955059
 20
16.21062427114699
 30
0.0
 10
60.70239598800924
 20
17.71929227139634
 30
0.0
 10
57.41492871030115
 20
18.69888028189592
 30
0.0
 10
54.01220609538904
 20
19.14844130950745
 30
0.0
 10
50.49295108935506
 20
18.93042112808975
 30
0.0
 10
47.66041023015997
 20
18.34655061144343
 30
0.0
 10
46.03942043572064
 20
17.6345342231576
 30
0.0
 10
45.63000198146288
 20
17.45469802054968
 30
0.0
1001
PE_URL
1000

  0
SPLINE
  5
26C
330
1F
100
AcDbEntity
  8
0
  6
Continuous
 62
     1
370
    15
100
AcDbSpline
210
0.0
220
0.0
230
1.0
 70
     8
 71
     3
 72
    23
 73
    19
 74
     0
 42
0.000000001
 43
0.00000001
 40
0.0
 40
0.0
 40
0.0
 40
0.0
 40
0.0682997615440767
 40
0.1366005118148561
 40
0.2049021741483545
 40
0.2732046717323993
 40
0.3415079276189976
 40
0.4098118647367706
 40
0.4715919414809344
 40
0.5333751887731267
 40
0.5951622598364348
 40
0.6569534326709168
 40
0.7187424410594799
 40
0.7805273319185821
 40
0.8423087573779628
 40
0.9040873718734916
 40
0.9658638317140357
 40
1.0
 40
1.0
 40
1.0
 40
1.0
 10
32.32000000000022
 20
13.92417530625788
 30
0.0
 10
33.53148197621727
 20
13.04842826399564
 30
0.0
 10
35.95446346640782
 20
11.29692150190881
 30
0.0
 10
39.58899581228866
 20
8.124258763289701
 30
0.0
 10
43.22359382845778
 20
4.693002656820052
 30
0.0
 10
46.85827815763457
 20
1.081662612663516
 30
0.0
 10
50.4929515735767
 20
-2.566301196338091
 30
0.0
 10
54.01220597933739
 20
-6.008808315397613
 30
0.0
 10
57.41492874015353
 20
-9.139263672018165
 30
0.0
 10
60.70239597969563
 20
-11.89206337522917
 30
0.0
 10
63.99008702294968
 20
-14.29168098198318
 30
0.0
 10
67.27806276306774
 20
-16.26661927604117
 30
0.0
 10
70.56589691100609
 20
-17.75887522955242
 30
0.0
 10
73.85344221915281
 20
-18.72180388690669
 30
0.0
 10
77.14071307494503
 20
-19.13529756539311
 30
0.0
 10
80.42775765356106
 20
-18.9555317901789
 30
0.0
 10
83.22445436927717
 20
-18.40266542837325
 30
0.0
 10
84.92546644880034
 20
-17.70857265630932
 30
0.0
 10
85.53087196981757
 20
-17.46153878667128
 30
0.0
1001
PE_URL
1000

  0
SPLINE
  5
26D
330
1F
100
AcDbEntity
  8
0
  6
Continuous
 62
     1
370
    15
100
AcDbSpline
210
0.0
220
0.0
230
1.0
 70
     8
 71
     3
 72
    28
 73
    24
 74
     0
 42
0.000000001
 43
0.00000001
 40
0.0
 40
0.0
 40
0.0
 40
0.0
 40
0.0279810810245556
 40
0.0766616882392126
 40
0.1253426266122786
 40
0.1740244155840698
 40
0.2227075740269607
 40
0.2713926198994591
 40
0.3200800699016067
 40
0.3687704391322238
 40
0.4174642081163738
 40
0.4661573432715703
 40
0.5148471397986535
 40
0.5635341112354906
 40
0.6122187729994842
 40
0.6609016420466869
 40
0.7095832365286684
 40
0.7582640754476431
 40
0.8069446783103487
 40
0.8556255647811869
 40
0.9043072543351369
 40
0.9529902659109413
 40
1.0
 40
1.0
 40
1.0
 40
1.0
 10
137.7063715512659
 20
18.98073709465352
 30
0.0
 10
138.3360858319213
 20
18.9896914577693
 30
0.0
 10
140.061357268755
 20
19.01422434100425
 30
0.0
 10
142.8821821207824
 20
18.42617270747262
 30
0.0
 10
146.1688885359389
 20
17.29075775346529
 30
0.0
 10
149.4556803263715
 20
15.61582731797053
 30
0.0
 10
152.7426112612162
 20
13.48405050476567
 30
0.0
 10
156.0297324710262
 20
10.94987774873941
 30
0.0
 10
159.3171003291444
 20
8.090909444676809
 30
0.0
 10
162.6047512812785
 20
4.991377832737895
 30
0.0
 10
165.8926899286279
 20
1.74364510049481
 30
0.0
 10
169.1805780237725
 20
-1.555915095306619
 30
0.0
 10
172.46817579029
 20
-4.809238225670815
 30
0.0
 10
175.7554940907609
 20
-7.91961375025039
 30
0.0
 10
179.042576700434
 20
-10.79469018126555
 30
0.0
 10
182.3294782000297
 20
-13.34912494718193
 30
0.0
 10
185.6162504708129
 20
-15.50701143967735
 30
0.0
 10
188.9029462034221
 20
-17.20455343529049
 30
0.0
 10
192.1896181311201
 20
-18.39035904848887
 30
0.0
 10
195.4763183518559
 20
-19.03292625851431
 30
0.0
 10
198.7631015699135
 20
-19.09932455836302
 30
0.0
 10
202.0123132942273
 20
-18.64449902078642
 30
0.0
 10
204.1659764329653
 20
-17.88866139875266
 30
0.0
 10
205.2239785914994
 20
-17.51735085290677
 30
0.0
1001
PE_URL
1000

  0
SPLINE
  5
26F
330
1F
100
AcDbEntity
  8
0
  6
Continuous
 62
     1
370
    15
100
AcDbSpline
210
0.0
220
0.0
230
1.0
 70
     8
 71
     3
 72
    29
 73
    25
 74
     0
 42
0.000000001
 43
0.00000001
 40
0.0
 40
0.0
 40
0.0
 40
0.0
 40
0.0145734945742675
 40
0.0632623257749025
 40
0.111948284881888
 40
0.1606318871415372
 40
0.2093136493700709
 40
0.2579940896106772
 40
0.3066737267887811
 40
0.3553530803660309
 40
0.4040326699934927
 40
0.4527130151645704
 40
0.50139463486816
 40
0.5500780472425345
 40
0.5987637692304799
 40
0.6474523162361717
 40
0.6961442017842971
 40
0.7448367211451109
 40
0.793525840839639
 40
0.842212041380613
 40
0.890895837853635
 40
0.9395777469454869
 40
0.9882582866013829
 40
1.0
 40
1.0
 40
1.0
 40
1.0
 10
212.8961165078193
 20
-18.99056726294825
 30
0.0
 10
212.5680878533616
 20
-19.00763029639857
 30
0.0
 10
211.1441427936471
 20
-19.08169950302169
 30
0.0
 10
208.6244651027831
 20
-18.63937576350625
 30
0.0
 10
205.3371171062292
 20
-17.66423995575071
 30
0.0
 10
202.0500167866351
 20
-16.12278102631073
 30
0.0
 10
198.7631004400917
 20
-14.11367390669492
 30
0.0
 10
195.4763186545818
 20
-11.6824352567968
 30
0.0
 10
192.1896180500061
 20
-8.90506564636566
 30
0.0
 10
188.9029462251568
 20
-5.863022624315234
 30
0.0
 10
185.6162504649884
 20
-2.646906641490983
 30
0.0
 10
182.3294782015925
 20
0.6478600944118538
 30
0.0
 10
179.0425767000076
 20
3.923425220520156
 30
0.0
 10
175.7554940909033
 20
7.082523374067732
 30
0.0
 10
172.4681757901472
 20
10.03133515547824
 30
0.0
 10
169.1805780242014
 20
12.68225575957425
 30
0.0
 10
165.892689927055
 20
14.95652626830279
 30
0.0
 10
162.6047512871413
 20
16.78629331175278
 30
0.0
 10
159.3171003072685
 20
18.11825226301386
 30
0.0
 10
156.0297325526603
 20
18.90899279537885
 30
0.0
 10
152.7426109565751
 20
19.1493013452445
 30
0.0
 10
149.4556814632471
 20
18.77902960409562
 30
0.0
 10
147.0002034983438
 20
18.20239112757682
 30
0.0
 10
145.6403652333037
 20
17.5961189621339
 30
0.0
 10
145.3761110824005
 20
17.47830352745015
 30
0.0
1001
PE_URL
1000

  0
SPLINE
  5
270
330
1F
100
AcDbEntity
  8
0
  6
Continuous
 62
     1
370
    15
100
AcDbSpline
210
0.0
220
0.0
230
1.0
 70
     8
 71
     3
 72
    25
 73
    21
 74
     0
 42
0.000000001
 43
0.00000001
 40
0.0
 40
0.0
 40
0.0
 40
0.0
 40
0.0478812528075753
 40
0.1018702419544983
 40
0.1558599636349808
 40
0.2098509935752537
 40
0.2638439066283194
 40
0.3178392763911698
 40
0.3718376748238518
 40
0.4258396718709082
 40
0.4798435605877809
 40
0.5338438644626142
 40
0.5878408264602776
 40
0.6418350174808743
 40
0.7015308939277137
 40
0.761226174996104
 40
0.8209207933276529
 40
0.8806146816718028
 40
0.9403077728966984
 40
1.0
 40
1.0
 40
1.0
 40
1.0
 10
93.2029314009719
 20
-19.02159810359925
 30
0.0
 10
92.23131319562663
 20
-18.99011797443985
 30
0.0
 10
90.16413709094759
 20
-18.92314210839233
 30
0.0
 10
87.00138693027415
 20
-18.13038494331902
 30
0.0
 10
83.71463239771761
 20
-16.82100815125889
 30
0.0
 10
80.42775857763212
 20
-14.99786534426117
 30
0.0
 10
77.14071282732525
 20
-12.73304616776455
 30
0.0
 10
73.85344228550761
 20
-10.08896501720995
 30
0.0
 10
70.56589689322473
 20
-7.145404502277273
 30
0.0
 10
67.27806276783261
 20
-3.989469056419353
 30
0.0
 10
63.99008702167313
 20
-0.7151025241014486
 30
0.0
 10
60.7023959800377
 20
2.580559917636771
 30
0.0
 10
57.41492874006223
 20
5.79950813318937
 30
0.0
 10
54.01220597936479
 20
8.953220024704548
 30
0.0
 10
50.492951573569
 20
11.91881577422905
 30
0.0
 10
46.85827815763658
 20
14.54815754376955
 30
0.0
 10
43.22359382845725
 20
16.65309190860502
 30
0.0
 10
39.58899581228881
 20
18.14031297002581
 30
0.0
 10
35.95446346640782
 20
19.01872477347593
 30
0.0
 10
33.53148197621731
 20
19.02084567207168
 30
0.0
 10
32.32000000000026
 20
19.02190611369392
 30
0.0
1001
PE_URL
1000

  0
LINE
  5
271
330
1F
100
AcDbEntity
  8
0
  6
Continuous
 62
     1
370
    15
100
AcDbLine
 10
215.2
 20
-7.466044736003129
 30
0.0
 11
215.2
 21
7.466044736003126
 31
0.0
1001
PE_URL
1000

  0
SPLINE
  5
272
330
1F
100
AcDbEntity
  8
0
  6
Continuous
 62
     1
370
    15
100
AcDbSpline
210
0.0
220
0.0
230
1.0
 70
     8
 71
     3
 72
    28
 73
    24
 74
     0
 42
0.000000001
 43
0.00000001
 40
0.0
 40
0.0
 40
0.0
 40
0.0
 40
0.041380715564207
 40
0.0900708312174262
 40
0.1387641791927058
 40
0.1874558215179148
 40
0.2361442191030479
 40
0.2848298858464318
 40
0.3335133374636945
 40
0.3821950911464447
 40
0.4308756652187866
 40
0.4795555787921841
 40
0.5282353514191744
 40
0.5769155027464384
 40
0.625596552167727
 40
0.674279018477162
 40
0.7229634195234184
 40
0.7716502718652765
 40
0.8203400904290704
 40
0.8690332576422918
 40
0.9177252224863826
 40
0.9664138956661386
 40
1.0
 40
1.0
 40
1.0
 40
1.0
 10
57.90826108103873
 20
19.01388009112797
 30
0.0
 10
58.83961335778871
 20
18.98898076048502
 30
0.0
 10
60.8668299628991
 20
18.93478393529263
 30
0.0
 10
63.99009128718961
 20
18.16815741476275
 30
0.0
 10
67.27806162484924
 20
16.87879784662539
 30
0.0
 10
70.56589719965127
 20
15.07268731157929
 30
0.0
 10
73.85344220269238
 20
12.82299785191645
 30
0.0
 10
77.14071285218495
 20
10.19139773212989
 30
0.0
 10
80.42775856100329
 20
7.257458261533341
 30
0.0
 10
83.71463243937261
 20
4.107945771220125
 30
0.0
 10
87.00138678028682
 20
0.8364907395182595
 30
0.0
 10
90.28807422180161
 20
-2.459790331820369
 30
0.0
 10
93.57474737654651
 20
-5.683012618526254
 30
0.0
 10
96.86145891500774
 20
-8.737472410720642
 30
0.0
 10
100.1482613659572
 20
-11.53245857150988
 30
0.0
 10
103.4352075944558
 20
-13.98500049155161
 30
0.0
 10
106.7223488525829
 20
-16.02212339427346
 30
0.0
 10
110.0097418628445
 20
-17.583778300024
 30
0.0
 10
113.2974192589097
 20
-18.62177050494758
 30
0.0
 10
116.585377768816
 20
-19.11182762168961
 30
0.0
 10
119.8732369350052
 20
-19.01468515375759
 30
0.0
 10
122.8209600541087
 20
-18.48640002832221
 30
0.0
 10
124.6726897764907
 20
-17.76479564518903
 30
0.0
 10
125.4286005128488
 20
-17.47022322783218
 30
0.0
1001
PE_URL
1000

  0
SPLINE
  5
273
330
1F
100
AcDbEntity
  8
0
  6
Continuous
 62
     1
370
    15
100
AcDbSpline
210
0.0
220
0.0
230
1.0
 70
     8
 71
     3
 72
    19
 73
    15
 74
     0
 42
0.000000001
 43
0.00000001
 40
0.0
 40
0.0
 40
0.0
 40
0.0
 40
0.0382192754526373
 40
0.1256513494901626
 40
0.2130811344703058
 40
0.3005095624958972
 40
0.3879375665758664
 40
0.4753660800023006
 40
0.5627960357270928
 40
0.6502283657390812
 40
0.7376640004426079
 40
0.8251038680383834
 40
0.9125488939075748
 40
1.0
 40
1.0
 40
1.0
 40
1.0
 10
177.6057776781795
 20
18.98026636802071
 30
0.0
 10
178.0847220340019
 20
18.99637420462602
 30
0.0
 10
179.6593202943576
 20
19.04933102766501
 30
0.0
 10
182.329475675438
 20
18.53846689763174
 30
0.0
 10
185.6162511422197
 20
17.48222342618885
 30
0.0
 10
188.9029460423176
 20
15.87378444832459
 30
0.0
 10
192.1896181041402
 20
13.80276071002136
 30
0.0
 10
195.4763186208841
 20
11.31946130891447
 30
0.0
 10
198.7631005207494
 20
8.500518008679027
 30
0.0
 10
202.0500164976904
 20
5.429209722442105
 30
0.0
 10
205.3371181814134
 20
2.195493514534018
 30
0.0
 10
208.6244610906983
 20
-1.099256527002658
 30
0.0
 10
211.9120854134167
 20
-4.377379410535021
 30
0.0
 10
214.1040030706369
 20
-6.436465766294801
 30
0.0
 10
215.2
 20
-7.466044736003129
 30
0.0
1001
PE_URL
1000

  0
SPLINE
  5
274
330
1F
100
AcDbEntity
  8
0
  6
Continuous
 62
     1
370
    15
100
AcDbSpline
210
0.0
220
0.0
230
1.0
 70
     8
 71
     3
 72
    17
 73
    13
 74
     0
 42
0.000000001
 43
0.00000001
 40
0.0
 40
0.0
 40
0.0
 40
0.0
 40
0.1098659412144928
 40
0.2197242437668989
 40
0.3295760659145525
 40
0.4394225702256233
 40
0.5492649228105176
 40
0.6591042925480912
 40
0.7689418503078215
 40
0.8787787681690847
 40
0.988616218638648
 40
1.0
 40
1.0
 40
1.0
 40
1.0
 10
215.2
 20
7.466044736003126
 30
0.0
 10
214.1040030706941
 20
8.452731241589202
 30
0.0
 10
211.9120854135885
 20
10.42603565129381
 30
0.0
 10
208.624461090011
 20
13.01689112112246
 30
0.0
 10
205.3371181839906
 20
15.23701487825478
 30
0.0
 10
202.0500164880688
 20
16.99999033425047
 30
0.0
 10
198.7631005566561
 20
18.26018362887163
 30
0.0
 10
195.4763184868832
 20
18.97396472809923
 30
0.0
 10
192.1896186042289
 20
19.13840702417203
 30
0.0
 10
188.902944175969
 20
18.68187177270655
 30
0.0
 10
186.5982873188856
 20
18.11028452384915
 30
0.0
 10
185.3891687891212
 20
17.55404246053608
 30
0.0
 10
185.2756215105224
 20
17.50180624797577
 30
0.0
1001
PE_URL
1000

  0
SPLINE
  5
275
330
1F
100
AcDbEntity
  8
0
  6
Continuous
 62
     1
370
    15
100
AcDbSpline
210
0.0
220
0.0
230
1.0
 70
     8
 71
     3
 72
    29
 73
    25
 74
     0
 42
0.000000001
 43
0.00000001
 40
0.0
 40
0.0
 40
0.0
 40
0.0
 40
0.0011725909117361
 40
0.0498546434126859
 40
0.0985384412345482
 40
0.1472245014498661
 40
0.1959133396238667
 40
0.244605469473357
 40
0.2932988016960525
 40
0.3419887852579723
 40
0.390675802587905
 40
0.4393603686139284
 40
0.4880429998965747
 40
0.5367242142862717
 40
0.585404530578902
 40
0.6340844681699754
 40
0.6827645467079332
 40
0.731445285747074
 40
0.7801272044006204
 40
0.828810820994434
 40
0.877496652721873
 40
0.926185215300317
 40
0.9748770226298323
 40
1.0
 40
1.0
 40
1.0
 40
1.0
 10
133.1012456542558
 20
-19.0433491216539
 30
0.0
 10
133.0748559497268
 20
-19.04555955101632
 30
0.0
 10
131.952853983069
 20
-19.13953961392633
 30
0.0
 10
129.7351657394064
 20
-18.80470379825003
 30
0.0
 10
126.4481051253567
 20
-18.00008465308397
 30
0.0
 10
123.1608100284887
 20
-16.59377590427242
 30
0.0
 10
119.8732388966036
 20
-14.71249570803217
 30
0.0
 10
116.5853772431765
 20
-12.38935009406717
 30
0.0
 10
113.2974193997453
 20
-9.699510987346413
 30
0.0
 10
110.0097418251115
 20
-6.721166381133775
 30
0.0
 10
106.722348862692
 20
-3.543372733998531
 30
0.0
 10
103.435207591749
 20
-0.2603886982316874
 30
0.0
 10
100.1482613666756
 20
3.030256034729073
 30
0.0
 10
96.86145891484067
 20
6.230856921810187
 30
0.0
 10
93.57474737649626
 20
9.24638127138955
 30
0.0
 10
90.28807422216968
 20
11.98728068841259
 30
0.0
 10
87.00138677886497
 20
14.3722166453111
 30
0.0
 10
83.7146324446923
 20
16.33019451048019
 30
0.0
 10
80.42775854114569
 20
17.8037088602088
 30
0.0
 10
77.14071292629974
 20
18.74656731291469
 30
0.0
 10
73.85344192607207
 20
19.13975138221699
 30
0.0
 10
70.56589823210433
 20
18.93790290376557
 30
0.0
 10
67.8085849206388
 20
18.37989301721826
 30
0.0
 10
66.14712899462597
 20
17.69423160367603
 30
0.0
 10
65.58164987278644
 20
17.46086566965479
 30
0.0
1001
PE_URL
1000

  0
SPLINE
  5
276
330
1F
100
AcDbEntity
  8
0
  6
Continuous
 62
     1
370
    15
100
AcDbSpline
210
0.0
220
0.0
230
1.0
 70
     8
 71
     3
 72
    17
 73
    13
 74
     0
 42
0.000000001
 43
0.00000001
 40
0.004491833377696
 40
0.004491833377696
 40
0.004491833377696
 40
0.004491833377696
 40
0.109266884729878
 40
0.2185353512381429
 40
0.3278052768767141
 40
0.4370765387604364
 40
0.546349013786867
 40
0.655622578656169
 40
0.7544591832298346
 40
0.8533008600892318
 40
0.9521486542695141
 40
1.0
 40
1.0
 40
1.0
 40
1.0
 10
11.99999999999999
 20
10.36371359166349
 30
0.0
 10
33.63108719016338
 20
-5.557839235937287
 30
0.0
 10
36.00426655015619
 20
-7.836048176949149
 30
0.0
 10
39.58899581289239
 20
-10.96367387764585
 30
0.0
 10
43.22359382619379
 20
-13.74810769975486
 30
0.0
 10
46.85827816608703
 20
-16.03041606788787
 30
0.0
 10
50.49295154203026
 20
-17.7323597580868
 30
0.0
 10
54.01220609231902
 20
-18.75453167192678
 30
0.0
 10
57.4149283630641
 20
-19.14299632601168
 30
0.0
 10
60.70239739185067
 20
-18.92184426272117
 30
0.0
 10
63.42462806579529
 20
-18.35982532616348
 30
0.0
 10
65.05111202347533
 20
-17.681972438829
 30
0.0
 10
65.58164987278633
 20
-17.46086566965516
 30
0.0
1001
PE_URL
1000

  0
SPLINE
  5
277
330
1F
100
AcDbEntity
  8
0
  6
Continuous
 62
     1
370
    15
100
AcDbSpline
210
0.0
220
0.0
230
1.0
 70
     8
 71
     3
 72
    28
 73
    24
 74
     0
 42
0.000000001
 43
0.00000001
 40
0.0
 40
0.0
 40
0.0
 40
0.0
 40
0.0313414002811132
 40
0.0800307191462646
 40
0.1287172600253073
 40
0.1774015384885583
 40
0.2260840716136653
 40
0.2747653776422952
 40
0.3234459756351242
 40
0.3721263851256328
 40
0.4208071257732055
 40
0.4694887170160483
 40
0.5181716777244286
 40
0.5668565258547503
 40
0.6155437781049564
 40
0.6642339495717753
 40
0.7129275207783182
 40
0.7616204581584821
 40
0.8103100569240931
 40
0.8589968306109325
 40
0.9076812946343096
 40
0.9563639659481771
 40
1.0
 40
1.0
 40
1.0
 40
1.0
 10
117.7570083674119
 20
18.98499184274655
 30
0.0
 10
118.4624403304878
 20
18.98795744514004
 30
0.0
 10
120.2637710562164
 20
18.99553015376579
 30
0.0
 10
123.1608078414694
 20
18.36565548076536
 30
0.0
 10
126.4481050560569
 20
17.19106988179848
 30
0.0
 10
129.7351682033021
 20
15.48296114091089
 30
0.0
 10
133.0220558857971
 20
13.32119075618893
 30
0.0
 10
136.308818911145
 20
10.7621718520473
 30
0.0
 10
139.595510305954
 20
7.883991484864928
 30
0.0
 10
142.882182574584
 20
4.771556143716084
 30
0.0
 10
146.1688884143398
 20
1.517433494484201
 30
0.0
 10
149.4556803589579
 20
-1.781792704444134
 30
0.0
 10
152.7426112524734
 20
-5.028144144812367
 30
0.0
 10
156.0297324734093
 20
-8.125221373314988
 30
0.0
 10
159.3171003283555
 20
-10.98103203503419
 30
0.0
 10
162.6047512820504
 20
-13.51077331092198
 30
0.0
 10
165.8926899263295
 20
-15.63909696245467
 30
0.0
 10
169.1805780321943
 20
-17.30313364564961
 30
0.0
 10
172.4681757589049
 20
-18.4522602037277
 30
0.0
 10
175.7554942078711
 20
-19.05670738329894
 30
0.0
 10
179.0425762634054
 20
-19.08229619270621
 30
0.0
 10
182.2159311329522
 20
-18.60608562136148
 30
0.0
 10
184.2935832669442
 20
-17.85623576287365
 30
0.0
 10
185.2756215105223
 20
-17.50180624797613
 30
0.0
1001
PE_URL
1000

  0
SPLINE
  5
279
330
1F
100
AcDbEntity
  8
0
  6
Continuous
 62
     1
370
    15
100
AcDbSpline
210
0.0
220
0.0
230
1.0
 70
     8
 71
     3
 72
    29
 73
    25
 74
     0
 42
0.000000001
 43
0.00000001
 40
0.0
 40
0.0
 40
0.0
 40
0.0
 40
0.0112184210095366
 40
0.059898453894429
 40
0.1085787228328274
 40
0.1572597473253851
 40
0.2059420463682405
 40
0.254626138106897
 40
0.3033125394913546
 40
0.3520017659329808
 40
0.4006943309636292
 40
0.4493875298158106
 40
0.4980773289542649
 40
0.5467642088984291
 40
0.595448684741093
 40
0.6441312731762491
 40
0.6928124921563391
 40
0.7414928605476635
 40
0.7901728977844567
 40
0.8388531235221284
 40
0.8875340572901863
 40
0.9362162181453386
 40
0.9849001243252883
 40
1.0
 40
1.0
 40
1.0
 40
1.0
 10
192.9470342401669
 20
-18.99976729769658
 30
0.0
 10
192.6945604999201
 20
-19.01509261732285
 30
0.0
 10
191.3465288404851
 20
-19.09691901252339
 30
0.0
 10
188.9029470764527
 20
-18.68545379039511
 30
0.0
 10
185.6162502368807
 20
-17.75192181883753
 30
0.0
 10
182.3294782627137
 20
-16.24432407479159
 30
0.0
 10
179.0425766836368
 20
-14.26680935952955
 30
0.0
 10
175.755494095263
 20
-11.862160887321
 30
0.0
 10
172.4681757890808
 20
-9.106028831442151
 30
0.0
 10
169.1805780241072
 20
-6.079086308570419
 30
0.0
 10
165.8926899284982
 20
-2.871616480964904
 30
0.0
 10
162.604751281463
 20
0.4211459952045303
 30
0.0
 10
159.3171003285364
 20
3.701424298759796
 30
0.0
 10
156.0297324732729
 20
6.871649199358869
 30
0.0
 10
152.7426112528379
 20
9.83770351880858
 30
0.0
 10
149.4556803576367
 20
12.51150304043754
 30
0.0
 10
146.1688884192594
 20
14.81373307859749
 30
0.0
 10
142.8821825562264
 20
16.67580099964843
 30
0.0
 10
139.5955103744641
 20
18.04333543551772
 30
0.0
 10
136.3088186554589
 20
18.87233085114311
 30
0.0
 10
133.0220568400563
 20
19.15085418728591
 30
0.0
 10
129.7351646418064
 20
18.82325661645435
 30
0.0
 10
127.2040102328899
 20
18.2478432955905
 30
0.0
 10
125.7684486751162
 20
17.6190749255481
 30
0.0
 10
125.4286005128487
 20
17.47022322783181
 30
0.0
1001
PE_URL
1000

  0
SPLINE
  5
27A
330
1F
100
AcDbEntity
  8
0
  6
Continuous
 62
     1
370
    15
100
AcDbSpline
210
0.0
220
0.0
230
1.0
 70
     8
 71
     3
 72
    19
 73
    15
 74
     0
 42
0.000000001
 43
0.00000001
 40
0.0
 40
0.0
 40
0.0
 40
0.0
 40
0.0656942896679912
 40
0.1460148886409539
 40
0.2263383012145425
 40
0.3066563818249525
 40
0.3869694918492608
 40
0.4672784804234396
 40
0.5560679477508792
 40
0.6448565295341488
 40
0.7336441255868351
 40
0.8224306358829134
 40
0.9112159605729131
 40
1.0
 40
1.0
 40
1.0
 40
1.0
 10
73.2550101188751
 20
-19.00782434486286
 30
0.0
 10
72.35866272155013
 20
-18.98823070133384
 30
0.0
 10
70.36640333240888
 20
-18.94468104591598
 30
0.0
 10
67.27806100825563
 20
-18.20037089966283
 30
0.0
 10
63.9900874931154
 20
-16.92859491266361
 30
0.0
 10
60.70239585375745
 20
-15.13754479671072
 30
0.0
 10
57.41492877378298
 20
-12.90125436788482
 30
0.0
 10
54.0122059692615
 20
-10.18859076052819
 30
0.0
 10
50.49295157639006
 20
-7.039047763767563
 30
0.0
 10
46.8582781568807
 20
-3.531033206023373
 30
0.0
 10
43.22359382865976
 20
0.1070776549467342
 30
0.0
 10
39.58899581223482
 20
3.73401046479129
 30
0.0
 10
35.95446346642134
 20
7.252515942274127
 30
0.0
 10
33.53148197622181
 20
9.355246476433049
 30
0.0
 10
32.32000000000026
 20
10.40660413363683
 30
0.0
1001
PE_URL
1000

  0
LINE
  5
27B
330
1F
100
AcDbEntity
  8
0
  6
Continuous
 62
     1
370
    15
100
AcDbLine
 10
215.2
 20
18.91098359472745
 30
0.0
 11
215.2
 21
19.04999999999982
 31
0.0
1001
PE_URL
1000

  0
LINE
  5
27D
330
1F
100
AcDbEntity
  8
0
  6
Continuous
 62
     1
370
    15
100
AcDbLine
 10
215.2
 20
7.466044736003126
 30
0.0
 11
215.2
 21
11.44493885872431
 31
0.0
1001
PE_URL
1000

  0
LINE
  5
27E
330
1F
100
AcDbEntity
  8
0
  6
Continuous
 62
     1
370
    15
100
AcDbLine
 10
215.2
 20
-11.44493885872457
 30
0.0
 11
215.2
 21
-7.466044736003129
 31
0.0
1001
PE_URL
1000

  0
LINE
  5
27F
330
1F
100
AcDbEntity
  8
0
  6
Continuous
 62
     1
370
    15
100
AcDbLine
 10
215.2
 20
-19.05000000000019
 30
0.0
 11
215.2
 21
-18.91098359472781
 31
0.0
1001
PE_URL
1000

  0
LINE
  5
28C
330
1F
100
AcDbEntity
  8
외형선
  6
Continuous
370
    15
100
AcDbLine
 10
-48.32499999999996
 20
-0.0000000000001528
 30
0.0
 11
-48.32499999999996
 21
13.96999999999985
 31
0.0
  0
LINE
  5
28D
330
1F
100
AcDbEntity
  8
외형선
  6
Continuous
370
    15
100
AcDbLine
 10
-48.32499999999996
 20
-15.87500000000012
 30
0.0
 11
-48.32499999999996
 21
-0.0000000000001528
 31
0.0
  0
LINE
  5
290
330
1F
100
AcDbEntity
  8
외형선
  6
Continuous
370
    15
100
AcDbLine
 10
-51.49999999999996
 20
-12.70000000000017
 30
0.0
 11
-51.49999999999996
 21
-0.0000000000001528
 31
0.0
  0
LINE
  5
294
330
1F
100
AcDbEntity
  8
중심선
 62
     1
100
AcDbLine
 10
-51.49999999999996
 20
-0.0000000000001617
 30
0.0
 11
222.2
 21
-0.0000000000001279
 31
0.0
  0
CIRCLE
  5
295
330
1F
100
AcDbEntity
  8
해칭선
100
AcDbCircle
 10
0.0
 20
0.0
 30
0.0
 40
3.000000000000001
  0
DIMENSION
  5
296
330
1F
100
AcDbEntity
  8
치수문자_일반주서
100
AcDbDimension
  2
*D12
 10
-66.49999999999986
 20
-15.87500000000023
 30
0.0
 11
-66.50000000000006
 21
40.35399999999974
 31
0.0
 70
   160
  1
%%c<>
 71
     2
 42
31.74999999999996
 52
-270.0
  3
SLDDIMSTYLE0
100
AcDbAlignedDimension
 13
-36.89499999999995
 23
15.87499999999984
 33
0.0
 14
-48.32499999999993
 24
-15.87500000000016
 34
0.0
 50
90.0000000000002
100
AcDbRotatedDimension
1001
ACAD
1000
DSTYLE
1002
{
1070
   171
1070
     8
1070
   273
1070
     7
1070
   140
1040
4.0
1002
}
1001
ACAD_DSTYLE_DIMFLIPARROW_SYMBOL
1070
   385
1070
     0
1001
ACAD_DSTYLE_DIMFLIPARROW_WHICH_SYMBOL
1070
   386
1070
     3
  0
DIMENSION
  5
297
330
1F
100
AcDbEntity
  8
치수문자_일반주서
100
AcDbDimension
  2
*D13
 10
12.0
 20
30.87499999999985
 30
0.0
 11
139.0000000000001
 21
30.87499999999985
 31
0.0
 70
   160
  1
<>
 71
     2
 42
203.2
  3
SLDDIMSTYLE0
100
AcDbAlignedDimension
 13
215.2
 23
15.75915299560622
 33
0.0
 14
12.0
 24
19.04999999999998
 34
0.0
 50
-0.0000000000000427
100
AcDbRotatedDimension
1001
PE_URL
1000

1001
ACAD
1000
DSTYLE
1002
{
1070
   171
1070
     8
1070
   273
1070
     7
1070
   140
1040
4.0
1002
}
  0
DIMENSION
  5
298
330
1F
100
AcDbEntity
  8
치수문자_일반주서
100
AcDbDimension
  2
*D14
 10
-51.49999999999997
 20
45.87499999999986
 30
0.0
 11
81.85
 21
45.87499999999986
 31
0.0
 70
   160
  1
<>
 71
     2
 42
266.6999999999999
  3
SLDDIMSTYLE0
100
AcDbAlignedDimension
 13
215.2
 23
15.75915299560622
 33
0.0
 14
-51.49999999999996
 24
13.96999999999985
 34
0.0
 50
0.0000000000000038
100
AcDbRotatedDimension
1001
PE_URL
1000

1001
ACAD
1000
DSTYLE
1002
{
1070
   171
1070
     8
1070
   273
1070
     7
1070
   140
1040
4.0
1002
}
  0
DIMENSION
  5
299
330
1F
100
AcDbEntity
  8
치수문자_일반주서
100
AcDbDimension
  2
*D15
 10
230.2000000000002
 20
-19.05000000000013
 30
0.0
 11
230.1999999999999
 21
49.8899835947275
 31
0.0
 70
   160
  1
%%c<>
 71
     2
 42
38.1
 52
-270.0
  3
SLDDIMSTYLE0
100
AcDbAlignedDimension
 13
215.2
 23
19.04999999999982
 33
0.0
 14
215.2
 24
-19.05000000000019
 34
0.0
 50
90.0000000000002
100
AcDbRotatedDimension
1001
PE_URL
1000

1001
ACAD
1000
DSTYLE
1002
{
1070
   171
1070
     8
1070
   273
1070
     7
1070
   140
1040
4.0
1002
}
1001
ACAD_DSTYLE_DIMFLIPARROW_SYMBOL
1070
   385
1070
     0
1001
ACAD_DSTYLE_DIMFLIPARROW_WHICH_SYMBOL
1070
   386
1070
     3
  0
INSERT
  5
29A
330
1F
100
AcDbEntity
  8
해칭선
100
AcDbBlockReference
  2
SW_DOWELSYMBOL_0
 10
0.0
 20
0.0
 30
0.0
  0
LINE
  5
29B
330
1F
100
AcDbEntity
  8
외형선
  6
Continuous
370
    15
100
AcDbLine
 10
-29.08132499999985
 20
13.96999999999985
 30
0.0
 11
-15.97492499999996
 21
13.96999999999985
 31
0.0
1001
PE_URL
1000

  0
LINE
  5
29C
330
1F
100
AcDbEntity
  8
외형선
  6
Continuous
370
    15
100
AcDbLine
 10
-29.08132499999985
 20
13.96999999999986
 30
0.0
 11
-30.98632499999984
 21
15.87499999999985
 31
0.0
1001
PE_URL
1000

  0
LINE
  5
29D
330
1F
100
AcDbEntity
  8
외형선
  6
Continuous
370
    15
100
AcDbLine
 10
-15.97492499999996
 20
13.96999999999986
 30
0.0
 11
-14.06992499999993
 21
15.87499999999985
 31
0.0
1001
PE_URL
1000

  0
LINE
  5
29E
330
1F
100
AcDbEntity
  8
외형선
  6
Continuous
370
    15
100
AcDbLine
 10
-51.49999999999996
 20
13.96999999999985
 30
0.0
 11
-38.79999999999995
 21
13.96999999999985
 31
0.0
1001
PE_URL
1000

  0
LINE
  5
29F
330
1F
100
AcDbEntity
  8
외형선
  6
Continuous
370
    15
100
AcDbLine
 10
-38.79999999999995
 20
13.96999999999986
 30
0.0
 11
-36.89499999999997
 21
15.87499999999984
 31
0.0
1001
PE_URL
1000

  0
LINE
  5
2A0
330
1F
100
AcDbEntity
  8
외형선
  6
Continuous
370
    15
100
AcDbLine
 10
-30.98632499999982
 20
15.87499999999985
 30
0.0
 11
-36.89499999999995
 21
15.87499999999985
 31
0.0
  0
LINE
  5
2D3
330
1F
100
AcDbEntity
  8
외형선
  6
Continuous
370
    15
100
AcDbLine
 10
-51.49999999999996
 20
-0.0000000000001528
 30
0.0
 11
-51.49999999999996
 21
13.96999999999985
 31
0.0
  0
LINE
  5
2D6
330
1F
100
AcDbEntity
  8
외형선
  6
Continuous
370
    15
100
AcDbLine
 10
12.0
 20
19.04999999999998
 30
0.0
 11
12.0
 21
-19.04999999999998
 31
0.0
  0
LINE
  5
2D7
330
1F
100
AcDbEntity
  8
외형선
  6
Continuous
370
    15
100
AcDbLine
 10
12.00000000000001
 20
15.87499999999985
 30
0.0
 11
-14.06992499999993
 21
15.87499999999985
 31
0.0
  0
LINE
  5
2D9
330
1F
100
AcDbEntity
  8
0
  6
Continuous
 62
     1
370
    15
100
AcDbLine
 10
33.35273423188961
 20
-19.04383235089508
 30
0.0
 11
37.95661318971507
 21
-19.04383235089508
 31
0.0
1001
PE_URL
1000

  0
SPLINE
  5
2DA
330
1F
100
AcDbEntity
  8
0
  6
Continuous
 62
     1
370
    15
100
AcDbSpline
210
0.0
220
0.0
230
1.0
 70
     8
 71
     3
 72
    13
 73
     9
 74
     0
 42
0.000000001
 43
0.00000001
 40
0.0
 40
0.0
 40
0.0
 40
0.0
 40
0.1339736057371574
 40
0.3071831204453374
 40
0.4803907121819757
 40
0.6535961858154593
 40
0.8267993465585985
 40
1.0
 40
1.0
 40
1.0
 40
1.0
 10
33.35273423188961
 20
-18.9831624141435
 30
0.0
 10
32.41560162997006
 20
-18.96750146228151
 30
0.0
 10
30.2668849828009
 20
-18.93159304557777
 30
0.0
 10
26.90661871422443
 20
-18.05931988068002
 30
0.0
 10
23.27194903138799
 20
-16.54351704447182
 30
0.0
 10
19.63734709584695
 20
-14.39915609132775
 30
0.0
 10
16.00281578135917
 20
-11.76028586780345
 30
0.0
 10
13.57983415365173
 20
-9.659513108042347
 30
0.0
 10
12.3683521086767
 20
-8.609134330952209
 30
0.0
1001
PE_URL
1000

  0
SPLINE
  5
2DB
330
1F
100
AcDbEntity
  8
0
  6
Continuous
 62
     1
370
    15
100
AcDbSpline
210
0.0
220
0.0
230
1.0
 70
     8
 71
     3
 72
    17
 73
    13
 74
     0
 42
0.000000001
 43
0.00000001
 40
0.0
 40
0.0
 40
0.0
 40
0.0
 40
0.109266884729878
 40
0.2185353512381429
 40
0.3278052768767141
 40
0.4370765387604364
 40
0.546349013786867
 40
0.655622578656169
 40
0.7544591832298346
 40
0.8533008600892318
 40
0.9521486542695141
 40
1.0
 40
1.0
 40
1.0
 40
1.0
 10
12.36835210867666
 20
-4.290735839535481
 30
0.0
 10
13.57983408484342
 20
-5.455960950270851
 30
0.0
 10
16.0028155749333
 20
-7.786428039870487
 30
0.0
 10
19.63734792156882
 20
-10.95750622854074
 30
0.0
 10
23.27194593487023
 20
-13.74194005064975
 30
0.0
 10
26.90663027476348
 20
-16.02424841878276
 30
0.0
 10
30.54130365070669
 20
-17.7261921089817
 30
0.0
 10
34.06055820099546
 20
-18.74836402282167
 30
0.0
 10
37.46328047174054
 20
-19.13682867690657
 30
0.0
 10
40.75074950052711
 20
-18.91567661361606
 30
0.0
 10
43.47298017447173
 20
-18.35365767705837
 30
0.0
 10
45.09946413215176
 20
-17.67580478972389
 30
0.0
 10
45.63000198146277
 20
-17.45469802055005
 30
0.0
1001
PE_URL
1000

  0
SPLINE
  5
2DC
330
1F
100
AcDbEntity
  8
0
  6
Continuous
 62
     1
370
    15
100
AcDbSpline
210
0.0
220
0.0
230
1.0
 70
     8
 71
     3
 72
     9
 73
     5
 74
     0
 42
0.000000001
 43
0.0000000001
 40
0.0
 40
0.0
 40
0.0
 40
0.0
 40
6.415601933323927
 40
12.02037092992474
 40
12.02037092992474
 40
12.02037092992474
 40
12.02037092992474
 10
12.0
 20
-19.04999999999998
 30
0.0
 10
14.10612126778668
 20
-18.6764682342412
 30
0.0
 10
18.05218262341739
 20
-17.97661334530109
 30
0.0
 10
21.96398443303936
 20
-17.1145061258166
 30
0.0
 10
23.78318783263542
 20
-16.68997457934952
 30
0.0
  0
SPLINE
  5
2DE
330
1F
100
AcDbEntity
  8
0
  6
Continuous
 62
     1
370
    15
100
AcDbSpline
210
0.0
220
0.0
230
1.0
 70
     8
 71
     3
 72
    26
 73
    22
 74
     0
 42
0.000000001
 43
0.00000001
 40
0.0
 40
0.0
 40
0.0
 40
0.0
 40
0.0465284072301492
 40
0.0952147946997768
 40
0.1438987308972075
 40
0.1925807323762907
 40
0.2412613169807549
 40
0.2899410034997709
 40
0.3386203113221294
 40
0.3872997600895488
 40
0.4359798693496064
 40
0.484661158208809
 40
0.5333441449863127
 40
0.5820293468687846
 40
0.6307172795669328
 40
0.6794084569741753
 40
0.7281013400152027
 40
0.7767909907650323
 40
0.8254776282941839
 40
0.8741617673576616
 40
0.9082909323910968
 40
0.9082909323910968
 40
0.9082909323910968
 40
0.9082909323910968
 10
73.32837880304533
 20
-19.00022333997037
 30
0.0
 10
72.28111629950028
 20
-18.95517189891309
 30
0.0
 10
70.13801942153114
 20
-18.86297953801881
 30
0.0
 10
66.89927317367328
 20
-18.01973960101527
 30
0.0
 10
63.61212921534532
 20
-16.67277492760948
 30
0.0
 10
60.32518371032172
 20
-14.81740337144257
 30
0.0
 10
57.03838106551689
 20
-12.52411777359783
 30
0.0
 10
53.75166957903333
 20
-9.856910183464432
 30
0.0
 10
50.46499641022784
 20
-6.896089279914137
 30
0.0
 10
47.17830897297848
 20
-3.729276352323822
 30
0.0
 10
43.89155462906311
 20
-0.4505817011748249
 30
0.0
 10
40.60468075843308
 20
2.842661587436857
 30
0.0
 10
37.31763502165734
 20
6.052654422333585
 30
0.0
 10
34.03036447626221
 20
9.084072454816683
 30
0.0
 10
30.74281908475735
 20
11.84685968088757
 30
0.0
 10
27.45498495983077
 20
14.25896014649662
 30
0.0
 10
24.16700921103111
 20
16.24839719446581
 30
0.0
 10
20.87931817948976
 20
17.75706519471517
 30
0.0
 10
17.59185090178168
 20
18.73665320521475
 30
0.0
 10
14.6323929047899
 20
19.12765098225075
 30
0.0
 10
12.76826107479958
 20
19.08166212065402
 30
0.0
 10
11.9999999999999
 20
19.02228197580841
 30
0.0
1001
PE_URL
1000

  0
SPLINE
  5
2DF
330
1F
100
AcDbEntity
  8
0
  6
Continuous
 62
     1
370
    15
100
AcDbSpline
210
0.0
220
0.0
230
1.0
 70
     8
 71
     3
 72
    28
 73
    24
 74
     0
 42
0.000000001
 43
0.00000001
 40
0.0
 40
0.0
 40
0.0
 40
0.0
 40
0.041380715564207
 40
0.0900708312174262
 40
0.1387641791927058
 40
0.1874558215179148
 40
0.2361442191030479
 40
0.2848298858464318
 40
0.3335133374636945
 40
0.3821950911464447
 40
0.4308756652187866
 40
0.4795555787921841
 40
0.5282353514191744
 40
0.5769155027464384
 40
0.625596552167727
 40
0.674279018477162
 40
0.7229634195234184
 40
0.7716502718652765
 40
0.8203400904290704
 40
0.8690332576422918
 40
0.9177252224863826
 40
0.9664138956661386
 40
1.0
 40
1.0
 40
1.0
 40
1.0
 10
18.08518327251926
 20
19.0516530144468
 30
0.0
 10
19.01653554926924
 20
19.02675368380385
 30
0.0
 10
21.04375215437963
 20
18.97255685861145
 30
0.0
 10
24.16701347867014
 20
18.20593033808158
 30
0.0
 10
27.45498381632977
 20
16.91657076994421
 30
0.0
 10
30.7428193911318
 20
15.11046023489811
 30
0.0
 10
34.0303643941729
 20
12.86077077523527
 30
0.0
 10
37.31763504366548
 20
10.22917065544871
 30
0.0
 10
40.60468075248382
 20
7.295231184852164
 30
0.0
 10
43.89155463085314
 20
4.145718694538948
 30
0.0
 10
47.17830897176735
 20
0.8742636628370821
 30
0.0
 10
50.46499641328214
 20
-2.422017408501547
 30
0.0
 10
53.75166956802704
 20
-5.645239695207431
 30
0.0
 10
57.03838110648827
 20
-8.69969948740182
 30
0.0
 10
60.32518355743774
 20
-11.49468564819106
 30
0.0
 10
63.61212978593636
 20
-13.94722756823279
 30
0.0
 10
66.8992710440634
 20
-15.98435047095464
 30
0.0
 10
70.18666405432502
 20
-17.54600537670518
 30
0.0
 10
73.47434145039021
 20
-18.58399758162876
 30
0.0
 10
76.76229996029653
 20
-19.07405469837079
 30
0.0
 10
80.0501591264857
 20
-18.97691223043876
 30
0.0
 10
82.99788224558924
 20
-18.44862710500339
 30
0.0
 10
84.84961196797119
 20
-17.72702272187021
 30
0.0
 10
85.60552270432937
 20
-17.43245030451336
 30
0.0
1001
PE_URL
1000

  0
LINE
  5
2E0
330
1F
100
AcDbEntity
  8
0
  6
Continuous
 62
     1
370
    15
100
AcDbLine
 10
12.0
 20
19.11249999999998
 30
0.0
 11
18.08518327251926
 21
19.0516530144468
 31
0.0
  0
SPLINE
  5
2E1
330
1F
100
AcDbEntity
  8
0
  6
Continuous
 62
     1
370
    15
100
AcDbSpline
210
0.0
220
0.0
230
1.0
 70
     8
 71
     3
 72
    28
 73
    24
 74
     0
 42
0.000000001
 43
0.00000001
 40
0.0
 40
0.0
 40
0.0
 40
0.0
 40
0.0465284072301492
 40
0.0952147946997768
 40
0.1438987308972075
 40
0.1925807323762907
 40
0.2412613169807549
 40
0.2899410034997709
 40
0.3386203113221294
 40
0.3872997600895488
 40
0.4359798693496064
 40
0.484661158208809
 40
0.5333441449863127
 40
0.5820293468687846
 40
0.6307172795669328
 40
0.6794084569741753
 40
0.7281013400152027
 40
0.7767909907650323
 40
0.8254776282941839
 40
0.8741617673576616
 40
0.9279868603078549
 40
0.9818114164320183
 40
1.0
 40
1.0
 40
1.0
 40
1.0
 10
93.20209740359732
 20
-19.03799626328919
 30
0.0
 10
92.15483490005228
 20
-18.99294482223192
 30
0.0
 10
90.01173802208314
 20
-18.90075246133764
 30
0.0
 10
86.77299177422528
 20
-18.05751252433409
 30
0.0
 10
83.48584781589732
 20
-16.71054785092831
 30
0.0
 10
80.19890231087372
 20
-14.8551762947614
 30
0.0
 10
76.91209966606888
 20
-12.56189069691665
 30
0.0
 10
73.62538817958533
 20
-9.894683106783255
 30
0.0
 10
70.33871501077984
 20
-6.93386220323296
 30
0.0
 10
67.05202757353048
 20
-3.767049275642645
 30
0.0
 10
63.7652732296151
 20
-0.4883546244936475
 30
0.0
 10
60.47839935898507
 20
2.804888664118034
 30
0.0
 10
57.19135362220933
 20
6.014881499014762
 30
0.0
 10
53.90408307681421
 20
9.04629953149786
 30
0.0
 10
50.61653768530935
 20
11.80908675756874
 30
0.0
 10
47.32870356038277
 20
14.22118722317779
 30
0.0
 10
44.04072781158311
 20
16.21062427114699
 30
0.0
 10
40.75303678004176
 20
17.71929227139634
 30
0.0
 10
37.46556950233368
 20
18.69888028189592
 30
0.0
 10
34.06284688742156
 20
19.14844130950745
 30
0.0
 10
30.54359188138758
 20
18.93042112808975
 30
0.0
 10
27.7110510221925
 20
18.34655061144343
 30
0.0
 10
26.09006122775316
 20
17.6345342231576
 30
0.0
 10
25.68064277349541
 20
17.45469802054968
 30
0.0
1001
PE_URL
1000

  0
ENDSEC
  0
SECTION
  2
OBJECTS
  0
DICTIONARY
  5
C
330
0
100
AcDbDictionary
281
     1
  3
ACAD_GROUP
350
D
  3
ACAD_IMAGE_VARS
350
140
  3
ACAD_LAYOUT
350
1A
  3
ACAD_MLINESTYLE
350
17
  3
ACAD_PLOTSETTINGS
350
19
  3
ACAD_PLOTSTYLENAME
350
E
  3
ACAD_SCALELIST
350
47
  3
APPDATA
350
13E
  3
DWGPROPS
350
2E3
  0
DICTIONARY
  5
209
330
2
100
AcDbDictionary
280
     1
281
     1
  3
ACAD_LAYERSTATES
360
20A
  0
DICTIONARY
  5
D
102
{ACAD_REACTORS
330
C
102
}
330
C
100
AcDbDictionary
281
     1
  0
RASTERVARIABLES
  5
140
102
{ACAD_REACTORS
330
C
102
}
330
C
100
AcDbRasterVariables
 90
        0
 70
     1
 71
     1
 72
     1
  0
DICTIONARY
  5
1A
102
{ACAD_REACTORS
330
C
102
}
330
C
100
AcDbDictionary
281
     1
  3
Layout1
350
1E
  3
Layout2
350
26
  3
Model
350
22
  0
DICTIONARY
  5
17
102
{ACAD_REACTORS
330
C
102
}
330
C
100
AcDbDictionary
281
     1
  3
Standard
350
18
  0
DICTIONARY
  5
19
102
{ACAD_REACTORS
330
C
102
}
330
C
100
AcDbDictionary
281
     1
  0
ACDBDICTIONARYWDFLT
  5
E
102
{ACAD_REACTORS
330
C
102
}
330
C
100
AcDbDictionary
281
     1
  3
Normal
350
F
100
AcDbDictionaryWithDefault
340
F
  0
DICTIONARY
  5
47
102
{ACAD_REACTORS
330
C
102
}
330
C
100
AcDbDictionary
281
     1
  3
A0
350
48
  3
A1
350
49
  3
A2
350
4A
  3
A3
350
4B
  3
A4
350
4C
  3
A5
350
4D
  3
A6
350
4E
  3
A7
350
4F
  3
A8
350
50
  3
A9
350
51
  3
B0
350
52
  3
B1
350
53
  3
B2
350
54
  3
B3
350
55
  3
B4
350
56
  3
B5
350
57
  3
B6
350
58
  3
B7
350
59
  3
B8
350
5A
  3
B9
350
5B
  3
C0
350
5C
  3
C1
350
5D
  3
C2
350
5E
  3
C3
350
5F
  3
C4
350
60
  3
C5
350
61
  3
C6
350
62
  3
C7
350
63
  3
C8
350
64
  3
C9
350
65
  3
D0
350
66
  3
D1
350
67
  3
D2
350
68
  0
DICTIONARY
  5
13E
102
{ACAD_REACTORS
330
C
102
}
330
C
100
AcDbDictionary
281
     1
  0
XRECORD
  5
2E3
102
{ACAD_REACTORS
330
C
102
}
330
C
100
AcDbXrecord
280
     1
  1
DWGPROPS COOKIE
  2

  3

  4

  6

  7

  8
12016016
  9

300
=
301
=
302
=
303
=
304
=
305
=
306
=
307
=
308
=
309
=
 40
0.0
 41
2458323.101090185
 42
2458330.261396736
  1

 90
        0
  0
DICTIONARY
  5
20A
102
{ACAD_REACTORS
330
209
102
}
330
209
100
AcDbDictionary
281
     1
  0
LAYOUT
  5
1E
102
{ACAD_REACTORS
330
1A
102
}
330
1A
100
AcDbPlotSettings
  1

  2
none_device
  4

  6

 40
0.0
 41
0.0
 42
0.0
 43
0.0
 44
0.0
 45
0.0
 46
0.0
 47
0.0
 48
0.0
 49
0.0
140
0.0
141
0.0
142
1.0
143
1.0
 70
   688
 72
     1
 73
     0
 74
     5
  7

 75
    16
147
1.0
148
0.0
149
0.0
100
AcDbLayout
  1
Layout1
 70
     1
 71
     1
 10
0.0
 20
0.0
 11
420.0
 21
297.0
 12
0.0
 22
0.0
 32
0.0
 14
1.000000000000000E+20
 24
1.000000000000000E+20
 34
1.000000000000000E+20
 15
-1.000000000000000E+20
 25
-1.000000000000000E+20
 35
-1.000000000000000E+20
146
0.0
 13
0.0
 23
0.0
 33
0.0
 16
1.0
 26
0.0
 36
0.0
 17
0.0
 27
1.0
 37
0.0
 76
     0
330
1B
  0
LAYOUT
  5
26
102
{ACAD_REACTORS
330
1A
102
}
330
1A
100
AcDbPlotSettings
  1

  2
none_device
  4

  6

 40
0.0
 41
0.0
 42
0.0
 43
0.0
 44
0.0
 45
0.0
 46
0.0
 47
0.0
 48
0.0
 49
0.0
140
0.0
141
0.0
142
1.0
143
1.0
 70
   688
 72
     1
 73
     0
 74
     5
  7

 75
    16
147
1.0
148
0.0
149
0.0
100
AcDbLayout
  1
Layout2
 70
     1
 71
     2
 10
0.0
 20
0.0
 11
0.0
 21
0.0
 12
0.0
 22
0.0
 32
0.0
 14
0.0
 24
0.0
 34
0.0
 15
0.0
 25
0.0
 35
0.0
146
0.0
 13
0.0
 23
0.0
 33
0.0
 16
1.0
 26
0.0
 36
0.0
 17
0.0
 27
1.0
 37
0.0
 76
     0
330
23
  0
LAYOUT
  5
22
102
{ACAD_REACTORS
330
1A
102
}
330
1A
100
AcDbPlotSettings
  1

  2
none_device
  4
ANSI_A_(11.00_x_8.50_Inches)
  6

 40
6.35
 41
19.05
 42
6.35000508
 43
19.05000254
 44
279.4
 45
215.9
 46
96.39525648754174
 47
90.09827952143297
 48
0.0
 49
0.0
140
0.0
141
0.0
142
0.0605651527843098
143
1.0
 70
  1696
 72
     0
 73
     0
 74
     0
  7

 75
     0
147
0.0235690232323232
148
0.0
149
0.0
100
AcDbLayout
  1
Model
 70
     1
 71
     0
 10
0.0
 20
0.0
 11
420.0
 21
297.0
 12
0.0
 22
0.0
 32
0.0
 14
1.000000000000000E+20
 24
1.000000000000000E+20
 34
1.000000000000000E+20
 15
-1.000000000000000E+20
 25
-1.000000000000000E+20
 35
-1.000000000000000E+20
146
0.0
 13
0.0
 23
0.0
 33
0.0
 16
1.0
 26
0.0
 36
0.0
 17
0.0
 27
1.0
 37
0.0
 76
     0
330
1F
331
29
  0
MLINESTYLE
  5
18
102
{ACAD_REACTORS
330
17
102
}
330
17
100
AcDbMlineStyle
  2
Standard
 70
     0
  3

 62
   256
 51
90.0
 52
90.0
 71
     2
 49
0.5
 62
   256
  6
BYLAYER
 49
-0.5
 62
   256
  6
BYLAYER
  0
ACDBPLACEHOLDER
  5
F
102
{ACAD_REACTORS
330
E
102
}
330
E
  0
SCALE
  5
48
102
{ACAD_REACTORS
330
47
102
}
330
47
100
AcDbScale
 70
     0
300
1:1
140
1.0
141
1.0
290
     1
  0
SCALE
  5
49
102
{ACAD_REACTORS
330
47
102
}
330
47
100
AcDbScale
 70
     0
300
1:2
140
1.0
141
2.0
290
     0
  0
SCALE
  5
4A
102
{ACAD_REACTORS
330
47
102
}
330
47
100
AcDbScale
 70
     0
300
1:4
140
1.0
141
4.0
290
     0
  0
SCALE
  5
4B
102
{ACAD_REACTORS
330
47
102
}
330
47
100
AcDbScale
 70
     0
300
1:5
140
1.0
141
5.0
290
     0
  0
SCALE
  5
4C
102
{ACAD_REACTORS
330
47
102
}
330
47
100
AcDbScale
 70
     0
300
1:8
140
1.0
141
8.0
290
     0
  0
SCALE
  5
4D
102
{ACAD_REACTORS
330
47
102
}
330
47
100
AcDbScale
 70
     0
300
1:10
140
1.0
141
10.0
290
     0
  0
SCALE
  5
4E
102
{ACAD_REACTORS
330
47
102
}
330
47
100
AcDbScale
 70
     0
300
1:16
140
1.0
141
16.0
290
     0
  0
SCALE
  5
4F
102
{ACAD_REACTORS
330
47
102
}
330
47
100
AcDbScale
 70
     0
300
1:20
140
1.0
141
20.0
290
     0
  0
SCALE
  5
50
102
{ACAD_REACTORS
330
47
102
}
330
47
100
AcDbScale
 70
     0
300
1:30
140
1.0
141
30.0
290
     0
  0
SCALE
  5
51
102
{ACAD_REACTORS
330
47
102
}
330
47
100
AcDbScale
 70
     0
300
1:40
140
1.0
141
40.0
290
     0
  0
SCALE
  5
52
102
{ACAD_REACTORS
330
47
102
}
330
47
100
AcDbScale
 70
     0
300
1:50
140
1.0
141
50.0
290
     0
  0
SCALE
  5
53
102
{ACAD_REACTORS
330
47
102
}
330
47
100
AcDbScale
 70
     0
300
1:100
140
1.0
141
100.0
290
     0
  0
SCALE
  5
54
102
{ACAD_REACTORS
330
47
102
}
330
47
100
AcDbScale
 70
     0
300
2:1
140
2.0
141
1.0
290
     0
  0
SCALE
  5
55
102
{ACAD_REACTORS
330
47
102
}
330
47
100
AcDbScale
 70
     0
300
4:1
140
4.0
141
1.0
290
     0
  0
SCALE
  5
56
102
{ACAD_REACTORS
330
47
102
}
330
47
100
AcDbScale
 70
     0
300
8:1
140
8.0
141
1.0
290
     0
  0
SCALE
  5
57
102
{ACAD_REACTORS
330
47
102
}
330
47
100
AcDbScale
 70
     0
300
10:1
140
10.0
141
1.0
290
     0
  0
SCALE
  5
58
102
{ACAD_REACTORS
330
47
102
}
330
47
100
AcDbScale
 70
     0
300
100:1
140
100.0
141
1.0
290
     0
  0
SCALE
  5
59
102
{ACAD_REACTORS
330
47
102
}
330
47
100
AcDbScale
 70
     0
300
1/128" = 1'-0"
140
0.0078125
141
12.0
290
     0
  0
SCALE
  5
5A
102
{ACAD_REACTORS
330
47
102
}
330
47
100
AcDbScale
 70
     0
300
1/64" = 1'-0"
140
0.015625
141
12.0
290
     0
  0
SCALE
  5
5B
102
{ACAD_REACTORS
330
47
102
}
330
47
100
AcDbScale
 70
     0
300
1/32" = 1'-0"
140
0.03125
141
12.0
290
     0
  0
SCALE
  5
5C
102
{ACAD_REACTORS
330
47
102
}
330
47
100
AcDbScale
 70
     0
300
1/16" = 1'-0"
140
0.0625
141
12.0
290
     0
  0
SCALE
  5
5D
102
{ACAD_REACTORS
330
47
102
}
330
47
100
AcDbScale
 70
     0
300
3/32" = 1'-0"
140
0.09375
141
12.0
290
     0
  0
SCALE
  5
5E
102
{ACAD_REACTORS
330
47
102
}
330
47
100
AcDbScale
 70
     0
300
1/8" = 1'-0"
140
0.125
141
12.0
290
     0
  0
SCALE
  5
5F
102
{ACAD_REACTORS
330
47
102
}
330
47
100
AcDbScale
 70
     0
300
3/16" = 1'-0"
140
0.1875
141
12.0
290
     0
  0
SCALE
  5
60
102
{ACAD_REACTORS
330
47
102
}
330
47
100
AcDbScale
 70
     0
300
1/4" = 1'-0"
140
0.25
141
12.0
290
     0
  0
SCALE
  5
61
102
{ACAD_REACTORS
330
47
102
}
330
47
100
AcDbScale
 70
     0
300
3/8" = 1'-0"
140
0.375
141
12.0
290
     0
  0
SCALE
  5
62
102
{ACAD_REACTORS
330
47
102
}
330
47
100
AcDbScale
 70
     0
300
1/2" = 1'-0"
140
0.5
141
12.0
290
     0
  0
SCALE
  5
63
102
{ACAD_REACTORS
330
47
102
}
330
47
100
AcDbScale
 70
     0
300
3/4" = 1'-0"
140
0.75
141
12.0
290
     0
  0
SCALE
  5
64
102
{ACAD_REACTORS
330
47
102
}
330
47
100
AcDbScale
 70
     0
300
1" = 1'-0"
140
1.0
141
12.0
290
     0
  0
SCALE
  5
65
102
{ACAD_REACTORS
330
47
102
}
330
47
100
AcDbScale
 70
     0
300
1-1/2" = 1'-0"
140
1.5
141
12.0
290
     0
  0
SCALE
  5
66
102
{ACAD_REACTORS
330
47
102
}
330
47
100
AcDbScale
 70
     0
300
3" = 1'-0"
140
3.0
141
12.0
290
     0
  0
SCALE
  5
67
102
{ACAD_REACTORS
330
47
102
}
330
47
100
AcDbScale
 70
     0
300
6" = 1'-0"
140
6.0
141
12.0
290
     0
  0
SCALE
  5
68
102
{ACAD_REACTORS
330
47
102
}
330
47
100
AcDbScale
 70
     0
300
1'-0" = 1'-0"
140
12.0
141
12.0
290
     0
  0
ENDSEC
  0
EOF
