  0
SECTION
  2
HEADER
  9
$ACADVER
  1
AC1015
  9
$ACADMAINTVER
 70
     6
  9
$DWGCODEPAGE
  3
ANSI_949
  9
$INSBASE
 10
0.0
 20
0.0
 30
0.0
  9
$EXTMIN
 10
-50.12577283782736
 20
-49.97180738881174
 30
0.0
  9
$EXTMAX
 10
91.96810055572054
 20
38.02202942590522
 30
0.0
  9
$LIMMIN
 10
0.0
 20
0.0
  9
$LIMMAX
 10
420.0
 20
297.0
  9
$ORTHOMODE
 70
     1
  9
$REGENMODE
 70
     1
  9
$FILLMODE
 70
     1
  9
$QTEXTMODE
 70
     0
  9
$MIRRTEXT
 70
     1
  9
$LTSCALE
 40
1.0
  9
$ATTMODE
 70
     1
  9
$TEXTSIZE
 40
3.5
  9
$TRACEWID
 40
1.0
  9
$TEXTSTYLE
  7
Standard
  9
$CLAYER
  8
0
  9
$CELTYPE
  6
ByLayer
  9
$CECOLOR
 62
   256
  9
$CELTSCALE
 40
1.0
  9
$DISPSILH
 70
     0
  9
$DIMSCALE
 40
1.0
  9
$DIMASZ
 40
3.302
  9
$DIMEXO
 40
1.0
  9
$DIMDLI
 40
3.75
  9
$DIMRND
 40
0.0
  9
$DIMDLE
 40
0.0
  9
$DIMEXE
 40
1.0
  9
$DIMTP
 40
0.0
  9
$DIMTM
 40
0.0
  9
$DIMTXT
 40
3.5
  9
$DIMCEN
 40
2.5
  9
$DIMTSZ
 40
0.0
  9
$DIMTOL
 70
     0
  9
$DIMLIM
 70
     0
  9
$DIMTIH
 70
     1
  9
$DIMTOH
 70
     1
  9
$DIMSE1
 70
     0
  9
$DIMSE2
 70
     0
  9
$DIMTAD
 70
     1
  9
$DIMZIN
 70
     0
  9
$DIMBLK
  1

  9
$DIMASO
 70
     1
  9
$DIMSHO
 70
     1
  9
$DIMPOST
  1

  9
$DIMAPOST
  1

  9
$DIMALT
 70
     0
  9
$DIMALTD
 70
     3
  9
$DIMALTF
 40
0.0393700787401575
  9
$DIMLFAC
 40
1.0
  9
$DIMTOFL
 70
     1
  9
$DIMTVP
 40
0.0
  9
$DIMTIX
 70
     0
  9
$DIMSOXD
 70
     0
  9
$DIMSAH
 70
     0
  9
$DIMBLK1
  1

  9
$DIMBLK2
  1

  9
$DIMSTYLE
  2
ISO-25
  9
$DIMCLRD
 70
     0
  9
$DIMCLRE
 70
     0
  9
$DIMCLRT
 70
     0
  9
$DIMTFAC
 40
1.0
  9
$DIMGAP
 40
1.524
  9
$DIMJUST
 70
     0
  9
$DIMSD1
 70
     0
  9
$DIMSD2
 70
     0
  9
$DIMTOLJ
 70
     0
  9
$DIMTZIN
 70
     0
  9
$DIMALTZ
 70
     0
  9
$DIMALTTZ
 70
     0
  9
$DIMUPT
 70
     0
  9
$DIMDEC
 70
     2
  9
$DIMTDEC
 70
     2
  9
$DIMALTU
 70
     2
  9
$DIMALTTD
 70
     3
  9
$DIMTXSTY
  7
Standard
  9
$DIMAUNIT
 70
     0
  9
$DIMADEC
 70
     2
  9
$DIMALTRND
 40
0.0
  9
$DIMAZIN
 70
     0
  9
$DIMDSEP
 70
    44
  9
$DIMATFIT
 70
     3
  9
$DIMFRAC
 70
     0
  9
$DIMLDRBLK
  1

  9
$DIMLUNIT
 70
     2
  9
$DIMLWD
 70
    -2
  9
$DIMLWE
 70
    -2
  9
$DIMTMOVE
 70
     0
  9
$LUNITS
 70
     2
  9
$LUPREC
 70
     2
  9
$SKETCHINC
 40
1.0
  9
$FILLETRAD
 40
10.0
  9
$AUNITS
 70
     0
  9
$AUPREC
 70
     2
  9
$MENU
  1
.
  9
$ELEVATION
 40
0.0
  9
$PELEVATION
 40
0.0
  9
$THICKNESS
 40
0.0
  9
$LIMCHECK
 70
     0
  9
$CHAMFERA
 40
0.0
  9
$CHAMFERB
 40
0.0
  9
$CHAMFERC
 40
0.0
  9
$CHAMFERD
 40
0.0
  9
$SKPOLY
 70
     0
  9
$TDCREATE
 40
2458312.675680382
  9
$TDUCREATE
 40
2458312.300680382
  9
$TDUPDATE
 40
2458323.752974213
  9
$TDUUPDATE
 40
2458323.377974213
  9
$TDINDWG
 40
0.0020476736
  9
$TDUSRTIMER
 40
2458323.377493727
  9
$USRTIMER
 70
     1
  9
$ANGBASE
 50
0.0
  9
$ANGDIR
 70
     0
  9
$PDMODE
 70
     0
  9
$PDSIZE
 40
-1.0
  9
$PLINEWID
 40
0.0
  9
$SPLFRAME
 70
     0
  9
$SPLINETYPE
 70
     6
  9
$SPLINESEGS
 70
     8
  9
$HANDSEED
  5
330
  9
$SURFTAB1
 70
     6
  9
$SURFTAB2
 70
     6
  9
$SURFTYPE
 70
     6
  9
$SURFU
 70
     6
  9
$SURFV
 70
     6
  9
$UCSBASE
  2

  9
$UCSNAME
  2

  9
$UCSORG
 10
0.0
 20
0.0
 30
0.0
  9
$UCSXDIR
 10
1.0
 20
0.0
 30
0.0
  9
$UCSYDIR
 10
0.0
 20
1.0
 30
0.0
  9
$UCSORTHOREF
  2

  9
$UCSORTHOVIEW
 70
     0
  9
$UCSORGTOP
 10
0.0
 20
0.0
 30
0.0
  9
$UCSORGBOTTOM
 10
0.0
 20
0.0
 30
0.0
  9
$UCSORGLEFT
 10
0.0
 20
0.0
 30
0.0
  9
$UCSORGRIGHT
 10
0.0
 20
0.0
 30
0.0
  9
$UCSORGFRONT
 10
0.0
 20
0.0
 30
0.0
  9
$UCSORGBACK
 10
0.0
 20
0.0
 30
0.0
  9
$PUCSBASE
  2

  9
$PUCSNAME
  2

  9
$PUCSORG
 10
0.0
 20
0.0
 30
0.0
  9
$PUCSXDIR
 10
1.0
 20
0.0
 30
0.0
  9
$PUCSYDIR
 10
0.0
 20
1.0
 30
0.0
  9
$PUCSORTHOREF
  2

  9
$PUCSORTHOVIEW
 70
     0
  9
$PUCSORGTOP
 10
0.0
 20
0.0
 30
0.0
  9
$PUCSORGBOTTOM
 10
0.0
 20
0.0
 30
0.0
  9
$PUCSORGLEFT
 10
0.0
 20
0.0
 30
0.0
  9
$PUCSORGRIGHT
 10
0.0
 20
0.0
 30
0.0
  9
$PUCSORGFRONT
 10
0.0
 20
0.0
 30
0.0
  9
$PUCSORGBACK
 10
0.0
 20
0.0
 30
0.0
  9
$USERI1
 70
     0
  9
$USERI2
 70
     0
  9
$USERI3
 70
     0
  9
$USERI4
 70
     0
  9
$USERI5
 70
     0
  9
$USERR1
 40
0.0
  9
$USERR2
 40
0.0
  9
$USERR3
 40
0.0
  9
$USERR4
 40
0.0
  9
$USERR5
 40
0.0
  9
$WORLDVIEW
 70
     1
  9
$SHADEDGE
 70
     3
  9
$SHADEDIF
 70
    70
  9
$TILEMODE
 70
     1
  9
$MAXACTVP
 70
    64
  9
$PINSBASE
 10
0.0
 20
0.0
 30
0.0
  9
$PLIMCHECK
 70
     0
  9
$PEXTMIN
 10
1.000000000000000E+20
 20
1.000000000000000E+20
 30
1.000000000000000E+20
  9
$PEXTMAX
 10
-1.000000000000000E+20
 20
-1.000000000000000E+20
 30
-1.000000000000000E+20
  9
$PLIMMIN
 10
0.0
 20
0.0
  9
$PLIMMAX
 10
0.0
 20
0.0
  9
$UNITMODE
 70
     0
  9
$VISRETAIN
 70
     1
  9
$PLINEGEN
 70
     0
  9
$PSLTSCALE
 70
     1
  9
$TREEDEPTH
 70
  3020
  9
$CMLSTYLE
  2
Standard
  9
$CMLJUST
 70
     0
  9
$CMLSCALE
 40
20.0
  9
$PROXYGRAPHICS
 70
     1
  9
$MEASUREMENT
 70
     1
  9
$CELWEIGHT
370
    -1
  9
$ENDCAPS
280
     0
  9
$JOINSTYLE
280
     0
  9
$LWDISPLAY
290
     1
  9
$INSUNITS
 70
     4
  9
$HYPERLINKBASE
  1

  9
$STYLESHEET
  1

  9
$XEDIT
290
     1
  9
$CEPSNTYPE
380
     0
  9
$PSTYLEMODE
290
     1
  9
$FINGERPRINTGUID
  2
{AF0EABA0-7B2C-4152-A36E-D86A7983F7BB}
  9
$VERSIONGUID
  2
{FAEB1C32-E019-11D5-929B-00C0DF256EC4}
  9
$EXTNAMES
290
     1
  9
$PSVPSCALE
 40
0.0
  9
$OLESTARTUP
290
     0
  0
ENDSEC
  0
SECTION
  2
CLASSES
  0
CLASS
  1
ACDBDICTIONARYWDFLT
  2
AcDbDictionaryWithDefault
  3
ObjectDBX Classes
 90
        0
280
     0
281
     0
  0
CLASS
  1
VISUALSTYLE
  2
AcDbVisualStyle
  3
ObjectDBX Classes
 90
     4095
280
     0
281
     0
  0
CLASS
  1
MATERIAL
  2
AcDbMaterial
  3
ObjectDBX Classes
 90
     1153
280
     0
281
     0
  0
CLASS
  1
SCALE
  2
AcDbScale
  3
ObjectDBX Classes
 90
     1153
280
     0
281
     0
  0
CLASS
  1
SUN
  2
AcDbSun
  3
SCENEOE
 90
     1153
280
     0
281
     0
  0
CLASS
  1
ACDBPLACEHOLDER
  2
AcDbPlaceHolder
  3
ObjectDBX Classes
 90
        0
280
     0
281
     0
  0
CLASS
  1
LAYOUT
  2
AcDbLayout
  3
ObjectDBX Classes
 90
        0
280
     0
281
     0
  0
CLASS
  1
TABLESTYLE
  2
AcDbTableStyle
  3
ObjectDBX Classes
 90
     4095
280
     0
281
     0
  0
CLASS
  1
MLEADERSTYLE
  2
AcDbMLeaderStyle
  3
ACDB_MLEADERSTYLE_CLASS
 90
     4095
280
     0
281
     0
  0
CLASS
  1
RASTERVARIABLES
  2
AcDbRasterVariables
  3
ISM
 90
        0
280
     0
281
     0
  0
CLASS
  1
DIMASSOC
  2
AcDbDimAssoc
  3
"AcDbDimAssoc|Product Desc:     AcDim ARX App For Dimension|Company:          Autodesk, Inc.|WEB Address:      www.autodesk.com"
 90
        0
280
     0
281
     0
  0
ENDSEC
  0
SECTION
  2
TABLES
  0
TABLE
  2
VPORT
  5
8
330
0
100
AcDbSymbolTable
 70
     1
  0
VPORT
  5
29
330
8
100
AcDbSymbolTableRecord
100
AcDbViewportTableRecord
  2
*Active
 70
     0
 10
0.0
 20
0.0
 11
1.0
 21
1.0
 12
14.95621569527395
 22
9.763182623485378
 13
0.0
 23
0.0
 14
10.0
 24
10.0
 15
10.0
 25
10.0
 16
0.0
 26
0.0
 36
1.0
 17
0.0
 27
0.0
 37
0.0
 40
153.2733310131707
 41
1.632093933463796
 42
50.0
 43
0.0
 44
0.0
 50
0.0
 51
0.0
 71
    16
 72
  2000
 73
     1
 74
     3
 75
     0
 76
     0
 77
     0
 78
     0
281
     0
 65
     1
110
0.0
120
0.0
130
0.0
111
1.0
121
0.0
131
0.0
112
0.0
122
1.0
132
0.0
 79
     0
146
0.0
  0
ENDTAB
  0
TABLE
  2
LTYPE
  5
5
330
0
100
AcDbSymbolTable
 70
     6
  0
LTYPE
  5
14
330
5
100
AcDbSymbolTableRecord
100
AcDbLinetypeTableRecord
  2
ByBlock
 70
     0
  3

 72
    65
 73
     0
 40
0.0
  0
LTYPE
  5
15
330
5
100
AcDbSymbolTableRecord
100
AcDbLinetypeTableRecord
  2
ByLayer
 70
     0
  3

 72
    65
 73
     0
 40
0.0
  0
LTYPE
  5
16
330
5
100
AcDbSymbolTableRecord
100
AcDbLinetypeTableRecord
  2
Continuous
 70
     0
  3
Solid line
 72
    65
 73
     0
 40
0.0
  0
LTYPE
  5
6A
330
5
100
AcDbSymbolTableRecord
100
AcDbLinetypeTableRecord
  2
HIDDEN
 70
     0
  3
Hidden __ __ __ __ __ __ __ __ __ __ __ __ __ __
 72
    65
 73
     2
 40
1.905
 49
1.27
 74
     0
 49
-0.635
 74
     0
  0
LTYPE
  5
6B
330
5
100
AcDbSymbolTableRecord
100
AcDbLinetypeTableRecord
  2
PHANTOM
 70
     0
  3
Phantom ______  __  __  ______  __  __  ______
 72
    65
 73
     6
 40
12.7
 49
6.35
 74
     0
 49
-1.27
 74
     0
 49
1.27
 74
     0
 49
-1.27
 74
     0
 49
1.27
 74
     0
 49
-1.27
 74
     0
  0
LTYPE
  5
6C
330
5
100
AcDbSymbolTableRecord
100
AcDbLinetypeTableRecord
  2
CENTER
 70
     0
  3
Center ____ _ ____ _ ____ _ ____ _ ____ _ ____
 72
    65
 73
     4
 40
10.16
 49
6.35
 74
     0
 49
-1.27
 74
     0
 49
1.27
 74
     0
 49
-1.27
 74
     0
  0
LTYPE
  5
6D
330
5
100
AcDbSymbolTableRecord
100
AcDbLinetypeTableRecord
  2
CENTERX2
 70
     0
  3
Center (2x) ________  __  ________  __  _____
 72
    65
 73
     4
 40
20.32
 49
12.7
 74
     0
 49
-2.54
 74
     0
 49
2.54
 74
     0
 49
-2.54
 74
     0
  0
LTYPE
  5
6E
330
5
100
AcDbSymbolTableRecord
100
AcDbLinetypeTableRecord
  2
DOT2
 70
     0
  3
Dot (.5x) ........................................
 72
    65
 73
     2
 40
0.635
 49
0.0
 74
     0
 49
-0.635
 74
     0
  0
ENDTAB
  0
TABLE
  2
LAYER
  5
2
102
{ACAD_XDICTIONARY
360
1FA
102
}
330
0
100
AcDbSymbolTable
 70
    18
  0
LAYER
  5
10
330
2
100
AcDbSymbolTableRecord
100
AcDbLayerTableRecord
  2
0
 70
     0
 62
     7
  6
Continuous
370
    -3
390
F
  0
LAYER
  5
6F
330
2
100
AcDbSymbolTableRecord
100
AcDbLayerTableRecord
  2
FORMAT
 70
     0
 62
     2
  6
Continuous
370
    -3
390
F
  0
LAYER
  5
70
330
2
100
AcDbSymbolTableRecord
100
AcDbLayerTableRecord
  2
외형선
 70
     0
 62
     4
  6
Continuous
370
    30
390
F
  0
LAYER
  5
71
330
2
100
AcDbSymbolTableRecord
100
AcDbLayerTableRecord
  2
숨은선
 70
     0
 62
     2
  6
HIDDEN
370
    15
390
F
  0
LAYER
  5
72
330
2
100
AcDbSymbolTableRecord
100
AcDbLayerTableRecord
  2
중심선
 70
     0
 62
     1
  6
CENTERX2
370
    -3
390
F
  0
LAYER
  5
73
330
2
100
AcDbSymbolTableRecord
100
AcDbLayerTableRecord
  2
파단선
 70
     0
 62
     4
  6
Continuous
370
    -3
390
F
  0
LAYER
  5
74
330
2
100
AcDbSymbolTableRecord
100
AcDbLayerTableRecord
  2
해칭선
 70
     0
 62
   100
  6
Continuous
370
    -3
390
F
  0
LAYER
  5
75
330
2
100
AcDbSymbolTableRecord
100
AcDbLayerTableRecord
  2
가는실선
 70
     0
 62
     4
  6
Continuous
370
    -3
390
F
  0
LAYER
  5
76
330
2
100
AcDbSymbolTableRecord
100
AcDbLayerTableRecord
  2
치수_보조선
 70
     0
 62
     4
  6
Continuous
370
    -3
390
F
  0
LAYER
  5
77
330
2
100
AcDbSymbolTableRecord
100
AcDbLayerTableRecord
  2
치수문자_일반주서
 70
     0
 62
     7
  6
Continuous
370
    15
390
F
  0
LAYER
  5
78
330
2
100
AcDbSymbolTableRecord
100
AcDbLayerTableRecord
  2
개별주서
 70
     0
 62
   100
  6
Continuous
370
    30
390
F
  0
LAYER
  5
79
330
2
100
AcDbSymbolTableRecord
100
AcDbLayerTableRecord
  2
중간선
 70
     0
 62
     2
  6
Continuous
370
    15
390
F
  0
LAYER
  5
7A
330
2
100
AcDbSymbolTableRecord
100
AcDbLayerTableRecord
  2
윤곽선
 70
     0
 62
     3
  6
Continuous
370
    40
390
F
  0
LAYER
  5
7B
330
2
100
AcDbSymbolTableRecord
100
AcDbLayerTableRecord
  2
중심마크
 70
     0
 62
   100
  6
Continuous
370
    30
390
F
  0
LAYER
  5
7C
330
2
100
AcDbSymbolTableRecord
100
AcDbLayerTableRecord
  2
가상선
 70
     0
 62
     4
  6
PHANTOM
370
    -3
390
F
  0
LAYER
  5
7D
330
2
100
AcDbSymbolTableRecord
100
AcDbLayerTableRecord
  2
특수지정선
 70
     0
 62
     5
  6
CENTERX2
370
    60
390
F
  0
LAYER
  5
7E
330
2
100
AcDbSymbolTableRecord
100
AcDbLayerTableRecord
  2
참조1
 70
     0
 62
    -4
  6
Continuous
370
    -3
390
F
  0
LAYER
  5
154
330
2
100
AcDbSymbolTableRecord
100
AcDbLayerTableRecord
  2
Defpoints
 70
     0
 62
     7
  6
Continuous
290
     0
370
    -3
390
F
  0
ENDTAB
  0
TABLE
  2
STYLE
  5
3
330
0
100
AcDbSymbolTable
 70
     2
  0
STYLE
  5
11
330
3
100
AcDbSymbolTableRecord
100
AcDbTextStyleTableRecord
  2
Standard
 70
     0
 40
0.0
 41
1.0
 50
0.0
 71
     0
 42
3.5
  3
txt
  4

  0
STYLE
  5
94
330
3
100
AcDbSymbolTableRecord
100
AcDbTextStyleTableRecord
  2
SLDTEXTSTYLE0
 70
     0
 40
0.0
 41
0.75
 50
0.0
 71
     0
 42
3.5
  3
TXT
  4

  0
ENDTAB
  0
TABLE
  2
VIEW
  5
6
330
0
100
AcDbSymbolTable
 70
     0
  0
ENDTAB
  0
TABLE
  2
UCS
  5
7
330
0
100
AcDbSymbolTable
 70
     0
  0
ENDTAB
  0
TABLE
  2
APPID
  5
9
330
0
100
AcDbSymbolTable
 70
     1
  0
APPID
  5
12
330
9
100
AcDbSymbolTableRecord
100
AcDbRegAppTableRecord
  2
ACAD
 70
     0
  0
ENDTAB
  0
TABLE
  2
DIMSTYLE
  5
A
330
0
100
AcDbSymbolTable
 70
     5
100
AcDbDimStyleTable
  0
DIMSTYLE
105
27
330
A
100
AcDbSymbolTableRecord
100
AcDbDimStyleTableRecord
  2
ISO-25
 70
     0
 41
2.5
 42
0.625
 43
3.75
 44
1.25
 73
     0
 74
     0
 77
     1
 78
     8
140
2.5
141
2.5
143
0.03937007874016
147
0.625
171
     3
172
     1
178
     0
271
     2
272
     2
274
     3
278
    44
283
     0
284
     8
340
11
  0
DIMSTYLE
105
D3
330
A
100
AcDbSymbolTableRecord
100
AcDbDimStyleTableRecord
  2
SLDDIMSTYLE0
 70
     0
 41
3.302
 44
0.0
 45
0.000000001
 73
     0
 74
     0
 77
     1
 78
     4
 79
     1
140
3.5
143
0.0393700787401575
147
0.875
148
0.000000001
170
     1
173
     1
178
     0
271
     2
272
     2
276
     2
284
    12
340
94
  0
DIMSTYLE
105
E8
102
{ACAD_REACTORS
330
E7
330
D2
330
FB
330
29B
102
}
330
A
100
AcDbSymbolTableRecord
100
AcDbDimStyleTableRecord
  2
SLDDIMSTYLE1
 70
     0
 41
3.302
 44
0.0
 45
0.000000001
 73
     0
 74
     0
 77
     1
 78
    12
 79
     3
140
3.5
143
0.0393700787401575
147
0.875
148
0.000000001
170
     1
173
     1
178
     0
271
     2
272
     2
276
     2
284
    12
340
94
  0
DIMSTYLE
105
FC
330
A
100
AcDbSymbolTableRecord
100
AcDbDimStyleTableRecord
  2
SLDDIMSTYLE2
 70
     0
 41
3.302
 44
0.0
 45
0.000000001
 73
     0
 74
     0
 77
     1
 78
    12
 79
     3
140
3.5
143
0.0393700787401575
147
0.875
148
0.000000001
170
     1
172
     1
173
     1
178
     0
271
     2
272
     2
276
     2
284
    12
289
     0
340
94
  0
DIMSTYLE
105
111
330
A
100
AcDbSymbolTableRecord
100
AcDbDimStyleTableRecord
  2
SLDDIMSTYLE3
 70
     0
 41
3.302
 44
0.0
 45
0.000000001
 73
     0
 74
     0
 77
     1
 78
     8
 79
     2
140
3.5
143
0.0393700787401575
147
0.875
148
0.000000001
170
     1
172
     1
173
     1
178
     0
271
     2
272
     2
276
     2
284
    12
289
     0
340
94
341
112
343
112
344
112
  0
ENDTAB
  0
TABLE
  2
BLOCK_RECORD
  5
1
330
0
100
AcDbSymbolTable
 70
    17
  0
BLOCK_RECORD
  5
1F
330
1
100
AcDbSymbolTableRecord
100
AcDbBlockTableRecord
  2
*Model_Space
340
22
  0
BLOCK_RECORD
  5
1B
330
1
100
AcDbSymbolTableRecord
100
AcDbBlockTableRecord
  2
*Paper_Space
340
1E
  0
BLOCK_RECORD
  5
23
330
1
100
AcDbSymbolTableRecord
100
AcDbBlockTableRecord
  2
*Paper_Space0
340
26
  0
BLOCK_RECORD
  5
7F
330
1
100
AcDbSymbolTableRecord
100
AcDbBlockTableRecord
  2
블럭10
340
0
102
{BLKREFS
331
CB
102
}
  0
BLOCK_RECORD
  5
D4
330
1
100
AcDbSymbolTableRecord
100
AcDbBlockTableRecord
  2
_D
340
0
  0
BLOCK_RECORD
  5
E9
330
1
100
AcDbSymbolTableRecord
100
AcDbBlockTableRecord
  2
_D_1
340
0
  0
BLOCK_RECORD
  5
FD
330
1
100
AcDbSymbolTableRecord
100
AcDbBlockTableRecord
  2
_D_2
340
0
  0
BLOCK_RECORD
  5
112
330
1
100
AcDbSymbolTableRecord
100
AcDbBlockTableRecord
  2
_NONE
340
0
  0
BLOCK_RECORD
  5
115
330
1
100
AcDbSymbolTableRecord
100
AcDbBlockTableRecord
  2
_D_3
340
0
  0
BLOCK_RECORD
  5
128
330
1
100
AcDbSymbolTableRecord
100
AcDbBlockTableRecord
  2
SW_DOWELSYMBOL_0
340
0
102
{BLKREFS
331
12E
102
}
  0
BLOCK_RECORD
  5
1EC
330
1
100
AcDbSymbolTableRecord
100
AcDbBlockTableRecord
  2
*D8
340
0
  0
BLOCK_RECORD
  5
1FE
330
1
100
AcDbSymbolTableRecord
100
AcDbBlockTableRecord
  2
*D9
340
0
  0
BLOCK_RECORD
  5
20A
330
1
100
AcDbSymbolTableRecord
100
AcDbBlockTableRecord
  2
*D10
340
0
  0
BLOCK_RECORD
  5
216
330
1
100
AcDbSymbolTableRecord
100
AcDbBlockTableRecord
  2
*D11
340
0
  0
BLOCK_RECORD
  5
268
330
1
100
AcDbSymbolTableRecord
100
AcDbBlockTableRecord
  2
*D12
340
0
  0
BLOCK_RECORD
  5
274
330
1
100
AcDbSymbolTableRecord
100
AcDbBlockTableRecord
  2
*D13
340
0
  0
BLOCK_RECORD
  5
280
330
1
100
AcDbSymbolTableRecord
100
AcDbBlockTableRecord
  2
*D14
340
0
  0
BLOCK_RECORD
  5
28C
330
1
100
AcDbSymbolTableRecord
100
AcDbBlockTableRecord
  2
*D15
340
0
  0
BLOCK_RECORD
  5
29E
330
1
100
AcDbSymbolTableRecord
100
AcDbBlockTableRecord
  2
*D16
340
0
  0
ENDTAB
  0
ENDSEC
  0
SECTION
  2
BLOCKS
  0
BLOCK
  5
20
330
1F
100
AcDbEntity
  8
0
100
AcDbBlockBegin
  2
*Model_Space
 70
     0
 10
0.0
 20
0.0
 30
0.0
  3
*Model_Space
  1
*Model_Space
  0
ENDBLK
  5
21
330
1F
100
AcDbEntity
  8
0
100
AcDbBlockEnd
  0
BLOCK
  5
1C
330
1B
100
AcDbEntity
 67
     1
  8
0
100
AcDbBlockBegin
  2
*Paper_Space
 70
     0
 10
0.0
 20
0.0
 30
0.0
  3
*Paper_Space
  1
*Paper_Space
  0
ENDBLK
  5
1D
330
1B
100
AcDbEntity
 67
     1
  8
0
100
AcDbBlockEnd
  0
BLOCK
  5
24
330
23
100
AcDbEntity
  8
0
100
AcDbBlockBegin
  2
*Paper_Space0
 70
     0
 10
0.0
 20
0.0
 30
0.0
  3
*Paper_Space0
  1
*Paper_Space0
  0
ENDBLK
  5
25
330
23
100
AcDbEntity
  8
0
100
AcDbBlockEnd
  0
BLOCK
  5
80
330
7F
100
AcDbEntity
  8
0
100
AcDbBlockBegin
  2
블럭10
 70
     2
 10
0.0
 20
0.0
 30
0.0
  3
블럭10
  1
블럭10
  0
ELLIPSE
  5
82
330
7F
100
AcDbEntity
  8
중심선
100
AcDbEllipse
 10
20.54032771741204
 20
12.0471743016438
 30
0.0
 11
6.600054785286829
 21
-1.261213355974178E-13
 31
0.0
210
0.0
220
0.0
230
1.0
 40
0.636358354079598
 41
0.9219305317359503
 42
6.513795318482858
  0
ELLIPSE
  5
83
330
7F
100
AcDbEntity
  8
중심선
100
AcDbEllipse
 10
20.54032771746488
 20
12.04717430159265
 30
0.0
 11
3.960054785062283
 21
1.540847449632565E-10
 31
0.0
210
0.0
220
0.0
230
1.0
 40
0.3939339440162632
 41
1.131841032648279
 42
5.62031148352944
  0
LINE
  5
84
330
7F
100
AcDbEntity
  8
중심선
100
AcDbLine
 10
2.268634060543552
 20
16.24717430164393
 30
0.0
 11
5.714909304380834
 21
16.24717430164393
 31
0.0
  0
LINE
  5
85
330
7F
100
AcDbEntity
  8
중심선
100
AcDbLine
 10
5.245725140726316
 20
7.84717430164391
 30
0.0
 11
8.692000384563599
 21
7.84717430164391
 31
0.0
  0
LINE
  5
86
330
7F
100
AcDbEntity
  8
중심선
100
AcDbLine
 10
15.74043728645272
 20
16.24717430164393
 30
0.0
 11
8.692000384563599
 21
7.84717430164391
 31
0.0
  0
LINE
  5
87
330
7F
100
AcDbEntity
  8
중심선
100
AcDbLine
 10
0.1404042013395286
 20
13.71084872107135
 30
0.0
 11
3.58671253028996
 21
13.71088815037384
 31
0.0
  0
LINE
  5
88
330
7F
100
AcDbEntity
  8
중심선
100
AcDbLine
 10
2.750260043222114
 20
10.84717430164391
 30
0.0
 11
6.196535287059397
 21
10.84717430164391
 31
0.0
  0
LINE
  5
89
330
7F
100
AcDbEntity
  8
중심선
100
AcDbLine
 10
12.29416204261559
 20
16.24717430164393
 30
0.0
 11
5.245725140726316
 21
7.84717430164391
 31
0.0
  0
LINE
  5
8A
330
7F
100
AcDbEntity
  8
중심선
100
AcDbLine
 10
10.72767329541681
 20
16.24717430164393
 30
0.0
 11
6.196535287059397
 21
10.84717430164391
 31
0.0
  0
LINE
  5
8B
330
7F
100
AcDbEntity
  8
중심선
100
AcDbLine
 10
7.28139805157953
 20
16.24717430164393
 30
0.0
 11
2.750260043222114
 21
10.84717430164391
 31
0.0
  0
LINE
  5
8C
330
7F
100
AcDbEntity
  8
중심선
100
AcDbLine
 10
5.714909304380834
 20
16.24717430164393
 30
0.0
 11
3.58671253028996
 21
13.71088815037384
 31
0.0
  0
LINE
  5
8D
330
7F
100
AcDbEntity
  8
중심선
100
AcDbLine
 10
2.268634060543552
 20
16.24717430164393
 30
0.0
 11
0.1404042013395286
 21
13.71084872107135
 31
0.0
  0
LINE
  5
8E
330
7F
100
AcDbEntity
  8
중심선
100
AcDbLine
 10
7.28139805157953
 20
16.24717430164393
 30
0.0
 11
10.72767329541681
 21
16.24717430164393
 31
0.0
  0
LINE
  5
8F
330
7F
100
AcDbEntity
  8
중심선
100
AcDbLine
 10
12.29416204261559
 20
16.24717430164393
 30
0.0
 11
15.74043728645272
 21
16.24717430164393
 31
0.0
  0
LINE
  5
90
330
7F
100
AcDbEntity
  8
중심선
100
AcDbLine
 10
19.22036997980202
 20
11.08717430171403
 30
0.0
 11
23.66174974927406
 21
11.08717430171406
 31
0.0
  0
LINE
  5
91
330
7F
100
AcDbEntity
  8
중심선
100
AcDbLine
 10
19.22039502424796
 20
13.00717430171391
 30
0.0
 11
19.22036997980202
 21
11.08717430171403
 31
0.0
  0
LINE
  5
92
330
7F
100
AcDbEntity
  8
중심선
100
AcDbLine
 10
19.22039502424796
 20
13.00717430171391
 30
0.0
 11
26.96566020931264
 21
13.00717430171391
 31
0.0
  0
LINE
  5
93
330
7F
100
AcDbEntity
  8
중심선
100
AcDbLine
 10
22.22332737316547
 20
13.45928029700563
 30
0.0
 11
24.52862924686651
 21
15.39360700705356
 31
0.0
  0
ATTDEF
  5
95
330
7F
100
AcDbEntity
  8
FORMAT
 62
     2
100
AcDbText
 10
4.408487351596664
 20
2.075366912832191
 30
0.0
 40
4.233333333333333
  1
E2036024
 41
0.75
  7
SLDTEXTSTYLE0
 11
4.408487351596664
 21
-0.0412997538344756
 31
0.0
100
AcDbAttributeDefinition
  3

  2
AUTOATTR0
 70
     0
 74
     1
  0
ENDBLK
  5
81
330
7F
100
AcDbEntity
  8
0
100
AcDbBlockEnd
  0
BLOCK
  5
D5
330
D4
100
AcDbEntity
  8
0
100
AcDbBlockBegin
  2
_D
 70
     0
 10
0.0
 20
0.0
 30
0.0
  3
_D
  1
_D
  0
LINE
  5
D7
330
D4
100
AcDbEntity
  8
치수문자_일반주서
 62
     0
370
    -2
100
AcDbLine
 10
73.4999999999999
 20
4.825000000000007
 30
0.0
 11
73.4999999999999
 21
17.92582422810213
 31
0.0
  0
LINE
  5
D8
330
D4
100
AcDbEntity
  8
치수문자_일반주서
 62
     0
370
    -2
100
AcDbLine
 10
9.999999999999927
 20
4.813298759051921
 30
0.0
 11
9.999999999999929
 21
17.92582422810213
 31
0.0
  0
LINE
  5
D9
330
D4
100
AcDbEntity
  8
치수문자_일반주서
 62
     0
370
    -2
100
AcDbLine
 10
70.1979999999999
 20
17.92582422810213
 30
0.0
 11
13.30199999999993
 21
17.92582422810213
 31
0.0
  0
SOLID
  5
DA
330
D4
100
AcDbEntity
  8
치수문자_일반주서
 62
     0
100
AcDbTrace
 10
70.1979999999999
 20
17.3754908947688
 30
0.0
 11
70.1979999999999
 21
18.47615756143546
 31
0.0
 12
73.4999999999999
 22
17.92582422810213
 32
0.0
 13
73.4999999999999
 23
17.92582422810213
 33
0.0
  0
SOLID
  5
DB
330
D4
100
AcDbEntity
  8
치수문자_일반주서
 62
     0
100
AcDbTrace
 10
13.30199999999993
 20
18.47615756143546
 30
0.0
 11
13.30199999999993
 21
17.3754908947688
 31
0.0
 12
9.999999999999929
 22
17.92582422810213
 32
0.0
 13
9.999999999999929
 23
17.92582422810213
 33
0.0
  0
MTEXT
  5
DC
330
D4
100
AcDbEntity
  8
치수문자_일반주서
 62
     0
100
AcDbMText
 10
41.74999999999993
 20
22.30082422810213
 30
0.0
 40
3.5
 41
0.0
 71
     2
 72
     1
  1
\A1;63.5 [2 1/2]
  7
SLDTEXTSTYLE0
 73
     1
 44
1.0
  0
POINT
  5
DD
330
D4
100
AcDbEntity
  8
Defpoints
 62
     0
100
AcDbPoint
 10
73.4999999999999
 20
4.762500000000007
 30
0.0
  0
POINT
  5
DE
330
D4
100
AcDbEntity
  8
Defpoints
 62
     0
100
AcDbPoint
 10
9.999999999999927
 20
4.750798759051921
 30
0.0
  0
POINT
  5
DF
330
D4
100
AcDbEntity
  8
Defpoints
 62
     0
100
AcDbPoint
 10
9.999999999999927
 20
17.92582422810213
 30
0.0
  0
ENDBLK
  5
D6
330
D4
100
AcDbEntity
  8
0
100
AcDbBlockEnd
  0
BLOCK
  5
EA
330
E9
100
AcDbEntity
  8
0
100
AcDbBlockBegin
  2
_D_1
 70
     0
 10
0.0
 20
0.0
 30
0.0
  3
_D_1
  1
_D_1
  0
LINE
  5
EC
330
E9
100
AcDbEntity
  8
치수문자_일반주서
 62
     0
370
    -2
100
AcDbLine
 10
73.4999999999999
 20
4.825000000000007
 30
0.0
 11
73.4999999999999
 21
33.64702942590522
 31
0.0
  0
LINE
  5
ED
330
E9
100
AcDbEntity
  8
치수문자_일반주서
 62
     0
370
    -2
100
AcDbLine
 10
-34.4500000000001
 20
3.872500000000001
 30
0.0
 11
-34.4500000000001
 21
33.64702942590522
 31
0.0
  0
LINE
  5
EE
330
E9
100
AcDbEntity
  8
치수문자_일반주서
 62
     0
370
    -2
100
AcDbLine
 10
70.1979999999999
 20
33.64702942590522
 30
0.0
 11
-31.1480000000001
 21
33.64702942590522
 31
0.0
  0
SOLID
  5
EF
330
E9
100
AcDbEntity
  8
치수문자_일반주서
 62
     0
100
AcDbTrace
 10
70.1979999999999
 20
33.09669609257189
 30
0.0
 11
70.1979999999999
 21
34.19736275923856
 31
0.0
 12
73.4999999999999
 22
33.64702942590522
 32
0.0
 13
73.4999999999999
 23
33.64702942590522
 33
0.0
  0
SOLID
  5
F0
330
E9
100
AcDbEntity
  8
치수문자_일반주서
 62
     0
100
AcDbTrace
 10
-31.1480000000001
 20
34.19736275923856
 30
0.0
 11
-31.1480000000001
 21
33.09669609257189
 31
0.0
 12
-34.4500000000001
 22
33.64702942590522
 32
0.0
 13
-34.4500000000001
 23
33.64702942590522
 33
0.0
  0
MTEXT
  5
F1
330
E9
100
AcDbEntity
  8
치수문자_일반주서
 62
     0
100
AcDbMText
 10
19.5249999999999
 20
38.02202942590522
 30
0.0
 40
3.5
 41
0.0
 71
     2
 72
     1
  1
\A1;107.95 [4 1/4]
  7
SLDTEXTSTYLE0
 73
     1
 44
1.0
  0
POINT
  5
F2
330
E9
100
AcDbEntity
  8
Defpoints
 62
     0
100
AcDbPoint
 10
73.4999999999999
 20
4.762500000000007
 30
0.0
  0
POINT
  5
F3
330
E9
100
AcDbEntity
  8
Defpoints
 62
     0
100
AcDbPoint
 10
-34.4500000000001
 20
3.810000000000001
 30
0.0
  0
POINT
  5
F4
330
E9
100
AcDbEntity
  8
Defpoints
 62
     0
100
AcDbPoint
 10
-34.4500000000001
 20
33.64702942590522
 30
0.0
  0
ENDBLK
  5
EB
330
E9
100
AcDbEntity
  8
0
100
AcDbBlockEnd
  0
BLOCK
  5
FE
330
FD
100
AcDbEntity
  8
0
100
AcDbBlockBegin
  2
_D_2
 70
     0
 10
0.0
 20
0.0
 30
0.0
  3
_D_2
  1
_D_2
  0
LINE
  5
100
330
FD
100
AcDbEntity
  8
치수문자_일반주서
 62
     0
370
    -2
100
AcDbLine
 10
-33.56000000000011
 20
4.762500000000002
 30
0.0
 11
-45.75077283782732
 21
4.762499999999956
 31
0.0
  0
LINE
  5
101
330
FD
100
AcDbEntity
  8
치수문자_일반주서
 62
     0
370
    -2
100
AcDbLine
 10
-33.56000000000011
 20
-4.762500000000004
 30
0.0
 11
-45.75077283782728
 21
-4.76250000000005
 31
0.0
  0
LINE
  5
102
330
FD
100
AcDbEntity
  8
치수문자_일반주서
 62
     0
370
    -2
100
AcDbLine
 10
-45.75077283782731
 20
1.460499999999956
 30
0.0
 11
-45.7507728378273
 21
-1.46050000000005
 31
0.0
  0
SOLID
  5
103
330
FD
100
AcDbEntity
  8
치수문자_일반주서
 62
     0
100
AcDbTrace
 10
-45.20043950449397
 20
1.460499999999958
 30
0.0
 11
-46.30110617116064
 21
1.460499999999954
 31
0.0
 12
-45.75077283782732
 22
4.762499999999956
 32
0.0
 13
-45.75077283782732
 23
4.762499999999956
 33
0.0
  0
SOLID
  5
104
330
FD
100
AcDbEntity
  8
치수문자_일반주서
 62
     0
100
AcDbTrace
 10
-46.30110617116063
 20
-1.460500000000052
 30
0.0
 11
-45.20043950449396
 21
-1.460500000000048
 31
0.0
 12
-45.75077283782728
 22
-4.76250000000005
 32
0.0
 13
-45.75077283782728
 23
-4.76250000000005
 33
0.0
  0
MTEXT
  5
105
330
FD
100
AcDbEntity
  8
치수문자_일반주서
 62
     0
100
AcDbMText
 10
-50.12577283782731
 20
-0.0000000000000143
 30
0.0
 40
3.5
 41
0.0
 71
     2
 72
     1
  1
\A1;%%c9.53 [3/8]
  7
SLDTEXTSTYLE0
 11
-3.729883127349605E-15
 21
1.0
 31
0.0
 73
     1
 44
1.0
  0
POINT
  5
106
330
FD
100
AcDbEntity
  8
Defpoints
 62
     0
100
AcDbPoint
 10
-33.49750000000011
 20
4.762500000000002
 30
0.0
  0
POINT
  5
107
330
FD
100
AcDbEntity
  8
Defpoints
 62
     0
100
AcDbPoint
 10
-33.49750000000011
 20
-4.762500000000004
 30
0.0
  0
POINT
  5
108
330
FD
100
AcDbEntity
  8
Defpoints
 62
     0
100
AcDbPoint
 10
-45.75077283782728
 20
-4.76250000000005
 30
0.0
  0
ENDBLK
  5
FF
330
FD
100
AcDbEntity
  8
0
100
AcDbBlockEnd
  0
BLOCK
  5
113
330
112
100
AcDbEntity
  8
0
100
AcDbBlockBegin
  2
_NONE
 70
     0
 10
0.0
 20
0.0
 30
0.0
  3
_NONE
  1
_NONE
  0
ENDBLK
  5
114
330
112
100
AcDbEntity
  8
0
100
AcDbBlockEnd
  0
BLOCK
  5
116
330
115
100
AcDbEntity
  8
0
100
AcDbBlockBegin
  2
_D_3
 70
     0
 10
0.0
 20
0.0
 30
0.0
  3
_D_3
  1
_D_3
  0
LINE
  5
118
330
115
100
AcDbEntity
  8
치수문자_일반주서
100
AcDbLine
 10
-8.884833931663604
 20
-2.238291502344711
 30
0.0
 11
-8.884833931663604
 21
-2.949228987909211
 31
0.0
  0
LINE
  5
119
330
115
100
AcDbEntity
  8
치수문자_일반주서
100
AcDbLine
 10
-8.884833931663604
 20
-2.949228987909211
 30
0.0
 11
-3.328583940604301
 21
-2.949228987909211
 31
0.0
  0
LINE
  5
11A
330
115
100
AcDbEntity
  8
치수문자_일반주서
100
AcDbLine
 10
-3.328583940604301
 20
-2.949228987909211
 30
0.0
 11
-3.328583940604301
 21
-2.238291502344711
 31
0.0
  0
LINE
  5
11B
330
115
100
AcDbEntity
  8
치수문자_일반주서
100
AcDbLine
 10
-8.884833931663604
 20
8.590441359792548
 30
0.0
 11
-8.884833931663604
 21
9.301378845357048
 31
0.0
  0
LINE
  5
11C
330
115
100
AcDbEntity
  8
치수문자_일반주서
100
AcDbLine
 10
-8.884833931663604
 20
9.301378845357048
 30
0.0
 11
-3.328583940604301
 21
9.301378845357048
 31
0.0
  0
LINE
  5
11D
330
115
100
AcDbEntity
  8
치수문자_일반주서
100
AcDbLine
 10
-3.328583940604301
 20
9.301378845357048
 30
0.0
 11
-3.328583940604301
 21
8.590441359792548
 31
0.0
  0
MTEXT
  5
11E
330
115
100
AcDbEntity
  8
치수문자_일반주서
100
AcDbMText
 10
-7.840320855183196
 20
-1.34961960173334
 30
0.0
 40
3.5
 41
0.0
 71
     1
 72
     1
  1
0.00
  7
SLDTEXTSTYLE0
 11
6.123233995736766E-17
 21
1.0
 31
0.0
 73
     1
 44
1.0
  0
MTEXT
  5
11F
330
115
100
AcDbEntity
  8
치수문자_일반주서
100
AcDbMText
 10
-2.603689304822725
 20
-0.7561994836398495
 30
0.0
 40
3.5
 41
0.0
 71
     1
 72
     1
  1
%%c
  7
SLDTEXTSTYLE0
 11
6.123233995736766E-17
 21
1.0
 31
0.0
 73
     1
 44
1.0
  0
MTEXT
  5
120
330
115
100
AcDbEntity
  8
치수문자_일반주서
100
AcDbMText
 10
-2.603689304822725
 20
4.522237914734231
 30
0.0
 40
3.5
 41
0.0
 71
     1
 72
     1
  1
0
  7
SLDTEXTSTYLE0
 11
6.123233995736766E-17
 21
1.0
 31
0.0
 73
     1
 44
1.0
  0
ENDBLK
  5
117
330
115
100
AcDbEntity
  8
0
100
AcDbBlockEnd
  0
BLOCK
  5
129
330
128
100
AcDbEntity
  8
0
100
AcDbBlockBegin
  2
SW_DOWELSYMBOL_0
 70
     0
 10
0.0
 20
0.0
 30
0.0
  3
SW_DOWELSYMBOL_0
  1
SW_DOWELSYMBOL_0
  0
CIRCLE
  5
12B
330
128
100
AcDbEntity
  8
해칭선
 62
     0
100
AcDbCircle
 10
0.0
 20
0.0
 30
0.0
 40
3.000000000000001
  0
HATCH
  5
12C
330
128
100
AcDbEntity
  8
0
  6
Continuous
 62
     0
370
     0
100
AcDbHatch
 10
0.0
 20
0.0
 30
0.0
210
0.0
220
0.0
230
1.0
  2
SOLID
 70
     1
 71
     0
 91
        1
 92
        0
 93
        3
 72
     2
 10
0.0
 20
0.0
 40
3.000000000000001
 50
0.0
 51
90.0
 73
     1
 72
     1
 10
0.0
 20
3.000000000000001
 11
0.0
 21
0.0
 72
     1
 10
0.0
 20
0.0
 11
3.000000000000001
 21
0.0
 97
        0
 75
     0
 76
     1
 98
        1
 10
0.0
 20
0.0
  0
HATCH
  5
12D
330
128
100
AcDbEntity
  8
0
  6
Continuous
 62
     0
370
     0
100
AcDbHatch
 10
0.0
 20
0.0
 30
0.0
210
0.0
220
0.0
230
1.0
  2
SOLID
 70
     1
 71
     0
 91
        1
 92
        0
 93
        3
 72
     2
 10
0.0
 20
0.0
 40
3.000000000000001
 50
180.0
 51
270.0000000000007
 73
     1
 72
     1
 10
0.0
 20
-3.000000000000001
 11
0.0
 21
0.0
 72
     1
 10
0.0
 20
0.0
 11
-3.000000000000001
 21
0.0
 97
        0
 75
     0
 76
     1
 98
        1
 10
0.0
 20
0.0
  0
ENDBLK
  5
12A
330
128
100
AcDbEntity
  8
0
100
AcDbBlockEnd
  0
BLOCK
  5
1ED
330
1EC
100
AcDbEntity
  8
0
100
AcDbBlockBegin
  2
*D8
 70
     1
 10
0.0
 20
0.0
 30
0.0
  3
*D8
  1
*D9
  0
LINE
  5
1EE
330
1EC
100
AcDbEntity
  8
치수문자_일반주서
 62
     0
370
    -2
100
AcDbLine
 10
110.9882728378273
 20
16.21875000000002
 30
0.0
 11
126.961299656818
 21
16.21875000000002
 31
0.0
  0
LINE
  5
1EF
330
1EC
100
AcDbEntity
  8
치수문자_일반주서
 62
     0
370
    -2
100
AcDbLine
 10
110.9882728378273
 20
8.281250000000018
 30
0.0
 11
126.961299656818
 21
8.281250000000018
 31
0.0
  0
LINE
  5
1F0
330
1EC
100
AcDbEntity
  8
치수문자_일반주서
 62
     0
370
    -2
100
AcDbLine
 10
126.961299656818
 20
16.21875000000002
 30
0.0
 11
126.961299656818
 21
48.85903567204704
 31
0.0
  0
LINE
  5
1F1
330
1EC
100
AcDbEntity
  8
치수문자_일반주서
 62
     0
370
    -2
100
AcDbLine
 10
126.961299656818
 20
19.52075000000002
 30
0.0
 11
126.961299656818
 21
22.82275000000002
 31
0.0
  0
LINE
  5
1F2
330
1EC
100
AcDbEntity
  8
치수문자_일반주서
 62
     0
370
    -2
100
AcDbLine
 10
126.961299656818
 20
4.979250000000018
 30
0.0
 11
126.961299656818
 21
1.677250000000019
 31
0.0
  0
SOLID
  5
1F3
330
1EC
100
AcDbEntity
  8
치수문자_일반주서
 62
     0
100
AcDbTrace
 10
126.4109663234847
 20
19.52075000000002
 30
0.0
 11
127.5116329901513
 21
19.52075000000002
 31
0.0
 12
126.961299656818
 22
16.21875000000002
 32
0.0
 13
126.961299656818
 23
16.21875000000002
 33
0.0
  0
SOLID
  5
1F4
330
1EC
100
AcDbEntity
  8
치수문자_일반주서
 62
     0
100
AcDbTrace
 10
127.5116329901513
 20
4.979250000000018
 30
0.0
 11
126.4109663234847
 21
4.979250000000018
 31
0.0
 12
126.961299656818
 22
8.281250000000018
 32
0.0
 13
126.961299656818
 23
8.281250000000018
 33
0.0
  0
MTEXT
  5
1F5
330
1EC
100
AcDbEntity
  8
치수문자_일반주서
 62
     0
100
AcDbMText
 10
124.336299656818
 20
36.17153567204704
 30
0.0
 40
3.5
 41
0.0
 71
     5
 72
     1
  1
\A1;7.94 [5/16]
  7
SLDTEXTSTYLE0
 11
0.0
 21
1.0
 31
0.0
 73
     1
 44
1.0
  0
POINT
  5
1F6
330
1EC
100
AcDbEntity
  8
Defpoints
 62
     0
100
AcDbPoint
 10
110.9257728378273
 20
16.21875000000002
 30
0.0
  0
POINT
  5
1F7
330
1EC
100
AcDbEntity
  8
Defpoints
 62
     0
100
AcDbPoint
 10
110.9257728378273
 20
8.281250000000018
 30
0.0
  0
POINT
  5
1F8
330
1EC
100
AcDbEntity
  8
Defpoints
 62
     0
100
AcDbPoint
 10
126.961299656818
 20
8.281250000000016
 30
0.0
  0
ENDBLK
  5
1F9
330
1EC
100
AcDbEntity
  8
0
100
AcDbBlockEnd
  0
BLOCK
  5
1FF
330
1FE
100
AcDbEntity
  8
0
100
AcDbBlockBegin
  2
*D9
 70
     1
 10
0.0
 20
0.0
 30
0.0
  3
*D9
  1
*D10
  0
LINE
  5
201
330
1FE
100
AcDbEntity
  8
치수문자_일반주서
 62
     0
370
    -2
100
AcDbLine
 10
110.9257728378273
 20
16.28125000000002
 30
0.0
 11
110.9257728378273
 21
29.38499317107685
 31
0.0
  0
LINE
  5
202
330
1FE
100
AcDbEntity
  8
치수문자_일반주서
 62
     0
370
    -2
100
AcDbLine
 10
60.12577283782723
 20
16.27989498817528
 30
0.0
 11
60.12577283782723
 21
29.38499317107685
 31
0.0
  0
LINE
  5
203
330
1FE
100
AcDbEntity
  8
치수문자_일반주서
 62
     0
370
    -2
100
AcDbLine
 10
107.6237728378273
 20
29.38499317107685
 30
0.0
 11
63.42777283782723
 21
29.38499317107685
 31
0.0
  0
SOLID
  5
204
330
1FE
100
AcDbEntity
  8
치수문자_일반주서
 62
     0
100
AcDbTrace
 10
107.6237728378273
 20
28.83465983774352
 30
0.0
 11
107.6237728378273
 21
29.93532650441018
 31
0.0
 12
110.9257728378273
 22
29.38499317107685
 32
0.0
 13
110.9257728378273
 23
29.38499317107685
 33
0.0
  0
SOLID
  5
205
330
1FE
100
AcDbEntity
  8
치수문자_일반주서
 62
     0
100
AcDbTrace
 10
63.42777283782723
 20
29.93532650441018
 30
0.0
 11
63.42777283782723
 21
28.83465983774352
 31
0.0
 12
60.12577283782723
 22
29.38499317107685
 32
0.0
 13
60.12577283782723
 23
29.38499317107685
 33
0.0
  0
MTEXT
  5
206
330
1FE
100
AcDbEntity
  8
치수문자_일반주서
 62
     0
100
AcDbMText
 10
85.52577283782722
 20
33.75999317107685
 30
0.0
 40
3.5
 41
0.0
 71
     2
 72
     1
  1
\A1;50.8 [2]
  7
SLDTEXTSTYLE0
 73
     1
 44
1.0
  0
POINT
  5
207
330
1FE
100
AcDbEntity
  8
Defpoints
 62
     0
100
AcDbPoint
 10
110.9257728378273
 20
16.21875000000002
 30
0.0
  0
POINT
  5
208
330
1FE
100
AcDbEntity
  8
Defpoints
 62
     0
100
AcDbPoint
 10
60.12577283782723
 20
16.21739498817528
 30
0.0
  0
POINT
  5
209
330
1FE
100
AcDbEntity
  8
Defpoints
 62
     0
100
AcDbPoint
 10
60.12577283782723
 20
29.38499317107685
 30
0.0
  0
ENDBLK
  5
200
330
1FE
100
AcDbEntity
  8
0
100
AcDbBlockEnd
  0
BLOCK
  5
20B
330
20A
100
AcDbEntity
  8
0
100
AcDbBlockBegin
  2
*D10
 70
     1
 10
0.0
 20
0.0
 30
0.0
  3
*D10
  1
*D11
  0
LINE
  5
20D
330
20A
100
AcDbEntity
  8
치수문자_일반주서
 62
     0
370
    -2
100
AcDbLine
 10
110.9257728378273
 20
16.28125000000002
 30
0.0
 11
110.9257728378273
 21
45.10619836887963
 31
0.0
  0
LINE
  5
20E
330
20A
100
AcDbEntity
  8
치수문자_일반주서
 62
     0
370
    -2
100
AcDbLine
 10
15.67577283782725
 20
16.12250000000001
 30
0.0
 11
15.67577283782725
 21
45.10619836887963
 31
0.0
  0
LINE
  5
20F
330
20A
100
AcDbEntity
  8
치수문자_일반주서
 62
     0
370
    -2
100
AcDbLine
 10
107.6237728378273
 20
45.10619836887963
 30
0.0
 11
18.97777283782725
 21
45.10619836887963
 31
0.0
  0
SOLID
  5
210
330
20A
100
AcDbEntity
  8
치수문자_일반주서
 62
     0
100
AcDbTrace
 10
107.6237728378273
 20
44.5558650355463
 30
0.0
 11
107.6237728378273
 21
45.65653170221297
 31
0.0
 12
110.9257728378273
 22
45.10619836887963
 32
0.0
 13
110.9257728378273
 23
45.10619836887963
 33
0.0
  0
SOLID
  5
211
330
20A
100
AcDbEntity
  8
치수문자_일반주서
 62
     0
100
AcDbTrace
 10
18.97777283782725
 20
45.65653170221297
 30
0.0
 11
18.97777283782725
 21
44.5558650355463
 31
0.0
 12
15.67577283782725
 22
45.10619836887963
 32
0.0
 13
15.67577283782725
 23
45.10619836887963
 33
0.0
  0
MTEXT
  5
212
330
20A
100
AcDbEntity
  8
치수문자_일반주서
 62
     0
100
AcDbMText
 10
63.30077283782724
 20
49.48119836887963
 30
0.0
 40
3.5
 41
0.0
 71
     2
 72
     1
  1
\A1;95.25 [3 3/4]
  7
SLDTEXTSTYLE0
 73
     1
 44
1.0
  0
POINT
  5
213
330
20A
100
AcDbEntity
  8
Defpoints
 62
     0
100
AcDbPoint
 10
110.9257728378273
 20
16.21875000000002
 30
0.0
  0
POINT
  5
214
330
20A
100
AcDbEntity
  8
Defpoints
 62
     0
100
AcDbPoint
 10
15.67577283782725
 20
16.06000000000001
 30
0.0
  0
POINT
  5
215
330
20A
100
AcDbEntity
  8
Defpoints
 62
     0
100
AcDbPoint
 10
15.67577283782725
 20
45.10619836887963
 30
0.0
  0
ENDBLK
  5
20C
330
20A
100
AcDbEntity
  8
0
100
AcDbBlockEnd
  0
BLOCK
  5
217
330
216
100
AcDbEntity
  8
0
100
AcDbBlockBegin
  2
*D11
 70
     1
 10
0.0
 20
0.0
 30
0.0
  3
*D11
  1
*D12
  0
LINE
  5
219
330
216
100
AcDbEntity
  8
치수문자_일반주서
 62
     0
370
    -2
100
AcDbLine
 10
16.56577283782724
 20
17.01250000000001
 30
0.0
 11
4.375000000000027
 21
17.01249999999997
 31
0.0
  0
LINE
  5
21A
330
216
100
AcDbEntity
  8
치수문자_일반주서
 62
     0
370
    -2
100
AcDbLine
 10
16.56577283782724
 20
7.487500000000008
 30
0.0
 11
4.37500000000006
 21
7.487499999999962
 31
0.0
  0
LINE
  5
21B
330
216
100
AcDbEntity
  8
치수문자_일반주서
 62
     0
370
    -2
100
AcDbLine
 10
4.375000000000038
 20
13.71049999999997
 30
0.0
 11
4.375000000000048
 21
10.78949999999996
 31
0.0
  0
SOLID
  5
21C
330
216
100
AcDbEntity
  8
치수문자_일반주서
 62
     0
100
AcDbTrace
 10
4.925333333333372
 20
13.71049999999997
 30
0.0
 11
3.824666666666705
 21
13.71049999999997
 31
0.0
 12
4.375000000000027
 22
17.01249999999997
 32
0.0
 13
4.375000000000027
 23
17.01249999999997
 33
0.0
  0
SOLID
  5
21D
330
216
100
AcDbEntity
  8
치수문자_일반주서
 62
     0
100
AcDbTrace
 10
3.824666666666715
 20
10.78949999999996
 30
0.0
 11
4.925333333333382
 21
10.78949999999996
 31
0.0
 12
4.37500000000006
 22
7.487499999999962
 32
0.0
 13
4.37500000000006
 23
7.487499999999962
 33
0.0
  0
MTEXT
  5
21E
330
216
100
AcDbEntity
  8
치수문자_일반주서
 62
     0
100
AcDbMText
 10
0.0000000000000426
 20
12.25
 30
0.0
 40
3.5
 41
0.0
 71
     2
 72
     1
  1
\A1;%%c9.53 [3/8]
  7
SLDTEXTSTYLE0
 11
-3.450141892798385E-15
 21
1.0
 31
0.0
 73
     1
 44
1.0
  0
POINT
  5
21F
330
216
100
AcDbEntity
  8
Defpoints
 62
     0
100
AcDbPoint
 10
16.62827283782724
 20
17.01250000000001
 30
0.0
  0
POINT
  5
220
330
216
100
AcDbEntity
  8
Defpoints
 62
     0
100
AcDbPoint
 10
16.62827283782724
 20
7.487500000000008
 30
0.0
  0
POINT
  5
221
330
216
100
AcDbEntity
  8
Defpoints
 62
     0
100
AcDbPoint
 10
4.375000000000064
 20
7.487499999999962
 30
0.0
  0
ENDBLK
  5
218
330
216
100
AcDbEntity
  8
0
100
AcDbBlockEnd
  0
BLOCK
  5
269
330
268
100
AcDbEntity
  8
0
100
AcDbBlockBegin
  2
*D12
 70
     1
 10
0.0
 20
0.0
 30
0.0
  3
*D12
  1
*D13
  0
LINE
  5
26B
330
268
100
AcDbEntity
  8
치수문자_일반주서
 62
     0
370
    -2
100
AcDbLine
 10
192.7104695213137
 20
-41.98248407968612
 30
0.0
 11
192.7104695213137
 21
-28.87874090860928
 31
0.0
  0
LINE
  5
26C
330
268
100
AcDbEntity
  8
치수문자_일반주서
 62
     0
370
    -2
100
AcDbLine
 10
141.9104695213136
 20
-41.98383909151086
 30
0.0
 11
141.9104695213136
 21
-28.87874090860928
 31
0.0
  0
LINE
  5
26D
330
268
100
AcDbEntity
  8
치수문자_일반주서
 62
     0
370
    -2
100
AcDbLine
 10
189.4084695213137
 20
-28.87874090860928
 30
0.0
 11
145.2124695213136
 21
-28.87874090860928
 31
0.0
  0
SOLID
  5
26E
330
268
100
AcDbEntity
  8
치수문자_일반주서
 62
     0
100
AcDbTrace
 10
189.4084695213137
 20
-29.42907424194262
 30
0.0
 11
189.4084695213137
 21
-28.32840757527595
 31
0.0
 12
192.7104695213137
 22
-28.87874090860928
 32
0.0
 13
192.7104695213137
 23
-28.87874090860928
 33
0.0
  0
SOLID
  5
26F
330
268
100
AcDbEntity
  8
치수문자_일반주서
 62
     0
100
AcDbTrace
 10
145.2124695213136
 20
-28.32840757527595
 30
0.0
 11
145.2124695213136
 21
-29.42907424194262
 31
0.0
 12
141.9104695213136
 22
-28.87874090860928
 32
0.0
 13
141.9104695213136
 23
-28.87874090860928
 33
0.0
  0
MTEXT
  5
270
330
268
100
AcDbEntity
  8
치수문자_일반주서
 62
     0
100
AcDbMText
 10
167.3104695213136
 20
-24.50374090860928
 30
0.0
 40
3.5
 41
0.0
 71
     2
 72
     1
  1
\A1;50.8 [2]
  7
SLDTEXTSTYLE0
 73
     1
 44
1.0
  0
POINT
  5
271
330
268
100
AcDbEntity
  8
Defpoints
 62
     0
100
AcDbPoint
 10
192.7104695213137
 20
-42.04498407968612
 30
0.0
  0
POINT
  5
272
330
268
100
AcDbEntity
  8
Defpoints
 62
     0
100
AcDbPoint
 10
141.9104695213136
 20
-42.04633909151086
 30
0.0
  0
POINT
  5
273
330
268
100
AcDbEntity
  8
Defpoints
 62
     0
100
AcDbPoint
 10
141.9104695213136
 20
-28.87874090860928
 30
0.0
  0
ENDBLK
  5
26A
330
268
100
AcDbEntity
  8
0
100
AcDbBlockEnd
  0
BLOCK
  5
275
330
274
100
AcDbEntity
  8
0
100
AcDbBlockBegin
  2
*D13
 70
     1
 10
0.0
 20
0.0
 30
0.0
  3
*D13
  1
*D14
  0
LINE
  5
277
330
274
100
AcDbEntity
  8
치수문자_일반주서
 62
     0
370
    -2
100
AcDbLine
 10
192.7104695213137
 20
-41.98248407968612
 30
0.0
 11
192.7104695213137
 21
-13.1575357108065
 31
0.0
  0
LINE
  5
278
330
274
100
AcDbEntity
  8
치수문자_일반주서
 62
     0
370
    -2
100
AcDbLine
 10
97.46046952131363
 20
-42.14123407968611
 30
0.0
 11
97.46046952131363
 21
-13.1575357108065
 31
0.0
  0
LINE
  5
279
330
274
100
AcDbEntity
  8
치수문자_일반주서
 62
     0
370
    -2
100
AcDbLine
 10
189.4084695213137
 20
-13.1575357108065
 30
0.0
 11
100.7624695213136
 21
-13.1575357108065
 31
0.0
  0
SOLID
  5
27A
330
274
100
AcDbEntity
  8
치수문자_일반주서
 62
     0
100
AcDbTrace
 10
189.4084695213137
 20
-13.70786904413983
 30
0.0
 11
189.4084695213137
 21
-12.60720237747317
 31
0.0
 12
192.7104695213137
 22
-13.1575357108065
 32
0.0
 13
192.7104695213137
 23
-13.1575357108065
 33
0.0
  0
SOLID
  5
27B
330
274
100
AcDbEntity
  8
치수문자_일반주서
 62
     0
100
AcDbTrace
 10
100.7624695213136
 20
-12.60720237747317
 30
0.0
 11
100.7624695213136
 21
-13.70786904413983
 31
0.0
 12
97.46046952131363
 22
-13.1575357108065
 32
0.0
 13
97.46046952131363
 23
-13.1575357108065
 33
0.0
  0
MTEXT
  5
27C
330
274
100
AcDbEntity
  8
치수문자_일반주서
 62
     0
100
AcDbMText
 10
145.0854695213136
 20
-8.7825357108065
 30
0.0
 40
3.5
 41
0.0
 71
     2
 72
     1
  1
\A1;95.25 [3 3/4]
  7
SLDTEXTSTYLE0
 73
     1
 44
1.0
  0
POINT
  5
27D
330
274
100
AcDbEntity
  8
Defpoints
 62
     0
100
AcDbPoint
 10
192.7104695213137
 20
-42.04498407968612
 30
0.0
  0
POINT
  5
27E
330
274
100
AcDbEntity
  8
Defpoints
 62
     0
100
AcDbPoint
 10
97.46046952131363
 20
-42.20373407968611
 30
0.0
  0
POINT
  5
27F
330
274
100
AcDbEntity
  8
Defpoints
 62
     0
100
AcDbPoint
 10
97.46046952131363
 20
-13.1575357108065
 30
0.0
  0
ENDBLK
  5
276
330
274
100
AcDbEntity
  8
0
100
AcDbBlockEnd
  0
BLOCK
  5
281
330
280
100
AcDbEntity
  8
0
100
AcDbBlockBegin
  2
*D14
 70
     1
 10
0.0
 20
0.0
 30
0.0
  3
*D14
  1
*D15
  0
LINE
  5
283
330
280
100
AcDbEntity
  8
치수문자_일반주서
 62
     0
370
    -2
100
AcDbLine
 10
98.35046952131363
 20
-41.25123407968611
 30
0.0
 11
86.15969668348642
 21
-41.25123407968616
 31
0.0
  0
LINE
  5
284
330
280
100
AcDbEntity
  8
치수문자_일반주서
 62
     0
370
    -2
100
AcDbLine
 10
98.35046952131363
 20
-50.77623407968612
 30
0.0
 11
86.15969668348644
 21
-50.77623407968616
 31
0.0
  0
LINE
  5
285
330
280
100
AcDbEntity
  8
치수문자_일반주서
 62
     0
370
    -2
100
AcDbLine
 10
86.15969668348643
 20
-44.55323407968616
 30
0.0
 11
86.15969668348643
 21
-47.47423407968616
 31
0.0
  0
SOLID
  5
286
330
280
100
AcDbEntity
  8
치수문자_일반주서
 62
     0
100
AcDbTrace
 10
86.71003001681976
 20
-44.55323407968616
 30
0.0
 11
85.6093633501531
 21
-44.55323407968616
 31
0.0
 12
86.15969668348642
 22
-41.25123407968616
 32
0.0
 13
86.15969668348642
 23
-41.25123407968616
 33
0.0
  0
SOLID
  5
287
330
280
100
AcDbEntity
  8
치수문자_일반주서
 62
     0
100
AcDbTrace
 10
85.6093633501531
 20
-47.47423407968616
 30
0.0
 11
86.71003001681976
 21
-47.47423407968616
 31
0.0
 12
86.15969668348644
 22
-50.77623407968616
 32
0.0
 13
86.15969668348644
 23
-50.77623407968616
 33
0.0
  0
MTEXT
  5
288
330
280
100
AcDbEntity
  8
치수문자_일반주서
 62
     0
100
AcDbMText
 10
81.78469668348643
 20
-46.01373407968613
 30
0.0
 40
3.5
 41
0.0
 71
     2
 72
     1
  1
\A1;%%c9.53 [3/8]
  7
SLDTEXTSTYLE0
 11
-2.983906501879684E-15
 21
1.0
 31
0.0
 73
     1
 44
1.0
  0
POINT
  5
289
330
280
100
AcDbEntity
  8
Defpoints
 62
     0
100
AcDbPoint
 10
98.41296952131363
 20
-41.25123407968611
 30
0.0
  0
POINT
  5
28A
330
280
100
AcDbEntity
  8
Defpoints
 62
     0
100
AcDbPoint
 10
98.41296952131363
 20
-50.77623407968612
 30
0.0
  0
POINT
  5
28B
330
280
100
AcDbEntity
  8
Defpoints
 62
     0
100
AcDbPoint
 10
86.15969668348644
 20
-50.77623407968616
 30
0.0
  0
ENDBLK
  5
282
330
280
100
AcDbEntity
  8
0
100
AcDbBlockEnd
  0
BLOCK
  5
28D
330
28C
100
AcDbEntity
  8
0
100
AcDbBlockBegin
  2
*D15
 70
     1
 10
0.0
 20
0.0
 30
0.0
  3
*D15
  1
*D16
  0
LINE
  5
28F
330
28C
100
AcDbEntity
  8
치수문자_일반주서
 62
     0
370
    -2
100
AcDbLine
 10
192.7729695213137
 20
-42.04498407968612
 30
0.0
 11
208.7459963403044
 21
-42.04498407968612
 31
0.0
  0
LINE
  5
290
330
28C
100
AcDbEntity
  8
치수문자_일반주서
 62
     0
370
    -2
100
AcDbLine
 10
192.7729695213137
 20
-49.98248407968612
 30
0.0
 11
208.7459963403044
 21
-49.98248407968612
 31
0.0
  0
LINE
  5
291
330
28C
100
AcDbEntity
  8
치수문자_일반주서
 62
     0
370
    -2
100
AcDbLine
 10
208.7459963403044
 20
-42.04498407968612
 30
0.0
 11
208.7459963403044
 21
-9.404698407639096
 31
0.0
  0
LINE
  5
292
330
28C
100
AcDbEntity
  8
치수문자_일반주서
 62
     0
370
    -2
100
AcDbLine
 10
208.7459963403044
 20
-38.74298407968612
 30
0.0
 11
208.7459963403044
 21
-35.44098407968612
 31
0.0
  0
LINE
  5
293
330
28C
100
AcDbEntity
  8
치수문자_일반주서
 62
     0
370
    -2
100
AcDbLine
 10
208.7459963403044
 20
-53.28448407968612
 30
0.0
 11
208.7459963403044
 21
-56.58648407968612
 31
0.0
  0
SOLID
  5
294
330
28C
100
AcDbEntity
  8
치수문자_일반주서
 62
     0
100
AcDbTrace
 10
208.195663006971
 20
-38.74298407968612
 30
0.0
 11
209.2963296736377
 21
-38.74298407968612
 31
0.0
 12
208.7459963403044
 22
-42.04498407968612
 32
0.0
 13
208.7459963403044
 23
-42.04498407968612
 33
0.0
  0
SOLID
  5
295
330
28C
100
AcDbEntity
  8
치수문자_일반주서
 62
     0
100
AcDbTrace
 10
209.2963296736377
 20
-53.28448407968612
 30
0.0
 11
208.195663006971
 21
-53.28448407968612
 31
0.0
 12
208.7459963403044
 22
-49.98248407968612
 32
0.0
 13
208.7459963403044
 23
-49.98248407968612
 33
0.0
  0
MTEXT
  5
296
330
28C
100
AcDbEntity
  8
치수문자_일반주서
 62
     0
100
AcDbMText
 10
206.1209963403044
 20
-22.0921984076391
 30
0.0
 40
3.5
 41
0.0
 71
     5
 72
     1
  1
\A1;7.94 [5/16]
  7
SLDTEXTSTYLE0
 11
0.0
 21
1.0
 31
0.0
 73
     1
 44
1.0
  0
POINT
  5
297
330
28C
100
AcDbEntity
  8
Defpoints
 62
     0
100
AcDbPoint
 10
192.7104695213137
 20
-42.04498407968612
 30
0.0
  0
POINT
  5
298
330
28C
100
AcDbEntity
  8
Defpoints
 62
     0
100
AcDbPoint
 10
192.7104695213137
 20
-49.98248407968612
 30
0.0
  0
POINT
  5
299
330
28C
100
AcDbEntity
  8
Defpoints
 62
     0
100
AcDbPoint
 10
208.7459963403044
 20
-49.98248407968612
 30
0.0
  0
ENDBLK
  5
28E
330
28C
100
AcDbEntity
  8
0
100
AcDbBlockEnd
  0
BLOCK
  5
29F
330
29E
100
AcDbEntity
  8
0
100
AcDbBlockBegin
  2
*D16
 70
     1
 10
0.0
 20
0.0
 30
0.0
  3
*D16
  1
*D17
  0
LINE
  5
2A1
330
29E
100
AcDbEntity
  8
치수문자_일반주서
 62
     0
370
    -2
100
AcDbLine
 10
73.56249999999991
 20
4.762500000000008
 30
0.0
 11
91.41776722238721
 21
4.762500000000006
 31
0.0
  0
LINE
  5
2A2
330
29E
100
AcDbEntity
  8
치수문자_일반주서
 62
     0
370
    -2
100
AcDbLine
 10
73.5624999999999
 20
-4.76249999999999
 30
0.0
 11
91.41776722238721
 21
-4.762499999999992
 31
0.0
  0
LINE
  5
2A3
330
29E
100
AcDbEntity
  8
치수문자_일반주서
 62
     0
370
    -2
100
AcDbLine
 10
91.41776722238721
 20
4.762500000000006
 30
0.0
 11
91.41776722238721
 21
31.73448634215364
 31
0.0
  0
LINE
  5
2A4
330
29E
100
AcDbEntity
  8
치수문자_일반주서
 62
     0
370
    -2
100
AcDbLine
 10
91.41776722238721
 20
1.460500000000007
 30
0.0
 11
91.41776722238721
 21
-1.460499999999993
 31
0.0
  0
SOLID
  5
2A5
330
29E
100
AcDbEntity
  8
치수문자_일반주서
 62
     0
100
AcDbTrace
 10
91.96810055572054
 20
1.460500000000007
 30
0.0
 11
90.86743388905388
 21
1.460500000000007
 31
0.0
 12
91.41776722238721
 22
4.762500000000006
 32
0.0
 13
91.41776722238721
 23
4.762500000000006
 33
0.0
  0
SOLID
  5
2A6
330
29E
100
AcDbEntity
  8
치수문자_일반주서
 62
     0
100
AcDbTrace
 10
90.86743388905388
 20
-1.460499999999993
 30
0.0
 11
91.96810055572054
 21
-1.460499999999993
 31
0.0
 12
91.41776722238721
 22
-4.762499999999992
 32
0.0
 13
91.41776722238721
 23
-4.762499999999992
 33
0.0
  0
MTEXT
  5
2A7
330
29E
100
AcDbEntity
  8
치수문자_일반주서
 62
     0
100
AcDbMText
 10
88.79276722238721
 20
19.92198634215364
 30
0.0
 40
3.5
 41
0.0
 71
     5
 72
     1
  1
\A1;9.53 [3/8]
  7
SLDTEXTSTYLE0
 11
0.0
 21
1.0
 31
0.0
 73
     1
 44
1.0
  0
POINT
  5
2A8
330
29E
100
AcDbEntity
  8
Defpoints
 62
     0
100
AcDbPoint
 10
73.49999999999991
 20
4.762500000000008
 30
0.0
  0
POINT
  5
2A9
330
29E
100
AcDbEntity
  8
Defpoints
 62
     0
100
AcDbPoint
 10
73.4999999999999
 20
-4.76249999999999
 30
0.0
  0
POINT
  5
2AA
330
29E
100
AcDbEntity
  8
Defpoints
 62
     0
100
AcDbPoint
 10
91.41776722238721
 20
-4.762499999999991
 30
0.0
  0
ENDBLK
  5
2A0
330
29E
100
AcDbEntity
  8
0
100
AcDbBlockEnd
  0
ENDSEC
  0
SECTION
  2
ENTITIES
  0
LINE
  5
96
330
1F
100
AcDbEntity
  8
외형선
  6
Continuous
370
    15
100
AcDbLine
 10
-33.49750000000011
 20
-4.7625
 30
0.0
 11
9.999999999999895
 21
-4.7625
 31
0.0
  0
LINE
  5
97
330
1F
100
AcDbEntity
  8
외형선
  6
Continuous
370
    15
100
AcDbLine
 10
9.999999999999895
 20
4.762499999999998
 30
0.0
 11
-9.767549999999988
 21
4.762499999999998
 31
0.0
  0
LINE
  5
98
330
1F
100
AcDbEntity
  8
외형선
  6
Continuous
370
    15
100
AcDbLine
 10
-33.49750000000011
 20
4.762499999999998
 30
0.0
 11
-34.4500000000001
 21
3.810000000000001
 31
0.0
  0
LINE
  5
99
330
1F
100
AcDbEntity
  8
외형선
  6
Continuous
370
    15
100
AcDbLine
 10
-34.4500000000001
 20
-3.810000000000002
 30
0.0
 11
-33.49750000000011
 21
-4.7625
 31
0.0
  0
LINE
  5
9A
330
1F
100
AcDbEntity
  8
0
  6
Continuous
 62
     1
370
    15
100
AcDbLine
 10
35.33659252921337
 20
-4.762500000000004
 30
0.0
 11
38.23962744311352
 21
-4.762500000000004
 31
0.0
  0
LINE
  5
9B
330
1F
100
AcDbEntity
  8
0
  6
Continuous
 62
     1
370
    15
100
AcDbLine
 10
12.32476608170668
 20
4.762500000000002
 30
0.0
 11
9.999999999999895
 21
4.762500000000002
 31
0.0
  0
LINE
  5
9C
330
1F
100
AcDbEntity
  8
0
  6
Continuous
 62
     1
370
    15
100
AcDbLine
 10
64.15401561230438
 20
4.762500000000002
 30
0.0
 11
61.24902854809651
 21
4.762500000000002
 31
0.0
  0
LINE
  5
9D
330
1F
100
AcDbEntity
  8
0
  6
Continuous
 62
     1
370
    15
100
AcDbLine
 10
22.37698524752162
 20
-4.762500000000004
 30
0.0
 11
25.28219087021081
 21
-4.762500000000004
 31
0.0
  0
LINE
  5
9E
330
1F
100
AcDbEntity
  8
0
  6
Continuous
 62
     1
370
    15
100
AcDbLine
 10
51.19666753756052
 20
4.762500000000002
 30
0.0
 11
48.29365332749054
 21
4.762500000000002
 31
0.0
  0
LINE
  5
9F
330
1F
100
AcDbEntity
  8
0
  6
Continuous
 62
     1
370
    15
100
AcDbLine
 10
48.29365332749052
 20
-4.762500000000004
 30
0.0
 11
51.19666753756044
 21
-4.762500000000004
 31
0.0
  0
LINE
  5
A0
330
1F
100
AcDbEntity
  8
0
  6
Continuous
 62
     1
370
    15
100
AcDbLine
 10
25.28219087021071
 20
4.762500000000002
 30
0.0
 11
22.37698524752165
 21
4.762500000000002
 31
0.0
  0
LINE
  5
A1
330
1F
100
AcDbEntity
  8
0
  6
Continuous
 62
     1
370
    15
100
AcDbLine
 10
61.24902854809641
 20
-4.762500000000004
 30
0.0
 11
64.1540156123044
 21
-4.762500000000004
 31
0.0
  0
LINE
  5
A2
330
1F
100
AcDbEntity
  8
0
  6
Continuous
 62
     1
370
    15
100
AcDbLine
 10
9.999999999999895
 20
-4.762500000000004
 30
0.0
 11
12.32476608170675
 21
-4.762500000000004
 31
0.0
  0
LINE
  5
A3
330
1F
100
AcDbEntity
  8
0
  6
Continuous
 62
     1
370
    15
100
AcDbLine
 10
38.23962744311356
 20
4.762500000000002
 30
0.0
 11
35.33659252921334
 21
4.762500000000002
 31
0.0
  0
LINE
  5
A4
330
1F
100
AcDbEntity
  8
외형선
  6
Continuous
370
    15
100
AcDbLine
 10
9.499942525596632
 20
1.599064989842853
 30
0.0
 11
9.499942525596639
 21
4.762280683755658
 31
0.0
  0
SPLINE
  5
A5
330
1F
100
AcDbEntity
  8
외형선
  6
Continuous
370
    15
100
AcDbSpline
210
0.0
220
0.0
230
1.0
 70
     8
 71
     3
 72
     8
 73
     4
 74
     0
 42
0.000000001
 43
0.00000001
 40
0.0
 40
0.0
 40
0.0
 40
0.0
 40
1.0
 40
1.0
 40
1.0
 40
1.0
 10
9.99999999999989
 20
1.324893029647468
 30
0.0
 10
9.833492131618213
 20
1.417125992914012
 30
0.0
 10
9.666653780825609
 20
1.508611290654132
 30
0.0
 10
9.499942525596639
 20
1.599096878016405
 30
0.0
  0
SPLINE
  5
A6
330
1F
100
AcDbEntity
  8
외형선
  6
Continuous
370
    15
100
AcDbSpline
210
0.0
220
0.0
230
1.0
 70
     8
 71
     3
 72
     8
 73
     4
 74
     0
 42
0.000000001
 43
0.00000001
 40
0.0
 40
0.0
 40
0.0
 40
0.0
 40
1.0
 40
1.0
 40
1.0
 40
1.0
 10
9.999999999999883
 20
-0.3336426246700928
 30
0.0
 10
9.833492131618208
 20
-0.2378550859143463
 30
0.0
 10
9.666653780825614
 20
-0.1418005882718149
 30
0.0
 10
9.499942525596644
 20
-0.0457424813317378
 30
0.0
  0
LINE
  5
A7
330
1F
100
AcDbEntity
  8
외형선
  6
Continuous
370
    15
100
AcDbLine
 10
9.499942525596632
 20
-4.486022448479169
 30
0.0
 11
9.499942525596639
 21
-0.0457049136060541
 31
0.0
  0
SPLINE
  5
A8
330
1F
100
AcDbEntity
  8
외형선
  6
Continuous
370
    15
100
AcDbSpline
210
0.0
220
0.0
230
1.0
 70
     8
 71
     3
 72
     8
 73
     4
 74
     0
 42
0.000000001
 43
0.00000001
 40
0.0
 40
0.0
 40
0.0
 40
0.0
 40
1.0
 40
1.0
 40
1.0
 40
1.0
 10
9.99999999999989
 20
-4.574501580499421
 30
0.0
 10
9.833492131618213
 20
-4.547788547836694
 30
0.0
 10
9.666653780825609
 20
-4.518265843762409
 30
0.0
 10
9.499942525596639
 20
-4.486011081653539
 30
0.0
  0
SPLINE
  5
A9
330
1F
100
AcDbEntity
  8
외형선
  6
Continuous
370
    15
100
AcDbSpline
210
0.0
220
0.0
230
1.0
 70
     8
 71
     3
 72
     8
 73
     4
 74
     0
 42
0.000000001
 43
0.00000001
 40
0.0
 40
0.0
 40
0.0
 40
0.0
 40
1.0
 40
1.0
 40
1.0
 40
1.0
 10
9.999999999999883
 20
4.750798759051291
 30
0.0
 10
9.833492131618208
 20
4.75752579748462
 30
0.0
 10
9.666653780825614
 20
4.76135766923309
 30
0.0
 10
9.499942525596644
 20
4.7622803230597
 30
0.0
  0
LINE
  5
AA
330
1F
100
AcDbEntity
  8
외형선
  6
Continuous
370
    15
100
AcDbLine
 10
-33.49750000000011
 20
-0.0000000000000008
 30
0.0
 11
-33.49750000000011
 21
4.762499999999998
 31
0.0
  0
LINE
  5
AB
330
1F
100
AcDbEntity
  8
외형선
  6
Continuous
370
    15
100
AcDbLine
 10
-33.49750000000011
 20
-4.7625
 30
0.0
 11
-33.49750000000011
 21
-0.0000000000000008
 31
0.0
  0
LINE
  5
AC
330
1F
100
AcDbEntity
  8
외형선
  6
Continuous
370
    15
100
AcDbLine
 10
9.999999999999883
 20
4.750798759051359
 30
0.0
 11
9.999999999999895
 21
4.762499999999998
 31
0.0
  0
LINE
  5
AD
330
1F
100
AcDbEntity
  8
외형선
  6
Continuous
370
    15
100
AcDbLine
 10
9.999999999999895
 20
-4.7625
 30
0.0
 11
9.99999999999989
 21
-4.574501580499421
 31
0.0
  0
LINE
  5
AE
330
1F
100
AcDbEntity
  8
외형선
  6
Continuous
370
    15
100
AcDbLine
 10
9.999999999999883
 20
-0.3336426246701268
 30
0.0
 11
9.99999999999989
 21
1.324893029647468
 31
0.0
  0
LINE
  5
AF
330
1F
100
AcDbEntity
  8
외형선
  6
Continuous
370
    15
100
AcDbLine
 10
-34.4500000000001
 20
-0.0000000000000008
 30
0.0
 11
-34.4500000000001
 21
3.810000000000002
 31
0.0
  0
LINE
  5
B0
330
1F
100
AcDbEntity
  8
외형선
  6
Continuous
370
    15
100
AcDbLine
 10
-34.4500000000001
 20
-3.810000000000004
 30
0.0
 11
-34.4500000000001
 21
-0.0000000000000008
 31
0.0
  0
SPLINE
  5
B1
330
1F
100
AcDbEntity
  8
외형선
  6
Continuous
370
    15
100
AcDbSpline
210
0.0
220
0.0
230
1.0
 70
    24
 71
     3
 72
    20
 73
    16
 74
     0
 42
0.000000001
 43
0.00000001
 40
0.0
 40
0.0
 40
0.0
 40
0.0
 40
0.1229632136476774
 40
0.2018284403320735
 40
0.2806936670164699
 40
0.3595588937008665
 40
0.4384241203852632
 40
0.5172893470696599
 40
0.5961545737540567
 40
0.6750198004384529
 40
0.7538850271228492
 40
0.8327502538072425
 40
0.9116154804916359
 40
0.9904807071760351
 40
1.0
 40
1.0
 40
1.0
 40
1.0
 10
9.99999999999989
 20
-4.574501580499421
 30
0.0
 10
9.999999999999895
 20
-4.355109085080955
 30
0.0
 10
9.999999999999917
 20
-3.995004271150639
 30
0.0
 10
9.999999999999895
 20
-3.433846385992915
 30
0.0
 10
9.999999999999895
 20
-2.952141040256912
 30
0.0
 10
9.999999999999883
 20
-2.470659555622069
 30
0.0
 10
9.999999999999869
 20
-2.003952194568638
 30
0.0
 10
9.99999999999989
 20
-1.565813046248103
 30
0.0
 10
9.99999999999984
 20
-1.167406467597273
 30
0.0
 10
9.999999999999869
 20
-0.8217237110991485
 30
0.0
 10
9.999999999999924
 20
-0.5369813906736761
 30
0.0
 10
9.999999999999876
 20
-0.3212263191883616
 30
0.0
 10
9.999999999999895
 20
-0.1878118986872163
 30
0.0
 10
9.999999999999833
 20
-0.1296726455324884
 30
0.0
 10
9.999999999999883
 20
-0.1392672882588834
 30
0.0
 10
9.999999999999883
 20
-0.1403006616840253
 30
0.0
  0
SPLINE
  5
B2
330
1F
100
AcDbEntity
  8
외형선
  6
Continuous
370
    15
100
AcDbSpline
210
0.0
220
0.0
230
1.0
 70
    24
 71
     3
 72
    15
 73
    11
 74
     0
 42
0.000000001
 43
0.00000001
 40
0.0
 40
0.0
 40
0.0
 40
0.0
 40
0.0466945703689967
 40
0.174690520609063
 40
0.3026864708491295
 40
0.4306824210891911
 40
0.5586783713292528
 40
0.686674321569324
 40
0.8146702718093949
 40
0.9999999999999999
 40
0.9999999999999999
 40
0.9999999999999999
 40
0.9999999999999999
 10
9.999999999999861
 20
1.399188211009284
 30
0.0
 10
9.999999999999861
 20
1.431509501799424
 30
0.0
 10
9.999999999999854
 20
1.552427695719361
 30
0.0
 10
9.999999999999876
 20
1.829440556977547
 30
0.0
 10
9.999999999999902
 20
2.216666099563103
 30
0.0
 10
9.999999999999883
 20
2.651336708657975
 30
0.0
 10
9.999999999999876
 20
3.114280450441165
 30
0.0
 10
9.999999999999876
 20
3.594043973661758
 30
0.0
 10
9.999999999999876
 20
4.151453065686837
 30
0.0
 10
9.999999999999876
 20
4.528046587975799
 30
0.0
 10
9.999999999999883
 20
4.750798759051359
 30
0.0
  0
LINE
  5
B3
330
1F
100
AcDbEntity
  8
0
  6
Continuous
 62
     1
370
    15
100
AcDbLine
 10
73.4999999999999
 20
-4.313307425830493
 30
0.0
 11
73.4999999999999
 21
0.4080574258305465
 31
0.0
  0
SPLINE
  5
B4
330
1F
100
AcDbEntity
  8
0
  6
Continuous
 62
     1
370
    15
100
AcDbSpline
210
0.0
220
0.0
230
1.0
 70
     8
 71
     3
 72
    19
 73
    15
 74
     0
 42
0.000000001
 43
0.00000001
 40
0.0
 40
0.0
 40
0.0
 40
0.0
 40
0.0854957956177775
 40
0.1709886484222162
 40
0.2564799364264648
 40
0.3419710390949575
 40
0.4274633360640559
 40
0.5114303474756487
 40
0.595404323656224
 40
0.6793880707476669
 40
0.763384380355348
 40
0.8516489113496072
 40
0.9399161376277001
 40
1.0
 40
1.0
 40
1.0
 40
1.0
 10
9.999999999999895
 20
1.32489302964747
 30
0.0
 10
10.57863245767722
 20
0.9983147176300313
 30
0.0
 10
11.73587745617747
 20
0.3451693346042098
 30
0.0
 10
13.47170740752842
 20
-0.6654629551204451
 30
0.0
 10
15.207501873399
 20
-1.642522481667923
 30
0.0
 10
16.94328633085703
 20
-2.548222956244993
 30
0.0
 10
18.66877874877574
 20
-3.336457887639126
 30
0.0
 10
20.38394318066658
 20
-3.97566075631795
 30
0.0
 10
22.08894671641949
 20
-4.441865892593221
 30
0.0
 10
23.79418333131233
 20
-4.718495880496435
 30
0.0
 10
25.52850971214903
 20
-4.797284708558014
 30
0.0
 10
27.29190188118462
 20
-4.653905337961063
 30
0.0
 10
28.89343766224462
 20
-4.351616172942071
 30
0.0
 10
29.89755732508176
 20
-4.02054178755503
 30
0.0
 10
30.30423710192794
 20
-3.886452931264484
 30
0.0
  0
SPLINE
  5
B5
330
1F
100
AcDbEntity
  8
0
  6
Continuous
 62
     1
370
    15
100
AcDbSpline
210
0.0
220
0.0
230
1.0
 70
     8
 71
     3
 72
    20
 73
    16
 74
     0
 42
0.000000001
 43
0.00000001
 40
0.0
 40
0.0
 40
0.0
 40
0.0
 40
0.0458905016694143
 40
0.1247918106564635
 40
0.2036936955017583
 40
0.2825967809045339
 40
0.3629372888019682
 40
0.44327873422862
 40
0.5236212869686211
 40
0.6039651165343912
 40
0.684310392125255
 40
0.7632254964988449
 40
0.8421450568106502
 40
0.9210696874825091
 40
1.0
 40
1.0
 40
1.0
 40
1.0
 10
51.19666753756052
 20
4.736151645052612
 30
0.0
 10
51.53782690244949
 20
4.739372102669609
 30
0.0
 10
52.46555471796992
 20
4.748129617243376
 30
0.0
 10
53.97985323044495
 20
4.522067086484521
 30
0.0
 10
55.73958184652239
 20
4.090810126554713
 30
0.0
 10
57.50999555159901
 20
3.460473811205475
 30
0.0
 10
59.29119354908175
 20
2.66853763286995
 30
0.0
 10
61.08307576322791
 20
1.745679470556751
 30
0.0
 10
62.87499424817258
 20
0.740971672681544
 30
0.0
 10
64.66694205388673
 20
-0.2986974311789399
 30
0.0
 10
66.4482965929278
 20
-1.31796078739335
 30
0.0
 10
68.21902413628676
 20
-2.271179801014135
 30
0.0
 10
69.97922503005564
 20
-3.111921297705047
 30
0.0
 10
71.73955566474719
 20
-3.825584408545573
 30
0.0
 10
72.91317114050715
 20
-4.150729185638316
 30
0.0
 10
73.4999999999999
 20
-4.313307425830492
 30
0.0
  0
SPLINE
  5
B6
330
1F
100
AcDbEntity
  8
0
  6
Continuous
 62
     1
370
    15
100
AcDbSpline
210
0.0
220
0.0
230
1.0
 70
     8
 71
     3
 72
    17
 73
    13
 74
     0
 42
0.000000001
 43
0.00000001
 40
0.0
 40
0.0
 40
0.0
 40
0.0
 40
0.103756082258662
 40
0.2075089622040725
 40
0.3112588546425873
 40
0.4150059751086855
 40
0.5187505398132632
 40
0.6206424324523491
 40
0.7225295623008476
 40
0.8244127295314456
 40
0.9262927366223831
 40
1.0
 40
1.0
 40
1.0
 40
1.0
 10
73.4999999999999
 20
0.408057425830546
 30
0.0
 10
72.90255708643055
 20
0.7498132774786521
 30
0.0
 10
71.70768969868665
 20
1.433314432869926
 30
0.0
 10
69.91542945870913
 20
2.386048447745877
 30
0.0
 10
68.12322936467748
 20
3.227983491172197
 30
0.0
 10
66.33109035921284
 20
3.917756494569055
 30
0.0
 10
64.54964578235341
 20
4.420567494997415
 30
0.0
 10
62.77896572290074
 20
4.716231728729714
 30
0.0
 10
61.01901199884378
 20
4.79798303553777
 30
0.0
 10
59.25913694699467
 20
4.655673894293151
 30
0.0
 10
57.66154559191111
 20
4.356743350980938
 30
0.0
 10
56.65052988457948
 20
4.025825700862906
 30
0.0
 10
56.22613009283865
 20
3.88691452393952
 30
0.0
  0
SPLINE
  5
B7
330
1F
100
AcDbEntity
  8
0
  6
Continuous
 62
     1
370
    15
100
AcDbSpline
210
0.0
220
0.0
230
1.0
 70
     8
 71
     3
 72
    22
 73
    18
 74
     0
 42
0.000000001
 43
0.00000001
 40
0.0
 40
0.0
 40
0.0
 40
0.0
 40
0.0395976636487489
 40
0.1103263135761182
 40
0.1797984186960107
 40
0.2492752028462772
 40
0.3187563162685318
 40
0.3882340985698854
 40
0.4567683277919956
 40
0.525296019355286
 40
0.5938182638179929
 40
0.6623361567698273
 40
0.7308507978262473
 40
0.7981376402850132
 40
0.8654232792861658
 40
0.9327099784964368
 40
1.0
 40
1.0
 40
1.0
 40
1.0
 10
35.33659252921337
 20
-4.734835906980795
 30
0.0
 10
35.00215913541255
 20
-4.738812735248559
 30
0.0
 10
34.07036669932115
 20
-4.749892904179728
 30
0.0
 10
32.55181324019656
 20
-4.522087421069204
 30
0.0
 10
30.78092431090017
 20
-4.087213076597787
 30
0.0
 10
29.02053901705937
 20
-3.459296801801488
 30
0.0
 10
27.26007557732353
 20
-2.67725584208852
 30
0.0
 10
25.50759518413769
 20
-1.777080769064054
 30
0.0
 10
23.76320888912444
 20
-0.8021084069891098
 30
0.0
 10
22.02692563531755
 20
0.2038873707628669
 30
0.0
 10
20.29080660791627
 20
1.200812339662021
 30
0.0
 10
18.55482544570636
 20
2.14480066930358
 30
0.0
 10
16.82927311068164
 20
2.988761833196839
 30
0.0
 10
15.11421535691516
 20
3.69934994721276
 30
0.0
 10
13.40951464910687
 20
4.244275398641436
 30
0.0
 10
11.70478865511431
 20
4.623038902131093
 30
0.0
 10
10.56827223742548
 20
4.708211439193549
 30
0.0
 10
10.0
 20
4.750798759051288
 30
0.0
  0
SPLINE
  5
B8
330
1F
100
AcDbEntity
  8
외형선
  6
Continuous
370
    15
100
AcDbSpline
210
0.0
220
0.0
230
1.0
 70
    24
 71
     3
 72
    19
 73
    15
 74
     0
 42
0.000000001
 43
0.00000001
 40
0.0
 40
0.0
 40
0.0
 40
0.0
 40
0.0879924067302126
 40
0.1759848134604252
 40
0.2621774950663427
 40
0.3483701766722603
 40
0.434562858278179
 40
0.5207555398840976
 40
0.6069482214900153
 40
0.693140903095933
 40
0.7793335847018523
 40
0.8655262663077716
 40
0.9517189479136896
 40
1.0
 40
1.0
 40
1.0
 40
1.0
 10
9.999999999999924
 20
4.750798759051921
 30
0.0
 10
9.999999999999917
 20
4.595127662824143
 30
0.0
 10
9.999999999999902
 20
4.283785470368583
 30
0.0
 10
9.999999999999847
 20
3.79487666188015
 30
0.0
 10
9.99999999999989
 20
3.309032689670071
 30
0.0
 10
9.999999999999917
 20
2.836950900795481
 30
0.0
 10
9.999999999999902
 20
2.390163764893823
 30
0.0
 10
9.999999999999876
 20
1.979900283854495
 30
0.0
 10
9.999999999999902
 20
1.619544691439936
 30
0.0
 10
9.999999999999924
 20
1.317432740557823
 30
0.0
 10
9.999999999999917
 20
1.083458553999166
 30
0.0
 10
9.999999999999902
 20
0.9261898254131212
 30
0.0
 10
9.99999999999991
 20
0.8484807339298497
 30
0.0
 10
9.999999999999883
 20
0.8551282498236374
 30
0.0
 10
9.999999999999883
 20
0.8575149542922372
 30
0.0
  0
LINE
  5
B9
330
1F
100
AcDbEntity
  8
0
  6
Continuous
 62
     1
370
    15
100
AcDbLine
 10
73.4999999999999
 20
2.019105074104714
 30
0.0
 11
73.4999999999999
 21
4.762500000000007
 31
0.0
  0
SPLINE
  5
BA
330
1F
100
AcDbEntity
  8
0
  6
Continuous
 62
     1
370
    15
100
AcDbSpline
210
0.0
220
0.0
230
1.0
 70
     8
 71
     3
 72
    25
 73
    21
 74
     0
 42
0.000000001
 43
0.00000001
 40
0.0
 40
0.0
 40
0.0
 40
0.0
 40
0.037071600906896
 40
0.0931755993125489
 40
0.1492794760908735
 40
0.2053841366337295
 40
0.2604878224517432
 40
0.3155960789271539
 40
0.3707107476017551
 40
0.4258336604776948
 40
0.483757610645945
 40
0.5416833296049509
 40
0.599609587634424
 40
0.6575340869937629
 40
0.7154568993712485
 40
0.7723466224216693
 40
0.8292330635890831
 40
0.8861166673665539
 40
0.9429978798951448
 40
1.0
 40
1.0
 40
1.0
 40
1.0
 10
12.3247660817067
 20
4.73888649562145
 30
0.0
 10
12.70708342563607
 20
4.739338901442939
 30
0.0
 10
13.6679981629755
 20
4.740475976252728
 30
0.0
 10
15.20750158784142
 20
4.502630075634562
 30
0.0
 10
16.94328640747433
 20
4.066551238053475
 30
0.0
 10
18.66877872844815
 20
3.446479368580291
 30
0.0
 10
20.38394318682202
 20
2.683512133161131
 30
0.0
 10
22.08894671196706
 20
1.810307891128053
 30
0.0
 10
23.79418334296781
 20
0.8601136582042234
 30
0.0
 10
25.5285096690618
 20
-0.1433836756112667
 30
0.0
 10
27.29190205071441
 20
-1.158116125018951
 30
0.0
 10
29.0842020416735
 20
-2.134961976023835
 30
0.0
 10
30.87651884366589
 20
-3.0114523525592
 30
0.0
 10
32.66878682910543
 20
-3.746349769564466
 30
0.0
 10
34.45036326122394
 20
-4.301869928923963
 30
0.0
 10
36.22119424894722
 20
-4.655588434151789
 30
0.0
 10
37.98129000045339
 20
-4.797009991134045
 30
0.0
 10
39.74128392558329
 20
-4.717292895513322
 30
0.0
 10
41.50243911158598
 20
-4.436817754329385
 30
0.0
 10
42.6769767543079
 20
-4.082004486500147
 30
0.0
 10
43.2648690668169
 20
-3.904409503635564
 30
0.0
  0
SPLINE
  5
BB
330
1F
100
AcDbEntity
  8
0
  6
Continuous
 62
     1
370
    15
100
AcDbSpline
210
0.0
220
0.0
230
1.0
 70
     8
 71
     3
 72
    13
 73
     9
 74
     0
 42
0.000000001
 43
0.00000001
 40
0.0
 40
0.0
 40
0.0
 40
0.0
 40
0.0548817724455991
 40
0.2466219136026374
 40
0.434949019841789
 40
0.6232867599634704
 40
0.8116366002558864
 40
1.0
 40
1.0
 40
1.0
 40
1.0
 10
64.15401561230438
 20
4.73957567869087
 30
0.0
 10
64.3249884327393
 20
4.746244004832334
 30
0.0
 10
65.09328803879701
 20
4.776209424683964
 30
0.0
 10
66.44829713011418
 20
4.604446108271846
 30
0.0
 10
68.21902399348257
 20
4.230674294079495
 30
0.0
 10
69.9792250681403
 20
3.649121830895231
 30
0.0
 10
71.739555655225
 20
2.912986181060078
 30
0.0
 10
72.91317113733302
 20
2.317072592879699
 30
0.0
 10
73.4999999999999
 20
2.019105074104715
 30
0.0
  0
SPLINE
  5
BC
330
1F
100
AcDbEntity
  8
0
  6
Continuous
 62
     1
370
    15
100
AcDbSpline
210
0.0
220
0.0
230
1.0
 70
     8
 71
     3
 72
    10
 73
     6
 74
     0
 42
0.000000001
 43
0.00000001
 40
0.0
 40
0.0
 40
0.0
 40
0.0
 40
0.4149157617860398
 40
0.8298187176698784
 40
1.0
 40
1.0
 40
1.0
 40
1.0
 10
73.49999999999991
 20
4.762500000000008
 30
0.0
 10
72.90255721227044
 20
4.691729940087222
 30
0.0
 10
71.70769007620243
 20
4.585218779652547
 30
0.0
 10
70.26778638692657
 20
4.265373055851785
 30
0.0
 10
69.42532726810433
 20
3.969261640217203
 30
0.0
 10
69.18028430883827
 20
3.883132811009446
 30
0.0
  0
SPLINE
  5
BD
330
1F
100
AcDbEntity
  8
0
  6
Continuous
 62
     1
370
    15
100
AcDbSpline
210
0.0
220
0.0
230
1.0
 70
     8
 71
     3
 72
    25
 73
    21
 74
     0
 42
0.000000001
 43
0.00000001
 40
0.0
 40
0.0
 40
0.0
 40
0.0
 40
0.0489114254397413
 40
0.1057941826047619
 40
0.162677985399964
 40
0.2195632834074636
 40
0.2774845020858379
 40
0.3354066606623277
 40
0.3933298810786077
 40
0.4512542850162026
 40
0.509179993866919
 40
0.5660766112709512
 40
0.6229770607310374
 40
0.679881055800279
 40
0.7367823227312108
 40
0.7929108337703
 40
0.8490339905643731
 40
0.9051526862643522
 40
0.9612678181418616
 40
1.0
 40
1.0
 40
1.0
 40
1.0
 10
48.29365332749052
 20
-4.749471498248568
 30
0.0
 10
47.78927813141814
 20
-4.739286074980841
 30
0.0
 10
46.69832727249592
 20
-4.717255260720065
 30
0.0
 10
45.02078727440551
 20
-4.422446109687225
 30
0.0
 10
43.2610096675886
 20
-3.934020560020725
 30
0.0
 10
41.49053084449132
 20
-3.257397473755947
 30
0.0
 10
39.70926836017577
 20
-2.427174873847486
 30
0.0
 10
37.91731596863529
 20
-1.477451483188988
 30
0.0
 10
36.1253184639213
 20
-0.4583818545824898
 30
0.0
 10
34.33328035894717
 20
0.5822699049910935
 30
0.0
 10
32.55181351338434
 20
1.589559718179836
 30
0.0
 10
30.78092423868552
 20
2.517340629147149
 30
0.0
 10
29.02053903478216
 20
3.325411528124391
 30
0.0
 10
27.26007557865468
 20
3.982594551051803
 30
0.0
 10
25.50759516120259
 20
4.457141797025971
 30
0.0
 10
23.76320897812062
 20
4.72997856711856
 30
0.0
 10
22.02692530180242
 20
4.794546058968075
 30
0.0
 10
20.29080785285345
 20
4.64102585382562
 30
0.0
 10
18.73404632177935
 20
4.341357609927663
 30
0.0
 10
17.7559918800889
 20
4.019632638884318
 30
0.0
 10
17.35659013626832
 20
3.888251900769942
 30
0.0
  0
SPLINE
  5
BE
330
1F
100
AcDbEntity
  8
0
  6
Continuous
 62
     1
370
    15
100
AcDbSpline
210
0.0
220
0.0
230
1.0
 70
     8
 71
     3
 72
    12
 73
     8
 74
     0
 42
0.000000001
 43
0.00000001
 40
0.0
 40
0.0
 40
0.0
 40
0.0
 40
0.2359628674674076
 40
0.4719176129602923
 40
0.7078680397058373
 40
0.9438179549366804
 40
1.0
 40
1.0
 40
1.0
 40
1.0
 10
9.999999999999895
 20
-4.574501580499424
 30
0.0
 10
10.57863244664792
 20
-4.647686488920047
 30
0.0
 10
11.73587742308991
 20
-4.79405378669561
 30
0.0
 10
13.47170753987225
 20
-4.751362986508608
 30
0.0
 10
15.20750137711962
 20
-4.49988085187854
 30
0.0
 10
16.50245629509307
 20
-4.199308484992683
 30
0.0
 10
17.21882080969252
 20
-3.93842443119722
 30
0.0
 10
17.35659013626831
 20
-3.888251900769945
 30
0.0
  0
SPLINE
  5
BF
330
1F
100
AcDbEntity
  8
0
  6
Continuous
 62
     1
370
    15
100
AcDbSpline
210
0.0
220
0.0
230
1.0
 70
     8
 71
     3
 72
    25
 73
    21
 74
     0
 42
0.000000001
 43
0.00000001
 40
0.0
 40
0.0
 40
0.0
 40
0.0
 40
0.048534037284173
 40
0.1054142577109436
 40
0.1633275096382043
 40
0.2212400662980629
 40
0.2791520502188607
 40
0.3370635840696086
 40
0.3949747906299046
 40
0.451849854865551
 40
0.5087248836526334
 40
0.565600327539981
 40
0.6224766368342802
 40
0.6803890942839457
 40
0.7383022275399053
 40
0.796216158988942
 40
0.854131010821979
 40
0.9120469050042478
 40
0.9689318780244068
 40
0.9999999999999999
 40
0.9999999999999999
 40
0.9999999999999999
 40
0.9999999999999999
 10
38.23962744311354
 20
4.748957262447592
 30
0.0
 10
38.7401876773842
 20
4.739211348709176
 30
0.0
 10
39.82738726942112
 20
4.718043559670019
 30
0.0
 10
41.51184502081539
 20
4.423167512076748
 30
0.0
 10
43.29308769282459
 20
3.928330252532987
 30
0.0
 10
45.08494910838267
 20
3.239909551389283
 30
0.0
 10
46.87679567204479
 20
2.40079763095804
 30
0.0
 10
48.66861815862891
 20
1.448408195826787
 30
0.0
 10
50.4497672237717
 20
0.4341433888893753
 30
0.0
 10
52.22014177485704
 20
-0.5937909334863488
 30
0.0
 10
53.97985425431349
 20
-1.588585025156957
 30
0.0
 10
55.73958157260022
 20
-2.511345587555827
 30
0.0
 10
57.50999562549841
 20
-3.325151613646933
 30
0.0
 10
59.29119353289992
 20
-3.990031236384695
 30
0.0
 10
61.08307575351421
 20
-4.471514811219369
 30
0.0
 10
62.87499430321086
 20
-4.742178236527887
 30
0.0
 10
64.66694184344244
 20
-4.792286387268452
 30
0.0
 10
66.44829737376376
 20
-4.609407657716967
 30
0.0
 10
67.95272472588086
 20
-4.302053691177795
 30
0.0
 10
68.85985428950136
 20
-3.992483776613557
 30
0.0
 10
69.18028430883825
 20
-3.883132811009447
 30
0.0
  0
SPLINE
  5
C0
330
1F
100
AcDbEntity
  8
0
  6
Continuous
 62
     1
370
    15
100
AcDbSpline
210
0.0
220
0.0
230
1.0
 70
     8
 71
     3
 72
    24
 73
    20
 74
     0
 42
0.000000001
 43
0.00000001
 40
0.0
 40
0.0
 40
0.0
 40
0.0
 40
0.0592770446841264
 40
0.1185522598498134
 40
0.1778257682184058
 40
0.2370976929272335
 40
0.2963681575000716
 40
0.3545801691859029
 40
0.4127894598346218
 40
0.4709964865940994
 40
0.5292017079293956
 40
0.5884653503743554
 40
0.647728552204382
 40
0.7069914390800515
 40
0.7662541367393525
 40
0.8255167709667908
 40
0.8837194506768691
 40
0.9419227396484611
 40
1.0
 40
1.0
 40
1.0
 40
1.0
 10
73.4999999999999
 20
-4.76249999999999
 30
0.0
 10
72.90255708642262
 20
-4.69380122147801
 30
0.0
 10
71.70768969866276
 20
-4.591432559897165
 30
0.0
 10
69.91542945880455
 20
-4.162249768399983
 30
0.0
 10
68.12322936431957
 20
-3.553411205785445
 30
0.0
 10
66.3310903605489
 20
-2.773242261817774
 30
0.0
 10
64.54964577740485
 20
-1.869255973689682
 30
0.0
 10
62.778965741002
 20
-0.8846294410351285
 30
0.0
 10
61.019011931253
 20
0.1341149419717217
 30
0.0
 10
59.25913719924386
 20
1.146778516860961
 30
0.0
 10
57.48866764703806
 20
2.113254823880391
 30
0.0
 10
55.70748335826551
 20
2.987936159596362
 30
0.0
 10
53.91566262366075
 20
3.727388797565926
 30
0.0
 10
52.12384630702693
 20
4.291701635900226
 30
0.0
 10
50.33204437796805
 20
4.654031327872903
 30
0.0
 10
48.55090496576241
 20
4.797676801409628
 30
0.0
 10
46.78052539514297
 20
4.716156663633629
 30
0.0
 10
45.0220669595601
 20
4.434253431265798
 30
0.0
 10
43.85017832079548
 20
4.080896486283943
 30
0.0
 10
43.26486906681689
 20
3.904409503635563
 30
0.0
  0
SPLINE
  5
C1
330
1F
100
AcDbEntity
  8
0
  6
Continuous
 62
     1
370
    15
100
AcDbSpline
210
0.0
220
0.0
230
1.0
 70
     8
 71
     3
 72
    15
 73
    11
 74
     0
 42
0.000000001
 43
0.00000001
 40
0.0
 40
0.0
 40
0.0
 40
0.0
 40
0.028285066840279
 40
0.1685495072344859
 40
0.3088050401236603
 40
0.4490539164111123
 40
0.5867894996129813
 40
0.7245226193475485
 40
0.8622579093209901
 40
1.0
 40
1.0
 40
1.0
 40
1.0
 10
22.37698524752163
 20
-4.745550676830751
 30
0.0
 10
22.26028469593845
 20
-4.750822120919308
 30
0.0
 10
21.56487108513063
 20
-4.782234431470234
 30
0.0
 10
20.29080817040231
 20
-4.633652905948499
 30
0.0
 10
18.55482502682135
 20
-4.294782190012278
 30
0.0
 10
16.82927322067968
 20
-3.751376729050508
 30
0.0
 10
15.11421532767747
 20
-3.054167521525114
 30
0.0
 10
13.40951465690367
 20
-2.229604919477646
 30
0.0
 10
11.70478865316498
 20
-1.311474547758425
 30
0.0
 10
10.56827223677569
 20
-0.6595919633711304
 30
0.0
 10
10.0
 20
-0.3336426246701598
 30
0.0
  0
SPLINE
  5
C2
330
1F
100
AcDbEntity
  8
외형선
  6
Continuous
370
    15
100
AcDbSpline
210
0.0
220
0.0
230
1.0
 70
    24
 71
     3
 72
    20
 73
    16
 74
     0
 42
0.000000001
 43
0.00000001
 40
0.0
 40
0.0
 40
0.0
 40
0.0
 40
0.0648106810438363
 40
0.1429401163022673
 40
0.2210695515606996
 40
0.2991989868191315
 40
0.3773284220775627
 40
0.4554578573359939
 40
0.5335872925944265
 40
0.6117167278528592
 40
0.6898461631112908
 40
0.7679755983697222
 40
0.846105033628154
 40
0.924234468886586
 40
1.0
 40
1.0
 40
1.0
 40
1.0
 10
9.999999999999876
 20
-0.1410646268595508
 30
0.0
 10
9.999999999999876
 20
-0.1440614690192094
 30
0.0
 10
9.999999999999876
 20
-0.1506710117665137
 30
0.0
 10
9.999999999999917
 20
-0.2571038800421703
 30
0.0
 10
9.99999999999989
 20
-0.440548313929817
 30
0.0
 10
9.99999999999989
 20
-0.6972706399821785
 30
0.0
 10
9.999999999999895
 20
-1.019875568959808
 30
0.0
 10
9.999999999999945
 20
-1.397499184448745
 30
0.0
 10
9.99999999999989
 20
-1.821291637229823
 30
0.0
 10
9.999999999999917
 20
-2.277681618659513
 30
0.0
 10
9.999999999999895
 20
-2.75472682537374
 30
0.0
 10
9.999999999999876
 20
-3.238610932241333
 30
0.0
 10
9.99999999999989
 20
-3.71455197883378
 30
0.0
 10
9.99999999999993
 20
-4.16885985777897
 30
0.0
 10
9.99999999999991
 20
-4.440679434766033
 30
0.0
 10
9.999999999999895
 20
-4.574501580499424
 30
0.0
  0
SPLINE
  5
C3
330
1F
100
AcDbEntity
  8
0
  6
Continuous
 62
     1
370
    15
100
AcDbSpline
210
0.0
220
0.0
230
1.0
 70
     8
 71
     3
 72
    26
 73
    22
 74
     0
 42
0.000000001
 43
0.00000001
 40
0.0
 40
0.0
 40
0.0
 40
0.0
 40
0.0070269791609085
 40
0.0649444269543122
 40
0.1228636433399123
 40
0.1807833987354651
 40
0.2387013956583069
 40
0.296617705788671
 40
0.3535010425635856
 40
0.4103810978239077
 40
0.467258316012804
 40
0.5241331432212551
 40
0.5820409039811313
 40
0.6399479695395286
 40
0.6978544624131705
 40
0.7557605052594369
 40
0.8136662208462841
 40
0.8705358923525062
 40
0.9274055284135252
 40
0.9842755795354511
 40
1.0
 40
1.0
 40
1.0
 40
1.0
 10
25.28219087021072
 20
4.751206628710362
 30
0.0
 10
25.35467144060721
 20
4.754844165997763
 30
0.0
 10
26.02454806923133
 20
4.788462847545794
 30
0.0
 10
27.29190615409051
 20
4.645067782558721
 30
0.0
 10
29.08420094223072
 20
4.302733592707987
 30
0.0
 10
30.87651913795248
 20
3.73699511219448
 30
0.0
 10
32.66878675137377
 20
3.001230564177717
 30
0.0
 10
34.45036327731619
 20
2.128057888738054
 30
0.0
 10
36.22119426044966
 20
1.162860474403228
 30
0.0
 10
37.98128993838551
 20
0.1506075482155466
 30
0.0
 10
39.74128416233633
 20
-0.8684207003304251
 30
0.0
 10
41.51184533080572
 20
-1.854003161103879
 30
0.0
 10
43.29308760956205
 20
-2.75990909227041
 30
0.0
 10
45.08494912909408
 20
-3.5415163926163
 30
0.0
 10
46.87679567246035
 20
-4.156580193430216
 30
0.0
 10
48.66861813625587
 20
-4.576523950073685
 30
0.0
 10
50.44976731218293
 20
-4.779149635544544
 30
0.0
 10
52.22014145003138
 20
-4.764114226943159
 30
0.0
 10
53.979855467702
 20
-4.519883285490624
 30
0.0
 10
55.31518151843688
 20
-4.216590343691335
 30
0.0
 10
56.06394352014927
 20
-3.945610473202307
 30
0.0
 10
56.22613009283859
 20
-3.886914523939522
 30
0.0
  0
SPLINE
  5
C4
330
1F
100
AcDbEntity
  8
0
  6
Continuous
 62
     1
370
    15
100
AcDbSpline
210
0.0
220
0.0
230
1.0
 70
     8
 71
     3
 72
    26
 73
    22
 74
     0
 42
0.000000001
 43
0.00000001
 40
0.0
 40
0.0
 40
0.0
 40
0.0
 40
0.0074338445683349
 40
0.0643057386722834
 40
0.1211758687642462
 40
0.1790801422683939
 40
0.2369839852642812
 40
0.2948875205301257
 40
0.3527908709197815
 40
0.4106941593325524
 40
0.467561806098218
 40
0.5244300481503673
 40
0.5812993355658784
 40
0.6381701178121449
 40
0.6960765563872214
 40
0.7539839346205741
 40
0.811892374422761
 40
0.8698019974442566
 40
0.9277129250458912
 40
0.9845950238002523
 40
1.0
 40
1.0
 40
1.0
 40
1.0
 10
61.24902854809644
 20
-4.750214062731458
 30
0.0
 10
61.17234930542065
 20
-4.754177464371244
 30
0.0
 10
60.50904308536599
 20
-4.788462479044152
 30
0.0
 10
59.25913780479262
 20
-4.646475265037561
 30
0.0
 10
57.48866748147161
 20
-4.312767749123616
 30
0.0
 10
55.70748340305897
 20
-3.75578491801297
 30
0.0
 10
53.91566261131204
 20
-3.024744353712091
 30
0.0
 10
52.12384631162881
 20
-2.149968440238534
 30
0.0
 10
50.33204437190916
 20
-1.174550999395575
 30
0.0
 10
48.55090498524285
 20
-0.1499638755392631
 30
0.0
 10
46.78052532465306
 20
0.8750925281838519
 30
0.0
 10
45.02078631167214
 20
1.854288263729228
 30
0.0
 10
43.2610099248843
 20
2.74939975621739
 30
0.0
 10
41.49053077611171
 20
3.524529829591435
 30
0.0
 10
39.70926837115121
 20
4.141234960415539
 30
0.0
 10
37.91731599359075
 20
4.567233543519555
 30
0.0
 10
36.12531835312058
 20
4.777552555470244
 30
0.0
 10
34.33328077720704
 20
4.766971628208463
 30
0.0
 10
32.55181196283964
 20
4.520018279800954
 30
0.0
 10
31.20880923869617
 20
4.214199223046042
 30
0.0
 10
30.46314446074221
 20
3.944028546819329
 30
0.0
 10
30.30423710192788
 20
3.886452931264482
 30
0.0
  0
LINE
  5
C5
330
1F
100
AcDbEntity
  8
0
  6
Continuous
 62
     1
370
    15
100
AcDbLine
 10
73.4999999999999
 20
0.4080574258305464
 30
0.0
 11
73.4999999999999
 21
2.019105074104714
 31
0.0
  0
LINE
  5
C6
330
1F
100
AcDbEntity
  8
0
  6
Continuous
 62
     1
370
    15
100
AcDbLine
 10
73.4999999999999
 20
-4.76249999999999
 30
0.0
 11
73.4999999999999
 21
-4.313307425830493
 31
0.0
  0
LINE
  5
C7
330
1F
100
AcDbEntity
  8
중심선
 48
0.8
100
AcDbLine
 10
-37.45000000000011
 20
-0.0000000000000047
 30
0.0
 11
76.4999999999999
 21
0.0000000000000093
 31
0.0
  0
LINE
  5
C8
330
1F
100
AcDbEntity
  8
참조1
100
AcDbLine
 10
18.13060364977729
 20
0.0010749287238892
 30
0.0
 11
18.1306036497773
 21
-39.99892507127611
 31
0.0
  0
LINE
  5
C9
330
1F
100
AcDbEntity
  8
참조1
100
AcDbLine
 10
18.1306036497773
 20
-39.99892507127611
 30
0.0
 11
-21.63450316453139
 21
-39.9989250712761
 31
0.0
  0
CIRCLE
  5
CA
330
1F
100
AcDbEntity
  8
해칭선
100
AcDbCircle
 10
0.0
 20
0.0
 30
0.0
 40
3.000000000000001
  0
INSERT
  5
CB
330
1F
100
AcDbEntity
  8
0
  6
Continuous
 62
     7
100
AcDbBlockReference
 66
     1
  2
블럭10
 10
5.584727067874695
 20
-52.04717430164393
 30
0.0
  0
ATTRIB
  5
CC
330
CB
100
AcDbEntity
  8
FORMAT
 62
     2
100
AcDbText
 10
-3.596568220866585
 20
-49.97180738881174
 30
0.0
 40
4.233333333333333
  1
E1036024 [ 4 FLUTE ]
 41
0.75
  7
SLDTEXTSTYLE0
 11
-3.596568220866585
 21
-52.08847405547841
 31
0.0
100
AcDbAttribute
  2
AUTOATTR0
 70
     0
 74
     1
  0
SEQEND
  5
CD
330
CB
100
AcDbEntity
  8
0
  6
Continuous
 62
     7
  0
HATCH
  5
CE
330
1F
100
AcDbEntity
  8
중심선
100
AcDbHatch
 10
0.0
 20
0.0
 30
0.0
210
0.0
220
0.0
230
1.0
  2
SOLID
 70
     1
 71
     0
 91
        1
 92
        0
 93
        4
 72
     1
 10
11.29963637225555
 20
-35.8
 11
7.853361128418267
 21
-35.8
 72
     1
 10
7.853361128418267
 20
-35.8
 11
5.725131269214244
 21
-38.3363255805726
 72
     1
 10
5.725131269214244
 20
-38.3363255805726
 11
9.171439598164703
 21
-38.33628615127011
 72
     1
 10
9.171439598164703
 20
-38.33628615127011
 11
11.29963637225555
 21
-35.8
 97
        0
 75
     0
 76
     1
 98
        1
 10
1.394396350222609
 20
-0.0010749287238939
  0
HATCH
  5
CF
330
1F
100
AcDbEntity
  8
중심선
100
AcDbHatch
 10
0.0
 20
0.0
 30
0.0
210
0.0
220
0.0
230
1.0
  2
SOLID
 70
     1
 71
     0
 91
        1
 92
        0
 93
        4
 72
     1
 10
16.31240036329156
 20
-35.8
 11
12.86612511945427
 21
-35.79999999999998
 72
     1
 10
12.86612511945427
 20
-35.79999999999998
 11
8.33498711109683
 21
-41.20000000000002
 72
     1
 10
8.33498711109683
 20
-41.20000000000002
 11
11.78126235493411
 21
-41.20000000000002
 72
     1
 10
11.78126235493411
 20
-41.20000000000002
 11
16.31240036329156
 21
-35.8
 97
        0
 75
     0
 76
     1
 98
        1
 10
1.394396350222609
 20
-0.0010749287238939
  0
HATCH
  5
D0
330
1F
100
AcDbEntity
  8
중심선
100
AcDbHatch
 10
0.0
 20
0.0
 30
0.0
210
0.0
220
0.0
230
1.0
  2
SOLID
 70
     1
 71
     0
 91
        1
 92
        0
 93
        4
 72
     1
 10
21.3251643543274
 20
-35.8
 11
17.87888911049034
 21
-35.79999999999998
 72
     1
 10
17.87888911049033
 20
-35.79999999999998
 11
10.83045220860103
 21
-44.20000000000002
 72
     1
 10
10.83045220860103
 20
-44.20000000000002
 11
14.27672745243831
 21
-44.20000000000002
 72
     1
 10
14.27672745243831
 20
-44.20000000000002
 11
21.3251643543274
 21
-35.8
 97
        0
 75
     0
 76
     1
 98
        1
 10
1.394396350222609
 20
-0.0010749287238939
  0
HATCH
  5
D1
330
1F
100
AcDbEntity
  8
중심선
100
AcDbHatch
 10
0.0
 20
0.0
 30
0.0
210
0.0
220
0.0
230
1.0
  2
SOLID
 70
     1
 71
     0
 91
        1
 92
        0
 93
        6
 72
     3
 10
26.12505478533959
 20
-40.00000000005127
 11
3.960054785062283
 21
1.540882976769353E-10
 40
0.3939339440162628
 50
17.09539180608436
 51
320.0019657685075
 73
     0
 72
     1
 10
27.80805444104019
 20
-38.58789400463827
 11
30.11335631474126
 21
-36.65356729459038
 72
     3
 10
26.12505478528675
 20
-40.00000000000015
 11
6.600054785286829
 21
-1.278976924368180E-13
 40
0.636358354079598
 50
39.99873849337385
 51
368.4976242363724
 73
     1
 72
     1
 10
32.55038727718735
 20
-39.03999999993002
 11
24.8051220921227
 21
-39.03999999993
 72
     1
 10
24.8051220921227
 20
-39.03999999993
 11
24.80509704767674
 21
-40.95999999992991
 72
     1
 10
24.80509704767674
 20
-40.95999999992991
 11
29.24647681714877
 21
-40.95999999992988
 97
        0
 75
     0
 76
     1
 98
        1
 10
1.394396350222609
 20
-0.0010749287238939
  0
DIMENSION
  5
D2
330
1F
100
AcDbEntity
  8
치수문자_일반주서
100
AcDbDimension
  2
_D
 10
9.999999999999929
 20
17.92582422810213
 30
0.0
 11
41.74999999999993
 21
17.92582422810213
 31
0.0
 70
   160
  1
<>
 71
     2
 42
63.49999999999997
  3
SLDDIMSTYLE1
100
AcDbAlignedDimension
 13
73.4999999999999
 23
4.762500000000007
 33
0.0
 14
9.999999999999927
 24
4.750798759051921
 34
0.0
 50
-0.0000000000001635
100
AcDbRotatedDimension
1001
ACAD
1000
DSTYLE
1002
{
1070
   171
1070
     6
1070
   273
1070
     7
1002
}
  0
DIMENSION
  5
E7
330
1F
100
AcDbEntity
  8
치수문자_일반주서
100
AcDbDimension
  2
_D_1
 10
-34.4500000000001
 20
33.64702942590522
 30
0.0
 11
19.5249999999999
 21
33.64702942590522
 31
0.0
 70
   160
  1
<>
 71
     2
 42
107.95
  3
SLDDIMSTYLE1
100
AcDbAlignedDimension
 13
73.4999999999999
 23
4.762500000000007
 33
0.0
 14
-34.4500000000001
 24
3.810000000000001
 34
0.0
100
AcDbRotatedDimension
1001
ACAD
1000
DSTYLE
1002
{
1070
   171
1070
     6
1070
   273
1070
     7
1002
}
  0
DIMENSION
  5
FB
330
1F
100
AcDbEntity
  8
치수문자_일반주서
100
AcDbDimension
  2
_D_2
 10
-45.75077283782728
 20
-4.76250000000005
 30
0.0
 11
-45.75077283782731
 21
0.0000000000000019
 31
0.0
 70
   160
  1
%%c<>
 71
     2
 42
9.525000000000006
 52
-270.0
  3
SLDDIMSTYLE1
100
AcDbAlignedDimension
 13
-33.49750000000011
 23
4.762500000000002
 33
0.0
 14
-33.49750000000011
 24
-4.762500000000004
 34
0.0
 50
90.0000000000002
100
AcDbRotatedDimension
1001
ACAD
1000
DSTYLE
1002
{
1070
   171
1070
     6
1070
   273
1070
     7
1002
}
  0
LINE
  5
121
330
1F
100
AcDbEntity
  8
참조1
100
AcDbLine
 10
76.33783746512287
 20
7.441074928723896
 30
0.0
 11
76.33783746512287
 21
-7.438925071276109
 31
0.0
  0
LINE
  5
122
330
1F
100
AcDbEntity
  8
참조1
100
AcDbLine
 10
89.03783746512288
 20
5.441074928723896
 30
0.0
 11
76.33783746512287
 21
5.441074928723896
 31
0.0
  0
SOLID
  5
123
330
1F
100
AcDbEntity
  8
참조1
100
AcDbTrace
 10
76.33783746512287
 20
5.441074928723896
 30
0.0
 11
82.68783746512287
 21
4.425074928723896
 31
0.0
 12
82.68783746512287
 22
6.457074928723896
 32
0.0
 13
82.68783746512287
 23
6.457074928723896
 33
0.0
  0
LINE
  5
124
330
1F
100
AcDbEntity
  8
참조1
100
AcDbLine
 10
89.03783746512288
 20
-5.438925071276109
 30
0.0
 11
76.33783746512287
 21
-5.438925071276109
 31
0.0
  0
SOLID
  5
125
330
1F
100
AcDbEntity
  8
참조1
100
AcDbTrace
 10
76.33783746512287
 20
-5.438925071276109
 30
0.0
 11
82.68783746512287
 21
-6.454925071276109
 31
0.0
 12
82.68783746512287
 22
-4.422925071276109
 32
0.0
 13
82.68783746512287
 23
-4.422925071276109
 33
0.0
  0
MTEXT
  5
126
330
1F
100
AcDbEntity
  8
참조1
100
AcDbMText
 10
85.72218759774887
 20
11.01136670591222
 30
0.0
 40
3.5
 41
0.0
 71
     1
 72
     1
  1
A
  7
SLDTEXTSTYLE0
 73
     1
 44
1.0
  0
MTEXT
  5
127
330
1F
100
AcDbEntity
  8
참조1
100
AcDbMText
 10
85.72218759774887
 20
0.1313667059122201
 30
0.0
 40
3.5
 41
0.0
 71
     1
 72
     1
  1
A
  7
SLDTEXTSTYLE0
 73
     1
 44
1.0
  0
INSERT
  5
12E
330
1F
100
AcDbEntity
  8
해칭선
100
AcDbBlockReference
  2
SW_DOWELSYMBOL_0
 10
0.0
 20
0.0
 30
0.0
  0
LINE
  5
263
330
1F
100
AcDbEntity
  8
외형선
  6
Continuous
370
    15
100
AcDbLine
 10
-19.44495000000022
 20
4.762500000000004
 30
0.0
 11
-33.49750000000012
 21
4.762500000000004
 31
0.0
  0
DIMENSION
  5
29B
330
1F
100
AcDbEntity
  8
치수문자_일반주서
100
AcDbDimension
  2
*D16
 10
91.41776722238721
 20
-4.762499999999992
 30
0.0
 11
91.41776722238721
 21
19.92198634215364
 31
0.0
 70
   160
 71
     5
 42
9.524999999999999
  3
SLDDIMSTYLE1
100
AcDbAlignedDimension
 13
73.49999999999991
 23
4.762500000000008
 33
0.0
 14
73.4999999999999
 24
-4.76249999999999
 34
0.0
 50
90.0
100
AcDbRotatedDimension
1001
ACAD
1000
DSTYLE
1002
{
1070
   171
1070
     6
1070
   273
1070
     7
1002
}
  0
LINE
  5
303
330
1F
100
AcDbEntity
  8
외형선
  6
Continuous
370
    15
100
AcDbLine
 10
-18.17495000000022
 20
3.492500000000007
 30
0.0
 11
-11.0375500000001
 21
3.492500000000007
 31
0.0
  0
LINE
  5
304
330
1F
100
AcDbEntity
  8
외형선
  6
Continuous
370
    15
100
AcDbLine
 10
-18.17495000000022
 20
3.492500000000007
 30
0.0
 11
-19.4449500000002
 21
4.762499999999989
 31
0.0
  0
LINE
  5
305
330
1F
100
AcDbEntity
  8
외형선
  6
Continuous
370
    15
100
AcDbLine
 10
-11.0375500000001
 20
3.492500000000007
 30
0.0
 11
-9.76755
 21
4.762499999999989
 31
0.0
  0
ENDSEC
  0
SECTION
  2
OBJECTS
  0
DICTIONARY
  5
C
330
0
100
AcDbDictionary
281
     1
  3
ACAD_GROUP
350
D
  3
ACAD_IMAGE_VARS
350
152
  3
ACAD_LAYOUT
350
1A
  3
ACAD_MLINESTYLE
350
17
  3
ACAD_PLOTSETTINGS
350
19
  3
ACAD_PLOTSTYLENAME
350
E
  3
ACAD_SCALELIST
350
47
  3
APPDATA
350
150
  3
DWGPROPS
350
32F
  0
DICTIONARY
  5
1FA
330
2
100
AcDbDictionary
280
     1
281
     1
  3
ACAD_LAYERSTATES
360
1FB
  0
DICTIONARY
  5
D
102
{ACAD_REACTORS
330
C
102
}
330
C
100
AcDbDictionary
281
     1
  0
RASTERVARIABLES
  5
152
102
{ACAD_REACTORS
330
C
102
}
330
C
100
AcDbRasterVariables
 90
        0
 70
     1
 71
     1
 72
     1
  0
DICTIONARY
  5
1A
102
{ACAD_REACTORS
330
C
102
}
330
C
100
AcDbDictionary
281
     1
  3
Layout1
350
1E
  3
Layout2
350
26
  3
Model
350
22
  0
DICTIONARY
  5
17
102
{ACAD_REACTORS
330
C
102
}
330
C
100
AcDbDictionary
281
     1
  3
Standard
350
18
  0
DICTIONARY
  5
19
102
{ACAD_REACTORS
330
C
102
}
330
C
100
AcDbDictionary
281
     1
  0
ACDBDICTIONARYWDFLT
  5
E
102
{ACAD_REACTORS
330
C
102
}
330
C
100
AcDbDictionary
281
     1
  3
Normal
350
F
100
AcDbDictionaryWithDefault
340
F
  0
DICTIONARY
  5
47
102
{ACAD_REACTORS
330
C
102
}
330
C
100
AcDbDictionary
281
     1
  3
A0
350
48
  3
A1
350
49
  3
A2
350
4A
  3
A3
350
4B
  3
A4
350
4C
  3
A5
350
4D
  3
A6
350
4E
  3
A7
350
4F
  3
A8
350
50
  3
A9
350
51
  3
B0
350
52
  3
B1
350
53
  3
B2
350
54
  3
B3
350
55
  3
B4
350
56
  3
B5
350
57
  3
B6
350
58
  3
B7
350
59
  3
B8
350
5A
  3
B9
350
5B
  3
C0
350
5C
  3
C1
350
5D
  3
C2
350
5E
  3
C3
350
5F
  3
C4
350
60
  3
C5
350
61
  3
C6
350
62
  3
C7
350
63
  3
C8
350
64
  3
C9
350
65
  3
D0
350
66
  3
D1
350
67
  3
D2
350
68
  0
DICTIONARY
  5
150
102
{ACAD_REACTORS
330
C
102
}
330
C
100
AcDbDictionary
281
     1
  0
XRECORD
  5
32F
102
{ACAD_REACTORS
330
C
102
}
330
C
100
AcDbXrecord
280
     1
  1
DWGPROPS COOKIE
  2

  3

  4

  6

  7

  8
12016016
  9

300
=
301
=
302
=
303
=
304
=
305
=
306
=
307
=
308
=
309
=
 40
0.0
 41
2458312.300680382
 42
2458323.377974213
  1

 90
        0
  0
DICTIONARY
  5
1FB
102
{ACAD_REACTORS
330
1FA
102
}
330
1FA
100
AcDbDictionary
281
     1
  0
LAYOUT
  5
1E
102
{ACAD_REACTORS
330
1A
102
}
330
1A
100
AcDbPlotSettings
  1

  2
none_device
  4

  6

 40
0.0
 41
0.0
 42
0.0
 43
0.0
 44
0.0
 45
0.0
 46
0.0
 47
0.0
 48
0.0
 49
0.0
140
0.0
141
0.0
142
1.0
143
1.0
 70
   688
 72
     1
 73
     0
 74
     5
  7

 75
    16
147
1.0
148
0.0
149
0.0
100
AcDbLayout
  1
Layout1
 70
     1
 71
     1
 10
0.0
 20
0.0
 11
420.0
 21
297.0
 12
0.0
 22
0.0
 32
0.0
 14
1.000000000000000E+20
 24
1.000000000000000E+20
 34
1.000000000000000E+20
 15
-1.000000000000000E+20
 25
-1.000000000000000E+20
 35
-1.000000000000000E+20
146
0.0
 13
0.0
 23
0.0
 33
0.0
 16
1.0
 26
0.0
 36
0.0
 17
0.0
 27
1.0
 37
0.0
 76
     0
330
1B
  0
LAYOUT
  5
26
102
{ACAD_REACTORS
330
1A
102
}
330
1A
100
AcDbPlotSettings
  1

  2
none_device
  4

  6

 40
0.0
 41
0.0
 42
0.0
 43
0.0
 44
0.0
 45
0.0
 46
0.0
 47
0.0
 48
0.0
 49
0.0
140
0.0
141
0.0
142
1.0
143
1.0
 70
   688
 72
     1
 73
     0
 74
     5
  7

 75
    16
147
1.0
148
0.0
149
0.0
100
AcDbLayout
  1
Layout2
 70
     1
 71
     2
 10
0.0
 20
0.0
 11
0.0
 21
0.0
 12
0.0
 22
0.0
 32
0.0
 14
0.0
 24
0.0
 34
0.0
 15
0.0
 25
0.0
 35
0.0
146
0.0
 13
0.0
 23
0.0
 33
0.0
 16
1.0
 26
0.0
 36
0.0
 17
0.0
 27
1.0
 37
0.0
 76
     0
330
23
  0
LAYOUT
  5
22
102
{ACAD_REACTORS
330
1A
102
}
330
1A
100
AcDbPlotSettings
  1

  2
none_device
  4
ANSI_A_(11.00_x_8.50_Inches)
  6

 40
6.35
 41
19.05
 42
6.35000508
 43
19.05000254
 44
279.4
 45
215.9
 46
60.3922292512056
 47
92.43789107149148
 48
0.0
 49
0.0
140
0.0
141
0.0
142
0.0444034081362561
143
1.0
 70
  1696
 72
     0
 73
     0
 74
     0
  7

 75
     0
147
0.0235690232323232
148
0.0
149
0.0
100
AcDbLayout
  1
Model
 70
     1
 71
     0
 10
0.0
 20
0.0
 11
420.0
 21
297.0
 12
0.0
 22
0.0
 32
0.0
 14
-50.12577283782736
 24
-49.97180738881174
 34
0.0
 15
91.96810055572054
 25
38.02202942590522
 35
0.0
146
0.0
 13
0.0
 23
0.0
 33
0.0
 16
1.0
 26
0.0
 36
0.0
 17
0.0
 27
1.0
 37
0.0
 76
     0
330
1F
331
29
  0
MLINESTYLE
  5
18
102
{ACAD_REACTORS
330
17
102
}
330
17
100
AcDbMlineStyle
  2
Standard
 70
     0
  3

 62
   256
 51
90.0
 52
90.0
 71
     2
 49
0.5
 62
   256
  6
BYLAYER
 49
-0.5
 62
   256
  6
BYLAYER
  0
ACDBPLACEHOLDER
  5
F
102
{ACAD_REACTORS
330
E
102
}
330
E
  0
SCALE
  5
48
102
{ACAD_REACTORS
330
47
102
}
330
47
100
AcDbScale
 70
     0
300
1:1
140
1.0
141
1.0
290
     1
  0
SCALE
  5
49
102
{ACAD_REACTORS
330
47
102
}
330
47
100
AcDbScale
 70
     0
300
1:2
140
1.0
141
2.0
290
     0
  0
SCALE
  5
4A
102
{ACAD_REACTORS
330
47
102
}
330
47
100
AcDbScale
 70
     0
300
1:4
140
1.0
141
4.0
290
     0
  0
SCALE
  5
4B
102
{ACAD_REACTORS
330
47
102
}
330
47
100
AcDbScale
 70
     0
300
1:5
140
1.0
141
5.0
290
     0
  0
SCALE
  5
4C
102
{ACAD_REACTORS
330
47
102
}
330
47
100
AcDbScale
 70
     0
300
1:8
140
1.0
141
8.0
290
     0
  0
SCALE
  5
4D
102
{ACAD_REACTORS
330
47
102
}
330
47
100
AcDbScale
 70
     0
300
1:10
140
1.0
141
10.0
290
     0
  0
SCALE
  5
4E
102
{ACAD_REACTORS
330
47
102
}
330
47
100
AcDbScale
 70
     0
300
1:16
140
1.0
141
16.0
290
     0
  0
SCALE
  5
4F
102
{ACAD_REACTORS
330
47
102
}
330
47
100
AcDbScale
 70
     0
300
1:20
140
1.0
141
20.0
290
     0
  0
SCALE
  5
50
102
{ACAD_REACTORS
330
47
102
}
330
47
100
AcDbScale
 70
     0
300
1:30
140
1.0
141
30.0
290
     0
  0
SCALE
  5
51
102
{ACAD_REACTORS
330
47
102
}
330
47
100
AcDbScale
 70
     0
300
1:40
140
1.0
141
40.0
290
     0
  0
SCALE
  5
52
102
{ACAD_REACTORS
330
47
102
}
330
47
100
AcDbScale
 70
     0
300
1:50
140
1.0
141
50.0
290
     0
  0
SCALE
  5
53
102
{ACAD_REACTORS
330
47
102
}
330
47
100
AcDbScale
 70
     0
300
1:100
140
1.0
141
100.0
290
     0
  0
SCALE
  5
54
102
{ACAD_REACTORS
330
47
102
}
330
47
100
AcDbScale
 70
     0
300
2:1
140
2.0
141
1.0
290
     0
  0
SCALE
  5
55
102
{ACAD_REACTORS
330
47
102
}
330
47
100
AcDbScale
 70
     0
300
4:1
140
4.0
141
1.0
290
     0
  0
SCALE
  5
56
102
{ACAD_REACTORS
330
47
102
}
330
47
100
AcDbScale
 70
     0
300
8:1
140
8.0
141
1.0
290
     0
  0
SCALE
  5
57
102
{ACAD_REACTORS
330
47
102
}
330
47
100
AcDbScale
 70
     0
300
10:1
140
10.0
141
1.0
290
     0
  0
SCALE
  5
58
102
{ACAD_REACTORS
330
47
102
}
330
47
100
AcDbScale
 70
     0
300
100:1
140
100.0
141
1.0
290
     0
  0
SCALE
  5
59
102
{ACAD_REACTORS
330
47
102
}
330
47
100
AcDbScale
 70
     0
300
1/128" = 1'-0"
140
0.0078125
141
12.0
290
     0
  0
SCALE
  5
5A
102
{ACAD_REACTORS
330
47
102
}
330
47
100
AcDbScale
 70
     0
300
1/64" = 1'-0"
140
0.015625
141
12.0
290
     0
  0
SCALE
  5
5B
102
{ACAD_REACTORS
330
47
102
}
330
47
100
AcDbScale
 70
     0
300
1/32" = 1'-0"
140
0.03125
141
12.0
290
     0
  0
SCALE
  5
5C
102
{ACAD_REACTORS
330
47
102
}
330
47
100
AcDbScale
 70
     0
300
1/16" = 1'-0"
140
0.0625
141
12.0
290
     0
  0
SCALE
  5
5D
102
{ACAD_REACTORS
330
47
102
}
330
47
100
AcDbScale
 70
     0
300
3/32" = 1'-0"
140
0.09375
141
12.0
290
     0
  0
SCALE
  5
5E
102
{ACAD_REACTORS
330
47
102
}
330
47
100
AcDbScale
 70
     0
300
1/8" = 1'-0"
140
0.125
141
12.0
290
     0
  0
SCALE
  5
5F
102
{ACAD_REACTORS
330
47
102
}
330
47
100
AcDbScale
 70
     0
300
3/16" = 1'-0"
140
0.1875
141
12.0
290
     0
  0
SCALE
  5
60
102
{ACAD_REACTORS
330
47
102
}
330
47
100
AcDbScale
 70
     0
300
1/4" = 1'-0"
140
0.25
141
12.0
290
     0
  0
SCALE
  5
61
102
{ACAD_REACTORS
330
47
102
}
330
47
100
AcDbScale
 70
     0
300
3/8" = 1'-0"
140
0.375
141
12.0
290
     0
  0
SCALE
  5
62
102
{ACAD_REACTORS
330
47
102
}
330
47
100
AcDbScale
 70
     0
300
1/2" = 1'-0"
140
0.5
141
12.0
290
     0
  0
SCALE
  5
63
102
{ACAD_REACTORS
330
47
102
}
330
47
100
AcDbScale
 70
     0
300
3/4" = 1'-0"
140
0.75
141
12.0
290
     0
  0
SCALE
  5
64
102
{ACAD_REACTORS
330
47
102
}
330
47
100
AcDbScale
 70
     0
300
1" = 1'-0"
140
1.0
141
12.0
290
     0
  0
SCALE
  5
65
102
{ACAD_REACTORS
330
47
102
}
330
47
100
AcDbScale
 70
     0
300
1-1/2" = 1'-0"
140
1.5
141
12.0
290
     0
  0
SCALE
  5
66
102
{ACAD_REACTORS
330
47
102
}
330
47
100
AcDbScale
 70
     0
300
3" = 1'-0"
140
3.0
141
12.0
290
     0
  0
SCALE
  5
67
102
{ACAD_REACTORS
330
47
102
}
330
47
100
AcDbScale
 70
     0
300
6" = 1'-0"
140
6.0
141
12.0
290
     0
  0
SCALE
  5
68
102
{ACAD_REACTORS
330
47
102
}
330
47
100
AcDbScale
 70
     0
300
1'-0" = 1'-0"
140
12.0
141
12.0
290
     0
  0
ENDSEC
  0
EOF
