  0
SECTION
  2
HEADER
  9
$ACADVER
  1
AC1015
  9
$ACADMAINTVER
 70
     6
  9
$DWGCODEPAGE
  3
ANSI_949
  9
$INSBASE
 10
0.0
 20
0.0
 30
0.0
  9
$EXTMIN
 10
1.000000000000000E+20
 20
1.000000000000000E+20
 30
1.000000000000000E+20
  9
$EXTMAX
 10
-1.000000000000000E+20
 20
-1.000000000000000E+20
 30
-1.000000000000000E+20
  9
$LIMMIN
 10
0.0
 20
0.0
  9
$LIMMAX
 10
420.0
 20
297.0
  9
$ORTHOMODE
 70
     1
  9
$REGENMODE
 70
     1
  9
$FILLMODE
 70
     1
  9
$QTEXTMODE
 70
     0
  9
$MIRRTEXT
 70
     1
  9
$LTSCALE
 40
1.0
  9
$ATTMODE
 70
     1
  9
$TEXTSIZE
 40
3.5
  9
$TRACEWID
 40
1.0
  9
$TEXTSTYLE
  7
Standard
  9
$CLAYER
  8
0
  9
$CELTYPE
  6
ByLayer
  9
$CECOLOR
 62
   256
  9
$CELTSCALE
 40
1.0
  9
$DISPSILH
 70
     0
  9
$DIMSCALE
 40
1.0
  9
$DIMASZ
 40
3.302
  9
$DIMEXO
 40
1.0
  9
$DIMDLI
 40
3.75
  9
$DIMRND
 40
0.0
  9
$DIMDLE
 40
0.0
  9
$DIMEXE
 40
1.0
  9
$DIMTP
 40
0.0
  9
$DIMTM
 40
0.0
  9
$DIMTXT
 40
3.5
  9
$DIMCEN
 40
2.5
  9
$DIMTSZ
 40
0.0
  9
$DIMTOL
 70
     0
  9
$DIMLIM
 70
     0
  9
$DIMTIH
 70
     1
  9
$DIMTOH
 70
     1
  9
$DIMSE1
 70
     0
  9
$DIMSE2
 70
     0
  9
$DIMTAD
 70
     1
  9
$DIMZIN
 70
     0
  9
$DIMBLK
  1

  9
$DIMASO
 70
     1
  9
$DIMSHO
 70
     1
  9
$DIMPOST
  1

  9
$DIMAPOST
  1

  9
$DIMALT
 70
     0
  9
$DIMALTD
 70
     3
  9
$DIMALTF
 40
0.0393700787401575
  9
$DIMLFAC
 40
1.0
  9
$DIMTOFL
 70
     1
  9
$DIMTVP
 40
0.0
  9
$DIMTIX
 70
     0
  9
$DIMSOXD
 70
     0
  9
$DIMSAH
 70
     0
  9
$DIMBLK1
  1

  9
$DIMBLK2
  1

  9
$DIMSTYLE
  2
ISO-25
  9
$DIMCLRD
 70
     0
  9
$DIMCLRE
 70
     0
  9
$DIMCLRT
 70
     0
  9
$DIMTFAC
 40
1.0
  9
$DIMGAP
 40
1.524
  9
$DIMJUST
 70
     0
  9
$DIMSD1
 70
     0
  9
$DIMSD2
 70
     0
  9
$DIMTOLJ
 70
     0
  9
$DIMTZIN
 70
     0
  9
$DIMALTZ
 70
     0
  9
$DIMALTTZ
 70
     0
  9
$DIMUPT
 70
     0
  9
$DIMDEC
 70
     2
  9
$DIMTDEC
 70
     2
  9
$DIMALTU
 70
     2
  9
$DIMALTTD
 70
     3
  9
$DIMTXSTY
  7
Standard
  9
$DIMAUNIT
 70
     0
  9
$DIMADEC
 70
     2
  9
$DIMALTRND
 40
0.0
  9
$DIMAZIN
 70
     0
  9
$DIMDSEP
 70
    44
  9
$DIMATFIT
 70
     3
  9
$DIMFRAC
 70
     0
  9
$DIMLDRBLK
  1

  9
$DIMLUNIT
 70
     2
  9
$DIMLWD
 70
    -2
  9
$DIMLWE
 70
    -2
  9
$DIMTMOVE
 70
     0
  9
$LUNITS
 70
     2
  9
$LUPREC
 70
     2
  9
$SKETCHINC
 40
1.0
  9
$FILLETRAD
 40
10.0
  9
$AUNITS
 70
     0
  9
$AUPREC
 70
     2
  9
$MENU
  1
.
  9
$ELEVATION
 40
0.0
  9
$PELEVATION
 40
0.0
  9
$THICKNESS
 40
0.0
  9
$LIMCHECK
 70
     0
  9
$CHAMFERA
 40
0.0
  9
$CHAMFERB
 40
0.0
  9
$CHAMFERC
 40
0.0
  9
$CHAMFERD
 40
0.0
  9
$SKPOLY
 70
     0
  9
$TDCREATE
 40
2458323.475031053
  9
$TDUCREATE
 40
2458323.100031053
  9
$TDUPDATE
 40
2458330.575971956
  9
$TDUUPDATE
 40
2458330.200971956
  9
$TDINDWG
 40
0.0020913426
  9
$TDUSRTIMER
 40
2458330.19719331
  9
$USRTIMER
 70
     1
  9
$ANGBASE
 50
0.0
  9
$ANGDIR
 70
     0
  9
$PDMODE
 70
     0
  9
$PDSIZE
 40
-1.0
  9
$PLINEWID
 40
0.0
  9
$SPLFRAME
 70
     0
  9
$SPLINETYPE
 70
     6
  9
$SPLINESEGS
 70
     8
  9
$HANDSEED
  5
331
  9
$SURFTAB1
 70
     6
  9
$SURFTAB2
 70
     6
  9
$SURFTYPE
 70
     6
  9
$SURFU
 70
     6
  9
$SURFV
 70
     6
  9
$UCSBASE
  2

  9
$UCSNAME
  2

  9
$UCSORG
 10
0.0
 20
0.0
 30
0.0
  9
$UCSXDIR
 10
1.0
 20
0.0
 30
0.0
  9
$UCSYDIR
 10
0.0
 20
1.0
 30
0.0
  9
$UCSORTHOREF
  2

  9
$UCSORTHOVIEW
 70
     0
  9
$UCSORGTOP
 10
0.0
 20
0.0
 30
0.0
  9
$UCSORGBOTTOM
 10
0.0
 20
0.0
 30
0.0
  9
$UCSORGLEFT
 10
0.0
 20
0.0
 30
0.0
  9
$UCSORGRIGHT
 10
0.0
 20
0.0
 30
0.0
  9
$UCSORGFRONT
 10
0.0
 20
0.0
 30
0.0
  9
$UCSORGBACK
 10
0.0
 20
0.0
 30
0.0
  9
$PUCSBASE
  2

  9
$PUCSNAME
  2

  9
$PUCSORG
 10
0.0
 20
0.0
 30
0.0
  9
$PUCSXDIR
 10
1.0
 20
0.0
 30
0.0
  9
$PUCSYDIR
 10
0.0
 20
1.0
 30
0.0
  9
$PUCSORTHOREF
  2

  9
$PUCSORTHOVIEW
 70
     0
  9
$PUCSORGTOP
 10
0.0
 20
0.0
 30
0.0
  9
$PUCSORGBOTTOM
 10
0.0
 20
0.0
 30
0.0
  9
$PUCSORGLEFT
 10
0.0
 20
0.0
 30
0.0
  9
$PUCSORGRIGHT
 10
0.0
 20
0.0
 30
0.0
  9
$PUCSORGFRONT
 10
0.0
 20
0.0
 30
0.0
  9
$PUCSORGBACK
 10
0.0
 20
0.0
 30
0.0
  9
$USERI1
 70
     0
  9
$USERI2
 70
     0
  9
$USERI3
 70
     0
  9
$USERI4
 70
     0
  9
$USERI5
 70
     0
  9
$USERR1
 40
0.0
  9
$USERR2
 40
0.0
  9
$USERR3
 40
0.0
  9
$USERR4
 40
0.0
  9
$USERR5
 40
0.0
  9
$WORLDVIEW
 70
     1
  9
$SHADEDGE
 70
     3
  9
$SHADEDIF
 70
    70
  9
$TILEMODE
 70
     1
  9
$MAXACTVP
 70
    64
  9
$PINSBASE
 10
0.0
 20
0.0
 30
0.0
  9
$PLIMCHECK
 70
     0
  9
$PEXTMIN
 10
1.000000000000000E+20
 20
1.000000000000000E+20
 30
1.000000000000000E+20
  9
$PEXTMAX
 10
-1.000000000000000E+20
 20
-1.000000000000000E+20
 30
-1.000000000000000E+20
  9
$PLIMMIN
 10
0.0
 20
0.0
  9
$PLIMMAX
 10
0.0
 20
0.0
  9
$UNITMODE
 70
     0
  9
$VISRETAIN
 70
     1
  9
$PLINEGEN
 70
     0
  9
$PSLTSCALE
 70
     1
  9
$TREEDEPTH
 70
  3020
  9
$CMLSTYLE
  2
Standard
  9
$CMLJUST
 70
     0
  9
$CMLSCALE
 40
20.0
  9
$PROXYGRAPHICS
 70
     1
  9
$MEASUREMENT
 70
     1
  9
$CELWEIGHT
370
    -1
  9
$ENDCAPS
280
     0
  9
$JOINSTYLE
280
     0
  9
$LWDISPLAY
290
     1
  9
$INSUNITS
 70
     4
  9
$HYPERLINKBASE
  1

  9
$STYLESHEET
  1

  9
$XEDIT
290
     1
  9
$CEPSNTYPE
380
     0
  9
$PSTYLEMODE
290
     1
  9
$FINGERPRINTGUID
  2
{A1FB65A3-42D2-40C5-BEB3-8AFD2B1F914E}
  9
$VERSIONGUID
  2
{FAEB1C32-E019-11D5-929B-00C0DF256EC4}
  9
$EXTNAMES
290
     1
  9
$PSVPSCALE
 40
0.0
  9
$OLESTARTUP
290
     0
  0
ENDSEC
  0
SECTION
  2
CLASSES
  0
CLASS
  1
ACDBDICTIONARYWDFLT
  2
AcDbDictionaryWithDefault
  3
ObjectDBX Classes
 90
        0
280
     0
281
     0
  0
CLASS
  1
VISUALSTYLE
  2
AcDbVisualStyle
  3
ObjectDBX Classes
 90
     4095
280
     0
281
     0
  0
CLASS
  1
MATERIAL
  2
AcDbMaterial
  3
ObjectDBX Classes
 90
     1153
280
     0
281
     0
  0
CLASS
  1
SCALE
  2
AcDbScale
  3
ObjectDBX Classes
 90
     1153
280
     0
281
     0
  0
CLASS
  1
SUN
  2
AcDbSun
  3
SCENEOE
 90
     1153
280
     0
281
     0
  0
CLASS
  1
ACDBPLACEHOLDER
  2
AcDbPlaceHolder
  3
ObjectDBX Classes
 90
        0
280
     0
281
     0
  0
CLASS
  1
LAYOUT
  2
AcDbLayout
  3
ObjectDBX Classes
 90
        0
280
     0
281
     0
  0
CLASS
  1
TABLESTYLE
  2
AcDbTableStyle
  3
ObjectDBX Classes
 90
     4095
280
     0
281
     0
  0
CLASS
  1
MLEADERSTYLE
  2
AcDbMLeaderStyle
  3
ACDB_MLEADERSTYLE_CLASS
 90
     4095
280
     0
281
     0
  0
CLASS
  1
RASTERVARIABLES
  2
AcDbRasterVariables
  3
ISM
 90
        0
280
     0
281
     0
  0
ENDSEC
  0
SECTION
  2
TABLES
  0
TABLE
  2
VPORT
  5
8
330
0
100
AcDbSymbolTable
 70
     1
  0
VPORT
  5
29
330
8
100
AcDbSymbolTableRecord
100
AcDbViewportTableRecord
  2
*Active
 70
     0
 10
0.0
 20
0.0
 11
1.0
 21
1.0
 12
55.7052305096874
 22
11.26246636628448
 13
0.0
 23
0.0
 14
10.0
 24
10.0
 15
10.0
 25
10.0
 16
0.0
 26
0.0
 36
1.0
 17
0.0
 27
0.0
 37
0.0
 40
188.9729926644659
 41
1.516441005802708
 42
50.0
 43
0.0
 44
0.0
 50
0.0
 51
0.0
 71
    16
 72
  2000
 73
     1
 74
     3
 75
     0
 76
     0
 77
     0
 78
     0
281
     0
 65
     1
110
0.0
120
0.0
130
0.0
111
1.0
121
0.0
131
0.0
112
0.0
122
1.0
132
0.0
 79
     0
146
0.0
  0
ENDTAB
  0
TABLE
  2
LTYPE
  5
5
330
0
100
AcDbSymbolTable
 70
     6
  0
LTYPE
  5
14
330
5
100
AcDbSymbolTableRecord
100
AcDbLinetypeTableRecord
  2
ByBlock
 70
     0
  3

 72
    65
 73
     0
 40
0.0
  0
LTYPE
  5
15
330
5
100
AcDbSymbolTableRecord
100
AcDbLinetypeTableRecord
  2
ByLayer
 70
     0
  3

 72
    65
 73
     0
 40
0.0
  0
LTYPE
  5
16
330
5
100
AcDbSymbolTableRecord
100
AcDbLinetypeTableRecord
  2
Continuous
 70
     0
  3
Solid line
 72
    65
 73
     0
 40
0.0
  0
LTYPE
  5
6A
330
5
100
AcDbSymbolTableRecord
100
AcDbLinetypeTableRecord
  2
HIDDEN
 70
     0
  3
Hidden __ __ __ __ __ __ __ __ __ __ __ __ __ __
 72
    65
 73
     2
 40
1.905
 49
1.27
 74
     0
 49
-0.635
 74
     0
  0
LTYPE
  5
6B
330
5
100
AcDbSymbolTableRecord
100
AcDbLinetypeTableRecord
  2
PHANTOM
 70
     0
  3
Phantom ______  __  __  ______  __  __  ______
 72
    65
 73
     6
 40
12.7
 49
6.35
 74
     0
 49
-1.27
 74
     0
 49
1.27
 74
     0
 49
-1.27
 74
     0
 49
1.27
 74
     0
 49
-1.27
 74
     0
  0
LTYPE
  5
6C
330
5
100
AcDbSymbolTableRecord
100
AcDbLinetypeTableRecord
  2
CENTER
 70
     0
  3
Center ____ _ ____ _ ____ _ ____ _ ____ _ ____
 72
    65
 73
     4
 40
10.16
 49
6.35
 74
     0
 49
-1.27
 74
     0
 49
1.27
 74
     0
 49
-1.27
 74
     0
  0
LTYPE
  5
6D
330
5
100
AcDbSymbolTableRecord
100
AcDbLinetypeTableRecord
  2
CENTERX2
 70
     0
  3
Center (2x) ________  __  ________  __  _____
 72
    65
 73
     4
 40
20.32
 49
12.7
 74
     0
 49
-2.54
 74
     0
 49
2.54
 74
     0
 49
-2.54
 74
     0
  0
LTYPE
  5
6E
330
5
100
AcDbSymbolTableRecord
100
AcDbLinetypeTableRecord
  2
DOT2
 70
     0
  3
Dot (.5x) ........................................
 72
    65
 73
     2
 40
0.635
 49
0.0
 74
     0
 49
-0.635
 74
     0
  0
ENDTAB
  0
TABLE
  2
LAYER
  5
2
102
{ACAD_XDICTIONARY
360
1E9
102
}
330
0
100
AcDbSymbolTable
 70
    18
  0
LAYER
  5
10
330
2
100
AcDbSymbolTableRecord
100
AcDbLayerTableRecord
  2
0
 70
     0
 62
     7
  6
Continuous
370
    -3
390
F
  0
LAYER
  5
6F
330
2
100
AcDbSymbolTableRecord
100
AcDbLayerTableRecord
  2
FORMAT
 70
     0
 62
     2
  6
Continuous
370
    -3
390
F
  0
LAYER
  5
70
330
2
100
AcDbSymbolTableRecord
100
AcDbLayerTableRecord
  2
외형선
 70
     0
 62
     4
  6
Continuous
370
    30
390
F
  0
LAYER
  5
71
330
2
100
AcDbSymbolTableRecord
100
AcDbLayerTableRecord
  2
숨은선
 70
     0
 62
     2
  6
HIDDEN
370
    15
390
F
  0
LAYER
  5
72
330
2
100
AcDbSymbolTableRecord
100
AcDbLayerTableRecord
  2
중심선
 70
     0
 62
     1
  6
CENTERX2
370
    -3
390
F
  0
LAYER
  5
73
330
2
100
AcDbSymbolTableRecord
100
AcDbLayerTableRecord
  2
파단선
 70
     0
 62
     4
  6
Continuous
370
    -3
390
F
  0
LAYER
  5
74
330
2
100
AcDbSymbolTableRecord
100
AcDbLayerTableRecord
  2
해칭선
 70
     0
 62
   100
  6
Continuous
370
    -3
390
F
  0
LAYER
  5
75
330
2
100
AcDbSymbolTableRecord
100
AcDbLayerTableRecord
  2
가는실선
 70
     0
 62
     4
  6
Continuous
370
    -3
390
F
  0
LAYER
  5
76
330
2
100
AcDbSymbolTableRecord
100
AcDbLayerTableRecord
  2
치수_보조선
 70
     0
 62
     4
  6
Continuous
370
    -3
390
F
  0
LAYER
  5
77
330
2
100
AcDbSymbolTableRecord
100
AcDbLayerTableRecord
  2
치수문자_일반주서
 70
     0
 62
     7
  6
Continuous
370
    15
390
F
  0
LAYER
  5
78
330
2
100
AcDbSymbolTableRecord
100
AcDbLayerTableRecord
  2
개별주서
 70
     0
 62
   100
  6
Continuous
370
    30
390
F
  0
LAYER
  5
79
330
2
100
AcDbSymbolTableRecord
100
AcDbLayerTableRecord
  2
중간선
 70
     0
 62
     2
  6
Continuous
370
    15
390
F
  0
LAYER
  5
7A
330
2
100
AcDbSymbolTableRecord
100
AcDbLayerTableRecord
  2
윤곽선
 70
     0
 62
     3
  6
Continuous
370
    40
390
F
  0
LAYER
  5
7B
330
2
100
AcDbSymbolTableRecord
100
AcDbLayerTableRecord
  2
중심마크
 70
     0
 62
   100
  6
Continuous
370
    30
390
F
  0
LAYER
  5
7C
330
2
100
AcDbSymbolTableRecord
100
AcDbLayerTableRecord
  2
가상선
 70
     0
 62
     4
  6
PHANTOM
370
    -3
390
F
  0
LAYER
  5
7D
330
2
100
AcDbSymbolTableRecord
100
AcDbLayerTableRecord
  2
특수지정선
 70
     0
 62
     5
  6
CENTERX2
370
    60
390
F
  0
LAYER
  5
7E
330
2
100
AcDbSymbolTableRecord
100
AcDbLayerTableRecord
  2
참조1
 70
     0
 62
    -4
  6
Continuous
370
    -3
390
F
  0
LAYER
  5
129
330
2
100
AcDbSymbolTableRecord
100
AcDbLayerTableRecord
  2
Defpoints
 70
     0
 62
     7
  6
Continuous
290
     0
370
    -3
390
F
  0
ENDTAB
  0
TABLE
  2
STYLE
  5
3
330
0
100
AcDbSymbolTable
 70
     2
  0
STYLE
  5
11
330
3
100
AcDbSymbolTableRecord
100
AcDbTextStyleTableRecord
  2
Standard
 70
     0
 40
0.0
 41
1.0
 50
0.0
 71
     0
 42
3.5
  3
txt
  4

  0
STYLE
  5
94
330
3
100
AcDbSymbolTableRecord
100
AcDbTextStyleTableRecord
  2
SLDTEXTSTYLE0
 70
     0
 40
0.0
 41
0.75
 50
0.0
 71
     0
 42
3.5
  3
TXT
  4

  0
ENDTAB
  0
TABLE
  2
VIEW
  5
6
330
0
100
AcDbSymbolTable
 70
     0
  0
ENDTAB
  0
TABLE
  2
UCS
  5
7
330
0
100
AcDbSymbolTable
 70
     0
  0
ENDTAB
  0
TABLE
  2
APPID
  5
9
330
0
100
AcDbSymbolTable
 70
     4
  0
APPID
  5
12
330
9
100
AcDbSymbolTableRecord
100
AcDbRegAppTableRecord
  2
ACAD
 70
     0
  0
APPID
  5
135
330
9
100
AcDbSymbolTableRecord
100
AcDbRegAppTableRecord
  2
PE_URL
 70
     0
  0
APPID
  5
32F
330
9
100
AcDbSymbolTableRecord
100
AcDbRegAppTableRecord
  2
ACAD_DSTYLE_DIMFLIPARROW_SYMBOL
 70
     0
  0
APPID
  5
330
330
9
100
AcDbSymbolTableRecord
100
AcDbRegAppTableRecord
  2
ACAD_DSTYLE_DIMFLIPARROW_WHICH_SYMBOL
 70
     0
  0
ENDTAB
  0
TABLE
  2
DIMSTYLE
  5
A
330
0
100
AcDbSymbolTable
 70
     3
100
AcDbDimStyleTable
  0
DIMSTYLE
105
27
330
A
100
AcDbSymbolTableRecord
100
AcDbDimStyleTableRecord
  2
ISO-25
 70
     0
 41
2.5
 42
0.625
 43
3.75
 44
1.25
 73
     0
 74
     0
 77
     1
 78
     8
140
2.5
141
2.5
143
0.03937007874016
147
0.625
171
     3
172
     1
178
     0
271
     2
272
     2
274
     3
278
    44
283
     0
284
     8
340
11
  0
DIMSTYLE
105
A8
102
{ACAD_REACTORS
330
18B
330
19B
330
1A8
330
1B5
330
257
330
258
330
259
330
25A
102
}
330
A
100
AcDbSymbolTableRecord
100
AcDbDimStyleTableRecord
  2
SLDDIMSTYLE0
 70
     0
 41
3.302
 44
0.0
 45
0.000000001
 73
     0
 74
     0
 77
     1
 78
    12
 79
     3
140
3.5
143
0.0393700787401575
147
0.875
148
0.000000001
170
     1
172
     1
173
     1
178
     0
271
     2
272
     2
276
     2
284
    12
289
     0
340
94
  0
DIMSTYLE
105
D1
330
A
100
AcDbSymbolTableRecord
100
AcDbDimStyleTableRecord
  2
SLDDIMSTYLE1
 70
     0
 41
3.302
 44
0.0
 45
0.000000001
 73
     0
 74
     0
 77
     1
 78
    12
 79
     3
140
3.5
143
0.0393700787401575
147
0.875
148
0.000000001
170
     1
173
     1
178
     0
271
     2
272
     2
276
     2
284
    12
340
94
  0
ENDTAB
  0
TABLE
  2
BLOCK_RECORD
  5
1
330
0
100
AcDbSymbolTable
 70
    18
  0
BLOCK_RECORD
  5
1F
330
1
100
AcDbSymbolTableRecord
100
AcDbBlockTableRecord
  2
*Model_Space
340
22
  0
BLOCK_RECORD
  5
1B
330
1
100
AcDbSymbolTableRecord
100
AcDbBlockTableRecord
  2
*Paper_Space
340
1E
  0
BLOCK_RECORD
  5
23
330
1
100
AcDbSymbolTableRecord
100
AcDbBlockTableRecord
  2
*Paper_Space0
340
26
  0
BLOCK_RECORD
  5
7F
330
1
100
AcDbSymbolTableRecord
100
AcDbBlockTableRecord
  2
블럭10
340
0
102
{BLKREFS
331
A0
102
}
  0
BLOCK_RECORD
  5
A9
330
1
100
AcDbSymbolTableRecord
100
AcDbBlockTableRecord
  2
_D
340
0
  0
BLOCK_RECORD
  5
BD
330
1
100
AcDbSymbolTableRecord
100
AcDbBlockTableRecord
  2
_D_1
340
0
  0
BLOCK_RECORD
  5
D2
330
1
100
AcDbSymbolTableRecord
100
AcDbBlockTableRecord
  2
_D_2
340
0
  0
BLOCK_RECORD
  5
E5
330
1
100
AcDbSymbolTableRecord
100
AcDbBlockTableRecord
  2
_D_3
340
0
  0
BLOCK_RECORD
  5
FE
330
1
100
AcDbSymbolTableRecord
100
AcDbBlockTableRecord
  2
SW_DOWELSYMBOL_0
340
0
102
{BLKREFS
331
0
331
1C5
331
1D2
331
0
331
0
331
31A
331
325
102
}
  0
BLOCK_RECORD
  5
1ED
330
1
100
AcDbSymbolTableRecord
100
AcDbBlockTableRecord
  2
*D8
340
0
  0
BLOCK_RECORD
  5
1FA
330
1
100
AcDbSymbolTableRecord
100
AcDbBlockTableRecord
  2
*D9
340
0
  0
BLOCK_RECORD
  5
206
330
1
100
AcDbSymbolTableRecord
100
AcDbBlockTableRecord
  2
*D10
340
0
  0
BLOCK_RECORD
  5
212
330
1
100
AcDbSymbolTableRecord
100
AcDbBlockTableRecord
  2
*D11
340
0
  0
BLOCK_RECORD
  5
279
330
1
100
AcDbSymbolTableRecord
100
AcDbBlockTableRecord
  2
*D12
340
0
  0
BLOCK_RECORD
  5
286
330
1
100
AcDbSymbolTableRecord
100
AcDbBlockTableRecord
  2
*D13
340
0
  0
BLOCK_RECORD
  5
292
330
1
100
AcDbSymbolTableRecord
100
AcDbBlockTableRecord
  2
*D14
340
0
  0
BLOCK_RECORD
  5
29E
330
1
100
AcDbSymbolTableRecord
100
AcDbBlockTableRecord
  2
*D15
340
0
  0
ENDTAB
  0
ENDSEC
  0
SECTION
  2
BLOCKS
  0
BLOCK
  5
20
330
1F
100
AcDbEntity
  8
0
100
AcDbBlockBegin
  2
*Model_Space
 70
     0
 10
0.0
 20
0.0
 30
0.0
  3
*Model_Space
  1
*Model_Space
  0
ENDBLK
  5
21
330
1F
100
AcDbEntity
  8
0
100
AcDbBlockEnd
  0
BLOCK
  5
1C
330
1B
100
AcDbEntity
 67
     1
  8
0
100
AcDbBlockBegin
  2
*Paper_Space
 70
     0
 10
0.0
 20
0.0
 30
0.0
  3
*Paper_Space
  1
*Paper_Space
  0
ENDBLK
  5
1D
330
1B
100
AcDbEntity
 67
     1
  8
0
100
AcDbBlockEnd
  0
BLOCK
  5
24
330
23
100
AcDbEntity
  8
0
100
AcDbBlockBegin
  2
*Paper_Space0
 70
     0
 10
0.0
 20
0.0
 30
0.0
  3
*Paper_Space0
  1
*Paper_Space0
  0
ENDBLK
  5
25
330
23
100
AcDbEntity
  8
0
100
AcDbBlockEnd
  0
BLOCK
  5
80
330
7F
100
AcDbEntity
  8
0
100
AcDbBlockBegin
  2
블럭10
 70
     2
 10
0.0
 20
0.0
 30
0.0
  3
블럭10
  1
블럭10
  0
ELLIPSE
  5
82
330
7F
100
AcDbEntity
  8
중심선
100
AcDbEllipse
 10
20.54032771741204
 20
12.0471743016438
 30
0.0
 11
6.600054785286829
 21
-1.261213355974178E-13
 31
0.0
210
0.0
220
0.0
230
1.0
 40
0.636358354079598
 41
0.9219305317359503
 42
6.513795318482858
  0
ELLIPSE
  5
83
330
7F
100
AcDbEntity
  8
중심선
100
AcDbEllipse
 10
20.54032771746488
 20
12.04717430159265
 30
0.0
 11
3.960054785062283
 21
1.540847449632565E-10
 31
0.0
210
0.0
220
0.0
230
1.0
 40
0.3939339440162632
 41
1.131841032648279
 42
5.62031148352944
  0
LINE
  5
84
330
7F
100
AcDbEntity
  8
중심선
100
AcDbLine
 10
2.268634060543552
 20
16.24717430164393
 30
0.0
 11
5.714909304380834
 21
16.24717430164393
 31
0.0
  0
LINE
  5
85
330
7F
100
AcDbEntity
  8
중심선
100
AcDbLine
 10
5.245725140726316
 20
7.84717430164391
 30
0.0
 11
8.692000384563599
 21
7.84717430164391
 31
0.0
  0
LINE
  5
86
330
7F
100
AcDbEntity
  8
중심선
100
AcDbLine
 10
15.74043728645272
 20
16.24717430164393
 30
0.0
 11
8.692000384563599
 21
7.84717430164391
 31
0.0
  0
LINE
  5
87
330
7F
100
AcDbEntity
  8
중심선
100
AcDbLine
 10
0.1404042013395286
 20
13.71084872107135
 30
0.0
 11
3.58671253028996
 21
13.71088815037384
 31
0.0
  0
LINE
  5
88
330
7F
100
AcDbEntity
  8
중심선
100
AcDbLine
 10
2.750260043222114
 20
10.84717430164391
 30
0.0
 11
6.196535287059397
 21
10.84717430164391
 31
0.0
  0
LINE
  5
89
330
7F
100
AcDbEntity
  8
중심선
100
AcDbLine
 10
12.29416204261559
 20
16.24717430164393
 30
0.0
 11
5.245725140726316
 21
7.84717430164391
 31
0.0
  0
LINE
  5
8A
330
7F
100
AcDbEntity
  8
중심선
100
AcDbLine
 10
10.72767329541681
 20
16.24717430164393
 30
0.0
 11
6.196535287059397
 21
10.84717430164391
 31
0.0
  0
LINE
  5
8B
330
7F
100
AcDbEntity
  8
중심선
100
AcDbLine
 10
7.28139805157953
 20
16.24717430164393
 30
0.0
 11
2.750260043222114
 21
10.84717430164391
 31
0.0
  0
LINE
  5
8C
330
7F
100
AcDbEntity
  8
중심선
100
AcDbLine
 10
5.714909304380834
 20
16.24717430164393
 30
0.0
 11
3.58671253028996
 21
13.71088815037384
 31
0.0
  0
LINE
  5
8D
330
7F
100
AcDbEntity
  8
중심선
100
AcDbLine
 10
2.268634060543552
 20
16.24717430164393
 30
0.0
 11
0.1404042013395286
 21
13.71084872107135
 31
0.0
  0
LINE
  5
8E
330
7F
100
AcDbEntity
  8
중심선
100
AcDbLine
 10
7.28139805157953
 20
16.24717430164393
 30
0.0
 11
10.72767329541681
 21
16.24717430164393
 31
0.0
  0
LINE
  5
8F
330
7F
100
AcDbEntity
  8
중심선
100
AcDbLine
 10
12.29416204261559
 20
16.24717430164393
 30
0.0
 11
15.74043728645272
 21
16.24717430164393
 31
0.0
  0
LINE
  5
90
330
7F
100
AcDbEntity
  8
중심선
100
AcDbLine
 10
19.22036997980202
 20
11.08717430171403
 30
0.0
 11
23.66174974927406
 21
11.08717430171406
 31
0.0
  0
LINE
  5
91
330
7F
100
AcDbEntity
  8
중심선
100
AcDbLine
 10
19.22039502424796
 20
13.00717430171391
 30
0.0
 11
19.22036997980202
 21
11.08717430171403
 31
0.0
  0
LINE
  5
92
330
7F
100
AcDbEntity
  8
중심선
100
AcDbLine
 10
19.22039502424796
 20
13.00717430171391
 30
0.0
 11
26.96566020931264
 21
13.00717430171391
 31
0.0
  0
LINE
  5
93
330
7F
100
AcDbEntity
  8
중심선
100
AcDbLine
 10
22.22332737316547
 20
13.45928029700563
 30
0.0
 11
24.52862924686651
 21
15.39360700705356
 31
0.0
  0
ATTDEF
  5
95
330
7F
100
AcDbEntity
  8
FORMAT
 62
     2
100
AcDbText
 10
4.408487351596664
 20
2.075366912832191
 30
0.0
 40
4.233333333333333
  1
E1035200
 41
0.75
  7
SLDTEXTSTYLE0
 11
4.408487351596664
 21
-0.0412997538344756
 31
0.0
100
AcDbAttributeDefinition
  3

  2
AUTOATTR0
 70
     0
 74
     1
  0
ENDBLK
  5
81
330
7F
100
AcDbEntity
  8
0
100
AcDbBlockEnd
  0
BLOCK
  5
AA
330
A9
100
AcDbEntity
  8
0
100
AcDbBlockBegin
  2
_D
 70
     0
 10
0.0
 20
0.0
 30
0.0
  3
_D
  1
_D
  0
SOLID
  5
AC
330
A9
100
AcDbEntity
  8
치수문자_일반주서
100
AcDbTrace
 10
97.9119459855236
 20
12.5010749287239
 30
0.0
 11
98.4199459855236
 21
15.80307492872389
 31
0.0
 12
97.4039459855236
 22
15.80307492872389
 32
0.0
 13
97.4039459855236
 23
15.80307492872389
 33
0.0
  0
SOLID
  5
AD
330
A9
100
AcDbEntity
  8
치수문자_일반주서
100
AcDbTrace
 10
97.9119459855236
 20
-12.49892507127611
 30
0.0
 11
97.4039459855236
 21
-15.80092507127611
 31
0.0
 12
98.4199459855236
 22
-15.80092507127611
 32
0.0
 13
98.4199459855236
 23
-15.80092507127611
 33
0.0
  0
LINE
  5
AE
330
A9
100
AcDbEntity
  8
치수문자_일반주서
100
AcDbLine
 10
87.11906426948089
 20
-5.413291502344828
 30
0.0
 11
87.11906426948089
 21
-6.124228987909328
 31
0.0
  0
LINE
  5
AF
330
A9
100
AcDbEntity
  8
치수문자_일반주서
100
AcDbLine
 10
87.11906426948089
 20
-6.124228987909328
 30
0.0
 11
92.67531426054019
 21
-6.124228987909289
 31
0.0
  0
LINE
  5
B0
330
A9
100
AcDbEntity
  8
치수문자_일반주서
100
AcDbLine
 10
92.67531426054019
 20
-6.124228987909289
 30
0.0
 11
92.67531426054019
 21
-5.413291502344789
 31
0.0
  0
LINE
  5
B1
330
A9
100
AcDbEntity
  8
치수문자_일반주서
100
AcDbLine
 10
87.1190642694808
 20
5.41544135979243
 30
0.0
 11
87.1190642694808
 21
6.12637884535693
 31
0.0
  0
LINE
  5
B2
330
A9
100
AcDbEntity
  8
치수문자_일반주서
100
AcDbLine
 10
87.1190642694808
 20
6.12637884535693
 30
0.0
 11
92.6753142605401
 21
6.126378845356969
 31
0.0
  0
LINE
  5
B3
330
A9
100
AcDbEntity
  8
치수문자_일반주서
100
AcDbLine
 10
92.6753142605401
 20
6.126378845356969
 30
0.0
 11
92.6753142605401
 21
5.415441359792469
 31
0.0
  0
LINE
  5
B4
330
A9
100
AcDbEntity
  8
치수문자_일반주서
100
AcDbLine
 10
79.91194598552357
 20
12.5010749287239
 30
0.0
 11
98.9119459855236
 21
12.5010749287239
 31
0.0
  0
LINE
  5
B5
330
A9
100
AcDbEntity
  8
치수문자_일반주서
100
AcDbLine
 10
79.91194598552357
 20
-12.49892507127611
 30
0.0
 11
98.9119459855236
 21
-12.49892507127611
 31
0.0
  0
LINE
  5
B6
330
A9
100
AcDbEntity
  8
치수문자_일반주서
100
AcDbLine
 10
97.9119459855236
 20
12.5010749287239
 30
0.0
 11
97.9119459855236
 21
18.8510749287239
 31
0.0
  0
LINE
  5
B7
330
A9
100
AcDbEntity
  8
치수문자_일반주서
100
AcDbLine
 10
97.9119459855236
 20
12.5010749287239
 30
0.0
 11
97.9119459855236
 21
-12.49892507127611
 31
0.0
  0
LINE
  5
B8
330
A9
100
AcDbEntity
  8
치수문자_일반주서
100
AcDbLine
 10
97.9119459855236
 20
-12.49892507127611
 30
0.0
 11
97.9119459855236
 21
-18.84892507127611
 31
0.0
  0
MTEXT
  5
B9
330
A9
100
AcDbEntity
  8
치수문자_일반주서
100
AcDbMText
 10
88.16357734596129
 20
-4.52461960173345
 30
0.0
 40
3.5
 41
0.0
 71
     1
 72
     1
  1
0.98
  7
SLDTEXTSTYLE0
 11
-7.044195017643634E-15
 21
1.0
 31
0.0
 73
     1
 44
1.0
  0
MTEXT
  5
BA
330
A9
100
AcDbEntity
  8
치수문자_일반주서
100
AcDbMText
 10
93.40020889632177
 20
-5.22425519681665
 30
0.0
 40
3.5
 41
0.0
 71
     1
 72
     1
  1
%%c
  7
SLDTEXTSTYLE0
 11
-7.044195017643634E-15
 21
1.0
 31
0.0
 73
     1
 44
1.0
  0
MTEXT
  5
BB
330
A9
100
AcDbEntity
  8
치수문자_일반주서
100
AcDbMText
 10
93.40020889632173
 20
0.0541822015574309
 30
0.0
 40
3.5
 41
0.0
 71
     1
 72
     1
  1
25
  7
SLDTEXTSTYLE0
 11
-7.044195017643634E-15
 21
1.0
 31
0.0
 73
     1
 44
1.0
  0
ENDBLK
  5
AB
330
A9
100
AcDbEntity
  8
0
100
AcDbBlockEnd
  0
BLOCK
  5
BE
330
BD
100
AcDbEntity
  8
0
100
AcDbBlockBegin
  2
_D_1
 70
     0
 10
0.0
 20
0.0
 30
0.0
  3
_D_1
  1
_D_1
  0
SOLID
  5
C0
330
BD
100
AcDbEntity
  8
치수문자_일반주서
100
AcDbTrace
 10
-55.08805401447646
 20
7.938574928723906
 30
0.0
 11
-54.58005401447646
 21
11.24057492872391
 31
0.0
 12
-55.59605401447646
 22
11.24057492872391
 32
0.0
 13
-55.59605401447646
 23
11.24057492872391
 33
0.0
  0
SOLID
  5
C1
330
BD
100
AcDbEntity
  8
치수문자_일반주서
100
AcDbTrace
 10
-55.08805401447646
 20
-7.936425071276123
 30
0.0
 11
-55.59605401447646
 21
-11.23842507127612
 31
0.0
 12
-54.58005401447646
 22
-11.23842507127612
 32
0.0
 13
-54.58005401447646
 23
-11.23842507127612
 33
0.0
  0
LINE
  5
C2
330
BD
100
AcDbEntity
  8
치수문자_일반주서
100
AcDbLine
 10
-65.88093573051917
 20
-6.595745043212554
 30
0.0
 11
-65.88093573051917
 21
-7.306682528777054
 31
0.0
  0
LINE
  5
C3
330
BD
100
AcDbEntity
  8
치수문자_일반주서
100
AcDbLine
 10
-65.88093573051917
 20
-7.306682528777054
 30
0.0
 11
-60.32468573945987
 21
-7.306682528777015
 31
0.0
  0
LINE
  5
C4
330
BD
100
AcDbEntity
  8
치수문자_일반주서
100
AcDbLine
 10
-60.32468573945987
 20
-7.306682528777015
 30
0.0
 11
-60.32468573945987
 21
-6.595745043212514
 31
0.0
  0
LINE
  5
C5
330
BD
100
AcDbEntity
  8
치수문자_일반주서
100
AcDbLine
 10
-65.88093573051925
 20
4.232987818924705
 30
0.0
 11
-65.88093573051925
 21
4.943925304489205
 31
0.0
  0
LINE
  5
C6
330
BD
100
AcDbEntity
  8
치수문자_일반주서
100
AcDbLine
 10
-65.88093573051925
 20
4.943925304489205
 30
0.0
 11
-60.32468573945995
 21
4.943925304489244
 31
0.0
  0
LINE
  5
C7
330
BD
100
AcDbEntity
  8
치수문자_일반주서
100
AcDbLine
 10
-60.32468573945995
 20
4.943925304489244
 30
0.0
 11
-60.32468573945994
 21
4.232987818924744
 31
0.0
  0
LINE
  5
C8
330
BD
100
AcDbEntity
  8
치수문자_일반주서
100
AcDbLine
 10
-41.50055401447643
 20
7.938574928723908
 30
0.0
 11
-56.08805401447646
 21
7.938574928723906
 31
0.0
  0
LINE
  5
C9
330
BD
100
AcDbEntity
  8
치수문자_일반주서
100
AcDbLine
 10
-41.50055401447643
 20
-7.936425071276121
 30
0.0
 11
-56.08805401447646
 21
-7.936425071276123
 31
0.0
  0
LINE
  5
CA
330
BD
100
AcDbEntity
  8
치수문자_일반주서
100
AcDbLine
 10
-55.08805401447646
 20
7.938574928723906
 30
0.0
 11
-55.08805401447646
 21
14.28857492872391
 31
0.0
  0
LINE
  5
CB
330
BD
100
AcDbEntity
  8
치수문자_일반주서
100
AcDbLine
 10
-55.08805401447646
 20
7.938574928723906
 30
0.0
 11
-55.08805401447646
 21
-7.936425071276123
 31
0.0
  0
LINE
  5
CC
330
BD
100
AcDbEntity
  8
치수문자_일반주서
100
AcDbLine
 10
-55.08805401447646
 20
-7.936425071276123
 30
0.0
 11
-55.08805401447646
 21
-14.28642507127612
 31
0.0
  0
MTEXT
  5
CD
330
BD
100
AcDbEntity
  8
치수문자_일반주서
100
AcDbMText
 10
-64.83642265403878
 20
-5.707073142601175
 30
0.0
 40
3.5
 41
0.0
 71
     1
 72
     1
  1
0.63
  7
SLDTEXTSTYLE0
 11
-7.044195017643634E-15
 21
1.0
 31
0.0
 73
     1
 44
1.0
  0
MTEXT
  5
CE
330
BD
100
AcDbEntity
  8
치수문자_일반주서
100
AcDbMText
 10
-59.59979110367827
 20
-9.639347554964907
 30
0.0
 40
3.5
 41
0.0
 71
     1
 72
     1
  1
%%c
  7
SLDTEXTSTYLE0
 11
-7.044195017643634E-15
 21
1.0
 31
0.0
 73
     1
 44
1.0
  0
MTEXT
  5
CF
330
BD
100
AcDbEntity
  8
치수문자_일반주서
100
AcDbMText
 10
-59.59979110367831
 20
-4.360910156590827
 30
0.0
 40
3.5
 41
0.0
 71
     1
 72
     1
  1
15.88
  7
SLDTEXTSTYLE0
 11
-7.044195017643634E-15
 21
1.0
 31
0.0
 73
     1
 44
1.0
  0
ENDBLK
  5
BF
330
BD
100
AcDbEntity
  8
0
100
AcDbBlockEnd
  0
BLOCK
  5
D3
330
D2
100
AcDbEntity
  8
0
100
AcDbBlockBegin
  2
_D_2
 70
     0
 10
0.0
 20
0.0
 30
0.0
  3
_D_2
  1
_D_2
  0
SOLID
  5
D5
330
D2
100
AcDbEntity
  8
치수문자_일반주서
100
AcDbTrace
 10
78.9119459855236
 20
22.33656116902758
 30
0.0
 11
75.60994598552361
 21
22.84456116902758
 31
0.0
 12
75.60994598552361
 22
21.82856116902758
 32
0.0
 13
75.60994598552361
 23
21.82856116902758
 33
0.0
  0
SOLID
  5
D6
330
D2
100
AcDbEntity
  8
치수문자_일반주서
100
AcDbTrace
 10
33.9119459855236
 20
22.3365611690276
 30
0.0
 11
37.2139459855236
 21
21.8285611690276
 31
0.0
 12
37.2139459855236
 22
22.8445611690276
 32
0.0
 13
37.2139459855236
 23
22.8445611690276
 33
0.0
  0
LINE
  5
D7
330
D2
100
AcDbEntity
  8
치수문자_일반주서
100
AcDbLine
 10
50.99757990370091
 20
33.12944288507032
 30
0.0
 11
50.28664241813641
 21
33.12944288507033
 31
0.0
  0
LINE
  5
D8
330
D2
100
AcDbEntity
  8
치수문자_일반주서
100
AcDbLine
 10
50.28664241813641
 20
33.12944288507033
 30
0.0
 11
50.28664241813637
 21
27.57319289401102
 31
0.0
  0
LINE
  5
D9
330
D2
100
AcDbEntity
  8
치수문자_일반주서
100
AcDbLine
 10
50.28664241813637
 20
27.57319289401102
 30
0.0
 11
50.99757990370087
 21
27.57319289401102
 31
0.0
  0
LINE
  5
DA
330
D2
100
AcDbEntity
  8
치수문자_일반주서
100
AcDbLine
 10
61.82631276583817
 20
33.12944288507024
 30
0.0
 11
62.53725025140267
 21
33.12944288507023
 31
0.0
  0
LINE
  5
DB
330
D2
100
AcDbEntity
  8
치수문자_일반주서
100
AcDbLine
 10
62.53725025140267
 20
33.12944288507023
 30
0.0
 11
62.53725025140263
 21
27.57319289401093
 31
0.0
  0
LINE
  5
DC
330
D2
100
AcDbEntity
  8
치수문자_일반주서
100
AcDbLine
 10
62.53725025140263
 20
27.57319289401093
 30
0.0
 11
61.82631276583813
 21
27.57319289401094
 31
0.0
  0
LINE
  5
DD
330
D2
100
AcDbEntity
  8
치수문자_일반주서
100
AcDbLine
 10
78.9119459855236
 20
13.04623741649756
 30
0.0
 11
78.9119459855236
 21
23.33656116902758
 31
0.0
  0
LINE
  5
DE
330
D2
100
AcDbEntity
  8
치수문자_일반주서
100
AcDbLine
 10
33.91194598552359
 20
13.50102630229547
 30
0.0
 11
33.9119459855236
 21
23.3365611690276
 31
0.0
  0
LINE
  5
DF
330
D2
100
AcDbEntity
  8
치수문자_일반주서
100
AcDbLine
 10
78.9119459855236
 20
22.33656116902758
 30
0.0
 11
33.9119459855236
 21
22.3365611690276
 31
0.0
  0
MTEXT
  5
E0
330
D2
100
AcDbEntity
  8
치수문자_일반주서
100
AcDbMText
 10
49.77288369264966
 20
26.90177043488931
 30
0.0
 40
3.5
 41
0.0
 71
     1
 72
     1
  1

  7
SLDTEXTSTYLE0
 73
     1
 44
1.0
  0
MTEXT
  5
E1
330
D2
100
AcDbEntity
  8
치수문자_일반주서
100
AcDbMText
 10
51.88625180431227
 20
32.08492980858991
 30
0.0
 40
3.5
 41
0.0
 71
     1
 72
     1
  1
1.77
  7
SLDTEXTSTYLE0
 73
     1
 44
1.0
  0
MTEXT
  5
E2
330
D2
100
AcDbEntity
  8
치수문자_일반주서
100
AcDbMText
 10
53.82583514124668
 20
26.84829825822942
 30
0.0
 40
3.5
 41
0.0
 71
     1
 72
     1
  1
45
  7
SLDTEXTSTYLE0
 73
     1
 44
1.0
  0
MTEXT
  5
E3
330
D2
100
AcDbEntity
  8
치수문자_일반주서
100
AcDbMText
 10
64.38295349654321
 20
26.9017704348892
 30
0.0
 40
3.5
 41
0.0
 71
     1
 72
     1
  1

  7
SLDTEXTSTYLE0
 73
     1
 44
1.0
  0
ENDBLK
  5
D4
330
D2
100
AcDbEntity
  8
0
100
AcDbBlockEnd
  0
BLOCK
  5
E6
330
E5
100
AcDbEntity
  8
0
100
AcDbBlockBegin
  2
_D_3
 70
     0
 10
0.0
 20
0.0
 30
0.0
  3
_D_3
  1
_D_3
  0
SOLID
  5
E8
330
E5
100
AcDbEntity
  8
치수문자_일반주서
100
AcDbTrace
 10
78.91194598552357
 20
38.36394344956528
 30
0.0
 11
75.60994598552358
 21
38.87194344956529
 31
0.0
 12
75.60994598552358
 22
37.85594344956528
 32
0.0
 13
75.60994598552358
 23
37.85594344956528
 33
0.0
  0
SOLID
  5
E9
330
E5
100
AcDbEntity
  8
치수문자_일반주서
100
AcDbTrace
 10
-42.08805401447642
 20
38.36394344956528
 30
0.0
 11
-38.78605401447642
 21
37.85594344956527
 31
0.0
 12
-38.78605401447642
 22
38.87194344956528
 32
0.0
 13
-38.78605401447642
 23
38.87194344956528
 33
0.0
  0
LINE
  5
EA
330
E5
100
AcDbEntity
  8
치수문자_일반주서
100
AcDbLine
 10
14.47912979228456
 20
49.15682516560803
 30
0.0
 11
13.76819230672006
 21
49.15682516560804
 31
0.0
  0
LINE
  5
EB
330
E5
100
AcDbEntity
  8
치수문자_일반주서
100
AcDbLine
 10
13.76819230672006
 20
49.15682516560804
 30
0.0
 11
13.76819230672002
 21
43.60057517454874
 31
0.0
  0
LINE
  5
EC
330
E5
100
AcDbEntity
  8
치수문자_일반주서
100
AcDbLine
 10
13.76819230672002
 20
43.60057517454874
 30
0.0
 11
14.47912979228452
 21
43.60057517454873
 31
0.0
  0
LINE
  5
ED
330
E5
100
AcDbEntity
  8
치수문자_일반주서
100
AcDbLine
 10
25.30786265442182
 20
49.15682516560796
 30
0.0
 11
26.01880013998632
 21
49.15682516560796
 31
0.0
  0
LINE
  5
EE
330
E5
100
AcDbEntity
  8
치수문자_일반주서
100
AcDbLine
 10
26.01880013998632
 20
49.15682516560796
 30
0.0
 11
26.01880013998629
 21
43.60057517454865
 31
0.0
  0
LINE
  5
EF
330
E5
100
AcDbEntity
  8
치수문자_일반주서
100
AcDbLine
 10
26.01880013998629
 20
43.60057517454865
 30
0.0
 11
25.30786265442179
 21
43.60057517454866
 31
0.0
  0
LINE
  5
F0
330
E5
100
AcDbEntity
  8
치수문자_일반주서
100
AcDbLine
 10
78.91194598552357
 20
13.21639659633511
 30
0.0
 11
78.91194598552357
 21
39.36394344956528
 31
0.0
  0
LINE
  5
F1
330
E5
100
AcDbEntity
  8
치수문자_일반주서
100
AcDbLine
 10
-42.08805401447642
 20
7.351074928723897
 30
0.0
 11
-42.08805401447642
 21
39.36394344956528
 31
0.0
  0
LINE
  5
F2
330
E5
100
AcDbEntity
  8
치수문자_일반주서
100
AcDbLine
 10
78.91194598552357
 20
38.36394344956528
 30
0.0
 11
-42.08805401447642
 21
38.36394344956528
 31
0.0
  0
MTEXT
  5
F3
330
E5
100
AcDbEntity
  8
치수문자_일반주서
100
AcDbMText
 10
13.25443358123332
 20
42.92915271542702
 30
0.0
 40
3.5
 41
0.0
 71
     1
 72
     1
  1

  7
SLDTEXTSTYLE0
 73
     1
 44
1.0
  0
MTEXT
  5
F4
330
E5
100
AcDbEntity
  8
치수문자_일반주서
100
AcDbMText
 10
15.36780169289593
 20
48.11231208912763
 30
0.0
 40
3.5
 41
0.0
 71
     1
 72
     1
  1
4.76
  7
SLDTEXTSTYLE0
 73
     1
 44
1.0
  0
MTEXT
  5
F5
330
E5
100
AcDbEntity
  8
치수문자_일반주서
100
AcDbMText
 10
16.01432954948426
 20
42.87568053876715
 30
0.0
 40
3.5
 41
0.0
 71
     1
 72
     1
  1
121
  7
SLDTEXTSTYLE0
 73
     1
 44
1.0
  0
MTEXT
  5
F6
330
E5
100
AcDbEntity
  8
치수문자_일반주서
100
AcDbMText
 10
27.86450338512689
 20
42.92915271542692
 30
0.0
 40
3.5
 41
0.0
 71
     1
 72
     1
  1

  7
SLDTEXTSTYLE0
 73
     1
 44
1.0
  0
ENDBLK
  5
E7
330
E5
100
AcDbEntity
  8
0
100
AcDbBlockEnd
  0
BLOCK
  5
FF
330
FE
100
AcDbEntity
  8
0
100
AcDbBlockBegin
  2
SW_DOWELSYMBOL_0
 70
     0
 10
0.0
 20
0.0
 30
0.0
  3
SW_DOWELSYMBOL_0
  1
SW_DOWELSYMBOL_0
  0
CIRCLE
  5
101
330
FE
100
AcDbEntity
  8
해칭선
 62
     0
100
AcDbCircle
 10
0.0
 20
0.0
 30
0.0
 40
3.000000000000001
  0
HATCH
  5
102
330
FE
100
AcDbEntity
  8
0
  6
Continuous
 62
     0
370
     0
100
AcDbHatch
 10
0.0
 20
0.0
 30
0.0
210
0.0
220
0.0
230
1.0
  2
SOLID
 70
     1
 71
     0
 91
        1
 92
        0
 93
        3
 72
     2
 10
0.0
 20
0.0
 40
3.000000000000001
 50
0.0
 51
90.0
 73
     1
 72
     1
 10
0.0
 20
3.000000000000001
 11
0.0
 21
0.0
 72
     1
 10
0.0
 20
0.0
 11
3.000000000000001
 21
0.0
 97
        0
 75
     0
 76
     1
 98
        1
 10
0.0
 20
0.0
  0
HATCH
  5
103
330
FE
100
AcDbEntity
  8
0
  6
Continuous
 62
     0
370
     0
100
AcDbHatch
 10
0.0
 20
0.0
 30
0.0
210
0.0
220
0.0
230
1.0
  2
SOLID
 70
     1
 71
     0
 91
        1
 92
        0
 93
        3
 72
     2
 10
0.0
 20
0.0
 40
3.000000000000001
 50
180.0
 51
270.0000000000008
 73
     1
 72
     1
 10
0.0
 20
-3.000000000000001
 11
0.0
 21
0.0
 72
     1
 10
0.0
 20
0.0
 11
-3.000000000000001
 21
0.0
 97
        0
 75
     0
 76
     1
 98
        1
 10
0.0
 20
0.0
  0
ENDBLK
  5
100
330
FE
100
AcDbEntity
  8
0
100
AcDbBlockEnd
  0
BLOCK
  5
1EE
330
1ED
100
AcDbEntity
  8
0
100
AcDbBlockBegin
  2
*D8
 70
     1
 10
0.0
 20
0.0
 30
0.0
  3
*D8
  1
*D8
  0
LINE
  5
1F0
330
1ED
100
AcDbEntity
  8
치수문자_일반주서
 62
     0
370
    -2
100
AcDbLine
 10
34.4175000000001
 20
57.40400000000007
 30
0.0
 11
4.875000000000099
 21
57.40399999999995
 31
0.0
  0
LINE
  5
1F1
330
1ED
100
AcDbEntity
  8
치수문자_일반주서
 62
     0
370
    -2
100
AcDbLine
 10
24.89250000000013
 20
6.604000000000077
 30
0.0
 11
4.875000000000277
 21
6.603999999999999
 31
0.0
  0
LINE
  5
1F2
330
1ED
100
AcDbEntity
  8
치수문자_일반주서
 62
     0
370
    -2
100
AcDbLine
 10
4.875000000000099
 20
57.40399999999995
 30
0.0
 11
4.874999999999995
 21
87.25799999999995
 31
0.0
  0
LINE
  5
1F3
330
1ED
100
AcDbEntity
  8
치수문자_일반주서
 62
     0
370
    -2
100
AcDbLine
 10
4.875000000000111
 20
54.10199999999995
 30
0.0
 11
4.875000000000266
 21
9.905999999999999
 31
0.0
  0
SOLID
  5
1F4
330
1ED
100
AcDbEntity
  8
치수문자_일반주서
 62
     0
100
AcDbTrace
 10
5.425333333333445
 20
54.10199999999995
 30
0.0
 11
4.324666666666777
 21
54.10199999999995
 31
0.0
 12
4.875000000000099
 22
57.40399999999995
 32
0.0
 13
4.875000000000099
 23
57.40399999999995
 33
0.0
  0
SOLID
  5
1F5
330
1ED
100
AcDbEntity
  8
치수문자_일반주서
 62
     0
100
AcDbTrace
 10
4.324666666666932
 20
9.905999999999997
 30
0.0
 11
5.425333333333599
 21
9.906
 31
0.0
 12
4.875000000000277
 22
6.603999999999999
 32
0.0
 13
4.875000000000277
 23
6.603999999999999
 33
0.0
  0
MTEXT
  5
1F6
330
1ED
100
AcDbEntity
  8
치수문자_일반주서
 62
     0
100
AcDbMText
 10
0.0000000000000355
 20
75.63299999999994
 30
0.0
 40
4.0
 41
0.0
 71
     2
 72
     1
  1
\A1;%%c50.8 [2]
  7
SLDTEXTSTYLE0
 11
-3.496765431890260E-15
 21
1.0
 31
0.0
 73
     1
 44
1.0
  0
POINT
  5
1F7
330
1ED
100
AcDbEntity
  8
Defpoints
 62
     0
100
AcDbPoint
 10
34.4800000000001
 20
57.40400000000007
 30
0.0
  0
POINT
  5
1F8
330
1ED
100
AcDbEntity
  8
Defpoints
 62
     0
100
AcDbPoint
 10
24.95500000000013
 20
6.604000000000077
 30
0.0
  0
POINT
  5
1F9
330
1ED
100
AcDbEntity
  8
Defpoints
 62
     0
100
AcDbPoint
 10
4.87500000000027
 20
6.604000000000003
 30
0.0
  0
ENDBLK
  5
1EF
330
1ED
100
AcDbEntity
  8
0
100
AcDbBlockEnd
  0
BLOCK
  5
1FB
330
1FA
100
AcDbEntity
  8
0
100
AcDbBlockBegin
  2
*D9
 70
     1
 10
0.0
 20
0.0
 30
0.0
  3
*D9
  1
*D9
  0
LINE
  5
1FD
330
1FA
100
AcDbEntity
  8
치수문자_일반주서
 62
     0
370
    -2
100
AcDbLine
 10
216.7250000000001
 20
57.46650000000009
 30
0.0
 11
216.7250000000001
 21
72.40400000000008
 31
0.0
  0
LINE
  5
1FE
330
1FA
100
AcDbEntity
  8
치수문자_일반주서
 62
     0
370
    -2
100
AcDbLine
 10
115.1250000000001
 20
57.40796750268854
 30
0.0
 11
115.1250000000001
 21
72.40400000000008
 31
0.0
  0
LINE
  5
1FF
330
1FA
100
AcDbEntity
  8
치수문자_일반주서
 62
     0
370
    -2
100
AcDbLine
 10
213.4230000000001
 20
72.40400000000008
 30
0.0
 11
118.4270000000001
 21
72.40400000000008
 31
0.0
  0
SOLID
  5
200
330
1FA
100
AcDbEntity
  8
치수문자_일반주서
 62
     0
100
AcDbTrace
 10
213.4230000000001
 20
71.85366666666675
 30
0.0
 11
213.4230000000001
 21
72.95433333333341
 31
0.0
 12
216.7250000000001
 22
72.40400000000008
 32
0.0
 13
216.7250000000001
 23
72.40400000000008
 33
0.0
  0
SOLID
  5
201
330
1FA
100
AcDbEntity
  8
치수문자_일반주서
 62
     0
100
AcDbTrace
 10
118.4270000000001
 20
72.95433333333341
 30
0.0
 11
118.4270000000001
 21
71.85366666666675
 31
0.0
 12
115.1250000000001
 22
72.40400000000008
 32
0.0
 13
115.1250000000001
 23
72.40400000000008
 33
0.0
  0
MTEXT
  5
202
330
1FA
100
AcDbEntity
  8
치수문자_일반주서
 62
     0
100
AcDbMText
 10
165.9250000000002
 20
77.27900000000008
 30
0.0
 40
4.0
 41
0.0
 71
     2
 72
     1
  1
\A1;101.6 [4]
  7
SLDTEXTSTYLE0
 73
     1
 44
1.0
  0
POINT
  5
203
330
1FA
100
AcDbEntity
  8
Defpoints
 62
     0
100
AcDbPoint
 10
216.7250000000001
 20
57.40400000000009
 30
0.0
  0
POINT
  5
204
330
1FA
100
AcDbEntity
  8
Defpoints
 62
     0
100
AcDbPoint
 10
115.1250000000001
 20
57.34546750268854
 30
0.0
  0
POINT
  5
205
330
1FA
100
AcDbEntity
  8
Defpoints
 62
     0
100
AcDbPoint
 10
115.1250000000001
 20
72.40400000000008
 30
0.0
  0
ENDBLK
  5
1FC
330
1FA
100
AcDbEntity
  8
0
100
AcDbBlockEnd
  0
BLOCK
  5
207
330
206
100
AcDbEntity
  8
0
100
AcDbBlockBegin
  2
*D10
 70
     1
 10
0.0
 20
0.0
 30
0.0
  3
*D10
  1
*D10
  0
LINE
  5
209
330
206
100
AcDbEntity
  8
치수문자_일반주서
 62
     0
370
    -2
100
AcDbLine
 10
216.7250000000001
 20
57.46650000000009
 30
0.0
 11
216.7250000000001
 21
87.40400000000008
 31
0.0
  0
LINE
  5
20A
330
206
100
AcDbEntity
  8
치수문자_일반주서
 62
     0
370
    -2
100
AcDbLine
 10
19.87500000000011
 20
55.56150000000008
 30
0.0
 11
19.87500000000011
 21
87.40400000000008
 31
0.0
  0
LINE
  5
20B
330
206
100
AcDbEntity
  8
치수문자_일반주서
 62
     0
370
    -2
100
AcDbLine
 10
213.4230000000001
 20
87.40400000000008
 30
0.0
 11
23.17700000000011
 21
87.40400000000008
 31
0.0
  0
SOLID
  5
20C
330
206
100
AcDbEntity
  8
치수문자_일반주서
 62
     0
100
AcDbTrace
 10
213.4230000000001
 20
86.85366666666675
 30
0.0
 11
213.4230000000001
 21
87.95433333333341
 31
0.0
 12
216.7250000000001
 22
87.40400000000008
 32
0.0
 13
216.7250000000001
 23
87.40400000000008
 33
0.0
  0
SOLID
  5
20D
330
206
100
AcDbEntity
  8
치수문자_일반주서
 62
     0
100
AcDbTrace
 10
23.17700000000011
 20
87.95433333333341
 30
0.0
 11
23.17700000000011
 21
86.85366666666675
 31
0.0
 12
19.87500000000011
 22
87.40400000000008
 32
0.0
 13
19.87500000000011
 23
87.40400000000008
 33
0.0
  0
MTEXT
  5
20E
330
206
100
AcDbEntity
  8
치수문자_일반주서
 62
     0
100
AcDbMText
 10
118.3000000000001
 20
92.27900000000008
 30
0.0
 40
4.0
 41
0.0
 71
     2
 72
     1
  1
\A1;196.85 [7 3/4]
  7
SLDTEXTSTYLE0
 73
     1
 44
1.0
  0
POINT
  5
20F
330
206
100
AcDbEntity
  8
Defpoints
 62
     0
100
AcDbPoint
 10
216.7250000000001
 20
57.40400000000009
 30
0.0
  0
POINT
  5
210
330
206
100
AcDbEntity
  8
Defpoints
 62
     0
100
AcDbPoint
 10
19.87500000000011
 20
55.49900000000008
 30
0.0
  0
POINT
  5
211
330
206
100
AcDbEntity
  8
Defpoints
 62
     0
100
AcDbPoint
 10
19.87500000000011
 20
87.40400000000008
 30
0.0
  0
ENDBLK
  5
208
330
206
100
AcDbEntity
  8
0
100
AcDbBlockEnd
  0
BLOCK
  5
213
330
212
100
AcDbEntity
  8
0
100
AcDbBlockBegin
  2
*D11
 70
     1
 10
0.0
 20
0.0
 30
0.0
  3
*D11
  1
*D11
  0
LINE
  5
215
330
212
100
AcDbEntity
  8
치수문자_일반주서
 62
     0
370
    -2
100
AcDbLine
 10
216.7875000000001
 20
57.40400000000009
 30
0.0
 11
231.725
 21
57.40400000000015
 31
0.0
  0
LINE
  5
216
330
212
100
AcDbEntity
  8
치수문자_일반주서
 62
     0
370
    -2
100
AcDbLine
 10
216.7875000000001
 20
6.604000000000088
 30
0.0
 11
231.7250000000001
 21
6.604000000000141
 31
0.0
  0
LINE
  5
217
330
212
100
AcDbEntity
  8
치수문자_일반주서
 62
     0
370
    -2
100
AcDbLine
 10
231.725
 20
57.40400000000015
 30
0.0
 11
231.7249999999999
 21
87.25800000000015
 31
0.0
  0
LINE
  5
218
330
212
100
AcDbEntity
  8
치수문자_일반주서
 62
     0
370
    -2
100
AcDbLine
 10
231.725
 20
54.10200000000015
 30
0.0
 11
231.7250000000001
 21
9.906000000000141
 31
0.0
  0
SOLID
  5
219
330
212
100
AcDbEntity
  8
치수문자_일반주서
 62
     0
100
AcDbTrace
 10
232.2753333333333
 20
54.10200000000015
 30
0.0
 11
231.1746666666666
 21
54.10200000000015
 31
0.0
 12
231.725
 22
57.40400000000015
 32
0.0
 13
231.725
 23
57.40400000000015
 33
0.0
  0
SOLID
  5
21A
330
212
100
AcDbEntity
  8
치수문자_일반주서
 62
     0
100
AcDbTrace
 10
231.1746666666668
 20
9.90600000000014
 30
0.0
 11
232.2753333333335
 21
9.906000000000143
 31
0.0
 12
231.7250000000001
 22
6.604000000000141
 32
0.0
 13
231.7250000000001
 23
6.604000000000141
 33
0.0
  0
MTEXT
  5
21B
330
212
100
AcDbEntity
  8
치수문자_일반주서
 62
     0
100
AcDbMText
 10
226.8499999999999
 20
75.63300000000014
 30
0.0
 40
4.0
 41
0.0
 71
     2
 72
     1
  1
\A1;%%c50.8 [2]
  7
SLDTEXTSTYLE0
 11
-3.356894814614646E-15
 21
1.0
 31
0.0
 73
     1
 44
1.0
  0
POINT
  5
21C
330
212
100
AcDbEntity
  8
Defpoints
 62
     0
100
AcDbPoint
 10
216.7250000000001
 20
57.40400000000009
 30
0.0
  0
POINT
  5
21D
330
212
100
AcDbEntity
  8
Defpoints
 62
     0
100
AcDbPoint
 10
216.7250000000001
 20
6.604000000000088
 30
0.0
  0
POINT
  5
21E
330
212
100
AcDbEntity
  8
Defpoints
 62
     0
100
AcDbPoint
 10
231.7250000000002
 20
6.604000000000144
 30
0.0
  0
ENDBLK
  5
214
330
212
100
AcDbEntity
  8
0
100
AcDbBlockEnd
  0
BLOCK
  5
27A
330
279
100
AcDbEntity
  8
0
100
AcDbBlockBegin
  2
*D12
 70
     1
 10
0.0
 20
0.0
 30
0.0
  3
*D12
  1
*D12
  0
LINE
  5
27C
330
279
100
AcDbEntity
  8
치수문자_일반주서
 62
     0
370
    -2
100
AcDbLine
 10
-49.56249999999369
 20
15.87500000000023
 30
0.0
 11
-73.57004507445416
 21
15.87500000000014
 31
0.0
  0
LINE
  5
27D
330
279
100
AcDbEntity
  8
치수문자_일반주서
 62
     0
370
    -2
100
AcDbLine
 10
-49.56249999999369
 20
-15.87499999999977
 30
0.0
 11
-73.57004507445404
 21
-15.87499999999986
 31
0.0
  0
LINE
  5
27E
330
279
100
AcDbEntity
  8
치수문자_일반주서
 62
     0
370
    -2
100
AcDbLine
 10
-73.57004507445416
 20
15.87500000000014
 30
0.0
 11
-73.57004507445404
 21
-15.87499999999986
 31
0.0
  0
LINE
  5
27F
330
279
100
AcDbEntity
  8
치수문자_일반주서
 62
     0
370
    -2
100
AcDbLine
 10
-73.57004507445417
 20
19.17700000000014
 30
0.0
 11
-73.57004507445419
 21
22.47900000000014
 31
0.0
  0
LINE
  5
280
330
279
100
AcDbEntity
  8
치수문자_일반주서
 62
     0
370
    -2
100
AcDbLine
 10
-73.57004507445403
 20
-19.17699999999986
 30
0.0
 11
-73.57004507445401
 21
-22.47899999999986
 31
0.0
  0
SOLID
  5
281
330
279
100
AcDbEntity
  8
치수문자_일반주서
 62
     0
100
AcDbTrace
 10
-74.1203784077875
 20
19.17700000000014
 30
0.0
 11
-73.01971174112084
 21
19.17700000000015
 31
0.0
 12
-73.57004507445416
 22
15.87500000000014
 32
0.0
 13
-73.57004507445416
 23
15.87500000000014
 33
0.0
  0
SOLID
  5
282
330
279
100
AcDbEntity
  8
치수문자_일반주서
 62
     0
100
AcDbTrace
 10
-73.0197117411207
 20
-19.17699999999985
 30
0.0
 11
-74.12037840778736
 21
-19.17699999999986
 31
0.0
 12
-73.57004507445404
 22
-15.87499999999986
 32
0.0
 13
-73.57004507445404
 23
-15.87499999999986
 33
0.0
  0
MTEXT
  5
283
330
279
100
AcDbEntity
  8
치수문자_일반주서
 62
     0
100
AcDbMText
 10
-78.4450450744541
 20
0.0000000000000325
 30
0.0
 40
4.0
 41
0.0
 71
     2
 72
     1
  1
\A1;%%c31.75 [1 1/4]
  7
SLDTEXTSTYLE0
 11
-3.580687802255623E-15
 21
1.0
 31
0.0
 73
     1
 44
1.0
  0
POINT
  5
284
330
279
100
AcDbEntity
  8
Defpoints
 62
     0
100
AcDbPoint
 10
-49.49999999999369
 20
15.87500000000023
 30
0.0
  0
POINT
  5
285
330
279
100
AcDbEntity
  8
Defpoints
 62
     0
100
AcDbPoint
 10
-49.49999999999369
 20
-15.87499999999977
 30
0.0
  0
POINT
  5
2B0
330
279
100
AcDbEntity
  8
Defpoints
 62
     0
100
AcDbPoint
 10
-73.57004507445404
 20
-15.87499999999986
 30
0.0
  0
ENDBLK
  5
27B
330
279
100
AcDbEntity
  8
0
100
AcDbBlockEnd
  0
BLOCK
  5
287
330
286
100
AcDbEntity
  8
0
100
AcDbBlockBegin
  2
*D13
 70
     1
 10
0.0
 20
0.0
 30
0.0
  3
*D13
  1
*D13
  0
LINE
  5
289
330
286
100
AcDbEntity
  8
치수문자_일반주서
 62
     0
370
    -2
100
AcDbLine
 10
113.6000000000063
 20
25.46249999999999
 30
0.0
 11
113.6000000000063
 21
40.39999999999998
 31
0.0
  0
LINE
  5
28A
330
286
100
AcDbEntity
  8
치수문자_일반주서
 62
     0
370
    -2
100
AcDbLine
 10
12.00000000000631
 20
25.40396750268844
 30
0.0
 11
12.00000000000631
 21
40.39999999999998
 31
0.0
  0
LINE
  5
28B
330
286
100
AcDbEntity
  8
치수문자_일반주서
 62
     0
370
    -2
100
AcDbLine
 10
110.2980000000063
 20
40.39999999999998
 30
0.0
 11
15.30200000000631
 21
40.39999999999998
 31
0.0
  0
SOLID
  5
28C
330
286
100
AcDbEntity
  8
치수문자_일반주서
 62
     0
100
AcDbTrace
 10
110.2980000000063
 20
39.84966666666665
 30
0.0
 11
110.2980000000063
 21
40.95033333333332
 31
0.0
 12
113.6000000000063
 22
40.39999999999998
 32
0.0
 13
113.6000000000063
 23
40.39999999999998
 33
0.0
  0
SOLID
  5
28D
330
286
100
AcDbEntity
  8
치수문자_일반주서
 62
     0
100
AcDbTrace
 10
15.30200000000631
 20
40.95033333333332
 30
0.0
 11
15.30200000000631
 21
39.84966666666665
 31
0.0
 12
12.00000000000631
 22
40.39999999999998
 32
0.0
 13
12.00000000000631
 23
40.39999999999998
 33
0.0
  0
MTEXT
  5
28E
330
286
100
AcDbEntity
  8
치수문자_일반주서
 62
     0
100
AcDbMText
 10
62.80000000000635
 20
45.27499999999998
 30
0.0
 40
4.0
 41
0.0
 71
     2
 72
     1
  1
\A1;101.6 [4]
  7
SLDTEXTSTYLE0
 73
     1
 44
1.0
  0
POINT
  5
28F
330
286
100
AcDbEntity
  8
Defpoints
 62
     0
100
AcDbPoint
 10
113.6000000000063
 20
25.39999999999999
 30
0.0
  0
POINT
  5
290
330
286
100
AcDbEntity
  8
Defpoints
 62
     0
100
AcDbPoint
 10
12.00000000000631
 20
25.34146750268844
 30
0.0
  0
POINT
  5
291
330
286
100
AcDbEntity
  8
Defpoints
 62
     0
100
AcDbPoint
 10
12.00000000000631
 20
40.39999999999998
 30
0.0
  0
ENDBLK
  5
288
330
286
100
AcDbEntity
  8
0
100
AcDbBlockEnd
  0
BLOCK
  5
293
330
292
100
AcDbEntity
  8
0
100
AcDbBlockBegin
  2
*D14
 70
     1
 10
0.0
 20
0.0
 30
0.0
  3
*D14
  1
*D14
  0
LINE
  5
295
330
292
100
AcDbEntity
  8
치수문자_일반주서
 62
     0
370
    -2
100
AcDbLine
 10
113.6000000000063
 20
25.46249999999999
 30
0.0
 11
113.6000000000063
 21
55.39999999999998
 31
0.0
  0
LINE
  5
296
330
292
100
AcDbEntity
  8
치수문자_일반주서
 62
     0
370
    -2
100
AcDbLine
 10
-51.49999999999369
 20
13.93750000000023
 30
0.0
 11
-51.49999999999369
 21
55.39999999999998
 31
0.0
  0
LINE
  5
297
330
292
100
AcDbEntity
  8
치수문자_일반주서
 62
     0
370
    -2
100
AcDbLine
 10
110.2980000000063
 20
55.39999999999998
 30
0.0
 11
-48.19799999999369
 21
55.39999999999998
 31
0.0
  0
SOLID
  5
298
330
292
100
AcDbEntity
  8
치수문자_일반주서
 62
     0
100
AcDbTrace
 10
110.2980000000063
 20
54.84966666666665
 30
0.0
 11
110.2980000000063
 21
55.95033333333332
 31
0.0
 12
113.6000000000063
 22
55.39999999999998
 32
0.0
 13
113.6000000000063
 23
55.39999999999998
 33
0.0
  0
SOLID
  5
299
330
292
100
AcDbEntity
  8
치수문자_일반주서
 62
     0
100
AcDbTrace
 10
-48.19799999999369
 20
55.95033333333332
 30
0.0
 11
-48.19799999999369
 21
54.84966666666665
 31
0.0
 12
-51.49999999999369
 22
55.39999999999998
 32
0.0
 13
-51.49999999999369
 23
55.39999999999998
 33
0.0
  0
MTEXT
  5
29A
330
292
100
AcDbEntity
  8
치수문자_일반주서
 62
     0
100
AcDbMText
 10
15.17500000000632
 20
60.27499999999998
 30
0.0
 40
4.0
 41
0.0
 71
     2
 72
     1
  1
\A1;165.1 [6 1/2]
  7
SLDTEXTSTYLE0
 73
     1
 44
1.0
  0
POINT
  5
29B
330
292
100
AcDbEntity
  8
Defpoints
 62
     0
100
AcDbPoint
 10
113.6000000000063
 20
25.39999999999999
 30
0.0
  0
POINT
  5
29C
330
292
100
AcDbEntity
  8
Defpoints
 62
     0
100
AcDbPoint
 10
-51.49999999999369
 20
13.87500000000023
 30
0.0
  0
POINT
  5
29D
330
292
100
AcDbEntity
  8
Defpoints
 62
     0
100
AcDbPoint
 10
-51.49999999999369
 20
55.39999999999998
 30
0.0
  0
ENDBLK
  5
294
330
292
100
AcDbEntity
  8
0
100
AcDbBlockEnd
  0
BLOCK
  5
29F
330
29E
100
AcDbEntity
  8
0
100
AcDbBlockBegin
  2
*D15
 70
     1
 10
0.0
 20
0.0
 30
0.0
  3
*D15
  1
*D15
  0
LINE
  5
2A1
330
29E
100
AcDbEntity
  8
치수문자_일반주서
 62
     0
370
    -2
100
AcDbLine
 10
113.6625000000063
 20
25.39999999999999
 30
0.0
 11
128.6000000000062
 21
25.40000000000004
 31
0.0
  0
LINE
  5
2A2
330
29E
100
AcDbEntity
  8
치수문자_일반주서
 62
     0
370
    -2
100
AcDbLine
 10
113.6625000000063
 20
-25.40000000000001
 30
0.0
 11
128.6000000000063
 21
-25.39999999999996
 31
0.0
  0
LINE
  5
2A3
330
29E
100
AcDbEntity
  8
치수문자_일반주서
 62
     0
370
    -2
100
AcDbLine
 10
128.6000000000062
 20
25.40000000000004
 30
0.0
 11
128.6000000000061
 21
55.25400000000005
 31
0.0
  0
LINE
  5
2A4
330
29E
100
AcDbEntity
  8
치수문자_일반주서
 62
     0
370
    -2
100
AcDbLine
 10
128.6000000000062
 20
22.09800000000005
 30
0.0
 11
128.6000000000063
 21
-22.09799999999996
 31
0.0
  0
SOLID
  5
2A5
330
29E
100
AcDbEntity
  8
치수문자_일반주서
 62
     0
100
AcDbTrace
 10
129.1503333333395
 20
22.09800000000005
 30
0.0
 11
128.0496666666728
 21
22.09800000000004
 31
0.0
 12
128.6000000000062
 22
25.40000000000004
 32
0.0
 13
128.6000000000062
 23
25.40000000000004
 33
0.0
  0
SOLID
  5
2A6
330
29E
100
AcDbEntity
  8
치수문자_일반주서
 62
     0
100
AcDbTrace
 10
128.049666666673
 20
-22.09799999999996
 30
0.0
 11
129.1503333333397
 21
-22.09799999999995
 31
0.0
 12
128.6000000000063
 22
-25.39999999999996
 32
0.0
 13
128.6000000000063
 23
-25.39999999999996
 33
0.0
  0
MTEXT
  5
2A7
330
29E
100
AcDbEntity
  8
치수문자_일반주서
 62
     0
100
AcDbMText
 10
123.7250000000061
 20
43.62900000000004
 30
0.0
 40
4.0
 41
0.0
 71
     2
 72
     1
  1
\A1;%%c50.8 [2]
  7
SLDTEXTSTYLE0
 11
-3.356894814614647E-15
 21
1.0
 31
0.0
 73
     1
 44
1.0
  0
POINT
  5
2A8
330
29E
100
AcDbEntity
  8
Defpoints
 62
     0
100
AcDbPoint
 10
113.6000000000063
 20
25.39999999999999
 30
0.0
  0
POINT
  5
2A9
330
29E
100
AcDbEntity
  8
Defpoints
 62
     0
100
AcDbPoint
 10
113.6000000000063
 20
-25.40000000000001
 30
0.0
  0
POINT
  5
2AA
330
29E
100
AcDbEntity
  8
Defpoints
 62
     0
100
AcDbPoint
 10
128.6000000000063
 20
-25.39999999999995
 30
0.0
  0
ENDBLK
  5
2A0
330
29E
100
AcDbEntity
  8
0
100
AcDbBlockEnd
  0
ENDSEC
  0
SECTION
  2
ENTITIES
  0
LINE
  5
9D
330
1F
100
AcDbEntity
  8
참조1
100
AcDbLine
 10
18.41194598552359
 20
0.0010749287238892
 30
0.0
 11
18.4119459855236
 21
-39.99892507127611
 31
0.0
  0
LINE
  5
9E
330
1F
100
AcDbEntity
  8
참조1
100
AcDbLine
 10
18.4119459855236
 20
-39.99892507127611
 30
0.0
 11
3.253089171214916
 21
-39.9989250712761
 31
0.0
  0
INSERT
  5
A0
330
1F
100
AcDbEntity
  8
0
  6
Continuous
 62
     7
100
AcDbBlockReference
 66
     1
  2
블럭10
 10
4.471673053398387
 20
-52.04609937292004
 30
0.0
  0
ATTRIB
  5
A1
330
A0
100
AcDbEntity
  8
FORMAT
 62
     2
100
AcDbText
 10
-4.709622235342893
 20
-49.97073246008785
 30
0.0
 40
4.233333333333333
  1
E1035200 [ 6 FLUTE ]
 41
0.75
  7
SLDTEXTSTYLE0
 11
-4.709622235342893
 21
-52.08739912675452
 31
0.0
100
AcDbAttribute
  2
AUTOATTR0
 70
     0
 74
     1
  0
SEQEND
  5
A2
330
A0
100
AcDbEntity
  8
0
  6
Continuous
 62
     7
  0
HATCH
  5
A3
330
1F
100
AcDbEntity
  8
중심선
100
AcDbHatch
 10
0.0
 20
0.0
 30
0.0
210
0.0
220
0.0
230
1.0
  2
SOLID
 70
     1
 71
     0
 91
        1
 92
        0
 93
        4
 72
     1
 10
10.18658235777922
 20
-35.7989250712761
 11
6.74030711394194
 21
-35.7989250712761
 72
     1
 10
6.74030711394194
 20
-35.7989250712761
 11
4.612077254737917
 21
-38.3352506518487
 72
     1
 10
4.612077254737917
 20
-38.3352506518487
 11
8.058385583688349
 21
-38.33521122254621
 72
     1
 10
8.058385583688349
 20
-38.33521122254621
 11
10.18658235777922
 21
-35.7989250712761
 97
        0
 75
     0
 76
     1
 98
        1
 10
0.0
 20
0.0
  0
HATCH
  5
A4
330
1F
100
AcDbEntity
  8
중심선
100
AcDbHatch
 10
0.0
 20
0.0
 30
0.0
210
0.0
220
0.0
230
1.0
  2
SOLID
 70
     1
 71
     0
 91
        1
 92
        0
 93
        4
 72
     1
 10
15.1993463488152
 20
-35.7989250712761
 11
11.75307110497792
 21
-35.7989250712761
 72
     1
 10
11.75307110497792
 20
-35.7989250712761
 11
7.221933096620504
 21
-41.19892507127612
 72
     1
 10
7.221933096620504
 20
-41.19892507127612
 11
10.66820834045778
 21
-41.19892507127612
 72
     1
 10
10.66820834045778
 20
-41.19892507127612
 11
15.1993463488152
 21
-35.7989250712761
 97
        0
 75
     0
 76
     1
 98
        1
 10
0.0
 20
0.0
  0
HATCH
  5
A5
330
1F
100
AcDbEntity
  8
중심선
100
AcDbHatch
 10
0.0
 20
0.0
 30
0.0
210
0.0
220
0.0
230
1.0
  2
SOLID
 70
     1
 71
     0
 91
        1
 92
        0
 93
        4
 72
     1
 10
20.21211033985107
 20
-35.7989250712761
 11
16.76583509601396
 21
-35.7989250712761
 72
     1
 10
16.76583509601396
 20
-35.7989250712761
 11
9.717398194124705
 21
-44.19892507127612
 72
     1
 10
9.717398194124705
 20
-44.19892507127612
 11
13.16367343796199
 21
-44.19892507127612
 72
     1
 10
13.16367343796199
 20
-44.19892507127612
 11
20.21211033985107
 21
-35.7989250712761
 97
        0
 75
     0
 76
     1
 98
        1
 10
0.0
 20
0.0
  0
HATCH
  5
A6
330
1F
100
AcDbEntity
  8
중심선
100
AcDbHatch
 10
0.0
 20
0.0
 30
0.0
210
0.0
220
0.0
230
1.0
  2
SOLID
 70
     1
 71
     0
 91
        1
 92
        0
 93
        6
 72
     3
 10
25.01200077086327
 20
-39.99892507132738
 11
3.960054785062283
 21
1.540882976769353E-10
 40
0.3939339440162628
 50
17.09539180608437
 51
320.0019657685075
 73
     0
 72
     1
 10
26.69500042656387
 20
-38.58681907591438
 11
29.0003023002649
 21
-36.65249236586649
 72
     3
 10
25.01200077081042
 20
-39.99892507127625
 11
6.600054785286829
 21
-1.278976924368180E-13
 40
0.636358354079598
 50
39.99873849337408
 51
368.4976242363725
 73
     1
 72
     1
 10
31.43733326271103
 20
-39.03892507120613
 11
23.69206807764634
 21
-39.0389250712061
 72
     1
 10
23.69206807764634
 20
-39.0389250712061
 11
23.69204303320041
 21
-40.95892507120602
 72
     1
 10
23.69204303320041
 20
-40.95892507120602
 11
28.13342280267245
 21
-40.95892507120599
 97
        0
 75
     0
 76
     1
 98
        1
 10
0.0
 20
0.0
  0
LINE
  5
F7
330
1F
100
AcDbEntity
  8
참조1
100
AcDbLine
 10
101.2254298008692
 20
7.441074928723896
 30
0.0
 11
101.2254298008692
 21
-7.438925071276109
 31
0.0
  0
LINE
  5
F8
330
1F
100
AcDbEntity
  8
참조1
100
AcDbLine
 10
113.9254298008692
 20
5.441074928723896
 30
0.0
 11
101.2254298008692
 21
5.441074928723896
 31
0.0
  0
SOLID
  5
F9
330
1F
100
AcDbEntity
  8
참조1
100
AcDbTrace
 10
101.2254298008692
 20
5.441074928723896
 30
0.0
 11
107.5754298008692
 21
4.425074928723896
 31
0.0
 12
107.5754298008692
 22
6.457074928723896
 32
0.0
 13
107.5754298008692
 23
6.457074928723896
 33
0.0
  0
LINE
  5
FA
330
1F
100
AcDbEntity
  8
참조1
100
AcDbLine
 10
113.9254298008692
 20
-5.438925071276109
 30
0.0
 11
101.2254298008692
 21
-5.438925071276109
 31
0.0
  0
SOLID
  5
FB
330
1F
100
AcDbEntity
  8
참조1
100
AcDbTrace
 10
101.2254298008692
 20
-5.438925071276109
 30
0.0
 11
107.5754298008692
 21
-6.454925071276109
 31
0.0
 12
107.5754298008692
 22
-4.422925071276109
 32
0.0
 13
107.5754298008692
 23
-4.422925071276109
 33
0.0
  0
MTEXT
  5
FC
330
1F
100
AcDbEntity
  8
참조1
100
AcDbMText
 10
110.6229198933395
 20
10.98929157337383
 30
0.0
 40
3.5
 41
0.0
 71
     1
 72
     1
  1
A
  7
SLDTEXTSTYLE0
 73
     1
 44
1.0
  0
MTEXT
  5
FD
330
1F
100
AcDbEntity
  8
참조1
100
AcDbMText
 10
110.6229198933395
 20
0.1092915733738259
 30
0.0
 40
3.5
 41
0.0
 71
     1
 72
     1
  1
A
  7
SLDTEXTSTYLE0
 73
     1
 44
1.0
  0
LINE
  5
220
330
1F
100
AcDbEntity
  8
0
  6
Continuous
 62
     1
370
    15
100
AcDbLine
 10
39.02235585636072
 20
4.977994613425331
 30
0.0
 11
38.91725590026778
 21
5.080055805172414
 31
0.0
1001
PE_URL
1000

  0
LINE
  5
221
330
1F
100
AcDbEntity
  8
0
  6
Continuous
 62
     1
370
    15
100
AcDbLine
 10
108.3772852126091
 20
-4.974378274564156
 30
0.0
 11
108.4863578898708
 21
-5.080121609855841
 31
0.0
1001
PE_URL
1000

  0
LINE
  5
222
330
1F
100
AcDbEntity
  8
0
  6
Continuous
 62
     1
370
    15
100
AcDbLine
 10
81.76242480962568
 20
-4.96001679226546
 30
0.0
 11
81.88630913466216
 21
-5.079977878798825
 31
0.0
1001
PE_URL
1000

  0
LINE
  5
223
330
1F
100
AcDbEntity
  8
0
  6
Continuous
 62
     1
370
    15
100
AcDbLine
 10
63.47167383169867
 20
25.39999999999999
 30
0.0
 11
57.33160962034427
 21
25.39999999999999
 31
0.0
1001
PE_URL
1000

  0
LINE
  5
224
330
1F
100
AcDbEntity
  8
0
  6
Continuous
 62
     1
370
    15
100
AcDbLine
 10
57.33160962034407
 20
-25.40000000000001
 30
0.0
 11
63.47167383169852
 21
-25.40000000000001
 31
0.0
1001
PE_URL
1000

  0
LINE
  5
225
330
1F
100
AcDbEntity
  8
0
  6
Continuous
 62
     1
370
    15
100
AcDbLine
 10
110.528558620104
 20
-25.40000000000001
 30
0.0
 11
113.6000000000063
 21
-25.40000000000001
 31
0.0
1001
PE_URL
1000

  0
LINE
  5
226
330
1F
100
AcDbEntity
  8
0
  6
Continuous
 62
     1
370
    15
100
AcDbLine
 10
36.87435789369857
 20
25.39999999999999
 30
0.0
 11
30.73316622413103
 21
25.39999999999999
 31
0.0
1001
PE_URL
1000

  0
LINE
  5
227
330
1F
100
AcDbEntity
  8
0
  6
Continuous
 62
     1
370
    15
100
AcDbLine
 10
83.93179095189981
 20
-25.40000000000001
 30
0.0
 11
90.07194925241967
 21
-25.40000000000001
 31
0.0
1001
PE_URL
1000

  0
LINE
  5
228
330
1F
100
AcDbEntity
  8
0
  6
Continuous
 62
     1
370
    15
100
AcDbLine
 10
90.07194925241964
 20
25.39999999999999
 30
0.0
 11
83.93179095190004
 21
25.39999999999999
 31
0.0
1001
PE_URL
1000

  0
LINE
  5
229
330
1F
100
AcDbEntity
  8
0
  6
Continuous
 62
     1
370
    15
100
AcDbLine
 10
30.73316622413103
 20
-25.40000000000001
 30
0.0
 11
36.8743578936984
 21
-25.40000000000001
 31
0.0
1001
PE_URL
1000

  0
LINE
  5
22A
330
1F
100
AcDbEntity
  8
0
  6
Continuous
 62
     1
370
    15
100
AcDbLine
 10
113.6000000000063
 20
25.39999999999999
 30
0.0
 11
110.528558620104
 21
25.39999999999999
 31
0.0
1001
PE_URL
1000

  0
SPLINE
  5
22B
330
1F
100
AcDbEntity
  8
0
  6
Continuous
 62
     1
370
    15
100
AcDbSpline
210
0.0
220
0.0
230
1.0
 70
     8
 71
     3
 72
    25
 73
    21
 74
     0
 42
0.000000001
 43
0.00000001
 40
0.0
 40
0.0
 40
0.0
 40
0.0
 40
0.0570658155180384
 40
0.1141334416576412
 40
0.1712054606406237
 40
0.22828444811829
 40
0.2853708427850415
 40
0.3424508322712861
 40
0.3995235468623539
 40
0.4589046005530538
 40
0.5182842495957846
 40
0.5776633623277226
 40
0.6370428074770996
 40
0.6964234535297529
 40
0.755806168096069
 40
0.8151918172793137
 40
0.8745812650463612
 40
0.9339750277525133
 40
0.9933666505255293
 40
0.9999999999999999
 40
0.9999999999999999
 40
0.9999999999999999
 40
0.9999999999999999
 10
12.0000000000063
 20
11.17824636190393
 30
0.0
 10
13.17360853577372
 20
10.10354914712914
 30
0.0
 10
15.52086284432882
 20
7.954120618882563
 30
0.0
 10
19.04190138386706
 20
4.519808431724556
 30
0.0
 10
22.56335383995764
 20
1.014033220897609
 30
0.0
 10
26.08538580724647
 20
-2.515525042995897
 30
0.0
 10
29.60795476563482
 20
-5.995486659646978
 30
0.0
 10
33.13007922957848
 20
-9.360880268486781
 30
0.0
 10
36.69910134398378
 20
-12.58939893603403
 30
0.0
 10
40.31557993176284
 20
-15.60863727185889
 30
0.0
 10
43.97938921930844
 20
-18.34320727685916
 30
0.0
 10
47.64316578087437
 20
-20.69670275140161
 30
0.0
 10
51.30696852179761
 20
-22.62031655432457
 30
0.0
 10
54.97088388088667
 20
-24.07378057619412
 30
0.0
 10
58.63498949638648
 20
-25.02807392606964
 30
0.0
 10
62.29937012772507
 20
-25.45892419512581
 30
0.0
 10
65.9640828122516
 20
-25.37384286638023
 30
0.0
 10
69.62910822979353
 20
-24.71297124026127
 30
0.0
 10
72.20890338037788
 20
-24.01400038089089
 30
0.0
 10
73.56693490101901
 20
-23.4050783444333
 30
0.0
 10
73.70337263612305
 20
-23.34390160276972
 30
0.0
1001
PE_URL
1000

  0
SPLINE
  5
22C
330
1F
100
AcDbEntity
  8
외형선
  6
Continuous
370
    15
100
AcDbSpline
210
0.0
220
0.0
230
1.0
 70
    24
 71
     3
 72
    16
 73
    12
 74
     0
 42
0.000000001
 43
0.00000001
 40
0.0
 40
0.0
 40
0.0
 40
0.0
 40
0.107671619294072
 40
0.2179085259204825
 40
0.3361740907577431
 40
0.4578693649871626
 40
0.5761349298244252
 40
0.6978302040538471
 40
0.816095768891107
 40
0.9377910431205255
 40
0.9999999999999999
 40
0.9999999999999999
 40
0.9999999999999999
 40
0.9999999999999999
 10
12.00000000000634
 20
24.19184784444616
 30
0.0
 10
12.00000000000631
 20
23.73378617543559
 30
0.0
 10
12.00000000000622
 20
22.80674947134228
 30
0.0
 10
12.00000000000635
 20
21.25836097111059
 30
0.0
 10
12.00000000000644
 20
19.59953486975737
 30
0.0
 10
12.00000000000637
 20
17.88865971854928
 30
0.0
 10
12.0000000000063
 20
16.20170036378807
 30
0.0
 10
12.00000000000622
 20
14.61217909974913
 30
0.0
 10
12.00000000000639
 20
13.150818154194
 30
0.0
 10
12.00000000000625
 20
12.03889946136824
 30
0.0
 10
12.0000000000063
 20
11.50484926749713
 30
0.0
 10
12.00000000000632
 20
11.32419705910758
 30
0.0
  0
SPLINE
  5
22D
330
1F
100
AcDbEntity
  8
0
  6
Continuous
 62
     1
370
    15
100
AcDbSpline
210
0.0
220
0.0
230
1.0
 70
     8
 71
     3
 72
    27
 73
    23
 74
     0
 42
0.000000001
 43
0.00000001
 40
0.0
 40
0.0
 40
0.0
 40
0.0
 40
0.0460025253348315
 40
0.0969424473427738
 40
0.147885249948177
 40
0.1988316731722976
 40
0.2497799320414824
 40
0.3007244895348918
 40
0.3516657885846185
 40
0.4026045703056534
 40
0.4535415776455956
 40
0.504477554844859
 40
0.5554132468948251
 40
0.6063493989948004
 40
0.6572867560086436
 40
0.7062440085022905
 40
0.7552075014364458
 40
0.8041764887656302
 40
0.8531391221719472
 40
0.9020957779695916
 40
0.9510486655647936
 40
1.0
 40
1.0
 40
1.0
 40
1.0
 10
83.93179095189987
 20
-25.37690365740651
 30
0.0
 10
82.82879890239735
 20
-25.34474146318504
 30
0.0
 10
80.50443197036213
 20
-25.2769651444493
 30
0.0
 10
76.95853253345831
 20
-24.5258314021032
 30
0.0
 10
73.29399575552407
 20
-23.28768745717209
 30
0.0
 10
69.62911621172358
 20
-21.55289867085797
 30
0.0
 10
65.96408067363552
 20
-19.37376222282234
 30
0.0
 10
62.29937070070818
 20
-16.79112618143503
 30
0.0
 10
58.63498934286849
 20
-13.85996181975676
 30
0.0
 10
54.97088392201925
 20
-10.64085732095482
 30
0.0
 10
51.30696851077653
 20
-7.200768267689561
 30
0.0
 10
47.64316578382744
 20
-3.611121418174537
 30
0.0
 10
43.97938921851704
 20
0.0535350782858899
 30
0.0
 10
40.31557993197518
 20
3.717080846783503
 30
0.0
 10
36.69910134392936
 20
7.256990594422568
 30
0.0
 10
33.13007922959284
 20
10.60540758517958
 30
0.0
 10
29.60795476563101
 20
13.70599134314994
 30
0.0
 10
26.08538580724741
 20
16.54270332937203
 30
0.0
 10
22.5633538399574
 20
19.06447702207544
 30
0.0
 10
19.04190138386713
 20
21.21128986270418
 30
0.0
 10
15.52086284432882
 20
22.98430843772396
 30
0.0
 10
13.17360853577378
 20
23.78933896589377
 30
0.0
 10
12.00000000000634
 20
24.19184784444601
 30
0.0
1001
PE_URL
1000

  0
LINE
  5
22E
330
1F
100
AcDbEntity
  8
0
  6
Continuous
 62
     1
370
    15
100
AcDbLine
 10
113.6000000000063
 20
-9.954726314670602
 30
0.0
 11
113.6000000000063
 21
9.954726314671063
 31
0.0
1001
PE_URL
1000

  0
SPLINE
  5
22F
330
1F
100
AcDbEntity
  8
0
  6
Continuous
 62
     1
370
    15
100
AcDbSpline
210
0.0
220
0.0
230
1.0
 70
     8
 71
     3
 72
    21
 73
    17
 74
     0
 42
0.000000001
 43
0.00000001
 40
0.0
 40
0.0
 40
0.0
 40
0.0
 40
0.049717666785699
 40
0.1228270783238437
 40
0.1959338557595981
 40
0.2690354377027149
 40
0.3421328860642355
 40
0.4152272657629
 40
0.4883196439524499
 40
0.5614110892453841
 40
0.6345026709343903
 40
0.7075954582126969
 40
0.7806905193945822
 40
0.853788921137284
 40
0.9268917276655411
 40
1.0
 40
1.0
 40
1.0
 40
1.0
 10
63.47167383169869
 20
25.3425255996245
 30
0.0
 10
64.30245065732922
 20
25.34171852564001
 30
0.0
 10
66.3548778291671
 20
25.33972465613814
 30
0.0
 10
69.62911960835709
 20
24.73079671858214
 30
0.0
 10
73.29399464117841
 20
23.61014103363802
 30
0.0
 10
76.95853359441384
 20
21.97890955835832
 30
0.0
 10
80.62276335547725
 20
19.89646532469897
 30
0.0
 10
84.28676193909405
 20
17.39928067289826
 30
0.0
 10
87.95061011801849
 20
14.5410536472833
 30
0.0
 10
91.61438812463788
 20
11.38068775104695
 30
0.0
 10
95.27817633675608
 20
7.983849122954645
 30
0.0
 10
98.94205543675565
 20
4.421403179607154
 30
0.0
 10
102.6061046926669
 20
0.7659834883546708
 30
0.0
 10
106.2704082786435
 20
-2.901453330019855
 30
0.0
 10
109.9350313146824
 20
-6.523577688187842
 30
0.0
 10
112.3783133258422
 20
-8.810981602516186
 30
0.0
 10
113.6000000000063
 20
-9.954726314670602
 30
0.0
1001
PE_URL
1000

  0
SPLINE
  5
230
330
1F
100
AcDbEntity
  8
0
  6
Continuous
 62
     1
370
    15
100
AcDbSpline
210
0.0
220
0.0
230
1.0
 70
     8
 71
     3
 72
    18
 73
    14
 74
     0
 42
0.000000001
 43
0.00000001
 40
0.0
 40
0.0
 40
0.0
 40
0.0
 40
0.0918559907154012
 40
0.1837051139857394
 40
0.2755487029173755
 40
0.3673880946424097
 40
0.4592246293492247
 40
0.5510596493081721
 40
0.6428944978939517
 40
0.7347305186062241
 40
0.8265690540900363
 40
0.918411445157599
 40
1.0
 40
1.0
 40
1.0
 40
1.0
 10
113.6000000000063
 20
9.95472631467107
 30
0.0
 10
112.3783133258255
 20
11.05852741601391
 30
0.0
 10
109.9350313146325
 20
13.26604709503004
 30
0.0
 10
106.2704082788431
 20
16.24632986929191
 30
0.0
 10
102.6061046919185
 20
18.90381924459927
 30
0.0
 10
98.94205543954968
 20
21.16456045609716
 30
0.0
 10
95.27817632632875
 20
22.98658806866375
 30
0.0
 10
91.61438816355275
 20
24.33102713144272
 30
0.0
 10
87.95060997278597
 20
25.16921766223098
 30
0.0
 10
84.2867624811233
 20
25.48779150901824
 30
0.0
 10
80.62276133249964
 20
25.26469417248202
 30
0.0
 10
77.09497473557806
 20
24.58834084605379
 30
0.0
 10
74.78845010305656
 20
23.74203585975466
 30
0.0
 10
73.70337263612322
 20
23.34390160276969
 30
0.0
1001
PE_URL
1000

  0
SPLINE
  5
231
330
1F
100
AcDbEntity
  8
0
  6
Continuous
 62
     1
370
    15
100
AcDbSpline
210
0.0
220
0.0
230
1.0
 70
     8
 71
     3
 72
    32
 73
    28
 74
     0
 42
0.000000001
 43
0.00000001
 40
0.0
 40
0.0
 40
0.0
 40
0.0
 40
0.0398766735065844
 40
0.0797546122463789
 40
0.1196356206344321
 40
0.1595214984944238
 40
0.1994125523789427
 40
0.2392991304264035
 40
0.2791806248941914
 40
0.3206751495760038
 40
0.3621686927124208
 40
0.4036618610834868
 40
0.4451552617425095
 40
0.486649501573415
 40
0.5281451868483791
 40
0.569642922786425
 40
0.6111433131137007
 40
0.652646718650981
 40
0.6941486288374243
 40
0.7356475896000744
 40
0.7771442037741019
 40
0.8186390759021153
 40
0.860132811795508
 40
0.9016260180937948
 40
0.9431193018226253
 40
0.9846132699511875
 40
0.9999999999999999
 40
0.9999999999999999
 40
0.9999999999999999
 40
0.9999999999999999
 10
12.00000000000632
 20
25.34146750268845
 30
0.0
 10
13.17360853577379
 20
25.21488614959905
 30
0.0
 10
15.52086284432887
 20
24.96171942716419
 30
0.0
 10
19.04190138386713
 20
23.97265383075248
 30
0.0
 10
22.56335383995743
 20
22.558413960013
 30
0.0
 10
26.08538580724746
 20
20.70176891990082
 30
0.0
 10
29.60795476563104
 20
18.45043920360083
 30
0.0
 10
33.13007922959289
 20
15.84418138387359
 30
0.0
 10
36.69910134392899
 20
12.89485049525743
 30
0.0
 10
40.31557993197671
 20
9.646069092455733
 30
0.0
 10
43.9793892185113
 20
6.154297316171139
 30
0.0
 10
47.64316578384913
 20
2.534679191873686
 30
0.0
 10
51.30696851069555
 20
-1.137600686322486
 30
0.0
 10
54.97088392232172
 20
-4.786285898813421
 30
0.0
 10
58.63498934173958
 20
-8.33560088604694
 30
0.0
 10
62.29937070492193
 20
-11.71182237904476
 30
0.0
 10
65.964080657908
 20
-14.84481868837157
 30
0.0
 10
69.62911627042308
 20
-17.66932110758428
 30
0.0
 10
73.29399553647045
 20
-20.12674601342549
 30
0.0
 10
76.95853335089402
 20
-22.16599906145093
 30
0.0
 10
80.62276343434078
 20
-23.74451244167616
 30
0.0
 10
84.28676186714662
 20
-24.83031134062475
 30
0.0
 10
87.95061032694139
 20
-25.39799593175078
 30
0.0
 10
91.61438736090093
 20
-25.44652691849365
 30
0.0
 10
95.2781791828105
 20
-24.9348416099448
 30
0.0
 10
98.17359837883095
 20
-24.2142971971201
 30
0.0
 10
99.8477926829269
 20
-23.5035603895378
 30
0.0
 10
100.3006769939818
 20
-23.31129982058484
 30
0.0
1001
PE_URL
1000

  0
SPLINE
  5
232
330
1F
100
AcDbEntity
  8
0
  6
Continuous
 62
     1
370
    15
100
AcDbSpline
210
0.0
220
0.0
230
1.0
 70
     8
 71
     3
 72
    33
 73
    29
 74
     0
 42
0.000000001
 43
0.00000001
 40
0.0
 40
0.0
 40
0.0
 40
0.0
 40
0.0065931287245661
 40
0.0472984430211206
 40
0.0880013046323553
 40
0.1287023061429398
 40
0.1694020414920149
 40
0.2101011055413994
 40
0.2508000936423328
 40
0.2914996012014339
 40
0.3322002232465776
 40
0.37290255399337
 40
0.4136071864129168
 40
0.454314711801568
 40
0.495023703918663
 40
0.535729738539651
 40
0.5764331695788655
 40
0.6171345892065783
 40
0.6578345910573636
 40
0.6985337697987888
 40
0.7392327206984631
 40
0.7799320391901342
 40
0.8206323204395173
 40
0.8597504463593009
 40
0.8988735585543587
 40
0.9380010609148293
 40
0.9771234863246511
 40
1.0
 40
1.0
 40
1.0
 40
1.0
 10
110.528558620104
 20
-25.36415769641005
 30
0.0
 10
110.3306953014164
 20
-25.37556267883507
 30
0.0
 10
108.9112437335985
 20
-25.45738087682913
 30
0.0
 10
106.2704148572153
 20
-25.10020175913024
 30
0.0
 10
102.6061029300986
 20
-24.26660097584018
 30
0.0
 10
98.94205590892696
 20
-22.87970981681402
 30
0.0
 10
95.27817621054925
 20
-21.03070255052969
 30
0.0
 10
91.61438815730847
 20
-18.74128986556997
 30
0.0
 10
87.95061011354201
 20
-16.0634964428501
 30
0.0
 10
84.2867619243288
 20
-13.0517288394894
 30
0.0
 10
80.62276341901799
 20
-9.768843956484183
 30
0.0
 10
76.95853335500016
 20
-6.28292153810855
 30
0.0
 10
73.29399553536987
 20
-2.666365054368242
 30
0.0
 10
69.62911627071861
 20
1.005650907607617
 30
0.0
 10
65.96408065782646
 20
4.656701154477709
 30
0.0
 10
62.29937070495265
 20
8.211075149605982
 30
0.0
 10
58.63498934169857
 20
11.59472904559494
 30
0.0
 10
54.97088392245502
 20
14.7374182490235
 30
0.0
 10
51.30696851020326
 20
17.57389044490058
 30
0.0
 10
47.64316578568449
 20
20.04524549752534
 30
0.0
 10
43.97938921166195
 20
22.10020639019723
 30
0.0
 10
40.315579957539
 20
23.6959569823986
 30
0.0
 10
36.69910125009432
 20
24.78555352205342
 30
0.0
 10
33.13007956468658
 20
25.36730136818027
 30
0.0
 10
29.60795351315298
 20
25.45989122535959
 30
0.0
 10
26.08539048230989
 20
25.0435357899203
 30
0.0
 10
23.0507125438543
 20
24.33594995853577
 30
0.0
 10
21.19032678837053
 20
23.5890763785794
 30
0.0
 10
20.50387729738353
 20
23.31349321671017
 30
0.0
1001
PE_URL
1000

  0
LINE
  5
233
330
1F
100
AcDbEntity
  8
0
  6
Continuous
 62
     1
370
    15
100
AcDbLine
 10
113.6000000000063
 20
-25.21464479297016
 30
0.0
 11
113.6000000000063
 21
-15.21257520058865
 31
0.0
1001
PE_URL
1000

  0
SPLINE
  5
234
330
1F
100
AcDbEntity
  8
0
  6
Continuous
 62
     1
370
    15
100
AcDbSpline
210
0.0
220
0.0
230
1.0
 70
     8
 71
     3
 72
    28
 73
    24
 74
     0
 42
0.000000001
 43
0.00000001
 40
0.0
 40
0.0
 40
0.0
 40
0.0
 40
0.0448522445940303
 40
0.0926060596612277
 40
0.1403594434209514
 40
0.1881130945147056
 40
0.2358677113890578
 40
0.2836239917865281
 40
0.3313826322375918
 40
0.3791443275546132
 40
0.4269094929966243
 40
0.4746729374791335
 40
0.5224329875482535
 40
0.5701903369909473
 40
0.6179456815592218
 40
0.6656997184652954
 40
0.7134531458744486
 40
0.761206662396355
 40
0.8089609665757075
 40
0.856716756382948
 40
0.9044747287059098
 40
0.9522355788431826
 40
1.0
 40
1.0
 40
1.0
 40
1.0
 10
36.87435789369857
 20
25.38493361875551
 30
0.0
 10
38.02143877115694
 20
25.34614081463514
 30
0.0
 10
40.38980720256203
 20
25.26604563176717
 30
0.0
 10
43.97939110303668
 20
24.49016419795989
 30
0.0
 10
47.64316527889136
 20
23.23335921761899
 30
0.0
 10
51.30696864600139
 20
21.48214716471069
 30
0.0
 10
54.97088388606639
 20
19.28779218187609
 30
0.0
 10
58.6349893514498
 20
16.69185171390047
 30
0.0
 10
62.29937070233862
 20
13.74928977428871
 30
0.0
 10
65.96408065853001
 20
10.52089290729308
 30
0.0
 10
69.62911627051847
 20
7.073988961291818
 30
0.0
 10
73.29399553546702
 20
3.48003558650182
 30
0.0
 10
76.95853335481183
 20
-0.1861640479289157
 30
0.0
 10
80.62276341967393
 20
-3.848389786692877
 30
0.0
 10
84.2867619218934
 20
-7.43058540379959
 30
0.0
 10
87.95061012262724
 20
-10.8583806384669
 30
0.0
 10
91.61438812340293
 20
-14.06053106639754
 30
0.0
 10
95.27817633708696
 20
-16.97078674386687
 30
0.0
 10
98.94205543666698
 20
-19.52778978574423
 30
0.0
 10
102.6061046926906
 20
-21.68184878846662
 30
0.0
 10
106.2704082786372
 20
-23.37542742838582
 30
0.0
 10
109.935031314684
 20
-24.6210034790236
 30
0.0
 10
112.3783133258427
 20
-25.01675942347546
 30
0.0
 10
113.6000000000063
 20
-25.21464479297016
 30
0.0
1001
PE_URL
1000

  0
SPLINE
  5
235
330
1F
100
AcDbEntity
  8
0
  6
Continuous
 62
     1
370
    15
100
AcDbSpline
210
0.0
220
0.0
230
1.0
 70
     8
 71
     3
 72
    26
 73
    22
 74
     0
 42
0.000000001
 43
0.00000001
 40
0.0
 40
0.0
 40
0.0
 40
0.0
 40
0.055110845754811
 40
0.1102175712480838
 40
0.1653209763037435
 40
0.2204218631610381
 40
0.2755210358928939
 40
0.330619299821356
 40
0.3857174609310455
 40
0.4408163252815563
 40
0.4959166984197396
 40
0.5510193847927998
 40
0.6061251871631408
 40
0.6612349060258867
 40
0.7163466105409518
 40
0.77145431120716
 40
0.826558487152614
 40
0.8816599400555519
 40
0.9367594735765784
 40
0.9918578927747616
 40
1.0
 40
1.0
 40
1.0
 40
1.0
 10
113.6000000000063
 20
-15.25991847829919
 30
0.0
 10
112.3783133258427
 20
-14.25282839748287
 30
0.0
 10
109.935031314684
 20
-12.23872352909729
 30
0.0
 10
106.2704082786372
 20
-8.878274208134577
 30
0.0
 10
102.6061046926906
 20
-5.356241029495649
 30
0.0
 10
98.94205543666706
 20
-1.716911591859613
 30
0.0
 10
95.27817633708699
 20
1.956394073883281
 30
0.0
 10
91.61438812340302
 20
5.589465222281994
 30
0.0
 10
87.95061012262741
 20
9.10630084575594
 30
0.0
 10
84.28676192189286
 20
12.43401615669774
 30
0.0
 10
80.62276341967612
 20
15.50345698934942
 30
0.0
 10
76.95853335480348
 20
18.25087956412113
 30
0.0
 10
73.29399553549848
 20
20.61917690475392
 30
0.0
 10
69.62911627040097
 20
22.55916110284864
 30
0.0
 10
65.96408065896838
 20
24.03016294277779
 30
0.0
 10
62.29937070070321
 20
25.00279151661057
 30
0.0
 10
58.63498935755274
 20
25.45263071101046
 30
0.0
 10
54.97088386329145
 20
25.38592553849183
 30
0.0
 10
51.30696873099456
 20
24.74612015300126
 30
0.0
 10
48.68394947335599
 20
24.04218325684256
 30
0.0
 10
47.28221920875271
 20
23.41780076104435
 30
0.0
 10
47.10174888757211
 20
23.33741260620337
 30
0.0
1001
PE_URL
1000

  0
SPLINE
  5
236
330
1F
100
AcDbEntity
  8
0
  6
Continuous
 62
     1
370
    15
100
AcDbSpline
210
0.0
220
0.0
230
1.0
 70
     8
 71
     3
 72
    17
 73
    13
 74
     0
 42
0.000000001
 43
0.00000001
 40
0.0
 40
0.0
 40
0.0
 40
0.0
 40
0.1003110492632072
 40
0.2006252812610743
 40
0.3009472350574415
 40
0.4012814381664166
 40
0.5016286617308515
 40
0.6019646261838285
 40
0.7022878027293366
 40
0.8066686084357948
 40
0.9110469450333768
 40
1.0
 40
1.0
 40
1.0
 40
1.0
 10
12.0000000000063
 20
-14.16322114078459
 30
0.0
 10
13.17360853577159
 20
-15.11133724019045
 30
0.0
 10
15.52086284432232
 20
-17.00759952145066
 30
0.0
 10
19.04190138389308
 20
-19.45284254615515
 30
0.0
 10
22.56335383985996
 20
-21.54439143884865
 30
0.0
 10
26.08538580761126
 20
-23.21725400970992
 30
0.0
 10
29.60795476427316
 20
-24.44607498808409
 30
0.0
 10
33.13007923465915
 20
-25.20450521197713
 30
0.0
 10
36.69910132470088
 20
-25.486361301527
 30
0.0
 10
40.31558000697521
 20
-25.24646909586681
 30
0.0
 10
43.79891868370862
 20
-24.56358495955436
 30
0.0
 10
46.06096594582527
 20
-23.72380221458114
 30
0.0
 10
47.10174888757192
 20
-23.33741260620336
 30
0.0
1001
PE_URL
1000

  0
SPLINE
  5
237
330
1F
100
AcDbEntity
  8
외형선
  6
Continuous
370
    15
100
AcDbSpline
210
0.0
220
0.0
230
1.0
 70
    24
 71
     3
 72
    36
 73
    32
 74
     0
 42
0.000000001
 43
0.00000001
 40
0.0
 40
0.0
 40
0.0
 40
0.0
 40
0.1249999999999974
 40
0.1249999999999974
 40
0.1562499999999972
 40
0.1562499999999972
 40
0.187499999999997
 40
0.187499999999997
 40
0.2499999999999972
 40
0.2499999999999972
 40
0.3749999999999974
 40
0.3749999999999974
 40
0.4374999999999977
 40
0.4374999999999977
 40
0.4999999999999978
 40
0.4999999999999978
 40
0.5624999999999981
 40
0.5624999999999981
 40
0.6249999999999984
 40
0.6249999999999984
 40
0.6874999999999987
 40
0.6874999999999987
 40
0.7499999999999989
 40
0.7499999999999989
 40
0.8124999999999992
 40
0.8124999999999992
 40
0.8749999999999994
 40
0.8749999999999994
 40
0.9374999999999998
 40
0.9374999999999998
 40
1.0
 40
1.0
 40
1.0
 40
1.0
 10
12.00000000000632
 20
5.392501408060568
 30
0.0
 10
12.00000000000631
 20
5.3803793554385
 30
0.0
 10
12.0000000000063
 20
5.234552656812028
 30
0.0
 10
12.0000000000063
 20
4.975047453590456
 30
0.0
 10
12.0000000000063
 20
4.919142432772297
 30
0.0
 10
12.0000000000063
 20
4.800991993997108
 30
0.0
 10
12.00000000000632
 20
4.737627497813854
 30
0.0
 10
12.00000000000635
 20
4.524332833766621
 30
0.0
 10
12.00000000000632
 20
4.354410132169576
 30
0.0
 10
12.00000000000632
 20
3.741423827407516
 30
0.0
 10
12.00000000000631
 20
3.193880250339824
 30
0.0
 10
12.0000000000063
 20
2.089089516336237
 30
0.0
 10
12.0000000000063
 20
1.673743284947328
 30
0.0
 10
12.0000000000063
 20
0.7436168944821233
 30
0.0
 10
12.00000000000635
 20
0.2286785859768514
 30
0.0
 10
12.00000000000631
 20
-0.8956129056602471
 30
0.0
 10
12.00000000000634
 20
-1.505070312358388
 30
0.0
 10
12.00000000000634
 20
-2.798567646416924
 30
0.0
 10
12.00000000000634
 20
-3.482568026431156
 30
0.0
 10
12.00000000000634
 20
-4.889190950506279
 30
0.0
 10
12.00000000000631
 20
-5.61157870944794
 30
0.0
 10
12.00000000000634
 20
-7.046886487785251
 30
0.0
 10
12.00000000000635
 20
-7.759432661576575
 30
0.0
 10
12.00000000000634
 20
-9.124310305960353
 30
0.0
 10
12.00000000000637
 20
-9.776288460983238
 30
0.0
 10
12.00000000000634
 20
-10.97820787247879
 30
0.0
 10
12.00000000000634
 20
-11.52797313093861
 30
0.0
 10
12.0000000000063
 20
-12.50104063262452
 30
0.0
 10
12.00000000000632
 20
-12.92438711308373
 30
0.0
 10
12.00000000000632
 20
-13.63959636076382
 30
0.0
 10
12.00000000000632
 20
-13.9316470922195
 30
0.0
 10
12.00000000000632
 20
-14.16322114078437
 30
0.0
  0
SPLINE
  5
238
330
1F
100
AcDbEntity
  8
0
  6
Continuous
 62
     1
370
    15
100
AcDbSpline
210
0.0
220
0.0
230
1.0
 70
     8
 71
     3
 72
    20
 73
    16
 74
     0
 42
0.000000001
 43
0.00000001
 40
0.0
 40
0.0
 40
0.0
 40
0.0
 40
0.0520768535180156
 40
0.1329016571070859
 40
0.213724826110177
 40
0.2945475426497813
 40
0.3753709891783187
 40
0.4561963476159334
 40
0.5338797554897347
 40
0.6115730654446504
 40
0.6892750936855876
 40
0.7669670397761472
 40
0.8446495008366253
 40
0.9223259826643567
 40
1.0
 40
1.0
 40
1.0
 40
1.0
 10
57.33160962034407
 20
-25.3394610705032
 30
0.0
 10
56.54468783714225
 20
-25.34216903155173
 30
0.0
 10
54.53644037332418
 20
-25.34907982754686
 30
0.0
 10
51.30697057006302
 20
-24.76129414379139
 30
0.0
 10
47.64316523204786
 20
-23.65995241742277
 30
0.0
 10
43.97938936638099
 20
-22.04569366491325
 30
0.0
 10
40.31557989230168
 20
-19.97920120631607
 30
0.0
 10
36.69910135410083
 20
-17.52824870644215
 30
0.0
 10
33.13007922691281
 20
-14.76279757884971
 30
0.0
 10
29.60795476634925
 20
-11.75058211110047
 30
0.0
 10
26.08538580705499
 20
-8.513200392019499
 30
0.0
 10
22.56335384000892
 20
-5.111688547239329
 30
0.0
 10
19.04190138385336
 20
-1.614252203536278
 30
0.0
 10
15.52086284433224
 20
1.921463637499087
 30
0.0
 10
13.1736085357749
 20
4.235501054561695
 30
0.0
 10
12.00000000000634
 20
5.392501408060546
 30
0.0
1001
PE_URL
1000

  0
LINE
  5
239
330
1F
100
AcDbEntity
  8
0
  6
Continuous
 62
     1
370
    15
100
AcDbLine
 10
113.6000000000063
 20
-15.25991847829919
 30
0.0
 11
113.6000000000063
 21
-9.954726314670602
 31
0.0
1001
PE_URL
1000

  0
LINE
  5
23A
330
1F
100
AcDbEntity
  8
외형선
  6
Continuous
370
    15
100
AcDbLine
 10
12.00000000000634
 20
5.392501408060568
 30
0.0
 11
12.0000000000063
 21
11.17824636190393
 31
0.0
  0
LINE
  5
23B
330
1F
100
AcDbEntity
  8
0
  6
Continuous
 62
     1
370
    15
100
AcDbLine
 10
113.6000000000063
 20
-25.40000000000001
 30
0.0
 11
113.6000000000063
 21
-25.21464479297016
 31
0.0
1001
PE_URL
1000

  0
LINE
  5
23C
330
1F
100
AcDbEntity
  8
외형선
  6
Continuous
370
    15
100
AcDbLine
 10
12.00000000000634
 20
24.19184784444616
 30
0.0
 11
12.00000000000632
 21
25.34146750268845
 31
0.0
  0
SPLINE
  5
23D
330
1F
100
AcDbEntity
  8
0
  6
Continuous
 62
     1
370
    15
100
AcDbSpline
210
0.0
220
0.0
230
1.0
 70
     8
 71
     3
 72
    10
 73
     6
 74
     0
 42
0.000000001
 43
0.00000001
 40
0.0
 40
0.0
 40
0.0
 40
0.0
 40
0.4140334549371117
 40
0.8280800465988098
 40
1.0
 40
1.0
 40
1.0
 40
1.0
 10
12.00000000000634
 20
-25.34146750268846
 30
0.0
 10
13.1736104772108
 20
-25.209830643802
 30
0.0
 10
15.52086866870147
 20
-24.94655274936859
 30
0.0
 10
18.35545812556474
 20
-24.21135832083169
 30
0.0
 10
20.01652711413864
 20
-23.51716609803734
 30
0.0
 10
20.50387729738355
 20
-23.31349321671019
 30
0.0
1001
PE_URL
1000

  0
SPLINE
  5
23E
330
1F
100
AcDbEntity
  8
0
  6
Continuous
 62
     1
370
    15
100
AcDbSpline
210
0.0
220
0.0
230
1.0
 70
     8
 71
     3
 72
    14
 73
    10
 74
     0
 42
0.000000001
 43
0.00000001
 40
0.0
 40
0.0
 40
0.0
 40
0.0
 40
0.0655601825405627
 40
0.2212861541201524
 40
0.3770146942796083
 40
0.5327480791261803
 40
0.6884885812366931
 40
0.844238468005389
 40
1.0
 40
1.0
 40
1.0
 40
1.0
 10
90.07194925241967
 20
25.33560870477908
 30
0.0
 10
90.5860950122098
 20
25.35102055889895
 30
0.0
 10
92.32149801800153
 20
25.40304039462678
 30
0.0
 10
95.278175998119
 20
24.93486383669554
 30
0.0
 10
98.94205552749455
 20
23.95449094570311
 30
0.0
 10
102.6061046683603
 20
22.44641308716995
 30
0.0
 10
106.2704082851258
 20
20.47435258076453
 30
0.0
 10
109.9350313130617
 20
18.09733115960622
 30
0.0
 10
112.3783133253019
 20
16.2057462764298
 30
0.0
 10
113.6000000000063
 20
15.2599184782993
 30
0.0
1001
PE_URL
1000

  0
LINE
  5
23F
330
1F
100
AcDbEntity
  8
0
  6
Continuous
 62
     1
370
    15
100
AcDbLine
 10
113.6000000000063
 20
9.954726314671063
 30
0.0
 11
113.6000000000063
 21
15.2599184782993
 31
0.0
1001
PE_URL
1000

  0
SPLINE
  5
240
330
1F
100
AcDbEntity
  8
0
  6
Continuous
 62
     1
370
    15
100
AcDbSpline
210
0.0
220
0.0
230
1.0
 70
     8
 71
     3
 72
    11
 73
     7
 74
     0
 42
0.000000001
 43
0.00000001
 40
0.0
 40
0.0
 40
0.0
 40
0.0
 40
0.2755679081473942
 40
0.5511152139643841
 40
0.8266459167691238
 40
1.0
 40
1.0
 40
1.0
 40
1.0
 10
113.6000000000063
 20
25.21464479297017
 30
0.0
 10
112.3783131764305
 20
25.31241332421992
 30
0.0
 10
109.9350308664588
 20
25.50794307723412
 30
0.0
 10
106.2704100713366
 20
25.11191569040522
 30
0.0
 10
103.0589925281172
 20
24.40704331643494
 30
0.0
 10
101.0691363177222
 20
23.61657102519988
 30
0.0
 10
100.3006769939818
 20
23.31129982058483
 30
0.0
1001
PE_URL
1000

  0
SPLINE
  5
241
330
1F
100
AcDbEntity
  8
0
  6
Continuous
 62
     1
370
    15
100
AcDbSpline
210
0.0
220
0.0
230
1.0
 70
     8
 71
     3
 72
    13
 73
     9
 74
     0
 42
0.000000001
 43
0.00000001
 40
0.0
 40
0.0
 40
0.0
 40
0.0
 40
0.0600580988495172
 40
0.2480867489008892
 40
0.4360910014794022
 40
0.6240723015373398
 40
0.8120391326414144
 40
1.0
 40
1.0
 40
1.0
 40
1.0
 10
30.73316622413103
 20
-25.34695197784502
 30
0.0
 10
30.35812565082088
 20
-25.36185255561403
 30
0.0
 10
28.80891583031743
 20
-25.42340355316932
 30
0.0
 10
26.08537214491582
 20
-25.03419597762465
 30
0.0
 10
22.56335749882206
 20
-24.18197904962636
 30
0.0
 10
19.04190040830298
 20
-22.82399201633982
 30
0.0
 10
15.52086308820304
 20
-21.06323228592806
 30
0.0
 10
13.1736086170643
 20
-19.55396707186712
 30
0.0
 10
12.00000000000634
 20
-18.7993464363855
 30
0.0
1001
PE_URL
1000

  0
LINE
  5
242
330
1F
100
AcDbEntity
  8
0
  6
Continuous
 62
     1
370
    15
100
AcDbLine
 10
113.6000000000063
 20
25.21464479297017
 30
0.0
 11
113.6000000000063
 21
25.39999999999999
 31
0.0
1001
PE_URL
1000

  0
LINE
  5
243
330
1F
100
AcDbEntity
  8
외형선
  6
Continuous
370
    15
100
AcDbLine
 10
12.00000000000634
 20
-18.79934643638562
 30
0.0
 11
12.0000000000063
 21
-14.16322114078458
 31
0.0
  0
LINE
  5
244
330
1F
100
AcDbEntity
  8
0
  6
Continuous
 62
     1
370
    15
100
AcDbLine
 10
113.6000000000063
 20
15.25173229224731
 30
0.0
 11
113.6000000000063
 21
25.21464479297017
 31
0.0
1001
PE_URL
1000

  0
SPLINE
  5
245
330
1F
100
AcDbEntity
  8
외형선
  6
Continuous
370
    15
100
AcDbSpline
210
0.0
220
0.0
230
1.0
 70
    24
 71
     3
 72
    12
 73
     8
 74
     0
 42
0.000000001
 43
0.00000001
 40
0.0
 40
0.0
 40
0.0
 40
0.0
 40
0.1190950934682417
 40
0.3765723749142366
 40
0.6340496563602346
 40
0.8915269378062328
 40
1.0
 40
1.0
 40
1.0
 40
1.0
 10
12.0000000000063
 20
-18.94530713358927
 30
0.0
 10
12.00000000000631
 20
-19.17057378788094
 30
0.0
 10
12.00000000000635
 20
-19.882855012281
 30
0.0
 10
12.00000000000635
 20
-21.22338202280318
 30
0.0
 10
12.00000000000632
 20
-22.90568289755978
 30
0.0
 10
12.00000000000625
 20
-24.29650909502537
 30
0.0
 10
12.0000000000063
 20
-25.10254624174184
 30
0.0
 10
12.00000000000634
 20
-25.34146750268846
 30
0.0
  0
SPLINE
  5
252
330
1F
100
AcDbEntity
  8
외형선
  6
Continuous
370
    15
100
AcDbSpline
210
0.0
220
0.0
230
1.0
 70
    24
 71
     3
 72
    36
 73
    32
 74
     0
 42
0.000000001
 43
0.00000001
 40
0.0
 40
0.0
 40
0.0
 40
0.0
 40
0.0624999999999998
 40
0.0624999999999998
 40
0.1249999999999996
 40
0.1249999999999996
 40
0.1874999999999994
 40
0.1874999999999994
 40
0.2499999999999992
 40
0.2499999999999992
 40
0.3124999999999989
 40
0.3124999999999989
 40
0.3749999999999988
 40
0.3749999999999988
 40
0.4374999999999986
 40
0.4374999999999986
 40
0.4999999999999983
 40
0.4999999999999983
 40
0.5624999999999982
 40
0.5624999999999982
 40
0.6249999999999981
 40
0.6249999999999981
 40
0.749999999999998
 40
0.749999999999998
 40
0.812499999999998
 40
0.812499999999998
 40
0.8437499999999982
 40
0.8437499999999982
 40
0.8749999999999984
 40
0.8749999999999984
 40
1.0
 40
1.0
 40
1.0
 40
1.0
 10
12.00000000000632
 20
-14.16322114078435
 30
0.0
 10
12.00000000000632
 20
-13.93164709221948
 30
0.0
 10
12.0000000000063
 20
-13.63959636076379
 30
0.0
 10
12.00000000000632
 20
-12.92438711308371
 30
0.0
 10
12.0000000000063
 20
-12.50104063262451
 30
0.0
 10
12.00000000000631
 20
-11.5279731309386
 30
0.0
 10
12.00000000000634
 20
-10.97820787247878
 30
0.0
 10
12.00000000000638
 20
-9.776288460983238
 30
0.0
 10
12.00000000000632
 20
-9.124310305960357
 30
0.0
 10
12.00000000000638
 20
-7.759432661576593
 30
0.0
 10
12.00000000000634
 20
-7.046886487785272
 30
0.0
 10
12.00000000000634
 20
-5.611578709447976
 30
0.0
 10
12.00000000000635
 20
-4.889190950506322
 30
0.0
 10
12.00000000000635
 20
-3.482568026431206
 30
0.0
 10
12.00000000000635
 20
-2.79856764641697
 30
0.0
 10
12.00000000000638
 20
-1.505070312358438
 30
0.0
 10
12.00000000000634
 20
-0.8956129056603004
 30
0.0
 10
12.00000000000631
 20
0.2286785859767946
 30
0.0
 10
12.00000000000631
 20
0.7436168944820665
 30
0.0
 10
12.00000000000631
 20
1.673743284947271
 30
0.0
 10
12.00000000000632
 20
2.08908951633618
 30
0.0
 10
12.00000000000635
 20
3.193880250339774
 30
0.0
 10
12.00000000000632
 20
3.741423827407466
 30
0.0
 10
12.00000000000634
 20
4.354410132169541
 30
0.0
 10
12.00000000000631
 20
4.524332833766586
 30
0.0
 10
12.00000000000634
 20
4.737627497813826
 30
0.0
 10
12.00000000000634
 20
4.80099199399708
 30
0.0
 10
12.00000000000631
 20
4.919142432772276
 30
0.0
 10
12.00000000000637
 20
4.975047453590435
 30
0.0
 10
12.00000000000638
 20
5.234552656812006
 30
0.0
 10
12.00000000000635
 20
5.380379355438485
 30
0.0
 10
12.00000000000631
 20
5.392501408060561
 30
0.0
  0
SPLINE
  5
253
330
1F
100
AcDbEntity
  8
외형선
  6
Continuous
370
    15
100
AcDbSpline
210
0.0
220
0.0
230
1.0
 70
    24
 71
     3
 72
    16
 73
    12
 74
     0
 42
0.000000001
 43
0.00000001
 40
0.0
 40
0.0
 40
0.0
 40
0.0
 40
0.1044777327040043
 40
0.2246562577308702
 40
0.3448347827577329
 40
0.4650133077845958
 40
0.5851918328114624
 40
0.7053703578383291
 40
0.8255488828651926
 40
0.9457274078920566
 40
0.9999999999999999
 40
0.9999999999999999
 40
0.9999999999999999
 40
0.9999999999999999
 10
12.00000000000622
 20
11.32419705910758
 30
0.0
 10
12.00000000000622
 20
11.64756752816295
 30
0.0
 10
12.00000000000627
 20
12.34290420477779
 30
0.0
 10
12.0000000000063
 20
13.65567368785074
 30
0.0
 10
12.00000000000627
 20
15.16762695227384
 30
0.0
 10
12.00000000000631
 20
16.79822229039991
 30
0.0
 10
12.0000000000063
 20
18.49736053615582
 30
0.0
 10
12.00000000000642
 20
20.21758786657487
 30
0.0
 10
12.00000000000634
 20
21.90702860724749
 30
0.0
 10
12.00000000000627
 20
23.23234001101229
 30
0.0
 10
12.00000000000634
 20
23.96417150323621
 30
0.0
 10
12.00000000000637
 20
24.19184784444601
 30
0.0
  0
SPLINE
  5
254
330
1F
100
AcDbEntity
  8
외형선
  6
Continuous
370
    15
100
AcDbSpline
210
0.0
220
0.0
230
1.0
 70
    24
 71
     3
 72
    12
 73
     8
 74
     0
 42
0.000000001
 43
0.00000001
 40
0.0
 40
0.0
 40
0.0
 40
0.0
 40
0.2303975469404308
 40
0.4607950938808609
 40
0.7188000507187781
 40
0.9768050075566949
 40
1.0
 40
1.0
 40
1.0
 40
1.0
 10
12.00000000000631
 20
-25.34146750268846
 30
0.0
 10
12.0000000000063
 20
-24.83323067419765
 30
0.0
 10
12.0000000000063
 20
-23.81675701721605
 30
0.0
 10
12.0000000000062
 20
-22.22303102074795
 30
0.0
 10
12.00000000000635
 20
-20.63073994089586
 30
0.0
 10
12.00000000000622
 20
-19.50244569855075
 30
0.0
 10
12.00000000000634
 20
-18.9877520334009
 30
0.0
 10
12.00000000000632
 20
-18.94529713358927
 30
0.0
  0
LINE
  5
255
330
1F
100
AcDbEntity
  8
중심선
 62
     1
100
AcDbLine
 10
-58.49999999999369
 20
-0.0000000000000099
 30
0.0
 11
120.6000000000063
 21
0.0000000000000142
 31
0.0
  0
DIMENSION
  5
257
330
1F
100
AcDbEntity
  8
치수문자_일반주서
100
AcDbDimension
  2
*D12
 10
-73.57004507445404
 20
-15.87499999999986
 30
0.0
 11
-73.5700450744541
 21
0.0000000000000497
 31
0.0
 70
   160
  1
%%c<>
 71
     2
 42
31.75
 52
-270.0
  3
SLDDIMSTYLE0
100
AcDbAlignedDimension
 13
-49.49999999999369
 23
15.87500000000023
 33
0.0
 14
-49.49999999999369
 24
-15.87499999999977
 34
0.0
 50
90.0000000000002
100
AcDbRotatedDimension
1001
ACAD
1000
DSTYLE
1002
{
1070
   171
1070
     8
1070
   273
1070
     7
1070
   140
1040
4.0
1002
}
1001
ACAD_DSTYLE_DIMFLIPARROW_SYMBOL
1070
   385
1070
     0
1001
ACAD_DSTYLE_DIMFLIPARROW_WHICH_SYMBOL
1070
   386
1070
     3
  0
DIMENSION
  5
258
330
1F
100
AcDbEntity
  8
치수문자_일반주서
100
AcDbDimension
  2
*D13
 10
12.00000000000631
 20
40.39999999999998
 30
0.0
 11
62.80000000000635
 21
40.39999999999998
 31
0.0
 70
   160
  1
<>
 71
     2
 42
101.6
  3
SLDDIMSTYLE0
100
AcDbAlignedDimension
 13
113.6000000000063
 23
25.39999999999999
 33
0.0
 14
12.00000000000631
 24
25.34146750268844
 34
0.0
 50
0.000000000000008
100
AcDbRotatedDimension
1001
PE_URL
1000

1001
ACAD
1000
DSTYLE
1002
{
1070
   171
1070
     8
1070
   273
1070
     7
1070
   140
1040
4.0
1002
}
  0
DIMENSION
  5
259
330
1F
100
AcDbEntity
  8
치수문자_일반주서
100
AcDbDimension
  2
*D14
 10
-51.49999999999369
 20
55.39999999999998
 30
0.0
 11
15.17500000000632
 21
55.39999999999998
 31
0.0
 70
   160
  1
<>
 71
     2
 42
165.1
  3
SLDDIMSTYLE0
100
AcDbAlignedDimension
 13
113.6000000000063
 23
25.39999999999999
 33
0.0
 14
-51.49999999999369
 24
13.87500000000023
 34
0.0
 50
0.0000000000000041
100
AcDbRotatedDimension
1001
PE_URL
1000

1001
ACAD
1000
DSTYLE
1002
{
1070
   171
1070
     8
1070
   273
1070
     7
1070
   140
1040
4.0
1002
}
  0
DIMENSION
  5
25A
330
1F
100
AcDbEntity
  8
치수문자_일반주서
100
AcDbDimension
  2
*D15
 10
128.6000000000063
 20
-25.39999999999996
 30
0.0
 11
128.6000000000061
 21
43.62900000000005
 31
0.0
 70
   160
  1
%%c<>
 71
     2
 42
50.8
 52
-270.0
  3
SLDDIMSTYLE0
100
AcDbAlignedDimension
 13
113.6000000000063
 23
25.39999999999999
 33
0.0
 14
113.6000000000063
 24
-25.40000000000001
 34
0.0
 50
90.0000000000002
100
AcDbRotatedDimension
1001
PE_URL
1000

1001
ACAD
1000
DSTYLE
1002
{
1070
   171
1070
     8
1070
   273
1070
     7
1070
   140
1040
4.0
1002
}
1001
ACAD_DSTYLE_DIMFLIPARROW_SYMBOL
1070
   385
1070
     0
1001
ACAD_DSTYLE_DIMFLIPARROW_WHICH_SYMBOL
1070
   386
1070
     3
  0
LINE
  5
2AC
330
1F
100
AcDbEntity
  8
외형선
  6
Continuous
370
    15
100
AcDbLine
 10
-51.49999999999369
 20
13.48740000000022
 30
0.0
 11
-51.49999999999369
 21
-13.87499999999977
 31
0.0
  0
LINE
  5
2AD
330
1F
100
AcDbEntity
  8
외형선
  6
Continuous
370
    15
100
AcDbLine
 10
-49.49999999999369
 20
13.48740000000022
 30
0.0
 11
-49.49999999999369
 21
-15.87499999999977
 31
0.0
  0
LINE
  5
2AF
330
1F
100
AcDbEntity
  8
외형선
  6
Continuous
370
    15
100
AcDbLine
 10
-49.49999999999369
 20
-15.87499999999977
 30
0.0
 11
-51.49999999999369
 21
-13.87499999999977
 31
0.0
  0
LINE
  5
2B1
330
1F
100
AcDbEntity
  8
외형선
  6
Continuous
370
    15
100
AcDbLine
 10
-36.41239999999411
 20
15.8749999999999
 30
0.0
 11
-31.46892499999323
 21
15.87499999999977
 31
0.0
  0
LINE
  5
2B2
330
1F
100
AcDbEntity
  8
외형선
  6
Continuous
370
    15
100
AcDbLine
 10
-49.49999999999369
 20
-15.87500000000023
 30
0.0
 11
12.00000000000628
 21
-15.87499999999867
 31
0.0
  0
LINE
  5
2EC
330
1F
100
AcDbEntity
  8
외형선
  6
Continuous
370
    15
100
AcDbLine
 10
-36.4123999999938
 20
15.87500000000023
 30
0.0
 11
-31.4689249999937
 21
15.87500000000023
 31
0.0
  0
LINE
  5
2ED
330
1F
100
AcDbEntity
  8
외형선
  6
Continuous
370
    15
100
AcDbLine
 10
-29.08132499999368
 20
13.48740000000022
 30
0.0
 11
-15.97492499999368
 21
13.48740000000022
 31
0.0
  0
LINE
  5
2EE
330
1F
100
AcDbEntity
  8
외형선
  6
Continuous
370
    15
100
AcDbLine
 10
-15.97492499999368
 20
13.48740000000022
 30
0.0
 11
-13.58732499999365
 21
15.87500000000024
 31
0.0
  0
LINE
  5
2EF
330
1F
100
AcDbEntity
  8
외형선
  6
Continuous
370
    15
100
AcDbLine
 10
-29.08132499999368
 20
13.48740000000022
 30
0.0
 11
-31.4689249999937
 21
15.87500000000024
 31
0.0
  0
LINE
  5
2F0
330
1F
100
AcDbEntity
  8
외형선
  6
Continuous
370
    15
100
AcDbLine
 10
-51.49999999999369
 20
13.48740000000022
 30
0.0
 11
-38.7999999999937
 21
13.48740000000022
 31
0.0
  0
LINE
  5
2F1
330
1F
100
AcDbEntity
  8
외형선
  6
Continuous
370
    15
100
AcDbLine
 10
-38.7999999999937
 20
13.48740000000022
 30
0.0
 11
-36.4123999999938
 21
15.87500000000021
 31
0.0
  0
LINE
  5
2F2
330
1F
100
AcDbEntity
  8
외형선
  6
Continuous
370
    15
100
AcDbLine
 10
-13.58732499999459
 20
15.87499999999932
 30
0.0
 11
12.00000000000628
 21
15.87499999999867
 31
0.0
  0
CIRCLE
  5
324
330
1F
100
AcDbEntity
  8
해칭선
100
AcDbCircle
 10
0.0000000000063807
 20
0.0
 30
0.0
 40
3.000000000000001
  0
INSERT
  5
325
330
1F
100
AcDbEntity
  8
해칭선
100
AcDbBlockReference
  2
SW_DOWELSYMBOL_0
 10
0.0000000000063807
 20
0.0
 30
0.0
  0
ENDSEC
  0
SECTION
  2
OBJECTS
  0
DICTIONARY
  5
C
330
0
100
AcDbDictionary
281
     1
  3
ACAD_GROUP
350
D
  3
ACAD_IMAGE_VARS
350
128
  3
ACAD_LAYOUT
350
1A
  3
ACAD_MLINESTYLE
350
17
  3
ACAD_PLOTSETTINGS
350
19
  3
ACAD_PLOTSTYLENAME
350
E
  3
ACAD_SCALELIST
350
47
  3
APPDATA
350
126
  3
DWGPROPS
350
32E
  0
DICTIONARY
  5
1E9
330
2
100
AcDbDictionary
280
     1
281
     1
  3
ACAD_LAYERSTATES
360
1EA
  0
DICTIONARY
  5
D
102
{ACAD_REACTORS
330
C
102
}
330
C
100
AcDbDictionary
281
     1
  0
RASTERVARIABLES
  5
128
102
{ACAD_REACTORS
330
C
102
}
330
C
100
AcDbRasterVariables
 90
        0
 70
     1
 71
     1
 72
     1
  0
DICTIONARY
  5
1A
102
{ACAD_REACTORS
330
C
102
}
330
C
100
AcDbDictionary
281
     1
  3
Layout1
350
1E
  3
Layout2
350
26
  3
Model
350
22
  0
DICTIONARY
  5
17
102
{ACAD_REACTORS
330
C
102
}
330
C
100
AcDbDictionary
281
     1
  3
Standard
350
18
  0
DICTIONARY
  5
19
102
{ACAD_REACTORS
330
C
102
}
330
C
100
AcDbDictionary
281
     1
  0
ACDBDICTIONARYWDFLT
  5
E
102
{ACAD_REACTORS
330
C
102
}
330
C
100
AcDbDictionary
281
     1
  3
Normal
350
F
100
AcDbDictionaryWithDefault
340
F
  0
DICTIONARY
  5
47
102
{ACAD_REACTORS
330
C
102
}
330
C
100
AcDbDictionary
281
     1
  3
A0
350
48
  3
A1
350
49
  3
A2
350
4A
  3
A3
350
4B
  3
A4
350
4C
  3
A5
350
4D
  3
A6
350
4E
  3
A7
350
4F
  3
A8
350
50
  3
A9
350
51
  3
B0
350
52
  3
B1
350
53
  3
B2
350
54
  3
B3
350
55
  3
B4
350
56
  3
B5
350
57
  3
B6
350
58
  3
B7
350
59
  3
B8
350
5A
  3
B9
350
5B
  3
C0
350
5C
  3
C1
350
5D
  3
C2
350
5E
  3
C3
350
5F
  3
C4
350
60
  3
C5
350
61
  3
C6
350
62
  3
C7
350
63
  3
C8
350
64
  3
C9
350
65
  3
D0
350
66
  3
D1
350
67
  3
D2
350
68
  0
DICTIONARY
  5
126
102
{ACAD_REACTORS
330
C
102
}
330
C
100
AcDbDictionary
281
     1
  0
XRECORD
  5
32E
102
{ACAD_REACTORS
330
C
102
}
330
C
100
AcDbXrecord
280
     1
  1
DWGPROPS COOKIE
  2

  3

  4

  6

  7

  8
12016016
  9

300
=
301
=
302
=
303
=
304
=
305
=
306
=
307
=
308
=
309
=
 40
0.0
 41
2458323.100031053
 42
2458330.200971956
  1

 90
        0
  0
DICTIONARY
  5
1EA
102
{ACAD_REACTORS
330
1E9
102
}
330
1E9
100
AcDbDictionary
281
     1
  0
LAYOUT
  5
1E
102
{ACAD_REACTORS
330
1A
102
}
330
1A
100
AcDbPlotSettings
  1

  2
none_device
  4

  6

 40
0.0
 41
0.0
 42
0.0
 43
0.0
 44
0.0
 45
0.0
 46
0.0
 47
0.0
 48
0.0
 49
0.0
140
0.0
141
0.0
142
1.0
143
1.0
 70
   688
 72
     1
 73
     0
 74
     5
  7

 75
    16
147
1.0
148
0.0
149
0.0
100
AcDbLayout
  1
Layout1
 70
     1
 71
     1
 10
0.0
 20
0.0
 11
420.0
 21
297.0
 12
0.0
 22
0.0
 32
0.0
 14
1.000000000000000E+20
 24
1.000000000000000E+20
 34
1.000000000000000E+20
 15
-1.000000000000000E+20
 25
-1.000000000000000E+20
 35
-1.000000000000000E+20
146
0.0
 13
0.0
 23
0.0
 33
0.0
 16
1.0
 26
0.0
 36
0.0
 17
0.0
 27
1.0
 37
0.0
 76
     0
330
1B
  0
LAYOUT
  5
26
102
{ACAD_REACTORS
330
1A
102
}
330
1A
100
AcDbPlotSettings
  1

  2
none_device
  4

  6

 40
0.0
 41
0.0
 42
0.0
 43
0.0
 44
0.0
 45
0.0
 46
0.0
 47
0.0
 48
0.0
 49
0.0
140
0.0
141
0.0
142
1.0
143
1.0
 70
   688
 72
     1
 73
     0
 74
     5
  7

 75
    16
147
1.0
148
0.0
149
0.0
100
AcDbLayout
  1
Layout2
 70
     1
 71
     2
 10
0.0
 20
0.0
 11
0.0
 21
0.0
 12
0.0
 22
0.0
 32
0.0
 14
0.0
 24
0.0
 34
0.0
 15
0.0
 25
0.0
 35
0.0
146
0.0
 13
0.0
 23
0.0
 33
0.0
 16
1.0
 26
0.0
 36
0.0
 17
0.0
 27
1.0
 37
0.0
 76
     0
330
23
  0
LAYOUT
  5
22
102
{ACAD_REACTORS
330
1A
102
}
330
1A
100
AcDbPlotSettings
  1

  2
none_device
  4
ANSI_A_(11.00_x_8.50_Inches)
  6

 40
6.35
 41
19.05
 42
6.35000508
 43
19.05000254
 44
279.4
 45
215.9
 46
96.39525648754174
 47
90.09827952143297
 48
0.0
 49
0.0
140
0.0
141
0.0
142
0.0605651527843098
143
1.0
 70
  1696
 72
     0
 73
     0
 74
     0
  7

 75
     0
147
0.0235690232323232
148
0.0
149
0.0
100
AcDbLayout
  1
Model
 70
     1
 71
     0
 10
0.0
 20
0.0
 11
420.0
 21
297.0
 12
0.0
 22
0.0
 32
0.0
 14
1.000000000000000E+20
 24
1.000000000000000E+20
 34
1.000000000000000E+20
 15
-1.000000000000000E+20
 25
-1.000000000000000E+20
 35
-1.000000000000000E+20
146
0.0
 13
0.0
 23
0.0
 33
0.0
 16
1.0
 26
0.0
 36
0.0
 17
0.0
 27
1.0
 37
0.0
 76
     0
330
1F
331
29
  0
MLINESTYLE
  5
18
102
{ACAD_REACTORS
330
17
102
}
330
17
100
AcDbMlineStyle
  2
Standard
 70
     0
  3

 62
   256
 51
90.0
 52
90.0
 71
     2
 49
0.5
 62
   256
  6
BYLAYER
 49
-0.5
 62
   256
  6
BYLAYER
  0
ACDBPLACEHOLDER
  5
F
102
{ACAD_REACTORS
330
E
102
}
330
E
  0
SCALE
  5
48
102
{ACAD_REACTORS
330
47
102
}
330
47
100
AcDbScale
 70
     0
300
1:1
140
1.0
141
1.0
290
     1
  0
SCALE
  5
49
102
{ACAD_REACTORS
330
47
102
}
330
47
100
AcDbScale
 70
     0
300
1:2
140
1.0
141
2.0
290
     0
  0
SCALE
  5
4A
102
{ACAD_REACTORS
330
47
102
}
330
47
100
AcDbScale
 70
     0
300
1:4
140
1.0
141
4.0
290
     0
  0
SCALE
  5
4B
102
{ACAD_REACTORS
330
47
102
}
330
47
100
AcDbScale
 70
     0
300
1:5
140
1.0
141
5.0
290
     0
  0
SCALE
  5
4C
102
{ACAD_REACTORS
330
47
102
}
330
47
100
AcDbScale
 70
     0
300
1:8
140
1.0
141
8.0
290
     0
  0
SCALE
  5
4D
102
{ACAD_REACTORS
330
47
102
}
330
47
100
AcDbScale
 70
     0
300
1:10
140
1.0
141
10.0
290
     0
  0
SCALE
  5
4E
102
{ACAD_REACTORS
330
47
102
}
330
47
100
AcDbScale
 70
     0
300
1:16
140
1.0
141
16.0
290
     0
  0
SCALE
  5
4F
102
{ACAD_REACTORS
330
47
102
}
330
47
100
AcDbScale
 70
     0
300
1:20
140
1.0
141
20.0
290
     0
  0
SCALE
  5
50
102
{ACAD_REACTORS
330
47
102
}
330
47
100
AcDbScale
 70
     0
300
1:30
140
1.0
141
30.0
290
     0
  0
SCALE
  5
51
102
{ACAD_REACTORS
330
47
102
}
330
47
100
AcDbScale
 70
     0
300
1:40
140
1.0
141
40.0
290
     0
  0
SCALE
  5
52
102
{ACAD_REACTORS
330
47
102
}
330
47
100
AcDbScale
 70
     0
300
1:50
140
1.0
141
50.0
290
     0
  0
SCALE
  5
53
102
{ACAD_REACTORS
330
47
102
}
330
47
100
AcDbScale
 70
     0
300
1:100
140
1.0
141
100.0
290
     0
  0
SCALE
  5
54
102
{ACAD_REACTORS
330
47
102
}
330
47
100
AcDbScale
 70
     0
300
2:1
140
2.0
141
1.0
290
     0
  0
SCALE
  5
55
102
{ACAD_REACTORS
330
47
102
}
330
47
100
AcDbScale
 70
     0
300
4:1
140
4.0
141
1.0
290
     0
  0
SCALE
  5
56
102
{ACAD_REACTORS
330
47
102
}
330
47
100
AcDbScale
 70
     0
300
8:1
140
8.0
141
1.0
290
     0
  0
SCALE
  5
57
102
{ACAD_REACTORS
330
47
102
}
330
47
100
AcDbScale
 70
     0
300
10:1
140
10.0
141
1.0
290
     0
  0
SCALE
  5
58
102
{ACAD_REACTORS
330
47
102
}
330
47
100
AcDbScale
 70
     0
300
100:1
140
100.0
141
1.0
290
     0
  0
SCALE
  5
59
102
{ACAD_REACTORS
330
47
102
}
330
47
100
AcDbScale
 70
     0
300
1/128" = 1'-0"
140
0.0078125
141
12.0
290
     0
  0
SCALE
  5
5A
102
{ACAD_REACTORS
330
47
102
}
330
47
100
AcDbScale
 70
     0
300
1/64" = 1'-0"
140
0.015625
141
12.0
290
     0
  0
SCALE
  5
5B
102
{ACAD_REACTORS
330
47
102
}
330
47
100
AcDbScale
 70
     0
300
1/32" = 1'-0"
140
0.03125
141
12.0
290
     0
  0
SCALE
  5
5C
102
{ACAD_REACTORS
330
47
102
}
330
47
100
AcDbScale
 70
     0
300
1/16" = 1'-0"
140
0.0625
141
12.0
290
     0
  0
SCALE
  5
5D
102
{ACAD_REACTORS
330
47
102
}
330
47
100
AcDbScale
 70
     0
300
3/32" = 1'-0"
140
0.09375
141
12.0
290
     0
  0
SCALE
  5
5E
102
{ACAD_REACTORS
330
47
102
}
330
47
100
AcDbScale
 70
     0
300
1/8" = 1'-0"
140
0.125
141
12.0
290
     0
  0
SCALE
  5
5F
102
{ACAD_REACTORS
330
47
102
}
330
47
100
AcDbScale
 70
     0
300
3/16" = 1'-0"
140
0.1875
141
12.0
290
     0
  0
SCALE
  5
60
102
{ACAD_REACTORS
330
47
102
}
330
47
100
AcDbScale
 70
     0
300
1/4" = 1'-0"
140
0.25
141
12.0
290
     0
  0
SCALE
  5
61
102
{ACAD_REACTORS
330
47
102
}
330
47
100
AcDbScale
 70
     0
300
3/8" = 1'-0"
140
0.375
141
12.0
290
     0
  0
SCALE
  5
62
102
{ACAD_REACTORS
330
47
102
}
330
47
100
AcDbScale
 70
     0
300
1/2" = 1'-0"
140
0.5
141
12.0
290
     0
  0
SCALE
  5
63
102
{ACAD_REACTORS
330
47
102
}
330
47
100
AcDbScale
 70
     0
300
3/4" = 1'-0"
140
0.75
141
12.0
290
     0
  0
SCALE
  5
64
102
{ACAD_REACTORS
330
47
102
}
330
47
100
AcDbScale
 70
     0
300
1" = 1'-0"
140
1.0
141
12.0
290
     0
  0
SCALE
  5
65
102
{ACAD_REACTORS
330
47
102
}
330
47
100
AcDbScale
 70
     0
300
1-1/2" = 1'-0"
140
1.5
141
12.0
290
     0
  0
SCALE
  5
66
102
{ACAD_REACTORS
330
47
102
}
330
47
100
AcDbScale
 70
     0
300
3" = 1'-0"
140
3.0
141
12.0
290
     0
  0
SCALE
  5
67
102
{ACAD_REACTORS
330
47
102
}
330
47
100
AcDbScale
 70
     0
300
6" = 1'-0"
140
6.0
141
12.0
290
     0
  0
SCALE
  5
68
102
{ACAD_REACTORS
330
47
102
}
330
47
100
AcDbScale
 70
     0
300
1'-0" = 1'-0"
140
12.0
141
12.0
290
     0
  0
ENDSEC
  0
EOF
