  0
SECTION
  2
HEADER
  9
$ACADVER
  1
AC1015
  9
$ACADMAINTVER
 70
     6
  9
$DWGCODEPAGE
  3
ANSI_949
  9
$INSBASE
 10
0.0
 20
0.0
 30
0.0
  9
$EXTMIN
 10
-71.37500000000078
 20
-49.97180738881175
 30
0.0
  9
$EXTMAX
 10
129.1503333333328
 20
54.92700000000008
 30
0.0
  9
$LIMMIN
 10
0.0
 20
0.0
  9
$LIMMAX
 10
420.0
 20
297.0
  9
$ORTHOMODE
 70
     1
  9
$REGENMODE
 70
     1
  9
$FILLMODE
 70
     1
  9
$QTEXTMODE
 70
     0
  9
$MIRRTEXT
 70
     1
  9
$LTSCALE
 40
1.0
  9
$ATTMODE
 70
     1
  9
$TEXTSIZE
 40
3.5
  9
$TRACEWID
 40
1.0
  9
$TEXTSTYLE
  7
Standard
  9
$CLAYER
  8
0
  9
$CELTYPE
  6
ByLayer
  9
$CECOLOR
 62
   256
  9
$CELTSCALE
 40
1.0
  9
$DISPSILH
 70
     0
  9
$DIMSCALE
 40
1.0
  9
$DIMASZ
 40
3.302
  9
$DIMEXO
 40
1.0
  9
$DIMDLI
 40
3.75
  9
$DIMRND
 40
0.0
  9
$DIMDLE
 40
0.0
  9
$DIMEXE
 40
1.0
  9
$DIMTP
 40
0.0
  9
$DIMTM
 40
0.0
  9
$DIMTXT
 40
3.5
  9
$DIMCEN
 40
2.5
  9
$DIMTSZ
 40
0.0
  9
$DIMTOL
 70
     0
  9
$DIMLIM
 70
     0
  9
$DIMTIH
 70
     1
  9
$DIMTOH
 70
     1
  9
$DIMSE1
 70
     0
  9
$DIMSE2
 70
     0
  9
$DIMTAD
 70
     1
  9
$DIMZIN
 70
     0
  9
$DIMBLK
  1

  9
$DIMASO
 70
     1
  9
$DIMSHO
 70
     1
  9
$DIMPOST
  1

  9
$DIMAPOST
  1

  9
$DIMALT
 70
     0
  9
$DIMALTD
 70
     3
  9
$DIMALTF
 40
0.0393700787401575
  9
$DIMLFAC
 40
1.0
  9
$DIMTOFL
 70
     1
  9
$DIMTVP
 40
0.0
  9
$DIMTIX
 70
     0
  9
$DIMSOXD
 70
     0
  9
$DIMSAH
 70
     0
  9
$DIMBLK1
  1

  9
$DIMBLK2
  1

  9
$DIMSTYLE
  2
ISO-25
  9
$DIMCLRD
 70
     0
  9
$DIMCLRE
 70
     0
  9
$DIMCLRT
 70
     0
  9
$DIMTFAC
 40
1.0
  9
$DIMGAP
 40
1.524
  9
$DIMJUST
 70
     0
  9
$DIMSD1
 70
     0
  9
$DIMSD2
 70
     0
  9
$DIMTOLJ
 70
     0
  9
$DIMTZIN
 70
     0
  9
$DIMALTZ
 70
     0
  9
$DIMALTTZ
 70
     0
  9
$DIMUPT
 70
     0
  9
$DIMDEC
 70
     2
  9
$DIMTDEC
 70
     2
  9
$DIMALTU
 70
     2
  9
$DIMALTTD
 70
     3
  9
$DIMTXSTY
  7
Standard
  9
$DIMAUNIT
 70
     0
  9
$DIMADEC
 70
     2
  9
$DIMALTRND
 40
0.0
  9
$DIMAZIN
 70
     0
  9
$DIMDSEP
 70
    44
  9
$DIMATFIT
 70
     3
  9
$DIMFRAC
 70
     0
  9
$DIMLDRBLK
  1

  9
$DIMLUNIT
 70
     2
  9
$DIMLWD
 70
    -2
  9
$DIMLWE
 70
    -2
  9
$DIMTMOVE
 70
     0
  9
$LUNITS
 70
     2
  9
$LUPREC
 70
     2
  9
$SKETCHINC
 40
1.0
  9
$FILLETRAD
 40
10.0
  9
$AUNITS
 70
     0
  9
$AUPREC
 70
     2
  9
$MENU
  1
.
  9
$ELEVATION
 40
0.0
  9
$PELEVATION
 40
0.0
  9
$THICKNESS
 40
0.0
  9
$LIMCHECK
 70
     0
  9
$CHAMFERA
 40
0.0
  9
$CHAMFERB
 40
0.0
  9
$CHAMFERC
 40
0.0
  9
$CHAMFERD
 40
0.0
  9
$SKPOLY
 70
     0
  9
$TDCREATE
 40
2458323.436238461
  9
$TDUCREATE
 40
2458323.061238461
  9
$TDUPDATE
 40
2458323.744657685
  9
$TDUUPDATE
 40
2458323.369657685
  9
$TDINDWG
 40
0.000830625
  9
$TDUSRTIMER
 40
0.0008306134
  9
$USRTIMER
 70
     1
  9
$ANGBASE
 50
0.0
  9
$ANGDIR
 70
     0
  9
$PDMODE
 70
     0
  9
$PDSIZE
 40
-1.0
  9
$PLINEWID
 40
0.0
  9
$SPLFRAME
 70
     0
  9
$SPLINETYPE
 70
     6
  9
$SPLINESEGS
 70
     8
  9
$HANDSEED
  5
203
  9
$SURFTAB1
 70
     6
  9
$SURFTAB2
 70
     6
  9
$SURFTYPE
 70
     6
  9
$SURFU
 70
     6
  9
$SURFV
 70
     6
  9
$UCSBASE
  2

  9
$UCSNAME
  2

  9
$UCSORG
 10
0.0
 20
0.0
 30
0.0
  9
$UCSXDIR
 10
1.0
 20
0.0
 30
0.0
  9
$UCSYDIR
 10
0.0
 20
1.0
 30
0.0
  9
$UCSORTHOREF
  2

  9
$UCSORTHOVIEW
 70
     0
  9
$UCSORGTOP
 10
0.0
 20
0.0
 30
0.0
  9
$UCSORGBOTTOM
 10
0.0
 20
0.0
 30
0.0
  9
$UCSORGLEFT
 10
0.0
 20
0.0
 30
0.0
  9
$UCSORGRIGHT
 10
0.0
 20
0.0
 30
0.0
  9
$UCSORGFRONT
 10
0.0
 20
0.0
 30
0.0
  9
$UCSORGBACK
 10
0.0
 20
0.0
 30
0.0
  9
$PUCSBASE
  2

  9
$PUCSNAME
  2

  9
$PUCSORG
 10
0.0
 20
0.0
 30
0.0
  9
$PUCSXDIR
 10
1.0
 20
0.0
 30
0.0
  9
$PUCSYDIR
 10
0.0
 20
1.0
 30
0.0
  9
$PUCSORTHOREF
  2

  9
$PUCSORTHOVIEW
 70
     0
  9
$PUCSORGTOP
 10
0.0
 20
0.0
 30
0.0
  9
$PUCSORGBOTTOM
 10
0.0
 20
0.0
 30
0.0
  9
$PUCSORGLEFT
 10
0.0
 20
0.0
 30
0.0
  9
$PUCSORGRIGHT
 10
0.0
 20
0.0
 30
0.0
  9
$PUCSORGFRONT
 10
0.0
 20
0.0
 30
0.0
  9
$PUCSORGBACK
 10
0.0
 20
0.0
 30
0.0
  9
$USERI1
 70
     0
  9
$USERI2
 70
     0
  9
$USERI3
 70
     0
  9
$USERI4
 70
     0
  9
$USERI5
 70
     0
  9
$USERR1
 40
0.0
  9
$USERR2
 40
0.0
  9
$USERR3
 40
0.0
  9
$USERR4
 40
0.0
  9
$USERR5
 40
0.0
  9
$WORLDVIEW
 70
     1
  9
$SHADEDGE
 70
     3
  9
$SHADEDIF
 70
    70
  9
$TILEMODE
 70
     1
  9
$MAXACTVP
 70
    64
  9
$PINSBASE
 10
0.0
 20
0.0
 30
0.0
  9
$PLIMCHECK
 70
     0
  9
$PEXTMIN
 10
1.000000000000000E+20
 20
1.000000000000000E+20
 30
1.000000000000000E+20
  9
$PEXTMAX
 10
-1.000000000000000E+20
 20
-1.000000000000000E+20
 30
-1.000000000000000E+20
  9
$PLIMMIN
 10
0.0
 20
0.0
  9
$PLIMMAX
 10
0.0
 20
0.0
  9
$UNITMODE
 70
     0
  9
$VISRETAIN
 70
     1
  9
$PLINEGEN
 70
     0
  9
$PSLTSCALE
 70
     1
  9
$TREEDEPTH
 70
  3020
  9
$CMLSTYLE
  2
Standard
  9
$CMLJUST
 70
     0
  9
$CMLSCALE
 40
20.0
  9
$PROXYGRAPHICS
 70
     1
  9
$MEASUREMENT
 70
     1
  9
$CELWEIGHT
370
    -1
  9
$ENDCAPS
280
     0
  9
$JOINSTYLE
280
     0
  9
$LWDISPLAY
290
     1
  9
$INSUNITS
 70
     4
  9
$HYPERLINKBASE
  1

  9
$STYLESHEET
  1

  9
$XEDIT
290
     1
  9
$CEPSNTYPE
380
     0
  9
$PSTYLEMODE
290
     1
  9
$FINGERPRINTGUID
  2
{A9DE6900-7A29-4B68-8B9B-F2EA7FA22708}
  9
$VERSIONGUID
  2
{FAEB1C32-E019-11D5-929B-00C0DF256EC4}
  9
$EXTNAMES
290
     1
  9
$PSVPSCALE
 40
0.0
  9
$OLESTARTUP
290
     0
  0
ENDSEC
  0
SECTION
  2
CLASSES
  0
CLASS
  1
ACDBDICTIONARYWDFLT
  2
AcDbDictionaryWithDefault
  3
ObjectDBX Classes
 90
        0
280
     0
281
     0
  0
CLASS
  1
VISUALSTYLE
  2
AcDbVisualStyle
  3
ObjectDBX Classes
 90
     4095
280
     0
281
     0
  0
CLASS
  1
MATERIAL
  2
AcDbMaterial
  3
ObjectDBX Classes
 90
     1153
280
     0
281
     0
  0
CLASS
  1
SCALE
  2
AcDbScale
  3
ObjectDBX Classes
 90
     1153
280
     0
281
     0
  0
CLASS
  1
SUN
  2
AcDbSun
  3
SCENEOE
 90
     1153
280
     0
281
     0
  0
CLASS
  1
ACDBPLACEHOLDER
  2
AcDbPlaceHolder
  3
ObjectDBX Classes
 90
        0
280
     0
281
     0
  0
CLASS
  1
LAYOUT
  2
AcDbLayout
  3
ObjectDBX Classes
 90
        0
280
     0
281
     0
  0
CLASS
  1
TABLESTYLE
  2
AcDbTableStyle
  3
ObjectDBX Classes
 90
     4095
280
     0
281
     0
  0
CLASS
  1
MLEADERSTYLE
  2
AcDbMLeaderStyle
  3
ACDB_MLEADERSTYLE_CLASS
 90
     4095
280
     0
281
     0
  0
CLASS
  1
DICTIONARYVAR
  2
AcDbDictionaryVar
  3
ObjectDBX Classes
 90
        0
280
     0
281
     0
  0
ENDSEC
  0
SECTION
  2
TABLES
  0
TABLE
  2
VPORT
  5
8
330
0
100
AcDbSymbolTable
 70
     1
  0
VPORT
  5
29
330
8
100
AcDbSymbolTableRecord
100
AcDbViewportTableRecord
  2
*Active
 70
     0
 10
0.0
 20
0.0
 11
1.0
 21
1.0
 12
28.88766666666602
 22
2.477596305594169
 13
0.0
 23
0.0
 14
10.0
 24
10.0
 15
10.0
 25
10.0
 16
0.0
 26
0.0
 36
1.0
 17
0.0
 27
0.0
 37
0.0
 40
114.7297062781459
 41
1.782762691853601
 42
50.0
 43
0.0
 44
0.0
 50
0.0
 51
0.0
 71
    16
 72
  2000
 73
     1
 74
     3
 75
     0
 76
     0
 77
     0
 78
     0
281
     0
 65
     1
110
0.0
120
0.0
130
0.0
111
1.0
121
0.0
131
0.0
112
0.0
122
1.0
132
0.0
 79
     0
146
0.0
  0
ENDTAB
  0
TABLE
  2
LTYPE
  5
5
330
0
100
AcDbSymbolTable
 70
     6
  0
LTYPE
  5
14
330
5
100
AcDbSymbolTableRecord
100
AcDbLinetypeTableRecord
  2
ByBlock
 70
     0
  3

 72
    65
 73
     0
 40
0.0
  0
LTYPE
  5
15
330
5
100
AcDbSymbolTableRecord
100
AcDbLinetypeTableRecord
  2
ByLayer
 70
     0
  3

 72
    65
 73
     0
 40
0.0
  0
LTYPE
  5
16
330
5
100
AcDbSymbolTableRecord
100
AcDbLinetypeTableRecord
  2
Continuous
 70
     0
  3
Solid line
 72
    65
 73
     0
 40
0.0
  0
LTYPE
  5
6A
330
5
100
AcDbSymbolTableRecord
100
AcDbLinetypeTableRecord
  2
HIDDEN
 70
     0
  3
Hidden __ __ __ __ __ __ __ __ __ __ __ __ __ __
 72
    65
 73
     2
 40
1.905
 49
1.27
 74
     0
 49
-0.635
 74
     0
  0
LTYPE
  5
6B
330
5
100
AcDbSymbolTableRecord
100
AcDbLinetypeTableRecord
  2
PHANTOM
 70
     0
  3
Phantom ______  __  __  ______  __  __  ______
 72
    65
 73
     6
 40
12.7
 49
6.35
 74
     0
 49
-1.27
 74
     0
 49
1.27
 74
     0
 49
-1.27
 74
     0
 49
1.27
 74
     0
 49
-1.27
 74
     0
  0
LTYPE
  5
6C
330
5
100
AcDbSymbolTableRecord
100
AcDbLinetypeTableRecord
  2
CENTER
 70
     0
  3
Center ____ _ ____ _ ____ _ ____ _ ____ _ ____
 72
    65
 73
     4
 40
10.16
 49
6.35
 74
     0
 49
-1.27
 74
     0
 49
1.27
 74
     0
 49
-1.27
 74
     0
  0
LTYPE
  5
6D
330
5
100
AcDbSymbolTableRecord
100
AcDbLinetypeTableRecord
  2
CENTERX2
 70
     0
  3
Center (2x) ________  __  ________  __  _____
 72
    65
 73
     4
 40
20.32
 49
12.7
 74
     0
 49
-2.54
 74
     0
 49
2.54
 74
     0
 49
-2.54
 74
     0
  0
LTYPE
  5
6E
330
5
100
AcDbSymbolTableRecord
100
AcDbLinetypeTableRecord
  2
DOT2
 70
     0
  3
Dot (.5x) ........................................
 72
    65
 73
     2
 40
0.635
 49
0.0
 74
     0
 49
-0.635
 74
     0
  0
ENDTAB
  0
TABLE
  2
LAYER
  5
2
102
{ACAD_XDICTIONARY
360
19A
102
}
330
0
100
AcDbSymbolTable
 70
    18
  0
LAYER
  5
10
330
2
100
AcDbSymbolTableRecord
100
AcDbLayerTableRecord
  2
0
 70
     0
 62
     7
  6
Continuous
370
    -3
390
F
  0
LAYER
  5
6F
330
2
100
AcDbSymbolTableRecord
100
AcDbLayerTableRecord
  2
FORMAT
 70
     0
 62
     2
  6
Continuous
370
    -3
390
F
  0
LAYER
  5
70
330
2
100
AcDbSymbolTableRecord
100
AcDbLayerTableRecord
  2
외형선
 70
     0
 62
     4
  6
Continuous
370
    30
390
F
  0
LAYER
  5
71
330
2
100
AcDbSymbolTableRecord
100
AcDbLayerTableRecord
  2
숨은선
 70
     0
 62
     2
  6
HIDDEN
370
    15
390
F
  0
LAYER
  5
72
330
2
100
AcDbSymbolTableRecord
100
AcDbLayerTableRecord
  2
중심선
 70
     0
 62
     1
  6
CENTERX2
370
    -3
390
F
  0
LAYER
  5
73
330
2
100
AcDbSymbolTableRecord
100
AcDbLayerTableRecord
  2
파단선
 70
     0
 62
     4
  6
Continuous
370
    -3
390
F
  0
LAYER
  5
74
330
2
100
AcDbSymbolTableRecord
100
AcDbLayerTableRecord
  2
해칭선
 70
     0
 62
   100
  6
Continuous
370
    -3
390
F
  0
LAYER
  5
75
330
2
100
AcDbSymbolTableRecord
100
AcDbLayerTableRecord
  2
가는실선
 70
     0
 62
     4
  6
Continuous
370
    -3
390
F
  0
LAYER
  5
76
330
2
100
AcDbSymbolTableRecord
100
AcDbLayerTableRecord
  2
치수_보조선
 70
     0
 62
     4
  6
Continuous
370
    -3
390
F
  0
LAYER
  5
77
330
2
100
AcDbSymbolTableRecord
100
AcDbLayerTableRecord
  2
치수문자_일반주서
 70
     0
 62
     7
  6
Continuous
370
    15
390
F
  0
LAYER
  5
78
330
2
100
AcDbSymbolTableRecord
100
AcDbLayerTableRecord
  2
개별주서
 70
     0
 62
   100
  6
Continuous
370
    30
390
F
  0
LAYER
  5
79
330
2
100
AcDbSymbolTableRecord
100
AcDbLayerTableRecord
  2
중간선
 70
     0
 62
     2
  6
Continuous
370
    15
390
F
  0
LAYER
  5
7A
330
2
100
AcDbSymbolTableRecord
100
AcDbLayerTableRecord
  2
윤곽선
 70
     0
 62
     3
  6
Continuous
370
    40
390
F
  0
LAYER
  5
7B
330
2
100
AcDbSymbolTableRecord
100
AcDbLayerTableRecord
  2
중심마크
 70
     0
 62
   100
  6
Continuous
370
    30
390
F
  0
LAYER
  5
7C
330
2
100
AcDbSymbolTableRecord
100
AcDbLayerTableRecord
  2
가상선
 70
     0
 62
     4
  6
PHANTOM
370
    -3
390
F
  0
LAYER
  5
7D
330
2
100
AcDbSymbolTableRecord
100
AcDbLayerTableRecord
  2
특수지정선
 70
     0
 62
     5
  6
CENTERX2
370
    60
390
F
  0
LAYER
  5
7E
330
2
100
AcDbSymbolTableRecord
100
AcDbLayerTableRecord
  2
참조1
 70
     0
 62
    -4
  6
Continuous
370
    -3
390
F
  0
LAYER
  5
167
330
2
100
AcDbSymbolTableRecord
100
AcDbLayerTableRecord
  2
Defpoints
 70
     0
 62
     7
  6
Continuous
290
     0
370
    -3
390
F
  0
ENDTAB
  0
TABLE
  2
STYLE
  5
3
330
0
100
AcDbSymbolTable
 70
     2
  0
STYLE
  5
11
330
3
100
AcDbSymbolTableRecord
100
AcDbTextStyleTableRecord
  2
Standard
 70
     0
 40
0.0
 41
1.0
 50
0.0
 71
     0
 42
3.5
  3
txt
  4

  0
STYLE
  5
94
330
3
100
AcDbSymbolTableRecord
100
AcDbTextStyleTableRecord
  2
SLDTEXTSTYLE0
 70
     0
 40
0.0
 41
0.75
 50
0.0
 71
     0
 42
3.5
  3
TXT
  4

  0
ENDTAB
  0
TABLE
  2
VIEW
  5
6
330
0
100
AcDbSymbolTable
 70
     0
  0
ENDTAB
  0
TABLE
  2
UCS
  5
7
330
0
100
AcDbSymbolTable
 70
     0
  0
ENDTAB
  0
TABLE
  2
APPID
  5
9
330
0
100
AcDbSymbolTable
 70
     4
  0
APPID
  5
12
330
9
100
AcDbSymbolTableRecord
100
AcDbRegAppTableRecord
  2
ACAD
 70
     0
  0
APPID
  5
1C1
330
9
100
AcDbSymbolTableRecord
100
AcDbRegAppTableRecord
  2
PE_URL
 70
     0
  0
APPID
  5
201
330
9
100
AcDbSymbolTableRecord
100
AcDbRegAppTableRecord
  2
ACAD_DSTYLE_DIMFLIPARROW_SYMBOL
 70
     0
  0
APPID
  5
202
330
9
100
AcDbSymbolTableRecord
100
AcDbRegAppTableRecord
  2
ACAD_DSTYLE_DIMFLIPARROW_WHICH_SYMBOL
 70
     0
  0
ENDTAB
  0
TABLE
  2
DIMSTYLE
  5
A
330
0
100
AcDbSymbolTable
 70
     4
100
AcDbDimStyleTable
  0
DIMSTYLE
105
27
330
A
100
AcDbSymbolTableRecord
100
AcDbDimStyleTableRecord
  2
ISO-25
 70
     0
 41
2.5
 42
0.625
 43
3.75
 44
1.25
 73
     0
 74
     0
 77
     1
 78
     8
140
2.5
141
2.5
143
0.03937007874016
147
0.625
171
     3
172
     1
178
     0
271
     2
272
     2
274
     3
278
    44
283
     0
284
     8
340
11
  0
DIMSTYLE
105
EA
102
{ACAD_REACTORS
330
E9
330
123
330
FC
330
110
102
}
330
A
100
AcDbSymbolTableRecord
100
AcDbDimStyleTableRecord
  2
SLDDIMSTYLE0
 70
     0
 41
3.302
 44
0.0
 45
0.000000001
 73
     0
 74
     0
 77
     1
 78
    12
 79
     3
140
3.5
143
0.0393700787401575
147
0.875
148
0.000000001
170
     1
173
     1
178
     0
271
     2
272
     2
276
     2
284
    12
340
94
  0
DIMSTYLE
105
FD
330
A
100
AcDbSymbolTableRecord
100
AcDbDimStyleTableRecord
  2
SLDDIMSTYLE1
 70
     0
 41
3.302
 44
0.0
 45
0.000000001
 73
     0
 74
     0
 77
     1
 78
     4
 79
     1
140
3.5
143
0.0393700787401575
147
0.875
148
0.000000001
170
     1
173
     1
178
     0
271
     2
272
     2
276
     2
284
    12
340
94
  0
DIMSTYLE
105
16C
102
{ACAD_REACTORS
330
18D
102
}
330
A
100
AcDbSymbolTableRecord
100
AcDbDimStyleTableRecord
  2
SLDDIMSTYLE2
 70
     0
 41
3.302
 44
0.0
 45
0.000000001
 73
     0
 74
     0
 77
     1
 78
    12
 79
     3
140
3.5
147
0.875
172
     1
173
     1
178
     0
271
     2
272
     2
276
     2
284
    12
289
     0
340
94
  0
ENDTAB
  0
TABLE
  2
BLOCK_RECORD
  5
1
330
0
100
AcDbSymbolTable
 70
    11
  0
BLOCK_RECORD
  5
1F
330
1
100
AcDbSymbolTableRecord
100
AcDbBlockTableRecord
  2
*Model_Space
340
22
  0
BLOCK_RECORD
  5
1B
330
1
100
AcDbSymbolTableRecord
100
AcDbBlockTableRecord
  2
*Paper_Space
340
1E
  0
BLOCK_RECORD
  5
23
330
1
100
AcDbSymbolTableRecord
100
AcDbBlockTableRecord
  2
*Paper_Space0
340
26
  0
BLOCK_RECORD
  5
7F
330
1
100
AcDbSymbolTableRecord
100
AcDbBlockTableRecord
  2
블럭10
340
0
102
{BLKREFS
331
E2
102
}
  0
BLOCK_RECORD
  5
EB
330
1
100
AcDbSymbolTableRecord
100
AcDbBlockTableRecord
  2
_D
340
0
  0
BLOCK_RECORD
  5
FE
330
1
100
AcDbSymbolTableRecord
100
AcDbBlockTableRecord
  2
_D_1
340
0
  0
BLOCK_RECORD
  5
111
330
1
100
AcDbSymbolTableRecord
100
AcDbBlockTableRecord
  2
_D_2
340
0
  0
BLOCK_RECORD
  5
124
330
1
100
AcDbSymbolTableRecord
100
AcDbBlockTableRecord
  2
_D_3
340
0
  0
BLOCK_RECORD
  5
13D
330
1
100
AcDbSymbolTableRecord
100
AcDbBlockTableRecord
  2
SW_DOWELSYMBOL_0
340
0
102
{BLKREFS
331
143
102
}
  0
BLOCK_RECORD
  5
19E
330
1
100
AcDbSymbolTableRecord
100
AcDbBlockTableRecord
  2
*D8
340
0
  0
BLOCK_RECORD
  5
1AD
330
1
100
AcDbSymbolTableRecord
100
AcDbBlockTableRecord
  2
*D9
340
0
  0
ENDTAB
  0
ENDSEC
  0
SECTION
  2
BLOCKS
  0
BLOCK
  5
20
330
1F
100
AcDbEntity
  8
0
100
AcDbBlockBegin
  2
*Model_Space
 70
     0
 10
0.0
 20
0.0
 30
0.0
  3
*Model_Space
  1

  0
ENDBLK
  5
21
330
1F
100
AcDbEntity
  8
0
100
AcDbBlockEnd
  0
BLOCK
  5
1C
330
1B
100
AcDbEntity
 67
     1
  8
0
100
AcDbBlockBegin
  2
*Paper_Space
 70
     0
 10
0.0
 20
0.0
 30
0.0
  3
*Paper_Space
  1

  0
ENDBLK
  5
1D
330
1B
100
AcDbEntity
 67
     1
  8
0
100
AcDbBlockEnd
  0
BLOCK
  5
24
330
23
100
AcDbEntity
  8
0
100
AcDbBlockBegin
  2
*Paper_Space0
 70
     0
 10
0.0
 20
0.0
 30
0.0
  3
*Paper_Space0
  1

  0
ENDBLK
  5
25
330
23
100
AcDbEntity
  8
0
100
AcDbBlockEnd
  0
BLOCK
  5
80
330
7F
100
AcDbEntity
  8
0
100
AcDbBlockBegin
  2
블럭10
 70
     2
 10
0.0
 20
0.0
 30
0.0
  3
블럭10
  1

  0
ELLIPSE
  5
82
330
7F
100
AcDbEntity
  8
중심선
100
AcDbEllipse
 10
20.54032771741204
 20
12.0471743016438
 30
0.0
 11
6.600054785286829
 21
-1.261213355974178E-13
 31
0.0
210
0.0
220
0.0
230
1.0
 40
0.636358354079598
 41
0.9219305317359503
 42
6.513795318482858
  0
ELLIPSE
  5
83
330
7F
100
AcDbEntity
  8
중심선
100
AcDbEllipse
 10
20.54032771746488
 20
12.04717430159265
 30
0.0
 11
3.960054785062283
 21
1.540847449632565E-10
 31
0.0
210
0.0
220
0.0
230
1.0
 40
0.3939339440162632
 41
1.131841032648279
 42
5.62031148352944
  0
LINE
  5
84
330
7F
100
AcDbEntity
  8
중심선
100
AcDbLine
 10
2.268634060543552
 20
16.24717430164393
 30
0.0
 11
5.714909304380834
 21
16.24717430164393
 31
0.0
  0
LINE
  5
85
330
7F
100
AcDbEntity
  8
중심선
100
AcDbLine
 10
5.245725140726316
 20
7.84717430164391
 30
0.0
 11
8.692000384563599
 21
7.84717430164391
 31
0.0
  0
LINE
  5
86
330
7F
100
AcDbEntity
  8
중심선
100
AcDbLine
 10
15.74043728645272
 20
16.24717430164393
 30
0.0
 11
8.692000384563599
 21
7.84717430164391
 31
0.0
  0
LINE
  5
87
330
7F
100
AcDbEntity
  8
중심선
100
AcDbLine
 10
0.1404042013395286
 20
13.71084872107135
 30
0.0
 11
3.58671253028996
 21
13.71088815037384
 31
0.0
  0
LINE
  5
88
330
7F
100
AcDbEntity
  8
중심선
100
AcDbLine
 10
2.750260043222114
 20
10.84717430164391
 30
0.0
 11
6.196535287059397
 21
10.84717430164391
 31
0.0
  0
LINE
  5
89
330
7F
100
AcDbEntity
  8
중심선
100
AcDbLine
 10
12.29416204261559
 20
16.24717430164393
 30
0.0
 11
5.245725140726316
 21
7.84717430164391
 31
0.0
  0
LINE
  5
8A
330
7F
100
AcDbEntity
  8
중심선
100
AcDbLine
 10
10.72767329541681
 20
16.24717430164393
 30
0.0
 11
6.196535287059397
 21
10.84717430164391
 31
0.0
  0
LINE
  5
8B
330
7F
100
AcDbEntity
  8
중심선
100
AcDbLine
 10
7.28139805157953
 20
16.24717430164393
 30
0.0
 11
2.750260043222114
 21
10.84717430164391
 31
0.0
  0
LINE
  5
8C
330
7F
100
AcDbEntity
  8
중심선
100
AcDbLine
 10
5.714909304380834
 20
16.24717430164393
 30
0.0
 11
3.58671253028996
 21
13.71088815037384
 31
0.0
  0
LINE
  5
8D
330
7F
100
AcDbEntity
  8
중심선
100
AcDbLine
 10
2.268634060543552
 20
16.24717430164393
 30
0.0
 11
0.1404042013395286
 21
13.71084872107135
 31
0.0
  0
LINE
  5
8E
330
7F
100
AcDbEntity
  8
중심선
100
AcDbLine
 10
7.28139805157953
 20
16.24717430164393
 30
0.0
 11
10.72767329541681
 21
16.24717430164393
 31
0.0
  0
LINE
  5
8F
330
7F
100
AcDbEntity
  8
중심선
100
AcDbLine
 10
12.29416204261559
 20
16.24717430164393
 30
0.0
 11
15.74043728645272
 21
16.24717430164393
 31
0.0
  0
LINE
  5
90
330
7F
100
AcDbEntity
  8
중심선
100
AcDbLine
 10
19.22036997980202
 20
11.08717430171403
 30
0.0
 11
23.66174974927406
 21
11.08717430171406
 31
0.0
  0
LINE
  5
91
330
7F
100
AcDbEntity
  8
중심선
100
AcDbLine
 10
19.22039502424796
 20
13.00717430171391
 30
0.0
 11
19.22036997980202
 21
11.08717430171403
 31
0.0
  0
LINE
  5
92
330
7F
100
AcDbEntity
  8
중심선
100
AcDbLine
 10
19.22039502424796
 20
13.00717430171391
 30
0.0
 11
26.96566020931264
 21
13.00717430171391
 31
0.0
  0
LINE
  5
93
330
7F
100
AcDbEntity
  8
중심선
100
AcDbLine
 10
22.22332737316547
 20
13.45928029700563
 30
0.0
 11
24.52862924686651
 21
15.39360700705356
 31
0.0
  0
ATTDEF
  5
95
330
7F
100
AcDbEntity
  8
FORMAT
 62
     2
100
AcDbText
 10
4.408487351596664
 20
2.075366912832191
 30
0.0
 40
4.233333333333333
  1
E1035116
 41
0.75
  7
SLDTEXTSTYLE0
 11
4.408487351596664
 21
-0.0412997538344756
 31
0.0
100
AcDbAttributeDefinition
  3

  2
AUTOATTR0
 70
     0
 74
     1
  0
ENDBLK
  5
81
330
7F
100
AcDbEntity
  8
0
100
AcDbBlockEnd
  0
BLOCK
  5
EC
330
EB
100
AcDbEntity
  8
0
100
AcDbBlockBegin
  2
_D
 70
     0
 10
0.0
 20
0.0
 30
0.0
  3
_D
  1

  0
LINE
  5
EE
330
EB
100
AcDbEntity
  8
치수문자_일반주서
 62
     0
370
    -2
100
AcDbLine
 10
-36.95750000000064
 20
15.875
 30
0.0
 11
-66.50000000000064
 21
15.87499999999989
 31
0.0
  0
LINE
  5
EF
330
EB
100
AcDbEntity
  8
치수문자_일반주서
 62
     0
370
    -2
100
AcDbLine
 10
-48.38750000000061
 20
-15.875
 30
0.0
 11
-66.50000000000053
 21
-15.87500000000007
 31
0.0
  0
LINE
  5
F0
330
EB
100
AcDbEntity
  8
치수문자_일반주서
 62
     0
370
    -2
100
AcDbLine
 10
-66.50000000000064
 20
15.87499999999989
 30
0.0
 11
-66.50000000000078
 21
54.92699999999994
 31
0.0
  0
LINE
  5
F1
330
EB
100
AcDbEntity
  8
치수문자_일반주서
 62
     0
370
    -2
100
AcDbLine
 10
-66.50000000000064
 20
15.87499999999989
 30
0.0
 11
-66.50000000000053
 21
-15.87500000000007
 31
0.0
  0
LINE
  5
F2
330
EB
100
AcDbEntity
  8
치수문자_일반주서
 62
     0
370
    -2
100
AcDbLine
 10
-66.50000000000065
 20
19.17699999999989
 30
0.0
 11
-66.50000000000067
 21
22.47899999999989
 31
0.0
  0
LINE
  5
F3
330
EB
100
AcDbEntity
  8
치수문자_일반주서
 62
     0
370
    -2
100
AcDbLine
 10
-66.50000000000051
 20
-19.17700000000007
 30
0.0
 11
-66.5000000000005
 21
-22.47900000000007
 31
0.0
  0
SOLID
  5
F4
330
EB
100
AcDbEntity
  8
치수문자_일반주서
 62
     0
100
AcDbTrace
 10
-67.05033333333398
 20
19.17699999999988
 30
0.0
 11
-65.94966666666733
 21
19.17699999999989
 31
0.0
 12
-66.50000000000064
 22
15.87499999999989
 32
0.0
 13
-66.50000000000064
 23
15.87499999999989
 33
0.0
  0
SOLID
  5
F5
330
EB
100
AcDbEntity
  8
치수문자_일반주서
 62
     0
100
AcDbTrace
 10
-65.94966666666718
 20
-19.17700000000007
 30
0.0
 11
-67.05033333333384
 21
-19.17700000000007
 31
0.0
 12
-66.50000000000053
 22
-15.87500000000007
 32
0.0
 13
-66.50000000000053
 23
-15.87500000000007
 33
0.0
  0
MTEXT
  5
F6
330
EB
100
AcDbEntity
  8
치수문자_일반주서
100
AcDbMText
 10
-71.37500000000071
 20
37.05199999999992
 30
0.0
 40
4.0
 41
0.0
 71
     2
 72
     1
  1
\A1;%%c31.75 [1 1/4]
  7
SLDTEXTSTYLE0
 11
-3.580687802255628E-15
 21
1.0
 31
0.0
 73
     1
 44
1.0
  0
POINT
  5
1C6
330
EB
100
AcDbEntity
  8
Defpoints
 62
     0
100
AcDbPoint
 10
-36.89500000000064
 20
15.875
 30
0.0
  0
POINT
  5
1C7
330
EB
100
AcDbEntity
  8
Defpoints
 62
     0
100
AcDbPoint
 10
-48.32500000000061
 20
-15.875
 30
0.0
  0
POINT
  5
1C8
330
EB
100
AcDbEntity
  8
Defpoints
 62
     0
100
AcDbPoint
 10
-66.50000000000051
 20
-15.87500000000007
 30
0.0
  0
ENDBLK
  5
ED
330
EB
100
AcDbEntity
  8
0
100
AcDbBlockEnd
  0
BLOCK
  5
FF
330
FE
100
AcDbEntity
  8
0
100
AcDbBlockBegin
  2
_D_1
 70
     0
 10
0.0
 20
0.0
 30
0.0
  3
_D_1
  1

  0
LINE
  5
101
330
FE
100
AcDbEntity
  8
치수문자_일반주서
 62
     0
370
    -2
100
AcDbLine
 10
113.5999999999994
 20
15.93750000000015
 30
0.0
 11
113.5999999999994
 21
30.87500000000002
 31
0.0
  0
LINE
  5
102
330
FE
100
AcDbEntity
  8
치수문자_일반주서
 62
     0
370
    -2
100
AcDbLine
 10
11.99999999999941
 20
15.93736653488488
 30
0.0
 11
11.9999999999994
 21
30.87500000000002
 31
0.0
  0
LINE
  5
103
330
FE
100
AcDbEntity
  8
치수문자_일반주서
 62
     0
370
    -2
100
AcDbLine
 10
110.2979999999994
 20
30.87500000000002
 30
0.0
 11
15.3019999999994
 21
30.87500000000002
 31
0.0
  0
SOLID
  5
104
330
FE
100
AcDbEntity
  8
치수문자_일반주서
 62
     0
100
AcDbTrace
 10
110.2979999999994
 20
30.32466666666669
 30
0.0
 11
110.2979999999994
 21
31.42533333333336
 31
0.0
 12
113.5999999999994
 22
30.87500000000002
 32
0.0
 13
113.5999999999994
 23
30.87500000000002
 33
0.0
  0
SOLID
  5
105
330
FE
100
AcDbEntity
  8
치수문자_일반주서
 62
     0
100
AcDbTrace
 10
15.3019999999994
 20
31.42533333333336
 30
0.0
 11
15.3019999999994
 21
30.32466666666669
 31
0.0
 12
11.9999999999994
 22
30.87500000000002
 32
0.0
 13
11.9999999999994
 23
30.87500000000002
 33
0.0
  0
MTEXT
  5
106
330
FE
100
AcDbEntity
  8
치수문자_일반주서
100
AcDbMText
 10
62.7999999999994
 20
35.75000000000002
 30
0.0
 40
4.0
 41
0.0
 71
     2
 72
     1
  1
\A1;101.6 [4]
  7
SLDTEXTSTYLE0
 73
     1
 44
1.0
  0
POINT
  5
107
330
FE
100
AcDbEntity
  8
Defpoints
 62
     0
100
AcDbPoint
 10
113.5999999999994
 20
15.87500000000015
 30
0.0
  0
POINT
  5
108
330
FE
100
AcDbEntity
  8
Defpoints
 62
     0
100
AcDbPoint
 10
11.99999999999941
 20
15.87486653488488
 30
0.0
  0
POINT
  5
109
330
FE
100
AcDbEntity
  8
Defpoints
 62
     0
100
AcDbPoint
 10
11.99999999999941
 20
30.87500000000002
 30
0.0
  0
ENDBLK
  5
100
330
FE
100
AcDbEntity
  8
0
100
AcDbBlockEnd
  0
BLOCK
  5
112
330
111
100
AcDbEntity
  8
0
100
AcDbBlockBegin
  2
_D_2
 70
     0
 10
0.0
 20
0.0
 30
0.0
  3
_D_2
  1

  0
LINE
  5
114
330
111
100
AcDbEntity
  8
치수문자_일반주서
 62
     0
370
    -2
100
AcDbLine
 10
113.5999999999994
 20
15.93750000000015
 30
0.0
 11
113.5999999999994
 21
45.87500000000002
 31
0.0
  0
LINE
  5
115
330
111
100
AcDbEntity
  8
치수문자_일반주서
 62
     0
370
    -2
100
AcDbLine
 10
-51.50000000000063
 20
14.03250000000001
 30
0.0
 11
-51.50000000000064
 21
45.87500000000002
 31
0.0
  0
LINE
  5
116
330
111
100
AcDbEntity
  8
치수문자_일반주서
 62
     0
370
    -2
100
AcDbLine
 10
110.2979999999994
 20
45.87500000000002
 30
0.0
 11
-48.19800000000064
 21
45.87500000000002
 31
0.0
  0
SOLID
  5
117
330
111
100
AcDbEntity
  8
치수문자_일반주서
 62
     0
100
AcDbTrace
 10
110.2979999999994
 20
45.32466666666669
 30
0.0
 11
110.2979999999994
 21
46.42533333333336
 31
0.0
 12
113.5999999999994
 22
45.87500000000002
 32
0.0
 13
113.5999999999994
 23
45.87500000000002
 33
0.0
  0
SOLID
  5
118
330
111
100
AcDbEntity
  8
치수문자_일반주서
 62
     0
100
AcDbTrace
 10
-48.19800000000064
 20
46.42533333333336
 30
0.0
 11
-48.19800000000064
 21
45.32466666666669
 31
0.0
 12
-51.50000000000064
 22
45.87500000000002
 32
0.0
 13
-51.50000000000064
 23
45.87500000000002
 33
0.0
  0
MTEXT
  5
119
330
111
100
AcDbEntity
  8
치수문자_일반주서
100
AcDbMText
 10
31.04999999999936
 20
50.75000000000002
 30
0.0
 40
4.0
 41
0.0
 71
     2
 72
     1
  1
\A1;165.1 [6 1/2]
  7
SLDTEXTSTYLE0
 73
     1
 44
1.0
  0
POINT
  5
11A
330
111
100
AcDbEntity
  8
Defpoints
 62
     0
100
AcDbPoint
 10
113.5999999999994
 20
15.87500000000015
 30
0.0
  0
POINT
  5
11B
330
111
100
AcDbEntity
  8
Defpoints
 62
     0
100
AcDbPoint
 10
-51.50000000000063
 20
13.97000000000001
 30
0.0
  0
POINT
  5
11C
330
111
100
AcDbEntity
  8
Defpoints
 62
     0
100
AcDbPoint
 10
-51.50000000000063
 20
45.87500000000002
 30
0.0
  0
ENDBLK
  5
113
330
111
100
AcDbEntity
  8
0
100
AcDbBlockEnd
  0
BLOCK
  5
125
330
124
100
AcDbEntity
  8
0
100
AcDbBlockBegin
  2
_D_3
 70
     0
 10
0.0
 20
0.0
 30
0.0
  3
_D_3
  1

  0
LINE
  5
127
330
124
100
AcDbEntity
  8
치수문자_일반주서
 62
     0
370
    -2
100
AcDbLine
 10
113.6624999999994
 20
15.87500000000001
 30
0.0
 11
128.5999999999994
 21
15.87500000000007
 31
0.0
  0
LINE
  5
128
330
124
100
AcDbEntity
  8
치수문자_일반주서
 62
     0
370
    -2
100
AcDbLine
 10
113.6624999999994
 20
-15.87499999999985
 30
0.0
 11
128.5999999999995
 21
-15.8749999999998
 31
0.0
  0
LINE
  5
129
330
124
100
AcDbEntity
  8
치수문자_일반주서
 62
     0
370
    -2
100
AcDbLine
 10
128.5999999999994
 20
15.87500000000007
 30
0.0
 11
128.5999999999993
 21
54.92700000000008
 31
0.0
  0
LINE
  5
12A
330
124
100
AcDbEntity
  8
치수문자_일반주서
 62
     0
370
    -2
100
AcDbLine
 10
128.5999999999994
 20
15.87500000000007
 30
0.0
 11
128.5999999999995
 21
-15.8749999999998
 31
0.0
  0
LINE
  5
12B
330
124
100
AcDbEntity
  8
치수문자_일반주서
 62
     0
370
    -2
100
AcDbLine
 10
128.5999999999994
 20
19.17700000000007
 30
0.0
 11
128.5999999999994
 21
22.47900000000007
 31
0.0
  0
LINE
  5
12C
330
124
100
AcDbEntity
  8
치수문자_일반주서
 62
     0
370
    -2
100
AcDbLine
 10
128.5999999999995
 20
-19.1769999999998
 30
0.0
 11
128.5999999999995
 21
-22.4789999999998
 31
0.0
  0
SOLID
  5
12D
330
124
100
AcDbEntity
  8
치수문자_일반주서
 62
     0
100
AcDbTrace
 10
128.0496666666661
 20
19.17700000000007
 30
0.0
 11
129.1503333333327
 21
19.17700000000007
 31
0.0
 12
128.5999999999994
 22
15.87500000000007
 32
0.0
 13
128.5999999999994
 23
15.87500000000007
 33
0.0
  0
SOLID
  5
12E
330
124
100
AcDbEntity
  8
치수문자_일반주서
 62
     0
100
AcDbTrace
 10
129.1503333333328
 20
-19.1769999999998
 30
0.0
 11
128.0496666666662
 21
-19.1769999999998
 31
0.0
 12
128.5999999999995
 22
-15.8749999999998
 32
0.0
 13
128.5999999999995
 23
-15.8749999999998
 33
0.0
  0
MTEXT
  5
12F
330
124
100
AcDbEntity
  8
치수문자_일반주서
100
AcDbMText
 10
123.7249999999993
 20
37.05200000000006
 30
0.0
 40
4.0
 41
0.0
 71
     2
 72
     1
  1
\A1;%%c31.75 [1 1/4]
  7
SLDTEXTSTYLE0
 11
-3.580687802255638E-15
 21
1.0
 31
0.0
 73
     1
 44
1.0
  0
POINT
  5
130
330
124
100
AcDbEntity
  8
Defpoints
 62
     0
100
AcDbPoint
 10
113.5999999999994
 20
15.87500000000001
 30
0.0
  0
POINT
  5
1C9
330
124
100
AcDbEntity
  8
Defpoints
 62
     0
100
AcDbPoint
 10
113.5999999999994
 20
-15.87499999999985
 30
0.0
  0
POINT
  5
1CA
330
124
100
AcDbEntity
  8
Defpoints
 62
     0
100
AcDbPoint
 10
128.5999999999995
 20
-15.8749999999998
 30
0.0
  0
ENDBLK
  5
126
330
124
100
AcDbEntity
  8
0
100
AcDbBlockEnd
  0
BLOCK
  5
13E
330
13D
100
AcDbEntity
  8
0
100
AcDbBlockBegin
  2
SW_DOWELSYMBOL_0
 70
     0
 10
0.0
 20
0.0
 30
0.0
  3
SW_DOWELSYMBOL_0
  1

  0
CIRCLE
  5
140
330
13D
100
AcDbEntity
  8
해칭선
 62
     0
100
AcDbCircle
 10
0.0
 20
0.0
 30
0.0
 40
3.000000000000001
  0
HATCH
  5
141
330
13D
100
AcDbEntity
  8
0
  6
Continuous
 62
     0
370
     0
100
AcDbHatch
 10
0.0
 20
0.0
 30
0.0
210
0.0
220
0.0
230
1.0
  2
SOLID
 70
     1
 71
     0
 91
        1
 92
        0
 93
        3
 72
     2
 10
0.0
 20
0.0
 40
3.000000000000001
 50
0.0
 51
90.0
 73
     1
 72
     1
 10
0.0
 20
3.000000000000001
 11
0.0
 21
0.0
 72
     1
 10
0.0
 20
0.0
 11
3.000000000000001
 21
0.0
 97
        0
 75
     0
 76
     1
 98
        1
 10
0.0
 20
0.0
  0
HATCH
  5
142
330
13D
100
AcDbEntity
  8
0
  6
Continuous
 62
     0
370
     0
100
AcDbHatch
 10
0.0
 20
0.0
 30
0.0
210
0.0
220
0.0
230
1.0
  2
SOLID
 70
     1
 71
     0
 91
        1
 92
        0
 93
        3
 72
     2
 10
0.0
 20
0.0
 40
3.000000000000001
 50
180.0
 51
270.0000000000008
 73
     1
 72
     1
 10
0.0
 20
-3.000000000000001
 11
0.0
 21
0.0
 72
     1
 10
0.0
 20
0.0
 11
-3.000000000000001
 21
0.0
 97
        0
 75
     0
 76
     1
 98
        1
 10
0.0
 20
0.0
  0
ENDBLK
  5
13F
330
13D
100
AcDbEntity
  8
0
100
AcDbBlockEnd
  0
BLOCK
  5
19F
330
19E
100
AcDbEntity
  8
0
100
AcDbBlockBegin
  2
*D8
 70
     1
 10
0.0
 20
0.0
 30
0.0
  3
*D8
  1

  0
LINE
  5
1A1
330
19E
100
AcDbEntity
  8
치수문자_일반주서
 62
     0
370
    -2
100
AcDbLine
 10
0.0
 20
0.0625000000000001
 30
0.0
 11
0.0
 21
31.64047088264928
 31
0.0
  0
LINE
  5
1A2
330
19E
100
AcDbEntity
  8
치수문자_일반주서
 62
     0
370
    -2
100
AcDbLine
 10
38.00011895067188
 20
10.47787127993619
 30
0.0
 11
38.00011895067188
 21
31.64047088264928
 31
0.0
  0
LINE
  5
1A3
330
19E
100
AcDbEntity
  8
치수문자_일반주서
 62
     0
370
    -2
100
AcDbLine
 10
4.0
 20
31.64047088264928
 30
0.0
 11
34.00011895067188
 21
31.64047088264928
 31
0.0
  0
SOLID
  5
1A4
330
19E
100
AcDbEntity
  8
치수문자_일반주서
 62
     0
100
AcDbTrace
 10
4.0
 20
32.30713754931594
 30
0.0
 11
4.0
 21
30.97380421598261
 31
0.0
 12
0.0
 22
31.64047088264928
 32
0.0
 13
0.0
 23
31.64047088264928
 33
0.0
  0
SOLID
  5
1A5
330
19E
100
AcDbEntity
  8
치수문자_일반주서
 62
     0
100
AcDbTrace
 10
34.00011895067188
 20
30.97380421598261
 30
0.0
 11
34.00011895067188
 21
32.30713754931594
 31
0.0
 12
38.00011895067188
 22
31.64047088264928
 32
0.0
 13
38.00011895067188
 23
31.64047088264928
 33
0.0
  0
MTEXT
  5
1A6
330
19E
100
AcDbEntity
  8
치수문자_일반주서
 62
     0
100
AcDbMText
 10
19.06814435762387
 20
36.51547088264928
 30
0.0
 40
4.0
 41
0.0
 71
     2
 72
     1
  1
\A1;38
  7
SLDTEXTSTYLE0
 73
     1
 44
1.0
  0
POINT
  5
1A7
330
19E
100
AcDbEntity
  8
Defpoints
 62
     0
100
AcDbPoint
 10
0.0
 20
0.0000000000000001
 30
0.0
  0
POINT
  5
1A8
330
19E
100
AcDbEntity
  8
Defpoints
 62
     0
100
AcDbPoint
 10
38.00011895067188
 20
10.41537127993619
 30
0.0
  0
POINT
  5
1A9
330
19E
100
AcDbEntity
  8
Defpoints
 62
     0
100
AcDbPoint
 10
38.00011895067188
 20
31.64047088264928
 30
0.0
  0
ENDBLK
  5
1A0
330
19E
100
AcDbEntity
  8
0
100
AcDbBlockEnd
  0
BLOCK
  5
1AE
330
1AD
100
AcDbEntity
  8
0
100
AcDbBlockBegin
  2
*D9
 70
     1
 10
0.0
 20
0.0
 30
0.0
  3
*D9
  1

  0
LINE
  5
1B0
330
1AD
100
AcDbEntity
  8
치수문자_일반주서
 62
     0
370
    -2
100
AcDbLine
 10
158.5955206826397
 20
-44.87076561390646
 30
0.0
 11
158.5955206826397
 21
-13.29279473125718
 31
0.0
  0
LINE
  5
1B1
330
1AD
100
AcDbEntity
  8
치수문자_일반주서
 62
     0
370
    -2
100
AcDbLine
 10
196.5956396333116
 20
-34.45539433397027
 30
0.0
 11
196.5956396333116
 21
-13.29279473125718
 31
0.0
  0
LINE
  5
1B2
330
1AD
100
AcDbEntity
  8
치수문자_일반주서
 62
     0
370
    -2
100
AcDbLine
 10
162.5955206826397
 20
-13.29279473125718
 30
0.0
 11
192.5956396333116
 21
-13.29279473125718
 31
0.0
  0
SOLID
  5
1B3
330
1AD
100
AcDbEntity
  8
치수문자_일반주서
 62
     0
100
AcDbTrace
 10
162.5955206826397
 20
-12.62612806459052
 30
0.0
 11
162.5955206826397
 21
-13.95946139792385
 31
0.0
 12
158.5955206826397
 22
-13.29279473125718
 32
0.0
 13
158.5955206826397
 23
-13.29279473125718
 33
0.0
  0
SOLID
  5
1B4
330
1AD
100
AcDbEntity
  8
치수문자_일반주서
 62
     0
100
AcDbTrace
 10
192.5956396333116
 20
-13.95946139792385
 30
0.0
 11
192.5956396333116
 21
-12.62612806459052
 31
0.0
 12
196.5956396333116
 22
-13.29279473125718
 32
0.0
 13
196.5956396333116
 23
-13.29279473125718
 33
0.0
  0
MTEXT
  5
1B5
330
1AD
100
AcDbEntity
  8
치수문자_일반주서
 62
     0
100
AcDbMText
 10
177.6636650402636
 20
-8.417794731257182
 30
0.0
 40
4.0
 41
0.0
 71
     2
 72
     1
  1
\A1;38
  7
SLDTEXTSTYLE0
 73
     1
 44
1.0
  0
POINT
  5
1B6
330
1AD
100
AcDbEntity
  8
Defpoints
 62
     0
100
AcDbPoint
 10
158.5955206826397
 20
-44.93326561390646
 30
0.0
  0
POINT
  5
1B7
330
1AD
100
AcDbEntity
  8
Defpoints
 62
     0
100
AcDbPoint
 10
196.5956396333116
 20
-34.51789433397027
 30
0.0
  0
POINT
  5
1B8
330
1AD
100
AcDbEntity
  8
Defpoints
 62
     0
100
AcDbPoint
 10
196.5956396333116
 20
-13.29279473125718
 30
0.0
  0
ENDBLK
  5
1AF
330
1AD
100
AcDbEntity
  8
0
100
AcDbBlockEnd
  0
ENDSEC
  0
SECTION
  2
ENTITIES
  0
LINE
  5
96
330
1F
100
AcDbEntity
  8
0
  6
Continuous
 62
     1
370
    15
100
AcDbLine
 10
27.17720131616707
 20
-3.07281008647904
 30
0.0
 11
27.28263969297543
 21
-3.175183895391873
 31
0.0
1001
PE_URL
1000

  0
LINE
  5
97
330
1F
100
AcDbEntity
  8
0
  6
Continuous
 62
     1
370
    15
100
AcDbLine
 10
33.90357276739761
 20
2.953601748782055
 30
0.0
 11
33.6763355167793
 21
3.174711353579791
 31
0.0
1001
PE_URL
1000

  0
LINE
  5
98
330
1F
100
AcDbEntity
  8
0
  6
Continuous
 62
     1
370
    15
100
AcDbLine
 10
111.6799470437507
 20
-15.87500000000001
 30
0.0
 11
113.5999999999994
 21
-15.87500000000001
 31
0.0
1001
PE_URL
1000

  0
LINE
  5
99
330
1F
100
AcDbEntity
  8
0
  6
Continuous
 62
     1
370
    15
100
AcDbLine
 10
11.99999999999938
 20
-15.87500000000001
 30
0.0
 11
15.77342597900701
 21
-15.87500000000001
 31
0.0
1001
PE_URL
1000

  0
LINE
  5
9A
330
1F
100
AcDbEntity
  8
0
  6
Continuous
 62
     1
370
    15
100
AcDbLine
 10
65.6452272672371
 20
15.87500000000001
 30
0.0
 11
61.80888206481248
 21
15.87500000000001
 31
0.0
1001
PE_URL
1000

  0
LINE
  5
9B
330
1F
100
AcDbEntity
  8
0
  6
Continuous
 62
     1
370
    15
100
AcDbLine
 10
45.18297843376024
 20
-15.87500000000001
 30
0.0
 11
49.02176292710178
 21
-15.87500000000001
 31
0.0
1001
PE_URL
1000

  0
LINE
  5
9C
330
1F
100
AcDbEntity
  8
0
  6
Continuous
 62
     1
370
    15
100
AcDbLine
 10
98.89495735413416
 20
15.87500000000001
 30
0.0
 11
95.05776369720948
 21
15.87500000000001
 31
0.0
1001
PE_URL
1000

  0
LINE
  5
9D
330
1F
100
AcDbEntity
  8
0
  6
Continuous
 62
     1
370
    15
100
AcDbLine
 10
28.55943910786331
 20
-15.87500000000001
 30
0.0
 11
32.39741320083795
 21
-15.87500000000001
 31
0.0
1001
PE_URL
1000

  0
LINE
  5
9E
330
1F
100
AcDbEntity
  8
0
  6
Continuous
 62
     1
370
    15
100
AcDbLine
 10
82.2711692852587
 20
15.87500000000001
 30
0.0
 11
78.43269079413393
 21
15.87500000000001
 31
0.0
1001
PE_URL
1000

  0
LINE
  5
9F
330
1F
100
AcDbEntity
  8
0
  6
Continuous
 62
     1
370
    15
100
AcDbLine
 10
61.80888206481251
 20
-15.87500000000001
 30
0.0
 11
65.64522726723699
 21
-15.87500000000001
 31
0.0
1001
PE_URL
1000

  0
LINE
  5
A0
330
1F
100
AcDbEntity
  8
0
  6
Continuous
 62
     1
370
    15
100
AcDbLine
 10
15.77342597900692
 20
15.87500000000001
 30
0.0
 11
11.99999999999938
 21
15.87500000000001
 31
0.0
1001
PE_URL
1000

  0
LINE
  5
A1
330
1F
100
AcDbEntity
  8
0
  6
Continuous
 62
     1
370
    15
100
AcDbLine
 10
113.5999999999994
 20
15.87500000000001
 30
0.0
 11
111.6799470437507
 21
15.87500000000001
 31
0.0
1001
PE_URL
1000

  0
LINE
  5
A2
330
1F
100
AcDbEntity
  8
0
  6
Continuous
 62
     1
370
    15
100
AcDbLine
 10
95.05776369720935
 20
-15.87500000000001
 30
0.0
 11
98.89495735413416
 21
-15.87500000000001
 31
0.0
1001
PE_URL
1000

  0
LINE
  5
A3
330
1F
100
AcDbEntity
  8
0
  6
Continuous
 62
     1
370
    15
100
AcDbLine
 10
49.02176292710178
 20
15.87500000000001
 30
0.0
 11
45.18297843376011
 21
15.87500000000001
 31
0.0
1001
PE_URL
1000

  0
LINE
  5
A4
330
1F
100
AcDbEntity
  8
0
  6
Continuous
 62
     1
370
    15
100
AcDbLine
 10
78.43269079413382
 20
-15.87500000000001
 30
0.0
 11
82.27116928525861
 21
-15.87500000000001
 31
0.0
1001
PE_URL
1000

  0
LINE
  5
A5
330
1F
100
AcDbEntity
  8
0
  6
Continuous
 62
     1
370
    15
100
AcDbLine
 10
32.39741320083785
 20
15.87500000000001
 30
0.0
 11
28.55943910786319
 21
15.87500000000001
 31
0.0
1001
PE_URL
1000

  0
LINE
  5
A6
330
1F
100
AcDbEntity
  8
외형선
  6
Continuous
370
    15
100
AcDbLine
 10
11.93494109655859
 20
-15.875
 30
0.0
 11
11.99999999999938
 21
-15.875
 31
0.0
  0
LINE
  5
A7
330
1F
100
AcDbEntity
  8
외형선
  6
Continuous
370
    15
100
AcDbLine
 10
-48.32500000000063
 20
-15.875
 30
0.0
 11
10.99991004899769
 21
-15.875
 31
0.0
  0
LINE
  5
A8
330
1F
100
AcDbEntity
  8
외형선
  6
Continuous
370
    15
100
AcDbLine
 10
10.99991004899769
 20
15.87500000000001
 30
0.0
 11
-14.0699250000006
 21
15.87500000000001
 31
0.0
  0
LINE
  5
A9
330
1F
100
AcDbEntity
  8
외형선
  6
Continuous
370
    15
100
AcDbLine
 10
11.99999999999938
 20
15.87500000000001
 30
0.0
 11
11.93494109655855
 21
15.87500000000001
 31
0.0
  0
LINE
  5
AB
330
1F
100
AcDbEntity
  8
외형선
  6
Continuous
370
    15
100
AcDbLine
 10
-51.50000000000063
 20
-12.70000000000001
 30
0.0
 11
-48.32500000000063
 21
-15.87500000000001
 31
0.0
  0
LINE
  5
AC
330
1F
100
AcDbEntity
  8
0
  6
Continuous
 62
     1
370
    15
100
AcDbLine
 10
113.5999999999994
 20
9.515563291913963
 30
0.0
 11
113.5999999999994
 21
15.87500000000015
 31
0.0
1001
PE_URL
1000

  0
SPLINE
  5
AD
330
1F
100
AcDbEntity
  8
0
  6
Continuous
 62
     1
370
    15
100
AcDbSpline
210
0.0
220
0.0
230
1.0
 70
     8
 71
     3
 72
    25
 73
    21
 74
     0
 42
0.000000001
 43
0.00000001
 40
0.0
 40
0.0
 40
0.0
 40
0.0
 40
0.0544672829900751
 40
0.1089623835124796
 40
0.1634508549807326
 40
0.217914457036826
 40
0.2723700064714151
 40
0.3314400932500237
 40
0.3905184663888956
 40
0.449609690724028
 40
0.5087058609543462
 40
0.5677881523181051
 40
0.6268605800584885
 40
0.6859277230892009
 40
0.7449941728512117
 40
0.8040645224298382
 40
0.863143355663446
 40
0.9222352362992978
 40
0.9813309276883572
 40
1.0
 40
1.0
 40
1.0
 40
1.0
 10
11.99999999999936
 20
10.95116481580305
 30
0.0
 10
12.78810553034971
 20
10.35702780459987
 30
0.0
 10
14.36471909232945
 20
9.168450344522114
 30
0.0
 10
16.73072350565648
 20
7.118149745855455
 30
0.0
 10
19.09638200595936
 20
4.927425679348034
 30
0.0
 10
21.46079752761829
 20
2.622741118575399
 30
0.0
 10
23.89123471422213
 20
0.1948983618477772
 30
0.0
 10
26.38918324596803
 20
-2.306326720525229
 30
0.0
 10
28.95419582248451
 20
-4.814371554661919
 30
0.0
 10
31.51996554019443
 20
-7.197065524594974
 30
0.0
 10
34.08597095955234
 20
-9.392142780556668
 30
0.0
 10
36.65125224402405
 20
-11.3426722859708
 30
0.0
 10
39.21593629550216
 20
-12.99757481463364
 30
0.0
 10
41.78026639054703
 20
-14.31372941963979
 30
0.0
 10
44.3445532710543
 20
-15.25758077411026
 30
0.0
 10
46.90909616918223
 20
-15.80210564439261
 30
0.0
 10
49.47418144952458
 20
-15.94227307551168
 30
0.0
 10
52.03995506170227
 20
-15.64001728504992
 30
0.0
 10
54.02101729094082
 20
-15.17016790022323
 30
0.0
 10
55.14647279209643
 20
-14.6812088386581
 30
0.0
 10
55.41666213151856
 20
-14.56382389921529
 30
0.0
1001
PE_URL
1000

  0
SPLINE
  5
AE
330
1F
100
AcDbEntity
  8
0
  6
Continuous
 62
     1
370
    15
100
AcDbSpline
210
0.0
220
0.0
230
1.0
 70
     8
 71
     3
 72
    13
 73
     9
 74
     0
 42
0.000000001
 43
0.00000001
 40
0.0
 40
0.0
 40
0.0
 40
0.0
 40
0.1279072623673748
 40
0.3022993142516614
 40
0.4766910737269934
 40
0.6510960999490012
 40
0.8255279206195878
 40
1.0
 40
1.0
 40
1.0
 40
1.0
 10
98.89495735413416
 20
15.83452343423756
 30
0.0
 10
99.52190354108419
 20
15.82919652845994
 30
0.0
 10
101.0036442873081
 20
15.81660678231221
 30
0.0
 10
103.3400348939212
 20
15.3141202320787
 30
0.0
 10
105.9043407311614
 20
14.4179709263287
 30
0.0
 10
108.4689410472556
 20
13.1272835902635
 30
0.0
 10
111.0341055913856
 20
11.51611304264239
 30
0.0
 10
112.7446360732335
 20
10.19705444724359
 30
0.0
 10
113.5999999999994
 20
9.53744904893708
 30
0.0
1001
PE_URL
1000

  0
SPLINE
  5
AF
330
1F
100
AcDbEntity
  8
외형선
  6
Continuous
370
    15
100
AcDbSpline
210
0.0
220
0.0
230
1.0
 70
    24
 71
     3
 72
    12
 73
     8
 74
     0
 42
0.000000001
 43
0.00000001
 40
0.0
 40
0.0
 40
0.0
 40
0.0
 40
0.1913016559535283
 40
0.3871701215877004
 40
0.5970948890651402
 40
0.8131074890207399
 40
1.0
 40
1.0
 40
1.0
 40
1.0
 10
11.99999999999942
 20
15.87486653489678
 30
0.0
 10
11.99999999999938
 20
15.55811956556507
 30
0.0
 10
11.99999999999932
 20
14.91706414961777
 30
0.0
 10
11.99999999999939
 20
13.91127868516947
 30
0.0
 10
11.99999999999935
 20
12.88529295201199
 30
0.0
 10
11.99999999999936
 20
11.91051856940253
 30
0.0
 10
11.99999999999935
 20
11.3357951020679
 30
0.0
 10
11.99999999999935
 20
11.06920252477433
 30
0.0
  0
SPLINE
  5
B0
330
1F
100
AcDbEntity
  8
0
  6
Continuous
 62
     1
370
    15
100
AcDbSpline
210
0.0
220
0.0
230
1.0
 70
     8
 71
     3
 72
    11
 73
     7
 74
     0
 42
0.000000001
 43
0.00000001
 40
0.0
 40
0.0
 40
0.0
 40
0.0
 40
0.3086210507870028
 40
0.6171708885445392
 40
0.9256733300028794
 40
0.9999999999999999
 40
0.9999999999999999
 40
0.9999999999999999
 40
0.9999999999999999
 10
113.5999999999994
 20
15.87500000000015
 30
0.0
 10
112.7446357915627
 20
15.82419091564527
 30
0.0
 10
111.0341047464383
 20
15.95425174849235
 30
0.0
 10
108.4689444259186
 20
15.59497219171659
 30
0.0
 10
106.5531563211892
 20
15.13097405177021
 30
0.0
 10
105.4923946284142
 20
14.66135201231861
 30
0.0
 10
105.2864466429417
 20
14.57017440511682
 30
0.0
1001
PE_URL
1000

  0
SPLINE
  5
B1
330
1F
100
AcDbEntity
  8
0
  6
Continuous
 62
     1
370
    15
100
AcDbSpline
210
0.0
220
0.0
230
1.0
 70
     8
 71
     3
 72
    27
 73
    23
 74
     0
 42
0.000000001
 43
0.00000001
 40
0.0
 40
0.0
 40
0.0
 40
0.0
 40
0.0416216539204289
 40
0.0931125215817198
 40
0.1446118152513567
 40
0.1961232419856894
 40
0.2476313470339563
 40
0.2991280791667198
 40
0.3506174164258174
 40
0.4021033543657236
 40
0.4535898966011222
 40
0.5050810453133832
 40
0.556580791764344
 40
0.6080926358860671
 40
0.6596001688624
 40
0.7110964999483916
 40
0.7625856081348862
 40
0.8100524027360397
 40
0.8575262164956616
 40
0.905021707959229
 40
0.952522977712706
 40
1.0
 40
1.0
 40
1.0
 40
1.0
 10
61.80888206481248
 20
-15.84294735606817
 30
0.0
 10
61.11790028021109
 20
-15.82974464915764
 30
0.0
 10
59.57209298350261
 20
-15.80020864526661
 30
0.0
 10
57.17120451965125
 20
-15.26098720982701
 30
0.0
 10
54.60595438955339
 20
-14.3329893155783
 30
0.0
 10
52.03996983308978
 20
-13.01942188832643
 30
0.0
 10
49.47417749260436
 20
-11.36990058237583
 30
0.0
 10
46.90909722916966
 20
-9.423300523912456
 30
0.0
 10
44.34455298706976
 20
-7.231624642387689
 30
0.0
 10
41.78026646663912
 20
-4.851599864060536
 30
0.0
 10
39.21593627511135
 20
-2.345211204535602
 30
0.0
 10
36.65125224948894
 20
0.2223728688927933
 30
0.0
 10
34.08597095808749
 20
2.784406735021583
 30
0.0
 10
31.51996554058691
 20
5.273722397906298
 30
0.0
 10
28.9541958223793
 20
7.625786737596946
 30
0.0
 10
26.38918324599625
 20
9.779097169457913
 30
0.0
 10
23.8912347142152
 20
11.62825664402572
 30
0.0
 10
21.46079752762008
 20
13.15047176441617
 30
0.0
 10
19.09638200595893
 20
14.34163250998146
 30
0.0
 10
16.73072350565668
 20
15.2082496314953
 30
0.0
 10
14.36471909232945
 20
15.76323514703064
 30
0.0
 10
12.78810553034975
 20
15.83766240590596
 30
0.0
 10
11.99999999999942
 20
15.8748665348967
 30
0.0
1001
PE_URL
1000

  0
SPLINE
  5
B2
330
1F
100
AcDbEntity
  8
0
  6
Continuous
 62
     1
370
    15
100
AcDbSpline
210
0.0
220
0.0
230
1.0
 70
     8
 71
     3
 72
    30
 73
    26
 74
     0
 42
0.000000001
 43
0.00000001
 40
0.0
 40
0.0
 40
0.0
 40
0.0
 40
0.0170128549976136
 40
0.0590588072515661
 40
0.1010855690586575
 40
0.1431061170717084
 40
0.1886874663260598
 40
0.2342752097386359
 40
0.2798728697587037
 40
0.3254743462718247
 40
0.3710651131771154
 40
0.4166482688313229
 40
0.4622273465467568
 40
0.5078058893023738
 40
0.5533874413459888
 40
0.5989755397900198
 40
0.6445737062436132
 40
0.6901748132595514
 40
0.7357651793347566
 40
0.7813480861852292
 40
0.8269270677127722
 40
0.8725056671244743
 40
0.9180874285337619
 40
0.9636758885568254
 40
1.0
 40
1.0
 40
1.0
 40
1.0
 10
15.77342597900692
 20
15.83257204040273
 30
0.0
 10
16.09254128346251
 20
15.84306427251141
 30
0.0
 10
17.20032532438404
 20
15.87948724289656
 30
0.0
 10
19.09639307865103
 20
15.5727091209796
 30
0.0
 10
21.46079456979923
 20
14.92593166090035
 30
0.0
 10
23.8912355818009
 20
13.898851902334
 30
0.0
 10
26.38918300555428
 20
12.51002409854917
 30
0.0
 10
28.95419588682447
 20
10.75632791935438
 30
0.0
 10
31.51996552331693
 20
8.722837157938176
 30
0.0
 10
34.08597096270899
 20
6.46209012669598
 30
0.0
 10
36.65125224826969
 20
4.032862724615833
 30
0.0
 10
39.21593627536812
 20
1.498799919742234
 30
0.0
 10
41.78026646683095
 20
-1.074193280544069
 30
0.0
 10
44.34455298604546
 20
-3.619192468727458
 30
0.0
 10
46.90909723307574
 20
-6.070003238754978
 30
0.0
 10
49.47417747800092
 20
-8.362880093934017
 30
0.0
 10
52.03996988761121
 20
-10.43789667842018
 30
0.0
 10
54.60595418608214
 20
-12.24093006030384
 30
0.0
 10
57.17120527876311
 20
-13.72510157970923
 30
0.0
 10
59.73586816354782
 20
-14.85181770685423
 30
0.0
 10
62.30019061066284
 20
-15.59082192576132
 30
0.0
 10
64.86448055965991
 20
-15.92684789248456
 30
0.0
 10
67.42904751196589
 20
-15.83645270664484
 30
0.0
 10
69.82019554626213
 20
-15.40791832629057
 30
0.0
 10
71.35669650645342
 20
-14.83028816358839
 30
0.0
 10
72.03805751260296
 20
-14.57413819750435
 30
0.0
1001
PE_URL
1000

  0
SPLINE
  5
B3
330
1F
100
AcDbEntity
  8
0
  6
Continuous
 62
     1
370
    15
100
AcDbSpline
210
0.0
220
0.0
230
1.0
 70
     8
 71
     3
 72
    30
 73
    26
 74
     0
 42
0.000000001
 43
0.00000001
 40
0.0
 40
0.0
 40
0.0
 40
0.0
 40
0.0131780503533012
 40
0.0587681728014143
 40
0.1043690153929555
 40
0.1499678454775754
 40
0.1955564561610348
 40
0.2411383682085804
 40
0.2867171182480913
 40
0.3322962504047055
 40
0.3778793078972218
 40
0.4234698246391216
 40
0.4690710823572513
 40
0.5146693995033185
 40
0.5602576486065503
 40
0.6058393512877314
 40
0.6514180446709694
 40
0.6969972730157925
 40
0.7425805793128659
 40
0.7881714968861767
 40
0.8337731241027101
 40
0.8793709348135774
 40
0.9249588288841811
 40
0.9705403287754285
 40
0.9999999999999999
 40
0.9999999999999999
 40
0.9999999999999999
 40
0.9999999999999999
 10
78.43269079413382
 20
-15.83245203380011
 30
0.0
 10
78.18555069703955
 20
-15.84479630094594
 30
0.0
 10
77.08341710801763
 20
-15.89984617594894
 30
0.0
 10
75.12592860205638
 20
-15.58007840808323
 30
0.0
 10
72.55998006339419
 20
-14.87094337096208
 30
0.0
 10
69.99415153262535
 20
-13.74334488856609
 30
0.0
 10
67.42904428146602
 20
-12.2660073458079
 30
0.0
 10
64.86448142514863
 20
-10.46704791736518
 30
0.0
 10
62.30019037876129
 20
-8.396118851942095
 30
0.0
 10
59.73586822569133
 20
-6.106333907101507
 30
0.0
 10
57.17120526210857
 20
-3.65744631499755
 30
0.0
 10
54.60595419054505
 20
-1.113031246332099
 30
0.0
 10
52.03996988641975
 20
1.460221415686719
 30
0.0
 10
49.47417747830359
 20
3.995538706532149
 30
0.0
 10
46.90909723305612
 20
6.426738814374803
 30
0.0
 10
44.3445529858213
 20
8.690341549300538
 30
0.0
 10
41.78026646774707
 20
10.72751807895601
 30
0.0
 10
39.2159362719278
 20
12.48531503447914
 30
0.0
 10
36.65125226111703
 20
13.9179057666998
 30
0.0
 10
34.08597091474694
 20
14.98829037834073
 30
0.0
 10
31.51996570235336
 20
15.66718140114537
 30
0.0
 10
28.95419521878038
 20
15.94151827048829
 30
0.0
 10
26.38918549798295
 20
15.78721088993111
 30
0.0
 10
24.12680645121665
 20
15.33219494234469
 30
0.0
 10
22.71980381784121
 20
14.78563950988379
 30
0.0
 10
22.16744256900927
 20
14.57107271798964
 30
0.0
1001
PE_URL
1000

  0
LINE
  5
B4
330
1F
100
AcDbEntity
  8
0
  6
Continuous
 62
     1
370
    15
100
AcDbLine
 10
113.5999999999994
 20
-15.75915299560636
 30
0.0
 11
113.5999999999994
 21
-9.519048787002898
 31
0.0
1001
PE_URL
1000

  0
SPLINE
  5
B5
330
1F
100
AcDbEntity
  8
0
  6
Continuous
 62
     1
370
    15
100
AcDbSpline
210
0.0
220
0.0
230
1.0
 70
     8
 71
     3
 72
    12
 73
     8
 74
     0
 42
0.000000001
 43
0.00000001
 40
0.0
 40
0.0
 40
0.0
 40
0.0
 40
0.2325747808306873
 40
0.4652683422601045
 40
0.6979335976912834
 40
0.9304926609688442
 40
1.0
 40
1.0
 40
1.0
 40
1.0
 10
11.99999999999936
 20
-15.42875831475847
 30
0.0
 10
12.78810566094621
 20
-15.58100643409859
 30
0.0
 10
14.36471948418564
 20
-15.88558042894271
 30
0.0
 10
16.73072193737719
 20
-15.90471000556309
 30
0.0
 10
19.09638788497463
 20
-15.57259612399462
 30
0.0
 10
20.90837609671698
 20
-15.11621915749115
 30
0.0
 10
21.93191903648844
 20
-14.6730489186098
 30
0.0
 10
22.16744256900938
 20
-14.57107271798963
 30
0.0
1001
PE_URL
1000

  0
SPLINE
  5
B6
330
1F
100
AcDbEntity
  8
0
  6
Continuous
 62
     1
370
    15
100
AcDbSpline
210
0.0
220
0.0
230
1.0
 70
     8
 71
     3
 72
    26
 73
    22
 74
     0
 42
0.000000001
 43
0.00000001
 40
0.0
 40
0.0
 40
0.0
 40
0.0
 40
0.0371984260035301
 40
0.0906876201034111
 40
0.1441888046439761
 40
0.1976923504623193
 40
0.2511833183182287
 40
0.3046657126360986
 40
0.3581436804360314
 40
0.4116213792319868
 40
0.465102967175973
 40
0.5185925931989903
 40
0.5720943871989821
 40
0.6255973924155229
 40
0.6790879053185046
 40
0.7325700231330827
 40
0.7860478935345622
 40
0.8395256742679174
 40
0.893007523290806
 40
0.9464975889155013
 40
1.0
 40
1.0
 40
1.0
 40
1.0
 10
65.6452272672371
 20
15.83115882470241
 30
0.0
 10
66.23979416319119
 20
15.82923500020004
 30
0.0
 10
67.68931401065011
 20
15.8245448268685
 30
0.0
 10
69.9941548409443
 20
15.34019491110229
 30
0.0
 10
72.55997745349956
 20
14.45841075302973
 30
0.0
 10
75.12593573230743
 20
13.18474484608657
 30
0.0
 10
77.69115735688818
 20
11.57160046141267
 30
0.0
 10
80.25579949679292
 20
9.656073517234908
 30
0.0
 10
82.82011423248268
 20
7.489409153602865
 30
0.0
 10
85.38441041666596
 20
5.127602550667685
 30
0.0
 10
87.94899215426845
 20
2.63217697085164
 30
0.0
 10
90.51412804076179
 20
0.0679622302779548
 30
0.0
 10
93.07998823684493
 20
-2.497981487820634
 30
0.0
 10
95.64591561418221
 20
-4.998823479592017
 30
0.0
 10
98.21110855769648
 20
-7.369490438391576
 30
0.0
 10
100.7757301051528
 20
-9.54812273630123
 30
0.0
 10
103.3400380806085
 20
-11.47741507641958
 30
0.0
 10
105.9043398775176
 20
-13.10987900464864
 30
0.0
 10
108.4689412749386
 20
-14.39303284585976
 30
0.0
 10
111.0341055344458
 20
-15.33080607327456
 30
0.0
 10
112.7446360542521
 20
-15.61635970517561
 30
0.0
 10
113.5999999999994
 20
-15.75915299560637
 30
0.0
1001
PE_URL
1000

  0
SPLINE
  5
B7
330
1F
100
AcDbEntity
  8
외형선
  6
Continuous
370
    15
100
AcDbSpline
210
0.0
220
0.0
230
1.0
 70
    24
 71
     3
 72
    15
 73
    11
 74
     0
 42
0.000000001
 43
0.00000001
 40
0.0
 40
0.0
 40
0.0
 40
0.0
 40
0.136047070212487
 40
0.2687060946515817
 40
0.4052122397863714
 40
0.537871264225438
 40
0.6743774093602584
 40
0.8070364337993523
 40
0.9435425789341398
 40
1.0
 40
1.0
 40
1.0
 40
1.0
 10
11.99999999999938
 20
-8.111845832631658
 30
0.0
 10
11.99999999999934
 20
-8.372438714677308
 30
0.0
 10
11.99999999999927
 20
-8.88713480860363
 30
0.0
 10
11.99999999999946
 20
-9.8081684768411
 30
0.0
 10
11.99999999999941
 20
-10.79505021108127
 30
0.0
 10
11.99999999999942
 20
-11.8485960490443
 30
0.0
 10
11.99999999999939
 20
-12.91713537724567
 30
0.0
 10
11.99999999999943
 20
-13.98920049687795
 30
0.0
 10
11.99999999999932
 20
-14.82440211043671
 30
0.0
 10
11.99999999999936
 20
-15.2919599118851
 30
0.0
 10
11.99999999999938
 20
-15.42875831475848
 30
0.0
  0
SPLINE
  5
B8
330
1F
100
AcDbEntity
  8
0
  6
Continuous
 62
     1
370
    15
100
AcDbSpline
210
0.0
220
0.0
230
1.0
 70
     8
 71
     3
 72
    24
 73
    20
 74
     0
 42
0.000000001
 43
0.00000001
 40
0.0
 40
0.0
 40
0.0
 40
0.0
 40
0.0617316686068705
 40
0.1234490928868414
 40
0.185157036761546
 40
0.2468602865991754
 40
0.3085636398968691
 40
0.3702718939063726
 40
0.4319898342609352
 40
0.4937221883838708
 40
0.5554531449918705
 40
0.6171700620546045
 40
0.6788777046936091
 40
0.7405808599909675
 40
0.8022843256680651
 40
0.8639928987100992
 40
0.9257113639943381
 40
0.9874443418695613
 40
0.9999999999999999
 40
0.9999999999999999
 40
0.9999999999999999
 40
0.9999999999999999
 10
113.5999999999994
 20
-9.537449048936999
 30
0.0
 10
112.7446360542522
 20
-8.82986849245783
 30
0.0
 10
111.0341055344459
 20
-7.414870650782795
 30
0.0
 10
108.4689412749381
 20
-5.032481642050369
 30
0.0
 10
105.904339877519
 20
-2.537041647541704
 30
0.0
 10
103.3400380806028
 20
0.0291666773552643
 30
0.0
 10
100.7757301051735
 20
2.593337622085309
 30
0.0
 10
98.21110855761954
 20
5.090397844002344
 30
0.0
 10
95.6459156144692
 20
7.454977053031683
 30
0.0
 10
93.07998823577353
 20
9.625274485100764
 30
0.0
 10
90.51412804475976
 20
11.54483351900075
 30
0.0
 10
87.94899213935246
 20
13.16369282119403
 30
0.0
 10
85.38441047232247
 20
14.43934478894544
 30
0.0
 10
82.82011402478497
 20
15.3394905396414
 30
0.0
 10
80.25580027196511
 20
15.83776524382526
 30
0.0
 10
77.69115446344323
 20
15.93225981265505
 30
0.0
 10
75.12594653376169
 20
15.57910092669966
 30
0.0
 10
73.24133532736309
 20
15.11100612634596
 30
0.0
 10
72.2120234021109
 20
14.65175677040873
 30
0.0
 10
72.03805751260307
 20
14.57413819750436
 30
0.0
1001
PE_URL
1000

  0
SPLINE
  5
B9
330
1F
100
AcDbEntity
  8
0
  6
Continuous
 62
     1
370
    15
100
AcDbSpline
210
0.0
220
0.0
230
1.0
 70
     8
 71
     3
 72
    14
 73
    10
 74
     0
 42
0.000000001
 43
0.00000001
 40
0.0
 40
0.0
 40
0.0
 40
0.0
 40
0.1310571535716713
 40
0.28592233249694
 40
0.4286894904032554
 40
0.5714777600217442
 40
0.7143312302548576
 40
0.8572020800063241
 40
1.0
 40
1.0
 40
1.0
 40
1.0
 10
28.5594391078633
 20
-15.84805942313686
 30
0.0
 10
27.83597579822793
 20
-15.83036469593349
 30
0.0
 10
26.25762382483661
 20
-15.79176079269733
 30
0.0
 10
23.89123915945336
 20
-15.24834623974048
 30
0.0
 10
21.46079637756231
 20
-14.36842197676469
 30
0.0
 10
19.0963823141851
 20
-13.1851673450914
 30
0.0
 10
16.73072342343459
 20
-11.70916943456124
 30
0.0
 10
14.36471911287377
 20
-9.985997689646315
 30
0.0
 10
12.78810553719669
 20
-8.657758281441136
 30
0.0
 10
11.99999999999942
 20
-7.99380812366035
 30
0.0
1001
PE_URL
1000

  0
SPLINE
  5
BA
330
1F
100
AcDbEntity
  8
0
  6
Continuous
 62
     1
370
    15
100
AcDbSpline
210
0.0
220
0.0
230
1.0
 70
     8
 71
     3
 72
    30
 73
    26
 74
     0
 42
0.000000001
 43
0.00000001
 40
0.0
 40
0.0
 40
0.0
 40
0.0
 40
0.0080384679719603
 40
0.053637270117579
 40
0.0992390128665373
 40
0.1448300145250213
 40
0.1904135568547825
 40
0.2359931738068904
 40
0.2815724086378302
 40
0.3271548055104374
 40
0.3727439010902072
 40
0.4183432161798347
 40
0.4639445437977893
 40
0.509535151158293
 40
0.5551184512513809
 40
0.6006979786020914
 40
0.6462772766794271
 40
0.6918598894962031
 40
0.7374493532061246
 40
0.7830491877409321
 40
0.828650054601389
 40
0.8742402742033395
 40
0.9198233386313515
 40
0.9654027829688948
 40
1.0
 40
1.0
 40
1.0
 40
1.0
 10
49.02176292710176
 20
15.84494108167904
 30
0.0
 10
49.17252281288601
 20
15.85443292955466
 30
0.0
 10
50.17847926440288
 20
15.91776798421879
 30
0.0
 10
52.03998567610834
 20
15.63346131661113
 30
0.0
 10
54.60594996085176
 20
14.97456427752929
 30
0.0
 10
57.17120639449797
 20
13.88791665355089
 30
0.0
 10
59.73586792469742
 20
12.44965709754847
 30
0.0
 10
62.3001904505314
 20
10.6844909402258
 30
0.0
 10
64.86448143904695
 20
8.641766686046878
 30
0.0
 10
67.4290441540797
 20
6.373689314008939
 30
0.0
 10
69.99415202839822
 20
3.939438064062593
 30
0.0
 10
72.55997820723296
 20
1.402546311378401
 30
0.0
 10
75.1259355303957
 20
-1.170807048207907
 30
0.0
 10
77.69115741096603
 20
-3.713789813470953
 30
0.0
 10
80.25579948234025
 20
-6.159792827937318
 30
0.0
 10
82.82011423622392
 20
-8.445263383570246
 30
0.0
 10
85.38441041615317
 20
-10.51075722846595
 30
0.0
 10
87.94899215257774
 20
-12.30256544774571
 30
0.0
 10
90.51412804803944
 20
-13.77396344947168
 30
0.0
 10
93.07998820941856
 20
-14.88673643267191
 30
0.0
 10
95.64591571659982
 20
-15.61078121640836
 30
0.0
 10
98.21110817557525
 20
-15.93149646517743
 30
0.0
 10
100.7757315309674
 20
-15.82468663760092
 30
0.0
 10
103.1340860251137
 20
-15.39024611352006
 30
0.0
 10
104.6376432003601
 20
-14.81737524273143
 30
0.0
 10
105.2864466429417
 20
-14.57017440511682
 30
0.0
1001
PE_URL
1000

  0
SPLINE
  5
BB
330
1F
100
AcDbEntity
  8
0
  6
Continuous
 62
     1
370
    15
100
AcDbSpline
210
0.0
220
0.0
230
1.0
 70
     8
 71
     3
 72
    30
 73
    26
 74
     0
 42
0.000000001
 43
0.00000001
 40
0.0
 40
0.0
 40
0.0
 40
0.0
 40
0.0114795748025207
 40
0.0570699102497729
 40
0.1026532425717115
 40
0.1482331074332471
 40
0.193813048720186
 40
0.239396610137063
 40
0.2849873268058912
 40
0.3305886908493117
 40
0.376189022555828
 40
0.4217789833243854
 40
0.467362093125103
 40
0.5129418881502397
 40
0.5585219124512508
 40
0.6041057095357737
 40
0.6496968139673822
 40
0.6952986387733242
 40
0.7408984510289967
 40
0.7864880436633889
 40
0.8320709375175828
 40
0.8776506692956343
 40
0.9232307831990197
 40
0.9688148225228566
 40
1.0
 40
1.0
 40
1.0
 40
1.0
 10
111.6799470437507
 20
-15.87500000000001
 30
0.0
 10
111.4646207006262
 20
-15.84770037351918
 30
0.0
 10
110.3941407143959
 20
-15.90590164115005
 30
0.0
 10
108.4689532756059
 20
-15.59849637404036
 30
0.0
 10
105.9043366624303
 20
-14.90593111771792
 30
0.0
 10
103.3400389420598
 20
-13.79211228435923
 30
0.0
 10
100.775729874308
 20
-12.32791299392367
 30
0.0
 10
98.2111086195649
 20
-10.54018026656246
 30
0.0
 10
95.64591559759404
 20
-8.478329554867155
 30
0.0
 10
93.07998824130894
 20
-6.195514560388056
 30
0.0
 10
90.51412803949562
 20
-3.751309480902821
 30
0.0
 10
87.94899215487008
 20
-1.209324914515768
 30
0.0
 10
85.3844104155254
 20
1.363943031563122
 30
0.0
 10
82.82011423644299
 20
3.901597826738108
 30
0.0
 10
80.25579948209139
 20
6.337637471649518
 30
0.0
 10
77.69115741174227
 20
8.608694401783083
 30
0.0
 10
75.12593552753842
 20
10.65568143591277
 30
0.0
 10
72.559978217888
 20
12.424986755866
 30
0.0
 10
69.99415198864202
 20
13.87057749681231
 30
0.0
 10
67.42904430240495
 20
14.95508354194057
 30
0.0
 10
64.86448088559247
 20
15.64890491774372
 30
0.0
 10
62.30019251591075
 20
15.93896724633215
 30
0.0
 10
59.73586021622341
 20
15.7994874286108
 30
0.0
 10
57.44140178836558
 20
15.35458206716654
 30
0.0
 10
56.00155602088739
 20
14.79225307964799
 30
0.0
 10
55.41666213151856
 20
14.56382389921529
 30
0.0
1001
PE_URL
1000

  0
LINE
  5
BC
330
1F
100
AcDbEntity
  8
0
  6
Continuous
 62
     1
370
    15
100
AcDbLine
 10
113.5999999999994
 20
-6.221703946669128
 30
0.0
 11
113.5999999999994
 21
6.221703946669426
 31
0.0
1001
PE_URL
1000

  0
SPLINE
  5
BD
330
1F
100
AcDbEntity
  8
0
  6
Continuous
 62
     1
370
    15
100
AcDbSpline
210
0.0
220
0.0
230
1.0
 70
     8
 71
     3
 72
    18
 73
    14
 74
     0
 42
0.000000001
 43
0.00000001
 40
0.0
 40
0.0
 40
0.0
 40
0.0
 40
0.0882693958126585
 40
0.1765838725736756
 40
0.2648876063239783
 40
0.3531510368341513
 40
0.4414014173077545
 40
0.5371300930248667
 40
0.6328721975743676
 40
0.7286351287057559
 40
0.8244060751291845
 40
0.9201545295335787
 40
1.0
 40
1.0
 40
1.0
 40
1.0
 10
11.99999999999936
 20
-4.477593498955276
 30
0.0
 10
12.78810553033218
 20
-5.224306441120327
 30
0.0
 10
14.36471909227684
 20
-6.718113686705647
 30
0.0
 10
16.73072350586698
 20
-8.782623705720276
 30
0.0
 10
19.09638200517028
 20
-10.659927421363
 30
0.0
 10
21.46079753056258
 20
-12.29928634018956
 30
0.0
 10
23.89123470284172
 20
-13.70506944757149
 30
0.0
 10
26.3891832924694
 20
-14.81616220227502
 30
0.0
 10
28.95419564936483
 20
-15.57030288960377
 30
0.0
 10
31.51996618633636
 20
-15.92167818620023
 30
0.0
 10
34.08596854818451
 20
-15.84752768241826
 30
0.0
 10
36.50938295632799
 20
-15.42529174144899
 30
0.0
 10
38.077388735505
 20
-14.84329337410147
 30
0.0
 10
38.79038697405208
 20
-14.57864906202895
 30
0.0
1001
PE_URL
1000

  0
SPLINE
  5
BE
330
1F
100
AcDbEntity
  8
0
  6
Continuous
 62
     1
370
    15
100
AcDbSpline
210
0.0
220
0.0
230
1.0
 70
     8
 71
     3
 72
    20
 73
    16
 74
     0
 42
0.000000001
 43
0.00000001
 40
0.0
 40
0.0
 40
0.0
 40
0.0
 40
0.0175237644289935
 40
0.0993809754567554
 40
0.1812441395232279
 40
0.2631196073115566
 40
0.3450137003713801
 40
0.4269096474154043
 40
0.5087864727326102
 40
0.5906504478610736
 40
0.6725079215618734
 40
0.7543652580095241
 40
0.83622882170409
 40
0.9181049623816441
 40
1.0
 40
1.0
 40
1.0
 40
1.0
 10
82.27116928525872
 20
15.84018002352447
 30
0.0
 10
82.45415221371478
 20
15.85092689720528
 30
0.0
 10
83.49188711340392
 20
15.91187469148979
 30
0.0
 10
85.3844078487692
 20
15.61636332171773
 30
0.0
 10
87.94899284246533
 20
14.94062739846842
 30
0.0
 10
90.51412785630163
 20
13.84038591781017
 30
0.0
 10
93.07998828627727
 20
12.38902716475407
 30
0.0
 10
95.64591560094011
 20
10.61240879518601
 30
0.0
 10
98.21110856124366
 20
8.559930346687608
 30
0.0
 10
100.7757301042025
 20
6.284414142122714
 30
0.0
 10
103.3400380808631
 20
3.845569629864689
 30
0.0
 10
105.9043398774493
 20
1.305717322959835
 30
0.0
 10
108.4689412749567
 20
-1.265115905164929
 30
0.0
 10
111.0341055344413
 20
-3.814851421012824
 30
0.0
 10
112.7446360542506
 20
-5.419358058786661
 30
0.0
 10
113.5999999999994
 20
-6.221703946669129
 30
0.0
1001
PE_URL
1000

  0
SPLINE
  5
BF
330
1F
100
AcDbEntity
  8
외형선
  6
Continuous
370
    15
100
AcDbSpline
210
0.0
220
0.0
230
1.0
 70
    24
 71
     3
 72
    34
 73
    30
 74
     0
 42
0.000000001
 43
0.00000001
 40
0.0
 40
0.0
 40
0.0
 40
0.0
 40
0.1250000000000008
 40
0.1250000000000008
 40
0.1562500000000009
 40
0.1562500000000009
 40
0.187500000000001
 40
0.187500000000001
 40
0.2500000000000008
 40
0.2500000000000008
 40
0.3750000000000007
 40
0.3750000000000007
 40
0.5000000000000004
 40
0.5000000000000004
 40
0.5625000000000003
 40
0.5625000000000003
 40
0.6250000000000002
 40
0.6250000000000002
 40
0.6875000000000002
 40
0.6875000000000002
 40
0.7500000000000002
 40
0.7500000000000002
 40
0.8125000000000001
 40
0.8125000000000001
 40
0.8750000000000001
 40
0.8750000000000001
 40
0.9375
 40
0.9375
 40
1.0
 40
1.0
 40
1.0
 40
1.0
 10
11.99999999999941
 20
7.881058411236431
 30
0.0
 10
11.99999999999942
 20
7.692570452402516
 30
0.0
 10
11.99999999999941
 20
7.443965610484172
 30
0.0
 10
11.99999999999942
 20
7.112548276366053
 30
0.0
 10
11.99999999999938
 20
7.045113647452124
 30
0.0
 10
11.99999999999936
 20
6.908852616112624
 30
0.0
 10
11.99999999999936
 20
6.83864576749298
 30
0.0
 10
11.99999999999941
 20
6.611259736068243
 30
0.0
 10
11.99999999999942
 20
6.441007847311205
 30
0.0
 10
11.99999999999943
 20
5.864611493391283
 30
0.0
 10
11.99999999999938
 20
5.391375447708237
 30
0.0
 10
11.99999999999936
 20
4.233301231809179
 30
0.0
 10
11.99999999999939
 20
3.545921313370794
 30
0.0
 10
11.99999999999938
 20
2.386955861580858
 30
0.0
 10
11.99999999999938
 20
1.980238597476689
 30
0.0
 10
11.99999999999936
 20
1.144476618640064
 30
0.0
 10
11.99999999999939
 20
0.7155114189373256
 30
0.0
 10
11.99999999999941
 20
-0.1380471298986977
 30
0.0
 10
11.99999999999938
 20
-0.5624520023159895
 30
0.0
 10
11.99999999999942
 20
-1.37596054337765
 30
0.0
 10
11.99999999999942
 20
-1.764826965245071
 30
0.0
 10
11.99999999999941
 20
-2.478787352790983
 30
0.0
 10
11.99999999999941
 20
-2.803701993698932
 30
0.0
 10
11.99999999999941
 20
-3.370416156405438
 30
0.0
 10
11.99999999999939
 20
-3.612172667830077
 30
0.0
 10
11.99999999999941
 20
-4.005926671133673
 30
0.0
 10
11.99999999999939
 20
-4.158012832797131
 30
0.0
 10
11.99999999999942
 20
-4.377696659288595
 30
0.0
 10
11.99999999999941
 20
-4.445445982430322
 30
0.0
 10
11.99999999999939
 20
-4.477593498955267
 30
0.0
  0
SPLINE
  5
C0
330
1F
100
AcDbEntity
  8
0
  6
Continuous
 62
     1
370
    15
100
AcDbSpline
210
0.0
220
0.0
230
1.0
 70
     8
 71
     3
 72
    17
 73
    13
 74
     0
 42
0.000000001
 43
0.00000001
 40
0.0
 40
0.0
 40
0.0
 40
0.0
 40
0.1028915870523125
 40
0.2057594322969877
 40
0.3086114760257513
 40
0.4114556959432481
 40
0.5143000883033576
 40
0.617152648950947
 40
0.7200213543656934
 40
0.8229140840055542
 40
0.9258044843299611
 40
1.0
 40
1.0
 40
1.0
 40
1.0
 10
113.5999999999994
 20
6.221703946669425
 30
0.0
 10
112.7446360540872
 20
6.99271933106674
 30
0.0
 10
111.0341055339513
 20
8.534572191254199
 30
0.0
 10
108.4689412769164
 20
10.5817197665044
 30
0.0
 10
105.9043398701022
 20
12.36469271072627
 30
0.0
 10
103.3400381082903
 20
13.82236328455314
 30
0.0
 10
100.775730001836
 20
14.9211099256925
 30
0.0
 10
98.21110894334046
 20
15.63005637955683
 30
0.0
 10
95.64591417454902
 20
15.93553485995269
 30
0.0
 10
93.07999361094558
 20
15.81239584818202
 30
0.0
 10
90.75246119642136
 20
15.37252801967793
 30
0.0
 10
89.28054976235148
 20
14.80463999485857
 30
0.0
 10
88.66384782274119
 20
14.56670608234102
 30
0.0
1001
PE_URL
1000

  0
SPLINE
  5
C1
330
1F
100
AcDbEntity
  8
0
  6
Continuous
 62
     1
370
    15
100
AcDbSpline
210
0.0
220
0.0
230
1.0
 70
     8
 71
     3
 72
    21
 73
    17
 74
     0
 42
0.000000001
 43
0.00000001
 40
0.0
 40
0.0
 40
0.0
 40
0.0
 40
0.0252688992218382
 40
0.1025499138843264
 40
0.179831835601647
 40
0.2571206716963721
 40
0.334422413100724
 40
0.4117423132549979
 40
0.4890557423279739
 40
0.5663523572282583
 40
0.6436381304691637
 40
0.7148863624395057
 40
0.7861451302514815
 40
0.8574364365588891
 40
0.9287364161492376
 40
0.9999999999999999
 40
0.9999999999999999
 40
0.9999999999999999
 40
0.9999999999999999
 10
45.18297843376024
 20
-15.82944017782299
 30
0.0
 10
44.90348815206085
 20
-15.84211839347948
 30
0.0
 10
43.76922013080064
 20
-15.89357096813919
 30
0.0
 10
41.78027184116088
 20
-15.56094959305472
 30
0.0
 10
39.21593483487081
 20
-14.83538425700326
 30
0.0
 10
36.65125263548367
 20
-13.69427069001723
 30
0.0
 10
34.0859708546257
 20
-12.20407347822389
 30
0.0
 10
31.51996556831016
 20
-10.39396242734506
 30
0.0
 10
28.95419581495149
 20
-8.313528456008314
 30
0.0
 10
26.38918324799143
 20
-6.016420207578507
 30
0.0
 10
23.89123471372694
 20
-3.626562887396918
 30
0.0
 10
21.46079752774643
 20
-1.216275463049254
 30
0.0
 10
19.09638200592507
 20
1.156016316464491
 30
0.0
 10
16.73072350566568
 20
3.49919993121938
 30
0.0
 10
14.36471909232722
 20
5.777207540122491
 30
0.0
 10
12.78810553034899
 20
7.179894153741646
 30
0.0
 10
11.99999999999942
 20
7.881058411236386
 30
0.0
1001
PE_URL
1000

  0
SPLINE
  5
C2
330
1F
100
AcDbEntity
  8
0
  6
Continuous
 62
     1
370
    15
100
AcDbSpline
210
0.0
220
0.0
230
1.0
 70
     8
 71
     3
 72
    30
 73
    26
 74
     0
 42
0.000000001
 43
0.00000001
 40
0.0
 40
0.0
 40
0.0
 40
0.0
 40
0.0300074465672343
 40
0.0755969340782615
 40
0.1211788105517966
 40
0.1667566092009958
 40
0.2123338729053904
 40
0.2579141458133345
 40
0.3035009649379858
 40
0.3490978517896653
 40
0.3946976791211698
 40
0.4402867658133597
 40
0.4858683934901422
 40
0.5314460959541497
 40
0.5770234163130394
 40
0.6226038985807809
 40
0.668191079274318
 40
0.7137884790484609
 40
0.7593878912663984
 40
0.8049765836771698
 40
0.8505579691274539
 40
0.8961355819938274
 40
0.9417129655964566
 40
0.9872936637992963
 40
1.0
 40
1.0
 40
1.0
 40
1.0
 10
32.39741320083785
 20
15.828390593746
 30
0.0
 10
32.9603195377337
 20
15.82949448766924
 30
0.0
 10
34.37843397633503
 20
15.83227549724158
 30
0.0
 10
36.65125034241147
 20
15.36532750181289
 30
0.0
 10
39.21593678595613
 20
14.49908768485665
 30
0.0
 10
41.78026633002072
 20
13.23889014211196
 30
0.0
 10
44.34455302272821
 20
11.63825949330234
 30
0.0
 10
46.90909722316185
 20
9.733263849900158
 30
0.0
 10
49.47417748096797
 20
7.574874891650289
 30
0.0
 10
52.03996988565956
 20
5.219035768786259
 30
0.0
 10
54.60595419092114
 20
2.727355875726758
 30
0.0
 10
57.17120526136456
 20
0.1644622345068099
 30
0.0
 10
59.73586822829114
 20
-2.402472615342549
 30
0.0
 10
62.30019036910704
 20
-4.906729809402417
 30
0.0
 10
64.864481461167
 20
-7.283173870819222
 30
0.0
 10
67.42904414702839
 20
-9.469994918291604
 30
0.0
 10
69.99415203448102
 20
-11.41028113257186
 30
0.0
 10
72.55997818995075
 20
-13.05333508024433
 30
0.0
 10
75.1259355934366
 20
-14.35614344929063
 30
0.0
 10
77.69115717616124
 20
-15.28555274685684
 30
0.0
 10
80.25580035835904
 20
-15.81462531735361
 30
0.0
 10
82.82011096719411
 20
-15.93947379336567
 30
0.0
 10
85.38442261667657
 20
-15.62039516174904
 30
0.0
 10
87.33229320783613
 20
-15.1505514866175
 30
0.0
 10
88.42552725192472
 20
-14.67120226181287
 30
0.0
 10
88.66384782274105
 20
-14.56670608234102
 30
0.0
1001
PE_URL
1000

  0
SPLINE
  5
C3
330
1F
100
AcDbEntity
  8
0
  6
Continuous
 62
     1
370
    15
100
AcDbSpline
210
0.0
220
0.0
230
1.0
 70
     8
 71
     3
 72
    30
 73
    26
 74
     0
 42
0.000000001
 43
0.00000001
 40
0.0
 40
0.0
 40
0.0
 40
0.0
 40
0.0351448538892448
 40
0.0807423203176807
 40
0.1263294164598114
 40
0.1719096620645799
 40
0.2174865931020501
 40
0.2630637534009884
 40
0.3086446862463771
 40
0.3542329259796972
 40
0.3998318854137407
 40
0.4454288324239722
 40
0.4910155604550693
 40
0.5365955901268832
 40
0.5821724579212424
 40
0.6277497078169247
 40
0.6733308828864064
 40
0.7189195168972305
 40
0.7645188914407189
 40
0.8101153255335805
 40
0.8557016919993818
 40
0.9012815123134773
 40
0.9468583234539034
 40
0.9924356695338223
 40
1.0
 40
1.0
 40
1.0
 40
1.0
 10
95.05776369720935
 20
-15.83841230313773
 30
0.0
 10
94.3985039404124
 20
-15.82933454056631
 30
0.0
 10
92.88391057708228
 20
-15.80847915116509
 30
0.0
 10
90.51412264406609
 20
-15.28790815636564
 30
0.0
 10
87.94899360018997
 20
-14.37519758313891
 30
0.0
 10
85.38441002832337
 20
-13.07491512790343
 30
0.0
 10
82.82011434013765
 20
-11.43765972209075
 30
0.0
 10
80.25579945450168
 20
-9.501546415505647
 30
0.0
 10
77.69115741839876
 20
-7.318122961533267
 30
0.0
 10
75.12593552850804
 20
-4.94377601837482
 30
0.0
 10
72.55997820734827
 20
-2.440775253634048
 30
0.0
 10
69.99415202982443
 20
0.1258876923444074
 30
0.0
 10
67.42904414826127
 20
2.689275821134146
 30
0.0
 10
64.86448146089084
 20
5.182402968717637
 30
0.0
 10
62.30019036897895
 20
7.540465079937048
 30
0.0
 10
59.73586822907954
 20
9.702141287707835
 30
0.0
 10
57.17120525833842
 20
11.61117610865529
 30
0.0
 10
54.60595420223997
 20
13.21793930927316
 30
0.0
 10
52.03996984340134
 20
14.48008057214275
 30
0.0
 10
49.47417763865189
 20
15.36570900936499
 30
0.0
 10
46.90909663485634
 20
15.84852378054016
 30
0.0
 10
44.3445552179185
 20
15.92775774755692
 30
0.0
 10
41.78025813797673
 20
15.557468371049
 30
0.0
 10
39.9289264983791
 20
15.09098374169373
 30
0.0
 10
38.93225578794174
 20
14.64248901818822
 30
0.0
 10
38.79038697405196
 20
14.57864906202895
 30
0.0
1001
PE_URL
1000

  0
LINE
  5
C4
330
1F
100
AcDbEntity
  8
0
  6
Continuous
 62
     1
370
    15
100
AcDbLine
 10
113.5999999999994
 20
-15.87500000000001
 30
0.0
 11
113.5999999999994
 21
-15.75915299560636
 31
0.0
1001
PE_URL
1000

  0
LINE
  5
C5
330
1F
100
AcDbEntity
  8
외형선
  6
Continuous
370
    15
100
AcDbLine
 10
11.99999999999938
 20
-15.87500000000001
 30
0.0
 11
11.99999999999936
 21
-15.42875831475847
 31
0.0
  0
LINE
  5
C6
330
1F
100
AcDbEntity
  8
외형선
  6
Continuous
370
    15
100
AcDbLine
 10
11.99999999999942
 20
7.881058411236427
 30
0.0
 11
11.99999999999936
 21
10.95116481580305
 31
0.0
  0
LINE
  5
C7
330
1F
100
AcDbEntity
  8
0
  6
Continuous
 62
     1
370
    15
100
AcDbLine
 10
113.5999999999994
 20
6.221703946669426
 30
0.0
 11
113.5999999999994
 21
9.537449048937084
 31
0.0
1001
PE_URL
1000

  0
LINE
  5
C8
330
1F
100
AcDbEntity
  8
0
  6
Continuous
 62
     1
370
    15
100
AcDbLine
 10
113.5999999999994
 20
-9.537449048936999
 30
0.0
 11
113.5999999999994
 21
-6.221703946669128
 31
0.0
1001
PE_URL
1000

  0
LINE
  5
C9
330
1F
100
AcDbEntity
  8
외형선
  6
Continuous
370
    15
100
AcDbLine
 10
11.99999999999942
 20
-7.993808123660385
 30
0.0
 11
11.99999999999936
 21
-4.477593498955276
 31
0.0
  0
LINE
  5
CA
330
1F
100
AcDbEntity
  8
0
  6
Continuous
 62
     1
370
    15
100
AcDbLine
 10
113.5999999999994
 20
15.75915299560637
 30
0.0
 11
113.5999999999994
 21
15.87500000000001
 31
0.0
1001
PE_URL
1000

  0
SPLINE
  5
CB
330
1F
100
AcDbEntity
  8
외형선
  6
Continuous
370
    15
100
AcDbSpline
210
0.0
220
0.0
230
1.0
 70
     8
 71
     3
 72
     8
 73
     4
 74
     0
 42
0.000000001
 43
0.00000001
 40
0.0
 40
0.0
 40
0.0
 40
0.0
 40
1.0
 40
1.0
 40
1.0
 40
1.0
 10
11.99999999999936
 20
-4.477593498955276
 30
0.0
 10
11.6659204300253
 20
-4.157438686160988
 30
0.0
 10
11.33222747575143
 20
-3.834437243599564
 30
0.0
 10
10.9999100489977
 20
-3.509563358781928
 30
0.0
  0
SPLINE
  5
CC
330
1F
100
AcDbEntity
  8
외형선
  6
Continuous
370
    15
100
AcDbSpline
210
0.0
220
0.0
230
1.0
 70
     8
 71
     3
 72
     8
 73
     4
 74
     0
 42
0.000000001
 43
0.00000001
 40
0.0
 40
0.0
 40
0.0
 40
0.0
 40
1.0
 40
1.0
 40
1.0
 40
1.0
 10
11.99999999999935
 20
-7.993808123660284
 30
0.0
 10
11.66592043002528
 20
-7.705498955121691
 30
0.0
 10
11.33222747575143
 20
-7.411997950135518
 30
0.0
 10
10.99991004899769
 20
-7.114204039946796
 30
0.0
  0
LINE
  5
CD
330
1F
100
AcDbEntity
  8
외형선
  6
Continuous
370
    15
100
AcDbLine
 10
10.99991004899769
 20
-15.16277613887486
 30
0.0
 11
10.99991004899769
 21
-7.114152354948824
 31
0.0
  0
SPLINE
  5
CE
330
1F
100
AcDbEntity
  8
외형선
  6
Continuous
370
    15
100
AcDbSpline
210
0.0
220
0.0
230
1.0
 70
     8
 71
     3
 72
     8
 73
     4
 74
     0
 42
0.000000001
 43
0.00000001
 40
0.0
 40
0.0
 40
0.0
 40
0.0
 40
1.0
 40
1.0
 40
1.0
 40
1.0
 10
11.99999999999936
 20
-15.42875831475846
 30
0.0
 10
11.6659204300253
 20
-15.35019307395779
 30
0.0
 10
11.33222747575143
 20
-15.26142192649039
 30
0.0
 10
10.9999100489977
 20
-15.1627622328905
 30
0.0
  0
LINE
  5
CF
330
1F
100
AcDbEntity
  8
외형선
  6
Continuous
370
    15
100
AcDbLine
 10
11.93494109655858
 20
-15.87308337862506
 30
0.0
 11
10.99991004899769
 21
-15.84745573369961
 31
0.0
  0
LINE
  5
D0
330
1F
100
AcDbEntity
  8
외형선
  6
Continuous
370
    15
100
AcDbLine
 10
10.99991004899769
 20
-15.875
 30
0.0
 11
10.99991004899769
 21
-15.84745232928248
 31
0.0
  0
LINE
  5
D1
330
1F
100
AcDbEntity
  8
외형선
  6
Continuous
370
    15
100
AcDbLine
 10
11.99999999999941
 20
15.87486653488488
 30
0.0
 11
11.99999999999938
 21
15.87500000000001
 31
0.0
  0
SPLINE
  5
D2
330
1F
100
AcDbEntity
  8
외형선
  6
Continuous
370
    15
100
AcDbSpline
210
0.0
220
0.0
230
1.0
 70
     8
 71
     3
 72
     8
 73
     4
 74
     0
 42
0.000000001
 43
0.00000001
 40
0.0
 40
0.0
 40
0.0
 40
0.0
 40
1.0
 40
1.0
 40
1.0
 40
1.0
 10
11.99999999999935
 20
15.87486653489668
 30
0.0
 10
11.66592043002528
 20
15.87623489987998
 30
0.0
 10
11.33222747575143
 20
15.86707040642747
 30
0.0
 10
10.99991004899769
 20
15.84745573369961
 30
0.0
  0
LINE
  5
D3
330
1F
100
AcDbEntity
  8
외형선
  6
Continuous
370
    15
100
AcDbLine
 10
10.99991004899769
 20
11.6531669892432
 30
0.0
 11
10.99991004899769
 21
15.87500000000001
 31
0.0
  0
SPLINE
  5
D4
330
1F
100
AcDbEntity
  8
외형선
  6
Continuous
370
    15
100
AcDbSpline
210
0.0
220
0.0
230
1.0
 70
     8
 71
     3
 72
     8
 73
     4
 74
     0
 42
0.000000001
 43
0.00000001
 40
0.0
 40
0.0
 40
0.0
 40
0.0
 40
1.0
 40
1.0
 40
1.0
 40
1.0
 10
11.99999999999936
 20
10.95116481580304
 30
0.0
 10
11.6659204300253
 20
11.19275438779666
 30
0.0
 10
11.33222747575143
 20
11.42698468289069
 30
0.0
 10
10.9999100489977
 20
11.65319887410844
 30
0.0
  0
SPLINE
  5
D5
330
1F
100
AcDbEntity
  8
외형선
  6
Continuous
370
    15
100
AcDbSpline
210
0.0
220
0.0
230
1.0
 70
     8
 71
     3
 72
     8
 73
     4
 74
     0
 42
0.000000001
 43
0.00000001
 40
0.0
 40
0.0
 40
0.0
 40
0.0
 40
1.0
 40
1.0
 40
1.0
 40
1.0
 10
11.99999999999935
 20
7.881058411236438
 30
0.0
 10
11.66592043002528
 20
8.17073594475832
 30
0.0
 10
11.33222747575143
 20
8.455072456291976
 30
0.0
 10
10.99991004899769
 20
8.733251693752841
 30
0.0
  0
LINE
  5
D6
330
1F
100
AcDbEntity
  8
외형선
  6
Continuous
370
    15
100
AcDbLine
 10
-48.32500000000063
 20
0.0000000000000006
 30
0.0
 11
-48.32500000000063
 21
13.97000000000001
 31
0.0
  0
LINE
  5
D7
330
1F
100
AcDbEntity
  8
외형선
  6
Continuous
370
    15
100
AcDbLine
 10
-48.32500000000063
 20
-15.87500000000003
 30
0.0
 11
-48.32500000000063
 21
0.0000000000000006
 31
0.0
  0
LINE
  5
D8
330
1F
100
AcDbEntity
  8
외형선
  6
Continuous
370
    15
100
AcDbLine
 10
10.99991004899769
 20
-3.509609149631522
 30
0.0
 11
10.99991004899769
 21
8.733299974333672
 31
0.0
  0
LINE
  5
D9
330
1F
100
AcDbEntity
  8
외형선
  6
Continuous
370
    15
100
AcDbLine
 10
-51.50000000000063
 20
0.0000000000000006
 30
0.0
 11
-51.50000000000063
 21
13.97000000000001
 31
0.0
  0
LINE
  5
DA
330
1F
100
AcDbEntity
  8
외형선
  6
Continuous
370
    15
100
AcDbLine
 10
-51.50000000000063
 20
-12.70000000000001
 30
0.0
 11
-51.50000000000063
 21
0.0000000000000006
 31
0.0
  0
SPLINE
  5
DB
330
1F
100
AcDbEntity
  8
외형선
  6
Continuous
370
    15
100
AcDbSpline
210
0.0
220
0.0
230
1.0
 70
    24
 71
     3
 72
    34
 73
    30
 74
     0
 42
0.000000001
 43
0.00000001
 40
0.0
 40
0.0
 40
0.0
 40
0.0
 40
0.0625
 40
0.0625
 40
0.1249999999999999
 40
0.1249999999999999
 40
0.1874999999999999
 40
0.1874999999999999
 40
0.2499999999999998
 40
0.2499999999999998
 40
0.3124999999999998
 40
0.3124999999999998
 40
0.3749999999999998
 40
0.3749999999999998
 40
0.4374999999999997
 40
0.4374999999999997
 40
0.4999999999999997
 40
0.4999999999999997
 40
0.6249999999999996
 40
0.6249999999999996
 40
0.7499999999999996
 40
0.7499999999999996
 40
0.8124999999999994
 40
0.8124999999999994
 40
0.8437499999999994
 40
0.8437499999999994
 40
0.8749999999999994
 40
0.8749999999999994
 40
1.0
 40
1.0
 40
1.0
 40
1.0
 10
11.99999999999942
 20
-4.477593498955265
 30
0.0
 10
11.99999999999942
 20
-4.445445982430345
 30
0.0
 10
11.99999999999941
 20
-4.377696659288707
 30
0.0
 10
11.99999999999939
 20
-4.158012832797565
 30
0.0
 10
11.99999999999941
 20
-4.005926671134342
 30
0.0
 10
11.99999999999936
 20
-3.612172667831371
 30
0.0
 10
11.99999999999941
 20
-3.370416156407122
 30
0.0
 10
11.99999999999942
 20
-2.803701993701504
 30
0.0
 10
11.99999999999942
 20
-2.478787352794044
 30
0.0
 10
11.99999999999942
 20
-1.764826965249153
 30
0.0
 10
11.99999999999942
 20
-1.375960543382265
 30
0.0
 10
11.99999999999939
 20
-0.562452002321582
 30
0.0
 10
11.99999999999941
 20
-0.1380471299047379
 30
0.0
 10
11.99999999999943
 20
0.7155114189305204
 30
0.0
 10
11.99999999999942
 20
1.144476618632951
 30
0.0
 10
11.99999999999941
 20
1.980238597469126
 30
0.0
 10
11.99999999999942
 20
2.386955861573155
 30
0.0
 10
11.99999999999945
 20
3.545921313362927
 30
0.0
 10
11.99999999999942
 20
4.233301231801528
 30
0.0
 10
11.99999999999939
 20
5.391375447701345
 30
0.0
 10
11.99999999999936
 20
5.864611493384934
 30
0.0
 10
11.99999999999938
 20
6.441007847305689
 30
0.0
 10
11.99999999999939
 20
6.611259736063012
 30
0.0
 10
11.99999999999941
 20
6.838645767488169
 30
0.0
 10
11.99999999999939
 20
6.908852616108028
 30
0.0
 10
11.99999999999939
 20
7.045113647447479
 30
0.0
 10
11.99999999999941
 20
7.11254827636139
 30
0.0
 10
11.99999999999942
 20
7.443965610479504
 30
0.0
 10
11.99999999999943
 20
7.692570452398048
 30
0.0
 10
11.99999999999939
 20
7.881058411232637
 30
0.0
  0
SPLINE
  5
DC
330
1F
100
AcDbEntity
  8
외형선
  6
Continuous
370
    15
100
AcDbSpline
210
0.0
220
0.0
230
1.0
 70
    24
 71
     3
 72
    15
 73
    11
 74
     0
 42
0.000000001
 43
0.00000001
 40
0.0
 40
0.0
 40
0.0
 40
0.0
 40
0.1334126233543344
 40
0.2675960283849861
 40
0.4017794334156381
 40
0.5359628384462889
 40
0.6701462434769399
 40
0.8043296485075909
 40
0.938513053538242
 40
0.9999999999999999
 40
0.9999999999999999
 40
0.9999999999999999
 40
0.9999999999999999
 10
11.99999999999936
 20
-15.42875831475846
 30
0.0
 10
11.99999999999938
 20
-15.10013455098674
 30
0.0
 10
11.99999999999939
 20
-14.44098842367704
 30
0.0
 10
11.99999999999936
 20
-13.38233943109917
 30
0.0
 10
11.99999999999934
 20
-12.30865321652928
 30
0.0
 10
11.99999999999936
 20
-11.24628185783321
 30
0.0
 10
11.99999999999935
 20
-10.2235417120348
 30
0.0
 10
11.99999999999936
 20
-9.280728705391656
 30
0.0
 10
11.99999999999936
 20
-8.564069204414515
 30
0.0
 10
11.99999999999938
 20
-8.219973560177326
 30
0.0
 10
11.99999999999938
 20
-8.111845832631658
 30
0.0
  0
SPLINE
  5
DD
330
1F
100
AcDbEntity
  8
외형선
  6
Continuous
370
    15
100
AcDbSpline
210
0.0
220
0.0
230
1.0
 70
    24
 71
     3
 72
    12
 73
     8
 74
     0
 42
0.000000001
 43
0.00000001
 40
0.0
 40
0.0
 40
0.0
 40
0.0
 40
0.0982011605824234
 40
0.310801804492462
 40
0.5234024484025613
 40
0.7360030923126601
 40
1.0
 40
1.0
 40
1.0
 40
1.0
 10
11.99999999999938
 20
11.06920252477433
 30
0.0
 10
11.99999999999936
 20
11.20374937584726
 30
0.0
 10
11.99999999999938
 20
11.62958348874603
 30
0.0
 10
11.99999999999943
 20
12.44606504995313
 30
0.0
 10
11.99999999999936
 20
13.48110701159705
 30
0.0
 10
11.99999999999936
 20
14.64136326031763
 30
0.0
 10
11.99999999999938
 20
15.43516428485394
 30
0.0
 10
11.99999999999941
 20
15.87486653488488
 30
0.0
  0
LINE
  5
DE
330
1F
100
AcDbEntity
  8
중심선
 62
     1
100
AcDbLine
 10
-58.50000000000062
 20
-0.0000000000000055
 30
0.0
 11
120.5999999999994
 21
0.0000000000000163
 31
0.0
  0
LINE
  5
DF
330
1F
100
AcDbEntity
  8
참조1
100
AcDbLine
 10
31.04999999999939
 20
-0.0000000000000051
 30
0.0
 11
31.04999999999941
 21
-40.00000000000001
 31
0.0
  0
LINE
  5
E0
330
1F
100
AcDbEntity
  8
참조1
100
AcDbLine
 10
31.04999999999941
 20
-40.00000000000001
 30
0.0
 11
-19.03385681430929
 21
-40.0
 31
0.0
  0
CIRCLE
  5
E1
330
1F
100
AcDbEntity
  8
해칭선
100
AcDbCircle
 10
0.0
 20
0.0
 30
0.0
 40
3.000000000000001
  0
INSERT
  5
E2
330
1F
100
AcDbEntity
  8
0
  6
Continuous
 62
     7
100
AcDbBlockReference
 66
     1
  2
블럭10
 10
17.1097270678742
 20
-52.04717430164393
 30
0.0
  0
ATTRIB
  5
E3
330
E2
100
AcDbEntity
  8
FORMAT
 62
     2
100
AcDbText
 10
7.928431779132914
 20
-49.97180738881175
 30
0.0
 40
4.233333333333333
  1
E1035116 [ 6 FLUTE ]
 41
0.75
  7
SLDTEXTSTYLE0
 11
7.928431779132914
 21
-52.08847405547841
 31
0.0
100
AcDbAttribute
  2
AUTOATTR0
 70
     0
 74
     1
  0
SEQEND
  5
E4
330
E2
100
AcDbEntity
  8
0
  6
Continuous
 62
     7
  0
HATCH
  5
E5
330
1F
100
AcDbEntity
  8
중심선
100
AcDbHatch
 10
0.0
 20
0.0
 30
0.0
210
0.0
220
0.0
230
1.0
  2
SOLID
 70
     1
 71
     0
 91
        1
 92
        0
 93
        4
 72
     1
 10
22.82463637225503
 20
-35.8
 11
19.37836112841774
 21
-35.8
 72
     1
 10
19.37836112841774
 20
-35.8
 11
17.25013126921372
 21
-38.3363255805726
 72
     1
 10
17.25013126921372
 20
-38.3363255805726
 11
20.69643959816418
 21
-38.33628615127011
 72
     1
 10
20.69643959816418
 20
-38.33628615127011
 11
22.82463637225503
 21
-35.8
 97
        0
 75
     0
 76
     1
 98
        1
 10
-9.52500000000066
 20
-0.0010749287238943
  0
HATCH
  5
E6
330
1F
100
AcDbEntity
  8
중심선
100
AcDbHatch
 10
0.0
 20
0.0
 30
0.0
210
0.0
220
0.0
230
1.0
  2
SOLID
 70
     1
 71
     0
 91
        1
 92
        0
 93
        4
 72
     1
 10
27.83740036329103
 20
-35.8
 11
24.39112511945375
 21
-35.79999999999998
 72
     1
 10
24.39112511945375
 20
-35.79999999999998
 11
19.85998711109631
 21
-41.20000000000002
 72
     1
 10
19.85998711109631
 20
-41.20000000000002
 11
23.30626235493359
 21
-41.20000000000002
 72
     1
 10
23.30626235493359
 20
-41.20000000000002
 11
27.83740036329103
 21
-35.8
 97
        0
 75
     0
 76
     1
 98
        1
 10
-9.52500000000066
 20
-0.0010749287238943
  0
HATCH
  5
E7
330
1F
100
AcDbEntity
  8
중심선
100
AcDbHatch
 10
0.0
 20
0.0
 30
0.0
210
0.0
220
0.0
230
1.0
  2
SOLID
 70
     1
 71
     0
 91
        1
 92
        0
 93
        4
 72
     1
 10
32.85016435432687
 20
-35.8
 11
29.40388911048976
 21
-35.79999999999998
 72
     1
 10
29.40388911048976
 20
-35.79999999999998
 11
22.35545220860051
 21
-44.20000000000002
 72
     1
 10
22.35545220860051
 20
-44.20000000000002
 11
25.80172745243779
 21
-44.20000000000002
 72
     1
 10
25.80172745243779
 20
-44.20000000000002
 11
32.85016435432687
 21
-35.8
 97
        0
 75
     0
 76
     1
 98
        1
 10
-9.52500000000066
 20
-0.0010749287238943
  0
HATCH
  5
E8
330
1F
100
AcDbEntity
  8
중심선
100
AcDbHatch
 10
0.0
 20
0.0
 30
0.0
210
0.0
220
0.0
230
1.0
  2
SOLID
 70
     1
 71
     0
 91
        1
 92
        0
 93
        6
 72
     3
 10
37.65005478533907
 20
-40.00000000005127
 11
3.960054785062283
 21
1.540882976769353E-10
 40
0.3939339440162628
 50
17.09539180608455
 51
320.0019657685075
 73
     0
 72
     1
 10
39.33305444103964
 20
-38.5878940046383
 11
41.63835631474068
 21
-36.65356729459041
 72
     3
 10
37.65005478528622
 20
-40.00000000000015
 11
6.600054785286829
 21
-1.278976924368180E-13
 40
0.636358354079598
 50
39.99873849337402
 51
368.4976242363725
 73
     1
 72
     1
 10
44.07538727718681
 20
-39.03999999993002
 11
36.33012209212215
 21
-39.03999999993002
 72
     1
 10
36.33012209212215
 20
-39.03999999993002
 11
36.33009704767621
 21
-40.95999999992991
 72
     1
 10
36.33009704767621
 20
-40.95999999992991
 11
40.77147681714823
 21
-40.95999999992988
 97
        0
 75
     0
 76
     1
 98
        1
 10
-9.52500000000066
 20
-0.0010749287238943
  0
DIMENSION
  5
E9
330
1F
100
AcDbEntity
  8
치수문자_일반주서
100
AcDbDimension
  2
_D
 10
-66.50000000000053
 20
-15.87500000000007
 30
0.0
 11
-66.50000000000071
 21
37.05199999999994
 31
0.0
 70
   160
  1
%%c<>
 71
     2
 42
31.74999999999996
 52
-270.0
  3
SLDDIMSTYLE0
100
AcDbAlignedDimension
 13
-36.89500000000064
 23
15.875
 33
0.0
 14
-48.32500000000061
 24
-15.875
 34
0.0
 50
90.0000000000002
100
AcDbRotatedDimension
1001
ACAD
1000
DSTYLE
1002
{
1070
   171
1070
     8
1070
   273
1070
     7
1070
   178
1070
   256
1070
   140
1040
4.0
1002
}
1001
ACAD_DSTYLE_DIMFLIPARROW_SYMBOL
1070
   385
1070
     0
1001
ACAD_DSTYLE_DIMFLIPARROW_WHICH_SYMBOL
1070
   386
1070
     3
  0
DIMENSION
  5
FC
330
1F
100
AcDbEntity
  8
치수문자_일반주서
100
AcDbDimension
  2
_D_1
 10
11.9999999999994
 20
30.87500000000002
 30
0.0
 11
62.7999999999994
 21
30.87500000000002
 31
0.0
 70
   160
  1
<>
 71
     2
 42
101.6
  3
SLDDIMSTYLE0
100
AcDbAlignedDimension
 13
113.5999999999994
 23
15.87500000000015
 33
0.0
 14
11.99999999999941
 24
15.87486653488488
 34
0.0
 50
-0.0000000000000481
100
AcDbRotatedDimension
1001
PE_URL
1000

1001
ACAD
1000
DSTYLE
1002
{
1070
   171
1070
     8
1070
   273
1070
     7
1070
   178
1070
   256
1070
   140
1040
4.0
1002
}
  0
DIMENSION
  5
110
330
1F
100
AcDbEntity
  8
치수문자_일반주서
100
AcDbDimension
  2
_D_2
 10
-51.50000000000064
 20
45.87500000000002
 30
0.0
 11
31.04999999999936
 21
45.87500000000002
 31
0.0
 70
   160
  1
<>
 71
     2
 42
165.1
  3
SLDDIMSTYLE0
100
AcDbAlignedDimension
 13
113.5999999999994
 23
15.87500000000015
 33
0.0
 14
-51.50000000000063
 24
13.97000000000001
 34
0.0
 50
0.0000000000000049
100
AcDbRotatedDimension
1001
PE_URL
1000

1001
ACAD
1000
DSTYLE
1002
{
1070
   171
1070
     8
1070
   273
1070
     7
1070
   178
1070
   256
1070
   140
1040
4.0
1002
}
  0
DIMENSION
  5
123
330
1F
100
AcDbEntity
  8
치수문자_일반주서
100
AcDbDimension
  2
_D_3
 10
128.5999999999995
 20
-15.8749999999998
 30
0.0
 11
128.5999999999993
 21
37.05200000000008
 31
0.0
 70
   160
  1
%%c<>
 71
     2
 42
31.74999999999987
 52
-270.0
  3
SLDDIMSTYLE0
100
AcDbAlignedDimension
 13
113.5999999999994
 23
15.87500000000001
 33
0.0
 14
113.5999999999994
 24
-15.87499999999985
 34
0.0
 50
90.0000000000002
100
AcDbRotatedDimension
1001
PE_URL
1000

1001
ACAD
1000
DSTYLE
1002
{
1070
   171
1070
     8
1070
   273
1070
     7
1070
   178
1070
   256
1070
   140
1040
4.0
1002
}
1001
ACAD_DSTYLE_DIMFLIPARROW_SYMBOL
1070
   385
1070
     0
1001
ACAD_DSTYLE_DIMFLIPARROW_WHICH_SYMBOL
1070
   386
1070
     3
  0
LINE
  5
136
330
1F
100
AcDbEntity
  8
참조1
100
AcDbLine
 10
78.93848381534498
 20
7.440000000000001
 30
0.0
 11
78.93848381534498
 21
-7.440000000000003
 31
0.0
  0
LINE
  5
137
330
1F
100
AcDbEntity
  8
참조1
100
AcDbLine
 10
91.63848381534498
 20
5.440000000000001
 30
0.0
 11
78.93848381534498
 21
5.440000000000001
 31
0.0
  0
SOLID
  5
138
330
1F
100
AcDbEntity
  8
참조1
100
AcDbTrace
 10
78.93848381534498
 20
5.440000000000001
 30
0.0
 11
85.28848381534497
 21
4.424000000000001
 31
0.0
 12
85.28848381534497
 22
6.456000000000001
 32
0.0
 13
85.28848381534497
 23
6.456000000000001
 33
0.0
  0
LINE
  5
139
330
1F
100
AcDbEntity
  8
참조1
100
AcDbLine
 10
91.63848381534498
 20
-5.440000000000003
 30
0.0
 11
78.93848381534498
 21
-5.440000000000003
 31
0.0
  0
SOLID
  5
13A
330
1F
100
AcDbEntity
  8
참조1
100
AcDbTrace
 10
78.93848381534498
 20
-5.440000000000003
 30
0.0
 11
85.28848381534497
 21
-6.456000000000003
 31
0.0
 12
85.28848381534497
 22
-4.424000000000003
 32
0.0
 13
85.28848381534497
 23
-4.424000000000003
 33
0.0
  0
MTEXT
  5
13B
330
1F
100
AcDbEntity
  8
참조1
100
AcDbMText
 10
88.33597390781524
 20
10.98821664464993
 30
0.0
 40
3.5
 41
0.0
 71
     1
 72
     1
  1
A
  7
SLDTEXTSTYLE0
 73
     1
 44
1.0
  0
MTEXT
  5
13C
330
1F
100
AcDbEntity
  8
참조1
100
AcDbMText
 10
88.33597390781524
 20
0.1082166446499308
 30
0.0
 40
3.5
 41
0.0
 71
     1
 72
     1
  1
A
  7
SLDTEXTSTYLE0
 73
     1
 44
1.0
  0
INSERT
  5
143
330
1F
100
AcDbEntity
  8
해칭선
100
AcDbBlockReference
  2
SW_DOWELSYMBOL_0
 10
0.0
 20
0.0
 30
0.0
  0
LINE
  5
1F8
330
1F
100
AcDbEntity
  8
외형선
  6
Continuous
370
    15
100
AcDbLine
 10
-51.50000000000063
 20
13.97000000000001
 30
0.0
 11
-38.80000000000061
 21
13.97000000000001
 31
0.0
1001
PE_URL
1000

  0
LINE
  5
1F9
330
1F
100
AcDbEntity
  8
외형선
  6
Continuous
370
    15
100
AcDbLine
 10
-29.08132500000053
 20
13.97000000000001
 30
0.0
 11
-15.97492500000064
 21
13.97000000000001
 31
0.0
1001
PE_URL
1000

  0
LINE
  5
1FA
330
1F
100
AcDbEntity
  8
외형선
  6
Continuous
370
    15
100
AcDbLine
 10
-29.08132500000053
 20
13.97000000000002
 30
0.0
 11
-30.98632500000051
 21
15.87500000000001
 31
0.0
1001
PE_URL
1000

  0
LINE
  5
1FB
330
1F
100
AcDbEntity
  8
외형선
  6
Continuous
370
    15
100
AcDbLine
 10
-15.97492500000064
 20
13.97000000000002
 30
0.0
 11
-14.06992500000061
 21
15.87500000000001
 31
0.0
1001
PE_URL
1000

  0
LINE
  5
1FC
330
1F
100
AcDbEntity
  8
외형선
  6
Continuous
370
    15
100
AcDbLine
 10
-38.80000000000061
 20
13.97000000000002
 30
0.0
 11
-36.89500000000064
 21
15.875
 31
0.0
1001
PE_URL
1000

  0
LINE
  5
1FF
330
1F
100
AcDbEntity
  8
외형선
  6
Continuous
370
    15
100
AcDbLine
 10
-30.9863250000005
 20
15.87500000000001
 30
0.0
 11
-36.89500000000062
 21
15.87500000000001
 31
0.0
  0
ENDSEC
  0
SECTION
  2
OBJECTS
  0
DICTIONARY
  5
C
330
0
100
AcDbDictionary
281
     1
  3
ACAD_DETAILVIEWSTYLE
350
1BF
  3
ACAD_GROUP
350
D
  3
ACAD_LAYOUT
350
1A
  3
ACAD_MLINESTYLE
350
17
  3
ACAD_PLOTSETTINGS
350
19
  3
ACAD_PLOTSTYLENAME
350
E
  3
ACAD_SCALELIST
350
47
  3
ACAD_SECTIONVIEWSTYLE
350
1C0
  3
AcDbVariableDictionary
350
1BA
  3
APPDATA
350
165
  3
DWGPROPS
350
200
  0
DICTIONARY
  5
19A
330
2
100
AcDbDictionary
280
     1
281
     1
  3
ACAD_LAYERSTATES
360
19B
  0
DICTIONARY
  5
1BF
102
{ACAD_REACTORS
330
C
102
}
330
C
100
AcDbDictionary
281
     1
  0
DICTIONARY
  5
D
102
{ACAD_REACTORS
330
C
102
}
330
C
100
AcDbDictionary
281
     1
  0
DICTIONARY
  5
1A
102
{ACAD_REACTORS
330
C
102
}
330
C
100
AcDbDictionary
281
     1
  3
Layout1
350
1E
  3
Layout2
350
26
  3
Model
350
22
  0
DICTIONARY
  5
17
102
{ACAD_REACTORS
330
C
102
}
330
C
100
AcDbDictionary
281
     1
  3
Standard
350
18
  0
DICTIONARY
  5
19
102
{ACAD_REACTORS
330
C
102
}
330
C
100
AcDbDictionary
281
     1
  0
ACDBDICTIONARYWDFLT
  5
E
102
{ACAD_REACTORS
330
C
102
}
330
C
100
AcDbDictionary
281
     1
  3
Normal
350
F
100
AcDbDictionaryWithDefault
340
F
  0
DICTIONARY
  5
47
102
{ACAD_REACTORS
330
C
102
}
330
C
100
AcDbDictionary
281
     1
  3
A0
350
48
  3
A1
350
49
  3
A2
350
4A
  3
A3
350
4B
  3
A4
350
4C
  3
A5
350
4D
  3
A6
350
4E
  3
A7
350
4F
  3
A8
350
50
  3
A9
350
51
  3
B0
350
52
  3
B1
350
53
  3
B2
350
54
  3
B3
350
55
  3
B4
350
56
  3
B5
350
57
  3
B6
350
58
  3
B7
350
59
  3
B8
350
5A
  3
B9
350
5B
  3
C0
350
5C
  3
C1
350
5D
  3
C2
350
5E
  3
C3
350
5F
  3
C4
350
60
  3
C5
350
61
  3
C6
350
62
  3
C7
350
63
  3
C8
350
64
  3
C9
350
65
  3
D0
350
66
  3
D1
350
67
  3
D2
350
68
  0
DICTIONARY
  5
1C0
102
{ACAD_REACTORS
330
C
102
}
330
C
100
AcDbDictionary
281
     1
  0
DICTIONARY
  5
1BA
102
{ACAD_REACTORS
330
C
102
}
330
C
100
AcDbDictionary
281
     1
  0
DICTIONARY
  5
165
102
{ACAD_REACTORS
330
C
102
}
330
C
100
AcDbDictionary
281
     1
  0
XRECORD
  5
200
102
{ACAD_REACTORS
330
C
102
}
330
C
100
AcDbXrecord
280
     1
  1
DWGPROPS COOKIE
  2

  3

  4

  6

  7

  8
120170442
  9

300
=
301
=
302
=
303
=
304
=
305
=
306
=
307
=
308
=
309
=
 40
0.0
 41
2458323.061238461
 42
2458323.369657685
  1

 90
        0
  0
DICTIONARY
  5
19B
102
{ACAD_REACTORS
330
19A
102
}
330
19A
100
AcDbDictionary
281
     1
  0
LAYOUT
  5
1E
102
{ACAD_REACTORS
330
1A
102
}
330
1A
100
AcDbPlotSettings
  1

  2
none_device
  4

  6

 40
0.0
 41
0.0
 42
0.0
 43
0.0
 44
0.0
 45
0.0
 46
0.0
 47
0.0
 48
0.0
 49
0.0
140
0.0
141
0.0
142
1.0
143
1.0
 70
   688
 72
     1
 73
     0
 74
     5
  7

 75
    16
147
1.0
148
0.0
149
0.0
100
AcDbLayout
  1
Layout1
 70
     1
 71
     1
 10
0.0
 20
0.0
 11
420.0
 21
297.0
 12
0.0
 22
0.0
 32
0.0
 14
1.000000000000000E+20
 24
1.000000000000000E+20
 34
1.000000000000000E+20
 15
-1.000000000000000E+20
 25
-1.000000000000000E+20
 35
-1.000000000000000E+20
146
0.0
 13
0.0
 23
0.0
 33
0.0
 16
1.0
 26
0.0
 36
0.0
 17
0.0
 27
1.0
 37
0.0
 76
     0
330
1B
  0
LAYOUT
  5
26
102
{ACAD_REACTORS
330
1A
102
}
330
1A
100
AcDbPlotSettings
  1

  2
none_device
  4

  6

 40
0.0
 41
0.0
 42
0.0
 43
0.0
 44
0.0
 45
0.0
 46
0.0
 47
0.0
 48
0.0
 49
0.0
140
0.0
141
0.0
142
1.0
143
1.0
 70
   688
 72
     1
 73
     0
 74
     5
  7

 75
    16
147
1.0
148
0.0
149
0.0
100
AcDbLayout
  1
Layout2
 70
     1
 71
     2
 10
0.0
 20
0.0
 11
0.0
 21
0.0
 12
0.0
 22
0.0
 32
0.0
 14
0.0
 24
0.0
 34
0.0
 15
0.0
 25
0.0
 35
0.0
146
0.0
 13
0.0
 23
0.0
 33
0.0
 16
1.0
 26
0.0
 36
0.0
 17
0.0
 27
1.0
 37
0.0
 76
     0
330
23
  0
LAYOUT
  5
22
102
{ACAD_REACTORS
330
1A
102
}
330
1A
100
AcDbPlotSettings
  1

  2
none_device
  4
ANSI_A_(11.00_x_8.50_Inches)
  6

 40
6.35
 41
19.05
 42
6.35000508
 43
19.05000254
 44
279.4
 45
215.9
 46
88.33221359454275
 47
81.35757631766471
 48
0.0
 49
0.0
140
0.0
141
0.0
142
0.0572238152268816
143
1.0
 70
  1696
 72
     0
 73
     0
 74
     0
  7

 75
     0
147
0.0235690232323232
148
0.0
149
0.0
100
AcDbLayout
  1
Model
 70
     1
 71
     0
 10
0.0
 20
0.0
 11
420.0
 21
297.0
 12
0.0
 22
0.0
 32
0.0
 14
-71.37500000000078
 24
-49.97180738881175
 34
0.0
 15
129.1503333333328
 25
54.92700000000008
 35
0.0
146
0.0
 13
0.0
 23
0.0
 33
0.0
 16
1.0
 26
0.0
 36
0.0
 17
0.0
 27
1.0
 37
0.0
 76
     0
330
1F
331
29
  0
MLINESTYLE
  5
18
102
{ACAD_REACTORS
330
17
102
}
330
17
100
AcDbMlineStyle
  2
Standard
 70
     0
  3

 62
   256
 51
90.0
 52
90.0
 71
     2
 49
0.5
 62
   256
  6
BYLAYER
 49
-0.5
 62
   256
  6
BYLAYER
  0
ACDBPLACEHOLDER
  5
F
102
{ACAD_REACTORS
330
E
102
}
330
E
  0
SCALE
  5
48
102
{ACAD_REACTORS
330
47
102
}
330
47
100
AcDbScale
 70
     0
300
1:1
140
1.0
141
1.0
290
     1
  0
SCALE
  5
49
102
{ACAD_REACTORS
330
47
102
}
330
47
100
AcDbScale
 70
     0
300
1:2
140
1.0
141
2.0
290
     0
  0
SCALE
  5
4A
102
{ACAD_REACTORS
330
47
102
}
330
47
100
AcDbScale
 70
     0
300
1:4
140
1.0
141
4.0
290
     0
  0
SCALE
  5
4B
102
{ACAD_REACTORS
330
47
102
}
330
47
100
AcDbScale
 70
     0
300
1:5
140
1.0
141
5.0
290
     0
  0
SCALE
  5
4C
102
{ACAD_REACTORS
330
47
102
}
330
47
100
AcDbScale
 70
     0
300
1:8
140
1.0
141
8.0
290
     0
  0
SCALE
  5
4D
102
{ACAD_REACTORS
330
47
102
}
330
47
100
AcDbScale
 70
     0
300
1:10
140
1.0
141
10.0
290
     0
  0
SCALE
  5
4E
102
{ACAD_REACTORS
330
47
102
}
330
47
100
AcDbScale
 70
     0
300
1:16
140
1.0
141
16.0
290
     0
  0
SCALE
  5
4F
102
{ACAD_REACTORS
330
47
102
}
330
47
100
AcDbScale
 70
     0
300
1:20
140
1.0
141
20.0
290
     0
  0
SCALE
  5
50
102
{ACAD_REACTORS
330
47
102
}
330
47
100
AcDbScale
 70
     0
300
1:30
140
1.0
141
30.0
290
     0
  0
SCALE
  5
51
102
{ACAD_REACTORS
330
47
102
}
330
47
100
AcDbScale
 70
     0
300
1:40
140
1.0
141
40.0
290
     0
  0
SCALE
  5
52
102
{ACAD_REACTORS
330
47
102
}
330
47
100
AcDbScale
 70
     0
300
1:50
140
1.0
141
50.0
290
     0
  0
SCALE
  5
53
102
{ACAD_REACTORS
330
47
102
}
330
47
100
AcDbScale
 70
     0
300
1:100
140
1.0
141
100.0
290
     0
  0
SCALE
  5
54
102
{ACAD_REACTORS
330
47
102
}
330
47
100
AcDbScale
 70
     0
300
2:1
140
2.0
141
1.0
290
     0
  0
SCALE
  5
55
102
{ACAD_REACTORS
330
47
102
}
330
47
100
AcDbScale
 70
     0
300
4:1
140
4.0
141
1.0
290
     0
  0
SCALE
  5
56
102
{ACAD_REACTORS
330
47
102
}
330
47
100
AcDbScale
 70
     0
300
8:1
140
8.0
141
1.0
290
     0
  0
SCALE
  5
57
102
{ACAD_REACTORS
330
47
102
}
330
47
100
AcDbScale
 70
     0
300
10:1
140
10.0
141
1.0
290
     0
  0
SCALE
  5
58
102
{ACAD_REACTORS
330
47
102
}
330
47
100
AcDbScale
 70
     0
300
100:1
140
100.0
141
1.0
290
     0
  0
SCALE
  5
59
102
{ACAD_REACTORS
330
47
102
}
330
47
100
AcDbScale
 70
     0
300
1/128" = 1'-0"
140
0.0078125
141
12.0
290
     0
  0
SCALE
  5
5A
102
{ACAD_REACTORS
330
47
102
}
330
47
100
AcDbScale
 70
     0
300
1/64" = 1'-0"
140
0.015625
141
12.0
290
     0
  0
SCALE
  5
5B
102
{ACAD_REACTORS
330
47
102
}
330
47
100
AcDbScale
 70
     0
300
1/32" = 1'-0"
140
0.03125
141
12.0
290
     0
  0
SCALE
  5
5C
102
{ACAD_REACTORS
330
47
102
}
330
47
100
AcDbScale
 70
     0
300
1/16" = 1'-0"
140
0.0625
141
12.0
290
     0
  0
SCALE
  5
5D
102
{ACAD_REACTORS
330
47
102
}
330
47
100
AcDbScale
 70
     0
300
3/32" = 1'-0"
140
0.09375
141
12.0
290
     0
  0
SCALE
  5
5E
102
{ACAD_REACTORS
330
47
102
}
330
47
100
AcDbScale
 70
     0
300
1/8" = 1'-0"
140
0.125
141
12.0
290
     0
  0
SCALE
  5
5F
102
{ACAD_REACTORS
330
47
102
}
330
47
100
AcDbScale
 70
     0
300
3/16" = 1'-0"
140
0.1875
141
12.0
290
     0
  0
SCALE
  5
60
102
{ACAD_REACTORS
330
47
102
}
330
47
100
AcDbScale
 70
     0
300
1/4" = 1'-0"
140
0.25
141
12.0
290
     0
  0
SCALE
  5
61
102
{ACAD_REACTORS
330
47
102
}
330
47
100
AcDbScale
 70
     0
300
3/8" = 1'-0"
140
0.375
141
12.0
290
     0
  0
SCALE
  5
62
102
{ACAD_REACTORS
330
47
102
}
330
47
100
AcDbScale
 70
     0
300
1/2" = 1'-0"
140
0.5
141
12.0
290
     0
  0
SCALE
  5
63
102
{ACAD_REACTORS
330
47
102
}
330
47
100
AcDbScale
 70
     0
300
3/4" = 1'-0"
140
0.75
141
12.0
290
     0
  0
SCALE
  5
64
102
{ACAD_REACTORS
330
47
102
}
330
47
100
AcDbScale
 70
     0
300
1" = 1'-0"
140
1.0
141
12.0
290
     0
  0
SCALE
  5
65
102
{ACAD_REACTORS
330
47
102
}
330
47
100
AcDbScale
 70
     0
300
1-1/2" = 1'-0"
140
1.5
141
12.0
290
     0
  0
SCALE
  5
66
102
{ACAD_REACTORS
330
47
102
}
330
47
100
AcDbScale
 70
     0
300
3" = 1'-0"
140
3.0
141
12.0
290
     0
  0
SCALE
  5
67
102
{ACAD_REACTORS
330
47
102
}
330
47
100
AcDbScale
 70
     0
300
6" = 1'-0"
140
6.0
141
12.0
290
     0
  0
SCALE
  5
68
102
{ACAD_REACTORS
330
47
102
}
330
47
100
AcDbScale
 70
     0
300
1'-0" = 1'-0"
140
12.0
141
12.0
290
     0
  0
ENDSEC
  0
EOF
