  0
SECTION
  2
HEADER
  9
$ACADVER
  1
AC1015
  9
$ACADMAINTVER
 70
     6
  9
$DWGCODEPAGE
  3
ANSI_949
  9
$INSBASE
 10
0.0
 20
0.0
 30
0.0
  9
$EXTMIN
 10
-65.58827283782725
 20
-49.97180738881174
 30
0.0
  9
$EXTMAX
 10
135.7324012764539
 20
47.07197056460272
 30
0.0
  9
$LIMMIN
 10
0.0
 20
0.0
  9
$LIMMAX
 10
420.0
 20
297.0
  9
$ORTHOMODE
 70
     1
  9
$REGENMODE
 70
     1
  9
$FILLMODE
 70
     1
  9
$QTEXTMODE
 70
     0
  9
$MIRRTEXT
 70
     1
  9
$LTSCALE
 40
1.0
  9
$ATTMODE
 70
     1
  9
$TEXTSIZE
 40
3.5
  9
$TRACEWID
 40
1.0
  9
$TEXTSTYLE
  7
Standard
  9
$CLAYER
  8
0
  9
$CELTYPE
  6
ByLayer
  9
$CECOLOR
 62
   256
  9
$CELTSCALE
 40
1.0
  9
$DISPSILH
 70
     0
  9
$DIMSCALE
 40
1.0
  9
$DIMASZ
 40
3.302
  9
$DIMEXO
 40
1.0
  9
$DIMDLI
 40
3.75
  9
$DIMRND
 40
0.0
  9
$DIMDLE
 40
0.0
  9
$DIMEXE
 40
1.0
  9
$DIMTP
 40
0.0
  9
$DIMTM
 40
0.0
  9
$DIMTXT
 40
3.5
  9
$DIMCEN
 40
2.5
  9
$DIMTSZ
 40
0.0
  9
$DIMTOL
 70
     0
  9
$DIMLIM
 70
     0
  9
$DIMTIH
 70
     1
  9
$DIMTOH
 70
     1
  9
$DIMSE1
 70
     0
  9
$DIMSE2
 70
     0
  9
$DIMTAD
 70
     1
  9
$DIMZIN
 70
     0
  9
$DIMBLK
  1

  9
$DIMASO
 70
     1
  9
$DIMSHO
 70
     1
  9
$DIMPOST
  1

  9
$DIMAPOST
  1

  9
$DIMALT
 70
     0
  9
$DIMALTD
 70
     3
  9
$DIMALTF
 40
0.0393700787401575
  9
$DIMLFAC
 40
1.0
  9
$DIMTOFL
 70
     1
  9
$DIMTVP
 40
0.0
  9
$DIMTIX
 70
     0
  9
$DIMSOXD
 70
     0
  9
$DIMSAH
 70
     0
  9
$DIMBLK1
  1

  9
$DIMBLK2
  1

  9
$DIMSTYLE
  2
ISO-25
  9
$DIMCLRD
 70
     0
  9
$DIMCLRE
 70
     0
  9
$DIMCLRT
 70
     0
  9
$DIMTFAC
 40
1.0
  9
$DIMGAP
 40
1.524
  9
$DIMJUST
 70
     0
  9
$DIMSD1
 70
     0
  9
$DIMSD2
 70
     0
  9
$DIMTOLJ
 70
     0
  9
$DIMTZIN
 70
     0
  9
$DIMALTZ
 70
     0
  9
$DIMALTTZ
 70
     0
  9
$DIMUPT
 70
     0
  9
$DIMDEC
 70
     2
  9
$DIMTDEC
 70
     2
  9
$DIMALTU
 70
     2
  9
$DIMALTTD
 70
     3
  9
$DIMTXSTY
  7
Standard
  9
$DIMAUNIT
 70
     0
  9
$DIMADEC
 70
     2
  9
$DIMALTRND
 40
0.0
  9
$DIMAZIN
 70
     0
  9
$DIMDSEP
 70
    44
  9
$DIMATFIT
 70
     3
  9
$DIMFRAC
 70
     0
  9
$DIMLDRBLK
  1

  9
$DIMLUNIT
 70
     2
  9
$DIMLWD
 70
    -2
  9
$DIMLWE
 70
    -2
  9
$DIMTMOVE
 70
     0
  9
$LUNITS
 70
     2
  9
$LUPREC
 70
     2
  9
$SKETCHINC
 40
1.0
  9
$FILLETRAD
 40
10.0
  9
$AUNITS
 70
     0
  9
$AUPREC
 70
     2
  9
$MENU
  1
.
  9
$ELEVATION
 40
0.0
  9
$PELEVATION
 40
0.0
  9
$THICKNESS
 40
0.0
  9
$LIMCHECK
 70
     0
  9
$CHAMFERA
 40
0.0
  9
$CHAMFERB
 40
0.0
  9
$CHAMFERC
 40
0.0
  9
$CHAMFERD
 40
0.0
  9
$SKPOLY
 70
     0
  9
$TDCREATE
 40
2458312.675045718
  9
$TDUCREATE
 40
2458312.300045718
  9
$TDUPDATE
 40
2458323.749084329
  9
$TDUUPDATE
 40
2458323.374084329
  9
$TDINDWG
 40
0.0003817245
  9
$TDUSRTIMER
 40
2458323.374049283
  9
$USRTIMER
 70
     1
  9
$ANGBASE
 50
0.0
  9
$ANGDIR
 70
     0
  9
$PDMODE
 70
     0
  9
$PDSIZE
 40
-1.0
  9
$PLINEWID
 40
0.0
  9
$SPLFRAME
 70
     0
  9
$SPLINETYPE
 70
     6
  9
$SPLINESEGS
 70
     8
  9
$HANDSEED
  5
2FA
  9
$SURFTAB1
 70
     6
  9
$SURFTAB2
 70
     6
  9
$SURFTYPE
 70
     6
  9
$SURFU
 70
     6
  9
$SURFV
 70
     6
  9
$UCSBASE
  2

  9
$UCSNAME
  2

  9
$UCSORG
 10
0.0
 20
0.0
 30
0.0
  9
$UCSXDIR
 10
1.0
 20
0.0
 30
0.0
  9
$UCSYDIR
 10
0.0
 20
1.0
 30
0.0
  9
$UCSORTHOREF
  2

  9
$UCSORTHOVIEW
 70
     0
  9
$UCSORGTOP
 10
0.0
 20
0.0
 30
0.0
  9
$UCSORGBOTTOM
 10
0.0
 20
0.0
 30
0.0
  9
$UCSORGLEFT
 10
0.0
 20
0.0
 30
0.0
  9
$UCSORGRIGHT
 10
0.0
 20
0.0
 30
0.0
  9
$UCSORGFRONT
 10
0.0
 20
0.0
 30
0.0
  9
$UCSORGBACK
 10
0.0
 20
0.0
 30
0.0
  9
$PUCSBASE
  2

  9
$PUCSNAME
  2

  9
$PUCSORG
 10
0.0
 20
0.0
 30
0.0
  9
$PUCSXDIR
 10
1.0
 20
0.0
 30
0.0
  9
$PUCSYDIR
 10
0.0
 20
1.0
 30
0.0
  9
$PUCSORTHOREF
  2

  9
$PUCSORTHOVIEW
 70
     0
  9
$PUCSORGTOP
 10
0.0
 20
0.0
 30
0.0
  9
$PUCSORGBOTTOM
 10
0.0
 20
0.0
 30
0.0
  9
$PUCSORGLEFT
 10
0.0
 20
0.0
 30
0.0
  9
$PUCSORGRIGHT
 10
0.0
 20
0.0
 30
0.0
  9
$PUCSORGFRONT
 10
0.0
 20
0.0
 30
0.0
  9
$PUCSORGBACK
 10
0.0
 20
0.0
 30
0.0
  9
$USERI1
 70
     0
  9
$USERI2
 70
     0
  9
$USERI3
 70
     0
  9
$USERI4
 70
     0
  9
$USERI5
 70
     0
  9
$USERR1
 40
0.0
  9
$USERR2
 40
0.0
  9
$USERR3
 40
0.0
  9
$USERR4
 40
0.0
  9
$USERR5
 40
0.0
  9
$WORLDVIEW
 70
     1
  9
$SHADEDGE
 70
     3
  9
$SHADEDIF
 70
    70
  9
$TILEMODE
 70
     1
  9
$MAXACTVP
 70
    64
  9
$PINSBASE
 10
0.0
 20
0.0
 30
0.0
  9
$PLIMCHECK
 70
     0
  9
$PEXTMIN
 10
1.000000000000000E+20
 20
1.000000000000000E+20
 30
1.000000000000000E+20
  9
$PEXTMAX
 10
-1.000000000000000E+20
 20
-1.000000000000000E+20
 30
-1.000000000000000E+20
  9
$PLIMMIN
 10
0.0
 20
0.0
  9
$PLIMMAX
 10
0.0
 20
0.0
  9
$UNITMODE
 70
     0
  9
$VISRETAIN
 70
     1
  9
$PLINEGEN
 70
     0
  9
$PSLTSCALE
 70
     1
  9
$TREEDEPTH
 70
  3020
  9
$CMLSTYLE
  2
Standard
  9
$CMLJUST
 70
     0
  9
$CMLSCALE
 40
20.0
  9
$PROXYGRAPHICS
 70
     1
  9
$MEASUREMENT
 70
     1
  9
$CELWEIGHT
370
    -1
  9
$ENDCAPS
280
     0
  9
$JOINSTYLE
280
     0
  9
$LWDISPLAY
290
     1
  9
$INSUNITS
 70
     4
  9
$HYPERLINKBASE
  1

  9
$STYLESHEET
  1

  9
$XEDIT
290
     1
  9
$CEPSNTYPE
380
     0
  9
$PSTYLEMODE
290
     1
  9
$FINGERPRINTGUID
  2
{DD7B23B8-72CE-4934-84BC-F77DC06B8AA2}
  9
$VERSIONGUID
  2
{FAEB1C32-E019-11D5-929B-00C0DF256EC4}
  9
$EXTNAMES
290
     1
  9
$PSVPSCALE
 40
0.0
  9
$OLESTARTUP
290
     0
  0
ENDSEC
  0
SECTION
  2
CLASSES
  0
CLASS
  1
ACDBDICTIONARYWDFLT
  2
AcDbDictionaryWithDefault
  3
ObjectDBX Classes
 90
        0
280
     0
281
     0
  0
CLASS
  1
VISUALSTYLE
  2
AcDbVisualStyle
  3
ObjectDBX Classes
 90
     4095
280
     0
281
     0
  0
CLASS
  1
MATERIAL
  2
AcDbMaterial
  3
ObjectDBX Classes
 90
     1153
280
     0
281
     0
  0
CLASS
  1
SCALE
  2
AcDbScale
  3
ObjectDBX Classes
 90
     1153
280
     0
281
     0
  0
CLASS
  1
SUN
  2
AcDbSun
  3
SCENEOE
 90
     1153
280
     0
281
     0
  0
CLASS
  1
ACDBPLACEHOLDER
  2
AcDbPlaceHolder
  3
ObjectDBX Classes
 90
        0
280
     0
281
     0
  0
CLASS
  1
LAYOUT
  2
AcDbLayout
  3
ObjectDBX Classes
 90
        0
280
     0
281
     0
  0
CLASS
  1
TABLESTYLE
  2
AcDbTableStyle
  3
ObjectDBX Classes
 90
     4095
280
     0
281
     0
  0
CLASS
  1
MLEADERSTYLE
  2
AcDbMLeaderStyle
  3
ACDB_MLEADERSTYLE_CLASS
 90
     4095
280
     0
281
     0
  0
CLASS
  1
RASTERVARIABLES
  2
AcDbRasterVariables
  3
ISM
 90
        0
280
     0
281
     0
  0
ENDSEC
  0
SECTION
  2
TABLES
  0
TABLE
  2
VPORT
  5
8
330
0
100
AcDbSymbolTable
 70
     1
  0
VPORT
  5
29
330
8
100
AcDbSymbolTableRecord
100
AcDbViewportTableRecord
  2
*Active
 70
     0
 10
0.0
 20
0.0
 11
1.0
 21
1.0
 12
33.85645637355198
 22
-21.41533505854925
 13
0.0
 23
0.0
 14
10.0
 24
10.0
 15
10.0
 25
10.0
 16
0.0
 26
0.0
 36
1.0
 17
0.0
 27
0.0
 37
0.0
 40
182.7999687843516
 41
1.632093933463796
 42
50.0
 43
0.0
 44
0.0
 50
0.0
 51
0.0
 71
    16
 72
  2000
 73
     1
 74
     3
 75
     0
 76
     0
 77
     0
 78
     0
281
     0
 65
     1
110
0.0
120
0.0
130
0.0
111
1.0
121
0.0
131
0.0
112
0.0
122
1.0
132
0.0
 79
     0
146
0.0
  0
ENDTAB
  0
TABLE
  2
LTYPE
  5
5
330
0
100
AcDbSymbolTable
 70
     6
  0
LTYPE
  5
14
330
5
100
AcDbSymbolTableRecord
100
AcDbLinetypeTableRecord
  2
ByBlock
 70
     0
  3

 72
    65
 73
     0
 40
0.0
  0
LTYPE
  5
15
330
5
100
AcDbSymbolTableRecord
100
AcDbLinetypeTableRecord
  2
ByLayer
 70
     0
  3

 72
    65
 73
     0
 40
0.0
  0
LTYPE
  5
16
330
5
100
AcDbSymbolTableRecord
100
AcDbLinetypeTableRecord
  2
Continuous
 70
     0
  3
Solid line
 72
    65
 73
     0
 40
0.0
  0
LTYPE
  5
6A
330
5
100
AcDbSymbolTableRecord
100
AcDbLinetypeTableRecord
  2
HIDDEN
 70
     0
  3
Hidden __ __ __ __ __ __ __ __ __ __ __ __ __ __
 72
    65
 73
     2
 40
1.905
 49
1.27
 74
     0
 49
-0.635
 74
     0
  0
LTYPE
  5
6B
330
5
100
AcDbSymbolTableRecord
100
AcDbLinetypeTableRecord
  2
PHANTOM
 70
     0
  3
Phantom ______  __  __  ______  __  __  ______
 72
    65
 73
     6
 40
12.7
 49
6.35
 74
     0
 49
-1.27
 74
     0
 49
1.27
 74
     0
 49
-1.27
 74
     0
 49
1.27
 74
     0
 49
-1.27
 74
     0
  0
LTYPE
  5
6C
330
5
100
AcDbSymbolTableRecord
100
AcDbLinetypeTableRecord
  2
CENTER
 70
     0
  3
Center ____ _ ____ _ ____ _ ____ _ ____ _ ____
 72
    65
 73
     4
 40
10.16
 49
6.35
 74
     0
 49
-1.27
 74
     0
 49
1.27
 74
     0
 49
-1.27
 74
     0
  0
LTYPE
  5
6D
330
5
100
AcDbSymbolTableRecord
100
AcDbLinetypeTableRecord
  2
CENTERX2
 70
     0
  3
Center (2x) ________  __  ________  __  _____
 72
    65
 73
     4
 40
20.32
 49
12.7
 74
     0
 49
-2.54
 74
     0
 49
2.54
 74
     0
 49
-2.54
 74
     0
  0
LTYPE
  5
6E
330
5
100
AcDbSymbolTableRecord
100
AcDbLinetypeTableRecord
  2
DOT2
 70
     0
  3
Dot (.5x) ........................................
 72
    65
 73
     2
 40
0.635
 49
0.0
 74
     0
 49
-0.635
 74
     0
  0
ENDTAB
  0
TABLE
  2
LAYER
  5
2
102
{ACAD_XDICTIONARY
360
1ED
102
}
330
0
100
AcDbSymbolTable
 70
    18
  0
LAYER
  5
10
330
2
100
AcDbSymbolTableRecord
100
AcDbLayerTableRecord
  2
0
 70
     0
 62
     7
  6
Continuous
370
    -3
390
F
  0
LAYER
  5
6F
330
2
100
AcDbSymbolTableRecord
100
AcDbLayerTableRecord
  2
FORMAT
 70
     0
 62
     2
  6
Continuous
370
    -3
390
F
  0
LAYER
  5
70
330
2
100
AcDbSymbolTableRecord
100
AcDbLayerTableRecord
  2
외형선
 70
     0
 62
     4
  6
Continuous
370
    30
390
F
  0
LAYER
  5
71
330
2
100
AcDbSymbolTableRecord
100
AcDbLayerTableRecord
  2
숨은선
 70
     0
 62
     2
  6
HIDDEN
370
    15
390
F
  0
LAYER
  5
72
330
2
100
AcDbSymbolTableRecord
100
AcDbLayerTableRecord
  2
중심선
 70
     0
 62
     1
  6
CENTERX2
370
    -3
390
F
  0
LAYER
  5
73
330
2
100
AcDbSymbolTableRecord
100
AcDbLayerTableRecord
  2
파단선
 70
     0
 62
     4
  6
Continuous
370
    -3
390
F
  0
LAYER
  5
74
330
2
100
AcDbSymbolTableRecord
100
AcDbLayerTableRecord
  2
해칭선
 70
     0
 62
   100
  6
Continuous
370
    -3
390
F
  0
LAYER
  5
75
330
2
100
AcDbSymbolTableRecord
100
AcDbLayerTableRecord
  2
가는실선
 70
     0
 62
     4
  6
Continuous
370
    -3
390
F
  0
LAYER
  5
76
330
2
100
AcDbSymbolTableRecord
100
AcDbLayerTableRecord
  2
치수_보조선
 70
     0
 62
     4
  6
Continuous
370
    -3
390
F
  0
LAYER
  5
77
330
2
100
AcDbSymbolTableRecord
100
AcDbLayerTableRecord
  2
치수문자_일반주서
 70
     0
 62
     7
  6
Continuous
370
    15
390
F
  0
LAYER
  5
78
330
2
100
AcDbSymbolTableRecord
100
AcDbLayerTableRecord
  2
개별주서
 70
     0
 62
   100
  6
Continuous
370
    30
390
F
  0
LAYER
  5
79
330
2
100
AcDbSymbolTableRecord
100
AcDbLayerTableRecord
  2
중간선
 70
     0
 62
     2
  6
Continuous
370
    15
390
F
  0
LAYER
  5
7A
330
2
100
AcDbSymbolTableRecord
100
AcDbLayerTableRecord
  2
윤곽선
 70
     0
 62
     3
  6
Continuous
370
    40
390
F
  0
LAYER
  5
7B
330
2
100
AcDbSymbolTableRecord
100
AcDbLayerTableRecord
  2
중심마크
 70
     0
 62
   100
  6
Continuous
370
    30
390
F
  0
LAYER
  5
7C
330
2
100
AcDbSymbolTableRecord
100
AcDbLayerTableRecord
  2
가상선
 70
     0
 62
     4
  6
PHANTOM
370
    -3
390
F
  0
LAYER
  5
7D
330
2
100
AcDbSymbolTableRecord
100
AcDbLayerTableRecord
  2
특수지정선
 70
     0
 62
     5
  6
CENTERX2
370
    60
390
F
  0
LAYER
  5
7E
330
2
100
AcDbSymbolTableRecord
100
AcDbLayerTableRecord
  2
참조1
 70
     0
 62
    -4
  6
Continuous
370
    -3
390
F
  0
LAYER
  5
152
330
2
100
AcDbSymbolTableRecord
100
AcDbLayerTableRecord
  2
Defpoints
 70
     0
 62
     7
  6
Continuous
290
     0
370
    -3
390
F
  0
ENDTAB
  0
TABLE
  2
STYLE
  5
3
330
0
100
AcDbSymbolTable
 70
     2
  0
STYLE
  5
11
330
3
100
AcDbSymbolTableRecord
100
AcDbTextStyleTableRecord
  2
Standard
 70
     0
 40
0.0
 41
1.0
 50
0.0
 71
     0
 42
3.5
  3
txt
  4

  0
STYLE
  5
94
330
3
100
AcDbSymbolTableRecord
100
AcDbTextStyleTableRecord
  2
SLDTEXTSTYLE0
 70
     0
 40
0.0
 41
0.75
 50
0.0
 71
     0
 42
3.5
  3
TXT
  4

  0
ENDTAB
  0
TABLE
  2
VIEW
  5
6
330
0
100
AcDbSymbolTable
 70
     0
  0
ENDTAB
  0
TABLE
  2
UCS
  5
7
330
0
100
AcDbSymbolTable
 70
     0
  0
ENDTAB
  0
TABLE
  2
APPID
  5
9
330
0
100
AcDbSymbolTable
 70
     1
  0
APPID
  5
12
330
9
100
AcDbSymbolTableRecord
100
AcDbRegAppTableRecord
  2
ACAD
 70
     0
  0
ENDTAB
  0
TABLE
  2
DIMSTYLE
  5
A
330
0
100
AcDbSymbolTable
 70
     3
100
AcDbDimStyleTable
  0
DIMSTYLE
105
27
330
A
100
AcDbSymbolTableRecord
100
AcDbDimStyleTableRecord
  2
ISO-25
 70
     0
 41
2.5
 42
0.625
 43
3.75
 44
1.25
 73
     0
 74
     0
 77
     1
 78
     8
140
2.5
141
2.5
143
0.03937007874016
147
0.625
171
     3
172
     1
178
     0
271
     2
272
     2
274
     3
278
    44
283
     0
284
     8
340
11
  0
DIMSTYLE
105
D0
330
A
100
AcDbSymbolTableRecord
100
AcDbDimStyleTableRecord
  2
SLDDIMSTYLE0
 70
     0
 41
3.302
 44
0.0
 45
0.000000001
 73
     0
 74
     0
 77
     1
 78
     4
 79
     1
140
3.5
143
0.0393700787401575
147
0.875
148
0.000000001
170
     1
173
     1
178
     0
271
     2
272
     2
276
     2
284
    12
340
94
  0
DIMSTYLE
105
F8
102
{ACAD_REACTORS
330
F7
330
CF
330
10C
330
E4
102
}
330
A
100
AcDbSymbolTableRecord
100
AcDbDimStyleTableRecord
  2
SLDDIMSTYLE1
 70
     0
 41
3.302
 44
0.0
 45
0.000000001
 73
     0
 74
     0
 77
     1
 78
     4
 79
     1
140
3.5
143
0.0393700787401575
147
0.875
148
0.000000001
170
     1
172
     1
173
     1
178
     0
271
     2
272
     2
276
     2
284
    12
289
     0
340
94
  0
ENDTAB
  0
TABLE
  2
BLOCK_RECORD
  5
1
330
0
100
AcDbSymbolTable
 70
    15
  0
BLOCK_RECORD
  5
1F
330
1
100
AcDbSymbolTableRecord
100
AcDbBlockTableRecord
  2
*Model_Space
340
22
  0
BLOCK_RECORD
  5
1B
330
1
100
AcDbSymbolTableRecord
100
AcDbBlockTableRecord
  2
*Paper_Space
340
1E
  0
BLOCK_RECORD
  5
23
330
1
100
AcDbSymbolTableRecord
100
AcDbBlockTableRecord
  2
*Paper_Space0
340
26
  0
BLOCK_RECORD
  5
7F
330
1
100
AcDbSymbolTableRecord
100
AcDbBlockTableRecord
  2
블럭10
340
0
102
{BLKREFS
331
C8
102
}
  0
BLOCK_RECORD
  5
D1
330
1
100
AcDbSymbolTableRecord
100
AcDbBlockTableRecord
  2
_D
340
0
  0
BLOCK_RECORD
  5
E5
330
1
100
AcDbSymbolTableRecord
100
AcDbBlockTableRecord
  2
_D_1
340
0
  0
BLOCK_RECORD
  5
F9
330
1
100
AcDbSymbolTableRecord
100
AcDbBlockTableRecord
  2
_D_2
340
0
  0
BLOCK_RECORD
  5
10D
330
1
100
AcDbSymbolTableRecord
100
AcDbBlockTableRecord
  2
_D_3
340
0
  0
BLOCK_RECORD
  5
126
330
1
100
AcDbSymbolTableRecord
100
AcDbBlockTableRecord
  2
SW_DOWELSYMBOL_0
340
0
102
{BLKREFS
331
12C
102
}
  0
BLOCK_RECORD
  5
1F1
330
1
100
AcDbSymbolTableRecord
100
AcDbBlockTableRecord
  2
*D7
340
0
  0
BLOCK_RECORD
  5
1FD
330
1
100
AcDbSymbolTableRecord
100
AcDbBlockTableRecord
  2
*D8
340
0
  0
BLOCK_RECORD
  5
209
330
1
100
AcDbSymbolTableRecord
100
AcDbBlockTableRecord
  2
*D9
340
0
  0
BLOCK_RECORD
  5
215
330
1
100
AcDbSymbolTableRecord
100
AcDbBlockTableRecord
  2
*D10
340
0
  0
BLOCK_RECORD
  5
260
330
1
100
AcDbSymbolTableRecord
100
AcDbBlockTableRecord
  2
*D11
340
0
  0
BLOCK_RECORD
  5
26C
330
1
100
AcDbSymbolTableRecord
100
AcDbBlockTableRecord
  2
*D12
340
0
  0
BLOCK_RECORD
  5
278
330
1
100
AcDbSymbolTableRecord
100
AcDbBlockTableRecord
  2
*D13
340
0
  0
BLOCK_RECORD
  5
284
330
1
100
AcDbSymbolTableRecord
100
AcDbBlockTableRecord
  2
*D14
340
0
  0
ENDTAB
  0
ENDSEC
  0
SECTION
  2
BLOCKS
  0
BLOCK
  5
20
330
1F
100
AcDbEntity
  8
0
100
AcDbBlockBegin
  2
*Model_Space
 70
     0
 10
0.0
 20
0.0
 30
0.0
  3
*Model_Space
  1
*Model_Space
  0
ENDBLK
  5
21
330
1F
100
AcDbEntity
  8
0
100
AcDbBlockEnd
  0
BLOCK
  5
1C
330
1B
100
AcDbEntity
 67
     1
  8
0
100
AcDbBlockBegin
  2
*Paper_Space
 70
     0
 10
0.0
 20
0.0
 30
0.0
  3
*Paper_Space
  1
*Paper_Space
  0
ENDBLK
  5
1D
330
1B
100
AcDbEntity
 67
     1
  8
0
100
AcDbBlockEnd
  0
BLOCK
  5
24
330
23
100
AcDbEntity
  8
0
100
AcDbBlockBegin
  2
*Paper_Space0
 70
     0
 10
0.0
 20
0.0
 30
0.0
  3
*Paper_Space0
  1
*Paper_Space0
  0
ENDBLK
  5
25
330
23
100
AcDbEntity
  8
0
100
AcDbBlockEnd
  0
BLOCK
  5
80
330
7F
100
AcDbEntity
  8
0
100
AcDbBlockBegin
  2
블럭10
 70
     2
 10
0.0
 20
0.0
 30
0.0
  3
블럭10
  1
블럭10
  0
ELLIPSE
  5
82
330
7F
100
AcDbEntity
  8
중심선
100
AcDbEllipse
 10
20.54032771741204
 20
12.0471743016438
 30
0.0
 11
6.600054785286829
 21
-1.261213355974178E-13
 31
0.0
210
0.0
220
0.0
230
1.0
 40
0.636358354079598
 41
0.9219305317359503
 42
6.513795318482858
  0
ELLIPSE
  5
83
330
7F
100
AcDbEntity
  8
중심선
100
AcDbEllipse
 10
20.54032771746488
 20
12.04717430159265
 30
0.0
 11
3.960054785062283
 21
1.540847449632565E-10
 31
0.0
210
0.0
220
0.0
230
1.0
 40
0.3939339440162632
 41
1.131841032648279
 42
5.62031148352944
  0
LINE
  5
84
330
7F
100
AcDbEntity
  8
중심선
100
AcDbLine
 10
2.268634060543552
 20
16.24717430164393
 30
0.0
 11
5.714909304380834
 21
16.24717430164393
 31
0.0
  0
LINE
  5
85
330
7F
100
AcDbEntity
  8
중심선
100
AcDbLine
 10
5.245725140726316
 20
7.84717430164391
 30
0.0
 11
8.692000384563599
 21
7.84717430164391
 31
0.0
  0
LINE
  5
86
330
7F
100
AcDbEntity
  8
중심선
100
AcDbLine
 10
15.74043728645272
 20
16.24717430164393
 30
0.0
 11
8.692000384563599
 21
7.84717430164391
 31
0.0
  0
LINE
  5
87
330
7F
100
AcDbEntity
  8
중심선
100
AcDbLine
 10
0.1404042013395286
 20
13.71084872107135
 30
0.0
 11
3.58671253028996
 21
13.71088815037384
 31
0.0
  0
LINE
  5
88
330
7F
100
AcDbEntity
  8
중심선
100
AcDbLine
 10
2.750260043222114
 20
10.84717430164391
 30
0.0
 11
6.196535287059397
 21
10.84717430164391
 31
0.0
  0
LINE
  5
89
330
7F
100
AcDbEntity
  8
중심선
100
AcDbLine
 10
12.29416204261559
 20
16.24717430164393
 30
0.0
 11
5.245725140726316
 21
7.84717430164391
 31
0.0
  0
LINE
  5
8A
330
7F
100
AcDbEntity
  8
중심선
100
AcDbLine
 10
10.72767329541681
 20
16.24717430164393
 30
0.0
 11
6.196535287059397
 21
10.84717430164391
 31
0.0
  0
LINE
  5
8B
330
7F
100
AcDbEntity
  8
중심선
100
AcDbLine
 10
7.28139805157953
 20
16.24717430164393
 30
0.0
 11
2.750260043222114
 21
10.84717430164391
 31
0.0
  0
LINE
  5
8C
330
7F
100
AcDbEntity
  8
중심선
100
AcDbLine
 10
5.714909304380834
 20
16.24717430164393
 30
0.0
 11
3.58671253028996
 21
13.71088815037384
 31
0.0
  0
LINE
  5
8D
330
7F
100
AcDbEntity
  8
중심선
100
AcDbLine
 10
2.268634060543552
 20
16.24717430164393
 30
0.0
 11
0.1404042013395286
 21
13.71084872107135
 31
0.0
  0
LINE
  5
8E
330
7F
100
AcDbEntity
  8
중심선
100
AcDbLine
 10
7.28139805157953
 20
16.24717430164393
 30
0.0
 11
10.72767329541681
 21
16.24717430164393
 31
0.0
  0
LINE
  5
8F
330
7F
100
AcDbEntity
  8
중심선
100
AcDbLine
 10
12.29416204261559
 20
16.24717430164393
 30
0.0
 11
15.74043728645272
 21
16.24717430164393
 31
0.0
  0
LINE
  5
90
330
7F
100
AcDbEntity
  8
중심선
100
AcDbLine
 10
19.22036997980202
 20
11.08717430171403
 30
0.0
 11
23.66174974927406
 21
11.08717430171406
 31
0.0
  0
LINE
  5
91
330
7F
100
AcDbEntity
  8
중심선
100
AcDbLine
 10
19.22039502424796
 20
13.00717430171391
 30
0.0
 11
19.22036997980202
 21
11.08717430171403
 31
0.0
  0
LINE
  5
92
330
7F
100
AcDbEntity
  8
중심선
100
AcDbLine
 10
19.22039502424796
 20
13.00717430171391
 30
0.0
 11
26.96566020931264
 21
13.00717430171391
 31
0.0
  0
LINE
  5
93
330
7F
100
AcDbEntity
  8
중심선
100
AcDbLine
 10
22.22332737316547
 20
13.45928029700563
 30
0.0
 11
24.52862924686651
 21
15.39360700705356
 31
0.0
  0
ATTDEF
  5
95
330
7F
100
AcDbEntity
  8
FORMAT
 62
     2
100
AcDbText
 10
4.408487351596664
 20
2.075366912832191
 30
0.0
 40
4.233333333333333
  1
E2034064
 41
0.75
  7
SLDTEXTSTYLE0
 11
4.408487351596664
 21
-0.0412997538344756
 31
0.0
100
AcDbAttributeDefinition
  3

  2
AUTOATTR0
 70
     0
 74
     1
  0
ENDBLK
  5
81
330
7F
100
AcDbEntity
  8
0
100
AcDbBlockEnd
  0
BLOCK
  5
D2
330
D1
100
AcDbEntity
  8
0
100
AcDbBlockBegin
  2
_D
 70
     0
 10
0.0
 20
0.0
 30
0.0
  3
_D
  1
_D
  0
LINE
  5
D4
330
D1
100
AcDbEntity
  8
치수문자_일반주서
 62
     0
370
    -2
100
AcDbLine
 10
113.6
 20
12.76250000000001
 30
0.0
 11
113.6
 21
25.83413479835823
 31
0.0
  0
LINE
  5
D5
330
D1
100
AcDbEntity
  8
치수문자_일반주서
 62
     0
370
    -2
100
AcDbLine
 10
12.00000000000004
 20
12.76211163541703
 30
0.0
 11
12.00000000000004
 21
25.83413479835823
 31
0.0
  0
LINE
  5
D6
330
D1
100
AcDbEntity
  8
치수문자_일반주서
 62
     0
370
    -2
100
AcDbLine
 10
110.298
 20
25.83413479835823
 30
0.0
 11
15.30200000000004
 21
25.83413479835823
 31
0.0
  0
SOLID
  5
D7
330
D1
100
AcDbEntity
  8
치수문자_일반주서
 62
     0
100
AcDbTrace
 10
110.298
 20
25.2838014650249
 30
0.0
 11
110.298
 21
26.38446813169157
 31
0.0
 12
113.6
 22
25.83413479835823
 32
0.0
 13
113.6
 23
25.83413479835823
 33
0.0
  0
SOLID
  5
D8
330
D1
100
AcDbEntity
  8
치수문자_일반주서
 62
     0
100
AcDbTrace
 10
15.30200000000004
 20
26.38446813169157
 30
0.0
 11
15.30200000000004
 21
25.2838014650249
 31
0.0
 12
12.00000000000004
 22
25.83413479835823
 32
0.0
 13
12.00000000000004
 23
25.83413479835823
 33
0.0
  0
MTEXT
  5
D9
330
D1
100
AcDbEntity
  8
치수문자_일반주서
 62
     0
100
AcDbMText
 10
62.8
 20
30.20913479835823
 30
0.0
 40
3.5
 41
0.0
 71
     2
 72
     1
  1
\A1;101.60 [4]
  7
SLDTEXTSTYLE0
 73
     1
 44
1.0
  0
POINT
  5
DA
330
D1
100
AcDbEntity
  8
Defpoints
 62
     0
100
AcDbPoint
 10
113.6
 20
12.70000000000001
 30
0.0
  0
POINT
  5
DB
330
D1
100
AcDbEntity
  8
Defpoints
 62
     0
100
AcDbPoint
 10
12.00000000000004
 20
12.69961163541703
 30
0.0
  0
POINT
  5
DC
330
D1
100
AcDbEntity
  8
Defpoints
 62
     0
100
AcDbPoint
 10
12.00000000000004
 20
25.83413479835823
 30
0.0
  0
ENDBLK
  5
D3
330
D1
100
AcDbEntity
  8
0
100
AcDbBlockEnd
  0
BLOCK
  5
E6
330
E5
100
AcDbEntity
  8
0
100
AcDbBlockBegin
  2
_D_1
 70
     0
 10
0.0
 20
0.0
 30
0.0
  3
_D_1
  1
_D_1
  0
LINE
  5
E8
330
E5
100
AcDbEntity
  8
치수문자_일반주서
 62
     0
370
    -2
100
AcDbLine
 10
113.6
 20
12.76250000000001
 30
0.0
 11
113.6
 21
41.55533999616129
 31
0.0
  0
LINE
  5
E9
330
E5
100
AcDbEntity
  8
치수문자_일반주서
 62
     0
370
    -2
100
AcDbLine
 10
-51.5
 20
10.2225
 30
0.0
 11
-51.50000000000001
 21
41.55533999616129
 31
0.0
  0
LINE
  5
EA
330
E5
100
AcDbEntity
  8
치수문자_일반주서
 62
     0
370
    -2
100
AcDbLine
 10
110.298
 20
41.55533999616129
 30
0.0
 11
-48.19800000000001
 21
41.55533999616129
 31
0.0
  0
SOLID
  5
EB
330
E5
100
AcDbEntity
  8
치수문자_일반주서
 62
     0
100
AcDbTrace
 10
110.298
 20
41.00500666282796
 30
0.0
 11
110.298
 21
42.10567332949463
 31
0.0
 12
113.6
 22
41.55533999616129
 32
0.0
 13
113.6
 23
41.55533999616129
 33
0.0
  0
SOLID
  5
EC
330
E5
100
AcDbEntity
  8
치수문자_일반주서
 62
     0
100
AcDbTrace
 10
-48.19800000000001
 20
42.10567332949463
 30
0.0
 11
-48.19800000000001
 21
41.00500666282796
 31
0.0
 12
-51.50000000000001
 22
41.55533999616129
 32
0.0
 13
-51.50000000000001
 23
41.55533999616129
 33
0.0
  0
MTEXT
  5
ED
330
E5
100
AcDbEntity
  8
치수문자_일반주서
 62
     0
100
AcDbMText
 10
31.05
 20
45.93033999616129
 30
0.0
 40
3.5
 41
0.0
 71
     2
 72
     1
  1
\A1;165.10 [6 1/2]
  7
SLDTEXTSTYLE0
 73
     1
 44
1.0
  0
POINT
  5
EE
330
E5
100
AcDbEntity
  8
Defpoints
 62
     0
100
AcDbPoint
 10
113.6
 20
12.70000000000001
 30
0.0
  0
POINT
  5
EF
330
E5
100
AcDbEntity
  8
Defpoints
 62
     0
100
AcDbPoint
 10
-51.5
 20
10.16
 30
0.0
  0
POINT
  5
F0
330
E5
100
AcDbEntity
  8
Defpoints
 62
     0
100
AcDbPoint
 10
-51.5
 20
41.55533999616129
 30
0.0
  0
ENDBLK
  5
E7
330
E5
100
AcDbEntity
  8
0
100
AcDbBlockEnd
  0
BLOCK
  5
FA
330
F9
100
AcDbEntity
  8
0
100
AcDbBlockBegin
  2
_D_2
 70
     0
 10
0.0
 20
0.0
 30
0.0
  3
_D_2
  1
_D_2
  0
LINE
  5
FC
330
F9
100
AcDbEntity
  8
치수문자_일반주서
 62
     0
370
    -2
100
AcDbLine
 10
-49.02250000000002
 20
12.69999999999999
 30
0.0
 11
-61.21327283782725
 21
12.69999999999994
 31
0.0
  0
LINE
  5
FD
330
F9
100
AcDbEntity
  8
치수문자_일반주서
 62
     0
370
    -2
100
AcDbLine
 10
-49.02250000000002
 20
-12.69999999999999
 30
0.0
 11
-61.21327283782717
 21
-12.70000000000004
 31
0.0
  0
LINE
  5
FE
330
F9
100
AcDbEntity
  8
치수문자_일반주서
 62
     0
370
    -2
100
AcDbLine
 10
-61.21327283782724
 20
9.39799999999994
 30
0.0
 11
-61.21327283782718
 21
-9.398000000000039
 31
0.0
  0
SOLID
  5
FF
330
F9
100
AcDbEntity
  8
치수문자_일반주서
 62
     0
100
AcDbTrace
 10
-60.66293950449391
 20
9.397999999999941
 30
0.0
 11
-61.76360617116057
 21
9.397999999999938
 31
0.0
 12
-61.21327283782725
 22
12.69999999999994
 32
0.0
 13
-61.21327283782725
 23
12.69999999999994
 33
0.0
  0
SOLID
  5
100
330
F9
100
AcDbEntity
  8
치수문자_일반주서
 62
     0
100
AcDbTrace
 10
-61.76360617116052
 20
-9.39800000000004
 30
0.0
 11
-60.66293950449385
 21
-9.398000000000037
 31
0.0
 12
-61.21327283782717
 22
-12.70000000000004
 32
0.0
 13
-61.21327283782717
 23
-12.70000000000004
 33
0.0
  0
MTEXT
  5
101
330
F9
100
AcDbEntity
  8
치수문자_일반주서
 62
     0
100
AcDbMText
 10
-65.58827283782722
 20
-0.0000000000000269
 30
0.0
 40
3.5
 41
0.0
 71
     2
 72
     1
  1
\A1;%%c25.40 [1]
  7
SLDTEXTSTYLE0
 11
-3.356894814614650E-15
 21
1.0
 31
0.0
 73
     1
 44
1.0
  0
POINT
  5
102
330
F9
100
AcDbEntity
  8
Defpoints
 62
     0
100
AcDbPoint
 10
-48.96000000000002
 20
12.69999999999999
 30
0.0
  0
POINT
  5
103
330
F9
100
AcDbEntity
  8
Defpoints
 62
     0
100
AcDbPoint
 10
-48.96000000000002
 20
-12.69999999999999
 30
0.0
  0
POINT
  5
104
330
F9
100
AcDbEntity
  8
Defpoints
 62
     0
100
AcDbPoint
 10
-61.21327283782717
 20
-12.70000000000004
 30
0.0
  0
ENDBLK
  5
FB
330
F9
100
AcDbEntity
  8
0
100
AcDbBlockEnd
  0
BLOCK
  5
10E
330
10D
100
AcDbEntity
  8
0
100
AcDbBlockBegin
  2
_D_3
 70
     0
 10
0.0
 20
0.0
 30
0.0
  3
_D_3
  1
_D_3
  0
LINE
  5
110
330
10D
100
AcDbEntity
  8
치수문자_일반주서
 62
     0
370
    -2
100
AcDbLine
 10
113.6625
 20
12.70000000000001
 30
0.0
 11
135.1820679431205
 21
12.7000000000001
 31
0.0
  0
LINE
  5
111
330
10D
100
AcDbEntity
  8
치수문자_일반주서
 62
     0
370
    -2
100
AcDbLine
 10
113.6625
 20
-12.69999999999999
 30
0.0
 11
135.1820679431206
 21
-12.6999999999999
 31
0.0
  0
LINE
  5
112
330
10D
100
AcDbEntity
  8
치수문자_일반주서
 62
     0
370
    -2
100
AcDbLine
 10
135.1820679431205
 20
12.7000000000001
 30
0.0
 11
135.1820679431204
 21
47.07197056460272
 31
0.0
  0
LINE
  5
113
330
10D
100
AcDbEntity
  8
치수문자_일반주서
 62
     0
370
    -2
100
AcDbLine
 10
135.1820679431205
 20
12.7000000000001
 30
0.0
 11
135.1820679431206
 21
-12.6999999999999
 31
0.0
  0
LINE
  5
114
330
10D
100
AcDbEntity
  8
치수문자_일반주서
 62
     0
370
    -2
100
AcDbLine
 10
135.1820679431205
 20
16.00200000000009
 30
0.0
 11
135.1820679431205
 21
19.30400000000009
 31
0.0
  0
LINE
  5
115
330
10D
100
AcDbEntity
  8
치수문자_일반주서
 62
     0
370
    -2
100
AcDbLine
 10
135.1820679431206
 20
-16.0019999999999
 30
0.0
 11
135.1820679431206
 21
-19.3039999999999
 31
0.0
  0
SOLID
  5
116
330
10D
100
AcDbEntity
  8
치수문자_일반주서
 62
     0
100
AcDbTrace
 10
134.6317346097871
 20
16.00200000000009
 30
0.0
 11
135.7324012764538
 21
16.0020000000001
 31
0.0
 12
135.1820679431205
 22
12.7000000000001
 32
0.0
 13
135.1820679431205
 23
12.7000000000001
 33
0.0
  0
SOLID
  5
117
330
10D
100
AcDbEntity
  8
치수문자_일반주서
 62
     0
100
AcDbTrace
 10
135.7324012764539
 20
-16.0019999999999
 30
0.0
 11
134.6317346097872
 21
-16.00199999999991
 31
0.0
 12
135.1820679431206
 22
-12.6999999999999
 32
0.0
 13
135.1820679431206
 23
-12.6999999999999
 33
0.0
  0
MTEXT
  5
118
330
10D
100
AcDbEntity
  8
치수문자_일반주서
 62
     0
100
AcDbMText
 10
130.8070679431204
 20
35.91572056460271
 30
0.0
 40
3.5
 41
0.0
 71
     2
 72
     1
  1
\A1;%%c25.40 [1]
  7
SLDTEXTSTYLE0
 11
-3.356894814614646E-15
 21
1.0
 31
0.0
 73
     1
 44
1.0
  0
POINT
  5
119
330
10D
100
AcDbEntity
  8
Defpoints
 62
     0
100
AcDbPoint
 10
113.6
 20
12.70000000000001
 30
0.0
  0
POINT
  5
295
330
10D
100
AcDbEntity
  8
Defpoints
 62
     0
100
AcDbPoint
 10
113.6
 20
-12.69999999999999
 30
0.0
  0
POINT
  5
296
330
10D
100
AcDbEntity
  8
Defpoints
 62
     0
100
AcDbPoint
 10
135.1820679431206
 20
-12.69999999999991
 30
0.0
  0
ENDBLK
  5
10F
330
10D
100
AcDbEntity
  8
0
100
AcDbBlockEnd
  0
BLOCK
  5
127
330
126
100
AcDbEntity
  8
0
100
AcDbBlockBegin
  2
SW_DOWELSYMBOL_0
 70
     0
 10
0.0
 20
0.0
 30
0.0
  3
SW_DOWELSYMBOL_0
  1
SW_DOWELSYMBOL_0
  0
CIRCLE
  5
129
330
126
100
AcDbEntity
  8
해칭선
 62
     0
100
AcDbCircle
 10
0.0
 20
0.0
 30
0.0
 40
3.000000000000001
  0
HATCH
  5
12A
330
126
100
AcDbEntity
  8
0
  6
Continuous
 62
     0
370
     0
100
AcDbHatch
 10
0.0
 20
0.0
 30
0.0
210
0.0
220
0.0
230
1.0
  2
SOLID
 70
     1
 71
     0
 91
        1
 92
        0
 93
        3
 72
     2
 10
0.0
 20
0.0
 40
3.000000000000001
 50
0.0
 51
90.0
 73
     1
 72
     1
 10
0.0
 20
3.000000000000001
 11
0.0
 21
0.0
 72
     1
 10
0.0
 20
0.0
 11
3.000000000000003
 21
0.0
 97
        0
 75
     0
 76
     1
 98
        1
 10
0.0
 20
0.0
  0
HATCH
  5
12B
330
126
100
AcDbEntity
  8
0
  6
Continuous
 62
     0
370
     0
100
AcDbHatch
 10
0.0
 20
0.0
 30
0.0
210
0.0
220
0.0
230
1.0
  2
SOLID
 70
     1
 71
     0
 91
        1
 92
        0
 93
        3
 72
     2
 10
0.0
 20
0.0
 40
3.000000000000001
 50
180.0
 51
270.0000000000007
 73
     1
 72
     1
 10
0.0
 20
-3.000000000000001
 11
0.0
 21
0.0
 72
     1
 10
0.0
 20
0.0
 11
-3.000000000000001
 21
0.0
 97
        0
 75
     0
 76
     1
 98
        1
 10
0.0
 20
0.0
  0
ENDBLK
  5
128
330
126
100
AcDbEntity
  8
0
100
AcDbBlockEnd
  0
BLOCK
  5
1F2
330
1F1
100
AcDbEntity
  8
0
100
AcDbBlockBegin
  2
*D7
 70
     1
 10
0.0
 20
0.0
 30
0.0
  3
*D7
  1
*D8
  0
LINE
  5
1F4
330
1F1
100
AcDbEntity
  8
치수문자_일반주서
 62
     0
370
    -2
100
AcDbLine
 10
160.4557728378273
 20
24.73750000000004
 30
0.0
 11
160.4557728378273
 21
37.81497268430743
 31
0.0
  0
LINE
  5
1F5
330
1F1
100
AcDbEntity
  8
치수문자_일반주서
 62
     0
370
    -2
100
AcDbLine
 10
71.55577283782723
 20
24.73716262504231
 30
0.0
 11
71.55577283782723
 21
37.81497268430743
 31
0.0
  0
LINE
  5
1F6
330
1F1
100
AcDbEntity
  8
치수문자_일반주서
 62
     0
370
    -2
100
AcDbLine
 10
157.1537728378273
 20
37.81497268430743
 30
0.0
 11
74.85777283782724
 21
37.81497268430743
 31
0.0
  0
SOLID
  5
1F7
330
1F1
100
AcDbEntity
  8
치수문자_일반주서
 62
     0
100
AcDbTrace
 10
157.1537728378273
 20
37.26463935097409
 30
0.0
 11
157.1537728378273
 21
38.36530601764076
 31
0.0
 12
160.4557728378273
 22
37.81497268430743
 32
0.0
 13
160.4557728378273
 23
37.81497268430743
 33
0.0
  0
SOLID
  5
1F8
330
1F1
100
AcDbEntity
  8
치수문자_일반주서
 62
     0
100
AcDbTrace
 10
74.85777283782724
 20
38.36530601764076
 30
0.0
 11
74.85777283782724
 21
37.26463935097409
 31
0.0
 12
71.55577283782723
 22
37.81497268430743
 32
0.0
 13
71.55577283782723
 23
37.81497268430743
 33
0.0
  0
MTEXT
  5
1F9
330
1F1
100
AcDbEntity
  8
치수문자_일반주서
 62
     0
100
AcDbMText
 10
112.6834673734789
 20
42.18997268430743
 30
0.0
 40
3.5
 41
0.0
 71
     2
 72
     1
  1
\A1;88.90 [3 1/2]
  7
SLDTEXTSTYLE0
 73
     1
 44
1.0
  0
POINT
  5
1FA
330
1F1
100
AcDbEntity
  8
Defpoints
 62
     0
100
AcDbPoint
 10
160.4557728378273
 20
24.67500000000004
 30
0.0
  0
POINT
  5
1FB
330
1F1
100
AcDbEntity
  8
Defpoints
 62
     0
100
AcDbPoint
 10
71.55577283782723
 20
24.67466262504231
 30
0.0
  0
POINT
  5
1FC
330
1F1
100
AcDbEntity
  8
Defpoints
 62
     0
100
AcDbPoint
 10
71.55577283782723
 20
37.81497268430743
 30
0.0
  0
ENDBLK
  5
1F3
330
1F1
100
AcDbEntity
  8
0
100
AcDbBlockEnd
  0
BLOCK
  5
1FE
330
1FD
100
AcDbEntity
  8
0
100
AcDbBlockBegin
  2
*D8
 70
     1
 10
0.0
 20
0.0
 30
0.0
  3
*D8
  1
*D9
  0
LINE
  5
200
330
1FD
100
AcDbEntity
  8
치수문자_일반주서
 62
     0
370
    -2
100
AcDbLine
 10
160.4557728378273
 20
24.73750000000004
 30
0.0
 11
160.4557728378273
 21
53.5361778821101
 31
0.0
  0
LINE
  5
201
330
1FD
100
AcDbEntity
  8
치수문자_일반주서
 62
     0
370
    -2
100
AcDbLine
 10
14.40577283782725
 20
24.73750000000003
 30
0.0
 11
14.40577283782724
 21
53.5361778821101
 31
0.0
  0
LINE
  5
202
330
1FD
100
AcDbEntity
  8
치수문자_일반주서
 62
     0
370
    -2
100
AcDbLine
 10
157.1537728378273
 20
53.5361778821101
 30
0.0
 11
17.70777283782724
 21
53.5361778821101
 31
0.0
  0
SOLID
  5
203
330
1FD
100
AcDbEntity
  8
치수문자_일반주서
 62
     0
100
AcDbTrace
 10
157.1537728378273
 20
52.98584454877677
 30
0.0
 11
157.1537728378273
 21
54.08651121544344
 31
0.0
 12
160.4557728378273
 22
53.5361778821101
 32
0.0
 13
160.4557728378273
 23
53.5361778821101
 33
0.0
  0
SOLID
  5
204
330
1FD
100
AcDbEntity
  8
치수문자_일반주서
 62
     0
100
AcDbTrace
 10
17.70777283782724
 20
54.08651121544344
 30
0.0
 11
17.70777283782724
 21
52.98584454877677
 31
0.0
 12
14.40577283782724
 22
53.5361778821101
 32
0.0
 13
14.40577283782724
 23
53.5361778821101
 33
0.0
  0
MTEXT
  5
205
330
1FD
100
AcDbEntity
  8
치수문자_일반주서
 62
     0
100
AcDbMText
 10
87.43077283782725
 20
57.9111778821101
 30
0.0
 40
3.5
 41
0.0
 71
     2
 72
     1
  1
\A1;146.05 [5 3/4]
  7
SLDTEXTSTYLE0
 73
     1
 44
1.0
  0
POINT
  5
206
330
1FD
100
AcDbEntity
  8
Defpoints
 62
     0
100
AcDbPoint
 10
160.4557728378273
 20
24.67500000000004
 30
0.0
  0
POINT
  5
207
330
1FD
100
AcDbEntity
  8
Defpoints
 62
     0
100
AcDbPoint
 10
14.40577283782725
 20
24.67500000000003
 30
0.0
  0
POINT
  5
208
330
1FD
100
AcDbEntity
  8
Defpoints
 62
     0
100
AcDbPoint
 10
14.40577283782725
 20
53.5361778821101
 30
0.0
  0
ENDBLK
  5
1FF
330
1FD
100
AcDbEntity
  8
0
100
AcDbBlockEnd
  0
BLOCK
  5
20A
330
209
100
AcDbEntity
  8
0
100
AcDbBlockBegin
  2
*D9
 70
     1
 10
0.0
 20
0.0
 30
0.0
  3
*D9
  1
*D10
  0
LINE
  5
20C
330
209
100
AcDbEntity
  8
치수문자_일반주서
 62
     0
370
    -2
100
AcDbLine
 10
14.34327283782725
 20
24.67500000000003
 30
0.0
 11
4.375000000000004
 21
24.67499999999999
 31
0.0
  0
LINE
  5
20D
330
209
100
AcDbEntity
  8
치수문자_일반주서
 62
     0
370
    -2
100
AcDbLine
 10
16.56577283782723
 20
2.450000000000027
 30
0.0
 11
4.375000000000082
 21
2.44999999999998
 31
0.0
  0
LINE
  5
20E
330
209
100
AcDbEntity
  8
치수문자_일반주서
 62
     0
370
    -2
100
AcDbLine
 10
4.375000000000016
 20
21.37299999999999
 30
0.0
 11
4.37500000000007
 21
5.751999999999979
 31
0.0
  0
SOLID
  5
20F
330
209
100
AcDbEntity
  8
치수문자_일반주서
 62
     0
100
AcDbTrace
 10
4.92533333333335
 20
21.37299999999999
 30
0.0
 11
3.824666666666683
 21
21.37299999999998
 31
0.0
 12
4.375000000000004
 22
24.67499999999999
 32
0.0
 13
4.375000000000004
 23
24.67499999999999
 33
0.0
  0
SOLID
  5
210
330
209
100
AcDbEntity
  8
치수문자_일반주서
 62
     0
100
AcDbTrace
 10
3.824666666666737
 20
5.751999999999978
 30
0.0
 11
4.925333333333404
 21
5.751999999999981
 31
0.0
 12
4.375000000000082
 22
2.44999999999998
 32
0.0
 13
4.375000000000082
 23
2.44999999999998
 33
0.0
  0
MTEXT
  5
211
330
209
100
AcDbEntity
  8
치수문자_일반주서
 62
     0
100
AcDbMText
 10
0.0000000000000426
 20
13.56250000000001
 30
0.0
 40
3.5
 41
0.0
 71
     2
 72
     1
  1
\A1;%%c22.23 [7/8]
  7
SLDTEXTSTYLE0
 11
-3.476783915136597E-15
 21
1.0
 31
0.0
 73
     1
 44
1.0
  0
POINT
  5
212
330
209
100
AcDbEntity
  8
Defpoints
 62
     0
100
AcDbPoint
 10
14.40577283782725
 20
24.67500000000003
 30
0.0
  0
POINT
  5
213
330
209
100
AcDbEntity
  8
Defpoints
 62
     0
100
AcDbPoint
 10
16.62827283782723
 20
2.450000000000028
 30
0.0
  0
POINT
  5
214
330
209
100
AcDbEntity
  8
Defpoints
 62
     0
100
AcDbPoint
 10
4.375000000000085
 20
2.449999999999982
 30
0.0
  0
ENDBLK
  5
20B
330
209
100
AcDbEntity
  8
0
100
AcDbBlockEnd
  0
BLOCK
  5
216
330
215
100
AcDbEntity
  8
0
100
AcDbBlockBegin
  2
*D10
 70
     1
 10
0.0
 20
0.0
 30
0.0
  3
*D10
  1
*D11
  0
LINE
  5
218
330
215
100
AcDbEntity
  8
치수문자_일반주서
 62
     0
370
    -2
100
AcDbLine
 10
160.5182728378273
 20
24.67500000000004
 30
0.0
 11
176.0389687956513
 21
24.6750000000001
 31
0.0
  0
LINE
  5
219
330
215
100
AcDbEntity
  8
치수문자_일반주서
 62
     0
370
    -2
100
AcDbLine
 10
160.5182728378272
 20
2.450000000000039
 30
0.0
 11
176.0389687956514
 21
2.450000000000095
 31
0.0
  0
LINE
  5
21A
330
215
100
AcDbEntity
  8
치수문자_일반주서
 62
     0
370
    -2
100
AcDbLine
 10
176.0389687956513
 20
24.6750000000001
 30
0.0
 11
176.0389687956512
 21
60.1540000000001
 31
0.0
  0
LINE
  5
21B
330
215
100
AcDbEntity
  8
치수문자_일반주서
 62
     0
370
    -2
100
AcDbLine
 10
176.0389687956513
 20
24.6750000000001
 30
0.0
 11
176.0389687956514
 21
2.450000000000095
 31
0.0
  0
LINE
  5
21C
330
215
100
AcDbEntity
  8
치수문자_일반주서
 62
     0
370
    -2
100
AcDbLine
 10
176.0389687956513
 20
27.9770000000001
 30
0.0
 11
176.0389687956513
 21
31.2790000000001
 31
0.0
  0
LINE
  5
21D
330
215
100
AcDbEntity
  8
치수문자_일반주서
 62
     0
370
    -2
100
AcDbLine
 10
176.0389687956514
 20
-0.8519999999999044
 30
0.0
 11
176.0389687956514
 21
-4.153999999999904
 31
0.0
  0
SOLID
  5
21E
330
215
100
AcDbEntity
  8
치수문자_일반주서
 62
     0
100
AcDbTrace
 10
175.488635462318
 20
27.97700000000009
 30
0.0
 11
176.5893021289846
 21
27.9770000000001
 31
0.0
 12
176.0389687956513
 22
24.6750000000001
 32
0.0
 13
176.0389687956513
 23
24.6750000000001
 33
0.0
  0
SOLID
  5
21F
330
215
100
AcDbEntity
  8
치수문자_일반주서
 62
     0
100
AcDbTrace
 10
176.5893021289847
 20
-0.8519999999999023
 30
0.0
 11
175.4886354623181
 21
-0.8519999999999065
 31
0.0
 12
176.0389687956514
 22
2.450000000000095
 32
0.0
 13
176.0389687956514
 23
2.450000000000095
 33
0.0
  0
MTEXT
  5
220
330
215
100
AcDbEntity
  8
치수문자_일반주서
 62
     0
100
AcDbMText
 10
171.6639687956512
 20
45.71650000000008
 30
0.0
 40
3.5
 41
0.0
 71
     2
 72
     1
  1
\A1;%%c22.23 [7/8]
  7
SLDTEXTSTYLE0
 11
-3.836451216702453E-15
 21
1.0
 31
0.0
 73
     1
 44
1.0
  0
POINT
  5
221
330
215
100
AcDbEntity
  8
Defpoints
 62
     0
100
AcDbPoint
 10
160.4557728378273
 20
24.67500000000004
 30
0.0
  0
POINT
  5
222
330
215
100
AcDbEntity
  8
Defpoints
 62
     0
100
AcDbPoint
 10
160.4557728378272
 20
2.450000000000038
 30
0.0
  0
POINT
  5
223
330
215
100
AcDbEntity
  8
Defpoints
 62
     0
100
AcDbPoint
 10
176.0389687956514
 20
2.450000000000097
 30
0.0
  0
ENDBLK
  5
217
330
215
100
AcDbEntity
  8
0
100
AcDbBlockEnd
  0
BLOCK
  5
261
330
260
100
AcDbEntity
  8
0
100
AcDbBlockBegin
  2
*D11
 70
     1
 10
0.0
 20
0.0
 30
0.0
  3
*D11
  1
*D12
  0
LINE
  5
263
330
260
100
AcDbEntity
  8
치수문자_일반주서
 62
     0
370
    -2
100
AcDbLine
 10
299.8502325118704
 20
-69.11900982894518
 30
0.0
 11
299.8502325118704
 21
-56.04153714463779
 31
0.0
  0
LINE
  5
264
330
260
100
AcDbEntity
  8
치수문자_일반주서
 62
     0
370
    -2
100
AcDbLine
 10
210.9502325118704
 20
-69.1193472039029
 30
0.0
 11
210.9502325118704
 21
-56.04153714463779
 31
0.0
  0
LINE
  5
265
330
260
100
AcDbEntity
  8
치수문자_일반주서
 62
     0
370
    -2
100
AcDbLine
 10
296.5482325118704
 20
-56.04153714463779
 30
0.0
 11
214.2522325118703
 21
-56.04153714463779
 31
0.0
  0
SOLID
  5
266
330
260
100
AcDbEntity
  8
치수문자_일반주서
 62
     0
100
AcDbTrace
 10
296.5482325118704
 20
-56.59187047797113
 30
0.0
 11
296.5482325118704
 21
-55.49120381130446
 31
0.0
 12
299.8502325118704
 22
-56.04153714463779
 32
0.0
 13
299.8502325118704
 23
-56.04153714463779
 33
0.0
  0
SOLID
  5
267
330
260
100
AcDbEntity
  8
치수문자_일반주서
 62
     0
100
AcDbTrace
 10
214.2522325118703
 20
-55.49120381130446
 30
0.0
 11
214.2522325118703
 21
-56.59187047797113
 31
0.0
 12
210.9502325118704
 22
-56.04153714463779
 32
0.0
 13
210.9502325118704
 23
-56.04153714463779
 33
0.0
  0
MTEXT
  5
268
330
260
100
AcDbEntity
  8
치수문자_일반주서
 62
     0
100
AcDbMText
 10
252.077927047522
 20
-51.66653714463779
 30
0.0
 40
3.5
 41
0.0
 71
     2
 72
     1
  1
\A1;88.90 [3 1/2]
  7
SLDTEXTSTYLE0
 73
     1
 44
1.0
  0
POINT
  5
269
330
260
100
AcDbEntity
  8
Defpoints
 62
     0
100
AcDbPoint
 10
299.8502325118704
 20
-69.18150982894518
 30
0.0
  0
POINT
  5
26A
330
260
100
AcDbEntity
  8
Defpoints
 62
     0
100
AcDbPoint
 10
210.9502325118704
 20
-69.1818472039029
 30
0.0
  0
POINT
  5
26B
330
260
100
AcDbEntity
  8
Defpoints
 62
     0
100
AcDbPoint
 10
210.9502325118704
 20
-56.04153714463779
 30
0.0
  0
ENDBLK
  5
262
330
260
100
AcDbEntity
  8
0
100
AcDbBlockEnd
  0
BLOCK
  5
26D
330
26C
100
AcDbEntity
  8
0
100
AcDbBlockBegin
  2
*D12
 70
     1
 10
0.0
 20
0.0
 30
0.0
  3
*D12
  1
*D13
  0
LINE
  5
26F
330
26C
100
AcDbEntity
  8
치수문자_일반주서
 62
     0
370
    -2
100
AcDbLine
 10
299.8502325118704
 20
-69.11900982894518
 30
0.0
 11
299.8502325118704
 21
-40.32033194683512
 31
0.0
  0
LINE
  5
270
330
26C
100
AcDbEntity
  8
치수문자_일반주서
 62
     0
370
    -2
100
AcDbLine
 10
153.8002325118703
 20
-69.1190098289452
 30
0.0
 11
153.8002325118703
 21
-40.32033194683512
 31
0.0
  0
LINE
  5
271
330
26C
100
AcDbEntity
  8
치수문자_일반주서
 62
     0
370
    -2
100
AcDbLine
 10
296.5482325118704
 20
-40.32033194683512
 30
0.0
 11
157.1022325118703
 21
-40.32033194683512
 31
0.0
  0
SOLID
  5
272
330
26C
100
AcDbEntity
  8
치수문자_일반주서
 62
     0
100
AcDbTrace
 10
296.5482325118704
 20
-40.87066528016845
 30
0.0
 11
296.5482325118704
 21
-39.76999861350178
 31
0.0
 12
299.8502325118704
 22
-40.32033194683512
 32
0.0
 13
299.8502325118704
 23
-40.32033194683512
 33
0.0
  0
SOLID
  5
273
330
26C
100
AcDbEntity
  8
치수문자_일반주서
 62
     0
100
AcDbTrace
 10
157.1022325118703
 20
-39.76999861350178
 30
0.0
 11
157.1022325118703
 21
-40.87066528016845
 31
0.0
 12
153.8002325118703
 22
-40.32033194683512
 32
0.0
 13
153.8002325118703
 23
-40.32033194683512
 33
0.0
  0
MTEXT
  5
274
330
26C
100
AcDbEntity
  8
치수문자_일반주서
 62
     0
100
AcDbMText
 10
226.8252325118704
 20
-35.94533194683512
 30
0.0
 40
3.5
 41
0.0
 71
     2
 72
     1
  1
\A1;146.05 [5 3/4]
  7
SLDTEXTSTYLE0
 73
     1
 44
1.0
  0
POINT
  5
275
330
26C
100
AcDbEntity
  8
Defpoints
 62
     0
100
AcDbPoint
 10
299.8502325118704
 20
-69.18150982894518
 30
0.0
  0
POINT
  5
276
330
26C
100
AcDbEntity
  8
Defpoints
 62
     0
100
AcDbPoint
 10
153.8002325118703
 20
-69.1815098289452
 30
0.0
  0
POINT
  5
277
330
26C
100
AcDbEntity
  8
Defpoints
 62
     0
100
AcDbPoint
 10
153.8002325118703
 20
-40.32033194683512
 30
0.0
  0
ENDBLK
  5
26E
330
26C
100
AcDbEntity
  8
0
100
AcDbBlockEnd
  0
BLOCK
  5
279
330
278
100
AcDbEntity
  8
0
100
AcDbBlockBegin
  2
*D13
 70
     1
 10
0.0
 20
0.0
 30
0.0
  3
*D13
  1
*D14
  0
LINE
  5
27B
330
278
100
AcDbEntity
  8
치수문자_일반주서
 62
     0
370
    -2
100
AcDbLine
 10
153.7377325118703
 20
-69.1815098289452
 30
0.0
 11
143.7694596740431
 21
-69.18150982894524
 31
0.0
  0
LINE
  5
27C
330
278
100
AcDbEntity
  8
치수문자_일반주서
 62
     0
370
    -2
100
AcDbLine
 10
155.9602325118703
 20
-91.40650982894519
 30
0.0
 11
143.7694596740432
 21
-91.40650982894525
 31
0.0
  0
LINE
  5
27D
330
278
100
AcDbEntity
  8
치수문자_일반주서
 62
     0
370
    -2
100
AcDbLine
 10
143.7694596740431
 20
-72.48350982894524
 30
0.0
 11
143.7694596740432
 21
-88.10450982894525
 31
0.0
  0
SOLID
  5
27E
330
278
100
AcDbEntity
  8
치수문자_일반주서
 62
     0
100
AcDbTrace
 10
144.3197930073765
 20
-72.48350982894524
 30
0.0
 11
143.2191263407098
 21
-72.48350982894524
 31
0.0
 12
143.7694596740431
 22
-69.18150982894524
 32
0.0
 13
143.7694596740431
 23
-69.18150982894524
 33
0.0
  0
SOLID
  5
27F
330
278
100
AcDbEntity
  8
치수문자_일반주서
 62
     0
100
AcDbTrace
 10
143.2191263407099
 20
-88.10450982894525
 30
0.0
 11
144.3197930073765
 21
-88.10450982894525
 31
0.0
 12
143.7694596740432
 22
-91.40650982894525
 32
0.0
 13
143.7694596740432
 23
-91.40650982894525
 33
0.0
  0
MTEXT
  5
280
330
278
100
AcDbEntity
  8
치수문자_일반주서
 62
     0
100
AcDbMText
 10
139.3944596740432
 20
-80.29400982894522
 30
0.0
 40
3.5
 41
0.0
 71
     2
 72
     1
  1
\A1;%%c22.23 [7/8]
  7
SLDTEXTSTYLE0
 11
-3.836451216702454E-15
 21
1.0
 31
0.0
 73
     1
 44
1.0
  0
POINT
  5
281
330
278
100
AcDbEntity
  8
Defpoints
 62
     0
100
AcDbPoint
 10
153.8002325118703
 20
-69.1815098289452
 30
0.0
  0
POINT
  5
282
330
278
100
AcDbEntity
  8
Defpoints
 62
     0
100
AcDbPoint
 10
156.0227325118703
 20
-91.40650982894519
 30
0.0
  0
POINT
  5
283
330
278
100
AcDbEntity
  8
Defpoints
 62
     0
100
AcDbPoint
 10
143.7694596740432
 20
-91.40650982894523
 30
0.0
  0
ENDBLK
  5
27A
330
278
100
AcDbEntity
  8
0
100
AcDbBlockEnd
  0
BLOCK
  5
285
330
284
100
AcDbEntity
  8
0
100
AcDbBlockBegin
  2
*D14
 70
     1
 10
0.0
 20
0.0
 30
0.0
  3
*D14
  1
*D15
  0
LINE
  5
287
330
284
100
AcDbEntity
  8
치수문자_일반주서
 62
     0
370
    -2
100
AcDbLine
 10
299.9127325118703
 20
-69.18150982894518
 30
0.0
 11
315.4334284696944
 21
-69.18150982894512
 31
0.0
  0
LINE
  5
288
330
284
100
AcDbEntity
  8
치수문자_일반주서
 62
     0
370
    -2
100
AcDbLine
 10
299.9127325118703
 20
-91.40650982894519
 30
0.0
 11
315.4334284696945
 21
-91.40650982894513
 31
0.0
  0
LINE
  5
289
330
284
100
AcDbEntity
  8
치수문자_일반주서
 62
     0
370
    -2
100
AcDbLine
 10
315.4334284696944
 20
-69.18150982894512
 30
0.0
 11
315.4334284696943
 21
-33.70250982894513
 31
0.0
  0
LINE
  5
28A
330
284
100
AcDbEntity
  8
치수문자_일반주서
 62
     0
370
    -2
100
AcDbLine
 10
315.4334284696944
 20
-69.18150982894512
 30
0.0
 11
315.4334284696945
 21
-91.40650982894513
 31
0.0
  0
LINE
  5
28B
330
284
100
AcDbEntity
  8
치수문자_일반주서
 62
     0
370
    -2
100
AcDbLine
 10
315.4334284696944
 20
-65.87950982894512
 30
0.0
 11
315.4334284696944
 21
-62.57750982894512
 31
0.0
  0
LINE
  5
28C
330
284
100
AcDbEntity
  8
치수문자_일반주서
 62
     0
370
    -2
100
AcDbLine
 10
315.4334284696945
 20
-94.70850982894513
 30
0.0
 11
315.4334284696945
 21
-98.01050982894512
 31
0.0
  0
SOLID
  5
28D
330
284
100
AcDbEntity
  8
치수문자_일반주서
 62
     0
100
AcDbTrace
 10
314.8830951363611
 20
-65.87950982894512
 30
0.0
 11
315.9837618030278
 21
-65.87950982894512
 31
0.0
 12
315.4334284696944
 22
-69.18150982894512
 32
0.0
 13
315.4334284696944
 23
-69.18150982894512
 33
0.0
  0
SOLID
  5
28E
330
284
100
AcDbEntity
  8
치수문자_일반주서
 62
     0
100
AcDbTrace
 10
315.9837618030278
 20
-94.70850982894513
 30
0.0
 11
314.8830951363611
 21
-94.70850982894513
 31
0.0
 12
315.4334284696945
 22
-91.40650982894513
 32
0.0
 13
315.4334284696945
 23
-91.40650982894513
 33
0.0
  0
MTEXT
  5
28F
330
284
100
AcDbEntity
  8
치수문자_일반주서
 62
     0
100
AcDbMText
 10
311.0584284696944
 20
-48.14000982894514
 30
0.0
 40
3.5
 41
0.0
 71
     2
 72
     1
  1
\A1;%%c22.23 [7/8]
  7
SLDTEXTSTYLE0
 11
-2.557634144468301E-15
 21
1.0
 31
0.0
 73
     1
 44
1.0
  0
POINT
  5
290
330
284
100
AcDbEntity
  8
Defpoints
 62
     0
100
AcDbPoint
 10
299.8502325118703
 20
-69.18150982894518
 30
0.0
  0
POINT
  5
291
330
284
100
AcDbEntity
  8
Defpoints
 62
     0
100
AcDbPoint
 10
299.8502325118703
 20
-91.40650982894519
 30
0.0
  0
POINT
  5
292
330
284
100
AcDbEntity
  8
Defpoints
 62
     0
100
AcDbPoint
 10
315.4334284696945
 20
-91.40650982894513
 30
0.0
  0
ENDBLK
  5
286
330
284
100
AcDbEntity
  8
0
100
AcDbBlockEnd
  0
ENDSEC
  0
SECTION
  2
ENTITIES
  0
LINE
  5
96
330
1F
100
AcDbEntity
  8
외형선
  6
Continuous
370
    15
100
AcDbLine
 10
11.82828857428561
 20
-12.7
 30
0.0
 11
12.0
 21
-12.7
 31
0.0
  0
LINE
  5
97
330
1F
100
AcDbEntity
  8
외형선
  6
Continuous
370
    15
100
AcDbLine
 10
-48.96000000000001
 20
-12.7
 30
0.0
 11
11.5000955227092
 21
-12.7
 31
0.0
  0
LINE
  5
98
330
1F
100
AcDbEntity
  8
외형선
  6
Continuous
370
    15
100
AcDbLine
 10
11.5000955227092
 20
12.7
 30
0.0
 11
-14.06992499999999
 21
12.7
 31
0.0
  0
LINE
  5
99
330
1F
100
AcDbEntity
  8
외형선
  6
Continuous
370
    15
100
AcDbLine
 10
12.0
 20
12.7
 30
0.0
 11
11.82828857428544
 21
12.7
 31
0.0
  0
LINE
  5
9A
330
1F
100
AcDbEntity
  8
외형선
  6
Continuous
370
    15
100
AcDbLine
 10
-50.865
 20
10.795
 30
0.0
 11
-51.5
 21
10.16
 31
0.0
  0
LINE
  5
9B
330
1F
100
AcDbEntity
  8
외형선
  6
Continuous
370
    15
100
AcDbLine
 10
-51.5
 20
-10.16000000000001
 30
0.0
 11
-48.96000000000001
 21
-12.7
 31
0.0
  0
LINE
  5
9C
330
1F
100
AcDbEntity
  8
0
  6
Continuous
 62
     1
370
    15
100
AcDbLine
 10
80.93404316324015
 20
-12.70000000000001
 30
0.0
 11
88.67706338841323
 21
-12.70000000000001
 31
0.0
  0
LINE
  5
9D
330
1F
100
AcDbEntity
  8
0
  6
Continuous
 62
     1
370
    15
100
AcDbLine
 10
19.5710909410916
 20
12.7
 30
0.0
 11
12.0
 21
12.7
 31
0.0
  0
LINE
  5
9E
330
1F
100
AcDbEntity
  8
0
  6
Continuous
 62
     1
370
    15
100
AcDbLine
 10
108.8751466465566
 20
3.761464440779796
 30
0.0
 11
108.7853356008688
 21
3.810008854574383
 31
0.0
  0
LINE
  5
9F
330
1F
100
AcDbEntity
  8
0
  6
Continuous
 62
     1
370
    15
100
AcDbLine
 10
54.12580162390213
 20
12.7
 30
0.0
 11
46.38190231835225
 21
12.7
 31
0.0
  0
LINE
  5
A0
330
1F
100
AcDbEntity
  8
0
  6
Continuous
 62
     1
370
    15
100
AcDbLine
 10
46.38190231835214
 20
-12.70000000000001
 30
0.0
 11
54.12580162390192
 21
-12.70000000000001
 31
0.0
  0
LINE
  5
A1
330
1F
100
AcDbEntity
  8
0
  6
Continuous
 62
     1
370
    15
100
AcDbLine
 10
12.0
 20
-12.70000000000001
 30
0.0
 11
19.57109094109162
 21
-12.70000000000001
 31
0.0
  0
LINE
  5
A2
330
1F
100
AcDbEntity
  8
0
  6
Continuous
 62
     1
370
    15
100
AcDbLine
 10
88.67706338841317
 20
12.7
 30
0.0
 11
80.93404316324028
 21
12.7
 31
0.0
  0
SPLINE
  5
A3
330
1F
100
AcDbEntity
  8
외형선
  6
Continuous
370
    15
100
AcDbSpline
210
0.0
220
0.0
230
1.0
 70
     8
 71
     3
 72
     8
 73
     4
 74
     0
 42
0.000000001
 43
0.00000001
 40
0.0
 40
0.0
 40
0.0
 40
0.0
 40
1.0
 40
1.0
 40
1.0
 40
1.0
 10
12.0
 20
-11.9550681344544
 30
0.0
 10
11.83326639295596
 20
-11.9225373997584
 30
0.0
 10
11.66684520782953
 20
-11.88899454822267
 30
0.0
 10
11.5000955227092
 20
-11.85440520636261
 30
0.0
  0
SPLINE
  5
A4
330
1F
100
AcDbEntity
  8
외형선
  6
Continuous
370
    15
100
AcDbSpline
210
0.0
220
0.0
230
1.0
 70
     8
 71
     3
 72
     8
 73
     4
 74
     0
 42
0.000000001
 43
0.00000001
 40
0.0
 40
0.0
 40
0.0
 40
0.0
 40
1.0
 40
1.0
 40
1.0
 40
1.0
 10
12.00000000000001
 20
-0.0993192307679407
 30
0.0
 10
11.83326639295597
 20
-0.0029201412109419
 30
0.0
 10
11.66684520782953
 20
0.0934273616477374
 30
0.0
 10
11.50009552270918
 20
0.189821726029388
 30
0.0
  0
SPLINE
  5
A5
330
1F
100
AcDbEntity
  8
외형선
  6
Continuous
370
    15
100
AcDbSpline
210
0.0
220
0.0
230
1.0
 70
    24
 71
     3
 72
    20
 73
    16
 74
     0
 42
0.000000001
 43
0.00000001
 40
0.0
 40
0.0
 40
0.0
 40
0.0
 40
0.0978544913004125
 40
0.1753663140437144
 40
0.2528781367870164
 40
0.3303899595303184
 40
0.4079017822736203
 40
0.4854136050169224
 40
0.5629254277602245
 40
0.6404372505035265
 40
0.7179490732468287
 40
0.7954608959901297
 40
0.8729727187334306
 40
0.9504845414767341
 40
1.0
 40
1.0
 40
1.0
 40
1.0
 10
12.00000000000002
 20
-11.95506813445439
 30
0.0
 10
12.00000000000001
 20
-11.50389544167696
 30
0.0
 10
11.99999999999997
 20
-10.69534295647057
 30
0.0
 10
12.00000000000004
 20
-9.369080158304767
 30
0.0
 10
12.00000000000001
 20
-8.103163984525315
 30
0.0
 10
12.00000000000002
 20
-6.812812191277714
 30
0.0
 10
12.00000000000004
 20
-5.538107765469466
 30
0.0
 10
12.00000000000002
 20
-4.315703290155016
 30
0.0
 10
12.00000000000001
 20
-3.177761905393107
 30
0.0
 10
11.99999999999998
 20
-2.160519871118265
 30
0.0
 10
12.0
 20
-1.288204582194245
 30
0.0
 10
11.99999999999998
 20
-0.5891378371519849
 30
0.0
 10
12.00000000000002
 20
-0.0869206783813146
 30
0.0
 10
11.99999999999998
 20
0.1988660751294895
 30
0.0
 10
11.99999999999998
 20
0.2265838309198965
 30
0.0
 10
11.99999999999997
 20
0.2373882610668173
 30
0.0
  0
LINE
  5
A6
330
1F
100
AcDbEntity
  8
외형선
  6
Continuous
370
    15
100
AcDbLine
 10
11.5000955227092
 20
-12.7
 30
0.0
 11
11.5000955227092
 21
-12.69857996332786
 31
0.0
  0
SPLINE
  5
A7
330
1F
100
AcDbEntity
  8
외형선
  6
Continuous
370
    15
100
AcDbSpline
210
0.0
220
0.0
230
1.0
 70
     8
 71
     3
 72
     8
 73
     4
 74
     0
 42
0.000000001
 43
0.00000001
 40
0.0
 40
0.0
 40
0.0
 40
0.0
 40
1.0
 40
1.0
 40
1.0
 40
1.0
 10
12.00000000000001
 20
12.69961163541624
 30
0.0
 10
11.83326639295597
 20
12.7003655390549
 30
0.0
 10
11.66684520782953
 20
12.70002225501413
 30
0.0
 10
11.50009552270918
 20
12.69858132675958
 30
0.0
  0
LINE
  5
A8
330
1F
100
AcDbEntity
  8
외형선
  6
Continuous
370
    15
100
AcDbLine
 10
11.50009552270918
 20
4.556565338834742
 30
0.0
 11
11.5000955227092
 21
12.7
 31
0.0
  0
SPLINE
  5
A9
330
1F
100
AcDbEntity
  8
외형선
  6
Continuous
370
    15
100
AcDbSpline
210
0.0
220
0.0
230
1.0
 70
     8
 71
     3
 72
     8
 73
     4
 74
     0
 42
0.000000001
 43
0.00000001
 40
0.0
 40
0.0
 40
0.0
 40
0.0
 40
1.0
 40
1.0
 40
1.0
 40
1.0
 10
12.0
 20
4.285597496330403
 30
0.0
 10
11.83326639295596
 20
4.376344970886185
 30
0.0
 10
11.66684520782953
 20
4.466665711925481
 30
0.0
 10
11.5000955227092
 20
4.556651973034966
 30
0.0
  0
LINE
  5
AA
330
1F
100
AcDbEntity
  8
외형선
  6
Continuous
370
    15
100
AcDbLine
 10
11.50009552270918
 20
-11.85443850686022
 30
0.0
 11
11.5000955227092
 21
0.1899129141694754
 31
0.0
  0
LINE
  5
AB
330
1F
100
AcDbEntity
  8
외형선
  6
Continuous
370
    15
100
AcDbLine
 10
11.82828857428561
 20
-12.69925773626871
 30
0.0
 11
11.50009552270918
 21
-12.69858132675959
 31
0.0
  0
LINE
  5
AC
330
1F
100
AcDbEntity
  8
외형선
  6
Continuous
370
    15
100
AcDbLine
 10
-48.96000000000001
 20
-0.0000000000000029
 30
0.0
 11
-48.96000000000001
 21
10.795
 31
0.0
  0
LINE
  5
AD
330
1F
100
AcDbEntity
  8
외형선
  6
Continuous
370
    15
100
AcDbLine
 10
-48.96000000000001
 20
-12.7
 30
0.0
 11
-48.96000000000001
 21
-0.0000000000000029
 31
0.0
  0
LINE
  5
AE
330
1F
100
AcDbEntity
  8
외형선
  6
Continuous
370
    15
100
AcDbLine
 10
12.0
 20
-12.7
 30
0.0
 11
12.00000000000002
 21
-11.95506813445439
 31
0.0
  0
LINE
  5
AF
330
1F
100
AcDbEntity
  8
외형선
  6
Continuous
370
    15
100
AcDbLine
 10
12.0
 20
-0.0993192307679234
 30
0.0
 11
12.00000000000002
 21
4.285597496330412
 31
0.0
  0
LINE
  5
B0
330
1F
100
AcDbEntity
  8
외형선
  6
Continuous
370
    15
100
AcDbLine
 10
12.0
 20
12.69961163541624
 30
0.0
 11
12.0
 21
12.7
 31
0.0
  0
LINE
  5
B1
330
1F
100
AcDbEntity
  8
외형선
  6
Continuous
370
    15
100
AcDbLine
 10
-51.5
 20
-0.0000000000000029
 30
0.0
 11
-51.5
 21
10.16
 31
0.0
  0
LINE
  5
B2
330
1F
100
AcDbEntity
  8
외형선
  6
Continuous
370
    15
100
AcDbLine
 10
-51.5
 20
-10.16000000000001
 30
0.0
 11
-51.5
 21
-0.0000000000000029
 31
0.0
  0
SPLINE
  5
B3
330
1F
100
AcDbEntity
  8
외형선
  6
Continuous
370
    15
100
AcDbSpline
210
0.0
220
0.0
230
1.0
 70
    24
 71
     3
 72
    15
 73
    11
 74
     0
 42
0.000000001
 43
0.00000001
 40
0.0
 40
0.0
 40
0.0
 40
0.0
 40
0.0603767639097628
 40
0.2012982921361824
 40
0.338248261960058
 40
0.4791697901864759
 40
0.6161197600103555
 40
0.7570412882367781
 40
0.8771954076026685
 40
1.0
 40
1.0
 40
1.0
 40
1.0
 10
12.00000000000001
 20
4.401116950176443
 30
0.0
 10
12.00000000000001
 20
4.511950943154621
 30
0.0
 10
12.00000000000002
 20
4.881475443183898
 30
0.0
 10
12.0
 20
5.676471801066684
 30
0.0
 10
11.99999999999998
 20
6.756970823470819
 30
0.0
 10
12.0
 20
7.939032955518512
 30
0.0
 10
11.99999999999998
 20
9.198434709663184
 30
0.0
 10
11.99999999999994
 20
10.42702407471224
 30
0.0
 10
12.00000000000007
 20
11.61158450242035
 30
0.0
 10
12.00000000000001
 20
12.33430782537042
 30
0.0
 10
12.0
 20
12.69961163541624
 30
0.0
  0
SPLINE
  5
B4
330
1F
100
AcDbEntity
  8
0
  6
Continuous
 62
     1
370
    15
100
AcDbSpline
210
0.0
220
0.0
230
1.0
 70
     8
 71
     3
 72
    23
 73
    19
 74
     0
 42
0.000000001
 43
0.00000001
 40
0.0
 40
0.0
 40
0.0
 40
0.0
 40
0.0643785613124746
 40
0.1287574183558881
 40
0.1931365822589292
 40
0.2575160580478297
 40
0.3218954521079492
 40
0.3862745312220942
 40
0.4506533065104492
 40
0.5163182373771815
 40
0.5819831616781717
 40
0.6476480793763236
 40
0.7133129904345508
 40
0.7789778948157711
 40
0.8446427924829083
 40
0.9103076833988921
 40
0.9759725675266551
 40
1.0
 40
1.0
 40
1.0
 40
1.0
 10
12.00000000000001
 20
4.285597496330412
 30
0.0
 10
13.19166069180046
 20
3.627051210149243
 30
0.0
 10
15.57498754944316
 20
2.309955612672524
 30
0.0
 10
19.14999047258417
 20
0.2431760995305058
 30
0.0
 10
22.72501312822688
 20
-1.82190789944323
 30
0.0
 10
26.30005070582982
 20
-3.841148204138593
 30
0.0
 10
29.87508473710784
 20
-5.758578197331567
 30
0.0
 10
33.45010328912065
 20
-7.524407480822245
 30
0.0
 10
37.04890845696812
 20
-9.102320701849575
 30
0.0
 10
40.6715333179158
 20
-10.44552254701752
 30
0.0
 10
44.31795994241215
 20
-11.51116283075165
 30
0.0
 10
47.96438747784017
 20
-12.26111749465747
 30
0.0
 10
51.61081420901819
 20
-12.67526893395396
 30
0.0
 10
55.25724059197351
 20
-12.7405683965995
 30
0.0
 10
58.90366650296035
 20
-12.4615584800289
 30
0.0
 10
62.55009196611934
 20
-11.82225148331773
 30
0.0
 10
65.42579647371383
 20
-11.11732062152887
 30
0.0
 10
67.08602580114474
 20
-10.53643592548534
 30
0.0
 10
67.5307801520946
 20
-10.38082429298557
 30
0.0
  0
SPLINE
  5
B5
330
1F
100
AcDbEntity
  8
0
  6
Continuous
 62
     1
370
    15
100
AcDbSpline
210
0.0
220
0.0
230
1.0
 70
     8
 71
     3
 72
    27
 73
    23
 74
     0
 42
0.000000001
 43
0.00000001
 40
0.0
 40
0.0
 40
0.0
 40
0.0
 40
0.0022025475020779
 40
0.0550997960513987
 40
0.1079970501884498
 40
0.1608943098833918
 40
0.2137915751063821
 40
0.2666888458275711
 40
0.3195861220171053
 40
0.3724834036451263
 40
0.425380690681772
 40
0.4782779830971745
 40
0.5311752808614622
 40
0.584072583944758
 40
0.6369698923171807
 40
0.6888311199788435
 40
0.740692592391643
 40
0.792554318513602
 40
0.8444161104733291
 40
0.8962776511890168
 40
0.9481389447096171
 40
1.0
 40
1.0
 40
1.0
 40
1.0
 10
80.93404316324015
 20
-12.69305087755884
 30
0.0
 10
80.88343296885985
 20
-12.69535359065939
 30
0.0
 10
79.61734840730333
 20
-12.75295916878449
 30
0.0
 10
77.13578927862886
 20
-12.54355193300394
 30
0.0
 10
73.48936564387868
 20
-12.0411985033982
 30
0.0
 10
69.84294154056404
 20
-11.16872270510047
 30
0.0
 10
66.19651698231687
 20
-10.0007533451081
 30
0.0
 10
62.55009196920166
 20
-8.555724965057701
 30
0.0
 10
58.90366650213443
 20
-6.876896128244899
 30
0.0
 10
55.25724059219485
 20
-5.009319300448882
 30
0.0
 10
51.61081420895891
 20
-3.004458407018668
 30
0.0
 10
47.96438747785609
 20
-0.9172109980364753
 30
0.0
 10
44.31795994240782
 20
1.195182148036746
 30
0.0
 10
40.67153331791692
 20
3.274798364322592
 30
0.0
 10
37.04890845696779
 20
5.251676223859356
 30
0.0
 10
33.45010328912071
 20
7.074367655372889
 30
0.0
 10
29.87508473710788
 20
8.69872207859217
 30
0.0
 10
26.30005070582986
 20
10.09336170599843
 30
0.0
 10
22.72501312822693
 20
11.22372975137081
 30
0.0
 10
19.14999047258426
 20
12.05187200726302
 30
0.0
 10
15.57498754944323
 20
12.58643003460264
 30
0.0
 10
13.19166069180059
 20
12.66188449291316
 30
0.0
 10
12.00000000000016
 20
12.69961163541625
 30
0.0
  0
SPLINE
  5
B6
330
1F
100
AcDbEntity
  8
외형선
  6
Continuous
370
    15
100
AcDbSpline
210
0.0
220
0.0
230
1.0
 70
    24
 71
     3
 72
    15
 73
    11
 74
     0
 42
0.000000001
 43
0.00000001
 40
0.0
 40
0.0
 40
0.0
 40
0.0
 40
0.1421224301072931
 40
0.2886831039861771
 40
0.4259021310131627
 40
0.5671005191198082
 40
0.704319546146796
 40
0.8455179342534431
 40
0.9827369612804314
 40
1.0
 40
1.0
 40
1.0
 40
1.0
 10
12.00000000000004
 20
12.69961163541703
 30
0.0
 10
12.00000000000002
 20
12.27664810193779
 30
0.0
 10
12.0
 20
11.41751259724956
 30
0.0
 10
11.99999999999996
 20
10.09897318998785
 30
0.0
 10
12.0
 20
8.796882211415994
 30
0.0
 10
12.0
 20
7.566844773783952
 30
0.0
 10
11.99999999999998
 20
6.400790994877027
 30
0.0
 10
12.00000000000005
 20
5.374703594742147
 30
0.0
 10
11.99999999999998
 20
4.698686406826909
 30
0.0
 10
11.99999999999997
 20
4.431018287086301
 30
0.0
 10
11.99999999999997
 20
4.401106950176443
 30
0.0
  0
SPLINE
  5
B7
330
1F
100
AcDbEntity
  8
0
  6
Continuous
 62
     1
370
    15
100
AcDbSpline
210
0.0
220
0.0
230
1.0
 70
     8
 71
     3
 72
    30
 73
    26
 74
     0
 42
0.000000001
 43
0.00000001
 40
0.0
 40
0.0
 40
0.0
 40
0.0
 40
0.0382247896029474
 40
0.0815534981849356
 40
0.1248821517617767
 40
0.1682105933735128
 40
0.2115388305042562
 40
0.2557326767373375
 40
0.2999265185515394
 40
0.3441203559218958
 40
0.3883141888234465
 40
0.4325080172312346
 40
0.476701841120307
 40
0.5208956604657144
 40
0.5650894752425101
 40
0.6092832854257544
 40
0.6534770909905078
 40
0.6976708919118382
 40
0.7418646881648161
 40
0.7860584797245146
 40
0.8302522665660123
 40
0.874446048664392
 40
0.9186398259947396
 40
0.9628335985321465
 40
0.9999999999999999
 40
0.9999999999999999
 40
0.9999999999999999
 40
0.9999999999999999
 10
19.57109094109162
 20
12.68259799190688
 30
0.0
 10
20.62239642459655
 20
12.66449182730538
 30
0.0
 10
22.86538168969322
 20
12.625861894288
 30
0.0
 10
26.30005075665015
 20
12.15869298354187
 30
0.0
 10
29.87508472349129
 20
11.3836306994262
 30
0.0
 10
33.45010329276685
 20
10.30008590820101
 30
0.0
 10
37.04890845596911
 20
8.938384608743592
 30
0.0
 10
40.67153331818678
 20
7.3256263836692
 30
0.0
 10
44.31795994233553
 20
5.501612346257233
 30
0.0
 10
47.96438747787558
 20
3.526712031518581
 30
0.0
 10
51.61081420895317
 20
1.455134421783098
 30
0.0
 10
55.25724059219823
 20
-0.656341707251676
 30
0.0
 10
58.9036665021264
 20
-2.749822040880157
 30
0.0
 10
62.55009196923045
 20
-4.767911551300723
 30
0.0
 10
66.19651698220993
 20
-6.65528029606435
 30
0.0
 10
69.84294154096342
 20
-8.360183962727026
 30
0.0
 10
73.4893656423883
 20
-9.835875986415695
 30
0.0
 10
77.13578928419106
 20
-11.04191176205427
 30
0.0
 10
80.78221246384497
 20
-11.94517372991683
 30
0.0
 10
84.42863517894959
 20
-12.52109184957995
 30
0.0
 10
88.0750574268347
 20
-12.75315098768938
 30
0.0
 10
91.72147920578601
 20
-12.63769615823963
 30
0.0
 10
95.3679005105368
 20
-12.16778915774121
 30
0.0
 10
98.8210457412725
 20
-11.43503358228283
 30
0.0
 10
101.0587171648772
 20
-10.72104919385404
 30
0.0
 10
102.0809150092114
 20
-10.39489170038054
 30
0.0
  0
SPLINE
  5
B8
330
1F
100
AcDbEntity
  8
0
  6
Continuous
 62
     1
370
    15
100
AcDbSpline
210
0.0
220
0.0
230
1.0
 70
     8
 71
     3
 72
    30
 73
    26
 74
     0
 42
0.000000001
 43
0.00000001
 40
0.0
 40
0.0
 40
0.0
 40
0.0
 40
0.0452272093170519
 40
0.0904544236410512
 40
0.1356816429465256
 40
0.1809088672079932
 40
0.226136096399971
 40
0.2713633304969717
 40
0.3165905694735023
 40
0.3618178133040675
 40
0.407045061963167
 40
0.4522723154252968
 40
0.4974995736649472
 40
0.5427268366566055
 40
0.587954104374756
 40
0.6331813767938775
 40
0.6784086538884451
 40
0.7236359356329298
 40
0.7688632220017996
 40
0.8140905129695172
 40
0.8593178085105421
 40
0.9045451085993298
 40
0.9497724132103316
 40
0.9941138667383783
 40
1.0
 40
1.0
 40
1.0
 40
1.0
 10
113.6
 20
-12.69999999999999
 30
0.0
 10
112.3845270356217
 20
-12.55963483015494
 30
0.0
 10
109.9535809723044
 20
-12.37231065527639
 30
0.0
 10
106.3071615738297
 20
-11.65916223191956
 30
0.0
 10
102.6607416993259
 20
-10.65126545140947
 30
0.0
 10
99.01432134387896
 20
-9.344672496158934
 30
0.0
 10
95.36790051192966
 20
-7.783667858872587
 30
0.0
 10
91.72147920541272
 20
-6.008781660015459
 30
0.0
 10
88.07505742693456
 20
-4.069282915225356
 30
0.0
 10
84.42863517892283
 20
-2.018183435545082
 30
0.0
 10
80.78221246385208
 20
0.0882388149960699
 30
0.0
 10
77.13578928418933
 20
2.192244423439958
 30
0.0
 10
73.48936564238795
 20
4.236145318431793
 30
0.0
 10
69.84294154096624
 20
6.163905568467085
 30
0.0
 10
66.19651698219889
 20
7.922671207875767
 30
0.0
 10
62.55009196927141
 20
9.464226116203509
 30
0.0
 10
58.90366650197343
 20
10.74629325304007
 30
0.0
 10
55.25724059276925
 20
11.73376973417084
 30
0.0
 10
51.61081420682228
 20
12.3994060236372
 30
0.0
 10
47.96438748582815
 20
12.72560991358711
 30
0.0
 10
44.31795991265612
 20
12.70098452259567
 30
0.0
 10
40.67153342895185
 20
12.33536117928344
 30
0.0
 10
37.0489080460102
 20
11.60936366138674
 30
0.0
 10
34.48358585791209
 20
10.94368072131638
 30
0.0
 10
33.13373037095932
 20
10.45541029700699
 30
0.0
 10
32.97554181785586
 20
10.39819025183084
 30
0.0
  0
LINE
  5
B9
330
1F
100
AcDbEntity
  8
0
  6
Continuous
 62
     1
370
    15
100
AcDbLine
 10
113.6
 20
-11.50215313554798
 30
0.0
 11
113.6
 21
1.088153135548122
 31
0.0
  0
SPLINE
  5
BA
330
1F
100
AcDbEntity
  8
0
  6
Continuous
 62
     1
370
    15
100
AcDbSpline
210
0.0
220
0.0
230
1.0
 70
     8
 71
     3
 72
    24
 73
    20
 74
     0
 42
0.000000001
 43
0.00000001
 40
0.0
 40
0.0
 40
0.0
 40
0.0
 40
0.0190240290531474
 40
0.080335075724396
 40
0.14164611609212
 40
0.2029571501217101
 40
0.2642681777785672
 40
0.3255791990280922
 40
0.3868902138356961
 40
0.4482012221667935
 40
0.5095122239868033
 40
0.570823219261151
 40
0.6321342079552688
 40
0.6934451900345925
 40
0.7547561654645659
 40
0.816067134210637
 40
0.8773780962382586
 40
0.9386890515128917
 40
1.0
 40
1.0
 40
1.0
 40
1.0
 10
54.12580162390213
 20
12.66268700068316
 30
0.0
 10
54.50294798331227
 20
12.67327326674211
 30
0.0
 10
56.09556967547589
 20
12.71797717689215
 30
0.0
 10
58.90366649993092
 20
12.44269366698259
 30
0.0
 10
62.55009196981875
 20
11.83811883767574
 30
0.0
 10
66.19651698205226
 20
10.88378677650927
 30
0.0
 10
69.84294154100547
 20
9.637808281853273
 30
0.0
 10
73.4893656423775
 20
8.125784016548721
 30
0.0
 10
77.13578928419217
 20
6.391462550581827
 30
0.0
 10
80.78221246385132
 20
4.481777929727723
 30
0.0
 10
84.42863517892306
 20
2.449254926819996
 30
0.0
 10
88.07505742693456
 20
0.3495638540353851
 30
0.0
 10
91.7214792054128
 20
-1.759677238421577
 30
0.0
 10
95.36790051192978
 20
-3.820791108433561
 30
0.0
 10
99.01432134387903
 20
-5.776715736960721
 30
0.0
 10
102.6607416993259
 20
-7.575887543032449
 30
0.0
 10
106.3071615738298
 20
-9.161286932988215
 30
0.0
 10
109.9535809723045
 20
-10.51815542293268
 30
0.0
 10
112.3845270356218
 20
-11.17415391011344
 30
0.0
 10
113.6
 20
-11.50215313554798
 30
0.0
  0
SPLINE
  5
BB
330
1F
100
AcDbEntity
  8
0
  6
Continuous
 62
     1
370
    15
100
AcDbSpline
210
0.0
220
0.0
230
1.0
 70
     8
 71
     3
 72
    20
 73
    16
 74
     0
 42
0.000000001
 43
0.00000001
 40
0.0
 40
0.0
 40
0.0
 40
0.0
 40
0.0791508817276312
 40
0.1583017722177816
 40
0.2374526714258733
 40
0.316603579307311
 40
0.3957544958174974
 40
0.474905420911828
 40
0.5540563545456884
 40
0.6332072966744596
 40
0.7123582472535146
 40
0.7915092062382193
 40
0.87066017358393
 40
0.9498111492459975
 40
1.0
 40
1.0
 40
1.0
 40
1.0
 10
113.6
 20
1.088153135548123
 30
0.0
 10
112.3845270356217
 20
1.784443329674777
 30
0.0
 10
109.9535809723044
 20
3.177023795011955
 30
0.0
 10
106.3071615738298
 20
5.170797223667453
 30
0.0
 10
102.6607416993259
 20
7.024946332507787
 30
0.0
 10
99.01432134387915
 20
8.685922089309376
 30
0.0
 10
95.36790051192902
 20
10.10890818462914
 30
0.0
 10
91.72147920541533
 20
11.25471682742416
 30
0.0
 10
88.07505742692457
 20
12.09190837523409
 30
0.0
 10
84.42863517896033
 20
12.59780531302442
 30
0.0
 10
80.78221246371213
 20
12.75746074597643
 30
0.0
 10
77.13578928471166
 20
12.57052920049554
 30
0.0
 10
73.48936564043858
 20
12.02708533183719
 30
0.0
 10
70.28769588986366
 20
11.2992974958277
 30
0.0
 10
68.30150065583447
 20
10.6375917087858
 30
0.0
 10
67.53078015209475
 20
10.38082429298556
 30
0.0
  0
LINE
  5
BC
330
1F
100
AcDbEntity
  8
0
  6
Continuous
 62
     1
370
    15
100
AcDbLine
 10
113.6
 20
-12.69999999999999
 30
0.0
 11
113.6
 21
-11.50215313554798
 31
0.0
  0
SPLINE
  5
BD
330
1F
100
AcDbEntity
  8
0
  6
Continuous
 62
     1
370
    15
100
AcDbSpline
210
0.0
220
0.0
230
1.0
 70
     8
 71
     3
 72
    11
 73
     7
 74
     0
 42
0.000000001
 43
0.00000001
 40
0.0
 40
0.0
 40
0.0
 40
0.0
 40
0.3165545702337966
 40
0.6331091755122505
 40
0.9496638156570771
 40
0.9999999999999999
 40
0.9999999999999999
 40
0.9999999999999999
 40
0.9999999999999999
 10
113.6
 20
12.70000000000001
 30
0.0
 10
112.3845270360113
 20
12.56100124247966
 30
0.0
 10
109.9535809734734
 20
12.37640989240183
 30
0.0
 10
106.3071615691534
 20
11.64276528054748
 30
0.0
 10
103.6829395366001
 20
10.97346330351865
 30
0.0
 10
102.2741906127217
 20
10.46469323828375
 30
0.0
 10
102.0809150092114
 20
10.39489170038053
 30
0.0
  0
SPLINE
  5
BE
330
1F
100
AcDbEntity
  8
0
  6
Continuous
 62
     1
370
    15
100
AcDbSpline
210
0.0
220
0.0
230
1.0
 70
     8
 71
     3
 72
    17
 73
    13
 74
     0
 42
0.000000001
 43
0.00000001
 40
0.0
 40
0.0
 40
0.0
 40
0.0
 40
0.0600298152731358
 40
0.1660862703212445
 40
0.2721427359737887
 40
0.3761219114636589
 40
0.4801015776673542
 40
0.5840817525452634
 40
0.6880620594246145
 40
0.7920418625721949
 40
0.896021170105951
 40
1.0
 40
1.0
 40
1.0
 40
1.0
 10
46.38190231835215
 20
-12.6571624845943
 30
0.0
 10
45.69392161116529
 20
-12.66307062237202
 30
0.0
 10
43.79046498399193
 20
-12.67941684238918
 30
0.0
 10
40.67153332842294
 20
-12.32069195561156
 30
0.0
 10
37.04890845421402
 20
-11.62871466756578
 30
0.0
 10
33.45010328985241
 20
-10.6138685438018
 30
0.0
 10
29.87508473691179
 20
-9.330241579997853
 30
0.0
 10
26.3000507058824
 20
-7.799592505192966
 30
0.0
 10
22.72501312821287
 20
-6.063712750111538
 30
0.0
 10
19.14999047258799
 20
-4.167897376498502
 30
0.0
 10
15.57498754944231
 20
-2.162456414947016
 30
0.0
 10
13.19166069180029
 20
-0.7870305724651174
 30
0.0
 10
12.00000000000018
 20
-0.0993192307680236
 30
0.0
  0
LINE
  5
BF
330
1F
100
AcDbEntity
  8
0
  6
Continuous
 62
     1
370
    15
100
AcDbLine
 10
113.6
 20
5.380591980479166
 30
0.0
 11
113.6
 21
12.70000000000001
 31
0.0
  0
SPLINE
  5
C0
330
1F
100
AcDbEntity
  8
0
  6
Continuous
 62
     1
370
    15
100
AcDbSpline
210
0.0
220
0.0
230
1.0
 70
     8
 71
     3
 72
    13
 73
     9
 74
     0
 42
0.000000001
 43
0.00000001
 40
0.0
 40
0.0
 40
0.0
 40
0.0
 40
0.1704360564472466
 40
0.3408728958137441
 40
0.5113105475616267
 40
0.6817490249973601
 40
0.8521872860639974
 40
1.0
 40
1.0
 40
1.0
 40
1.0
 10
12.00000000000001
 20
-11.95506813445441
 30
0.0
 10
13.19166069253644
 20
-12.15680425082195
 30
0.0
 10
15.57498755165111
 20
-12.560277410257
 30
0.0
 10
19.14999046375233
 20
-12.74957433375557
 30
0.0
 10
22.72501316134651
 20
-12.62742257809383
 30
0.0
 10
26.30005058218254
 20
-12.15919254266316
 30
0.0
 10
29.71689647861654
 20
-11.43279395253775
 30
0.0
 10
31.94205814860721
 20
-10.72631618070975
 30
0.0
 10
32.97554181785585
 20
-10.39819025183085
 30
0.0
  0
SPLINE
  5
C1
330
1F
100
AcDbEntity
  8
0
  6
Continuous
 62
     1
370
    15
100
AcDbSpline
210
0.0
220
0.0
230
1.0
 70
     8
 71
     3
 72
    14
 73
    10
 74
     0
 42
0.000000001
 43
0.00000001
 40
0.0
 40
0.0
 40
0.0
 40
0.0
 40
0.1221531707583622
 40
0.2684610155755304
 40
0.414768844525197
 40
0.5610766575249093
 40
0.7073844544922269
 40
0.853692235344729
 40
1.0
 40
1.0
 40
1.0
 40
1.0
 10
88.67706338841317
 20
12.67598007267469
 30
0.0
 10
89.69186870432182
 20
12.66222394543277
 30
0.0
 10
91.92214782052415
 20
12.63199154240282
 30
0.0
 10
95.36790051056289
 20
12.1667106900759
 30
0.0
 10
99.01432134424527
 20
11.37694276131122
 30
0.0
 10
102.6607416992279
 20
10.2662690477612
 30
0.0
 10
106.307161573856
 20
8.873899833580465
 30
0.0
 10
109.9535809722979
 20
7.248140120028283
 30
0.0
 10
112.3845270356196
 20
6.005566815490971
 30
0.0
 10
113.6
 20
5.384280197612571
 30
0.0
  0
SPLINE
  5
C2
330
1F
100
AcDbEntity
  8
외형선
  6
Continuous
370
    15
100
AcDbSpline
210
0.0
220
0.0
230
1.0
 70
    24
 71
     3
 72
    21
 73
    17
 74
     0
 42
0.000000001
 43
0.00000001
 40
0.0
 40
0.0
 40
0.0
 40
0.0
 40
0.0233683489421957
 40
0.0988553217124031
 40
0.1743422944826106
 40
0.249829267252819
 40
0.3253162400230274
 40
0.400803212793236
 40
0.4762901855634445
 40
0.5517771583336526
 40
0.6272641311038606
 40
0.7027511038740694
 40
0.7782380766442784
 40
0.8537250494144861
 40
0.9292120221846938
 40
1.0
 40
1.0
 40
1.0
 40
1.0
 10
11.99999999999998
 20
0.24427688169185
 30
0.0
 10
11.99999999999998
 20
0.2534099170069705
 30
0.0
 10
11.99999999999994
 20
0.2920454725834584
 30
0.0
 10
11.99999999999998
 20
0.1323175161829408
 30
0.0
 10
12.00000000000001
 20
-0.2217549802981672
 30
0.0
 10
12.0
 20
-0.7988102895790132
 30
0.0
 10
12.00000000000004
 20
-1.553599353380366
 30
0.0
 10
11.99999999999998
 20
-2.477507520522777
 30
0.0
 10
11.99999999999994
 20
-3.536575166677388
 30
0.0
 10
12.00000000000001
 20
-4.706203663656
 30
0.0
 10
12.00000000000002
 20
-5.949364855464799
 30
0.0
 10
12.00000000000001
 20
-7.232948606201094
 30
0.0
 10
11.99999999999997
 20
-8.52042288529551
 30
0.0
 10
12.0
 20
-9.771639751671868
 30
0.0
 10
12.0
 20
-10.93958091766816
 30
0.0
 10
12.00000000000001
 20
-11.62390017729476
 30
0.0
 10
12.00000000000002
 20
-11.95506813445441
 30
0.0
  0
LINE
  5
C3
330
1F
100
AcDbEntity
  8
0
  6
Continuous
 62
     1
370
    15
100
AcDbLine
 10
113.6
 20
1.088153135548123
 30
0.0
 11
113.6
 21
5.384280197612569
 31
0.0
  0
LINE
  5
C4
330
1F
100
AcDbEntity
  8
중심선
100
AcDbLine
 10
-54.50000000000001
 20
-0.0000000000000068
 30
0.0
 11
116.6
 21
0.0000000000000146
 31
0.0
  0
LINE
  5
C5
330
1F
100
AcDbEntity
  8
참조1
100
AcDbLine
 10
46.70560364977729
 20
0.0010749287238892
 30
0.0
 11
46.7056036497773
 21
-39.99892507127611
 31
0.0
  0
LINE
  5
C6
330
1F
100
AcDbEntity
  8
참조1
100
AcDbLine
 10
46.7056036497773
 20
-39.99892507127611
 30
0.0
 11
-21.63450316453139
 21
-39.9989250712761
 31
0.0
  0
CIRCLE
  5
C7
330
1F
100
AcDbEntity
  8
해칭선
100
AcDbCircle
 10
0.0
 20
0.0
 30
0.0
 40
3.000000000000001
  0
INSERT
  5
C8
330
1F
100
AcDbEntity
  8
0
  6
Continuous
 62
     7
100
AcDbBlockReference
 66
     1
  2
블럭10
 10
17.10972706787479
 20
-52.04717430164393
 30
0.0
  0
ATTRIB
  5
C9
330
C8
100
AcDbEntity
  8
FORMAT
 62
     2
100
AcDbText
 10
7.928431779133515
 20
-49.97180738881174
 30
0.0
 40
4.233333333333333
  1
E1034064 [ 4 FLUTE ]
 41
0.75
  7
SLDTEXTSTYLE0
 11
7.928431779133515
 21
-52.08847405547841
 31
0.0
100
AcDbAttribute
  2
AUTOATTR0
 70
     0
 74
     1
  0
SEQEND
  5
CA
330
C8
100
AcDbEntity
  8
0
  6
Continuous
 62
     7
  0
HATCH
  5
CB
330
1F
100
AcDbEntity
  8
중심선
100
AcDbHatch
 10
0.0
 20
0.0
 30
0.0
210
0.0
220
0.0
230
1.0
  2
SOLID
 70
     1
 71
     0
 91
        1
 92
        0
 93
        4
 72
     1
 10
22.82463637225561
 20
-35.8
 11
19.37836112841833
 21
-35.8
 72
     1
 10
19.37836112841833
 20
-35.8
 11
17.25013126921434
 21
-38.3363255805726
 72
     1
 10
17.25013126921434
 20
-38.3363255805726
 11
20.69643959816468
 21
-38.33628615127011
 72
     1
 10
20.69643959816468
 20
-38.33628615127011
 11
22.82463637225561
 21
-35.8
 97
        0
 75
     0
 76
     1
 98
        1
 10
-15.65560364977729
 20
-0.0010749287238961
  0
HATCH
  5
CC
330
1F
100
AcDbEntity
  8
중심선
100
AcDbHatch
 10
0.0
 20
0.0
 30
0.0
210
0.0
220
0.0
230
1.0
  2
SOLID
 70
     1
 71
     0
 91
        1
 92
        0
 93
        4
 72
     1
 10
27.83740036329162
 20
-35.79999999999998
 11
24.39112511945428
 21
-35.8
 72
     1
 10
24.39112511945428
 20
-35.8
 11
19.85998711109692
 21
-41.20000000000002
 72
     1
 10
19.85998711109692
 20
-41.20000000000002
 11
23.3062623549342
 21
-41.20000000000002
 72
     1
 10
23.3062623549342
 20
-41.20000000000002
 11
27.83740036329162
 21
-35.79999999999998
 97
        0
 75
     0
 76
     1
 98
        1
 10
-15.65560364977729
 20
-0.0010749287238961
  0
HATCH
  5
CD
330
1F
100
AcDbEntity
  8
중심선
100
AcDbHatch
 10
0.0
 20
0.0
 30
0.0
210
0.0
220
0.0
230
1.0
  2
SOLID
 70
     1
 71
     0
 91
        1
 92
        0
 93
        4
 72
     1
 10
32.85016435432751
 20
-35.79999999999998
 11
29.40388911049034
 21
-35.79999999999998
 72
     1
 10
29.40388911049034
 20
-35.79999999999998
 11
22.35545220860112
 21
-44.20000000000002
 72
     1
 10
22.35545220860112
 20
-44.20000000000002
 11
25.80172745243841
 21
-44.20000000000002
 72
     1
 10
25.80172745243841
 20
-44.20000000000002
 11
32.85016435432751
 21
-35.79999999999998
 97
        0
 75
     0
 76
     1
 98
        1
 10
-15.65560364977729
 20
-0.0010749287238961
  0
HATCH
  5
CE
330
1F
100
AcDbEntity
  8
중심선
100
AcDbHatch
 10
0.0
 20
0.0
 30
0.0
210
0.0
220
0.0
230
1.0
  2
SOLID
 70
     1
 71
     0
 91
        1
 92
        0
 93
        6
 72
     3
 10
37.65005478533966
 20
-40.00000000005127
 11
3.960054785062283
 21
1.540882976769353E-10
 40
0.3939339440162628
 50
17.0953918060842
 51
320.0019657685086
 73
     0
 72
     1
 10
39.33305444104028
 20
-38.5878940046383
 11
41.63835631474132
 21
-36.65356729459038
 72
     3
 10
37.65005478528681
 20
-40.00000000000015
 11
6.600054785286829
 21
-1.278976924368180E-13
 40
0.636358354079598
 50
39.99873849337392
 51
368.4976242363724
 73
     1
 72
     1
 10
44.07538727718745
 20
-39.03999999993002
 11
36.33012209212271
 21
-39.03999999993002
 72
     1
 10
36.33012209212271
 20
-39.03999999993002
 11
36.3300970476768
 21
-40.95999999992991
 72
     1
 10
36.3300970476768
 20
-40.95999999992991
 11
40.77147681714887
 21
-40.95999999992988
 97
        0
 75
     0
 76
     1
 98
        1
 10
-15.65560364977729
 20
-0.0010749287238961
  0
DIMENSION
  5
CF
330
1F
100
AcDbEntity
  8
치수문자_일반주서
100
AcDbDimension
  2
_D
 10
12.00000000000004
 20
25.83413479835823
 30
0.0
 11
62.8
 21
25.83413479835823
 31
0.0
 70
   160
  1
<>
 71
     2
 42
101.5999999999999
  3
SLDDIMSTYLE1
100
AcDbAlignedDimension
 13
113.6
 23
12.70000000000001
 33
0.0
 14
12.00000000000004
 24
12.69961163541703
 34
0.0
 50
-0.0000000000000902
100
AcDbRotatedDimension
1001
ACAD
1000
DSTYLE
1002
{
1070
   171
1070
     6
1070
   273
1070
     7
1002
}
  0
DIMENSION
  5
E4
330
1F
100
AcDbEntity
  8
치수문자_일반주서
100
AcDbDimension
  2
_D_1
 10
-51.50000000000001
 20
41.55533999616129
 30
0.0
 11
31.05
 21
41.55533999616129
 31
0.0
 70
   160
  1
<>
 71
     2
 42
165.1
  3
SLDDIMSTYLE1
100
AcDbAlignedDimension
 13
113.6
 23
12.70000000000001
 33
0.0
 14
-51.5
 24
10.16
 34
0.0
100
AcDbRotatedDimension
1001
ACAD
1000
DSTYLE
1002
{
1070
   171
1070
     6
1070
   273
1070
     7
1002
}
  0
DIMENSION
  5
F7
330
1F
100
AcDbEntity
  8
치수문자_일반주서
100
AcDbDimension
  2
_D_2
 10
-61.21327283782717
 20
-12.70000000000004
 30
0.0
 11
-61.21327283782721
 21
-0.0000000000000123
 31
0.0
 70
   160
  1
%%c<>
 71
     2
 42
25.39999999999998
 52
-270.0
  3
SLDDIMSTYLE1
100
AcDbAlignedDimension
 13
-48.96000000000002
 23
12.69999999999999
 33
0.0
 14
-48.96000000000002
 24
-12.69999999999999
 34
0.0
 50
90.0000000000002
100
AcDbRotatedDimension
1001
ACAD
1000
DSTYLE
1002
{
1070
   171
1070
     6
1070
   273
1070
     7
1002
}
  0
DIMENSION
  5
10C
330
1F
100
AcDbEntity
  8
치수문자_일반주서
100
AcDbDimension
  2
_D_3
 10
135.1820679431206
 20
-12.6999999999999
 30
0.0
 11
135.1820679431204
 21
35.91572056460272
 31
0.0
 70
   160
  1
%%c<>
 71
     2
 42
25.4
 52
-270.0
  3
SLDDIMSTYLE1
100
AcDbAlignedDimension
 13
113.6
 23
12.70000000000001
 33
0.0
 14
113.6
 24
-12.69999999999999
 34
0.0
 50
90.0000000000002
100
AcDbRotatedDimension
1001
ACAD
1000
DSTYLE
1002
{
1070
   171
1070
     6
1070
   273
1070
     7
1002
}
  0
LINE
  5
11F
330
1F
100
AcDbEntity
  8
참조1
100
AcDbLine
 10
76.33783746512287
 20
7.441074928723896
 30
0.0
 11
76.33783746512287
 21
-7.438925071276109
 31
0.0
  0
LINE
  5
120
330
1F
100
AcDbEntity
  8
참조1
100
AcDbLine
 10
89.03783746512288
 20
5.441074928723896
 30
0.0
 11
76.33783746512287
 21
5.441074928723896
 31
0.0
  0
SOLID
  5
121
330
1F
100
AcDbEntity
  8
참조1
100
AcDbTrace
 10
76.33783746512287
 20
5.441074928723896
 30
0.0
 11
82.68783746512287
 21
4.425074928723896
 31
0.0
 12
82.68783746512287
 22
6.457074928723896
 32
0.0
 13
82.68783746512287
 23
6.457074928723896
 33
0.0
  0
LINE
  5
122
330
1F
100
AcDbEntity
  8
참조1
100
AcDbLine
 10
89.03783746512288
 20
-5.438925071276109
 30
0.0
 11
76.33783746512287
 21
-5.438925071276109
 31
0.0
  0
SOLID
  5
123
330
1F
100
AcDbEntity
  8
참조1
100
AcDbTrace
 10
76.33783746512287
 20
-5.438925071276109
 30
0.0
 11
82.68783746512287
 21
-6.454925071276109
 31
0.0
 12
82.68783746512287
 22
-4.422925071276109
 32
0.0
 13
82.68783746512287
 23
-4.422925071276109
 33
0.0
  0
MTEXT
  5
124
330
1F
100
AcDbEntity
  8
참조1
100
AcDbMText
 10
85.72218759774887
 20
11.01136670591222
 30
0.0
 40
3.5
 41
0.0
 71
     1
 72
     1
  1
A
  7
SLDTEXTSTYLE0
 73
     1
 44
1.0
  0
MTEXT
  5
125
330
1F
100
AcDbEntity
  8
참조1
100
AcDbMText
 10
85.72218759774887
 20
0.1313667059122201
 30
0.0
 40
3.5
 41
0.0
 71
     1
 72
     1
  1
A
  7
SLDTEXTSTYLE0
 73
     1
 44
1.0
  0
INSERT
  5
12C
330
1F
100
AcDbEntity
  8
해칭선
100
AcDbBlockReference
  2
SW_DOWELSYMBOL_0
 10
0.0
 20
0.0
 30
0.0
  0
LINE
  5
2CF
330
1F
100
AcDbEntity
  8
외형선
  6
Continuous
370
    15
100
AcDbLine
 10
-29.08132499999991
 20
10.795
 30
0.0
 11
-15.97492500000001
 21
10.795
 31
0.0
  0
LINE
  5
2D0
330
1F
100
AcDbEntity
  8
외형선
  6
Continuous
370
    15
100
AcDbLine
 10
-29.08132499999991
 20
10.79500000000001
 30
0.0
 11
-30.98632499999988
 21
12.7
 31
0.0
  0
LINE
  5
2D1
330
1F
100
AcDbEntity
  8
외형선
  6
Continuous
370
    15
100
AcDbLine
 10
-15.97492500000001
 20
10.79500000000001
 30
0.0
 11
-14.06992499999998
 21
12.7
 31
0.0
  0
LINE
  5
2D3
330
1F
100
AcDbEntity
  8
외형선
  6
Continuous
370
    15
100
AcDbLine
 10
-50.865
 20
10.795
 30
0.0
 11
-38.79999999999998
 21
10.795
 31
0.0
  0
LINE
  5
2D4
330
1F
100
AcDbEntity
  8
외형선
  6
Continuous
370
    15
100
AcDbLine
 10
-38.79999999999998
 20
10.79500000000001
 30
0.0
 11
-36.89500000000001
 21
12.69999999999999
 31
0.0
  0
LINE
  5
2D5
330
1F
100
AcDbEntity
  8
외형선
  6
Continuous
370
    15
100
AcDbLine
 10
-30.98632499999987
 20
12.7
 30
0.0
 11
-36.89500000000001
 21
12.7
 31
0.0
  0
ENDSEC
  0
SECTION
  2
OBJECTS
  0
DICTIONARY
  5
C
330
0
100
AcDbDictionary
281
     1
  3
ACAD_GROUP
350
D
  3
ACAD_IMAGE_VARS
350
150
  3
ACAD_LAYOUT
350
1A
  3
ACAD_MLINESTYLE
350
17
  3
ACAD_PLOTSETTINGS
350
19
  3
ACAD_PLOTSTYLENAME
350
E
  3
ACAD_SCALELIST
350
47
  3
APPDATA
350
14E
  3
DWGPROPS
350
2F9
  0
DICTIONARY
  5
1ED
330
2
100
AcDbDictionary
280
     1
281
     1
  3
ACAD_LAYERSTATES
360
1EE
  0
DICTIONARY
  5
D
102
{ACAD_REACTORS
330
C
102
}
330
C
100
AcDbDictionary
281
     1
  0
RASTERVARIABLES
  5
150
102
{ACAD_REACTORS
330
C
102
}
330
C
100
AcDbRasterVariables
 90
        0
 70
     1
 71
     1
 72
     1
  0
DICTIONARY
  5
1A
102
{ACAD_REACTORS
330
C
102
}
330
C
100
AcDbDictionary
281
     1
  3
Layout1
350
1E
  3
Layout2
350
26
  3
Model
350
22
  0
DICTIONARY
  5
17
102
{ACAD_REACTORS
330
C
102
}
330
C
100
AcDbDictionary
281
     1
  3
Standard
350
18
  0
DICTIONARY
  5
19
102
{ACAD_REACTORS
330
C
102
}
330
C
100
AcDbDictionary
281
     1
  0
ACDBDICTIONARYWDFLT
  5
E
102
{ACAD_REACTORS
330
C
102
}
330
C
100
AcDbDictionary
281
     1
  3
Normal
350
F
100
AcDbDictionaryWithDefault
340
F
  0
DICTIONARY
  5
47
102
{ACAD_REACTORS
330
C
102
}
330
C
100
AcDbDictionary
281
     1
  3
A0
350
48
  3
A1
350
49
  3
A2
350
4A
  3
A3
350
4B
  3
A4
350
4C
  3
A5
350
4D
  3
A6
350
4E
  3
A7
350
4F
  3
A8
350
50
  3
A9
350
51
  3
B0
350
52
  3
B1
350
53
  3
B2
350
54
  3
B3
350
55
  3
B4
350
56
  3
B5
350
57
  3
B6
350
58
  3
B7
350
59
  3
B8
350
5A
  3
B9
350
5B
  3
C0
350
5C
  3
C1
350
5D
  3
C2
350
5E
  3
C3
350
5F
  3
C4
350
60
  3
C5
350
61
  3
C6
350
62
  3
C7
350
63
  3
C8
350
64
  3
C9
350
65
  3
D0
350
66
  3
D1
350
67
  3
D2
350
68
  0
DICTIONARY
  5
14E
102
{ACAD_REACTORS
330
C
102
}
330
C
100
AcDbDictionary
281
     1
  0
XRECORD
  5
2F9
102
{ACAD_REACTORS
330
C
102
}
330
C
100
AcDbXrecord
280
     1
  1
DWGPROPS COOKIE
  2

  3

  4

  6

  7

  8
12016016
  9

300
=
301
=
302
=
303
=
304
=
305
=
306
=
307
=
308
=
309
=
 40
0.0
 41
2458312.300045718
 42
2458323.374084329
  1

 90
        0
  0
DICTIONARY
  5
1EE
102
{ACAD_REACTORS
330
1ED
102
}
330
1ED
100
AcDbDictionary
281
     1
  0
LAYOUT
  5
1E
102
{ACAD_REACTORS
330
1A
102
}
330
1A
100
AcDbPlotSettings
  1

  2
none_device
  4

  6

 40
0.0
 41
0.0
 42
0.0
 43
0.0
 44
0.0
 45
0.0
 46
0.0
 47
0.0
 48
0.0
 49
0.0
140
0.0
141
0.0
142
1.0
143
1.0
 70
   688
 72
     1
 73
     0
 74
     5
  7

 75
    16
147
1.0
148
0.0
149
0.0
100
AcDbLayout
  1
Layout1
 70
     1
 71
     1
 10
0.0
 20
0.0
 11
420.0
 21
297.0
 12
0.0
 22
0.0
 32
0.0
 14
1.000000000000000E+20
 24
1.000000000000000E+20
 34
1.000000000000000E+20
 15
-1.000000000000000E+20
 25
-1.000000000000000E+20
 35
-1.000000000000000E+20
146
0.0
 13
0.0
 23
0.0
 33
0.0
 16
1.0
 26
0.0
 36
0.0
 17
0.0
 27
1.0
 37
0.0
 76
     0
330
1B
  0
LAYOUT
  5
26
102
{ACAD_REACTORS
330
1A
102
}
330
1A
100
AcDbPlotSettings
  1

  2
none_device
  4

  6

 40
0.0
 41
0.0
 42
0.0
 43
0.0
 44
0.0
 45
0.0
 46
0.0
 47
0.0
 48
0.0
 49
0.0
140
0.0
141
0.0
142
1.0
143
1.0
 70
   688
 72
     1
 73
     0
 74
     5
  7

 75
    16
147
1.0
148
0.0
149
0.0
100
AcDbLayout
  1
Layout2
 70
     1
 71
     2
 10
0.0
 20
0.0
 11
0.0
 21
0.0
 12
0.0
 22
0.0
 32
0.0
 14
0.0
 24
0.0
 34
0.0
 15
0.0
 25
0.0
 35
0.0
146
0.0
 13
0.0
 23
0.0
 33
0.0
 16
1.0
 26
0.0
 36
0.0
 17
0.0
 27
1.0
 37
0.0
 76
     0
330
23
  0
LAYOUT
  5
22
102
{ACAD_REACTORS
330
1A
102
}
330
1A
100
AcDbPlotSettings
  1

  2
none_device
  4
ANSI_A_(11.00_x_8.50_Inches)
  6

 40
6.35
 41
19.05
 42
6.35000508
 43
19.05000254
 44
279.4
 45
215.9
 46
37.67830505602761
 47
65.17417799683679
 48
0.0
 49
0.0
140
0.0
141
0.0
142
0.0297849428252809
143
1.0
 70
  1696
 72
     0
 73
     0
 74
     0
  7

 75
     0
147
0.0235690232323232
148
0.0
149
0.0
100
AcDbLayout
  1
Model
 70
     1
 71
     0
 10
0.0
 20
0.0
 11
420.0
 21
297.0
 12
0.0
 22
0.0
 32
0.0
 14
-65.58827283782725
 24
-49.97180738881174
 34
0.0
 15
135.7324012764539
 25
47.07197056460272
 35
0.0
146
0.0
 13
0.0
 23
0.0
 33
0.0
 16
1.0
 26
0.0
 36
0.0
 17
0.0
 27
1.0
 37
0.0
 76
     0
330
1F
331
29
  0
MLINESTYLE
  5
18
102
{ACAD_REACTORS
330
17
102
}
330
17
100
AcDbMlineStyle
  2
Standard
 70
     0
  3

 62
   256
 51
90.0
 52
90.0
 71
     2
 49
0.5
 62
   256
  6
BYLAYER
 49
-0.5
 62
   256
  6
BYLAYER
  0
ACDBPLACEHOLDER
  5
F
102
{ACAD_REACTORS
330
E
102
}
330
E
  0
SCALE
  5
48
102
{ACAD_REACTORS
330
47
102
}
330
47
100
AcDbScale
 70
     0
300
1:1
140
1.0
141
1.0
290
     1
  0
SCALE
  5
49
102
{ACAD_REACTORS
330
47
102
}
330
47
100
AcDbScale
 70
     0
300
1:2
140
1.0
141
2.0
290
     0
  0
SCALE
  5
4A
102
{ACAD_REACTORS
330
47
102
}
330
47
100
AcDbScale
 70
     0
300
1:4
140
1.0
141
4.0
290
     0
  0
SCALE
  5
4B
102
{ACAD_REACTORS
330
47
102
}
330
47
100
AcDbScale
 70
     0
300
1:5
140
1.0
141
5.0
290
     0
  0
SCALE
  5
4C
102
{ACAD_REACTORS
330
47
102
}
330
47
100
AcDbScale
 70
     0
300
1:8
140
1.0
141
8.0
290
     0
  0
SCALE
  5
4D
102
{ACAD_REACTORS
330
47
102
}
330
47
100
AcDbScale
 70
     0
300
1:10
140
1.0
141
10.0
290
     0
  0
SCALE
  5
4E
102
{ACAD_REACTORS
330
47
102
}
330
47
100
AcDbScale
 70
     0
300
1:16
140
1.0
141
16.0
290
     0
  0
SCALE
  5
4F
102
{ACAD_REACTORS
330
47
102
}
330
47
100
AcDbScale
 70
     0
300
1:20
140
1.0
141
20.0
290
     0
  0
SCALE
  5
50
102
{ACAD_REACTORS
330
47
102
}
330
47
100
AcDbScale
 70
     0
300
1:30
140
1.0
141
30.0
290
     0
  0
SCALE
  5
51
102
{ACAD_REACTORS
330
47
102
}
330
47
100
AcDbScale
 70
     0
300
1:40
140
1.0
141
40.0
290
     0
  0
SCALE
  5
52
102
{ACAD_REACTORS
330
47
102
}
330
47
100
AcDbScale
 70
     0
300
1:50
140
1.0
141
50.0
290
     0
  0
SCALE
  5
53
102
{ACAD_REACTORS
330
47
102
}
330
47
100
AcDbScale
 70
     0
300
1:100
140
1.0
141
100.0
290
     0
  0
SCALE
  5
54
102
{ACAD_REACTORS
330
47
102
}
330
47
100
AcDbScale
 70
     0
300
2:1
140
2.0
141
1.0
290
     0
  0
SCALE
  5
55
102
{ACAD_REACTORS
330
47
102
}
330
47
100
AcDbScale
 70
     0
300
4:1
140
4.0
141
1.0
290
     0
  0
SCALE
  5
56
102
{ACAD_REACTORS
330
47
102
}
330
47
100
AcDbScale
 70
     0
300
8:1
140
8.0
141
1.0
290
     0
  0
SCALE
  5
57
102
{ACAD_REACTORS
330
47
102
}
330
47
100
AcDbScale
 70
     0
300
10:1
140
10.0
141
1.0
290
     0
  0
SCALE
  5
58
102
{ACAD_REACTORS
330
47
102
}
330
47
100
AcDbScale
 70
     0
300
100:1
140
100.0
141
1.0
290
     0
  0
SCALE
  5
59
102
{ACAD_REACTORS
330
47
102
}
330
47
100
AcDbScale
 70
     0
300
1/128" = 1'-0"
140
0.0078125
141
12.0
290
     0
  0
SCALE
  5
5A
102
{ACAD_REACTORS
330
47
102
}
330
47
100
AcDbScale
 70
     0
300
1/64" = 1'-0"
140
0.015625
141
12.0
290
     0
  0
SCALE
  5
5B
102
{ACAD_REACTORS
330
47
102
}
330
47
100
AcDbScale
 70
     0
300
1/32" = 1'-0"
140
0.03125
141
12.0
290
     0
  0
SCALE
  5
5C
102
{ACAD_REACTORS
330
47
102
}
330
47
100
AcDbScale
 70
     0
300
1/16" = 1'-0"
140
0.0625
141
12.0
290
     0
  0
SCALE
  5
5D
102
{ACAD_REACTORS
330
47
102
}
330
47
100
AcDbScale
 70
     0
300
3/32" = 1'-0"
140
0.09375
141
12.0
290
     0
  0
SCALE
  5
5E
102
{ACAD_REACTORS
330
47
102
}
330
47
100
AcDbScale
 70
     0
300
1/8" = 1'-0"
140
0.125
141
12.0
290
     0
  0
SCALE
  5
5F
102
{ACAD_REACTORS
330
47
102
}
330
47
100
AcDbScale
 70
     0
300
3/16" = 1'-0"
140
0.1875
141
12.0
290
     0
  0
SCALE
  5
60
102
{ACAD_REACTORS
330
47
102
}
330
47
100
AcDbScale
 70
     0
300
1/4" = 1'-0"
140
0.25
141
12.0
290
     0
  0
SCALE
  5
61
102
{ACAD_REACTORS
330
47
102
}
330
47
100
AcDbScale
 70
     0
300
3/8" = 1'-0"
140
0.375
141
12.0
290
     0
  0
SCALE
  5
62
102
{ACAD_REACTORS
330
47
102
}
330
47
100
AcDbScale
 70
     0
300
1/2" = 1'-0"
140
0.5
141
12.0
290
     0
  0
SCALE
  5
63
102
{ACAD_REACTORS
330
47
102
}
330
47
100
AcDbScale
 70
     0
300
3/4" = 1'-0"
140
0.75
141
12.0
290
     0
  0
SCALE
  5
64
102
{ACAD_REACTORS
330
47
102
}
330
47
100
AcDbScale
 70
     0
300
1" = 1'-0"
140
1.0
141
12.0
290
     0
  0
SCALE
  5
65
102
{ACAD_REACTORS
330
47
102
}
330
47
100
AcDbScale
 70
     0
300
1-1/2" = 1'-0"
140
1.5
141
12.0
290
     0
  0
SCALE
  5
66
102
{ACAD_REACTORS
330
47
102
}
330
47
100
AcDbScale
 70
     0
300
3" = 1'-0"
140
3.0
141
12.0
290
     0
  0
SCALE
  5
67
102
{ACAD_REACTORS
330
47
102
}
330
47
100
AcDbScale
 70
     0
300
6" = 1'-0"
140
6.0
141
12.0
290
     0
  0
SCALE
  5
68
102
{ACAD_REACTORS
330
47
102
}
330
47
100
AcDbScale
 70
     0
300
1'-0" = 1'-0"
140
12.0
141
12.0
290
     0
  0
ENDSEC
  0
EOF
