  0
SECTION
  2
HEADER
  9
$ACADVER
  1
AC1015
  9
$ACADMAINTVER
 70
     6
  9
$DWGCODEPAGE
  3
ANSI_949
  9
$INSBASE
 10
0.0
 20
0.0
 30
0.0
  9
$EXTMIN
 10
-50.56766918804995
 20
-49.97073246008785
 30
0.0
  9
$EXTMAX
 10
116.3272964109059
 20
42.76809069678276
 30
0.0
  9
$LIMMIN
 10
0.0
 20
0.0
  9
$LIMMAX
 10
420.0
 20
297.0
  9
$ORTHOMODE
 70
     1
  9
$REGENMODE
 70
     1
  9
$FILLMODE
 70
     1
  9
$QTEXTMODE
 70
     0
  9
$MIRRTEXT
 70
     1
  9
$LTSCALE
 40
1.0
  9
$ATTMODE
 70
     1
  9
$TEXTSIZE
 40
3.5
  9
$TRACEWID
 40
1.0
  9
$TEXTSTYLE
  7
Standard
  9
$CLAYER
  8
0
  9
$CELTYPE
  6
ByLayer
  9
$CECOLOR
 62
   256
  9
$CELTSCALE
 40
1.0
  9
$DISPSILH
 70
     0
  9
$DIMSCALE
 40
1.0
  9
$DIMASZ
 40
3.302
  9
$DIMEXO
 40
1.0
  9
$DIMDLI
 40
3.75
  9
$DIMRND
 40
0.0
  9
$DIMDLE
 40
0.0
  9
$DIMEXE
 40
1.0
  9
$DIMTP
 40
0.0
  9
$DIMTM
 40
0.0
  9
$DIMTXT
 40
3.5
  9
$DIMCEN
 40
2.5
  9
$DIMTSZ
 40
0.0
  9
$DIMTOL
 70
     0
  9
$DIMLIM
 70
     0
  9
$DIMTIH
 70
     1
  9
$DIMTOH
 70
     1
  9
$DIMSE1
 70
     0
  9
$DIMSE2
 70
     0
  9
$DIMTAD
 70
     1
  9
$DIMZIN
 70
     0
  9
$DIMBLK
  1

  9
$DIMASO
 70
     1
  9
$DIMSHO
 70
     1
  9
$DIMPOST
  1

  9
$DIMAPOST
  1

  9
$DIMALT
 70
     0
  9
$DIMALTD
 70
     3
  9
$DIMALTF
 40
0.0393700787401575
  9
$DIMLFAC
 40
1.0
  9
$DIMTOFL
 70
     1
  9
$DIMTVP
 40
0.0
  9
$DIMTIX
 70
     0
  9
$DIMSOXD
 70
     0
  9
$DIMSAH
 70
     0
  9
$DIMBLK1
  1

  9
$DIMBLK2
  1

  9
$DIMSTYLE
  2
ISO-25
  9
$DIMCLRD
 70
     0
  9
$DIMCLRE
 70
     0
  9
$DIMCLRT
 70
     0
  9
$DIMTFAC
 40
1.0
  9
$DIMGAP
 40
1.524
  9
$DIMJUST
 70
     0
  9
$DIMSD1
 70
     0
  9
$DIMSD2
 70
     0
  9
$DIMTOLJ
 70
     0
  9
$DIMTZIN
 70
     0
  9
$DIMALTZ
 70
     0
  9
$DIMALTTZ
 70
     0
  9
$DIMUPT
 70
     0
  9
$DIMDEC
 70
     2
  9
$DIMTDEC
 70
     2
  9
$DIMALTU
 70
     2
  9
$DIMALTTD
 70
     3
  9
$DIMTXSTY
  7
Standard
  9
$DIMAUNIT
 70
     0
  9
$DIMADEC
 70
     2
  9
$DIMALTRND
 40
0.0
  9
$DIMAZIN
 70
     0
  9
$DIMDSEP
 70
    44
  9
$DIMATFIT
 70
     3
  9
$DIMFRAC
 70
     0
  9
$DIMLDRBLK
  1

  9
$DIMLUNIT
 70
     2
  9
$DIMLWD
 70
    -2
  9
$DIMLWE
 70
    -2
  9
$DIMTMOVE
 70
     0
  9
$LUNITS
 70
     2
  9
$LUPREC
 70
     2
  9
$SKETCHINC
 40
1.0
  9
$FILLETRAD
 40
10.0
  9
$AUNITS
 70
     0
  9
$AUPREC
 70
     2
  9
$MENU
  1
.
  9
$ELEVATION
 40
0.0
  9
$PELEVATION
 40
0.0
  9
$THICKNESS
 40
0.0
  9
$LIMCHECK
 70
     0
  9
$CHAMFERA
 40
0.0
  9
$CHAMFERB
 40
0.0
  9
$CHAMFERC
 40
0.0
  9
$CHAMFERD
 40
0.0
  9
$SKPOLY
 70
     0
  9
$TDCREATE
 40
2458312.674621227
  9
$TDUCREATE
 40
2458312.299621227
  9
$TDUPDATE
 40
2458323.749167338
  9
$TDUUPDATE
 40
2458323.374167338
  9
$TDINDWG
 40
0.0010303819
  9
$TDUSRTIMER
 40
2458323.37413331
  9
$USRTIMER
 70
     1
  9
$ANGBASE
 50
0.0
  9
$ANGDIR
 70
     0
  9
$PDMODE
 70
     0
  9
$PDSIZE
 40
-1.0
  9
$PLINEWID
 40
0.0
  9
$SPLFRAME
 70
     0
  9
$SPLINETYPE
 70
     6
  9
$SPLINESEGS
 70
     8
  9
$HANDSEED
  5
2C1
  9
$SURFTAB1
 70
     6
  9
$SURFTAB2
 70
     6
  9
$SURFTYPE
 70
     6
  9
$SURFU
 70
     6
  9
$SURFV
 70
     6
  9
$UCSBASE
  2

  9
$UCSNAME
  2

  9
$UCSORG
 10
0.0
 20
0.0
 30
0.0
  9
$UCSXDIR
 10
1.0
 20
0.0
 30
0.0
  9
$UCSYDIR
 10
0.0
 20
1.0
 30
0.0
  9
$UCSORTHOREF
  2

  9
$UCSORTHOVIEW
 70
     0
  9
$UCSORGTOP
 10
0.0
 20
0.0
 30
0.0
  9
$UCSORGBOTTOM
 10
0.0
 20
0.0
 30
0.0
  9
$UCSORGLEFT
 10
0.0
 20
0.0
 30
0.0
  9
$UCSORGRIGHT
 10
0.0
 20
0.0
 30
0.0
  9
$UCSORGFRONT
 10
0.0
 20
0.0
 30
0.0
  9
$UCSORGBACK
 10
0.0
 20
0.0
 30
0.0
  9
$PUCSBASE
  2

  9
$PUCSNAME
  2

  9
$PUCSORG
 10
0.0
 20
0.0
 30
0.0
  9
$PUCSXDIR
 10
1.0
 20
0.0
 30
0.0
  9
$PUCSYDIR
 10
0.0
 20
1.0
 30
0.0
  9
$PUCSORTHOREF
  2

  9
$PUCSORTHOVIEW
 70
     0
  9
$PUCSORGTOP
 10
0.0
 20
0.0
 30
0.0
  9
$PUCSORGBOTTOM
 10
0.0
 20
0.0
 30
0.0
  9
$PUCSORGLEFT
 10
0.0
 20
0.0
 30
0.0
  9
$PUCSORGRIGHT
 10
0.0
 20
0.0
 30
0.0
  9
$PUCSORGFRONT
 10
0.0
 20
0.0
 30
0.0
  9
$PUCSORGBACK
 10
0.0
 20
0.0
 30
0.0
  9
$USERI1
 70
     0
  9
$USERI2
 70
     0
  9
$USERI3
 70
     0
  9
$USERI4
 70
     0
  9
$USERI5
 70
     0
  9
$USERR1
 40
0.0
  9
$USERR2
 40
0.0
  9
$USERR3
 40
0.0
  9
$USERR4
 40
0.0
  9
$USERR5
 40
0.0
  9
$WORLDVIEW
 70
     1
  9
$SHADEDGE
 70
     3
  9
$SHADEDIF
 70
    70
  9
$TILEMODE
 70
     1
  9
$MAXACTVP
 70
    64
  9
$PINSBASE
 10
0.0
 20
0.0
 30
0.0
  9
$PLIMCHECK
 70
     0
  9
$PEXTMIN
 10
1.000000000000000E+20
 20
1.000000000000000E+20
 30
1.000000000000000E+20
  9
$PEXTMAX
 10
-1.000000000000000E+20
 20
-1.000000000000000E+20
 30
-1.000000000000000E+20
  9
$PLIMMIN
 10
0.0
 20
0.0
  9
$PLIMMAX
 10
0.0
 20
0.0
  9
$UNITMODE
 70
     0
  9
$VISRETAIN
 70
     1
  9
$PLINEGEN
 70
     0
  9
$PSLTSCALE
 70
     1
  9
$TREEDEPTH
 70
  3020
  9
$CMLSTYLE
  2
Standard
  9
$CMLJUST
 70
     0
  9
$CMLSCALE
 40
20.0
  9
$PROXYGRAPHICS
 70
     1
  9
$MEASUREMENT
 70
     1
  9
$CELWEIGHT
370
    -1
  9
$ENDCAPS
280
     0
  9
$JOINSTYLE
280
     0
  9
$LWDISPLAY
290
     1
  9
$INSUNITS
 70
     4
  9
$HYPERLINKBASE
  1

  9
$STYLESHEET
  1

  9
$XEDIT
290
     1
  9
$CEPSNTYPE
380
     0
  9
$PSTYLEMODE
290
     1
  9
$FINGERPRINTGUID
  2
{9737AF3C-A6DC-402D-A714-73F4D5C316F9}
  9
$VERSIONGUID
  2
{FAEB1C32-E019-11D5-929B-00C0DF256EC4}
  9
$EXTNAMES
290
     1
  9
$PSVPSCALE
 40
0.0
  9
$OLESTARTUP
290
     0
  0
ENDSEC
  0
SECTION
  2
CLASSES
  0
CLASS
  1
ACDBDICTIONARYWDFLT
  2
AcDbDictionaryWithDefault
  3
ObjectDBX Classes
 90
        0
280
     0
281
     0
  0
CLASS
  1
VISUALSTYLE
  2
AcDbVisualStyle
  3
ObjectDBX Classes
 90
     4095
280
     0
281
     0
  0
CLASS
  1
MATERIAL
  2
AcDbMaterial
  3
ObjectDBX Classes
 90
     1153
280
     0
281
     0
  0
CLASS
  1
SCALE
  2
AcDbScale
  3
ObjectDBX Classes
 90
     1153
280
     0
281
     0
  0
CLASS
  1
SUN
  2
AcDbSun
  3
SCENEOE
 90
     1153
280
     0
281
     0
  0
CLASS
  1
ACDBPLACEHOLDER
  2
AcDbPlaceHolder
  3
ObjectDBX Classes
 90
        0
280
     0
281
     0
  0
CLASS
  1
LAYOUT
  2
AcDbLayout
  3
ObjectDBX Classes
 90
        0
280
     0
281
     0
  0
CLASS
  1
TABLESTYLE
  2
AcDbTableStyle
  3
ObjectDBX Classes
 90
     4095
280
     0
281
     0
  0
CLASS
  1
MLEADERSTYLE
  2
AcDbMLeaderStyle
  3
ACDB_MLEADERSTYLE_CLASS
 90
     4095
280
     0
281
     0
  0
CLASS
  1
RASTERVARIABLES
  2
AcDbRasterVariables
  3
ISM
 90
        0
280
     0
281
     0
  0
ENDSEC
  0
SECTION
  2
TABLES
  0
TABLE
  2
VPORT
  5
8
330
0
100
AcDbSymbolTable
 70
     1
  0
VPORT
  5
29
330
8
100
AcDbSymbolTableRecord
100
AcDbViewportTableRecord
  2
*Active
 70
     0
 10
0.0
 20
0.0
 11
1.0
 21
1.0
 12
18.15364520724349
 22
8.421928134573577
 13
0.0
 23
0.0
 14
10.0
 24
10.0
 15
10.0
 25
10.0
 16
0.0
 26
0.0
 36
1.0
 17
0.0
 27
0.0
 37
0.0
 40
145.566716779865
 41
1.632093933463796
 42
50.0
 43
0.0
 44
0.0
 50
0.0
 51
0.0
 71
    16
 72
  2000
 73
     1
 74
     3
 75
     0
 76
     0
 77
     0
 78
     0
281
     0
 65
     1
110
0.0
120
0.0
130
0.0
111
1.0
121
0.0
131
0.0
112
0.0
122
1.0
132
0.0
 79
     0
146
0.0
  0
ENDTAB
  0
TABLE
  2
LTYPE
  5
5
330
0
100
AcDbSymbolTable
 70
     6
  0
LTYPE
  5
14
330
5
100
AcDbSymbolTableRecord
100
AcDbLinetypeTableRecord
  2
ByBlock
 70
     0
  3

 72
    65
 73
     0
 40
0.0
  0
LTYPE
  5
15
330
5
100
AcDbSymbolTableRecord
100
AcDbLinetypeTableRecord
  2
ByLayer
 70
     0
  3

 72
    65
 73
     0
 40
0.0
  0
LTYPE
  5
16
330
5
100
AcDbSymbolTableRecord
100
AcDbLinetypeTableRecord
  2
Continuous
 70
     0
  3
Solid line
 72
    65
 73
     0
 40
0.0
  0
LTYPE
  5
6A
330
5
100
AcDbSymbolTableRecord
100
AcDbLinetypeTableRecord
  2
HIDDEN
 70
     0
  3
Hidden __ __ __ __ __ __ __ __ __ __ __ __ __ __
 72
    65
 73
     2
 40
1.905
 49
1.27
 74
     0
 49
-0.635
 74
     0
  0
LTYPE
  5
6B
330
5
100
AcDbSymbolTableRecord
100
AcDbLinetypeTableRecord
  2
PHANTOM
 70
     0
  3
Phantom ______  __  __  ______  __  __  ______
 72
    65
 73
     6
 40
12.7
 49
6.35
 74
     0
 49
-1.27
 74
     0
 49
1.27
 74
     0
 49
-1.27
 74
     0
 49
1.27
 74
     0
 49
-1.27
 74
     0
  0
LTYPE
  5
6C
330
5
100
AcDbSymbolTableRecord
100
AcDbLinetypeTableRecord
  2
CENTER
 70
     0
  3
Center ____ _ ____ _ ____ _ ____ _ ____ _ ____
 72
    65
 73
     4
 40
10.16
 49
6.35
 74
     0
 49
-1.27
 74
     0
 49
1.27
 74
     0
 49
-1.27
 74
     0
  0
LTYPE
  5
6D
330
5
100
AcDbSymbolTableRecord
100
AcDbLinetypeTableRecord
  2
CENTERX2
 70
     0
  3
Center (2x) ________  __  ________  __  _____
 72
    65
 73
     4
 40
20.32
 49
12.7
 74
     0
 49
-2.54
 74
     0
 49
2.54
 74
     0
 49
-2.54
 74
     0
  0
LTYPE
  5
6E
330
5
100
AcDbSymbolTableRecord
100
AcDbLinetypeTableRecord
  2
DOT2
 70
     0
  3
Dot (.5x) ........................................
 72
    65
 73
     2
 40
0.635
 49
0.0
 74
     0
 49
-0.635
 74
     0
  0
ENDTAB
  0
TABLE
  2
LAYER
  5
2
102
{ACAD_XDICTIONARY
360
1F2
102
}
330
0
100
AcDbSymbolTable
 70
    18
  0
LAYER
  5
10
330
2
100
AcDbSymbolTableRecord
100
AcDbLayerTableRecord
  2
0
 70
     0
 62
     7
  6
Continuous
370
    -3
390
F
  0
LAYER
  5
6F
330
2
100
AcDbSymbolTableRecord
100
AcDbLayerTableRecord
  2
FORMAT
 70
     0
 62
     2
  6
Continuous
370
    -3
390
F
  0
LAYER
  5
70
330
2
100
AcDbSymbolTableRecord
100
AcDbLayerTableRecord
  2
외형선
 70
     0
 62
     4
  6
Continuous
370
    30
390
F
  0
LAYER
  5
71
330
2
100
AcDbSymbolTableRecord
100
AcDbLayerTableRecord
  2
숨은선
 70
     0
 62
     2
  6
HIDDEN
370
    15
390
F
  0
LAYER
  5
72
330
2
100
AcDbSymbolTableRecord
100
AcDbLayerTableRecord
  2
중심선
 70
     0
 62
     1
  6
CENTERX2
370
    -3
390
F
  0
LAYER
  5
73
330
2
100
AcDbSymbolTableRecord
100
AcDbLayerTableRecord
  2
파단선
 70
     0
 62
     4
  6
Continuous
370
    -3
390
F
  0
LAYER
  5
74
330
2
100
AcDbSymbolTableRecord
100
AcDbLayerTableRecord
  2
해칭선
 70
     0
 62
   100
  6
Continuous
370
    -3
390
F
  0
LAYER
  5
75
330
2
100
AcDbSymbolTableRecord
100
AcDbLayerTableRecord
  2
가는실선
 70
     0
 62
     4
  6
Continuous
370
    -3
390
F
  0
LAYER
  5
76
330
2
100
AcDbSymbolTableRecord
100
AcDbLayerTableRecord
  2
치수_보조선
 70
     0
 62
     4
  6
Continuous
370
    -3
390
F
  0
LAYER
  5
77
330
2
100
AcDbSymbolTableRecord
100
AcDbLayerTableRecord
  2
치수문자_일반주서
 70
     0
 62
     7
  6
Continuous
370
    15
390
F
  0
LAYER
  5
78
330
2
100
AcDbSymbolTableRecord
100
AcDbLayerTableRecord
  2
개별주서
 70
     0
 62
   100
  6
Continuous
370
    30
390
F
  0
LAYER
  5
79
330
2
100
AcDbSymbolTableRecord
100
AcDbLayerTableRecord
  2
중간선
 70
     0
 62
     2
  6
Continuous
370
    15
390
F
  0
LAYER
  5
7A
330
2
100
AcDbSymbolTableRecord
100
AcDbLayerTableRecord
  2
윤곽선
 70
     0
 62
     3
  6
Continuous
370
    40
390
F
  0
LAYER
  5
7B
330
2
100
AcDbSymbolTableRecord
100
AcDbLayerTableRecord
  2
중심마크
 70
     0
 62
   100
  6
Continuous
370
    30
390
F
  0
LAYER
  5
7C
330
2
100
AcDbSymbolTableRecord
100
AcDbLayerTableRecord
  2
가상선
 70
     0
 62
     4
  6
PHANTOM
370
    -3
390
F
  0
LAYER
  5
7D
330
2
100
AcDbSymbolTableRecord
100
AcDbLayerTableRecord
  2
특수지정선
 70
     0
 62
     5
  6
CENTERX2
370
    60
390
F
  0
LAYER
  5
7E
330
2
100
AcDbSymbolTableRecord
100
AcDbLayerTableRecord
  2
참조1
 70
     0
 62
    -4
  6
Continuous
370
    -3
390
F
  0
LAYER
  5
153
330
2
100
AcDbSymbolTableRecord
100
AcDbLayerTableRecord
  2
Defpoints
 70
     0
 62
     7
  6
Continuous
290
     0
370
    -3
390
F
  0
ENDTAB
  0
TABLE
  2
STYLE
  5
3
330
0
100
AcDbSymbolTable
 70
     2
  0
STYLE
  5
11
330
3
100
AcDbSymbolTableRecord
100
AcDbTextStyleTableRecord
  2
Standard
 70
     0
 40
0.0
 41
1.0
 50
0.0
 71
     0
 42
3.5
  3
txt
  4

  0
STYLE
  5
94
330
3
100
AcDbSymbolTableRecord
100
AcDbTextStyleTableRecord
  2
SLDTEXTSTYLE0
 70
     0
 40
0.0
 41
0.75
 50
0.0
 71
     0
 42
3.5
  3
TXT
  4

  0
ENDTAB
  0
TABLE
  2
VIEW
  5
6
330
0
100
AcDbSymbolTable
 70
     0
  0
ENDTAB
  0
TABLE
  2
UCS
  5
7
330
0
100
AcDbSymbolTable
 70
     0
  0
ENDTAB
  0
TABLE
  2
APPID
  5
9
330
0
100
AcDbSymbolTable
 70
     1
  0
APPID
  5
12
330
9
100
AcDbSymbolTableRecord
100
AcDbRegAppTableRecord
  2
ACAD
 70
     0
  0
ENDTAB
  0
TABLE
  2
DIMSTYLE
  5
A
330
0
100
AcDbSymbolTable
 70
     4
100
AcDbDimStyleTable
  0
DIMSTYLE
105
27
330
A
100
AcDbSymbolTableRecord
100
AcDbDimStyleTableRecord
  2
ISO-25
 70
     0
 41
2.5
 42
0.625
 43
3.75
 44
1.25
 73
     0
 74
     0
 77
     1
 78
     8
140
2.5
141
2.5
143
0.03937007874016
147
0.625
171
     3
172
     1
178
     0
271
     2
272
     2
274
     3
278
    44
283
     0
284
     8
340
11
  0
DIMSTYLE
105
D0
330
A
100
AcDbSymbolTableRecord
100
AcDbDimStyleTableRecord
  2
SLDDIMSTYLE0
 70
     0
 41
3.302
 44
0.0
 45
0.000000001
 73
     0
 74
     0
 77
     1
 78
     4
 79
     1
140
3.5
143
0.0393700787401575
147
0.875
148
0.000000001
170
     1
173
     1
178
     0
271
     2
272
     2
276
     2
284
    12
340
94
  0
DIMSTYLE
105
E5
102
{ACAD_REACTORS
330
E4
330
10D
330
CF
330
F8
102
}
330
A
100
AcDbSymbolTableRecord
100
AcDbDimStyleTableRecord
  2
SLDDIMSTYLE1
 70
     0
 41
3.302
 44
0.0
 45
0.000000001
 73
     0
 74
     0
 77
     1
 78
    12
 79
     3
140
3.5
143
0.0393700787401575
147
0.875
148
0.000000001
170
     1
173
     1
178
     0
271
     2
272
     2
276
     2
284
    12
340
94
  0
DIMSTYLE
105
F9
330
A
100
AcDbSymbolTableRecord
100
AcDbDimStyleTableRecord
  2
SLDDIMSTYLE2
 70
     0
 41
3.302
 44
0.0
 45
0.000000001
 73
     0
 74
     0
 77
     1
 78
    12
 79
     3
140
3.5
143
0.0393700787401575
147
0.875
148
0.000000001
170
     1
172
     1
173
     1
178
     0
271
     2
272
     2
276
     2
284
    12
289
     0
340
94
  0
ENDTAB
  0
TABLE
  2
BLOCK_RECORD
  5
1
330
0
100
AcDbSymbolTable
 70
    15
  0
BLOCK_RECORD
  5
1F
330
1
100
AcDbSymbolTableRecord
100
AcDbBlockTableRecord
  2
*Model_Space
340
22
  0
BLOCK_RECORD
  5
1B
330
1
100
AcDbSymbolTableRecord
100
AcDbBlockTableRecord
  2
*Paper_Space
340
1E
  0
BLOCK_RECORD
  5
23
330
1
100
AcDbSymbolTableRecord
100
AcDbBlockTableRecord
  2
*Paper_Space0
340
26
  0
BLOCK_RECORD
  5
7F
330
1
100
AcDbSymbolTableRecord
100
AcDbBlockTableRecord
  2
블럭10
340
0
102
{BLKREFS
331
C8
102
}
  0
BLOCK_RECORD
  5
D1
330
1
100
AcDbSymbolTableRecord
100
AcDbBlockTableRecord
  2
_D
340
0
  0
BLOCK_RECORD
  5
E6
330
1
100
AcDbSymbolTableRecord
100
AcDbBlockTableRecord
  2
_D_1
340
0
  0
BLOCK_RECORD
  5
FA
330
1
100
AcDbSymbolTableRecord
100
AcDbBlockTableRecord
  2
_D_2
340
0
  0
BLOCK_RECORD
  5
10E
330
1
100
AcDbSymbolTableRecord
100
AcDbBlockTableRecord
  2
_D_3
340
0
  0
BLOCK_RECORD
  5
127
330
1
100
AcDbSymbolTableRecord
100
AcDbBlockTableRecord
  2
SW_DOWELSYMBOL_0
340
0
102
{BLKREFS
331
12D
102
}
  0
BLOCK_RECORD
  5
1F6
330
1
100
AcDbSymbolTableRecord
100
AcDbBlockTableRecord
  2
*D7
340
0
  0
BLOCK_RECORD
  5
202
330
1
100
AcDbSymbolTableRecord
100
AcDbBlockTableRecord
  2
*D8
340
0
  0
BLOCK_RECORD
  5
20E
330
1
100
AcDbSymbolTableRecord
100
AcDbBlockTableRecord
  2
*D9
340
0
  0
BLOCK_RECORD
  5
21A
330
1
100
AcDbSymbolTableRecord
100
AcDbBlockTableRecord
  2
*D10
340
0
  0
BLOCK_RECORD
  5
267
330
1
100
AcDbSymbolTableRecord
100
AcDbBlockTableRecord
  2
*D11
340
0
  0
BLOCK_RECORD
  5
273
330
1
100
AcDbSymbolTableRecord
100
AcDbBlockTableRecord
  2
*D12
340
0
  0
BLOCK_RECORD
  5
27F
330
1
100
AcDbSymbolTableRecord
100
AcDbBlockTableRecord
  2
*D13
340
0
  0
BLOCK_RECORD
  5
28B
330
1
100
AcDbSymbolTableRecord
100
AcDbBlockTableRecord
  2
*D14
340
0
  0
ENDTAB
  0
ENDSEC
  0
SECTION
  2
BLOCKS
  0
BLOCK
  5
20
330
1F
100
AcDbEntity
  8
0
100
AcDbBlockBegin
  2
*Model_Space
 70
     0
 10
0.0
 20
0.0
 30
0.0
  3
*Model_Space
  1
*Model_Space
  0
ENDBLK
  5
21
330
1F
100
AcDbEntity
  8
0
100
AcDbBlockEnd
  0
BLOCK
  5
1C
330
1B
100
AcDbEntity
 67
     1
  8
0
100
AcDbBlockBegin
  2
*Paper_Space
 70
     0
 10
0.0
 20
0.0
 30
0.0
  3
*Paper_Space
  1
*Paper_Space
  0
ENDBLK
  5
1D
330
1B
100
AcDbEntity
 67
     1
  8
0
100
AcDbBlockEnd
  0
BLOCK
  5
24
330
23
100
AcDbEntity
  8
0
100
AcDbBlockBegin
  2
*Paper_Space0
 70
     0
 10
0.0
 20
0.0
 30
0.0
  3
*Paper_Space0
  1
*Paper_Space0
  0
ENDBLK
  5
25
330
23
100
AcDbEntity
  8
0
100
AcDbBlockEnd
  0
BLOCK
  5
80
330
7F
100
AcDbEntity
  8
0
100
AcDbBlockBegin
  2
블럭10
 70
     2
 10
0.0
 20
0.0
 30
0.0
  3
블럭10
  1
블럭10
  0
ELLIPSE
  5
82
330
7F
100
AcDbEntity
  8
중심선
100
AcDbEllipse
 10
20.54032771741204
 20
12.0471743016438
 30
0.0
 11
6.600054785286829
 21
-1.261213355974178E-13
 31
0.0
210
0.0
220
0.0
230
1.0
 40
0.636358354079598
 41
0.9219305317359503
 42
6.513795318482858
  0
ELLIPSE
  5
83
330
7F
100
AcDbEntity
  8
중심선
100
AcDbEllipse
 10
20.54032771746488
 20
12.04717430159265
 30
0.0
 11
3.960054785062283
 21
1.540847449632565E-10
 31
0.0
210
0.0
220
0.0
230
1.0
 40
0.3939339440162632
 41
1.131841032648279
 42
5.62031148352944
  0
LINE
  5
84
330
7F
100
AcDbEntity
  8
중심선
100
AcDbLine
 10
2.268634060543552
 20
16.24717430164393
 30
0.0
 11
5.714909304380834
 21
16.24717430164393
 31
0.0
  0
LINE
  5
85
330
7F
100
AcDbEntity
  8
중심선
100
AcDbLine
 10
5.245725140726316
 20
7.84717430164391
 30
0.0
 11
8.692000384563599
 21
7.84717430164391
 31
0.0
  0
LINE
  5
86
330
7F
100
AcDbEntity
  8
중심선
100
AcDbLine
 10
15.74043728645272
 20
16.24717430164393
 30
0.0
 11
8.692000384563599
 21
7.84717430164391
 31
0.0
  0
LINE
  5
87
330
7F
100
AcDbEntity
  8
중심선
100
AcDbLine
 10
0.1404042013395286
 20
13.71084872107135
 30
0.0
 11
3.58671253028996
 21
13.71088815037384
 31
0.0
  0
LINE
  5
88
330
7F
100
AcDbEntity
  8
중심선
100
AcDbLine
 10
2.750260043222114
 20
10.84717430164391
 30
0.0
 11
6.196535287059397
 21
10.84717430164391
 31
0.0
  0
LINE
  5
89
330
7F
100
AcDbEntity
  8
중심선
100
AcDbLine
 10
12.29416204261559
 20
16.24717430164393
 30
0.0
 11
5.245725140726316
 21
7.84717430164391
 31
0.0
  0
LINE
  5
8A
330
7F
100
AcDbEntity
  8
중심선
100
AcDbLine
 10
10.72767329541681
 20
16.24717430164393
 30
0.0
 11
6.196535287059397
 21
10.84717430164391
 31
0.0
  0
LINE
  5
8B
330
7F
100
AcDbEntity
  8
중심선
100
AcDbLine
 10
7.28139805157953
 20
16.24717430164393
 30
0.0
 11
2.750260043222114
 21
10.84717430164391
 31
0.0
  0
LINE
  5
8C
330
7F
100
AcDbEntity
  8
중심선
100
AcDbLine
 10
5.714909304380834
 20
16.24717430164393
 30
0.0
 11
3.58671253028996
 21
13.71088815037384
 31
0.0
  0
LINE
  5
8D
330
7F
100
AcDbEntity
  8
중심선
100
AcDbLine
 10
2.268634060543552
 20
16.24717430164393
 30
0.0
 11
0.1404042013395286
 21
13.71084872107135
 31
0.0
  0
LINE
  5
8E
330
7F
100
AcDbEntity
  8
중심선
100
AcDbLine
 10
7.28139805157953
 20
16.24717430164393
 30
0.0
 11
10.72767329541681
 21
16.24717430164393
 31
0.0
  0
LINE
  5
8F
330
7F
100
AcDbEntity
  8
중심선
100
AcDbLine
 10
12.29416204261559
 20
16.24717430164393
 30
0.0
 11
15.74043728645272
 21
16.24717430164393
 31
0.0
  0
LINE
  5
90
330
7F
100
AcDbEntity
  8
중심선
100
AcDbLine
 10
19.22036997980202
 20
11.08717430171403
 30
0.0
 11
23.66174974927406
 21
11.08717430171406
 31
0.0
  0
LINE
  5
91
330
7F
100
AcDbEntity
  8
중심선
100
AcDbLine
 10
19.22039502424796
 20
13.00717430171391
 30
0.0
 11
19.22036997980202
 21
11.08717430171403
 31
0.0
  0
LINE
  5
92
330
7F
100
AcDbEntity
  8
중심선
100
AcDbLine
 10
19.22039502424796
 20
13.00717430171391
 30
0.0
 11
26.96566020931264
 21
13.00717430171391
 31
0.0
  0
LINE
  5
93
330
7F
100
AcDbEntity
  8
중심선
100
AcDbLine
 10
22.22332737316547
 20
13.45928029700563
 30
0.0
 11
24.52862924686651
 21
15.39360700705356
 31
0.0
  0
ATTDEF
  5
95
330
7F
100
AcDbEntity
  8
FORMAT
 62
     2
100
AcDbText
 10
4.408487351596664
 20
2.075366912832191
 30
0.0
 40
4.233333333333333
  1
E2034048
 41
0.75
  7
SLDTEXTSTYLE0
 11
4.408487351596664
 21
-0.0412997538344756
 31
0.0
100
AcDbAttributeDefinition
  3

  2
AUTOATTR0
 70
     0
 74
     1
  0
ENDBLK
  5
81
330
7F
100
AcDbEntity
  8
0
100
AcDbBlockEnd
  0
BLOCK
  5
D2
330
D1
100
AcDbEntity
  8
0
100
AcDbBlockBegin
  2
_D
 70
     0
 10
0.0
 20
0.0
 30
0.0
  3
_D
  1
_D
  0
LINE
  5
D4
330
D1
100
AcDbEntity
  8
치수문자_일반주서
 62
     0
370
    -2
100
AcDbLine
 10
97.50560364977729
 20
9.588574928723906
 30
0.0
 11
97.50560364977729
 21
22.67188549898007
 31
0.0
  0
LINE
  5
D5
330
D1
100
AcDbEntity
  8
치수문자_일반주서
 62
     0
370
    -2
100
AcDbLine
 10
21.30560364977726
 20
9.588284910771002
 30
0.0
 11
21.30560364977727
 21
22.67188549898007
 31
0.0
  0
LINE
  5
D6
330
D1
100
AcDbEntity
  8
치수문자_일반주서
 62
     0
370
    -2
100
AcDbLine
 10
94.20360364977728
 20
22.67188549898007
 30
0.0
 11
24.60760364977727
 21
22.67188549898007
 31
0.0
  0
SOLID
  5
D7
330
D1
100
AcDbEntity
  8
치수문자_일반주서
 62
     0
100
AcDbTrace
 10
94.20360364977728
 20
22.12155216564674
 30
0.0
 11
94.20360364977728
 21
23.22221883231341
 31
0.0
 12
97.50560364977729
 22
22.67188549898007
 32
0.0
 13
97.50560364977729
 23
22.67188549898007
 33
0.0
  0
SOLID
  5
D8
330
D1
100
AcDbEntity
  8
치수문자_일반주서
 62
     0
100
AcDbTrace
 10
24.60760364977727
 20
23.22221883231341
 30
0.0
 11
24.60760364977727
 21
22.12155216564674
 31
0.0
 12
21.30560364977727
 22
22.67188549898007
 32
0.0
 13
21.30560364977727
 23
22.67188549898007
 33
0.0
  0
MTEXT
  5
D9
330
D1
100
AcDbEntity
  8
치수문자_일반주서
 62
     0
100
AcDbMText
 10
59.40560364977725
 20
27.04688549898007
 30
0.0
 40
3.5
 41
0.0
 71
     2
 72
     1
  1
\A1;76.2 [3]
  7
SLDTEXTSTYLE0
 73
     1
 44
1.0
  0
POINT
  5
DA
330
D1
100
AcDbEntity
  8
Defpoints
 62
     0
100
AcDbPoint
 10
97.50560364977729
 20
9.526074928723906
 30
0.0
  0
POINT
  5
DB
330
D1
100
AcDbEntity
  8
Defpoints
 62
     0
100
AcDbPoint
 10
21.30560364977726
 20
9.525784910771002
 30
0.0
  0
POINT
  5
DC
330
D1
100
AcDbEntity
  8
Defpoints
 62
     0
100
AcDbPoint
 10
21.30560364977726
 20
22.67188549898007
 30
0.0
  0
ENDBLK
  5
D3
330
D1
100
AcDbEntity
  8
0
100
AcDbBlockEnd
  0
BLOCK
  5
E7
330
E6
100
AcDbEntity
  8
0
100
AcDbBlockBegin
  2
_D_1
 70
     0
 10
0.0
 20
0.0
 30
0.0
  3
_D_1
  1
_D_1
  0
LINE
  5
E9
330
E6
100
AcDbEntity
  8
치수문자_일반주서
 62
     0
370
    -2
100
AcDbLine
 10
97.50560364977729
 20
9.588574928723906
 30
0.0
 11
97.50560364977729
 21
38.39309069678276
 31
0.0
  0
LINE
  5
EA
330
E6
100
AcDbEntity
  8
치수문자_일반주서
 62
     0
370
    -2
100
AcDbLine
 10
-35.84439635022271
 20
7.683574928723899
 30
0.0
 11
-35.84439635022271
 21
38.39309069678276
 31
0.0
  0
LINE
  5
EB
330
E6
100
AcDbEntity
  8
치수문자_일반주서
 62
     0
370
    -2
100
AcDbLine
 10
94.20360364977728
 20
38.39309069678276
 30
0.0
 11
-32.54239635022271
 21
38.39309069678276
 31
0.0
  0
SOLID
  5
EC
330
E6
100
AcDbEntity
  8
치수문자_일반주서
 62
     0
100
AcDbTrace
 10
94.20360364977728
 20
37.84275736344942
 30
0.0
 11
94.20360364977728
 21
38.94342403011609
 31
0.0
 12
97.50560364977729
 22
38.39309069678276
 32
0.0
 13
97.50560364977729
 23
38.39309069678276
 33
0.0
  0
SOLID
  5
ED
330
E6
100
AcDbEntity
  8
치수문자_일반주서
 62
     0
100
AcDbTrace
 10
-32.54239635022271
 20
38.94342403011609
 30
0.0
 11
-32.54239635022271
 21
37.84275736344942
 31
0.0
 12
-35.84439635022271
 22
38.39309069678276
 32
0.0
 13
-35.84439635022271
 23
38.39309069678276
 33
0.0
  0
MTEXT
  5
EE
330
E6
100
AcDbEntity
  8
치수문자_일반주서
 62
     0
100
AcDbMText
 10
30.83060364977728
 20
42.76809069678276
 30
0.0
 40
3.5
 41
0.0
 71
     2
 72
     1
  1
\A1;133.35 [5 1/4]
  7
SLDTEXTSTYLE0
 73
     1
 44
1.0
  0
POINT
  5
EF
330
E6
100
AcDbEntity
  8
Defpoints
 62
     0
100
AcDbPoint
 10
97.50560364977729
 20
9.526074928723906
 30
0.0
  0
POINT
  5
F0
330
E6
100
AcDbEntity
  8
Defpoints
 62
     0
100
AcDbPoint
 10
-35.84439635022271
 20
7.621074928723899
 30
0.0
  0
POINT
  5
F1
330
E6
100
AcDbEntity
  8
Defpoints
 62
     0
100
AcDbPoint
 10
-35.84439635022271
 20
38.39309069678276
 30
0.0
  0
ENDBLK
  5
E8
330
E6
100
AcDbEntity
  8
0
100
AcDbBlockEnd
  0
BLOCK
  5
FB
330
FA
100
AcDbEntity
  8
0
100
AcDbBlockBegin
  2
_D_2
 70
     0
 10
0.0
 20
0.0
 30
0.0
  3
_D_2
  1
_D_2
  0
LINE
  5
FD
330
FA
100
AcDbEntity
  8
치수문자_일반주서
 62
     0
370
    -2
100
AcDbLine
 10
-34.00189635022272
 20
9.526074928723899
 30
0.0
 11
-46.19266918804994
 21
9.526074928723856
 31
0.0
  0
LINE
  5
FE
330
FA
100
AcDbEntity
  8
치수문자_일반주서
 62
     0
370
    -2
100
AcDbLine
 10
-34.00189635022272
 20
-9.523925071276112
 30
0.0
 11
-46.19266918804988
 21
-9.523925071276155
 31
0.0
  0
LINE
  5
FF
330
FA
100
AcDbEntity
  8
치수문자_일반주서
 62
     0
370
    -2
100
AcDbLine
 10
-46.19266918804993
 20
6.224074928723857
 30
0.0
 11
-46.19266918804989
 21
-6.221925071276155
 31
0.0
  0
SOLID
  5
100
330
FA
100
AcDbEntity
  8
치수문자_일반주서
 62
     0
100
AcDbTrace
 10
-45.64233585471659
 20
6.224074928723859
 30
0.0
 11
-46.74300252138326
 21
6.224074928723855
 31
0.0
 12
-46.19266918804994
 22
9.526074928723856
 32
0.0
 13
-46.19266918804994
 23
9.526074928723856
 33
0.0
  0
SOLID
  5
101
330
FA
100
AcDbEntity
  8
치수문자_일반주서
 62
     0
100
AcDbTrace
 10
-46.74300252138323
 20
-6.221925071276157
 30
0.0
 11
-45.64233585471656
 21
-6.221925071276154
 31
0.0
 12
-46.19266918804988
 22
-9.523925071276155
 32
0.0
 13
-46.19266918804988
 23
-9.523925071276155
 33
0.0
  0
MTEXT
  5
102
330
FA
100
AcDbEntity
  8
치수문자_일반주서
 62
     0
100
AcDbMText
 10
-50.56766918804991
 20
0.0010749287238865
 30
0.0
 40
3.5
 41
0.0
 71
     2
 72
     1
  1
\A1;%%c19.05 [3/4]
  7
SLDTEXTSTYLE0
 11
-3.356894814614645E-15
 21
1.0
 31
0.0
 73
     1
 44
1.0
  0
POINT
  5
103
330
FA
100
AcDbEntity
  8
Defpoints
 62
     0
100
AcDbPoint
 10
-33.93939635022272
 20
9.526074928723899
 30
0.0
  0
POINT
  5
104
330
FA
100
AcDbEntity
  8
Defpoints
 62
     0
100
AcDbPoint
 10
-33.93939635022272
 20
-9.523925071276112
 30
0.0
  0
POINT
  5
105
330
FA
100
AcDbEntity
  8
Defpoints
 62
     0
100
AcDbPoint
 10
-46.19266918804991
 20
-9.523925071276155
 30
0.0
  0
ENDBLK
  5
FC
330
FA
100
AcDbEntity
  8
0
100
AcDbBlockEnd
  0
BLOCK
  5
10F
330
10E
100
AcDbEntity
  8
0
100
AcDbBlockBegin
  2
_D_3
 70
     0
 10
0.0
 20
0.0
 30
0.0
  3
_D_3
  1
_D_3
  0
LINE
  5
111
330
10E
100
AcDbEntity
  8
치수문자_일반주서
 62
     0
370
    -2
100
AcDbLine
 10
97.56810364977729
 20
9.526074928723906
 30
0.0
 11
115.7769630775725
 21
9.526074928723972
 31
0.0
  0
LINE
  5
112
330
10E
100
AcDbEntity
  8
치수문자_일반주서
 62
     0
370
    -2
100
AcDbLine
 10
97.56810364977729
 20
-9.523925071276095
 30
0.0
 11
115.7769630775726
 21
-9.523925071276032
 31
0.0
  0
LINE
  5
113
330
10E
100
AcDbEntity
  8
치수문자_일반주서
 62
     0
370
    -2
100
AcDbLine
 10
115.7769630775725
 20
9.526074928723972
 30
0.0
 11
115.7769630775724
 21
40.41804761303123
 31
0.0
  0
LINE
  5
114
330
10E
100
AcDbEntity
  8
치수문자_일반주서
 62
     0
370
    -2
100
AcDbLine
 10
115.7769630775725
 20
6.224074928723972
 30
0.0
 11
115.7769630775725
 21
-6.221925071276033
 31
0.0
  0
SOLID
  5
115
330
10E
100
AcDbEntity
  8
치수문자_일반주서
 62
     0
100
AcDbTrace
 10
116.3272964109058
 20
6.224074928723974
 30
0.0
 11
115.2266297442392
 21
6.224074928723971
 31
0.0
 12
115.7769630775725
 22
9.526074928723972
 32
0.0
 13
115.7769630775725
 23
9.526074928723972
 33
0.0
  0
SOLID
  5
116
330
10E
100
AcDbEntity
  8
치수문자_일반주서
 62
     0
100
AcDbTrace
 10
115.2266297442392
 20
-6.221925071276035
 30
0.0
 11
116.3272964109059
 21
-6.221925071276031
 31
0.0
 12
115.7769630775726
 22
-9.523925071276032
 32
0.0
 13
115.7769630775726
 23
-9.523925071276032
 33
0.0
  0
MTEXT
  5
117
330
10E
100
AcDbEntity
  8
치수문자_일반주서
 62
     0
100
AcDbMText
 10
111.4019630775724
 20
26.63679761303122
 30
0.0
 40
3.5
 41
0.0
 71
     2
 72
     1
  1
\A1;%%c19.05 [3/4]
  7
SLDTEXTSTYLE0
 11
-3.729883127349607E-15
 21
1.0
 31
0.0
 73
     1
 44
1.0
  0
POINT
  5
118
330
10E
100
AcDbEntity
  8
Defpoints
 62
     0
100
AcDbPoint
 10
97.50560364977729
 20
9.526074928723906
 30
0.0
  0
POINT
  5
119
330
10E
100
AcDbEntity
  8
Defpoints
 62
     0
100
AcDbPoint
 10
97.50560364977729
 20
-9.523925071276095
 30
0.0
  0
POINT
  5
11A
330
10E
100
AcDbEntity
  8
Defpoints
 62
     0
100
AcDbPoint
 10
115.7769630775726
 20
-9.52392507127603
 30
0.0
  0
ENDBLK
  5
110
330
10E
100
AcDbEntity
  8
0
100
AcDbBlockEnd
  0
BLOCK
  5
128
330
127
100
AcDbEntity
  8
0
100
AcDbBlockBegin
  2
SW_DOWELSYMBOL_0
 70
     0
 10
0.0
 20
0.0
 30
0.0
  3
SW_DOWELSYMBOL_0
  1
SW_DOWELSYMBOL_0
  0
CIRCLE
  5
12A
330
127
100
AcDbEntity
  8
해칭선
 62
     0
100
AcDbCircle
 10
0.0
 20
0.0
 30
0.0
 40
3.000000000000001
  0
HATCH
  5
12B
330
127
100
AcDbEntity
  8
0
  6
Continuous
 62
     0
370
     0
100
AcDbHatch
 10
0.0
 20
0.0
 30
0.0
210
0.0
220
0.0
230
1.0
  2
SOLID
 70
     1
 71
     0
 91
        1
 92
        0
 93
        3
 72
     2
 10
0.0
 20
0.0
 40
3.000000000000001
 50
0.0
 51
90.0
 73
     1
 72
     1
 10
0.0
 20
3.000000000000001
 11
0.0
 21
0.0
 72
     1
 10
0.0
 20
0.0
 11
3.000000000000003
 21
0.0
 97
        0
 75
     0
 76
     1
 98
        1
 10
0.0
 20
0.0
  0
HATCH
  5
12C
330
127
100
AcDbEntity
  8
0
  6
Continuous
 62
     0
370
     0
100
AcDbHatch
 10
0.0
 20
0.0
 30
0.0
210
0.0
220
0.0
230
1.0
  2
SOLID
 70
     1
 71
     0
 91
        1
 92
        0
 93
        3
 72
     2
 10
0.0
 20
0.0
 40
3.000000000000001
 50
180.0
 51
270.0000000000007
 73
     1
 72
     1
 10
0.0
 20
-3.000000000000001
 11
0.0
 21
0.0
 72
     1
 10
0.0
 20
0.0
 11
-3.000000000000001
 21
0.0
 97
        0
 75
     0
 76
     1
 98
        1
 10
0.0
 20
0.0
  0
ENDBLK
  5
129
330
127
100
AcDbEntity
  8
0
100
AcDbBlockEnd
  0
BLOCK
  5
1F7
330
1F6
100
AcDbEntity
  8
0
100
AcDbBlockBegin
  2
*D7
 70
     1
 10
0.0
 20
0.0
 30
0.0
  3
*D7
  1
*D8
  0
LINE
  5
1F9
330
1F6
100
AcDbEntity
  8
치수문자_일반주서
 62
     0
370
    -2
100
AcDbLine
 10
148.0732728378273
 20
22.09687500000001
 30
0.0
 11
148.0732728378273
 21
35.18164504174329
 31
0.0
  0
LINE
  5
1FA
330
1F6
100
AcDbEntity
  8
치수문자_일반주서
 62
     0
370
    -2
100
AcDbLine
 10
71.87327283782722
 20
21.92730800013863
 30
0.0
 11
71.87327283782722
 21
35.18164504174329
 31
0.0
  0
LINE
  5
1FB
330
1F6
100
AcDbEntity
  8
치수문자_일반주서
 62
     0
370
    -2
100
AcDbLine
 10
144.7712728378273
 20
35.18164504174329
 30
0.0
 11
75.17527283782721
 21
35.18164504174329
 31
0.0
  0
SOLID
  5
1FC
330
1F6
100
AcDbEntity
  8
치수문자_일반주서
 62
     0
100
AcDbTrace
 10
144.7712728378273
 20
34.63131170840995
 30
0.0
 11
144.7712728378273
 21
35.73197837507662
 31
0.0
 12
148.0732728378273
 22
35.18164504174329
 32
0.0
 13
148.0732728378273
 23
35.18164504174329
 33
0.0
  0
SOLID
  5
1FD
330
1F6
100
AcDbEntity
  8
치수문자_일반주서
 62
     0
100
AcDbTrace
 10
75.17527283782721
 20
35.73197837507662
 30
0.0
 11
75.17527283782721
 21
34.63131170840995
 31
0.0
 12
71.87327283782722
 22
35.18164504174329
 32
0.0
 13
71.87327283782722
 23
35.18164504174329
 33
0.0
  0
MTEXT
  5
1FE
330
1F6
100
AcDbEntity
  8
치수문자_일반주서
 62
     0
100
AcDbMText
 10
109.9732728378273
 20
39.55664504174329
 30
0.0
 40
3.5
 41
0.0
 71
     2
 72
     1
  1
\A1;76.2 [3]
  7
SLDTEXTSTYLE0
 73
     1
 44
1.0
  0
POINT
  5
1FF
330
1F6
100
AcDbEntity
  8
Defpoints
 62
     0
100
AcDbPoint
 10
148.0732728378273
 20
22.03437500000001
 30
0.0
  0
POINT
  5
200
330
1F6
100
AcDbEntity
  8
Defpoints
 62
     0
100
AcDbPoint
 10
71.87327283782722
 20
21.86480800013863
 30
0.0
  0
POINT
  5
201
330
1F6
100
AcDbEntity
  8
Defpoints
 62
     0
100
AcDbPoint
 10
71.87327283782722
 20
35.18164504174329
 30
0.0
  0
ENDBLK
  5
1F8
330
1F6
100
AcDbEntity
  8
0
100
AcDbBlockEnd
  0
BLOCK
  5
203
330
202
100
AcDbEntity
  8
0
100
AcDbBlockBegin
  2
*D8
 70
     1
 10
0.0
 20
0.0
 30
0.0
  3
*D8
  1
*D9
  0
LINE
  5
205
330
202
100
AcDbEntity
  8
치수문자_일반주서
 62
     0
370
    -2
100
AcDbLine
 10
148.0732728378273
 20
22.09687500000001
 30
0.0
 11
148.0732728378273
 21
50.90285023954607
 31
0.0
  0
LINE
  5
206
330
202
100
AcDbEntity
  8
치수문자_일반주서
 62
     0
370
    -2
100
AcDbLine
 10
14.72327283782725
 20
20.58875000000001
 30
0.0
 11
14.72327283782725
 21
50.90285023954607
 31
0.0
  0
LINE
  5
207
330
202
100
AcDbEntity
  8
치수문자_일반주서
 62
     0
370
    -2
100
AcDbLine
 10
144.7712728378273
 20
50.90285023954607
 30
0.0
 11
18.02527283782725
 21
50.90285023954607
 31
0.0
  0
SOLID
  5
208
330
202
100
AcDbEntity
  8
치수문자_일반주서
 62
     0
100
AcDbTrace
 10
144.7712728378273
 20
50.35251690621273
 30
0.0
 11
144.7712728378273
 21
51.4531835728794
 31
0.0
 12
148.0732728378273
 22
50.90285023954607
 32
0.0
 13
148.0732728378273
 23
50.90285023954607
 33
0.0
  0
SOLID
  5
209
330
202
100
AcDbEntity
  8
치수문자_일반주서
 62
     0
100
AcDbTrace
 10
18.02527283782725
 20
51.4531835728794
 30
0.0
 11
18.02527283782725
 21
50.35251690621273
 31
0.0
 12
14.72327283782725
 22
50.90285023954607
 32
0.0
 13
14.72327283782725
 23
50.90285023954607
 33
0.0
  0
MTEXT
  5
20A
330
202
100
AcDbEntity
  8
치수문자_일반주서
 62
     0
100
AcDbMText
 10
81.39827283782724
 20
55.27785023954607
 30
0.0
 40
3.5
 41
0.0
 71
     2
 72
     1
  1
\A1;133.35 [5 1/4]
  7
SLDTEXTSTYLE0
 73
     1
 44
1.0
  0
POINT
  5
20B
330
202
100
AcDbEntity
  8
Defpoints
 62
     0
100
AcDbPoint
 10
148.0732728378273
 20
22.03437500000001
 30
0.0
  0
POINT
  5
20C
330
202
100
AcDbEntity
  8
Defpoints
 62
     0
100
AcDbPoint
 10
14.72327283782725
 20
20.52625000000001
 30
0.0
  0
POINT
  5
20D
330
202
100
AcDbEntity
  8
Defpoints
 62
     0
100
AcDbPoint
 10
14.72327283782725
 20
50.90285023954607
 30
0.0
  0
ENDBLK
  5
204
330
202
100
AcDbEntity
  8
0
100
AcDbBlockEnd
  0
BLOCK
  5
20F
330
20E
100
AcDbEntity
  8
0
100
AcDbBlockBegin
  2
*D9
 70
     1
 10
0.0
 20
0.0
 30
0.0
  3
*D9
  1
*D10
  0
LINE
  5
211
330
20E
100
AcDbEntity
  8
치수문자_일반주서
 62
     0
370
    -2
100
AcDbLine
 10
16.56577283782723
 20
22.43125000000001
 30
0.0
 11
4.37500000000001
 21
22.43124999999996
 31
0.0
  0
LINE
  5
212
330
20E
100
AcDbEntity
  8
치수문자_일반주서
 62
     0
370
    -2
100
AcDbLine
 10
16.56577283782723
 20
3.381249999999997
 30
0.0
 11
4.375000000000076
 21
3.381249999999952
 31
0.0
  0
LINE
  5
213
330
20E
100
AcDbEntity
  8
치수문자_일반주서
 62
     0
370
    -2
100
AcDbLine
 10
4.375000000000021
 20
19.12924999999996
 30
0.0
 11
4.375000000000065
 21
6.683249999999951
 31
0.0
  0
SOLID
  5
214
330
20E
100
AcDbEntity
  8
치수문자_일반주서
 62
     0
100
AcDbTrace
 10
4.925333333333355
 20
19.12924999999997
 30
0.0
 11
3.824666666666688
 21
19.12924999999996
 31
0.0
 12
4.37500000000001
 22
22.43124999999996
 32
0.0
 13
4.37500000000001
 23
22.43124999999996
 33
0.0
  0
SOLID
  5
215
330
20E
100
AcDbEntity
  8
치수문자_일반주서
 62
     0
100
AcDbTrace
 10
3.824666666666732
 20
6.68324999999995
 30
0.0
 11
4.925333333333398
 21
6.683249999999953
 31
0.0
 12
4.375000000000076
 22
3.381249999999952
 32
0.0
 13
4.375000000000076
 23
3.381249999999952
 33
0.0
  0
MTEXT
  5
216
330
20E
100
AcDbEntity
  8
치수문자_일반주서
 62
     0
100
AcDbMText
 10
0.0000000000000426
 20
12.90625
 30
0.0
 40
3.5
 41
0.0
 71
     2
 72
     1
  1
\A1;%%c19.05 [3/4]
  7
SLDTEXTSTYLE0
 11
-3.496765431890255E-15
 21
1.0
 31
0.0
 73
     1
 44
1.0
  0
POINT
  5
217
330
20E
100
AcDbEntity
  8
Defpoints
 62
     0
100
AcDbPoint
 10
16.62827283782723
 20
22.43125000000001
 30
0.0
  0
POINT
  5
218
330
20E
100
AcDbEntity
  8
Defpoints
 62
     0
100
AcDbPoint
 10
16.62827283782723
 20
3.381249999999998
 30
0.0
  0
POINT
  5
219
330
20E
100
AcDbEntity
  8
Defpoints
 62
     0
100
AcDbPoint
 10
4.375000000000078
 20
3.381249999999952
 30
0.0
  0
ENDBLK
  5
210
330
20E
100
AcDbEntity
  8
0
100
AcDbBlockEnd
  0
BLOCK
  5
21B
330
21A
100
AcDbEntity
  8
0
100
AcDbBlockBegin
  2
*D10
 70
     1
 10
0.0
 20
0.0
 30
0.0
  3
*D10
  1
*D11
  0
LINE
  5
21D
330
21A
100
AcDbEntity
  8
치수문자_일반주서
 62
     0
370
    -2
100
AcDbLine
 10
148.1357728378273
 20
22.03437500000001
 30
0.0
 11
167.0671682544754
 21
22.03437500000008
 31
0.0
  0
LINE
  5
21E
330
21A
100
AcDbEntity
  8
치수문자_일반주서
 62
     0
370
    -2
100
AcDbLine
 10
148.1357728378272
 20
3.778125000000019
 30
0.0
 11
167.0671682544755
 21
3.778125000000088
 31
0.0
  0
LINE
  5
21F
330
21A
100
AcDbEntity
  8
치수문자_일반주서
 62
     0
370
    -2
100
AcDbLine
 10
167.0671682544754
 20
22.03437500000008
 30
0.0
 11
167.0671682544753
 21
58.67637500000009
 31
0.0
  0
LINE
  5
220
330
21A
100
AcDbEntity
  8
치수문자_일반주서
 62
     0
370
    -2
100
AcDbLine
 10
167.0671682544754
 20
18.73237500000008
 30
0.0
 11
167.0671682544755
 21
7.080125000000088
 31
0.0
  0
SOLID
  5
221
330
21A
100
AcDbEntity
  8
치수문자_일반주서
 62
     0
100
AcDbTrace
 10
167.6175015878088
 20
18.73237500000008
 30
0.0
 11
166.5168349211421
 21
18.73237500000008
 31
0.0
 12
167.0671682544754
 22
22.03437500000008
 32
0.0
 13
167.0671682544754
 23
22.03437500000008
 33
0.0
  0
SOLID
  5
222
330
21A
100
AcDbEntity
  8
치수문자_일반주서
 62
     0
100
AcDbTrace
 10
166.5168349211422
 20
7.080125000000086
 30
0.0
 11
167.6175015878088
 21
7.080125000000089
 31
0.0
 12
167.0671682544755
 22
3.778125000000088
 32
0.0
 13
167.0671682544755
 23
3.778125000000088
 33
0.0
  0
MTEXT
  5
223
330
21A
100
AcDbEntity
  8
치수문자_일반주서
 62
     0
100
AcDbMText
 10
162.6921682544754
 20
42.05137500000007
 30
0.0
 40
3.5
 41
0.0
 71
     2
 72
     1
  1
\A1;%%c18.26 [23/32]
  7
SLDTEXTSTYLE0
 11
-3.113641567178803E-15
 21
1.0
 31
0.0
 73
     1
 44
1.0
  0
POINT
  5
224
330
21A
100
AcDbEntity
  8
Defpoints
 62
     0
100
AcDbPoint
 10
148.0732728378273
 20
22.03437500000001
 30
0.0
  0
POINT
  5
225
330
21A
100
AcDbEntity
  8
Defpoints
 62
     0
100
AcDbPoint
 10
148.0732728378272
 20
3.778125000000019
 30
0.0
  0
POINT
  5
226
330
21A
100
AcDbEntity
  8
Defpoints
 62
     0
100
AcDbPoint
 10
167.0671682544755
 20
3.77812500000009
 30
0.0
  0
ENDBLK
  5
21C
330
21A
100
AcDbEntity
  8
0
100
AcDbBlockEnd
  0
BLOCK
  5
268
330
267
100
AcDbEntity
  8
0
100
AcDbBlockBegin
  2
*D11
 70
     1
 10
0.0
 20
0.0
 30
0.0
  3
*D11
  1
*D12
  0
LINE
  5
26A
330
267
100
AcDbEntity
  8
치수문자_일반주서
 62
     0
370
    -2
100
AcDbLine
 10
248.7696380035551
 20
-56.3149954819108
 30
0.0
 11
248.7696380035551
 21
-43.23022544016752
 31
0.0
  0
LINE
  5
26B
330
267
100
AcDbEntity
  8
치수문자_일반주서
 62
     0
370
    -2
100
AcDbLine
 10
172.569638003555
 20
-56.48456248177218
 30
0.0
 11
172.569638003555
 21
-43.23022544016752
 31
0.0
  0
LINE
  5
26C
330
267
100
AcDbEntity
  8
치수문자_일반주서
 62
     0
370
    -2
100
AcDbLine
 10
245.4676380035551
 20
-43.23022544016752
 30
0.0
 11
175.871638003555
 21
-43.23022544016752
 31
0.0
  0
SOLID
  5
26D
330
267
100
AcDbEntity
  8
치수문자_일반주서
 62
     0
100
AcDbTrace
 10
245.4676380035551
 20
-43.78055877350086
 30
0.0
 11
245.4676380035551
 21
-42.67989210683419
 31
0.0
 12
248.7696380035551
 22
-43.23022544016752
 32
0.0
 13
248.7696380035551
 23
-43.23022544016752
 33
0.0
  0
SOLID
  5
26E
330
267
100
AcDbEntity
  8
치수문자_일반주서
 62
     0
100
AcDbTrace
 10
175.871638003555
 20
-42.67989210683419
 30
0.0
 11
175.871638003555
 21
-43.78055877350086
 31
0.0
 12
172.569638003555
 22
-43.23022544016752
 32
0.0
 13
172.569638003555
 23
-43.23022544016752
 33
0.0
  0
MTEXT
  5
26F
330
267
100
AcDbEntity
  8
치수문자_일반주서
 62
     0
100
AcDbMText
 10
210.6696380035551
 20
-38.85522544016752
 30
0.0
 40
3.5
 41
0.0
 71
     2
 72
     1
  1
\A1;76.2 [3]
  7
SLDTEXTSTYLE0
 73
     1
 44
1.0
  0
POINT
  5
270
330
267
100
AcDbEntity
  8
Defpoints
 62
     0
100
AcDbPoint
 10
248.7696380035551
 20
-56.3774954819108
 30
0.0
  0
POINT
  5
271
330
267
100
AcDbEntity
  8
Defpoints
 62
     0
100
AcDbPoint
 10
172.569638003555
 20
-56.54706248177218
 30
0.0
  0
POINT
  5
272
330
267
100
AcDbEntity
  8
Defpoints
 62
     0
100
AcDbPoint
 10
172.569638003555
 20
-43.23022544016752
 30
0.0
  0
ENDBLK
  5
269
330
267
100
AcDbEntity
  8
0
100
AcDbBlockEnd
  0
BLOCK
  5
274
330
273
100
AcDbEntity
  8
0
100
AcDbBlockBegin
  2
*D12
 70
     1
 10
0.0
 20
0.0
 30
0.0
  3
*D12
  1
*D13
  0
LINE
  5
276
330
273
100
AcDbEntity
  8
치수문자_일반주서
 62
     0
370
    -2
100
AcDbLine
 10
248.7696380035551
 20
-56.3149954819108
 30
0.0
 11
248.7696380035551
 21
-27.50902024236474
 31
0.0
  0
LINE
  5
277
330
273
100
AcDbEntity
  8
치수문자_일반주서
 62
     0
370
    -2
100
AcDbLine
 10
115.419638003555
 20
-57.82312048191081
 30
0.0
 11
115.419638003555
 21
-27.50902024236474
 31
0.0
  0
LINE
  5
278
330
273
100
AcDbEntity
  8
치수문자_일반주서
 62
     0
370
    -2
100
AcDbLine
 10
245.4676380035551
 20
-27.50902024236474
 30
0.0
 11
118.721638003555
 21
-27.50902024236474
 31
0.0
  0
SOLID
  5
279
330
273
100
AcDbEntity
  8
치수문자_일반주서
 62
     0
100
AcDbTrace
 10
245.4676380035551
 20
-28.05935357569808
 30
0.0
 11
245.4676380035551
 21
-26.95868690903141
 31
0.0
 12
248.7696380035551
 22
-27.50902024236474
 32
0.0
 13
248.7696380035551
 23
-27.50902024236474
 33
0.0
  0
SOLID
  5
27A
330
273
100
AcDbEntity
  8
치수문자_일반주서
 62
     0
100
AcDbTrace
 10
118.721638003555
 20
-26.95868690903141
 30
0.0
 11
118.721638003555
 21
-28.05935357569808
 31
0.0
 12
115.419638003555
 22
-27.50902024236474
 32
0.0
 13
115.419638003555
 23
-27.50902024236474
 33
0.0
  0
MTEXT
  5
27B
330
273
100
AcDbEntity
  8
치수문자_일반주서
 62
     0
100
AcDbMText
 10
182.094638003555
 20
-23.13402024236474
 30
0.0
 40
3.5
 41
0.0
 71
     2
 72
     1
  1
\A1;133.35 [5 1/4]
  7
SLDTEXTSTYLE0
 73
     1
 44
1.0
  0
POINT
  5
27C
330
273
100
AcDbEntity
  8
Defpoints
 62
     0
100
AcDbPoint
 10
248.7696380035551
 20
-56.3774954819108
 30
0.0
  0
POINT
  5
27D
330
273
100
AcDbEntity
  8
Defpoints
 62
     0
100
AcDbPoint
 10
115.419638003555
 20
-57.88562048191081
 30
0.0
  0
POINT
  5
27E
330
273
100
AcDbEntity
  8
Defpoints
 62
     0
100
AcDbPoint
 10
115.419638003555
 20
-27.50902024236474
 30
0.0
  0
ENDBLK
  5
275
330
273
100
AcDbEntity
  8
0
100
AcDbBlockEnd
  0
BLOCK
  5
280
330
27F
100
AcDbEntity
  8
0
100
AcDbBlockBegin
  2
*D13
 70
     1
 10
0.0
 20
0.0
 30
0.0
  3
*D13
  1
*D14
  0
LINE
  5
282
330
27F
100
AcDbEntity
  8
치수문자_일반주서
 62
     0
370
    -2
100
AcDbLine
 10
117.262138003555
 20
-55.9806204819108
 30
0.0
 11
105.0713651657278
 21
-55.98062048191085
 31
0.0
  0
LINE
  5
283
330
27F
100
AcDbEntity
  8
치수문자_일반주서
 62
     0
370
    -2
100
AcDbLine
 10
117.262138003555
 20
-75.03062048191082
 30
0.0
 11
105.0713651657279
 21
-75.03062048191086
 31
0.0
  0
LINE
  5
284
330
27F
100
AcDbEntity
  8
치수문자_일반주서
 62
     0
370
    -2
100
AcDbLine
 10
105.0713651657278
 20
-59.28262048191085
 30
0.0
 11
105.0713651657279
 21
-71.72862048191087
 31
0.0
  0
SOLID
  5
285
330
27F
100
AcDbEntity
  8
치수문자_일반주서
 62
     0
100
AcDbTrace
 10
105.6216984990612
 20
-59.28262048191085
 30
0.0
 11
104.5210318323945
 21
-59.28262048191085
 31
0.0
 12
105.0713651657278
 22
-55.98062048191085
 32
0.0
 13
105.0713651657278
 23
-55.98062048191085
 33
0.0
  0
SOLID
  5
286
330
27F
100
AcDbEntity
  8
치수문자_일반주서
 62
     0
100
AcDbTrace
 10
104.5210318323945
 20
-71.72862048191087
 30
0.0
 11
105.6216984990612
 21
-71.72862048191087
 31
0.0
 12
105.0713651657279
 22
-75.03062048191086
 32
0.0
 13
105.0713651657279
 23
-75.03062048191086
 33
0.0
  0
MTEXT
  5
287
330
27F
100
AcDbEntity
  8
치수문자_일반주서
 62
     0
100
AcDbMText
 10
100.6963651657278
 20
-65.50562048191081
 30
0.0
 40
3.5
 41
0.0
 71
     2
 72
     1
  1
\A1;%%c19.05 [3/4]
  7
SLDTEXTSTYLE0
 11
-3.729883127349605E-15
 21
1.0
 31
0.0
 73
     1
 44
1.0
  0
POINT
  5
288
330
27F
100
AcDbEntity
  8
Defpoints
 62
     0
100
AcDbPoint
 10
117.324638003555
 20
-55.9806204819108
 30
0.0
  0
POINT
  5
289
330
27F
100
AcDbEntity
  8
Defpoints
 62
     0
100
AcDbPoint
 10
117.324638003555
 20
-75.03062048191082
 30
0.0
  0
POINT
  5
28A
330
27F
100
AcDbEntity
  8
Defpoints
 62
     0
100
AcDbPoint
 10
105.0713651657279
 20
-75.03062048191086
 30
0.0
  0
ENDBLK
  5
281
330
27F
100
AcDbEntity
  8
0
100
AcDbBlockEnd
  0
BLOCK
  5
28C
330
28B
100
AcDbEntity
  8
0
100
AcDbBlockBegin
  2
*D14
 70
     1
 10
0.0
 20
0.0
 30
0.0
  3
*D14
  1
*D15
  0
LINE
  5
28E
330
28B
100
AcDbEntity
  8
치수문자_일반주서
 62
     0
370
    -2
100
AcDbLine
 10
248.8321380035551
 20
-56.3774954819108
 30
0.0
 11
267.7635334202033
 21
-56.37749548191073
 31
0.0
  0
LINE
  5
28F
330
28B
100
AcDbEntity
  8
치수문자_일반주서
 62
     0
370
    -2
100
AcDbLine
 10
248.832138003555
 20
-74.6337454819108
 30
0.0
 11
267.7635334202033
 21
-74.63374548191072
 31
0.0
  0
LINE
  5
290
330
28B
100
AcDbEntity
  8
치수문자_일반주서
 62
     0
370
    -2
100
AcDbLine
 10
267.7635334202033
 20
-56.37749548191073
 30
0.0
 11
267.7635334202031
 21
-19.73549548191072
 31
0.0
  0
LINE
  5
291
330
28B
100
AcDbEntity
  8
치수문자_일반주서
 62
     0
370
    -2
100
AcDbLine
 10
267.7635334202033
 20
-59.67949548191073
 30
0.0
 11
267.7635334202033
 21
-71.33174548191073
 31
0.0
  0
SOLID
  5
292
330
28B
100
AcDbEntity
  8
치수문자_일반주서
 62
     0
100
AcDbTrace
 10
268.3138667535366
 20
-59.67949548191073
 30
0.0
 11
267.2132000868699
 21
-59.67949548191073
 31
0.0
 12
267.7635334202033
 22
-56.37749548191073
 32
0.0
 13
267.7635334202033
 23
-56.37749548191073
 33
0.0
  0
SOLID
  5
293
330
28B
100
AcDbEntity
  8
치수문자_일반주서
 62
     0
100
AcDbTrace
 10
267.21320008687
 20
-71.33174548191073
 30
0.0
 11
268.3138667535367
 21
-71.33174548191073
 31
0.0
 12
267.7635334202033
 22
-74.63374548191072
 32
0.0
 13
267.7635334202033
 23
-74.63374548191072
 33
0.0
  0
MTEXT
  5
294
330
28B
100
AcDbEntity
  8
치수문자_일반주서
 62
     0
100
AcDbMText
 10
263.3885334202032
 20
-36.36049548191074
 30
0.0
 40
3.5
 41
0.0
 71
     2
 72
     1
  1
\A1;%%c18.26 [23/32]
  7
SLDTEXTSTYLE0
 11
-3.113641567178803E-15
 21
1.0
 31
0.0
 73
     1
 44
1.0
  0
POINT
  5
295
330
28B
100
AcDbEntity
  8
Defpoints
 62
     0
100
AcDbPoint
 10
248.7696380035551
 20
-56.3774954819108
 30
0.0
  0
POINT
  5
296
330
28B
100
AcDbEntity
  8
Defpoints
 62
     0
100
AcDbPoint
 10
248.769638003555
 20
-74.6337454819108
 30
0.0
  0
POINT
  5
297
330
28B
100
AcDbEntity
  8
Defpoints
 62
     0
100
AcDbPoint
 10
267.7635334202033
 20
-74.63374548191072
 30
0.0
  0
ENDBLK
  5
28D
330
28B
100
AcDbEntity
  8
0
100
AcDbBlockEnd
  0
ENDSEC
  0
SECTION
  2
ENTITIES
  0
LINE
  5
96
330
1F
100
AcDbEntity
  8
외형선
  6
Continuous
370
    15
100
AcDbLine
 10
21.17708197368426
 20
-9.523925071276107
 30
0.0
 11
21.30560364977728
 21
-9.523925071276107
 31
0.0
  0
LINE
  5
97
330
1F
100
AcDbEntity
  8
외형선
  6
Continuous
370
    15
100
AcDbLine
 10
-33.93939635022272
 20
-9.523925071276107
 30
0.0
 11
20.80576336080074
 21
-9.523925071276107
 31
0.0
  0
LINE
  5
98
330
1F
100
AcDbEntity
  8
외형선
  6
Continuous
370
    15
100
AcDbLine
 10
20.80576336080074
 20
9.526074928723894
 30
0.0
 11
-2.351321350222683
 21
9.526074928723894
 31
0.0
  0
LINE
  5
99
330
1F
100
AcDbEntity
  8
외형선
  6
Continuous
370
    15
100
AcDbLine
 10
21.30560364977728
 20
9.526074928723894
 30
0.0
 11
21.17708197368414
 21
9.526074928723894
 31
0.0
  0
LINE
  5
9A
330
1F
100
AcDbEntity
  8
외형선
  6
Continuous
370
    15
100
AcDbLine
 10
-33.93939635022272
 20
9.526074928723894
 30
0.0
 11
-35.84439635022271
 21
7.621074928723899
 31
0.0
  0
LINE
  5
9B
330
1F
100
AcDbEntity
  8
외형선
  6
Continuous
370
    15
100
AcDbLine
 10
-35.84439635022271
 20
-7.618925071276112
 30
0.0
 11
-33.93939635022272
 21
-9.523925071276107
 31
0.0
  0
LINE
  5
9C
330
1F
100
AcDbEntity
  8
0
  6
Continuous
 62
     1
370
    15
100
AcDbLine
 10
73.00601741839897
 20
-9.523925071276112
 30
0.0
 11
78.81374448736739
 21
-9.523925071276112
 31
0.0
  0
LINE
  5
9D
330
1F
100
AcDbEntity
  8
0
  6
Continuous
 62
     1
370
    15
100
AcDbLine
 10
26.98509303521715
 20
9.526074928723899
 30
0.0
 11
21.30560364977728
 21
9.526074928723899
 31
0.0
  0
LINE
  5
9E
330
1F
100
AcDbEntity
  8
0
  6
Continuous
 62
     1
370
    15
100
AcDbLine
 10
47.08979595526762
 20
-9.523925071276112
 30
0.0
 11
52.89818336950896
 21
-9.523925071276112
 31
0.0
  0
LINE
  5
9F
330
1F
100
AcDbEntity
  8
0
  6
Continuous
 62
     1
370
    15
100
AcDbLine
 10
52.89818336950902
 20
9.526074928723899
 30
0.0
 11
47.08979595526765
 21
9.526074928723899
 31
0.0
  0
LINE
  5
A0
330
1F
100
AcDbEntity
  8
0
  6
Continuous
 62
     1
370
    15
100
AcDbLine
 10
83.73846810900389
 20
-2.800995112932951
 30
0.0
 11
83.84071778841412
 21
-2.856430341540831
 31
0.0
  0
LINE
  5
A1
330
1F
100
AcDbEntity
  8
0
  6
Continuous
 62
     1
370
    15
100
AcDbLine
 10
21.30560364977728
 20
-9.523925071276112
 30
0.0
 11
26.98509303521715
 21
-9.523925071276112
 31
0.0
  0
LINE
  5
A2
330
1F
100
AcDbEntity
  8
0
  6
Continuous
 62
     1
370
    15
100
AcDbLine
 10
78.81374448736742
 20
9.526074928723899
 30
0.0
 11
73.00601741839903
 21
9.526074928723899
 31
0.0
  0
SPLINE
  5
A3
330
1F
100
AcDbEntity
  8
외형선
  6
Continuous
370
    15
100
AcDbSpline
210
0.0
220
0.0
230
1.0
 70
     8
 71
     3
 72
     8
 73
     4
 74
     0
 42
0.000000001
 43
0.00000001
 40
0.0
 40
0.0
 40
0.0
 40
0.0
 40
1.0
 40
1.0
 40
1.0
 40
1.0
 10
21.30560364977729
 20
-8.965171938535203
 30
0.0
 10
21.13925315561364
 20
-8.93267201020986
 30
0.0
 10
20.97265449736377
 20
-8.898780980525364
 30
0.0
 10
20.80576336080075
 20
-8.863507042230271
 30
0.0
  0
SPLINE
  5
A4
330
1F
100
AcDbEntity
  8
외형선
  6
Continuous
370
    15
100
AcDbSpline
210
0.0
220
0.0
230
1.0
 70
     8
 71
     3
 72
     8
 73
     4
 74
     0
 42
0.000000001
 43
0.00000001
 40
0.0
 40
0.0
 40
0.0
 40
0.0
 40
1.0
 40
1.0
 40
1.0
 40
1.0
 10
21.30560364977728
 20
-0.0732537864781337
 30
0.0
 10
21.13925315561363
 20
0.0230494937395969
 30
0.0
 10
20.97265449736375
 20
0.1194120171246707
 30
0.0
 10
20.80576336080073
 20
0.2157978414662634
 30
0.0
  0
SPLINE
  5
A5
330
1F
100
AcDbEntity
  8
외형선
  6
Continuous
370
    15
100
AcDbSpline
210
0.0
220
0.0
230
1.0
 70
    24
 71
     3
 72
    20
 73
    16
 74
     0
 42
0.000000001
 43
0.00000001
 40
0.0
 40
0.0
 40
0.0
 40
0.0
 40
0.0977721734165964
 40
0.1752816036844527
 40
0.2527910339523091
 40
0.3303004642201658
 40
0.4078098944880224
 40
0.4853193247558788
 40
0.5628287550237352
 40
0.6403381852915916
 40
0.7178476155594481
 40
0.7953570458273042
 40
0.8728664760951603
 40
0.9503759063630174
 40
1.0
 40
1.0
 40
1.0
 40
1.0
 10
21.30560364977729
 20
-8.965171938535203
 30
0.0
 10
21.3056036497773
 20
-8.62708322132129
 30
0.0
 10
21.3056036497773
 20
-8.02097280697701
 30
0.0
 10
21.30560364977725
 20
-7.026657711270892
 30
0.0
 10
21.30560364977724
 20
-6.077253989360147
 30
0.0
 10
21.30560364977728
 20
-5.109492533611321
 30
0.0
 10
21.3056036497773
 20
-4.153436183656432
 30
0.0
 10
21.3056036497773
 20
-3.236574104756643
 30
0.0
 10
21.3056036497773
 20
-2.383031371818413
 30
0.0
 10
21.30560364977727
 20
-1.619986944771078
 30
0.0
 10
21.30560364977718
 20
-0.9656140303908737
 30
0.0
 10
21.30560364977728
 20
-0.4411627626816255
 30
0.0
 10
21.30560364977732
 20
-0.0643173694376936
 30
0.0
 10
21.30560364977731
 20
0.1502514822725987
 30
0.0
 10
21.30560364977728
 20
0.1711393701777731
 30
0.0
 10
21.30560364977729
 20
0.1792925501844961
 30
0.0
  0
LINE
  5
A6
330
1F
100
AcDbEntity
  8
외형선
  6
Continuous
370
    15
100
AcDbLine
 10
20.80576336080074
 20
-9.523925071276107
 30
0.0
 11
20.80576336080074
 21
-9.52150306190868
 31
0.0
  0
SPLINE
  5
A7
330
1F
100
AcDbEntity
  8
외형선
  6
Continuous
370
    15
100
AcDbSpline
210
0.0
220
0.0
230
1.0
 70
     8
 71
     3
 72
     8
 73
     4
 74
     0
 42
0.000000001
 43
0.00000001
 40
0.0
 40
0.0
 40
0.0
 40
0.0
 40
1.0
 40
1.0
 40
1.0
 40
1.0
 10
21.30560364977728
 20
9.525784910770403
 30
0.0
 10
21.13925315561363
 20
9.526536440118992
 30
0.0
 10
20.97265449736375
 20
9.525827748836939
 30
0.0
 10
20.80576336080073
 20
9.523654362403793
 30
0.0
  0
LINE
  5
A8
330
1F
100
AcDbEntity
  8
외형선
  6
Continuous
370
    15
100
AcDbLine
 10
20.80576336080073
 20
3.485949390658466
 30
0.0
 11
20.80576336080074
 21
9.526074928723894
 31
0.0
  0
SPLINE
  5
A9
330
1F
100
AcDbEntity
  8
외형선
  6
Continuous
370
    15
100
AcDbSpline
210
0.0
220
0.0
230
1.0
 70
     8
 71
     3
 72
     8
 73
     4
 74
     0
 42
0.000000001
 43
0.00000001
 40
0.0
 40
0.0
 40
0.0
 40
0.0
 40
1.0
 40
1.0
 40
1.0
 40
1.0
 10
21.30560364977729
 20
3.215424336514952
 30
0.0
 10
21.13925315561364
 20
3.306081058471484
 30
0.0
 10
20.97265449736377
 20
3.396289906504238
 30
0.0
 10
20.80576336080075
 20
3.486015599701617
 30
0.0
  0
LINE
  5
AA
330
1F
100
AcDbEntity
  8
외형선
  6
Continuous
370
    15
100
AcDbLine
 10
20.80576336080073
 20
-8.863533070762404
 30
0.0
 11
20.80576336080074
 21
0.2158618285108376
 31
0.0
  0
LINE
  5
AB
330
1F
100
AcDbEntity
  8
외형선
  6
Continuous
370
    15
100
AcDbLine
 10
21.17708197368426
 20
-9.523087235043233
 30
0.0
 11
20.80576336080073
 21
-9.521504504956004
 31
0.0
  0
LINE
  5
AC
330
1F
100
AcDbEntity
  8
외형선
  6
Continuous
370
    15
100
AcDbLine
 10
-33.93939635022272
 20
0.0010749287238931
 30
0.0
 11
-33.93939635022272
 21
9.526074928723894
 31
0.0
  0
LINE
  5
AD
330
1F
100
AcDbEntity
  8
외형선
  6
Continuous
370
    15
100
AcDbLine
 10
-33.93939635022272
 20
-9.523925071276107
 30
0.0
 11
-33.93939635022272
 21
0.0010749287238931
 31
0.0
  0
LINE
  5
AE
330
1F
100
AcDbEntity
  8
외형선
  6
Continuous
370
    15
100
AcDbLine
 10
21.30560364977728
 20
-9.523925071276107
 30
0.0
 11
21.30560364977729
 21
-8.965171938535203
 31
0.0
  0
LINE
  5
AF
330
1F
100
AcDbEntity
  8
외형선
  6
Continuous
370
    15
100
AcDbLine
 10
21.30560364977729
 20
-0.0732537864781259
 30
0.0
 11
21.30560364977729
 21
3.215424336514951
 31
0.0
  0
LINE
  5
B0
330
1F
100
AcDbEntity
  8
외형선
  6
Continuous
370
    15
100
AcDbLine
 10
21.30560364977729
 20
9.525784910770401
 30
0.0
 11
21.30560364977728
 21
9.526074928723894
 31
0.0
  0
LINE
  5
B1
330
1F
100
AcDbEntity
  8
외형선
  6
Continuous
370
    15
100
AcDbLine
 10
-35.84439635022271
 20
0.0010749287238931
 30
0.0
 11
-35.84439635022271
 21
7.621074928723905
 31
0.0
  0
LINE
  5
B2
330
1F
100
AcDbEntity
  8
외형선
  6
Continuous
370
    15
100
AcDbLine
 10
-35.84439635022271
 20
-7.618925071276128
 30
0.0
 11
-35.84439635022271
 21
0.0010749287238931
 31
0.0
  0
SPLINE
  5
B3
330
1F
100
AcDbEntity
  8
외형선
  6
Continuous
370
    15
100
AcDbSpline
210
0.0
220
0.0
230
1.0
 70
    24
 71
     3
 72
    15
 73
    11
 74
     0
 42
0.000000001
 43
0.00000001
 40
0.0
 40
0.0
 40
0.0
 40
0.0
 40
0.058797439781257
 40
0.1999344171217227
 40
0.3370937641077584
 40
0.4782307414482231
 40
0.6153900884342605
 40
0.7565270657747278
 40
0.8769339243677754
 40
1.0
 40
1.0
 40
1.0
 40
1.0
 10
21.30560364977728
 20
3.308418914828301
 30
0.0
 10
21.30560364977729
 20
3.389267962195179
 30
0.0
 10
21.30560364977727
 20
3.664186516817281
 30
0.0
 10
21.3056036497772
 20
4.257750104824498
 30
0.0
 10
21.30560364977724
 20
5.067906838424248
 30
0.0
 10
21.30560364977737
 20
5.954412911892838
 30
0.0
 10
21.30560364977723
 20
6.89891261637708
 30
0.0
 10
21.30560364977731
 20
7.820503913474931
 30
0.0
 10
21.30560364977724
 20
8.709270793978783
 30
0.0
 10
21.30560364977726
 20
9.25163895263371
 30
0.0
 10
21.30560364977729
 20
9.525784910770401
 30
0.0
  0
SPLINE
  5
B4
330
1F
100
AcDbEntity
  8
0
  6
Continuous
 62
     1
370
    15
100
AcDbSpline
210
0.0
220
0.0
230
1.0
 70
     8
 71
     3
 72
    21
 73
    17
 74
     0
 42
0.000000001
 43
0.00000001
 40
0.0
 40
0.0
 40
0.0
 40
0.0
 40
0.0747243165161586
 40
0.1494492736945361
 40
0.2241748435962657
 40
0.2989009982389296
 40
0.3736277095985256
 40
0.4483549496114368
 40
0.5250852375338583
 40
0.6018178561442928
 40
0.6785524558054192
 40
0.7552886861213045
 40
0.8320261960711111
 40
0.9087646341433152
 40
0.9855036484703293
 40
1.0
 40
1.0
 40
1.0
 40
1.0
 10
21.30560364977723
 20
3.215424336514986
 30
0.0
 10
22.34297456007467
 20
2.640565507088815
 30
0.0
 10
24.41772527475354
 20
1.490842919582049
 30
0.0
 10
27.52987100955299
 20
-0.3171589848028958
 30
0.0
 10
30.64204739703039
 20
-2.105687117898928
 30
0.0
 10
33.75425147127317
 20
-3.821658587363243
 30
0.0
 10
36.86648944912151
 20
-5.401408428981101
 30
0.0
 10
40.00653174473423
 20
-6.802000439626452
 30
0.0
 10
43.17451354472007
 20
-7.966487167707972
 30
0.0
 10
46.37036381718268
 20
-8.842994320754885
 30
0.0
 10
49.56631824145612
 20
-9.389156266247744
 30
0.0
 10
52.7623527723304
 20
-9.582224056833308
 30
0.0
 10
55.95845160131413
 20
-9.423551405874381
 30
0.0
 10
59.15459677788021
 20
-8.887035844662002
 30
0.0
 10
61.48663213597148
 20
-8.32175725574641
 30
0.0
 10
62.75328327044258
 20
-7.860324572690385
 30
0.0
 10
62.95454097285144
 20
-7.787007714495648
 30
0.0
  0
SPLINE
  5
B5
330
1F
100
AcDbEntity
  8
0
  6
Continuous
 62
     1
370
    15
100
AcDbSpline
210
0.0
220
0.0
230
1.0
 70
     8
 71
     3
 72
    24
 73
    20
 74
     0
 42
0.000000001
 43
0.00000001
 40
0.0
 40
0.0
 40
0.0
 40
0.0
 40
0.0206323201785253
 40
0.082451896683348
 40
0.1442718599777215
 40
0.2060919263941177
 40
0.2679118122254268
 40
0.3297312338338512
 40
0.3915499077597424
 40
0.4533675508302911
 40
0.5151838802679767
 40
0.5769986137986964
 40
0.6388114697594708
 40
0.6990106980998425
 40
0.7592095005644338
 40
0.8194078545455841
 40
0.8796057374675462
 40
0.9398031267880727
 40
1.0
 40
1.0
 40
1.0
 40
1.0
 10
73.00601741839897
 20
-9.48422465285411
 30
0.0
 10
72.65044494639162
 20
-9.495176071735843
 30
0.0
 10
71.22948867624281
 20
-9.538940672631893
 30
0.0
 10
68.7431342199859
 20
-9.249929388159135
 30
0.0
 10
65.54695592258327
 20
-8.62469439656036
 30
0.0
 10
62.3507706588831
 20
-7.652011438594352
 30
0.0
 10
59.15459674338211
 20
-6.399654033537308
 30
0.0
 10
55.95845161055771
 20
-4.906068682262818
 30
0.0
 10
52.76235276985362
 20
-3.229389525940175
 30
0.0
 10
49.56631824211973
 20
-1.431743093108906
 30
0.0
 10
46.37036381700482
 20
0.4194537029858493
 30
0.0
 10
43.17451354476776
 20
2.254991329993055
 30
0.0
 10
40.00653174472185
 20
3.990965447073047
 30
0.0
 10
36.86648944912479
 20
5.56644503025905
 30
0.0
 10
33.75425147127233
 20
6.930053208135264
 30
0.0
 10
30.64204739703069
 20
8.04952782039586
 30
0.0
 10
27.52987100955306
 20
8.87691389561331
 30
0.0
 10
24.41772527475367
 20
9.413620326169953
 30
0.0
 10
22.34297456007477
 20
9.48839682275473
 30
0.0
 10
21.30560364977733
 20
9.525784910770408
 30
0.0
  0
SPLINE
  5
B6
330
1F
100
AcDbEntity
  8
외형선
  6
Continuous
370
    15
100
AcDbSpline
210
0.0
220
0.0
230
1.0
 70
    24
 71
     3
 72
    15
 73
    11
 74
     0
 42
0.000000001
 43
0.00000001
 40
0.0
 40
0.0
 40
0.0
 40
0.0
 40
0.142292557649996
 40
0.2890246103184819
 40
0.4264673770111214
 40
0.5678959932488812
 40
0.7053387599415213
 40
0.8467673761792822
 40
0.9842101428719241
 40
1.0
 40
1.0
 40
1.0
 40
1.0
 10
21.30560364977726
 20
9.525784910771002
 30
0.0
 10
21.30560364977728
 20
9.208700530209901
 30
0.0
 10
21.30560364977726
 20
8.564638809461481
 30
0.0
 10
21.30560364977728
 20
7.576046787212972
 30
0.0
 10
21.30560364977728
 20
6.599612723532881
 30
0.0
 10
21.30560364977721
 20
5.677060453442087
 30
0.0
 10
21.30560364977738
 20
4.80240824059795
 30
0.0
 10
21.3056036497772
 20
4.032959290377394
 30
0.0
 10
21.30560364977737
 20
3.527942939184856
 30
0.0
 10
21.30560364977729
 20
3.328917493686468
 30
0.0
 10
21.30560364977729
 20
3.3084089148283
 30
0.0
  0
SPLINE
  5
B7
330
1F
100
AcDbEntity
  8
0
  6
Continuous
 62
     1
370
    15
100
AcDbSpline
210
0.0
220
0.0
230
1.0
 70
     8
 71
     3
 72
    28
 73
    24
 74
     0
 42
0.000000001
 43
0.00000001
 40
0.0
 40
0.0
 40
0.0
 40
0.0
 40
0.0088032654572225
 40
0.0590946811182426
 40
0.1093864903185752
 40
0.1596786741976514
 40
0.2099712138682412
 40
0.2616118344586366
 40
0.3132540236365957
 40
0.3648975460910212
 40
0.4165421660002588
 40
0.4681876471220844
 40
0.5198337528840342
 40
0.5714802464740089
 40
0.6231268909310779
 40
0.6747734492364045
 40
0.7264196844042196
 40
0.7780653595727681
 40
0.8297102380951521
 40
0.8813540836299986
 40
0.9329966602318719
 40
0.9846377324413592
 40
1.0
 40
1.0
 40
1.0
 40
1.0
 10
26.98509303521717
 20
9.501640778712556
 30
0.0
 10
27.16668312201538
 20
9.50936040564725
 30
0.0
 10
28.38566354759967
 20
9.561180823226886
 30
0.0
 10
30.64204772263982
 20
9.32894714972719
 30
0.0
 10
33.75425138402995
 20
8.79234014022302
 30
0.0
 10
36.86648947248157
 20
7.913049480611802
 30
0.0
 10
40.00653173827408
 20
6.750973883507138
 30
0.0
 10
43.17451354652358
 20
5.328814173102092
 30
0.0
 10
46.37036381650152
 20
3.69550215798293
 30
0.0
 10
49.56631824237717
 20
1.923799507710691
 30
0.0
 10
52.76235276932732
 20
0.0801989668649692
 30
0.0
 10
55.95845161240563
 20
-1.766386354819446
 30
0.0
 10
59.15459673651669
 20
-3.546855455486695
 30
0.0
 10
62.35077068449721
 20
-5.194602547289985
 30
0.0
 10
65.5469558269924
 20
-6.647969176346661
 30
0.0
 10
68.7431345767335
 20
-7.852618438887049
 30
0.0
 10
71.93928932355918
 20
-8.763343755386499
 30
0.0
 10
75.13540252206195
 20
-9.346593917851186
 30
0.0
 10
78.33145644799072
 20
-9.578620651149897
 30
0.0
 10
81.52743412692334
 20
-9.45796498316761
 30
0.0
 10
84.72331590515101
 20
-8.962228273746678
 30
0.0
 10
87.17076309529507
 20
-8.386478248636138
 30
0.0
 10
88.552906224822
 20
-7.892168718056872
 30
0.0
 10
88.86979867575964
 20
-7.778835333604343
 30
0.0
  0
SPLINE
  5
B8
330
1F
100
AcDbEntity
  8
0
  6
Continuous
 62
     1
370
    15
100
AcDbSpline
210
0.0
220
0.0
230
1.0
 70
     8
 71
     3
 72
    26
 73
    22
 74
     0
 42
0.000000001
 43
0.00000001
 40
0.0
 40
0.0
 40
0.0
 40
0.0
 40
0.0528455750297304
 40
0.1056934087547065
 40
0.1585432622368828
 40
0.2113948957669625
 40
0.26424806895514
 40
0.3171025408224044
 40
0.3699580698923262
 40
0.4228144142832574
 40
0.4756713318008643
 40
0.5285285800309175
 40
0.581385916432268
 40
0.634243098429923
 40
0.6870998835081537
 40
0.7399560293035515
 40
0.7928112936979614
 40
0.8456654349112074
 40
0.8985182115935453
 40
0.9513693829177531
 40
1.0
 40
1.0
 40
1.0
 40
1.0
 10
97.50560364977729
 20
-9.523925071276095
 30
0.0
 10
96.44049353036199
 20
-9.401830955635997
 30
0.0
 10
94.31022776720593
 20
-9.227693634382003
 30
0.0
 10
91.11473028924385
 20
-8.526169825240343
 30
0.0
 10
87.91908846317625
 20
-7.531150366451106
 30
0.0
 10
84.72331692757932
 20
-6.24752705871409
 30
0.0
 10
81.52743385295379
 20
-4.731969583063207
 30
0.0
 10
78.33145652140301
 20
-3.03884817144441
 30
0.0
 10
75.13540250239043
 20
-1.232122084139185
 30
0.0
 10
71.93928932883104
 20
0.6207845816914047
 30
0.0
 10
68.7431345753181
 20
2.450506130743517
 30
0.0
 10
65.54695582738194
 20
4.188600532391682
 30
0.0
 10
62.3507706843545
 20
5.770034459111843
 30
0.0
 10
59.1545967366979
 20
7.135654511740204
 30
0.0
 10
55.95845161182334
 20
8.234329063020214
 30
0.0
 10
52.76235277147516
 20
9.025112998528828
 30
0.0
 10
49.5663182343682
 20
9.477847293149331
 30
0.0
 10
46.37036384638846
 20
9.577766299452943
 30
0.0
 10
43.17451343498906
 20
9.31306653333453
 30
0.0
 10
40.06379191637241
 20
8.739478183698411
 30
0.0
 10
38.01841158416143
 20
8.10729229605008
 30
0.0
 10
37.03825436299657
 20
7.804345429328611
 30
0.0
  0
SPLINE
  5
B9
330
1F
100
AcDbEntity
  8
0
  6
Continuous
 62
     1
370
    15
100
AcDbSpline
210
0.0
220
0.0
230
1.0
 70
     8
 71
     3
 72
    10
 73
     6
 74
     0
 42
0.000000001
 43
0.00000001
 40
0.0
 40
0.0
 40
0.0
 40
0.0
 40
0.3700129622787494
 40
0.7400417394392238
 40
1.0
 40
1.0
 40
1.0
 40
1.0
 10
97.50560364977729
 20
9.526074928723906
 30
0.0
 10
96.44049337489751
 20
9.401942109661993
 30
0.0
 10
94.31022730080574
 20
9.223727294427324
 30
0.0
 10
91.431622393155
 20
8.619321848905692
 30
0.0
 10
89.61812246456219
 20
8.025868263933852
 30
0.0
 10
88.86979867575964
 20
7.78098519105213
 30
0.0
  0
SPLINE
  5
BA
330
1F
100
AcDbEntity
  8
0
  6
Continuous
 62
     1
370
    15
100
AcDbSpline
210
0.0
220
0.0
230
1.0
 70
     8
 71
     3
 72
    16
 73
    12
 74
     0
 42
0.000000001
 43
0.00000001
 40
0.0
 40
0.0
 40
0.0
 40
0.0
 40
0.0279022567905728
 40
0.1518460790288243
 40
0.2757861365789138
 40
0.3964907328802297
 40
0.5171944752642189
 40
0.6378973184005897
 40
0.7585992170230408
 40
0.8793001259324393
 40
0.9999999999999999
 40
0.9999999999999999
 40
0.9999999999999999
 40
0.9999999999999999
 10
47.08979595526762
 20
-9.492796042335547
 30
0.0
 10
46.84997715778199
 20
-9.50232808518147
 30
0.0
 10
45.54486609279082
 20
-9.554202144765668
 30
0.0
 10
43.17451448195396
 20
-9.296274406789339
 30
0.0
 10
40.00653150089399
 20
-8.716889782198972
 30
0.0
 10
36.8664895137258
 20
-7.797371481544535
 30
0.0
 10
33.75425145396317
 20
-6.616935451168155
 30
0.0
 10
30.64204740166702
 20
-5.199634436100783
 30
0.0
 10
27.52987100831672
 20
-3.598298725699137
 30
0.0
 10
24.41772527506274
 20
-1.869295210622697
 30
0.0
 10
22.34297456017781
 20
-0.6719325502333906
 30
0.0
 10
21.30560364977733
 20
-0.0732537864781682
 30
0.0
  0
LINE
  5
BB
330
1F
100
AcDbEntity
  8
0
  6
Continuous
 62
     1
370
    15
100
AcDbLine
 10
97.50560364977729
 20
-9.523925071276095
 30
0.0
 11
97.50560364977729
 21
-8.62553992293709
 31
0.0
  0
SPLINE
  5
BC
330
1F
100
AcDbEntity
  8
0
  6
Continuous
 62
     1
370
    15
100
AcDbSpline
210
0.0
220
0.0
230
1.0
 70
     8
 71
     3
 72
    21
 73
    17
 74
     0
 42
0.000000001
 43
0.00000001
 40
0.0
 40
0.0
 40
0.0
 40
0.0
 40
0.0686036478177718
 40
0.1402535170603418
 40
0.2119039243459423
 40
0.2835545409330465
 40
0.355205037999792
 40
0.4268550867701926
 40
0.4985043586403094
 40
0.5701525253042797
 40
0.6417992588801034
 40
0.7134442320350731
 40
0.7850871181107529
 40
0.8567275912474084
 40
0.9283653265077598
 40
1.0
 40
1.0
 40
1.0
 40
1.0
 10
52.89818336950905
 20
9.518821270088456
 30
0.0
 10
53.91826836089462
 20
9.490166089563916
 30
0.0
 10
56.00373338051467
 20
9.431583346832204
 30
0.0
 10
59.15459687951197
 20
8.900240680103694
 30
0.0
 10
62.35077064608733
 20
8.056703647849568
 30
0.0
 10
65.54695583763561
 20
6.904197481699521
 30
0.0
 10
68.74313457257068
 20
5.49547711602074
 30
0.0
 10
71.9392893295672
 20
3.880667975008609
 30
0.0
 10
75.1354025021932
 20
2.120866760881015
 30
0.0
 10
78.3314565214559
 20
0.2817681701924912
 30
0.0
 10
81.52743385293967
 20
-1.567925035620385
 30
0.0
 10
84.7233169275831
 20
-3.358462773243889
 30
0.0
 10
87.9190884631753
 20
-5.024969278626612
 30
0.0
 10
91.11473028924416
 20
-6.497236883053575
 30
0.0
 10
94.3102277672059
 20
-7.749575033716241
 30
0.0
 10
96.44049353036202
 20
-8.333555786469613
 30
0.0
 10
97.50560364977729
 20
-8.625539922937088
 30
0.0
  0
LINE
  5
BD
330
1F
100
AcDbEntity
  8
0
  6
Continuous
 62
     1
370
    15
100
AcDbLine
 10
97.50560364977729
 20
-8.62553992293709
 30
0.0
 11
97.50560364977729
 21
0.8171897803849878
 31
0.0
  0
SPLINE
  5
BE
330
1F
100
AcDbEntity
  8
0
  6
Continuous
 62
     1
370
    15
100
AcDbSpline
210
0.0
220
0.0
230
1.0
 70
     8
 71
     3
 72
    18
 73
    14
 74
     0
 42
0.000000001
 43
0.00000001
 40
0.0
 40
0.0
 40
0.0
 40
0.0
 40
0.0924842263554999
 40
0.1849724056187366
 40
0.2774641196279186
 40
0.369958948871501
 40
0.4624564726469896
 40
0.5549562692207316
 40
0.6474579159885498
 40
0.7399609896371003
 40
0.8324650663058122
 40
0.9249697217492793
 40
1.0
 40
1.0
 40
1.0
 40
1.0
 10
97.50560364977731
 20
0.8171897803849869
 30
0.0
 10
96.44049353036222
 20
1.426982673770203
 30
0.0
 10
94.31022776720643
 20
2.646594523958592
 30
0.0
 10
91.11473028924192
 20
4.368852957026622
 30
0.0
 10
87.91908846318343
 20
5.929948156253509
 30
0.0
 10
84.72331692755247
 20
7.268704917362998
 30
0.0
 10
81.52743385305388
 20
8.335721156241169
 30
0.0
 10
78.3314565210296
 20
9.091081999064667
 30
0.0
 10
75.13540250378406
 20
9.505783078844498
 30
0.0
 10
71.93928932362985
 20
9.56723798991826
 30
0.0
 10
68.74313459472951
 20
9.262136168140648
 30
0.0
 10
65.74821342128585
 20
8.681963903871491
 30
0.0
 10
63.81867981397688
 20
8.065320451902418
 30
0.0
 10
62.95454097285154
 20
7.789157571943431
 30
0.0
  0
LINE
  5
BF
330
1F
100
AcDbEntity
  8
0
  6
Continuous
 62
     1
370
    15
100
AcDbLine
 10
97.50560364977729
 20
4.015685954242249
 30
0.0
 11
97.50560364977729
 21
9.526074928723906
 31
0.0
  0
SPLINE
  5
C0
330
1F
100
AcDbEntity
  8
0
  6
Continuous
 62
     1
370
    15
100
AcDbSpline
210
0.0
220
0.0
230
1.0
 70
     8
 71
     3
 72
    13
 73
     9
 74
     0
 42
0.000000001
 43
0.00000001
 40
0.0
 40
0.0
 40
0.0
 40
0.0
 40
0.1978130865255468
 40
0.3956278690367794
 40
0.5934442735728482
 40
0.7912622260576239
 40
0.9890816523048886
 40
1.0
 40
1.0
 40
1.0
 40
1.0
 10
21.3056036497773
 20
-8.965171938535207
 30
0.0
 10
22.34297455220709
 20
-9.13661303480206
 30
0.0
 10
24.41772525115069
 20
-9.47949669721651
 30
0.0
 10
27.52987110396584
 20
-9.570184058338917
 30
0.0
 10
30.6420470429781
 20
-9.352059239596462
 30
0.0
 10
33.75425279308369
 20
-8.766070841429286
 30
0.0
 10
35.88632480655065
 20
-8.229013044596504
 30
0.0
 10
36.98099592046472
 20
-7.823411195350448
 30
0.0
 10
37.03825436299658
 20
-7.802195571880825
 30
0.0
  0
SPLINE
  5
C1
330
1F
100
AcDbEntity
  8
0
  6
Continuous
 62
     1
370
    15
100
AcDbSpline
210
0.0
220
0.0
230
1.0
 70
     8
 71
     3
 72
    13
 73
     9
 74
     0
 42
0.000000001
 43
0.00000001
 40
0.0
 40
0.0
 40
0.0
 40
0.0
 40
0.1451792614948814
 40
0.3161549235525188
 40
0.4871256049430184
 40
0.6580905280251674
 40
0.8290489173591261
 40
1.0
 40
1.0
 40
1.0
 40
1.0
 10
78.81374448736742
 20
9.503219842268377
 30
0.0
 10
79.71831629514062
 20
9.487620824557162
 30
0.0
 10
81.68819014481835
 20
9.45365105366011
 30
0.0
 10
84.72331669952312
 20
8.971481618607669
 30
0.0
 10
87.91908852425983
 20
8.165102024428478
 30
0.0
 10
91.11473027295582
 20
7.040765106466251
 30
0.0
 10
94.31022777127777
 20
5.666548780262923
 30
0.0
 10
96.4404935317193
 20
4.581698583534235
 30
0.0
 10
97.50560364977731
 20
4.039285076933324
 30
0.0
  0
SPLINE
  5
C2
330
1F
100
AcDbEntity
  8
외형선
  6
Continuous
370
    15
100
AcDbSpline
210
0.0
220
0.0
230
1.0
 70
    24
 71
     3
 72
    21
 73
    17
 74
     0
 42
0.000000001
 43
0.00000001
 40
0.0
 40
0.0
 40
0.0
 40
0.0
 40
0.0233084282432222
 40
0.0987946221516864
 40
0.1742808160601506
 40
0.2497670099686152
 40
0.3252532038770797
 40
0.4007393977855455
 40
0.4762255916940111
 40
0.5517117856024759
 40
0.6271979795109406
 40
0.7026841734194058
 40
0.7781703673278711
 40
0.8536565612363363
 40
0.9291427551448014
 40
1.0
 40
1.0
 40
1.0
 40
1.0
 10
21.30560364977729
 20
0.1844524464827653
 30
0.0
 10
21.3056036497773
 20
0.1912906944457418
 30
0.0
 10
21.30560364977729
 20
0.2202751509106796
 30
0.0
 10
21.30560364977727
 20
0.1006025401540441
 30
0.0
 10
21.30560364977724
 20
-0.1648148339910046
 30
0.0
 10
21.30560364977727
 20
-0.5974870918498442
 30
0.0
 10
21.30560364977726
 20
-1.1634687236645
 30
0.0
 10
21.30560364977726
 20
-1.856305548723923
 30
0.0
 10
21.30560364977723
 20
-2.650529019139053
 30
0.0
 10
21.30560364977726
 20
-3.527693346298902
 30
0.0
 10
21.30560364977728
 20
-4.460028142368828
 30
0.0
 10
21.30560364977726
 20
-5.422702682245899
 30
0.0
 10
21.30560364977724
 20
-6.388317631439945
 30
0.0
 10
21.30560364977727
 20
-7.326761784699368
 30
0.0
 10
21.30560364977728
 20
-8.203048421303045
 30
0.0
 10
21.30560364977729
 20
-8.716544854261452
 30
0.0
 10
21.30560364977729
 20
-8.965171938535205
 30
0.0
  0
LINE
  5
C3
330
1F
100
AcDbEntity
  8
0
  6
Continuous
 62
     1
370
    15
100
AcDbLine
 10
97.50560364977729
 20
0.8171897803849875
 30
0.0
 11
97.50560364977729
 21
4.039285076933322
 31
0.0
  0
LINE
  5
C4
330
1F
100
AcDbEntity
  8
중심선
100
AcDbLine
 10
-38.84439635022272
 20
0.0010749287238892
 30
0.0
 11
100.5056036497773
 21
0.0010749287239059
 31
0.0
  0
LINE
  5
C5
330
1F
100
AcDbEntity
  8
참조1
100
AcDbLine
 10
30.83060364977728
 20
0.0010749287238892
 30
0.0
 11
30.83060364977728
 21
-39.99892507127611
 31
0.0
  0
LINE
  5
C6
330
1F
100
AcDbEntity
  8
참조1
100
AcDbLine
 10
30.83060364977728
 20
-39.99892507127611
 30
0.0
 11
-21.63450316453139
 21
-39.9989250712761
 31
0.0
  0
CIRCLE
  5
C7
330
1F
100
AcDbEntity
  8
해칭선
100
AcDbCircle
 10
9.305603649777243
 20
0.0010749287238951
 30
0.0
 40
3.000000000000001
  0
INSERT
  5
C8
330
1F
100
AcDbEntity
  8
0
  6
Continuous
 62
     7
100
AcDbBlockReference
 66
     1
  2
블럭10
 10
16.89033071765208
 20
-52.04609937292004
 30
0.0
  0
ATTRIB
  5
C9
330
C8
100
AcDbEntity
  8
FORMAT
 62
     2
100
AcDbText
 10
7.709035428910795
 20
-49.97073246008785
 30
0.0
 40
4.233333333333333
  1
E1034048 [ 4 FLUTE ]
 41
0.75
  7
SLDTEXTSTYLE0
 11
7.709035428910795
 21
-52.08739912675452
 31
0.0
100
AcDbAttribute
  2
AUTOATTR0
 70
     0
 74
     1
  0
SEQEND
  5
CA
330
C8
100
AcDbEntity
  8
0
  6
Continuous
 62
     7
  0
HATCH
  5
CB
330
1F
100
AcDbEntity
  8
중심선
100
AcDbHatch
 10
0.0
 20
0.0
 30
0.0
210
0.0
220
0.0
230
1.0
  2
SOLID
 70
     1
 71
     0
 91
        1
 92
        0
 93
        4
 72
     1
 10
22.60524002203293
 20
-35.7989250712761
 11
19.15896477819565
 21
-35.7989250712761
 72
     1
 10
19.15896477819565
 20
-35.7989250712761
 11
17.03073491899162
 21
-38.33525065184867
 72
     1
 10
17.03073491899162
 20
-38.33525065184867
 11
20.47704324794208
 21
-38.33521122254619
 72
     1
 10
20.47704324794208
 20
-38.33521122254619
 11
22.60524002203293
 21
-35.7989250712761
 97
        0
 75
     0
 76
     1
 98
        1
 10
0.0
 20
0.0
  0
HATCH
  5
CC
330
1F
100
AcDbEntity
  8
중심선
100
AcDbHatch
 10
0.0
 20
0.0
 30
0.0
210
0.0
220
0.0
230
1.0
  2
SOLID
 70
     1
 71
     0
 91
        1
 92
        0
 93
        4
 72
     1
 10
27.61800401306894
 20
-35.79892507127608
 11
24.17172876923165
 21
-35.79892507127608
 72
     1
 10
24.17172876923165
 20
-35.79892507127608
 11
19.64059076087421
 21
-41.19892507127612
 72
     1
 10
19.64059076087421
 20
-41.19892507127612
 11
23.08686600471149
 21
-41.19892507127612
 72
     1
 10
23.08686600471149
 20
-41.19892507127612
 11
27.61800401306894
 21
-35.79892507127608
 97
        0
 75
     0
 76
     1
 98
        1
 10
0.0
 20
0.0
  0
HATCH
  5
CD
330
1F
100
AcDbEntity
  8
중심선
100
AcDbHatch
 10
0.0
 20
0.0
 30
0.0
210
0.0
220
0.0
230
1.0
  2
SOLID
 70
     1
 71
     0
 91
        1
 92
        0
 93
        4
 72
     1
 10
32.63076800410477
 20
-35.79892507127608
 11
29.18449276026766
 21
-35.7989250712761
 72
     1
 10
29.18449276026766
 20
-35.7989250712761
 11
22.13605585837841
 21
-44.19892507127612
 72
     1
 10
22.13605585837841
 20
-44.19892507127612
 11
25.58233110221569
 21
-44.19892507127612
 72
     1
 10
25.58233110221569
 20
-44.19892507127612
 11
32.63076800410477
 21
-35.79892507127608
 97
        0
 75
     0
 76
     1
 98
        1
 10
0.0
 20
0.0
  0
HATCH
  5
CE
330
1F
100
AcDbEntity
  8
중심선
100
AcDbHatch
 10
0.0
 20
0.0
 30
0.0
210
0.0
220
0.0
230
1.0
  2
SOLID
 70
     1
 71
     0
 91
        1
 92
        0
 93
        6
 72
     3
 10
37.43065843511697
 20
-39.99892507132738
 11
3.960054785062284
 21
1.540850780301639E-10
 40
0.3939339440162633
 50
17.09539180608447
 51
320.0019657685075
 73
     0
 72
     1
 10
39.11365809081754
 20
-38.58681907591441
 11
41.41895996451853
 21
-36.65249236586649
 72
     3
 10
37.43065843506413
 20
-39.99892507127625
 11
6.600054785286829
 21
-1.249000902703301E-13
 40
0.6363583540795982
 50
39.99873849337467
 51
368.4976242363724
 73
     1
 72
     1
 10
43.85599092696471
 20
-39.03892507120613
 11
36.11072574190003
 21
-39.03892507120613
 72
     1
 10
36.11072574190003
 20
-39.03892507120613
 11
36.11070069745412
 21
-40.95892507120602
 72
     1
 10
36.11070069745412
 20
-40.95892507120602
 11
40.55208046692613
 21
-40.95892507120599
 97
        0
 75
     0
 76
     1
 98
        1
 10
0.0
 20
0.0
  0
DIMENSION
  5
CF
330
1F
100
AcDbEntity
  8
치수문자_일반주서
100
AcDbDimension
  2
_D
 10
21.30560364977727
 20
22.67188549898007
 30
0.0
 11
59.40560364977725
 21
22.67188549898007
 31
0.0
 70
   160
  1
<>
 71
     2
 42
76.20000000000002
  3
SLDDIMSTYLE1
100
AcDbAlignedDimension
 13
97.50560364977729
 23
9.526074928723906
 33
0.0
 14
21.30560364977726
 24
9.525784910771002
 34
0.0
 50
0.0000000000000481
100
AcDbRotatedDimension
1001
ACAD
1000
DSTYLE
1002
{
1070
   171
1070
     6
1070
   273
1070
     7
1002
}
  0
DIMENSION
  5
E4
330
1F
100
AcDbEntity
  8
치수문자_일반주서
100
AcDbDimension
  2
_D_1
 10
-35.84439635022271
 20
38.39309069678276
 30
0.0
 11
30.83060364977728
 21
38.39309069678276
 31
0.0
 70
   160
  1
<>
 71
     2
 42
133.35
  3
SLDDIMSTYLE1
100
AcDbAlignedDimension
 13
97.50560364977729
 23
9.526074928723906
 33
0.0
 14
-35.84439635022271
 24
7.621074928723899
 34
0.0
 50
0.0000000000000061
100
AcDbRotatedDimension
1001
ACAD
1000
DSTYLE
1002
{
1070
   171
1070
     6
1070
   273
1070
     7
1002
}
  0
DIMENSION
  5
F8
330
1F
100
AcDbEntity
  8
치수문자_일반주서
100
AcDbDimension
  2
_D_2
 10
-46.19266918804988
 20
-9.523925071276155
 30
0.0
 11
-46.19266918804991
 21
0.0010749287239011
 31
0.0
 70
   160
  1
%%c<>
 71
     2
 42
19.05000000000001
  3
SLDDIMSTYLE1
100
AcDbAlignedDimension
 13
-33.93939635022272
 23
9.526074928723899
 33
0.0
 14
-33.93939635022272
 24
-9.523925071276112
 34
0.0
 50
90.0000000000002
100
AcDbRotatedDimension
1001
ACAD
1000
DSTYLE
1002
{
1070
   171
1070
     6
1070
   273
1070
     7
1002
}
  0
DIMENSION
  5
10D
330
1F
100
AcDbEntity
  8
치수문자_일반주서
100
AcDbDimension
  2
_D_3
 10
115.7769630775726
 20
-9.523925071276032
 30
0.0
 11
115.7769630775724
 21
26.63679761303123
 31
0.0
 70
   160
  1
%%c<>
 71
     2
 42
19.05
  3
SLDDIMSTYLE1
100
AcDbAlignedDimension
 13
97.50560364977729
 23
9.526074928723906
 33
0.0
 14
97.50560364977729
 24
-9.523925071276095
 34
0.0
 50
90.0000000000002
100
AcDbRotatedDimension
1001
ACAD
1000
DSTYLE
1002
{
1070
   171
1070
     6
1070
   273
1070
     7
1002
}
  0
LINE
  5
120
330
1F
100
AcDbEntity
  8
참조1
100
AcDbLine
 10
76.33783746512287
 20
7.441074928723896
 30
0.0
 11
76.33783746512287
 21
-7.438925071276109
 31
0.0
  0
LINE
  5
121
330
1F
100
AcDbEntity
  8
참조1
100
AcDbLine
 10
89.03783746512288
 20
5.441074928723896
 30
0.0
 11
76.33783746512287
 21
5.441074928723896
 31
0.0
  0
SOLID
  5
122
330
1F
100
AcDbEntity
  8
참조1
100
AcDbTrace
 10
76.33783746512287
 20
5.441074928723896
 30
0.0
 11
82.68783746512287
 21
4.425074928723896
 31
0.0
 12
82.68783746512287
 22
6.457074928723896
 32
0.0
 13
82.68783746512287
 23
6.457074928723896
 33
0.0
  0
LINE
  5
123
330
1F
100
AcDbEntity
  8
참조1
100
AcDbLine
 10
89.03783746512288
 20
-5.438925071276109
 30
0.0
 11
76.33783746512287
 21
-5.438925071276109
 31
0.0
  0
SOLID
  5
124
330
1F
100
AcDbEntity
  8
참조1
100
AcDbTrace
 10
76.33783746512287
 20
-5.438925071276109
 30
0.0
 11
82.68783746512287
 21
-6.454925071276109
 31
0.0
 12
82.68783746512287
 22
-4.422925071276109
 32
0.0
 13
82.68783746512287
 23
-4.422925071276109
 33
0.0
  0
MTEXT
  5
125
330
1F
100
AcDbEntity
  8
참조1
100
AcDbMText
 10
85.72218759774887
 20
11.01136670591222
 30
0.0
 40
3.5
 41
0.0
 71
     1
 72
     1
  1
A
  7
SLDTEXTSTYLE0
 73
     1
 44
1.0
  0
MTEXT
  5
126
330
1F
100
AcDbEntity
  8
참조1
100
AcDbMText
 10
85.72218759774887
 20
0.1313667059122201
 30
0.0
 40
3.5
 41
0.0
 71
     1
 72
     1
  1
A
  7
SLDTEXTSTYLE0
 73
     1
 44
1.0
  0
INSERT
  5
12D
330
1F
100
AcDbEntity
  8
해칭선
100
AcDbBlockReference
  2
SW_DOWELSYMBOL_0
 10
9.305603649777243
 20
0.0010749287238951
 30
0.0
  0
LINE
  5
262
330
1F
100
AcDbEntity
  8
외형선
  6
Continuous
370
    15
100
AcDbLine
 10
-15.83872135022264
 20
7.6210749287239
 30
0.0
 11
-4.256321350222635
 21
7.6210749287239
 31
0.0
  0
LINE
  5
263
330
1F
100
AcDbEntity
  8
외형선
  6
Continuous
370
    15
100
AcDbLine
 10
-15.83872135022264
 20
7.621074928723885
 30
0.0
 11
-17.74372135022278
 21
9.526074928723915
 31
0.0
  0
LINE
  5
264
330
1F
100
AcDbEntity
  8
외형선
  6
Continuous
370
    15
100
AcDbLine
 10
-4.256321350222635
 20
7.621074928723885
 30
0.0
 11
-2.351321350222662
 21
9.526074928723915
 31
0.0
  0
LINE
  5
298
330
1F
100
AcDbEntity
  8
외형선
  6
Continuous
370
    15
100
AcDbLine
 10
-17.74372135022276
 20
9.526074928723894
 30
0.0
 11
-33.93939635022272
 21
9.526074928723894
 31
0.0
  0
ENDSEC
  0
SECTION
  2
OBJECTS
  0
DICTIONARY
  5
C
330
0
100
AcDbDictionary
281
     1
  3
ACAD_GROUP
350
D
  3
ACAD_IMAGE_VARS
350
151
  3
ACAD_LAYOUT
350
1A
  3
ACAD_MLINESTYLE
350
17
  3
ACAD_PLOTSETTINGS
350
19
  3
ACAD_PLOTSTYLENAME
350
E
  3
ACAD_SCALELIST
350
47
  3
APPDATA
350
14F
  3
DWGPROPS
350
2C0
  0
DICTIONARY
  5
1F2
330
2
100
AcDbDictionary
280
     1
281
     1
  3
ACAD_LAYERSTATES
360
1F3
  0
DICTIONARY
  5
D
102
{ACAD_REACTORS
330
C
102
}
330
C
100
AcDbDictionary
281
     1
  0
RASTERVARIABLES
  5
151
102
{ACAD_REACTORS
330
C
102
}
330
C
100
AcDbRasterVariables
 90
        0
 70
     1
 71
     1
 72
     1
  0
DICTIONARY
  5
1A
102
{ACAD_REACTORS
330
C
102
}
330
C
100
AcDbDictionary
281
     1
  3
Layout1
350
1E
  3
Layout2
350
26
  3
Model
350
22
  0
DICTIONARY
  5
17
102
{ACAD_REACTORS
330
C
102
}
330
C
100
AcDbDictionary
281
     1
  3
Standard
350
18
  0
DICTIONARY
  5
19
102
{ACAD_REACTORS
330
C
102
}
330
C
100
AcDbDictionary
281
     1
  0
ACDBDICTIONARYWDFLT
  5
E
102
{ACAD_REACTORS
330
C
102
}
330
C
100
AcDbDictionary
281
     1
  3
Normal
350
F
100
AcDbDictionaryWithDefault
340
F
  0
DICTIONARY
  5
47
102
{ACAD_REACTORS
330
C
102
}
330
C
100
AcDbDictionary
281
     1
  3
A0
350
48
  3
A1
350
49
  3
A2
350
4A
  3
A3
350
4B
  3
A4
350
4C
  3
A5
350
4D
  3
A6
350
4E
  3
A7
350
4F
  3
A8
350
50
  3
A9
350
51
  3
B0
350
52
  3
B1
350
53
  3
B2
350
54
  3
B3
350
55
  3
B4
350
56
  3
B5
350
57
  3
B6
350
58
  3
B7
350
59
  3
B8
350
5A
  3
B9
350
5B
  3
C0
350
5C
  3
C1
350
5D
  3
C2
350
5E
  3
C3
350
5F
  3
C4
350
60
  3
C5
350
61
  3
C6
350
62
  3
C7
350
63
  3
C8
350
64
  3
C9
350
65
  3
D0
350
66
  3
D1
350
67
  3
D2
350
68
  0
DICTIONARY
  5
14F
102
{ACAD_REACTORS
330
C
102
}
330
C
100
AcDbDictionary
281
     1
  0
XRECORD
  5
2C0
102
{ACAD_REACTORS
330
C
102
}
330
C
100
AcDbXrecord
280
     1
  1
DWGPROPS COOKIE
  2

  3

  4

  6

  7

  8
12016016
  9

300
=
301
=
302
=
303
=
304
=
305
=
306
=
307
=
308
=
309
=
 40
0.0
 41
2458312.299621227
 42
2458323.374167338
  1

 90
        0
  0
DICTIONARY
  5
1F3
102
{ACAD_REACTORS
330
1F2
102
}
330
1F2
100
AcDbDictionary
281
     1
  0
LAYOUT
  5
1E
102
{ACAD_REACTORS
330
1A
102
}
330
1A
100
AcDbPlotSettings
  1

  2
none_device
  4

  6

 40
0.0
 41
0.0
 42
0.0
 43
0.0
 44
0.0
 45
0.0
 46
0.0
 47
0.0
 48
0.0
 49
0.0
140
0.0
141
0.0
142
1.0
143
1.0
 70
   688
 72
     1
 73
     0
 74
     5
  7

 75
    16
147
1.0
148
0.0
149
0.0
100
AcDbLayout
  1
Layout1
 70
     1
 71
     1
 10
0.0
 20
0.0
 11
420.0
 21
297.0
 12
0.0
 22
0.0
 32
0.0
 14
1.000000000000000E+20
 24
1.000000000000000E+20
 34
1.000000000000000E+20
 15
-1.000000000000000E+20
 25
-1.000000000000000E+20
 35
-1.000000000000000E+20
146
0.0
 13
0.0
 23
0.0
 33
0.0
 16
1.0
 26
0.0
 36
0.0
 17
0.0
 27
1.0
 37
0.0
 76
     0
330
1B
  0
LAYOUT
  5
26
102
{ACAD_REACTORS
330
1A
102
}
330
1A
100
AcDbPlotSettings
  1

  2
none_device
  4

  6

 40
0.0
 41
0.0
 42
0.0
 43
0.0
 44
0.0
 45
0.0
 46
0.0
 47
0.0
 48
0.0
 49
0.0
140
0.0
141
0.0
142
1.0
143
1.0
 70
   688
 72
     1
 73
     0
 74
     5
  7

 75
    16
147
1.0
148
0.0
149
0.0
100
AcDbLayout
  1
Layout2
 70
     1
 71
     2
 10
0.0
 20
0.0
 11
0.0
 21
0.0
 12
0.0
 22
0.0
 32
0.0
 14
0.0
 24
0.0
 34
0.0
 15
0.0
 25
0.0
 35
0.0
146
0.0
 13
0.0
 23
0.0
 33
0.0
 16
1.0
 26
0.0
 36
0.0
 17
0.0
 27
1.0
 37
0.0
 76
     0
330
23
  0
LAYOUT
  5
22
102
{ACAD_REACTORS
330
1A
102
}
330
1A
100
AcDbPlotSettings
  1

  2
none_device
  4
ANSI_A_(11.00_x_8.50_Inches)
  6

 40
6.35
 41
19.05
 42
6.35000508
 43
19.05000254
 44
279.4
 45
215.9
 46
49.18587771090846
 47
71.5722668378381
 48
0.0
 49
0.0
140
0.0
141
0.0
142
0.0374033758481949
143
1.0
 70
  1696
 72
     0
 73
     0
 74
     0
  7

 75
     0
147
0.0235690232323232
148
0.0
149
0.0
100
AcDbLayout
  1
Model
 70
     1
 71
     0
 10
0.0
 20
0.0
 11
420.0
 21
297.0
 12
0.0
 22
0.0
 32
0.0
 14
-50.56766918804995
 24
-49.97073246008785
 34
0.0
 15
116.3272964109059
 25
42.76809069678276
 35
0.0
146
0.0
 13
0.0
 23
0.0
 33
0.0
 16
1.0
 26
0.0
 36
0.0
 17
0.0
 27
1.0
 37
0.0
 76
     0
330
1F
331
29
  0
MLINESTYLE
  5
18
102
{ACAD_REACTORS
330
17
102
}
330
17
100
AcDbMlineStyle
  2
Standard
 70
     0
  3

 62
   256
 51
90.0
 52
90.0
 71
     2
 49
0.5
 62
   256
  6
BYLAYER
 49
-0.5
 62
   256
  6
BYLAYER
  0
ACDBPLACEHOLDER
  5
F
102
{ACAD_REACTORS
330
E
102
}
330
E
  0
SCALE
  5
48
102
{ACAD_REACTORS
330
47
102
}
330
47
100
AcDbScale
 70
     0
300
1:1
140
1.0
141
1.0
290
     1
  0
SCALE
  5
49
102
{ACAD_REACTORS
330
47
102
}
330
47
100
AcDbScale
 70
     0
300
1:2
140
1.0
141
2.0
290
     0
  0
SCALE
  5
4A
102
{ACAD_REACTORS
330
47
102
}
330
47
100
AcDbScale
 70
     0
300
1:4
140
1.0
141
4.0
290
     0
  0
SCALE
  5
4B
102
{ACAD_REACTORS
330
47
102
}
330
47
100
AcDbScale
 70
     0
300
1:5
140
1.0
141
5.0
290
     0
  0
SCALE
  5
4C
102
{ACAD_REACTORS
330
47
102
}
330
47
100
AcDbScale
 70
     0
300
1:8
140
1.0
141
8.0
290
     0
  0
SCALE
  5
4D
102
{ACAD_REACTORS
330
47
102
}
330
47
100
AcDbScale
 70
     0
300
1:10
140
1.0
141
10.0
290
     0
  0
SCALE
  5
4E
102
{ACAD_REACTORS
330
47
102
}
330
47
100
AcDbScale
 70
     0
300
1:16
140
1.0
141
16.0
290
     0
  0
SCALE
  5
4F
102
{ACAD_REACTORS
330
47
102
}
330
47
100
AcDbScale
 70
     0
300
1:20
140
1.0
141
20.0
290
     0
  0
SCALE
  5
50
102
{ACAD_REACTORS
330
47
102
}
330
47
100
AcDbScale
 70
     0
300
1:30
140
1.0
141
30.0
290
     0
  0
SCALE
  5
51
102
{ACAD_REACTORS
330
47
102
}
330
47
100
AcDbScale
 70
     0
300
1:40
140
1.0
141
40.0
290
     0
  0
SCALE
  5
52
102
{ACAD_REACTORS
330
47
102
}
330
47
100
AcDbScale
 70
     0
300
1:50
140
1.0
141
50.0
290
     0
  0
SCALE
  5
53
102
{ACAD_REACTORS
330
47
102
}
330
47
100
AcDbScale
 70
     0
300
1:100
140
1.0
141
100.0
290
     0
  0
SCALE
  5
54
102
{ACAD_REACTORS
330
47
102
}
330
47
100
AcDbScale
 70
     0
300
2:1
140
2.0
141
1.0
290
     0
  0
SCALE
  5
55
102
{ACAD_REACTORS
330
47
102
}
330
47
100
AcDbScale
 70
     0
300
4:1
140
4.0
141
1.0
290
     0
  0
SCALE
  5
56
102
{ACAD_REACTORS
330
47
102
}
330
47
100
AcDbScale
 70
     0
300
8:1
140
8.0
141
1.0
290
     0
  0
SCALE
  5
57
102
{ACAD_REACTORS
330
47
102
}
330
47
100
AcDbScale
 70
     0
300
10:1
140
10.0
141
1.0
290
     0
  0
SCALE
  5
58
102
{ACAD_REACTORS
330
47
102
}
330
47
100
AcDbScale
 70
     0
300
100:1
140
100.0
141
1.0
290
     0
  0
SCALE
  5
59
102
{ACAD_REACTORS
330
47
102
}
330
47
100
AcDbScale
 70
     0
300
1/128" = 1'-0"
140
0.0078125
141
12.0
290
     0
  0
SCALE
  5
5A
102
{ACAD_REACTORS
330
47
102
}
330
47
100
AcDbScale
 70
     0
300
1/64" = 1'-0"
140
0.015625
141
12.0
290
     0
  0
SCALE
  5
5B
102
{ACAD_REACTORS
330
47
102
}
330
47
100
AcDbScale
 70
     0
300
1/32" = 1'-0"
140
0.03125
141
12.0
290
     0
  0
SCALE
  5
5C
102
{ACAD_REACTORS
330
47
102
}
330
47
100
AcDbScale
 70
     0
300
1/16" = 1'-0"
140
0.0625
141
12.0
290
     0
  0
SCALE
  5
5D
102
{ACAD_REACTORS
330
47
102
}
330
47
100
AcDbScale
 70
     0
300
3/32" = 1'-0"
140
0.09375
141
12.0
290
     0
  0
SCALE
  5
5E
102
{ACAD_REACTORS
330
47
102
}
330
47
100
AcDbScale
 70
     0
300
1/8" = 1'-0"
140
0.125
141
12.0
290
     0
  0
SCALE
  5
5F
102
{ACAD_REACTORS
330
47
102
}
330
47
100
AcDbScale
 70
     0
300
3/16" = 1'-0"
140
0.1875
141
12.0
290
     0
  0
SCALE
  5
60
102
{ACAD_REACTORS
330
47
102
}
330
47
100
AcDbScale
 70
     0
300
1/4" = 1'-0"
140
0.25
141
12.0
290
     0
  0
SCALE
  5
61
102
{ACAD_REACTORS
330
47
102
}
330
47
100
AcDbScale
 70
     0
300
3/8" = 1'-0"
140
0.375
141
12.0
290
     0
  0
SCALE
  5
62
102
{ACAD_REACTORS
330
47
102
}
330
47
100
AcDbScale
 70
     0
300
1/2" = 1'-0"
140
0.5
141
12.0
290
     0
  0
SCALE
  5
63
102
{ACAD_REACTORS
330
47
102
}
330
47
100
AcDbScale
 70
     0
300
3/4" = 1'-0"
140
0.75
141
12.0
290
     0
  0
SCALE
  5
64
102
{ACAD_REACTORS
330
47
102
}
330
47
100
AcDbScale
 70
     0
300
1" = 1'-0"
140
1.0
141
12.0
290
     0
  0
SCALE
  5
65
102
{ACAD_REACTORS
330
47
102
}
330
47
100
AcDbScale
 70
     0
300
1-1/2" = 1'-0"
140
1.5
141
12.0
290
     0
  0
SCALE
  5
66
102
{ACAD_REACTORS
330
47
102
}
330
47
100
AcDbScale
 70
     0
300
3" = 1'-0"
140
3.0
141
12.0
290
     0
  0
SCALE
  5
67
102
{ACAD_REACTORS
330
47
102
}
330
47
100
AcDbScale
 70
     0
300
6" = 1'-0"
140
6.0
141
12.0
290
     0
  0
SCALE
  5
68
102
{ACAD_REACTORS
330
47
102
}
330
47
100
AcDbScale
 70
     0
300
1'-0" = 1'-0"
140
12.0
141
12.0
290
     0
  0
ENDSEC
  0
EOF
