  0
SECTION
  2
HEADER
  9
$ACADVER
  1
AC1015
  9
$ACADMAINTVER
 70
     6
  9
$DWGCODEPAGE
  3
ANSI_949
  9
$INSBASE
 10
0.0
 20
0.0
 30
0.0
  9
$EXTMIN
 10
-60.19595750931943
 20
-49.97073246008785
 30
0.0
  9
$EXTMAX
 10
89.03783746512288
 20
39.94257492872395
 30
0.0
  9
$LIMMIN
 10
0.0
 20
0.0
  9
$LIMMAX
 10
420.0
 20
297.0
  9
$ORTHOMODE
 70
     0
  9
$REGENMODE
 70
     1
  9
$FILLMODE
 70
     1
  9
$QTEXTMODE
 70
     0
  9
$MIRRTEXT
 70
     1
  9
$LTSCALE
 40
1.0
  9
$ATTMODE
 70
     1
  9
$TEXTSIZE
 40
3.5
  9
$TRACEWID
 40
1.0
  9
$TEXTSTYLE
  7
Standard
  9
$CLAYER
  8
0
  9
$CELTYPE
  6
ByLayer
  9
$CECOLOR
 62
   256
  9
$CELTSCALE
 40
1.0
  9
$DISPSILH
 70
     0
  9
$DIMSCALE
 40
1.0
  9
$DIMASZ
 40
3.302
  9
$DIMEXO
 40
1.0
  9
$DIMDLI
 40
3.75
  9
$DIMRND
 40
0.0
  9
$DIMDLE
 40
0.0
  9
$DIMEXE
 40
1.0
  9
$DIMTP
 40
0.0
  9
$DIMTM
 40
0.0
  9
$DIMTXT
 40
3.5
  9
$DIMCEN
 40
2.5
  9
$DIMTSZ
 40
0.0
  9
$DIMTOL
 70
     0
  9
$DIMLIM
 70
     0
  9
$DIMTIH
 70
     1
  9
$DIMTOH
 70
     1
  9
$DIMSE1
 70
     0
  9
$DIMSE2
 70
     0
  9
$DIMTAD
 70
     1
  9
$DIMZIN
 70
     0
  9
$DIMBLK
  1

  9
$DIMASO
 70
     1
  9
$DIMSHO
 70
     1
  9
$DIMPOST
  1

  9
$DIMAPOST
  1

  9
$DIMALT
 70
     0
  9
$DIMALTD
 70
     3
  9
$DIMALTF
 40
0.0393700787401575
  9
$DIMLFAC
 40
1.0
  9
$DIMTOFL
 70
     1
  9
$DIMTVP
 40
0.0
  9
$DIMTIX
 70
     0
  9
$DIMSOXD
 70
     0
  9
$DIMSAH
 70
     0
  9
$DIMBLK1
  1

  9
$DIMBLK2
  1

  9
$DIMSTYLE
  2
ISO-25
  9
$DIMCLRD
 70
     0
  9
$DIMCLRE
 70
     0
  9
$DIMCLRT
 70
     0
  9
$DIMTFAC
 40
1.0
  9
$DIMGAP
 40
1.524
  9
$DIMJUST
 70
     0
  9
$DIMSD1
 70
     0
  9
$DIMSD2
 70
     0
  9
$DIMTOLJ
 70
     0
  9
$DIMTZIN
 70
     0
  9
$DIMALTZ
 70
     0
  9
$DIMALTTZ
 70
     0
  9
$DIMUPT
 70
     0
  9
$DIMDEC
 70
     2
  9
$DIMTDEC
 70
     2
  9
$DIMALTU
 70
     2
  9
$DIMALTTD
 70
     3
  9
$DIMTXSTY
  7
Standard
  9
$DIMAUNIT
 70
     0
  9
$DIMADEC
 70
     2
  9
$DIMALTRND
 40
0.0
  9
$DIMAZIN
 70
     0
  9
$DIMDSEP
 70
    44
  9
$DIMATFIT
 70
     3
  9
$DIMFRAC
 70
     0
  9
$DIMLDRBLK
  1

  9
$DIMLUNIT
 70
     2
  9
$DIMLWD
 70
    -2
  9
$DIMLWE
 70
    -2
  9
$DIMTMOVE
 70
     0
  9
$LUNITS
 70
     2
  9
$LUPREC
 70
     2
  9
$SKETCHINC
 40
1.0
  9
$FILLETRAD
 40
10.0
  9
$AUNITS
 70
     0
  9
$AUPREC
 70
     2
  9
$MENU
  1
.
  9
$ELEVATION
 40
0.0
  9
$PELEVATION
 40
0.0
  9
$THICKNESS
 40
0.0
  9
$LIMCHECK
 70
     0
  9
$CHAMFERA
 40
0.0
  9
$CHAMFERB
 40
0.0
  9
$CHAMFERC
 40
0.0
  9
$CHAMFERD
 40
0.0
  9
$SKPOLY
 70
     0
  9
$TDCREATE
 40
2458312.672715463
  9
$TDUCREATE
 40
2458312.297715463
  9
$TDUPDATE
 40
2458323.749586401
  9
$TDUUPDATE
 40
2458323.374586401
  9
$TDINDWG
 40
0.0010342014
  9
$TDUSRTIMER
 40
2458323.374542014
  9
$USRTIMER
 70
     1
  9
$ANGBASE
 50
0.0
  9
$ANGDIR
 70
     0
  9
$PDMODE
 70
     0
  9
$PDSIZE
 40
-1.0
  9
$PLINEWID
 40
0.0
  9
$SPLFRAME
 70
     0
  9
$SPLINETYPE
 70
     6
  9
$SPLINESEGS
 70
     8
  9
$HANDSEED
  5
2CE
  9
$SURFTAB1
 70
     6
  9
$SURFTAB2
 70
     6
  9
$SURFTYPE
 70
     6
  9
$SURFU
 70
     6
  9
$SURFV
 70
     6
  9
$UCSBASE
  2

  9
$UCSNAME
  2

  9
$UCSORG
 10
0.0
 20
0.0
 30
0.0
  9
$UCSXDIR
 10
1.0
 20
0.0
 30
0.0
  9
$UCSYDIR
 10
0.0
 20
1.0
 30
0.0
  9
$UCSORTHOREF
  2

  9
$UCSORTHOVIEW
 70
     0
  9
$UCSORGTOP
 10
0.0
 20
0.0
 30
0.0
  9
$UCSORGBOTTOM
 10
0.0
 20
0.0
 30
0.0
  9
$UCSORGLEFT
 10
0.0
 20
0.0
 30
0.0
  9
$UCSORGRIGHT
 10
0.0
 20
0.0
 30
0.0
  9
$UCSORGFRONT
 10
0.0
 20
0.0
 30
0.0
  9
$UCSORGBACK
 10
0.0
 20
0.0
 30
0.0
  9
$PUCSBASE
  2

  9
$PUCSNAME
  2

  9
$PUCSORG
 10
0.0
 20
0.0
 30
0.0
  9
$PUCSXDIR
 10
1.0
 20
0.0
 30
0.0
  9
$PUCSYDIR
 10
0.0
 20
1.0
 30
0.0
  9
$PUCSORTHOREF
  2

  9
$PUCSORTHOVIEW
 70
     0
  9
$PUCSORGTOP
 10
0.0
 20
0.0
 30
0.0
  9
$PUCSORGBOTTOM
 10
0.0
 20
0.0
 30
0.0
  9
$PUCSORGLEFT
 10
0.0
 20
0.0
 30
0.0
  9
$PUCSORGRIGHT
 10
0.0
 20
0.0
 30
0.0
  9
$PUCSORGFRONT
 10
0.0
 20
0.0
 30
0.0
  9
$PUCSORGBACK
 10
0.0
 20
0.0
 30
0.0
  9
$USERI1
 70
     0
  9
$USERI2
 70
     0
  9
$USERI3
 70
     0
  9
$USERI4
 70
     0
  9
$USERI5
 70
     0
  9
$USERR1
 40
0.0
  9
$USERR2
 40
0.0
  9
$USERR3
 40
0.0
  9
$USERR4
 40
0.0
  9
$USERR5
 40
0.0
  9
$WORLDVIEW
 70
     1
  9
$SHADEDGE
 70
     3
  9
$SHADEDIF
 70
    70
  9
$TILEMODE
 70
     1
  9
$MAXACTVP
 70
    64
  9
$PINSBASE
 10
0.0
 20
0.0
 30
0.0
  9
$PLIMCHECK
 70
     0
  9
$PEXTMIN
 10
1.000000000000000E+20
 20
1.000000000000000E+20
 30
1.000000000000000E+20
  9
$PEXTMAX
 10
-1.000000000000000E+20
 20
-1.000000000000000E+20
 30
-1.000000000000000E+20
  9
$PLIMMIN
 10
0.0
 20
0.0
  9
$PLIMMAX
 10
0.0
 20
0.0
  9
$UNITMODE
 70
     0
  9
$VISRETAIN
 70
     1
  9
$PLINEGEN
 70
     0
  9
$PSLTSCALE
 70
     1
  9
$TREEDEPTH
 70
  3020
  9
$CMLSTYLE
  2
Standard
  9
$CMLJUST
 70
     0
  9
$CMLSCALE
 40
20.0
  9
$PROXYGRAPHICS
 70
     1
  9
$MEASUREMENT
 70
     1
  9
$CELWEIGHT
370
    -1
  9
$ENDCAPS
280
     0
  9
$JOINSTYLE
280
     0
  9
$LWDISPLAY
290
     1
  9
$INSUNITS
 70
     4
  9
$HYPERLINKBASE
  1

  9
$STYLESHEET
  1

  9
$XEDIT
290
     1
  9
$CEPSNTYPE
380
     0
  9
$PSTYLEMODE
290
     1
  9
$FINGERPRINTGUID
  2
{DE1EEC7E-418F-454A-A47D-9DC8A1CFE93B}
  9
$VERSIONGUID
  2
{FAEB1C32-E019-11D5-929B-00C0DF256EC4}
  9
$EXTNAMES
290
     1
  9
$PSVPSCALE
 40
0.0
  9
$OLESTARTUP
290
     0
  0
ENDSEC
  0
SECTION
  2
CLASSES
  0
CLASS
  1
ACDBDICTIONARYWDFLT
  2
AcDbDictionaryWithDefault
  3
ObjectDBX Classes
 90
        0
280
     0
281
     0
  0
CLASS
  1
VISUALSTYLE
  2
AcDbVisualStyle
  3
ObjectDBX Classes
 90
     4095
280
     0
281
     0
  0
CLASS
  1
MATERIAL
  2
AcDbMaterial
  3
ObjectDBX Classes
 90
     1153
280
     0
281
     0
  0
CLASS
  1
SCALE
  2
AcDbScale
  3
ObjectDBX Classes
 90
     1153
280
     0
281
     0
  0
CLASS
  1
SUN
  2
AcDbSun
  3
SCENEOE
 90
     1153
280
     0
281
     0
  0
CLASS
  1
ACDBPLACEHOLDER
  2
AcDbPlaceHolder
  3
ObjectDBX Classes
 90
        0
280
     0
281
     0
  0
CLASS
  1
LAYOUT
  2
AcDbLayout
  3
ObjectDBX Classes
 90
        0
280
     0
281
     0
  0
CLASS
  1
TABLESTYLE
  2
AcDbTableStyle
  3
ObjectDBX Classes
 90
     4095
280
     0
281
     0
  0
CLASS
  1
MLEADERSTYLE
  2
AcDbMLeaderStyle
  3
ACDB_MLEADERSTYLE_CLASS
 90
     4095
280
     0
281
     0
  0
CLASS
  1
RASTERVARIABLES
  2
AcDbRasterVariables
  3
ISM
 90
        0
280
     0
281
     0
  0
ENDSEC
  0
SECTION
  2
TABLES
  0
TABLE
  2
VPORT
  5
8
330
0
100
AcDbSymbolTable
 70
     1
  0
VPORT
  5
29
330
8
100
AcDbSymbolTableRecord
100
AcDbViewportTableRecord
  2
*Active
 70
     0
 10
0.0
 20
0.0
 11
1.0
 21
1.0
 12
-2.760543343449243
 22
-10.5099095813994
 13
0.0
 23
0.0
 14
10.0
 24
10.0
 15
10.0
 25
10.0
 16
0.0
 26
0.0
 36
1.0
 17
0.0
 27
0.0
 37
0.0
 40
156.2855955829543
 41
1.632093933463796
 42
50.0
 43
0.0
 44
0.0
 50
0.0
 51
0.0
 71
    16
 72
  2000
 73
     1
 74
     3
 75
     0
 76
     0
 77
     0
 78
     0
281
     0
 65
     1
110
0.0
120
0.0
130
0.0
111
1.0
121
0.0
131
0.0
112
0.0
122
1.0
132
0.0
 79
     0
146
0.0
  0
ENDTAB
  0
TABLE
  2
LTYPE
  5
5
330
0
100
AcDbSymbolTable
 70
     6
  0
LTYPE
  5
14
330
5
100
AcDbSymbolTableRecord
100
AcDbLinetypeTableRecord
  2
ByBlock
 70
     0
  3

 72
    65
 73
     0
 40
0.0
  0
LTYPE
  5
15
330
5
100
AcDbSymbolTableRecord
100
AcDbLinetypeTableRecord
  2
ByLayer
 70
     0
  3

 72
    65
 73
     0
 40
0.0
  0
LTYPE
  5
16
330
5
100
AcDbSymbolTableRecord
100
AcDbLinetypeTableRecord
  2
Continuous
 70
     0
  3
Solid line
 72
    65
 73
     0
 40
0.0
  0
LTYPE
  5
6A
330
5
100
AcDbSymbolTableRecord
100
AcDbLinetypeTableRecord
  2
HIDDEN
 70
     0
  3
Hidden __ __ __ __ __ __ __ __ __ __ __ __ __ __
 72
    65
 73
     2
 40
1.905
 49
1.27
 74
     0
 49
-0.635
 74
     0
  0
LTYPE
  5
6B
330
5
100
AcDbSymbolTableRecord
100
AcDbLinetypeTableRecord
  2
PHANTOM
 70
     0
  3
Phantom ______  __  __  ______  __  __  ______
 72
    65
 73
     6
 40
12.7
 49
6.35
 74
     0
 49
-1.27
 74
     0
 49
1.27
 74
     0
 49
-1.27
 74
     0
 49
1.27
 74
     0
 49
-1.27
 74
     0
  0
LTYPE
  5
6C
330
5
100
AcDbSymbolTableRecord
100
AcDbLinetypeTableRecord
  2
CENTER
 70
     0
  3
Center ____ _ ____ _ ____ _ ____ _ ____ _ ____
 72
    65
 73
     4
 40
10.16
 49
6.35
 74
     0
 49
-1.27
 74
     0
 49
1.27
 74
     0
 49
-1.27
 74
     0
  0
LTYPE
  5
6D
330
5
100
AcDbSymbolTableRecord
100
AcDbLinetypeTableRecord
  2
CENTERX2
 70
     0
  3
Center (2x) ________  __  ________  __  _____
 72
    65
 73
     4
 40
20.32
 49
12.7
 74
     0
 49
-2.54
 74
     0
 49
2.54
 74
     0
 49
-2.54
 74
     0
  0
LTYPE
  5
6E
330
5
100
AcDbSymbolTableRecord
100
AcDbLinetypeTableRecord
  2
DOT2
 70
     0
  3
Dot (.5x) ........................................
 72
    65
 73
     2
 40
0.635
 49
0.0
 74
     0
 49
-0.635
 74
     0
  0
ENDTAB
  0
TABLE
  2
LAYER
  5
2
102
{ACAD_XDICTIONARY
360
1FA
102
}
330
0
100
AcDbSymbolTable
 70
    18
  0
LAYER
  5
10
330
2
100
AcDbSymbolTableRecord
100
AcDbLayerTableRecord
  2
0
 70
     0
 62
     7
  6
Continuous
370
    -3
390
F
  0
LAYER
  5
6F
330
2
100
AcDbSymbolTableRecord
100
AcDbLayerTableRecord
  2
FORMAT
 70
     0
 62
     2
  6
Continuous
370
    -3
390
F
  0
LAYER
  5
70
330
2
100
AcDbSymbolTableRecord
100
AcDbLayerTableRecord
  2
외형선
 70
     0
 62
     4
  6
Continuous
370
    30
390
F
  0
LAYER
  5
71
330
2
100
AcDbSymbolTableRecord
100
AcDbLayerTableRecord
  2
숨은선
 70
     0
 62
     2
  6
HIDDEN
370
    15
390
F
  0
LAYER
  5
72
330
2
100
AcDbSymbolTableRecord
100
AcDbLayerTableRecord
  2
중심선
 70
     0
 62
     1
  6
CENTERX2
370
    -3
390
F
  0
LAYER
  5
73
330
2
100
AcDbSymbolTableRecord
100
AcDbLayerTableRecord
  2
파단선
 70
     0
 62
     4
  6
Continuous
370
    -3
390
F
  0
LAYER
  5
74
330
2
100
AcDbSymbolTableRecord
100
AcDbLayerTableRecord
  2
해칭선
 70
     0
 62
   100
  6
Continuous
370
    -3
390
F
  0
LAYER
  5
75
330
2
100
AcDbSymbolTableRecord
100
AcDbLayerTableRecord
  2
가는실선
 70
     0
 62
     4
  6
Continuous
370
    -3
390
F
  0
LAYER
  5
76
330
2
100
AcDbSymbolTableRecord
100
AcDbLayerTableRecord
  2
치수_보조선
 70
     0
 62
     4
  6
Continuous
370
    -3
390
F
  0
LAYER
  5
77
330
2
100
AcDbSymbolTableRecord
100
AcDbLayerTableRecord
  2
치수문자_일반주서
 70
     0
 62
     7
  6
Continuous
370
    15
390
F
  0
LAYER
  5
78
330
2
100
AcDbSymbolTableRecord
100
AcDbLayerTableRecord
  2
개별주서
 70
     0
 62
   100
  6
Continuous
370
    30
390
F
  0
LAYER
  5
79
330
2
100
AcDbSymbolTableRecord
100
AcDbLayerTableRecord
  2
중간선
 70
     0
 62
     2
  6
Continuous
370
    15
390
F
  0
LAYER
  5
7A
330
2
100
AcDbSymbolTableRecord
100
AcDbLayerTableRecord
  2
윤곽선
 70
     0
 62
     3
  6
Continuous
370
    40
390
F
  0
LAYER
  5
7B
330
2
100
AcDbSymbolTableRecord
100
AcDbLayerTableRecord
  2
중심마크
 70
     0
 62
   100
  6
Continuous
370
    30
390
F
  0
LAYER
  5
7C
330
2
100
AcDbSymbolTableRecord
100
AcDbLayerTableRecord
  2
가상선
 70
     0
 62
     4
  6
PHANTOM
370
    -3
390
F
  0
LAYER
  5
7D
330
2
100
AcDbSymbolTableRecord
100
AcDbLayerTableRecord
  2
특수지정선
 70
     0
 62
     5
  6
CENTERX2
370
    60
390
F
  0
LAYER
  5
7E
330
2
100
AcDbSymbolTableRecord
100
AcDbLayerTableRecord
  2
참조1
 70
     0
 62
    -4
  6
Continuous
370
    -3
390
F
  0
LAYER
  5
15A
330
2
100
AcDbSymbolTableRecord
100
AcDbLayerTableRecord
  2
Defpoints
 70
     0
 62
     7
  6
Continuous
290
     0
370
    -3
390
F
  0
ENDTAB
  0
TABLE
  2
STYLE
  5
3
330
0
100
AcDbSymbolTable
 70
     2
  0
STYLE
  5
11
330
3
100
AcDbSymbolTableRecord
100
AcDbTextStyleTableRecord
  2
Standard
 70
     0
 40
0.0
 41
1.0
 50
0.0
 71
     0
 42
3.5
  3
txt
  4

  0
STYLE
  5
94
330
3
100
AcDbSymbolTableRecord
100
AcDbTextStyleTableRecord
  2
SLDTEXTSTYLE0
 70
     0
 40
0.0
 41
0.75
 50
0.0
 71
     0
 42
3.5
  3
TXT
  4

  0
ENDTAB
  0
TABLE
  2
VIEW
  5
6
330
0
100
AcDbSymbolTable
 70
     0
  0
ENDTAB
  0
TABLE
  2
UCS
  5
7
330
0
100
AcDbSymbolTable
 70
     0
  0
ENDTAB
  0
TABLE
  2
APPID
  5
9
330
0
100
AcDbSymbolTable
 70
     1
  0
APPID
  5
12
330
9
100
AcDbSymbolTableRecord
100
AcDbRegAppTableRecord
  2
ACAD
 70
     0
  0
ENDTAB
  0
TABLE
  2
DIMSTYLE
  5
A
330
0
100
AcDbSymbolTable
 70
     3
100
AcDbDimStyleTable
  0
DIMSTYLE
105
27
330
A
100
AcDbSymbolTableRecord
100
AcDbDimStyleTableRecord
  2
ISO-25
 70
     0
 41
2.5
 42
0.625
 43
3.75
 44
1.25
 73
     0
 74
     0
 77
     1
 78
     8
140
2.5
141
2.5
143
0.03937007874016
147
0.625
171
     3
172
     1
178
     0
271
     2
272
     2
274
     3
278
    44
283
     0
284
     8
340
11
  0
DIMSTYLE
105
D8
330
A
100
AcDbSymbolTableRecord
100
AcDbDimStyleTableRecord
  2
SLDDIMSTYLE0
 70
     0
 41
3.302
 44
0.0
 45
0.000000001
 73
     0
 74
     0
 77
     1
 78
    12
 79
     3
140
3.5
143
0.0393700787401575
147
0.875
148
0.000000001
170
     1
173
     1
178
     0
271
     2
272
     2
276
     2
284
    12
340
94
  0
DIMSTYLE
105
100
102
{ACAD_REACTORS
330
FF
330
D7
330
EC
330
114
102
}
330
A
100
AcDbSymbolTableRecord
100
AcDbDimStyleTableRecord
  2
SLDDIMSTYLE1
 70
     0
 41
3.302
 44
0.0
 45
0.000000001
 73
     0
 74
     0
 77
     1
 78
     4
 79
     1
140
3.5
143
0.0393700787401575
147
0.875
148
0.000000001
170
     1
172
     1
173
     1
178
     0
271
     2
272
     2
276
     2
284
    12
289
     0
340
94
  0
ENDTAB
  0
TABLE
  2
BLOCK_RECORD
  5
1
330
0
100
AcDbSymbolTable
 70
    15
  0
BLOCK_RECORD
  5
1F
330
1
100
AcDbSymbolTableRecord
100
AcDbBlockTableRecord
  2
*Model_Space
340
22
  0
BLOCK_RECORD
  5
1B
330
1
100
AcDbSymbolTableRecord
100
AcDbBlockTableRecord
  2
*Paper_Space
340
1E
  0
BLOCK_RECORD
  5
23
330
1
100
AcDbSymbolTableRecord
100
AcDbBlockTableRecord
  2
*Paper_Space0
340
26
  0
BLOCK_RECORD
  5
7F
330
1
100
AcDbSymbolTableRecord
100
AcDbBlockTableRecord
  2
블럭10
340
0
102
{BLKREFS
331
D0
102
}
  0
BLOCK_RECORD
  5
D9
330
1
100
AcDbSymbolTableRecord
100
AcDbBlockTableRecord
  2
_D
340
0
  0
BLOCK_RECORD
  5
ED
330
1
100
AcDbSymbolTableRecord
100
AcDbBlockTableRecord
  2
_D_1
340
0
  0
BLOCK_RECORD
  5
101
330
1
100
AcDbSymbolTableRecord
100
AcDbBlockTableRecord
  2
_D_2
340
0
  0
BLOCK_RECORD
  5
115
330
1
100
AcDbSymbolTableRecord
100
AcDbBlockTableRecord
  2
_D_3
340
0
  0
BLOCK_RECORD
  5
12E
330
1
100
AcDbSymbolTableRecord
100
AcDbBlockTableRecord
  2
SW_DOWELSYMBOL_0
340
0
102
{BLKREFS
331
134
102
}
  0
BLOCK_RECORD
  5
1FE
330
1
100
AcDbSymbolTableRecord
100
AcDbBlockTableRecord
  2
*D7
340
0
  0
BLOCK_RECORD
  5
20A
330
1
100
AcDbSymbolTableRecord
100
AcDbBlockTableRecord
  2
*D8
340
0
  0
BLOCK_RECORD
  5
216
330
1
100
AcDbSymbolTableRecord
100
AcDbBlockTableRecord
  2
*D9
340
0
  0
BLOCK_RECORD
  5
222
330
1
100
AcDbSymbolTableRecord
100
AcDbBlockTableRecord
  2
*D10
340
0
  0
BLOCK_RECORD
  5
270
330
1
100
AcDbSymbolTableRecord
100
AcDbBlockTableRecord
  2
*D11
340
0
  0
BLOCK_RECORD
  5
27C
330
1
100
AcDbSymbolTableRecord
100
AcDbBlockTableRecord
  2
*D12
340
0
  0
BLOCK_RECORD
  5
288
330
1
100
AcDbSymbolTableRecord
100
AcDbBlockTableRecord
  2
*D13
340
0
  0
BLOCK_RECORD
  5
294
330
1
100
AcDbSymbolTableRecord
100
AcDbBlockTableRecord
  2
*D14
340
0
  0
ENDTAB
  0
ENDSEC
  0
SECTION
  2
BLOCKS
  0
BLOCK
  5
20
330
1F
100
AcDbEntity
  8
0
100
AcDbBlockBegin
  2
*Model_Space
 70
     0
 10
0.0
 20
0.0
 30
0.0
  3
*Model_Space
  1
*Model_Space
  0
ENDBLK
  5
21
330
1F
100
AcDbEntity
  8
0
100
AcDbBlockEnd
  0
BLOCK
  5
1C
330
1B
100
AcDbEntity
 67
     1
  8
0
100
AcDbBlockBegin
  2
*Paper_Space
 70
     0
 10
0.0
 20
0.0
 30
0.0
  3
*Paper_Space
  1
*Paper_Space
  0
ENDBLK
  5
1D
330
1B
100
AcDbEntity
 67
     1
  8
0
100
AcDbBlockEnd
  0
BLOCK
  5
24
330
23
100
AcDbEntity
  8
0
100
AcDbBlockBegin
  2
*Paper_Space0
 70
     0
 10
0.0
 20
0.0
 30
0.0
  3
*Paper_Space0
  1
*Paper_Space0
  0
ENDBLK
  5
25
330
23
100
AcDbEntity
  8
0
100
AcDbBlockEnd
  0
BLOCK
  5
80
330
7F
100
AcDbEntity
  8
0
100
AcDbBlockBegin
  2
블럭10
 70
     2
 10
0.0
 20
0.0
 30
0.0
  3
블럭10
  1
블럭10
  0
ELLIPSE
  5
82
330
7F
100
AcDbEntity
  8
중심선
100
AcDbEllipse
 10
20.54032771741204
 20
12.0471743016438
 30
0.0
 11
6.600054785286829
 21
-1.261213355974178E-13
 31
0.0
210
0.0
220
0.0
230
1.0
 40
0.636358354079598
 41
0.9219305317359503
 42
6.513795318482858
  0
ELLIPSE
  5
83
330
7F
100
AcDbEntity
  8
중심선
100
AcDbEllipse
 10
20.54032771746488
 20
12.04717430159265
 30
0.0
 11
3.960054785062283
 21
1.540847449632565E-10
 31
0.0
210
0.0
220
0.0
230
1.0
 40
0.3939339440162632
 41
1.131841032648279
 42
5.62031148352944
  0
LINE
  5
84
330
7F
100
AcDbEntity
  8
중심선
100
AcDbLine
 10
2.268634060543552
 20
16.24717430164393
 30
0.0
 11
5.714909304380834
 21
16.24717430164393
 31
0.0
  0
LINE
  5
85
330
7F
100
AcDbEntity
  8
중심선
100
AcDbLine
 10
5.245725140726316
 20
7.84717430164391
 30
0.0
 11
8.692000384563599
 21
7.84717430164391
 31
0.0
  0
LINE
  5
86
330
7F
100
AcDbEntity
  8
중심선
100
AcDbLine
 10
15.74043728645272
 20
16.24717430164393
 30
0.0
 11
8.692000384563599
 21
7.84717430164391
 31
0.0
  0
LINE
  5
87
330
7F
100
AcDbEntity
  8
중심선
100
AcDbLine
 10
0.1404042013395286
 20
13.71084872107135
 30
0.0
 11
3.58671253028996
 21
13.71088815037384
 31
0.0
  0
LINE
  5
88
330
7F
100
AcDbEntity
  8
중심선
100
AcDbLine
 10
2.750260043222114
 20
10.84717430164391
 30
0.0
 11
6.196535287059397
 21
10.84717430164391
 31
0.0
  0
LINE
  5
89
330
7F
100
AcDbEntity
  8
중심선
100
AcDbLine
 10
12.29416204261559
 20
16.24717430164393
 30
0.0
 11
5.245725140726316
 21
7.84717430164391
 31
0.0
  0
LINE
  5
8A
330
7F
100
AcDbEntity
  8
중심선
100
AcDbLine
 10
10.72767329541681
 20
16.24717430164393
 30
0.0
 11
6.196535287059397
 21
10.84717430164391
 31
0.0
  0
LINE
  5
8B
330
7F
100
AcDbEntity
  8
중심선
100
AcDbLine
 10
7.28139805157953
 20
16.24717430164393
 30
0.0
 11
2.750260043222114
 21
10.84717430164391
 31
0.0
  0
LINE
  5
8C
330
7F
100
AcDbEntity
  8
중심선
100
AcDbLine
 10
5.714909304380834
 20
16.24717430164393
 30
0.0
 11
3.58671253028996
 21
13.71088815037384
 31
0.0
  0
LINE
  5
8D
330
7F
100
AcDbEntity
  8
중심선
100
AcDbLine
 10
2.268634060543552
 20
16.24717430164393
 30
0.0
 11
0.1404042013395286
 21
13.71084872107135
 31
0.0
  0
LINE
  5
8E
330
7F
100
AcDbEntity
  8
중심선
100
AcDbLine
 10
7.28139805157953
 20
16.24717430164393
 30
0.0
 11
10.72767329541681
 21
16.24717430164393
 31
0.0
  0
LINE
  5
8F
330
7F
100
AcDbEntity
  8
중심선
100
AcDbLine
 10
12.29416204261559
 20
16.24717430164393
 30
0.0
 11
15.74043728645272
 21
16.24717430164393
 31
0.0
  0
LINE
  5
90
330
7F
100
AcDbEntity
  8
중심선
100
AcDbLine
 10
19.22036997980202
 20
11.08717430171403
 30
0.0
 11
23.66174974927406
 21
11.08717430171406
 31
0.0
  0
LINE
  5
91
330
7F
100
AcDbEntity
  8
중심선
100
AcDbLine
 10
19.22039502424796
 20
13.00717430171391
 30
0.0
 11
19.22036997980202
 21
11.08717430171403
 31
0.0
  0
LINE
  5
92
330
7F
100
AcDbEntity
  8
중심선
100
AcDbLine
 10
19.22039502424796
 20
13.00717430171391
 30
0.0
 11
26.96566020931264
 21
13.00717430171391
 31
0.0
  0
LINE
  5
93
330
7F
100
AcDbEntity
  8
중심선
100
AcDbLine
 10
22.22332737316547
 20
13.45928029700563
 30
0.0
 11
24.52862924686651
 21
15.39360700705356
 31
0.0
  0
ATTDEF
  5
95
330
7F
100
AcDbEntity
  8
FORMAT
 62
     2
100
AcDbText
 10
4.408487351596664
 20
2.075366912832191
 30
0.0
 40
4.233333333333333
  1
E2034028
 41
0.75
  7
SLDTEXTSTYLE0
 11
4.408487351596664
 21
-0.0412997538344756
 31
0.0
100
AcDbAttributeDefinition
  3

  2
AUTOATTR0
 70
     0
 74
     1
  0
ENDBLK
  5
81
330
7F
100
AcDbEntity
  8
0
100
AcDbBlockEnd
  0
BLOCK
  5
DA
330
D9
100
AcDbEntity
  8
0
100
AcDbBlockBegin
  2
_D
 70
     0
 10
0.0
 20
0.0
 30
0.0
  3
_D
  1
_D
  0
LINE
  5
DC
330
D9
100
AcDbEntity
  8
치수문자_일반주서
 62
     0
370
    -2
100
AcDbLine
 10
50.41231532850782
 20
5.619824928723902
 30
0.0
 11
50.41231532850782
 21
18.71773021385185
 31
0.0
  0
LINE
  5
DD
330
D9
100
AcDbEntity
  8
치수문자_일반주서
 62
     0
370
    -2
100
AcDbLine
 10
5.962315328507826
 20
5.619654246525364
 30
0.0
 11
5.962315328507827
 21
18.71773021385185
 31
0.0
  0
LINE
  5
DE
330
D9
100
AcDbEntity
  8
치수문자_일반주서
 62
     0
370
    -2
100
AcDbLine
 10
47.11031532850782
 20
18.71773021385185
 30
0.0
 11
9.264315328507827
 21
18.71773021385185
 31
0.0
  0
SOLID
  5
DF
330
D9
100
AcDbEntity
  8
치수문자_일반주서
 62
     0
100
AcDbTrace
 10
47.11031532850782
 20
18.16739688051852
 30
0.0
 11
47.11031532850782
 21
19.26806354718519
 31
0.0
 12
50.41231532850782
 22
18.71773021385185
 32
0.0
 13
50.41231532850782
 23
18.71773021385185
 33
0.0
  0
SOLID
  5
E0
330
D9
100
AcDbEntity
  8
치수문자_일반주서
 62
     0
100
AcDbTrace
 10
9.264315328507827
 20
19.26806354718519
 30
0.0
 11
9.264315328507827
 21
18.16739688051852
 31
0.0
 12
5.962315328507827
 22
18.71773021385185
 32
0.0
 13
5.962315328507827
 23
18.71773021385185
 33
0.0
  0
MTEXT
  5
E1
330
D9
100
AcDbEntity
  8
치수문자_일반주서
 62
     0
100
AcDbMText
 10
28.18731532850782
 20
23.09273021385185
 30
0.0
 40
3.5
 41
0.0
 71
     2
 72
     1
  1
\A1;44.45 [1 3/4]
  7
SLDTEXTSTYLE0
 73
     1
 44
1.0
  0
POINT
  5
E2
330
D9
100
AcDbEntity
  8
Defpoints
 62
     0
100
AcDbPoint
 10
50.41231532850782
 20
5.557324928723902
 30
0.0
  0
POINT
  5
E3
330
D9
100
AcDbEntity
  8
Defpoints
 62
     0
100
AcDbPoint
 10
5.962315328507826
 20
5.557154246525364
 30
0.0
  0
POINT
  5
E4
330
D9
100
AcDbEntity
  8
Defpoints
 62
     0
100
AcDbPoint
 10
5.962315328507826
 20
18.71773021385185
 30
0.0
  0
ENDBLK
  5
DB
330
D9
100
AcDbEntity
  8
0
100
AcDbBlockEnd
  0
BLOCK
  5
EE
330
ED
100
AcDbEntity
  8
0
100
AcDbBlockBegin
  2
_D_1
 70
     0
 10
0.0
 20
0.0
 30
0.0
  3
_D_1
  1
_D_1
  0
LINE
  5
F0
330
ED
100
AcDbEntity
  8
치수문자_일반주서
 62
     0
370
    -2
100
AcDbLine
 10
50.41231532850782
 20
5.619824928723902
 30
0.0
 11
50.41231532850782
 21
34.43893541165472
 31
0.0
  0
LINE
  5
F1
330
ED
100
AcDbEntity
  8
치수문자_일반주서
 62
     0
370
    -2
100
AcDbLine
 10
-44.83768467149218
 20
5.143574928723896
 30
0.0
 11
-44.83768467149218
 21
34.43893541165472
 31
0.0
  0
LINE
  5
F2
330
ED
100
AcDbEntity
  8
치수문자_일반주서
 62
     0
370
    -2
100
AcDbLine
 10
47.11031532850782
 20
34.43893541165472
 30
0.0
 11
-41.53568467149218
 21
34.43893541165472
 31
0.0
  0
SOLID
  5
F3
330
ED
100
AcDbEntity
  8
치수문자_일반주서
 62
     0
100
AcDbTrace
 10
47.11031532850782
 20
33.88860207832138
 30
0.0
 11
47.11031532850782
 21
34.98926874498805
 31
0.0
 12
50.41231532850782
 22
34.43893541165472
 32
0.0
 13
50.41231532850782
 23
34.43893541165472
 33
0.0
  0
SOLID
  5
F4
330
ED
100
AcDbEntity
  8
치수문자_일반주서
 62
     0
100
AcDbTrace
 10
-41.53568467149218
 20
34.98926874498805
 30
0.0
 11
-41.53568467149218
 21
33.88860207832138
 31
0.0
 12
-44.83768467149218
 22
34.43893541165472
 32
0.0
 13
-44.83768467149218
 23
34.43893541165472
 33
0.0
  0
MTEXT
  5
F5
330
ED
100
AcDbEntity
  8
치수문자_일반주서
 62
     0
100
AcDbMText
 10
2.787315328507814
 20
38.81393541165472
 30
0.0
 40
3.5
 41
0.0
 71
     2
 72
     1
  1
\A1;95.25 [3 3/4]
  7
SLDTEXTSTYLE0
 73
     1
 44
1.0
  0
POINT
  5
F6
330
ED
100
AcDbEntity
  8
Defpoints
 62
     0
100
AcDbPoint
 10
50.41231532850782
 20
5.557324928723902
 30
0.0
  0
POINT
  5
F7
330
ED
100
AcDbEntity
  8
Defpoints
 62
     0
100
AcDbPoint
 10
-44.83768467149218
 20
5.081074928723896
 30
0.0
  0
POINT
  5
F8
330
ED
100
AcDbEntity
  8
Defpoints
 62
     0
100
AcDbPoint
 10
-44.83768467149218
 20
34.43893541165472
 30
0.0
  0
ENDBLK
  5
EF
330
ED
100
AcDbEntity
  8
0
100
AcDbBlockEnd
  0
BLOCK
  5
102
330
101
100
AcDbEntity
  8
0
100
AcDbBlockBegin
  2
_D_2
 70
     0
 10
0.0
 20
0.0
 30
0.0
  3
_D_2
  1
_D_2
  0
LINE
  5
104
330
101
100
AcDbEntity
  8
치수문자_일반주서
 62
     0
370
    -2
100
AcDbLine
 10
-43.6301846714922
 20
6.351074928723888
 30
0.0
 11
-55.82095750931941
 21
6.351074928723841
 31
0.0
  0
LINE
  5
105
330
101
100
AcDbEntity
  8
치수문자_일반주서
 62
     0
370
    -2
100
AcDbLine
 10
-43.6301846714922
 20
-6.348925071276101
 30
0.0
 11
-55.82095750931936
 21
-6.348925071276147
 31
0.0
  0
LINE
  5
106
330
101
100
AcDbEntity
  8
치수문자_일반주서
 62
     0
370
    -2
100
AcDbLine
 10
-55.82095750931939
 20
3.049074928723842
 30
0.0
 11
-55.82095750931938
 21
-3.046925071276148
 31
0.0
  0
SOLID
  5
107
330
101
100
AcDbEntity
  8
치수문자_일반주서
 62
     0
100
AcDbTrace
 10
-55.27062417598606
 20
3.049074928723844
 30
0.0
 11
-56.37129084265273
 21
3.04907492872384
 31
0.0
 12
-55.82095750931941
 22
6.351074928723841
 32
0.0
 13
-55.82095750931941
 23
6.351074928723841
 33
0.0
  0
SOLID
  5
108
330
101
100
AcDbEntity
  8
치수문자_일반주서
 62
     0
100
AcDbTrace
 10
-56.37129084265271
 20
-3.046925071276149
 30
0.0
 11
-55.27062417598604
 21
-3.046925071276146
 31
0.0
 12
-55.82095750931936
 22
-6.348925071276147
 32
0.0
 13
-55.82095750931936
 23
-6.348925071276147
 33
0.0
  0
MTEXT
  5
109
330
101
100
AcDbEntity
  8
치수문자_일반주서
 62
     0
100
AcDbMText
 10
-60.19595750931938
 20
0.0010749287238727
 30
0.0
 40
3.5
 41
0.0
 71
     2
 72
     1
  1
\A1;%%c12.70 [1/2]
  7
SLDTEXTSTYLE0
 11
-3.356894814614650E-15
 21
1.0
 31
0.0
 73
     1
 44
1.0
  0
POINT
  5
10A
330
101
100
AcDbEntity
  8
Defpoints
 62
     0
100
AcDbPoint
 10
-43.5676846714922
 20
6.351074928723888
 30
0.0
  0
POINT
  5
10B
330
101
100
AcDbEntity
  8
Defpoints
 62
     0
100
AcDbPoint
 10
-43.5676846714922
 20
-6.348925071276101
 30
0.0
  0
POINT
  5
10C
330
101
100
AcDbEntity
  8
Defpoints
 62
     0
100
AcDbPoint
 10
-55.82095750931936
 20
-6.348925071276147
 30
0.0
  0
ENDBLK
  5
103
330
101
100
AcDbEntity
  8
0
100
AcDbBlockEnd
  0
BLOCK
  5
116
330
115
100
AcDbEntity
  8
0
100
AcDbBlockBegin
  2
_D_3
 70
     0
 10
0.0
 20
0.0
 30
0.0
  3
_D_3
  1
_D_3
  0
LINE
  5
118
330
115
100
AcDbEntity
  8
치수문자_일반주서
 62
     0
370
    -2
100
AcDbLine
 10
50.47481532850783
 20
5.557324928723903
 30
0.0
 11
64.881014477008
 21
5.557324928723954
 31
0.0
  0
LINE
  5
119
330
115
100
AcDbEntity
  8
치수문자_일반주서
 62
     0
370
    -2
100
AcDbLine
 10
50.47481532850782
 20
-5.555175071276099
 30
0.0
 11
64.88101447700804
 21
-5.555175071276047
 31
0.0
  0
LINE
  5
11A
330
115
100
AcDbEntity
  8
치수문자_일반주서
 62
     0
370
    -2
100
AcDbLine
 10
64.881014477008
 20
5.557324928723954
 30
0.0
 11
64.88101447700785
 21
39.94257492872395
 31
0.0
  0
LINE
  5
11B
330
115
100
AcDbEntity
  8
치수문자_일반주서
 62
     0
370
    -2
100
AcDbLine
 10
64.881014477008
 20
5.557324928723954
 30
0.0
 11
64.88101447700804
 21
-5.555175071276047
 31
0.0
  0
LINE
  5
11C
330
115
100
AcDbEntity
  8
치수문자_일반주서
 62
     0
370
    -2
100
AcDbLine
 10
64.88101447700798
 20
8.859324928723954
 30
0.0
 11
64.88101447700797
 21
12.16132492872395
 31
0.0
  0
LINE
  5
11D
330
115
100
AcDbEntity
  8
치수문자_일반주서
 62
     0
370
    -2
100
AcDbLine
 10
64.88101447700805
 20
-8.857175071276046
 30
0.0
 11
64.88101447700807
 21
-12.15917507127605
 31
0.0
  0
SOLID
  5
11E
330
115
100
AcDbEntity
  8
치수문자_일반주서
 62
     0
100
AcDbTrace
 10
64.33068114367465
 20
8.859324928723952
 30
0.0
 11
65.43134781034131
 21
8.859324928723955
 31
0.0
 12
64.881014477008
 22
5.557324928723954
 32
0.0
 13
64.881014477008
 23
5.557324928723954
 33
0.0
  0
SOLID
  5
11F
330
115
100
AcDbEntity
  8
치수문자_일반주서
 62
     0
100
AcDbTrace
 10
65.43134781034138
 20
-8.857175071276044
 30
0.0
 11
64.33068114367472
 21
-8.857175071276048
 31
0.0
 12
64.88101447700804
 22
-5.555175071276047
 32
0.0
 13
64.88101447700804
 23
-5.555175071276047
 33
0.0
  0
MTEXT
  5
120
330
115
100
AcDbEntity
  8
치수문자_일반주서
 62
     0
100
AcDbMText
 10
60.50601447700791
 20
26.38007492872393
 30
0.0
 40
3.5
 41
0.0
 71
     2
 72
     1
  1
\A1;%%c11.11 [7/16]
  7
SLDTEXTSTYLE0
 11
-3.836451216702453E-15
 21
1.0
 31
0.0
 73
     1
 44
1.0
  0
POINT
  5
121
330
115
100
AcDbEntity
  8
Defpoints
 62
     0
100
AcDbPoint
 10
50.41231532850783
 20
5.557324928723903
 30
0.0
  0
POINT
  5
2A5
330
115
100
AcDbEntity
  8
Defpoints
 62
     0
100
AcDbPoint
 10
50.41231532850782
 20
-5.555175071276099
 30
0.0
  0
POINT
  5
2A6
330
115
100
AcDbEntity
  8
Defpoints
 62
     0
100
AcDbPoint
 10
64.88101447700804
 20
-5.555175071276045
 30
0.0
  0
ENDBLK
  5
117
330
115
100
AcDbEntity
  8
0
100
AcDbBlockEnd
  0
BLOCK
  5
12F
330
12E
100
AcDbEntity
  8
0
100
AcDbBlockBegin
  2
SW_DOWELSYMBOL_0
 70
     0
 10
0.0
 20
0.0
 30
0.0
  3
SW_DOWELSYMBOL_0
  1
SW_DOWELSYMBOL_0
  0
CIRCLE
  5
131
330
12E
100
AcDbEntity
  8
해칭선
 62
     0
100
AcDbCircle
 10
0.0
 20
0.0
 30
0.0
 40
3.0
  0
HATCH
  5
132
330
12E
100
AcDbEntity
  8
0
  6
Continuous
 62
     0
370
     0
100
AcDbHatch
 10
0.0
 20
0.0
 30
0.0
210
0.0
220
0.0
230
1.0
  2
SOLID
 70
     1
 71
     0
 91
        1
 92
        0
 93
        3
 72
     2
 10
0.0
 20
0.0
 40
3.0
 50
0.0
 51
90.0
 73
     1
 72
     1
 10
0.0
 20
3.0
 11
0.0
 21
0.0
 72
     1
 10
0.0
 20
0.0
 11
2.999999999999999
 21
0.0
 97
        0
 75
     0
 76
     1
 98
        1
 10
0.0
 20
0.0
  0
HATCH
  5
133
330
12E
100
AcDbEntity
  8
0
  6
Continuous
 62
     0
370
     0
100
AcDbHatch
 10
0.0
 20
0.0
 30
0.0
210
0.0
220
0.0
230
1.0
  2
SOLID
 70
     1
 71
     0
 91
        1
 92
        0
 93
        3
 72
     2
 10
0.0
 20
0.0
 40
3.0
 50
180.0
 51
270.0000000000007
 73
     1
 72
     1
 10
0.0
 20
-3.0
 11
0.0
 21
0.0
 72
     1
 10
0.0
 20
0.0
 11
-2.999999999999999
 21
0.0
 97
        0
 75
     0
 76
     1
 98
        1
 10
0.0
 20
0.0
  0
ENDBLK
  5
130
330
12E
100
AcDbEntity
  8
0
100
AcDbBlockEnd
  0
BLOCK
  5
1FF
330
1FE
100
AcDbEntity
  8
0
100
AcDbBlockBegin
  2
*D7
 70
     1
 10
0.0
 20
0.0
 30
0.0
  3
*D7
  1
*D8
  0
LINE
  5
201
330
1FE
100
AcDbEntity
  8
치수문자_일반주서
 62
     0
370
    -2
100
AcDbLine
 10
110.6082728378272
 20
17.88906250000002
 30
0.0
 11
110.6082728378272
 21
26.11279605503113
 31
0.0
  0
LINE
  5
202
330
1FE
100
AcDbEntity
  8
치수문자_일반주서
 62
     0
370
    -2
100
AcDbLine
 10
66.15827283782724
 20
17.81775486066402
 30
0.0
 11
66.15827283782724
 21
26.11279605503113
 31
0.0
  0
LINE
  5
203
330
1FE
100
AcDbEntity
  8
치수문자_일반주서
 62
     0
370
    -2
100
AcDbLine
 10
107.3062728378272
 20
26.11279605503113
 30
0.0
 11
69.46027283782723
 21
26.11279605503113
 31
0.0
  0
SOLID
  5
204
330
1FE
100
AcDbEntity
  8
치수문자_일반주서
 62
     0
100
AcDbTrace
 10
107.3062728378272
 20
25.56246272169779
 30
0.0
 11
107.3062728378272
 21
26.66312938836446
 31
0.0
 12
110.6082728378272
 22
26.11279605503113
 32
0.0
 13
110.6082728378272
 23
26.11279605503113
 33
0.0
  0
SOLID
  5
205
330
1FE
100
AcDbEntity
  8
치수문자_일반주서
 62
     0
100
AcDbTrace
 10
69.46027283782723
 20
26.66312938836446
 30
0.0
 11
69.46027283782723
 21
25.56246272169779
 31
0.0
 12
66.15827283782724
 22
26.11279605503113
 32
0.0
 13
66.15827283782724
 23
26.11279605503113
 33
0.0
  0
MTEXT
  5
206
330
1FE
100
AcDbEntity
  8
치수문자_일반주서
 62
     0
100
AcDbMText
 10
86.28609259300944
 20
30.48779605503113
 30
0.0
 40
3.5
 41
0.0
 71
     2
 72
     1
  1
\A1;44.45 [1 3/4]
  7
SLDTEXTSTYLE0
 73
     1
 44
1.0
  0
POINT
  5
207
330
1FE
100
AcDbEntity
  8
Defpoints
 62
     0
100
AcDbPoint
 10
110.6082728378272
 20
17.82656250000002
 30
0.0
  0
POINT
  5
208
330
1FE
100
AcDbEntity
  8
Defpoints
 62
     0
100
AcDbPoint
 10
66.15827283782724
 20
17.75525486066402
 30
0.0
  0
POINT
  5
209
330
1FE
100
AcDbEntity
  8
Defpoints
 62
     0
100
AcDbPoint
 10
66.15827283782724
 20
26.11279605503113
 30
0.0
  0
ENDBLK
  5
200
330
1FE
100
AcDbEntity
  8
0
100
AcDbBlockEnd
  0
BLOCK
  5
20B
330
20A
100
AcDbEntity
  8
0
100
AcDbBlockBegin
  2
*D8
 70
     1
 10
0.0
 20
0.0
 30
0.0
  3
*D8
  1
*D9
  0
LINE
  5
20D
330
20A
100
AcDbEntity
  8
치수문자_일반주서
 62
     0
370
    -2
100
AcDbLine
 10
110.6082728378272
 20
17.88906250000002
 30
0.0
 11
110.6082728378272
 21
46.70890271867444
 31
0.0
  0
LINE
  5
20E
330
20A
100
AcDbEntity
  8
치수문자_일반주서
 62
     0
370
    -2
100
AcDbLine
 10
15.35827283782724
 20
17.61125000000002
 30
0.0
 11
15.35827283782724
 21
46.70890271867444
 31
0.0
  0
LINE
  5
20F
330
20A
100
AcDbEntity
  8
치수문자_일반주서
 62
     0
370
    -2
100
AcDbLine
 10
107.3062728378272
 20
46.70890271867444
 30
0.0
 11
18.66027283782724
 21
46.70890271867444
 31
0.0
  0
SOLID
  5
210
330
20A
100
AcDbEntity
  8
치수문자_일반주서
 62
     0
100
AcDbTrace
 10
107.3062728378272
 20
46.1585693853411
 30
0.0
 11
107.3062728378272
 21
47.25923605200777
 31
0.0
 12
110.6082728378272
 22
46.70890271867444
 32
0.0
 13
110.6082728378272
 23
46.70890271867444
 33
0.0
  0
SOLID
  5
211
330
20A
100
AcDbEntity
  8
치수문자_일반주서
 62
     0
100
AcDbTrace
 10
18.66027283782724
 20
47.25923605200777
 30
0.0
 11
18.66027283782724
 21
46.1585693853411
 31
0.0
 12
15.35827283782724
 22
46.70890271867444
 32
0.0
 13
15.35827283782724
 23
46.70890271867444
 33
0.0
  0
MTEXT
  5
212
330
20A
100
AcDbEntity
  8
치수문자_일반주서
 62
     0
100
AcDbMText
 10
62.98327283782724
 20
51.08390271867444
 30
0.0
 40
3.5
 41
0.0
 71
     2
 72
     1
  1
\A1;95.25 [3 3/4]
  7
SLDTEXTSTYLE0
 73
     1
 44
1.0
  0
POINT
  5
213
330
20A
100
AcDbEntity
  8
Defpoints
 62
     0
100
AcDbPoint
 10
110.6082728378272
 20
17.82656250000002
 30
0.0
  0
POINT
  5
214
330
20A
100
AcDbEntity
  8
Defpoints
 62
     0
100
AcDbPoint
 10
15.35827283782724
 20
17.54875000000002
 30
0.0
  0
POINT
  5
215
330
20A
100
AcDbEntity
  8
Defpoints
 62
     0
100
AcDbPoint
 10
15.35827283782724
 20
46.70890271867444
 30
0.0
  0
ENDBLK
  5
20C
330
20A
100
AcDbEntity
  8
0
100
AcDbBlockEnd
  0
BLOCK
  5
217
330
216
100
AcDbEntity
  8
0
100
AcDbBlockBegin
  2
*D9
 70
     1
 10
0.0
 20
0.0
 30
0.0
  3
*D9
  1
*D10
  0
LINE
  5
219
330
216
100
AcDbEntity
  8
치수문자_일반주서
 62
     0
370
    -2
100
AcDbLine
 10
16.56577283782723
 20
18.81875000000001
 30
0.0
 11
4.37500000000002
 21
18.81874999999997
 31
0.0
  0
LINE
  5
21A
330
216
100
AcDbEntity
  8
치수문자_일반주서
 62
     0
370
    -2
100
AcDbLine
 10
16.56577283782723
 20
6.118750000000023
 30
0.0
 11
4.375000000000065
 21
6.118749999999977
 31
0.0
  0
LINE
  5
21B
330
216
100
AcDbEntity
  8
치수문자_일반주서
 62
     0
370
    -2
100
AcDbLine
 10
4.375000000000032
 20
15.51674999999997
 30
0.0
 11
4.375000000000053
 21
9.420749999999977
 31
0.0
  0
SOLID
  5
21C
330
216
100
AcDbEntity
  8
치수문자_일반주서
 62
     0
100
AcDbTrace
 10
4.925333333333366
 20
15.51674999999997
 30
0.0
 11
3.824666666666699
 21
15.51674999999996
 31
0.0
 12
4.37500000000002
 22
18.81874999999997
 32
0.0
 13
4.37500000000002
 23
18.81874999999997
 33
0.0
  0
SOLID
  5
21D
330
216
100
AcDbEntity
  8
치수문자_일반주서
 62
     0
100
AcDbTrace
 10
3.82466666666672
 20
9.420749999999975
 30
0.0
 11
4.925333333333387
 21
9.420749999999979
 31
0.0
 12
4.375000000000065
 22
6.118749999999977
 32
0.0
 13
4.375000000000065
 23
6.118749999999977
 33
0.0
  0
MTEXT
  5
21E
330
216
100
AcDbEntity
  8
치수문자_일반주서
 62
     0
100
AcDbMText
 10
0.0000000000000426
 20
12.46875
 30
0.0
 40
3.5
 41
0.0
 71
     2
 72
     1
  1
\A1;%%c12.70 [1/2]
  7
SLDTEXTSTYLE0
 11
-3.496765431890260E-15
 21
1.0
 31
0.0
 73
     1
 44
1.0
  0
POINT
  5
21F
330
216
100
AcDbEntity
  8
Defpoints
 62
     0
100
AcDbPoint
 10
16.62827283782723
 20
18.81875000000001
 30
0.0
  0
POINT
  5
220
330
216
100
AcDbEntity
  8
Defpoints
 62
     0
100
AcDbPoint
 10
16.62827283782723
 20
6.118750000000023
 30
0.0
  0
POINT
  5
221
330
216
100
AcDbEntity
  8
Defpoints
 62
     0
100
AcDbPoint
 10
4.375000000000064
 20
6.118749999999977
 30
0.0
  0
ENDBLK
  5
218
330
216
100
AcDbEntity
  8
0
100
AcDbBlockEnd
  0
BLOCK
  5
223
330
222
100
AcDbEntity
  8
0
100
AcDbBlockBegin
  2
*D10
 70
     1
 10
0.0
 20
0.0
 30
0.0
  3
*D10
  1
*D11
  0
LINE
  5
225
330
222
100
AcDbEntity
  8
치수문자_일반주서
 62
     0
370
    -2
100
AcDbLine
 10
110.6707728378272
 20
17.82656250000002
 30
0.0
 11
129.1040639855997
 21
17.82656250000009
 31
0.0
  0
LINE
  5
226
330
222
100
AcDbEntity
  8
치수문자_일반주서
 62
     0
370
    -2
100
AcDbLine
 10
110.6707728378272
 20
7.110937500000027
 30
0.0
 11
129.1040639855997
 21
7.110937500000098
 31
0.0
  0
LINE
  5
227
330
222
100
AcDbEntity
  8
치수문자_일반주서
 62
     0
370
    -2
100
AcDbLine
 10
129.1040639855997
 20
17.82656250000009
 30
0.0
 11
129.1040639855995
 21
57.24306250000009
 31
0.0
  0
LINE
  5
228
330
222
100
AcDbEntity
  8
치수문자_일반주서
 62
     0
370
    -2
100
AcDbLine
 10
129.1040639855997
 20
17.82656250000009
 30
0.0
 11
129.1040639855997
 21
7.110937500000098
 31
0.0
  0
LINE
  5
229
330
222
100
AcDbEntity
  8
치수문자_일반주서
 62
     0
370
    -2
100
AcDbLine
 10
129.1040639855997
 20
21.12856250000009
 30
0.0
 11
129.1040639855997
 21
24.43056250000009
 31
0.0
  0
LINE
  5
22A
330
222
100
AcDbEntity
  8
치수문자_일반주서
 62
     0
370
    -2
100
AcDbLine
 10
129.1040639855997
 20
3.808937500000098
 30
0.0
 11
129.1040639855997
 21
0.5069375000000989
 31
0.0
  0
SOLID
  5
22B
330
222
100
AcDbEntity
  8
치수문자_일반주서
 62
     0
100
AcDbTrace
 10
128.5537306522663
 20
21.12856250000009
 30
0.0
 11
129.654397318933
 21
21.12856250000009
 31
0.0
 12
129.1040639855997
 22
17.82656250000009
 32
0.0
 13
129.1040639855997
 23
17.82656250000009
 33
0.0
  0
SOLID
  5
22C
330
222
100
AcDbEntity
  8
치수문자_일반주서
 62
     0
100
AcDbTrace
 10
129.654397318933
 20
3.8089375000001
 30
0.0
 11
128.5537306522664
 21
3.808937500000097
 31
0.0
 12
129.1040639855997
 22
7.110937500000098
 32
0.0
 13
129.1040639855997
 23
7.110937500000098
 33
0.0
  0
MTEXT
  5
22D
330
222
100
AcDbEntity
  8
치수문자_일반주서
 62
     0
100
AcDbMText
 10
124.7290639855996
 20
40.83681250000008
 30
0.0
 40
3.5
 41
0.0
 71
     2
 72
     1
  1
\A1;%%c10.72 [27/64]
  7
SLDTEXTSTYLE0
 11
-2.652361335004166E-15
 21
1.0
 31
0.0
 73
     1
 44
1.0
  0
POINT
  5
22E
330
222
100
AcDbEntity
  8
Defpoints
 62
     0
100
AcDbPoint
 10
110.6082728378272
 20
17.82656250000002
 30
0.0
  0
POINT
  5
22F
330
222
100
AcDbEntity
  8
Defpoints
 62
     0
100
AcDbPoint
 10
110.6082728378272
 20
7.110937500000027
 30
0.0
  0
POINT
  5
230
330
222
100
AcDbEntity
  8
Defpoints
 62
     0
100
AcDbPoint
 10
129.1040639855997
 20
7.110937500000096
 30
0.0
  0
ENDBLK
  5
224
330
222
100
AcDbEntity
  8
0
100
AcDbBlockEnd
  0
BLOCK
  5
271
330
270
100
AcDbEntity
  8
0
100
AcDbBlockBegin
  2
*D11
 70
     1
 10
0.0
 20
0.0
 30
0.0
  3
*D11
  1
*D12
  0
LINE
  5
273
330
270
100
AcDbEntity
  8
치수문자_일반주서
 62
     0
370
    -2
100
AcDbLine
 10
196.996433618242
 20
-50.54042975167499
 30
0.0
 11
196.996433618242
 21
-42.31669619664389
 31
0.0
  0
LINE
  5
274
330
270
100
AcDbEntity
  8
치수문자_일반주서
 62
     0
370
    -2
100
AcDbLine
 10
152.546433618242
 20
-50.611737391011
 30
0.0
 11
152.546433618242
 21
-42.31669619664389
 31
0.0
  0
LINE
  5
275
330
270
100
AcDbEntity
  8
치수문자_일반주서
 62
     0
370
    -2
100
AcDbLine
 10
193.694433618242
 20
-42.31669619664389
 30
0.0
 11
155.848433618242
 21
-42.31669619664389
 31
0.0
  0
SOLID
  5
276
330
270
100
AcDbEntity
  8
치수문자_일반주서
 62
     0
100
AcDbTrace
 10
193.694433618242
 20
-42.86702952997722
 30
0.0
 11
193.694433618242
 21
-41.76636286331055
 31
0.0
 12
196.996433618242
 22
-42.31669619664389
 32
0.0
 13
196.996433618242
 23
-42.31669619664389
 33
0.0
  0
SOLID
  5
277
330
270
100
AcDbEntity
  8
치수문자_일반주서
 62
     0
100
AcDbTrace
 10
155.848433618242
 20
-41.76636286331055
 30
0.0
 11
155.848433618242
 21
-42.86702952997722
 31
0.0
 12
152.546433618242
 22
-42.31669619664389
 32
0.0
 13
152.546433618242
 23
-42.31669619664389
 33
0.0
  0
MTEXT
  5
278
330
270
100
AcDbEntity
  8
치수문자_일반주서
 62
     0
100
AcDbMText
 10
172.6742533734242
 20
-37.94169619664389
 30
0.0
 40
3.5
 41
0.0
 71
     2
 72
     1
  1
\A1;44.45 [1 3/4]
  7
SLDTEXTSTYLE0
 73
     1
 44
1.0
  0
POINT
  5
279
330
270
100
AcDbEntity
  8
Defpoints
 62
     0
100
AcDbPoint
 10
196.996433618242
 20
-50.60292975167499
 30
0.0
  0
POINT
  5
27A
330
270
100
AcDbEntity
  8
Defpoints
 62
     0
100
AcDbPoint
 10
152.546433618242
 20
-50.674237391011
 30
0.0
  0
POINT
  5
27B
330
270
100
AcDbEntity
  8
Defpoints
 62
     0
100
AcDbPoint
 10
152.546433618242
 20
-42.31669619664389
 30
0.0
  0
ENDBLK
  5
272
330
270
100
AcDbEntity
  8
0
100
AcDbBlockEnd
  0
BLOCK
  5
27D
330
27C
100
AcDbEntity
  8
0
100
AcDbBlockBegin
  2
*D12
 70
     1
 10
0.0
 20
0.0
 30
0.0
  3
*D12
  1
*D13
  0
LINE
  5
27F
330
27C
100
AcDbEntity
  8
치수문자_일반주서
 62
     0
370
    -2
100
AcDbLine
 10
196.996433618242
 20
-50.54042975167499
 30
0.0
 11
196.996433618242
 21
-21.72058953300058
 31
0.0
  0
LINE
  5
280
330
27C
100
AcDbEntity
  8
치수문자_일반주서
 62
     0
370
    -2
100
AcDbLine
 10
101.746433618242
 20
-50.818242251675
 30
0.0
 11
101.746433618242
 21
-21.72058953300058
 31
0.0
  0
LINE
  5
281
330
27C
100
AcDbEntity
  8
치수문자_일반주서
 62
     0
370
    -2
100
AcDbLine
 10
193.694433618242
 20
-21.72058953300058
 30
0.0
 11
105.048433618242
 21
-21.72058953300058
 31
0.0
  0
SOLID
  5
282
330
27C
100
AcDbEntity
  8
치수문자_일반주서
 62
     0
100
AcDbTrace
 10
193.694433618242
 20
-22.27092286633391
 30
0.0
 11
193.694433618242
 21
-21.17025619966724
 31
0.0
 12
196.996433618242
 22
-21.72058953300058
 32
0.0
 13
196.996433618242
 23
-21.72058953300058
 33
0.0
  0
SOLID
  5
283
330
27C
100
AcDbEntity
  8
치수문자_일반주서
 62
     0
100
AcDbTrace
 10
105.048433618242
 20
-21.17025619966724
 30
0.0
 11
105.048433618242
 21
-22.27092286633391
 31
0.0
 12
101.746433618242
 22
-21.72058953300058
 32
0.0
 13
101.746433618242
 23
-21.72058953300058
 33
0.0
  0
MTEXT
  5
284
330
27C
100
AcDbEntity
  8
치수문자_일반주서
 62
     0
100
AcDbMText
 10
149.371433618242
 20
-17.34558953300058
 30
0.0
 40
3.5
 41
0.0
 71
     2
 72
     1
  1
\A1;95.25 [3 3/4]
  7
SLDTEXTSTYLE0
 73
     1
 44
1.0
  0
POINT
  5
285
330
27C
100
AcDbEntity
  8
Defpoints
 62
     0
100
AcDbPoint
 10
196.996433618242
 20
-50.60292975167499
 30
0.0
  0
POINT
  5
286
330
27C
100
AcDbEntity
  8
Defpoints
 62
     0
100
AcDbPoint
 10
101.746433618242
 20
-50.880742251675
 30
0.0
  0
POINT
  5
287
330
27C
100
AcDbEntity
  8
Defpoints
 62
     0
100
AcDbPoint
 10
101.746433618242
 20
-21.72058953300058
 30
0.0
  0
ENDBLK
  5
27E
330
27C
100
AcDbEntity
  8
0
100
AcDbBlockEnd
  0
BLOCK
  5
289
330
288
100
AcDbEntity
  8
0
100
AcDbBlockBegin
  2
*D13
 70
     1
 10
0.0
 20
0.0
 30
0.0
  3
*D13
  1
*D14
  0
LINE
  5
28B
330
288
100
AcDbEntity
  8
치수문자_일반주서
 62
     0
370
    -2
100
AcDbLine
 10
102.953933618242
 20
-49.61074225167501
 30
0.0
 11
90.76316078041476
 21
-49.61074225167505
 31
0.0
  0
LINE
  5
28C
330
288
100
AcDbEntity
  8
치수문자_일반주서
 62
     0
370
    -2
100
AcDbLine
 10
102.953933618242
 20
-62.31074225167499
 30
0.0
 11
90.76316078041481
 21
-62.31074225167504
 31
0.0
  0
LINE
  5
28D
330
288
100
AcDbEntity
  8
치수문자_일반주서
 62
     0
370
    -2
100
AcDbLine
 10
90.76316078041478
 20
-52.91274225167505
 30
0.0
 11
90.7631607804148
 21
-59.00874225167504
 31
0.0
  0
SOLID
  5
28E
330
288
100
AcDbEntity
  8
치수문자_일반주서
 62
     0
100
AcDbTrace
 10
91.3134941137481
 20
-52.91274225167505
 30
0.0
 11
90.21282744708145
 21
-52.91274225167505
 31
0.0
 12
90.76316078041476
 22
-49.61074225167505
 32
0.0
 13
90.76316078041476
 23
-49.61074225167505
 33
0.0
  0
SOLID
  5
28F
330
288
100
AcDbEntity
  8
치수문자_일반주서
 62
     0
100
AcDbTrace
 10
90.21282744708147
 20
-59.00874225167504
 30
0.0
 11
91.31349411374812
 21
-59.00874225167504
 31
0.0
 12
90.76316078041481
 22
-62.31074225167504
 32
0.0
 13
90.76316078041481
 23
-62.31074225167504
 33
0.0
  0
MTEXT
  5
290
330
288
100
AcDbEntity
  8
치수문자_일반주서
 62
     0
100
AcDbMText
 10
86.38816078041478
 20
-55.96074225167501
 30
0.0
 40
3.5
 41
0.0
 71
     2
 72
     1
  1
\A1;%%c12.70 [1/2]
  7
SLDTEXTSTYLE0
 11
-3.356894814614650E-15
 21
1.0
 31
0.0
 73
     1
 44
1.0
  0
POINT
  5
291
330
288
100
AcDbEntity
  8
Defpoints
 62
     0
100
AcDbPoint
 10
103.016433618242
 20
-49.61074225167501
 30
0.0
  0
POINT
  5
292
330
288
100
AcDbEntity
  8
Defpoints
 62
     0
100
AcDbPoint
 10
103.016433618242
 20
-62.31074225167499
 30
0.0
  0
POINT
  5
293
330
288
100
AcDbEntity
  8
Defpoints
 62
     0
100
AcDbPoint
 10
90.76316078041481
 20
-62.31074225167504
 30
0.0
  0
ENDBLK
  5
28A
330
288
100
AcDbEntity
  8
0
100
AcDbBlockEnd
  0
BLOCK
  5
295
330
294
100
AcDbEntity
  8
0
100
AcDbBlockBegin
  2
*D14
 70
     1
 10
0.0
 20
0.0
 30
0.0
  3
*D14
  1
*D15
  0
LINE
  5
297
330
294
100
AcDbEntity
  8
치수문자_일반주서
 62
     0
370
    -2
100
AcDbLine
 10
197.058933618242
 20
-50.60292975167499
 30
0.0
 11
215.4922247660144
 21
-50.60292975167492
 31
0.0
  0
LINE
  5
298
330
294
100
AcDbEntity
  8
치수문자_일반주서
 62
     0
370
    -2
100
AcDbLine
 10
197.058933618242
 20
-61.31855475167499
 30
0.0
 11
215.4922247660144
 21
-61.31855475167492
 31
0.0
  0
LINE
  5
299
330
294
100
AcDbEntity
  8
치수문자_일반주서
 62
     0
370
    -2
100
AcDbLine
 10
215.4922247660144
 20
-50.60292975167492
 30
0.0
 11
215.4922247660143
 21
-11.18642975167492
 31
0.0
  0
LINE
  5
29A
330
294
100
AcDbEntity
  8
치수문자_일반주서
 62
     0
370
    -2
100
AcDbLine
 10
215.4922247660144
 20
-50.60292975167492
 30
0.0
 11
215.4922247660144
 21
-61.31855475167492
 31
0.0
  0
LINE
  5
29B
330
294
100
AcDbEntity
  8
치수문자_일반주서
 62
     0
370
    -2
100
AcDbLine
 10
215.4922247660144
 20
-47.30092975167492
 30
0.0
 11
215.4922247660144
 21
-43.99892975167492
 31
0.0
  0
LINE
  5
29C
330
294
100
AcDbEntity
  8
치수문자_일반주서
 62
     0
370
    -2
100
AcDbLine
 10
215.4922247660144
 20
-64.62055475167492
 30
0.0
 11
215.4922247660144
 21
-67.92255475167491
 31
0.0
  0
SOLID
  5
29D
330
294
100
AcDbEntity
  8
치수문자_일반주서
 62
     0
100
AcDbTrace
 10
214.941891432681
 20
-47.30092975167492
 30
0.0
 11
216.0425580993477
 21
-47.30092975167492
 31
0.0
 12
215.4922247660144
 22
-50.60292975167492
 32
0.0
 13
215.4922247660144
 23
-50.60292975167492
 33
0.0
  0
SOLID
  5
29E
330
294
100
AcDbEntity
  8
치수문자_일반주서
 62
     0
100
AcDbTrace
 10
216.0425580993477
 20
-64.62055475167492
 30
0.0
 11
214.9418914326811
 21
-64.62055475167492
 31
0.0
 12
215.4922247660144
 22
-61.31855475167492
 32
0.0
 13
215.4922247660144
 23
-61.31855475167492
 33
0.0
  0
MTEXT
  5
29F
330
294
100
AcDbEntity
  8
치수문자_일반주서
 62
     0
100
AcDbMText
 10
211.1172247660143
 20
-27.59267975167493
 30
0.0
 40
3.5
 41
0.0
 71
     2
 72
     1
  1
\A1;%%c10.72 [27/64]
  7
SLDTEXTSTYLE0
 11
-2.652361335004166E-15
 21
1.0
 31
0.0
 73
     1
 44
1.0
  0
POINT
  5
2A0
330
294
100
AcDbEntity
  8
Defpoints
 62
     0
100
AcDbPoint
 10
196.996433618242
 20
-50.60292975167499
 30
0.0
  0
POINT
  5
2A1
330
294
100
AcDbEntity
  8
Defpoints
 62
     0
100
AcDbPoint
 10
196.996433618242
 20
-61.31855475167499
 30
0.0
  0
POINT
  5
2A2
330
294
100
AcDbEntity
  8
Defpoints
 62
     0
100
AcDbPoint
 10
215.4922247660144
 20
-61.31855475167492
 30
0.0
  0
ENDBLK
  5
296
330
294
100
AcDbEntity
  8
0
100
AcDbBlockEnd
  0
ENDSEC
  0
SECTION
  2
ENTITIES
  0
LINE
  5
96
330
1F
100
AcDbEntity
  8
외형선
  6
Continuous
370
    15
100
AcDbLine
 10
1.999999999999996
 20
-6.348925071276112
 30
0.0
 11
4.962315328507808
 21
-5.555175071276107
 31
0.0
  0
LINE
  5
97
330
1F
100
AcDbEntity
  8
외형선
  6
Continuous
370
    15
100
AcDbLine
 10
4.962315328507808
 20
5.557324928723894
 30
0.0
 11
1.999999999999996
 21
6.351074928723898
 31
0.0
  0
LINE
  5
98
330
1F
100
AcDbEntity
  8
외형선
  6
Continuous
370
    15
100
AcDbLine
 10
-43.5676846714922
 20
-6.348925071276109
 30
0.0
 11
1.999999999999996
 21
-6.348925071276109
 31
0.0
  0
LINE
  5
99
330
1F
100
AcDbEntity
  8
외형선
  6
Continuous
370
    15
100
AcDbLine
 10
1.999999999999996
 20
6.351074928723896
 30
0.0
 11
-15.10380967149218
 21
6.351074928723896
 31
0.0
  0
LINE
  5
9A
330
1F
100
AcDbEntity
  8
외형선
  6
Continuous
370
    15
100
AcDbLine
 10
-43.5676846714922
 20
6.351074928723893
 30
0.0
 11
-44.83768467149218
 21
5.081074928723896
 31
0.0
  0
LINE
  5
9B
330
1F
100
AcDbEntity
  8
외형선
  6
Continuous
370
    15
100
AcDbLine
 10
-44.83768467149218
 20
-5.078925071276109
 30
0.0
 11
-43.5676846714922
 21
-6.348925071276106
 31
0.0
  0
LINE
  5
9C
330
1F
100
AcDbEntity
  8
외형선
  6
Continuous
370
    15
100
AcDbLine
 10
5.886817254304548
 20
-5.555175071276107
 30
0.0
 11
5.96231532850781
 21
-5.555175071276107
 31
0.0
  0
LINE
  5
9D
330
1F
100
AcDbEntity
  8
외형선
  6
Continuous
370
    15
100
AcDbLine
 10
4.962315328507808
 20
-5.555175071276107
 30
0.0
 11
5.462140926018005
 21
-5.555175071276107
 31
0.0
  0
LINE
  5
9E
330
1F
100
AcDbEntity
  8
외형선
  6
Continuous
370
    15
100
AcDbLine
 10
5.462140926018005
 20
5.557324928723894
 30
0.0
 11
4.962315328507808
 21
5.557324928723894
 31
0.0
  0
LINE
  5
9F
330
1F
100
AcDbEntity
  8
외형선
  6
Continuous
370
    15
100
AcDbLine
 10
5.96231532850781
 20
5.557324928723894
 30
0.0
 11
5.886817254304479
 21
5.557324928723894
 31
0.0
  0
LINE
  5
A0
330
1F
100
AcDbEntity
  8
0
  6
Continuous
 62
     1
370
    15
100
AcDbLine
 10
27.26562789047438
 20
-1.634585522121218
 30
0.0
 11
27.32321295764287
 21
-1.665666128096736
 31
0.0
  0
LINE
  5
A1
330
1F
100
AcDbEntity
  8
0
  6
Continuous
 62
     1
370
    15
100
AcDbLine
 10
24.39227358262477
 20
5.557324928723897
 30
0.0
 11
21.00313387678426
 21
5.557324928723897
 31
0.0
  0
LINE
  5
A2
330
1F
100
AcDbEntity
  8
0
  6
Continuous
 62
     1
370
    15
100
AcDbLine
 10
36.12055279661671
 20
-5.555175071276111
 30
0.0
 11
39.50908583648481
 21
-5.555175071276111
 31
0.0
  0
LINE
  5
A3
330
1F
100
AcDbEntity
  8
0
  6
Continuous
 62
     1
370
    15
100
AcDbLine
 10
9.274918891080967
 20
5.557324928723897
 30
0.0
 11
5.96231532850781
 21
5.557324928723897
 31
0.0
  0
LINE
  5
A4
330
1F
100
AcDbEntity
  8
0
  6
Continuous
 62
     1
370
    15
100
AcDbLine
 10
21.00313387678426
 20
-5.555175071276111
 30
0.0
 11
24.3922735826247
 21
-5.555175071276111
 31
0.0
  0
LINE
  5
A5
330
1F
100
AcDbEntity
  8
0
  6
Continuous
 62
     1
370
    15
100
AcDbLine
 10
5.96231532850781
 20
-5.555175071276111
 30
0.0
 11
9.274918891080981
 21
-5.555175071276111
 31
0.0
  0
LINE
  5
A6
330
1F
100
AcDbEntity
  8
0
  6
Continuous
 62
     1
370
    15
100
AcDbLine
 10
39.50908583648482
 20
5.557324928723897
 30
0.0
 11
36.1205527966168
 21
5.557324928723897
 31
0.0
  0
LINE
  5
A7
330
1F
100
AcDbEntity
  8
외형선
  6
Continuous
370
    15
100
AcDbLine
 10
4.962315328507808
 20
0.0010749287238931
 30
0.0
 11
4.962315328507808
 21
5.557324928723894
 31
0.0
  0
LINE
  5
A8
330
1F
100
AcDbEntity
  8
외형선
  6
Continuous
370
    15
100
AcDbLine
 10
4.962315328507808
 20
-5.555175071276107
 30
0.0
 11
4.962315328507808
 21
0.0010749287238931
 31
0.0
  0
LINE
  5
A9
330
1F
100
AcDbEntity
  8
외형선
  6
Continuous
370
    15
100
AcDbLine
 10
1.999999999999996
 20
0.0010749287238931
 30
0.0
 11
1.999999999999996
 21
6.351074928723898
 31
0.0
  0
LINE
  5
AA
330
1F
100
AcDbEntity
  8
외형선
  6
Continuous
370
    15
100
AcDbLine
 10
1.999999999999996
 20
-6.348925071276112
 30
0.0
 11
1.999999999999996
 21
0.0010749287238931
 31
0.0
  0
LINE
  5
AB
330
1F
100
AcDbEntity
  8
외형선
  6
Continuous
370
    15
100
AcDbLine
 10
-43.5676846714922
 20
0.0010749287238931
 30
0.0
 11
-43.5676846714922
 21
6.351074928723896
 31
0.0
  0
LINE
  5
AC
330
1F
100
AcDbEntity
  8
외형선
  6
Continuous
370
    15
100
AcDbLine
 10
-43.5676846714922
 20
-6.348925071276109
 30
0.0
 11
-43.5676846714922
 21
0.0010749287238931
 31
0.0
  0
LINE
  5
AD
330
1F
100
AcDbEntity
  8
외형선
  6
Continuous
370
    15
100
AcDbLine
 10
-44.83768467149218
 20
0.0010749287238931
 30
0.0
 11
-44.83768467149218
 21
5.081074928723896
 31
0.0
  0
LINE
  5
AE
330
1F
100
AcDbEntity
  8
외형선
  6
Continuous
370
    15
100
AcDbLine
 10
-44.83768467149218
 20
-5.078925071276109
 30
0.0
 11
-44.83768467149218
 21
0.0010749287238931
 31
0.0
  0
SPLINE
  5
AF
330
1F
100
AcDbEntity
  8
외형선
  6
Continuous
370
    15
100
AcDbSpline
210
0.0
220
0.0
230
1.0
 70
     8
 71
     3
 72
     8
 73
     4
 74
     0
 42
0.000000001
 43
0.00000001
 40
0.0
 40
0.0
 40
0.0
 40
0.0
 40
1.0
 40
1.0
 40
1.0
 40
1.0
 10
5.962315328507817
 20
-5.229300682966132
 30
0.0
 10
5.795357327565776
 20
-5.19683712734511
 30
0.0
 10
5.628520445947355
 20
-5.162027634317077
 30
0.0
 10
5.462140926018012
 20
-5.124950565470828
 30
0.0
  0
SPLINE
  5
B0
330
1F
100
AcDbEntity
  8
외형선
  6
Continuous
370
    15
100
AcDbSpline
210
0.0
220
0.0
230
1.0
 70
     8
 71
     3
 72
     8
 73
     4
 74
     0
 42
0.000000001
 43
0.00000001
 40
0.0
 40
0.0
 40
0.0
 40
0.0
 40
1.0
 40
1.0
 40
1.0
 40
1.0
 10
5.96231532850781
 20
-0.0424759243402944
 30
0.0
 10
5.795357327565776
 20
0.0537288454695504
 30
0.0
 10
5.628520445947348
 20
0.1499298727809716
 30
0.0
 10
5.462140926018012
 20
0.2459330456792506
 30
0.0
  0
SPLINE
  5
B1
330
1F
100
AcDbEntity
  8
외형선
  6
Continuous
370
    15
100
AcDbSpline
210
0.0
220
0.0
230
1.0
 70
    24
 71
     3
 72
    20
 73
    16
 74
     0
 42
0.000000001
 43
0.00000001
 40
0.0
 40
0.0
 40
0.0
 40
0.0
 40
0.0976125853409501
 40
0.1751165564064858
 40
0.2526205274720215
 40
0.3301244985375567
 40
0.407628469603092
 40
0.4851324406686276
 40
0.5626364117341632
 40
0.6401403827996984
 40
0.7176443538652337
 40
0.7951483249307684
 40
0.8726522959963031
 40
0.9501562670618401
 40
0.9999999999999999
 40
0.9999999999999999
 40
0.9999999999999999
 40
0.9999999999999999
 10
5.962315328507817
 20
-5.229300682966132
 30
0.0
 10
5.962315328507803
 20
-5.032400081389106
 30
0.0
 10
5.962315328507774
 20
-4.679161252788293
 30
0.0
 10
5.962315328507781
 20
-4.099559456733323
 30
0.0
 10
5.962315328507803
 20
-3.545771151477025
 30
0.0
 10
5.96231532850781
 20
-2.981245912490416
 30
0.0
 10
5.962315328507788
 20
-2.423520684454695
 30
0.0
 10
5.962315328507822
 20
-1.888630640009056
 30
0.0
 10
5.962315328507822
 20
-1.390651186488898
 30
0.0
 10
5.962315328507795
 20
-0.9454384484897898
 30
0.0
 10
5.962315328507817
 20
-0.5635954989477346
 30
0.0
 10
5.962315328507781
 20
-0.2575278148643064
 30
0.0
 10
5.962315328507767
 20
-0.0375303875159689
 30
0.0
 10
5.962315328507781
 20
0.0878638653396751
 30
0.0
 10
5.962315328507817
 20
0.1001399207806919
 30
0.0
 10
5.962315328507817
 20
0.1049447536100166
 30
0.0
  0
LINE
  5
B2
330
1F
100
AcDbEntity
  8
외형선
  6
Continuous
370
    15
100
AcDbLine
 10
5.462140926018005
 20
-5.555175071276107
 30
0.0
 11
5.462140926018005
 21
-5.549776123196529
 31
0.0
  0
SPLINE
  5
B3
330
1F
100
AcDbEntity
  8
외형선
  6
Continuous
370
    15
100
AcDbSpline
210
0.0
220
0.0
230
1.0
 70
     8
 71
     3
 72
     8
 73
     4
 74
     0
 42
0.000000001
 43
0.00000001
 40
0.0
 40
0.0
 40
0.0
 40
0.0
 40
1.0
 40
1.0
 40
1.0
 40
1.0
 10
5.96231532850781
 20
5.557154246525018
 30
0.0
 10
5.795357327565776
 20
5.557908339394182
 30
0.0
 10
5.628520445947348
 20
5.556161859770936
 30
0.0
 10
5.462140926018012
 20
5.551926986296773
 30
0.0
  0
LINE
  5
B4
330
1F
100
AcDbEntity
  8
외형선
  6
Continuous
370
    15
100
AcDbLine
 10
5.462140926017998
 20
2.144818694237931
 30
0.0
 11
5.462140926018005
 21
5.557324928723894
 31
0.0
  0
SPLINE
  5
B5
330
1F
100
AcDbEntity
  8
외형선
  6
Continuous
370
    15
100
AcDbSpline
210
0.0
220
0.0
230
1.0
 70
     8
 71
     3
 72
     8
 73
     4
 74
     0
 42
0.000000001
 43
0.00000001
 40
0.0
 40
0.0
 40
0.0
 40
0.0
 40
1.0
 40
1.0
 40
1.0
 40
1.0
 10
5.962315328507817
 20
1.875930929364547
 30
0.0
 10
5.795357327565776
 20
1.966496065850181
 30
0.0
 10
5.628520445947355
 20
2.056195491946331
 30
0.0
 10
5.462140926018012
 20
2.14485119861911
 30
0.0
  0
LINE
  5
B6
330
1F
100
AcDbEntity
  8
외형선
  6
Continuous
370
    15
100
AcDbLine
 10
5.462140926017998
 20
-5.1249641591411
 30
0.0
 11
5.462140926018005
 21
0.2459558424226247
 31
0.0
  0
LINE
  5
B7
330
1F
100
AcDbEntity
  8
외형선
  6
Continuous
370
    15
100
AcDbLine
 10
5.886817254304548
 20
-5.554215368130483
 30
0.0
 11
5.462140926018012
 21
-5.549777128848985
 31
0.0
  0
LINE
  5
B8
330
1F
100
AcDbEntity
  8
외형선
  6
Continuous
370
    15
100
AcDbLine
 10
5.96231532850781
 20
-5.555175071276107
 30
0.0
 11
5.962315328507817
 21
-5.229300682966132
 31
0.0
  0
LINE
  5
B9
330
1F
100
AcDbEntity
  8
외형선
  6
Continuous
370
    15
100
AcDbLine
 10
5.962315328507822
 20
-0.0424759243403352
 30
0.0
 11
5.962315328507817
 21
1.875930929364547
 31
0.0
  0
LINE
  5
BA
330
1F
100
AcDbEntity
  8
외형선
  6
Continuous
370
    15
100
AcDbLine
 10
5.962315328507822
 20
5.55715424652512
 30
0.0
 11
5.96231532850781
 21
5.557324928723894
 31
0.0
  0
SPLINE
  5
BB
330
1F
100
AcDbEntity
  8
외형선
  6
Continuous
370
    15
100
AcDbSpline
210
0.0
220
0.0
230
1.0
 70
    24
 71
     3
 72
    15
 73
    11
 74
     0
 42
0.000000001
 43
0.00000001
 40
0.0
 40
0.0
 40
0.0
 40
0.0
 40
0.05401153389811
 40
0.1958247491240102
 40
0.3336412757416427
 40
0.4754544909675415
 40
0.6132710175851788
 40
0.7550842328110818
 40
0.8762015900474871
 40
1.0
 40
1.0
 40
1.0
 40
1.0
 10
5.96231532850781
 20
1.942094660144758
 30
0.0
 10
5.962315328507803
 20
1.985264413685526
 30
0.0
 10
5.962315328507795
 20
2.141781097192677
 30
0.0
 10
5.962315328507795
 20
2.483399307619352
 30
0.0
 10
5.962315328507788
 20
2.955685254163916
 30
0.0
 10
5.962315328507746
 20
3.472805265669574
 30
0.0
 10
5.962315328507865
 20
4.023708480977096
 30
0.0
 10
5.962315328507822
 20
4.561474966374059
 30
0.0
 10
5.962315328507788
 20
5.080308396695445
 30
0.0
 10
5.962315328507817
 20
5.397049857648516
 30
0.0
 10
5.962315328507822
 20
5.55715424652512
 30
0.0
  0
SPLINE
  5
BC
330
1F
100
AcDbEntity
  8
0
  6
Continuous
 62
     1
370
    15
100
AcDbSpline
210
0.0
220
0.0
230
1.0
 70
     8
 71
     3
 72
    28
 73
    24
 74
     0
 42
0.000000001
 43
0.00000001
 40
0.0
 40
0.0
 40
0.0
 40
0.0
 40
0.0073798556081487
 40
0.0569976506015446
 40
0.1065814150005238
 40
0.1561394698004135
 40
0.2056907739687292
 40
0.2575594917200961
 40
0.3094443888606624
 40
0.3613540721615864
 40
0.4132601260379545
 40
0.4651423958075745
 40
0.5170096418056873
 40
0.5688706873777389
 40
0.6207343819225551
 40
0.6726095637048526
 40
0.7245050227663619
 40
0.776420089444173
 40
0.8283139478260336
 40
0.8801881042871263
 40
0.9320513531694808
 40
0.9839125346106504
 40
1.0
 40
1.0
 40
1.0
 40
1.0
 10
9.274918891080974
 20
5.545174669954867
 30
0.0
 10
9.363720892407935
 20
5.549063795662438
 30
0.0
 10
10.04957515746469
 20
5.579101108043037
 30
0.0
 10
11.33239547116961
 20
5.450942454102159
 30
0.0
 10
13.12234056495004
 20
5.152061272513304
 30
0.0
 10
14.91136757037235
 20
4.657370796116974
 30
0.0
 10
16.72777760770555
 20
3.996950973496417
 30
0.0
 10
18.57244953888696
 20
3.17941241229256
 30
0.0
 10
20.44553698046299
 20
2.229759662034035
 30
0.0
 10
22.3193452037079
 20
1.196027422406273
 30
0.0
 10
24.1930697976716
 20
0.1171475827490729
 30
0.0
 10
26.06606345004163
 20
-0.9662090308099243
 30
0.0
 10
27.93841991862259
 20
-2.012896872801978
 30
0.0
 10
29.81050471590907
 20
-2.983519994290764
 30
0.0
 10
31.68270446488043
 20
-3.841494559604031
 30
0.0
 10
33.55540345994695
 20
-4.554495289813183
 30
0.0
 10
35.42885833895819
 20
-5.095472505672113
 30
0.0
 10
37.30277967683236
 20
-5.44415897762206
 30
0.0
 10
39.17618749780038
 20
-5.586455519012105
 30
0.0
 10
41.04884213808499
 20
-5.521031771012749
 30
0.0
 10
42.92102643474633
 20
-5.23492379768734
 30
0.0
 10
44.36259364917155
 20
-4.897587073539522
 30
0.0
 10
45.18018222676461
 20
-4.605717540818675
 30
0.0
 10
45.37375382175993
 20
-4.536614751802672
 30
0.0
  0
SPLINE
  5
BD
330
1F
100
AcDbEntity
  8
0
  6
Continuous
 62
     1
370
    15
100
AcDbSpline
210
0.0
220
0.0
230
1.0
 70
     8
 71
     3
 72
    26
 73
    22
 74
     0
 42
0.000000001
 43
0.00000001
 40
0.0
 40
0.0
 40
0.0
 40
0.0
 40
0.0531254083559374
 40
0.106225888798793
 40
0.1593104015855246
 40
0.2123879739301175
 40
0.2654676622072068
 40
0.318558513897536
 40
0.3716695296122058
 40
0.4248022510580481
 40
0.4779149049959028
 40
0.5310068060560865
 40
0.5840869504485375
 40
0.6371643837372372
 40
0.6902481628814244
 40
0.7433473181758824
 40
0.7964708154273007
 40
0.8495980272305105
 40
0.9026998715202365
 40
0.9557851569372783
 40
1.0
 40
1.0
 40
1.0
 40
1.0
 10
50.41231532850782
 20
-5.555175071276099
 30
0.0
 10
49.78762870746664
 20
-5.483616440462445
 30
0.0
 10
48.53854858564962
 20
-5.381388370225991
 30
0.0
 10
46.66550207036378
 20
-4.968767926968241
 30
0.0
 10
44.79311375100718
 20
-4.383568790147667
 30
0.0
 10
42.92102321991347
 20
-3.628873876474437
 30
0.0
 10
41.04884299970124
 20
-2.738219521724977
 30
0.0
 10
39.17618726681606
 20
-1.743792314781895
 30
0.0
 10
37.30277973876232
 20
-0.683424245440378
 30
0.0
 10
35.4288583223718
 20
0.4025174677860897
 30
0.0
 10
33.55540346437434
 20
1.473579829358674
 30
0.0
 10
31.68270446374786
 20
2.488927321551629
 30
0.0
 10
29.81050471601366
 20
3.410270249266118
 30
0.0
 10
27.93841991933657
 20
4.202912801210384
 30
0.0
 10
26.0660634470804
 20
4.836953534102849
 30
0.0
 10
24.19306980880793
 20
5.288569595469868
 30
0.0
 10
22.31934516210326
 20
5.540187736614564
 30
0.0
 10
20.44553713571767
 20
5.58386593762313
 30
0.0
 10
18.57244895985342
 20
5.412343881072601
 30
0.0
 10
16.80418415872958
 20
5.072941568353259
 30
0.0
 10
15.66038218664617
 20
4.71230049608472
 30
0.0
 10
15.14061900153365
 20
4.548419022735571
 30
0.0
  0
SPLINE
  5
BE
330
1F
100
AcDbEntity
  8
0
  6
Continuous
 62
     1
370
    15
100
AcDbSpline
210
0.0
220
0.0
230
1.0
 70
     8
 71
     3
 72
    21
 73
    17
 74
     0
 42
0.000000001
 43
0.00000001
 40
0.0
 40
0.0
 40
0.0
 40
0.0
 40
0.073638879581522
 40
0.1473195400622806
 40
0.2210438732482847
 40
0.294717642259044
 40
0.3683532108006056
 40
0.4419787489526374
 40
0.5190476035831496
 40
0.5961404982718758
 40
0.6732702213433394
 40
0.750394551653894
 40
0.8274835424776646
 40
0.904550210311539
 40
0.9816076652757788
 40
0.9999999999999999
 40
0.9999999999999999
 40
0.9999999999999999
 40
0.9999999999999999
 10
5.962315328507803
 20
1.875930929364548
 30
0.0
 10
6.558602645216727
 20
1.545486599424083
 30
0.0
 10
7.751515597474247
 20
0.884410453512255
 30
0.0
 10
9.54161975557013
 20
-0.1549348756464906
 30
0.0
 10
11.33237693736109
 20
-1.183787759918319
 30
0.0
 10
13.12234552629623
 20
-2.17353261628028
 30
0.0
 10
14.91136624330215
 20
-3.087769924960178
 30
0.0
 10
16.72777798258393
 20
-3.90809114224883
 30
0.0
 10
18.5724494334839
 20
-4.599143810326088
 30
0.0
 10
20.44553701983509
 20
-5.126963927536085
 30
0.0
 10
22.31934515166952
 20
-5.46134602305985
 30
0.0
 10
24.19306996639422
 20
-5.588542709894648
 30
0.0
 10
26.06606282756584
 20
-5.508357910637442
 30
0.0
 10
27.93842223907952
 20
-5.206459886146059
 30
0.0
 10
29.33541090900494
 20
-4.872715593588371
 30
0.0
 10
30.10835412441813
 20
-4.593250181116897
 30
0.0
 10
30.25729348182367
 20
-4.539399654816164
 30
0.0
  0
SPLINE
  5
BF
330
1F
100
AcDbEntity
  8
0
  6
Continuous
 62
     1
370
    15
100
AcDbSpline
210
0.0
220
0.0
230
1.0
 70
     8
 71
     3
 72
    24
 73
    20
 74
     0
 42
0.000000001
 43
0.00000001
 40
0.0
 40
0.0
 40
0.0
 40
0.0
 40
0.0229387911915463
 40
0.0850564736171075
 40
0.1471498846013266
 40
0.2092295456239364
 40
0.2713060358864852
 40
0.3333899479177966
 40
0.3954918430613915
 40
0.4576222072390108
 40
0.5197569157551527
 40
0.5818619558019246
 40
0.6439476294883574
 40
0.7032594119017588
 40
0.7625792746673893
 40
0.8219299112375178
 40
0.8813212816540171
 40
0.9406774699033511
 40
1.0
 40
1.0
 40
1.0
 40
1.0
 10
36.12055279661671
 20
-5.530683365511176
 30
0.0
 10
35.88992077468586
 20
-5.537115309499196
 30
0.0
 10
35.03474290917344
 20
-5.560964799629493
 30
0.0
 10
33.5554043236244
 20
-5.384400830678389
 30
0.0
 10
31.68270423356311
 20
-5.00868570413995
 30
0.0
 10
29.81050477784567
 20
-4.430172698018612
 30
0.0
 10
27.93841990215601
 20
-3.688077514555067
 30
0.0
 10
26.06606345396658
 20
-2.80570542220627
 30
0.0
 10
24.1930697984445
 20
-1.817496523120059
 30
0.0
 10
22.31934519668484
 20
-0.7606296893925963
 30
0.0
 10
20.4455370077779
 20
0.3249076267799129
 30
0.0
 10
18.57244943671778
 20
1.398415525425128
 30
0.0
 10
16.72777798176053
 20
2.40379998304395
 30
0.0
 10
14.91136624351853
 20
3.307600783867956
 30
0.0
 10
13.12234552623824
 20
4.083367273398855
 30
0.0
 10
11.33237693737667
 20
4.719443418850216
 30
0.0
 10
9.541619755566058
 20
5.188883741718868
 30
0.0
 10
7.751515597475334
 20
5.493420548009746
 30
0.0
 10
6.558602645217128
 20
5.535913697475941
 30
0.0
 10
5.962315328507872
 20
5.557154246525019
 30
0.0
  0
SPLINE
  5
C0
330
1F
100
AcDbEntity
  8
외형선
  6
Continuous
370
    15
100
AcDbSpline
210
0.0
220
0.0
230
1.0
 70
    24
 71
     3
 72
    15
 73
    11
 74
     0
 42
0.000000001
 43
0.00000001
 40
0.0
 40
0.0
 40
0.0
 40
0.0
 40
0.1428751939647932
 40
0.2901984935155854
 40
0.428344484317175
 40
0.5704967182106847
 40
0.7086427090122746
 40
0.8507949429057845
 40
0.9889409337073747
 40
1.0
 40
1.0
 40
1.0
 40
1.0
 10
5.962315328507822
 20
5.557154246525364
 30
0.0
 10
5.96231532850781
 20
5.372381398784284
 30
0.0
 10
5.962315328507788
 20
4.997083206221482
 30
0.0
 10
5.96231532850781
 20
4.420834986346606
 30
0.0
 10
5.962315328507817
 20
3.85142509036444
 30
0.0
 10
5.962315328507843
 20
3.313232755972117
 30
0.0
 10
5.962315328507781
 20
2.802817121102119
 30
0.0
 10
5.962315328507817
 20
2.354220775496055
 30
0.0
 10
5.962315328507822
 20
2.063331338758847
 30
0.0
 10
5.96231532850781
 20
1.950451317810973
 30
0.0
 10
5.96231532850781
 20
1.942084660144758
 30
0.0
  0
LINE
  5
C1
330
1F
100
AcDbEntity
  8
0
  6
Continuous
 62
     1
370
    15
100
AcDbLine
 10
50.41231532850782
 20
-5.555175071276099
 30
0.0
 11
50.41231532850782
 21
-5.031117068078345
 31
0.0
  0
SPLINE
  5
C2
330
1F
100
AcDbEntity
  8
0
  6
Continuous
 62
     1
370
    15
100
AcDbSpline
210
0.0
220
0.0
230
1.0
 70
     8
 71
     3
 72
    21
 73
    17
 74
     0
 42
0.000000001
 43
0.00000001
 40
0.0
 40
0.0
 40
0.0
 40
0.0
 40
0.0643325688129062
 40
0.136290403604097
 40
0.208239636256779
 40
0.2801925439521762
 40
0.3521613884246467
 40
0.4241583645065648
 40
0.4961825431435319
 40
0.5681772985283706
 40
0.6401447205252028
 40
0.7120970099324073
 40
0.7840464310826153
 40
0.8560052603645871
 40
0.9279857346383051
 40
1.0
 40
1.0
 40
1.0
 40
1.0
 10
24.39227358262477
 20
5.547357738720831
 30
0.0
 10
24.95026576247097
 20
5.535197695905301
 30
0.0
 10
26.13238829857449
 20
5.509436294273858
 30
0.0
 10
27.93841686880051
 20
5.213963282761516
 30
0.0
 10
29.81050553340069
 20
4.730180056762703
 30
0.0
 10
31.68270424467401
 20
4.062702370439761
 30
0.0
 10
33.55540352310538
 20
3.243215867129071
 30
0.0
 10
35.42885830662545
 20
2.300834897264053
 30
0.0
 10
37.30277974298035
 20
1.271983198983571
 30
0.0
 10
39.17618726568649
 20
0.1948584675311474
 30
0.0
 10
41.04884300000383
 20
-0.8895117750715047
 30
0.0
 10
42.92102321983243
 20
-1.939915926023747
 30
0.0
 10
44.79311375102891
 20
-2.918013811366817
 30
0.0
 10
46.665502070358
 20
-3.782314583157181
 30
0.0
 10
48.53854858565104
 20
-4.517513642905937
 30
0.0
 10
49.78762870746714
 20
-4.859889144726091
 30
0.0
 10
50.41231532850783
 20
-5.031117068078343
 30
0.0
  0
SPLINE
  5
C3
330
1F
100
AcDbEntity
  8
0
  6
Continuous
 62
     1
370
    15
100
AcDbSpline
210
0.0
220
0.0
230
1.0
 70
     8
 71
     3
 72
    10
 73
     6
 74
     0
 42
0.000000001
 43
0.00000001
 40
0.0
 40
0.0
 40
0.0
 40
0.0
 40
0.3719078858397612
 40
0.7436412621982862
 40
1.0
 40
1.0
 40
1.0
 40
1.0
 10
50.41231532850783
 20
5.557324928723903
 30
0.0
 10
49.78762920839408
 20
5.484536960516244
 30
0.0
 10
48.53855008819675
 20
5.379850792330966
 30
0.0
 10
46.8590769361906
 20
5.026397626084396
 30
0.0
 10
45.80427583211072
 20
4.680105402160189
 30
0.0
 10
45.37375382175993
 20
4.538764609250458
 30
0.0
  0
SPLINE
  5
C4
330
1F
100
AcDbEntity
  8
0
  6
Continuous
 62
     1
370
    15
100
AcDbSpline
210
0.0
220
0.0
230
1.0
 70
     8
 71
     3
 72
    16
 73
    12
 74
     0
 42
0.000000001
 43
0.00000001
 40
0.0
 40
0.0
 40
0.0
 40
0.0
 40
0.037084037618442
 40
0.161608338680304
 40
0.2860938090372263
 40
0.4050174623220443
 40
0.5239573171939305
 40
0.642958875375133
 40
0.7620421073423128
 40
0.8810547969706934
 40
1.0
 40
1.0
 40
1.0
 40
1.0
 10
21.00313387678426
 20
-5.533194850689531
 30
0.0
 10
20.81718187093117
 20
-5.539515774472934
 30
0.0
 10
20.00682257161784
 20
-5.567061696038194
 30
0.0
 10
18.57245576110257
 20
-5.403237416663695
 30
0.0
 10
16.7277763714474
 20
-5.048534914060626
 30
0.0
 10
14.91136666669271
 20
-4.503486582285159
 30
0.0
 10
13.12234541278229
 20
-3.815305732966269
 30
0.0
 10
11.33237696779718
 20
-2.994326831307788
 30
0.0
 10
9.541619747456787
 20
-2.07075562764183
 30
0.0
 10
7.751515599500804
 20
-1.075358404614536
 30
0.0
 10
6.558602645892165
 20
-0.3867049820489716
 30
0.0
 10
5.962315328507872
 20
-0.0424759243403378
 30
0.0
  0
LINE
  5
C5
330
1F
100
AcDbEntity
  8
0
  6
Continuous
 62
     1
370
    15
100
AcDbLine
 10
50.41231532850782
 20
-5.031117068078345
 30
0.0
 11
50.41231532850782
 21
0.4771419255261994
 31
0.0
  0
SPLINE
  5
C6
330
1F
100
AcDbEntity
  8
0
  6
Continuous
 62
     1
370
    15
100
AcDbSpline
210
0.0
220
0.0
230
1.0
 70
     8
 71
     3
 72
    18
 73
    14
 74
     0
 42
0.000000001
 43
0.00000001
 40
0.0
 40
0.0
 40
0.0
 40
0.0
 40
0.0929711441360474
 40
0.1858986636361276
 40
0.2787982392331875
 40
0.3716856688370886
 40
0.4645768013897516
 40
0.5574874702685062
 40
0.6504334268273246
 40
0.7434173691019025
 40
0.8363661926030854
 40
0.9292786979122603
 40
1.0
 40
1.0
 40
1.0
 40
1.0
 10
50.41231532850782
 20
0.4771419255261992
 30
0.0
 10
49.78762870747342
 20
0.8345581858903575
 30
0.0
 10
48.53854858566996
 20
1.549222997009503
 30
0.0
 10
46.66550207028243
 20
2.558162204420624
 30
0.0
 10
44.79311375131231
 20
3.471699572784006
 30
0.0
 10
42.92102321877433
 20
4.253851527196618
 30
0.0
 10
41.04884300395332
 20
4.875544558018613
 30
0.0
 10
39.17618725094081
 20
5.313353058103427
 30
0.0
 10
37.30277979804437
 20
5.550202774288204
 30
0.0
 10
35.42885810106574
 20
5.579030477570444
 30
0.0
 10
33.55540428980424
 20
5.391602529661419
 30
0.0
 10
31.83164673093967
 20
5.051144882894641
 30
0.0
 10
30.7323857977898
 20
4.695330021799829
 30
0.0
 10
30.25729348182374
 20
4.541549512263948
 30
0.0
  0
LINE
  5
C7
330
1F
100
AcDbEntity
  8
0
  6
Continuous
 62
     1
370
    15
100
AcDbLine
 10
50.41231532850782
 20
2.33962767894824
 30
0.0
 11
50.41231532850782
 21
5.557324928723902
 31
0.0
  0
SPLINE
  5
C8
330
1F
100
AcDbEntity
  8
0
  6
Continuous
 62
     1
370
    15
100
AcDbSpline
210
0.0
220
0.0
230
1.0
 70
     8
 71
     3
 72
    13
 73
     9
 74
     0
 42
0.000000001
 43
0.00000001
 40
0.0
 40
0.0
 40
0.0
 40
0.0
 40
0.1949212015804377
 40
0.3899529966833265
 40
0.5851003928957265
 40
0.780113946362941
 40
0.9750263836616386
 40
1.0
 40
1.0
 40
1.0
 40
1.0
 10
5.962315328507817
 20
-5.229300682966138
 30
0.0
 10
6.558602634686142
 20
-5.328109158240749
 30
0.0
 10
7.751515565876501
 20
-5.525782170302215
 30
0.0
 10
9.541619882076054
 20
-5.582288512188013
 30
0.0
 10
11.33237646279637
 20
-5.463296566409185
 30
0.0
 10
13.12234729622632
 20
-5.137302150113155
 30
0.0
 10
14.39157685105261
 20
-4.820772319811837
 30
0.0
 10
15.06422303445074
 20
-4.574266166449477
 30
0.0
 10
15.14061900153365
 20
-4.546269165287784
 30
0.0
  0
SPLINE
  5
C9
330
1F
100
AcDbEntity
  8
0
  6
Continuous
 62
     1
370
    15
100
AcDbSpline
210
0.0
220
0.0
230
1.0
 70
     8
 71
     3
 72
    13
 73
     9
 74
     0
 42
0.000000001
 43
0.00000001
 40
0.0
 40
0.0
 40
0.0
 40
0.0
 40
0.1412322833744014
 40
0.3129410418797405
 40
0.4846429555042286
 40
0.6563673209316869
 40
0.8281433405134634
 40
1.0
 40
1.0
 40
1.0
 40
1.0
 10
39.50908583648482
 20
5.541981908953189
 30
0.0
 10
40.02238224435586
 20
5.534455946309485
 30
0.0
 10
41.15973914912575
 20
5.517779995637321
 30
0.0
 10
42.9210211380735
 20
5.240889077657905
 30
0.0
 10
44.79311430870848
 20
4.771703293238469
 30
0.0
 10
46.66550192158761
 20
4.114684065937532
 30
0.0
 10
48.53854862286868
 20
3.310225420503897
 30
0.0
 10
49.78762871987493
 20
2.674589871587123
 30
0.0
 10
50.41231532850783
 20
2.356697515179392
 30
0.0
  0
SPLINE
  5
CA
330
1F
100
AcDbEntity
  8
외형선
  6
Continuous
370
    15
100
AcDbSpline
210
0.0
220
0.0
230
1.0
 70
    24
 71
     3
 72
    21
 73
    17
 74
     0
 42
0.000000001
 43
0.00000001
 40
0.0
 40
0.0
 40
0.0
 40
0.0
 40
0.0231379998799481
 40
0.0986246636537126
 40
0.174111327427477
 40
0.2495979912012416
 40
0.3250846549750062
 40
0.4005713187487708
 40
0.4760579825225355
 40
0.5515446462963001
 40
0.6270313100700647
 40
0.7025179738438292
 40
0.7780046376175938
 40
0.8534913013913584
 40
0.928977965165123
 40
1.0
 40
1.0
 40
1.0
 40
1.0
 10
5.96231532850781
 20
0.1079493624838725
 30
0.0
 10
5.962315328507817
 20
0.111920504047399
 30
0.0
 10
5.962315328507803
 20
0.1288473128924238
 30
0.0
 10
5.962315328507829
 20
0.0592401743023213
 30
0.0
 10
5.962315328507803
 20
-0.095354936825153
 30
0.0
 10
5.962315328507843
 20
-0.3475472697127154
 30
0.0
 10
5.962315328507817
 20
-0.6775180621464585
 30
0.0
 10
5.962315328507822
 20
-1.08151449966742
 30
0.0
 10
5.962315328507851
 20
-1.544681710629213
 30
0.0
 10
5.962315328507829
 20
-2.056265049227159
 30
0.0
 10
5.962315328507803
 20
-2.600066327549419
 30
0.0
 10
5.962315328507803
 20
-3.161604142818074
 30
0.0
 10
5.962315328507817
 20
-3.724894916032394
 30
0.0
 10
5.96231532850781
 20
-4.272373776651608
 30
0.0
 10
5.962315328507822
 20
-4.784009897038163
 30
0.0
 10
5.962315328507822
 20
-5.083916822905564
 30
0.0
 10
5.962315328507817
 20
-5.229300682966138
 30
0.0
  0
LINE
  5
CB
330
1F
100
AcDbEntity
  8
0
  6
Continuous
 62
     1
370
    15
100
AcDbLine
 10
50.41231532850782
 20
0.4771419255261993
 30
0.0
 11
50.41231532850782
 21
2.356697515179392
 31
0.0
  0
LINE
  5
CC
330
1F
100
AcDbEntity
  8
중심선
 48
0.8
100
AcDbLine
 10
-47.83768467149219
 20
0.0010749287238892
 30
0.0
 11
53.41231532850782
 21
0.0010749287239012
 31
0.0
  0
LINE
  5
CD
330
1F
100
AcDbEntity
  8
참조1
100
AcDbLine
 10
11.78060364977729
 20
0.0010749287238892
 30
0.0
 11
11.78060364977729
 21
-39.99892507127611
 31
0.0
  0
LINE
  5
CE
330
1F
100
AcDbEntity
  8
참조1
100
AcDbLine
 10
11.78060364977729
 20
-39.99892507127611
 30
0.0
 11
-21.63450316453139
 21
-39.9989250712761
 31
0.0
  0
CIRCLE
  5
CF
330
1F
100
AcDbEntity
  8
해칭선
100
AcDbCircle
 10
0.0
 20
0.0
 30
0.0
 40
2.999999999999999
  0
INSERT
  5
D0
330
1F
100
AcDbEntity
  8
0
  6
Continuous
 62
     7
100
AcDbBlockReference
 66
     1
  2
블럭10
 10
-2.159669282347915
 20
-52.04609937292004
 30
0.0
  0
ATTRIB
  5
D1
330
D0
100
AcDbEntity
  8
FORMAT
 62
     2
100
AcDbText
 10
-11.3409645710892
 20
-49.97073246008785
 30
0.0
 40
4.233333333333333
  1
E1034028 [ 4 FLUTE ]
 41
0.75
  7
SLDTEXTSTYLE0
 11
-11.3409645710892
 21
-52.08739912675452
 31
0.0
100
AcDbAttribute
  2
AUTOATTR0
 70
     0
 74
     1
  0
SEQEND
  5
D2
330
D0
100
AcDbEntity
  8
0
  6
Continuous
 62
     7
  0
HATCH
  5
D3
330
1F
100
AcDbEntity
  8
중심선
100
AcDbHatch
 10
0.0
 20
0.0
 30
0.0
210
0.0
220
0.0
230
1.0
  2
SOLID
 70
     1
 71
     0
 91
        1
 92
        0
 93
        4
 72
     1
 10
3.555240022032918
 20
-35.7989250712761
 11
0.1089647781956362
 21
-35.7989250712761
 72
     1
 10
0.108964778195636
 20
-35.7989250712761
 11
-2.019265081008387
 21
-38.33525065184867
 72
     1
 10
-2.019265081008387
 20
-38.33525065184867
 11
1.427043247942045
 21
-38.33521122254619
 72
     1
 10
1.427043247942045
 20
-38.33521122254619
 11
3.555240022032918
 21
-35.7989250712761
 97
        0
 75
     0
 76
     1
 98
        1
 10
0.0
 20
0.0
  0
HATCH
  5
D4
330
1F
100
AcDbEntity
  8
중심선
100
AcDbHatch
 10
0.0
 20
0.0
 30
0.0
210
0.0
220
0.0
230
1.0
  2
SOLID
 70
     1
 71
     0
 91
        1
 92
        0
 93
        4
 72
     1
 10
8.568004013068926
 20
-35.79892507127608
 11
5.121728769231614
 21
-35.79892507127613
 72
     1
 10
5.121728769231614
 20
-35.79892507127613
 11
0.5905907608741989
 21
-41.19892507127612
 72
     1
 10
0.5905907608741989
 20
-41.19892507127612
 11
4.036866004711481
 21
-41.19892507127612
 72
     1
 10
4.036866004711481
 20
-41.19892507127612
 11
8.568004013068926
 21
-35.79892507127608
 97
        0
 75
     0
 76
     1
 98
        1
 10
0.0
 20
0.0
  0
HATCH
  5
D5
330
1F
100
AcDbEntity
  8
중심선
100
AcDbHatch
 10
0.0
 20
0.0
 30
0.0
210
0.0
220
0.0
230
1.0
  2
SOLID
 70
     1
 71
     0
 91
        1
 92
        0
 93
        4
 72
     1
 10
13.58076800410479
 20
-35.79892507127608
 11
10.1344927602677
 21
-35.79892507127608
 72
     1
 10
10.1344927602677
 20
-35.79892507127608
 11
3.086055858378399
 21
-44.19892507127612
 72
     1
 10
3.0860558583784
 20
-44.19892507127612
 11
6.532331102215682
 21
-44.19892507127612
 72
     1
 10
6.532331102215682
 20
-44.19892507127612
 11
13.58076800410479
 21
-35.79892507127608
 97
        0
 75
     0
 76
     1
 98
        1
 10
0.0
 20
0.0
  0
HATCH
  5
D6
330
1F
100
AcDbEntity
  8
중심선
100
AcDbHatch
 10
0.0
 20
0.0
 30
0.0
210
0.0
220
0.0
230
1.0
  2
SOLID
 70
     1
 71
     0
 91
        1
 92
        0
 93
        6
 72
     3
 10
18.38065843511696
 20
-39.99892507132738
 11
3.960054785062284
 21
1.540850780301639E-10
 40
0.3939339440162633
 50
17.09539180608432
 51
320.0019657685075
 73
     0
 72
     1
 10
20.06365809081753
 20
-38.58681907591441
 11
22.3689599645186
 21
-36.65249236586649
 72
     3
 10
18.38065843506412
 20
-39.99892507127625
 11
6.600054785286829
 21
-1.249000902703301E-13
 40
0.6363583540795982
 50
39.99873849337406
 51
368.4976242363724
 73
     1
 72
     1
 10
24.80599092696473
 20
-39.03892507120613
 11
17.06072574190004
 21
-39.03892507120613
 72
     1
 10
17.06072574190004
 20
-39.03892507120613
 11
17.06070069745411
 21
-40.95892507120602
 72
     1
 10
17.06070069745411
 20
-40.95892507120602
 11
21.50208046692615
 21
-40.95892507120599
 97
        0
 75
     0
 76
     1
 98
        1
 10
0.0
 20
0.0
  0
DIMENSION
  5
D7
330
1F
100
AcDbEntity
  8
치수문자_일반주서
100
AcDbDimension
  2
_D
 10
5.962315328507827
 20
18.71773021385185
 30
0.0
 11
28.18731532850782
 21
18.71773021385185
 31
0.0
 70
   160
  1
<>
 71
     2
 42
44.44999999999999
  3
SLDDIMSTYLE1
100
AcDbAlignedDimension
 13
50.41231532850782
 23
5.557324928723902
 33
0.0
 14
5.962315328507826
 24
5.557154246525364
 34
0.0
 50
-0.0000000000000687
100
AcDbRotatedDimension
1001
ACAD
1000
DSTYLE
1002
{
1070
   171
1070
     6
1070
   273
1070
     7
1002
}
  0
DIMENSION
  5
EC
330
1F
100
AcDbEntity
  8
치수문자_일반주서
100
AcDbDimension
  2
_D_1
 10
-44.83768467149218
 20
34.43893541165472
 30
0.0
 11
2.787315328507814
 21
34.43893541165472
 31
0.0
 70
   160
  1
<>
 71
     2
 42
95.25
  3
SLDDIMSTYLE1
100
AcDbAlignedDimension
 13
50.41231532850782
 23
5.557324928723902
 33
0.0
 14
-44.83768467149218
 24
5.081074928723896
 34
0.0
 50
0.0000000000000043
100
AcDbRotatedDimension
1001
ACAD
1000
DSTYLE
1002
{
1070
   171
1070
     6
1070
   273
1070
     7
1002
}
  0
DIMENSION
  5
FF
330
1F
100
AcDbEntity
  8
치수문자_일반주서
100
AcDbDimension
  2
_D_2
 10
-55.82095750931936
 20
-6.348925071276147
 30
0.0
 11
-55.82095750931938
 21
0.0010749287238872
 31
0.0
 70
   160
  1
%%c<>
 71
     2
 42
12.69999999999999
 52
-270.0
  3
SLDDIMSTYLE1
100
AcDbAlignedDimension
 13
-43.5676846714922
 23
6.351074928723888
 33
0.0
 14
-43.5676846714922
 24
-6.348925071276101
 34
0.0
 50
90.0000000000002
100
AcDbRotatedDimension
1001
ACAD
1000
DSTYLE
1002
{
1070
   171
1070
     6
1070
   273
1070
     7
1002
}
  0
DIMENSION
  5
114
330
1F
100
AcDbEntity
  8
치수문자_일반주서
100
AcDbDimension
  2
_D_3
 10
64.88101447700804
 20
-5.555175071276047
 30
0.0
 11
64.88101447700791
 21
26.38007492872395
 31
0.0
 70
   160
  1
%%c<>
 71
     2
 42
11.1125
 52
-270.0
  3
SLDDIMSTYLE1
100
AcDbAlignedDimension
 13
50.41231532850783
 23
5.557324928723903
 33
0.0
 14
50.41231532850782
 24
-5.555175071276099
 34
0.0
 50
90.0000000000002
100
AcDbRotatedDimension
1001
ACAD
1000
DSTYLE
1002
{
1070
   171
1070
     6
1070
   273
1070
     7
1002
}
  0
LINE
  5
127
330
1F
100
AcDbEntity
  8
참조1
100
AcDbLine
 10
76.33783746512287
 20
7.441074928723896
 30
0.0
 11
76.33783746512287
 21
-7.438925071276109
 31
0.0
  0
LINE
  5
128
330
1F
100
AcDbEntity
  8
참조1
100
AcDbLine
 10
89.03783746512288
 20
5.441074928723896
 30
0.0
 11
76.33783746512287
 21
5.441074928723896
 31
0.0
  0
SOLID
  5
129
330
1F
100
AcDbEntity
  8
참조1
100
AcDbTrace
 10
76.33783746512287
 20
5.441074928723896
 30
0.0
 11
82.68783746512287
 21
4.425074928723896
 31
0.0
 12
82.68783746512287
 22
6.457074928723896
 32
0.0
 13
82.68783746512287
 23
6.457074928723896
 33
0.0
  0
LINE
  5
12A
330
1F
100
AcDbEntity
  8
참조1
100
AcDbLine
 10
89.03783746512288
 20
-5.438925071276109
 30
0.0
 11
76.33783746512287
 21
-5.438925071276109
 31
0.0
  0
SOLID
  5
12B
330
1F
100
AcDbEntity
  8
참조1
100
AcDbTrace
 10
76.33783746512287
 20
-5.438925071276109
 30
0.0
 11
82.68783746512287
 21
-6.454925071276109
 31
0.0
 12
82.68783746512287
 22
-4.422925071276109
 32
0.0
 13
82.68783746512287
 23
-4.422925071276109
 33
0.0
  0
MTEXT
  5
12C
330
1F
100
AcDbEntity
  8
참조1
100
AcDbMText
 10
85.72218759774887
 20
11.01136670591222
 30
0.0
 40
3.5
 41
0.0
 71
     1
 72
     1
  1
A
  7
SLDTEXTSTYLE0
 73
     1
 44
1.0
  0
MTEXT
  5
12D
330
1F
100
AcDbEntity
  8
참조1
100
AcDbMText
 10
85.72218759774887
 20
0.1313667059122201
 30
0.0
 40
3.5
 41
0.0
 71
     1
 72
     1
  1
A
  7
SLDTEXTSTYLE0
 73
     1
 44
1.0
  0
INSERT
  5
134
330
1F
100
AcDbEntity
  8
해칭선
100
AcDbBlockReference
  2
SW_DOWELSYMBOL_0
 10
0.0
 20
0.0
 30
0.0
  0
LINE
  5
26B
330
1F
100
AcDbEntity
  8
외형선
  6
Continuous
370
    15
100
AcDbLine
 10
-27.80380967149216
 20
4.827074928723889
 30
0.0
 11
-16.6278096714923
 21
4.827074928723889
 31
0.0
  0
LINE
  5
26C
330
1F
100
AcDbEntity
  8
외형선
  6
Continuous
370
    15
100
AcDbLine
 10
-27.80380967149216
 20
4.827074928723889
 30
0.0
 11
-29.32780967149216
 21
6.351074928723889
 31
0.0
  0
LINE
  5
26D
330
1F
100
AcDbEntity
  8
외형선
  6
Continuous
370
    15
100
AcDbLine
 10
-16.62780967149219
 20
4.827074928723889
 30
0.0
 11
-15.10380967149218
 21
6.351074928723889
 31
0.0
  0
LINE
  5
2A7
330
1F
100
AcDbEntity
  8
외형선
  6
Continuous
370
    15
100
AcDbLine
 10
-29.32780967149217
 20
6.351074928723896
 30
0.0
 11
-43.5676846714922
 21
6.351074928723896
 31
0.0
  0
ENDSEC
  0
SECTION
  2
OBJECTS
  0
DICTIONARY
  5
C
330
0
100
AcDbDictionary
281
     1
  3
ACAD_GROUP
350
D
  3
ACAD_IMAGE_VARS
350
158
  3
ACAD_LAYOUT
350
1A
  3
ACAD_MLINESTYLE
350
17
  3
ACAD_PLOTSETTINGS
350
19
  3
ACAD_PLOTSTYLENAME
350
E
  3
ACAD_SCALELIST
350
47
  3
APPDATA
350
156
  3
DWGPROPS
350
2CD
  0
DICTIONARY
  5
1FA
330
2
100
AcDbDictionary
280
     1
281
     1
  3
ACAD_LAYERSTATES
360
1FB
  0
DICTIONARY
  5
D
102
{ACAD_REACTORS
330
C
102
}
330
C
100
AcDbDictionary
281
     1
  0
RASTERVARIABLES
  5
158
102
{ACAD_REACTORS
330
C
102
}
330
C
100
AcDbRasterVariables
 90
        0
 70
     1
 71
     1
 72
     1
  0
DICTIONARY
  5
1A
102
{ACAD_REACTORS
330
C
102
}
330
C
100
AcDbDictionary
281
     1
  3
Layout1
350
1E
  3
Layout2
350
26
  3
Model
350
22
  0
DICTIONARY
  5
17
102
{ACAD_REACTORS
330
C
102
}
330
C
100
AcDbDictionary
281
     1
  3
Standard
350
18
  0
DICTIONARY
  5
19
102
{ACAD_REACTORS
330
C
102
}
330
C
100
AcDbDictionary
281
     1
  0
ACDBDICTIONARYWDFLT
  5
E
102
{ACAD_REACTORS
330
C
102
}
330
C
100
AcDbDictionary
281
     1
  3
Normal
350
F
100
AcDbDictionaryWithDefault
340
F
  0
DICTIONARY
  5
47
102
{ACAD_REACTORS
330
C
102
}
330
C
100
AcDbDictionary
281
     1
  3
A0
350
48
  3
A1
350
49
  3
A2
350
4A
  3
A3
350
4B
  3
A4
350
4C
  3
A5
350
4D
  3
A6
350
4E
  3
A7
350
4F
  3
A8
350
50
  3
A9
350
51
  3
B0
350
52
  3
B1
350
53
  3
B2
350
54
  3
B3
350
55
  3
B4
350
56
  3
B5
350
57
  3
B6
350
58
  3
B7
350
59
  3
B8
350
5A
  3
B9
350
5B
  3
C0
350
5C
  3
C1
350
5D
  3
C2
350
5E
  3
C3
350
5F
  3
C4
350
60
  3
C5
350
61
  3
C6
350
62
  3
C7
350
63
  3
C8
350
64
  3
C9
350
65
  3
D0
350
66
  3
D1
350
67
  3
D2
350
68
  0
DICTIONARY
  5
156
102
{ACAD_REACTORS
330
C
102
}
330
C
100
AcDbDictionary
281
     1
  0
XRECORD
  5
2CD
102
{ACAD_REACTORS
330
C
102
}
330
C
100
AcDbXrecord
280
     1
  1
DWGPROPS COOKIE
  2

  3

  4

  6

  7

  8
12016016
  9

300
=
301
=
302
=
303
=
304
=
305
=
306
=
307
=
308
=
309
=
 40
0.0
 41
2458312.297715463
 42
2458323.374586401
  1

 90
        0
  0
DICTIONARY
  5
1FB
102
{ACAD_REACTORS
330
1FA
102
}
330
1FA
100
AcDbDictionary
281
     1
  0
LAYOUT
  5
1E
102
{ACAD_REACTORS
330
1A
102
}
330
1A
100
AcDbPlotSettings
  1

  2
none_device
  4

  6

 40
0.0
 41
0.0
 42
0.0
 43
0.0
 44
0.0
 45
0.0
 46
0.0
 47
0.0
 48
0.0
 49
0.0
140
0.0
141
0.0
142
1.0
143
1.0
 70
   688
 72
     1
 73
     0
 74
     5
  7

 75
    16
147
1.0
148
0.0
149
0.0
100
AcDbLayout
  1
Layout1
 70
     1
 71
     1
 10
0.0
 20
0.0
 11
420.0
 21
297.0
 12
0.0
 22
0.0
 32
0.0
 14
1.000000000000000E+20
 24
1.000000000000000E+20
 34
1.000000000000000E+20
 15
-1.000000000000000E+20
 25
-1.000000000000000E+20
 35
-1.000000000000000E+20
146
0.0
 13
0.0
 23
0.0
 33
0.0
 16
1.0
 26
0.0
 36
0.0
 17
0.0
 27
1.0
 37
0.0
 76
     0
330
1B
  0
LAYOUT
  5
26
102
{ACAD_REACTORS
330
1A
102
}
330
1A
100
AcDbPlotSettings
  1

  2
none_device
  4

  6

 40
0.0
 41
0.0
 42
0.0
 43
0.0
 44
0.0
 45
0.0
 46
0.0
 47
0.0
 48
0.0
 49
0.0
140
0.0
141
0.0
142
1.0
143
1.0
 70
   688
 72
     1
 73
     0
 74
     5
  7

 75
    16
147
1.0
148
0.0
149
0.0
100
AcDbLayout
  1
Layout2
 70
     1
 71
     2
 10
0.0
 20
0.0
 11
0.0
 21
0.0
 12
0.0
 22
0.0
 32
0.0
 14
0.0
 24
0.0
 34
0.0
 15
0.0
 25
0.0
 35
0.0
146
0.0
 13
0.0
 23
0.0
 33
0.0
 16
1.0
 26
0.0
 36
0.0
 17
0.0
 27
1.0
 37
0.0
 76
     0
330
23
  0
LAYOUT
  5
22
102
{ACAD_REACTORS
330
1A
102
}
330
1A
100
AcDbPlotSettings
  1

  2
none_device
  4
ANSI_A_(11.00_x_8.50_Inches)
  6

 40
6.35
 41
19.05
 42
6.35000508
 43
19.05000254
 44
279.4
 45
215.9
 46
74.7152120934872
 47
86.36139475369806
 48
0.0
 49
0.0
140
0.0
141
0.0
142
0.0544344653772717
143
1.0
 70
  1696
 72
     0
 73
     0
 74
     0
  7

 75
     0
147
0.0235690232323232
148
0.0
149
0.0
100
AcDbLayout
  1
Model
 70
     1
 71
     0
 10
0.0
 20
0.0
 11
420.0
 21
297.0
 12
0.0
 22
0.0
 32
0.0
 14
-60.19595750931943
 24
-49.97073246008785
 34
0.0
 15
89.03783746512288
 25
39.94257492872395
 35
0.0
146
0.0
 13
0.0
 23
0.0
 33
0.0
 16
1.0
 26
0.0
 36
0.0
 17
0.0
 27
1.0
 37
0.0
 76
     0
330
1F
331
29
  0
MLINESTYLE
  5
18
102
{ACAD_REACTORS
330
17
102
}
330
17
100
AcDbMlineStyle
  2
Standard
 70
     0
  3

 62
   256
 51
90.0
 52
90.0
 71
     2
 49
0.5
 62
   256
  6
BYLAYER
 49
-0.5
 62
   256
  6
BYLAYER
  0
ACDBPLACEHOLDER
  5
F
102
{ACAD_REACTORS
330
E
102
}
330
E
  0
SCALE
  5
48
102
{ACAD_REACTORS
330
47
102
}
330
47
100
AcDbScale
 70
     0
300
1:1
140
1.0
141
1.0
290
     1
  0
SCALE
  5
49
102
{ACAD_REACTORS
330
47
102
}
330
47
100
AcDbScale
 70
     0
300
1:2
140
1.0
141
2.0
290
     0
  0
SCALE
  5
4A
102
{ACAD_REACTORS
330
47
102
}
330
47
100
AcDbScale
 70
     0
300
1:4
140
1.0
141
4.0
290
     0
  0
SCALE
  5
4B
102
{ACAD_REACTORS
330
47
102
}
330
47
100
AcDbScale
 70
     0
300
1:5
140
1.0
141
5.0
290
     0
  0
SCALE
  5
4C
102
{ACAD_REACTORS
330
47
102
}
330
47
100
AcDbScale
 70
     0
300
1:8
140
1.0
141
8.0
290
     0
  0
SCALE
  5
4D
102
{ACAD_REACTORS
330
47
102
}
330
47
100
AcDbScale
 70
     0
300
1:10
140
1.0
141
10.0
290
     0
  0
SCALE
  5
4E
102
{ACAD_REACTORS
330
47
102
}
330
47
100
AcDbScale
 70
     0
300
1:16
140
1.0
141
16.0
290
     0
  0
SCALE
  5
4F
102
{ACAD_REACTORS
330
47
102
}
330
47
100
AcDbScale
 70
     0
300
1:20
140
1.0
141
20.0
290
     0
  0
SCALE
  5
50
102
{ACAD_REACTORS
330
47
102
}
330
47
100
AcDbScale
 70
     0
300
1:30
140
1.0
141
30.0
290
     0
  0
SCALE
  5
51
102
{ACAD_REACTORS
330
47
102
}
330
47
100
AcDbScale
 70
     0
300
1:40
140
1.0
141
40.0
290
     0
  0
SCALE
  5
52
102
{ACAD_REACTORS
330
47
102
}
330
47
100
AcDbScale
 70
     0
300
1:50
140
1.0
141
50.0
290
     0
  0
SCALE
  5
53
102
{ACAD_REACTORS
330
47
102
}
330
47
100
AcDbScale
 70
     0
300
1:100
140
1.0
141
100.0
290
     0
  0
SCALE
  5
54
102
{ACAD_REACTORS
330
47
102
}
330
47
100
AcDbScale
 70
     0
300
2:1
140
2.0
141
1.0
290
     0
  0
SCALE
  5
55
102
{ACAD_REACTORS
330
47
102
}
330
47
100
AcDbScale
 70
     0
300
4:1
140
4.0
141
1.0
290
     0
  0
SCALE
  5
56
102
{ACAD_REACTORS
330
47
102
}
330
47
100
AcDbScale
 70
     0
300
8:1
140
8.0
141
1.0
290
     0
  0
SCALE
  5
57
102
{ACAD_REACTORS
330
47
102
}
330
47
100
AcDbScale
 70
     0
300
10:1
140
10.0
141
1.0
290
     0
  0
SCALE
  5
58
102
{ACAD_REACTORS
330
47
102
}
330
47
100
AcDbScale
 70
     0
300
100:1
140
100.0
141
1.0
290
     0
  0
SCALE
  5
59
102
{ACAD_REACTORS
330
47
102
}
330
47
100
AcDbScale
 70
     0
300
1/128" = 1'-0"
140
0.0078125
141
12.0
290
     0
  0
SCALE
  5
5A
102
{ACAD_REACTORS
330
47
102
}
330
47
100
AcDbScale
 70
     0
300
1/64" = 1'-0"
140
0.015625
141
12.0
290
     0
  0
SCALE
  5
5B
102
{ACAD_REACTORS
330
47
102
}
330
47
100
AcDbScale
 70
     0
300
1/32" = 1'-0"
140
0.03125
141
12.0
290
     0
  0
SCALE
  5
5C
102
{ACAD_REACTORS
330
47
102
}
330
47
100
AcDbScale
 70
     0
300
1/16" = 1'-0"
140
0.0625
141
12.0
290
     0
  0
SCALE
  5
5D
102
{ACAD_REACTORS
330
47
102
}
330
47
100
AcDbScale
 70
     0
300
3/32" = 1'-0"
140
0.09375
141
12.0
290
     0
  0
SCALE
  5
5E
102
{ACAD_REACTORS
330
47
102
}
330
47
100
AcDbScale
 70
     0
300
1/8" = 1'-0"
140
0.125
141
12.0
290
     0
  0
SCALE
  5
5F
102
{ACAD_REACTORS
330
47
102
}
330
47
100
AcDbScale
 70
     0
300
3/16" = 1'-0"
140
0.1875
141
12.0
290
     0
  0
SCALE
  5
60
102
{ACAD_REACTORS
330
47
102
}
330
47
100
AcDbScale
 70
     0
300
1/4" = 1'-0"
140
0.25
141
12.0
290
     0
  0
SCALE
  5
61
102
{ACAD_REACTORS
330
47
102
}
330
47
100
AcDbScale
 70
     0
300
3/8" = 1'-0"
140
0.375
141
12.0
290
     0
  0
SCALE
  5
62
102
{ACAD_REACTORS
330
47
102
}
330
47
100
AcDbScale
 70
     0
300
1/2" = 1'-0"
140
0.5
141
12.0
290
     0
  0
SCALE
  5
63
102
{ACAD_REACTORS
330
47
102
}
330
47
100
AcDbScale
 70
     0
300
3/4" = 1'-0"
140
0.75
141
12.0
290
     0
  0
SCALE
  5
64
102
{ACAD_REACTORS
330
47
102
}
330
47
100
AcDbScale
 70
     0
300
1" = 1'-0"
140
1.0
141
12.0
290
     0
  0
SCALE
  5
65
102
{ACAD_REACTORS
330
47
102
}
330
47
100
AcDbScale
 70
     0
300
1-1/2" = 1'-0"
140
1.5
141
12.0
290
     0
  0
SCALE
  5
66
102
{ACAD_REACTORS
330
47
102
}
330
47
100
AcDbScale
 70
     0
300
3" = 1'-0"
140
3.0
141
12.0
290
     0
  0
SCALE
  5
67
102
{ACAD_REACTORS
330
47
102
}
330
47
100
AcDbScale
 70
     0
300
6" = 1'-0"
140
6.0
141
12.0
290
     0
  0
SCALE
  5
68
102
{ACAD_REACTORS
330
47
102
}
330
47
100
AcDbScale
 70
     0
300
1'-0" = 1'-0"
140
12.0
141
12.0
290
     0
  0
ENDSEC
  0
EOF
