  0
SECTION
  2
HEADER
  9
$ACADVER
  1
AC1015
  9
$ACADMAINTVER
 70
     6
  9
$DWGCODEPAGE
  3
ANSI_949
  9
$INSBASE
 10
0.0
 20
0.0
 30
0.0
  9
$EXTMIN
 10
-50.12577283782724
 20
-49.97180738881174
 30
0.0
  9
$EXTMAX
 10
89.03783746512288
 20
38.02202942590522
 30
0.0
  9
$LIMMIN
 10
0.0
 20
0.0
  9
$LIMMAX
 10
420.0
 20
297.0
  9
$ORTHOMODE
 70
     1
  9
$REGENMODE
 70
     1
  9
$FILLMODE
 70
     1
  9
$QTEXTMODE
 70
     0
  9
$MIRRTEXT
 70
     1
  9
$LTSCALE
 40
1.0
  9
$ATTMODE
 70
     1
  9
$TEXTSIZE
 40
3.5
  9
$TRACEWID
 40
1.0
  9
$TEXTSTYLE
  7
Standard
  9
$CLAYER
  8
0
  9
$CELTYPE
  6
ByLayer
  9
$CECOLOR
 62
   256
  9
$CELTSCALE
 40
1.0
  9
$DISPSILH
 70
     0
  9
$DIMSCALE
 40
1.0
  9
$DIMASZ
 40
3.302
  9
$DIMEXO
 40
1.0
  9
$DIMDLI
 40
3.75
  9
$DIMRND
 40
0.0
  9
$DIMDLE
 40
0.0
  9
$DIMEXE
 40
1.0
  9
$DIMTP
 40
0.0
  9
$DIMTM
 40
0.0
  9
$DIMTXT
 40
3.5
  9
$DIMCEN
 40
2.5
  9
$DIMTSZ
 40
0.0
  9
$DIMTOL
 70
     0
  9
$DIMLIM
 70
     0
  9
$DIMTIH
 70
     1
  9
$DIMTOH
 70
     1
  9
$DIMSE1
 70
     0
  9
$DIMSE2
 70
     0
  9
$DIMTAD
 70
     1
  9
$DIMZIN
 70
     0
  9
$DIMBLK
  1

  9
$DIMASO
 70
     1
  9
$DIMSHO
 70
     1
  9
$DIMPOST
  1

  9
$DIMAPOST
  1

  9
$DIMALT
 70
     0
  9
$DIMALTD
 70
     3
  9
$DIMALTF
 40
0.0393700787401575
  9
$DIMLFAC
 40
1.0
  9
$DIMTOFL
 70
     1
  9
$DIMTVP
 40
0.0
  9
$DIMTIX
 70
     0
  9
$DIMSOXD
 70
     0
  9
$DIMSAH
 70
     0
  9
$DIMBLK1
  1

  9
$DIMBLK2
  1

  9
$DIMSTYLE
  2
ISO-25
  9
$DIMCLRD
 70
     0
  9
$DIMCLRE
 70
     0
  9
$DIMCLRT
 70
     0
  9
$DIMTFAC
 40
1.0
  9
$DIMGAP
 40
1.524
  9
$DIMJUST
 70
     0
  9
$DIMSD1
 70
     0
  9
$DIMSD2
 70
     0
  9
$DIMTOLJ
 70
     0
  9
$DIMTZIN
 70
     0
  9
$DIMALTZ
 70
     0
  9
$DIMALTTZ
 70
     0
  9
$DIMUPT
 70
     0
  9
$DIMDEC
 70
     2
  9
$DIMTDEC
 70
     2
  9
$DIMALTU
 70
     2
  9
$DIMALTTD
 70
     3
  9
$DIMTXSTY
  7
Standard
  9
$DIMAUNIT
 70
     0
  9
$DIMADEC
 70
     2
  9
$DIMALTRND
 40
0.0
  9
$DIMAZIN
 70
     0
  9
$DIMDSEP
 70
    44
  9
$DIMATFIT
 70
     3
  9
$DIMFRAC
 70
     0
  9
$DIMLDRBLK
  1

  9
$DIMLUNIT
 70
     2
  9
$DIMLWD
 70
    -2
  9
$DIMLWE
 70
    -2
  9
$DIMTMOVE
 70
     0
  9
$LUNITS
 70
     2
  9
$LUPREC
 70
     2
  9
$SKETCHINC
 40
1.0
  9
$FILLETRAD
 40
10.0
  9
$AUNITS
 70
     0
  9
$AUPREC
 70
     2
  9
$MENU
  1
.
  9
$ELEVATION
 40
0.0
  9
$PELEVATION
 40
0.0
  9
$THICKNESS
 40
0.0
  9
$LIMCHECK
 70
     0
  9
$CHAMFERA
 40
0.0
  9
$CHAMFERB
 40
0.0
  9
$CHAMFERC
 40
0.0
  9
$CHAMFERD
 40
0.0
  9
$SKPOLY
 70
     0
  9
$TDCREATE
 40
2458312.672079907
  9
$TDUCREATE
 40
2458312.297079907
  9
$TDUPDATE
 40
2458323.749721076
  9
$TDUUPDATE
 40
2458323.374721076
  9
$TDINDWG
 40
0.0013459375
  9
$TDUSRTIMER
 40
2458323.374689525
  9
$USRTIMER
 70
     1
  9
$ANGBASE
 50
0.0
  9
$ANGDIR
 70
     0
  9
$PDMODE
 70
     0
  9
$PDSIZE
 40
-1.0
  9
$PLINEWID
 40
0.0
  9
$SPLFRAME
 70
     0
  9
$SPLINETYPE
 70
     6
  9
$SPLINESEGS
 70
     8
  9
$HANDSEED
  5
2B8
  9
$SURFTAB1
 70
     6
  9
$SURFTAB2
 70
     6
  9
$SURFTYPE
 70
     6
  9
$SURFU
 70
     6
  9
$SURFV
 70
     6
  9
$UCSBASE
  2

  9
$UCSNAME
  2

  9
$UCSORG
 10
0.0
 20
0.0
 30
0.0
  9
$UCSXDIR
 10
1.0
 20
0.0
 30
0.0
  9
$UCSYDIR
 10
0.0
 20
1.0
 30
0.0
  9
$UCSORTHOREF
  2

  9
$UCSORTHOVIEW
 70
     0
  9
$UCSORGTOP
 10
0.0
 20
0.0
 30
0.0
  9
$UCSORGBOTTOM
 10
0.0
 20
0.0
 30
0.0
  9
$UCSORGLEFT
 10
0.0
 20
0.0
 30
0.0
  9
$UCSORGRIGHT
 10
0.0
 20
0.0
 30
0.0
  9
$UCSORGFRONT
 10
0.0
 20
0.0
 30
0.0
  9
$UCSORGBACK
 10
0.0
 20
0.0
 30
0.0
  9
$PUCSBASE
  2

  9
$PUCSNAME
  2

  9
$PUCSORG
 10
0.0
 20
0.0
 30
0.0
  9
$PUCSXDIR
 10
1.0
 20
0.0
 30
0.0
  9
$PUCSYDIR
 10
0.0
 20
1.0
 30
0.0
  9
$PUCSORTHOREF
  2

  9
$PUCSORTHOVIEW
 70
     0
  9
$PUCSORGTOP
 10
0.0
 20
0.0
 30
0.0
  9
$PUCSORGBOTTOM
 10
0.0
 20
0.0
 30
0.0
  9
$PUCSORGLEFT
 10
0.0
 20
0.0
 30
0.0
  9
$PUCSORGRIGHT
 10
0.0
 20
0.0
 30
0.0
  9
$PUCSORGFRONT
 10
0.0
 20
0.0
 30
0.0
  9
$PUCSORGBACK
 10
0.0
 20
0.0
 30
0.0
  9
$USERI1
 70
     0
  9
$USERI2
 70
     0
  9
$USERI3
 70
     0
  9
$USERI4
 70
     0
  9
$USERI5
 70
     0
  9
$USERR1
 40
0.0
  9
$USERR2
 40
0.0
  9
$USERR3
 40
0.0
  9
$USERR4
 40
0.0
  9
$USERR5
 40
0.0
  9
$WORLDVIEW
 70
     1
  9
$SHADEDGE
 70
     3
  9
$SHADEDIF
 70
    70
  9
$TILEMODE
 70
     1
  9
$MAXACTVP
 70
    64
  9
$PINSBASE
 10
0.0
 20
0.0
 30
0.0
  9
$PLIMCHECK
 70
     0
  9
$PEXTMIN
 10
1.000000000000000E+20
 20
1.000000000000000E+20
 30
1.000000000000000E+20
  9
$PEXTMAX
 10
-1.000000000000000E+20
 20
-1.000000000000000E+20
 30
-1.000000000000000E+20
  9
$PLIMMIN
 10
0.0
 20
0.0
  9
$PLIMMAX
 10
0.0
 20
0.0
  9
$UNITMODE
 70
     0
  9
$VISRETAIN
 70
     1
  9
$PLINEGEN
 70
     0
  9
$PSLTSCALE
 70
     1
  9
$TREEDEPTH
 70
  3020
  9
$CMLSTYLE
  2
Standard
  9
$CMLJUST
 70
     0
  9
$CMLSCALE
 40
20.0
  9
$PROXYGRAPHICS
 70
     1
  9
$MEASUREMENT
 70
     1
  9
$CELWEIGHT
370
    -1
  9
$ENDCAPS
280
     0
  9
$JOINSTYLE
280
     0
  9
$LWDISPLAY
290
     1
  9
$INSUNITS
 70
     4
  9
$HYPERLINKBASE
  1

  9
$STYLESHEET
  1

  9
$XEDIT
290
     1
  9
$CEPSNTYPE
380
     0
  9
$PSTYLEMODE
290
     1
  9
$FINGERPRINTGUID
  2
{5F3D4751-CC49-4146-84ED-327B2798850B}
  9
$VERSIONGUID
  2
{FAEB1C32-E019-11D5-929B-00C0DF256EC4}
  9
$EXTNAMES
290
     1
  9
$PSVPSCALE
 40
0.0
  9
$OLESTARTUP
290
     0
  0
ENDSEC
  0
SECTION
  2
CLASSES
  0
CLASS
  1
ACDBDICTIONARYWDFLT
  2
AcDbDictionaryWithDefault
  3
ObjectDBX Classes
 90
        0
280
     0
281
     0
  0
CLASS
  1
VISUALSTYLE
  2
AcDbVisualStyle
  3
ObjectDBX Classes
 90
     4095
280
     0
281
     0
  0
CLASS
  1
MATERIAL
  2
AcDbMaterial
  3
ObjectDBX Classes
 90
     1153
280
     0
281
     0
  0
CLASS
  1
SCALE
  2
AcDbScale
  3
ObjectDBX Classes
 90
     1153
280
     0
281
     0
  0
CLASS
  1
SUN
  2
AcDbSun
  3
SCENEOE
 90
     1153
280
     0
281
     0
  0
CLASS
  1
ACDBPLACEHOLDER
  2
AcDbPlaceHolder
  3
ObjectDBX Classes
 90
        0
280
     0
281
     0
  0
CLASS
  1
LAYOUT
  2
AcDbLayout
  3
ObjectDBX Classes
 90
        0
280
     0
281
     0
  0
CLASS
  1
TABLESTYLE
  2
AcDbTableStyle
  3
ObjectDBX Classes
 90
     4095
280
     0
281
     0
  0
CLASS
  1
MLEADERSTYLE
  2
AcDbMLeaderStyle
  3
ACDB_MLEADERSTYLE_CLASS
 90
     4095
280
     0
281
     0
  0
CLASS
  1
RASTERVARIABLES
  2
AcDbRasterVariables
  3
ISM
 90
        0
280
     0
281
     0
  0
CLASS
  1
DIMASSOC
  2
AcDbDimAssoc
  3
"AcDbDimAssoc|Product Desc:     AcDim ARX App For Dimension|Company:          Autodesk, Inc.|WEB Address:      www.autodesk.com"
 90
        0
280
     0
281
     0
  0
ENDSEC
  0
SECTION
  2
TABLES
  0
TABLE
  2
VPORT
  5
8
330
0
100
AcDbSymbolTable
 70
     1
  0
VPORT
  5
29
330
8
100
AcDbSymbolTableRecord
100
AcDbViewportTableRecord
  2
*Active
 70
     0
 10
0.0
 20
0.0
 11
1.0
 21
1.0
 12
32.27394812068125
 22
-13.11223656463584
 13
0.0
 23
0.0
 14
10.0
 24
10.0
 15
10.0
 25
10.0
 16
0.0
 26
0.0
 36
1.0
 17
0.0
 27
0.0
 37
0.0
 40
138.2334136824558
 41
1.632093933463796
 42
50.0
 43
0.0
 44
0.0
 50
0.0
 51
0.0
 71
    16
 72
  2000
 73
     1
 74
     3
 75
     0
 76
     0
 77
     0
 78
     0
281
     0
 65
     1
110
0.0
120
0.0
130
0.0
111
1.0
121
0.0
131
0.0
112
0.0
122
1.0
132
0.0
 79
     0
146
0.0
  0
ENDTAB
  0
TABLE
  2
LTYPE
  5
5
330
0
100
AcDbSymbolTable
 70
     6
  0
LTYPE
  5
14
330
5
100
AcDbSymbolTableRecord
100
AcDbLinetypeTableRecord
  2
ByBlock
 70
     0
  3

 72
    65
 73
     0
 40
0.0
  0
LTYPE
  5
15
330
5
100
AcDbSymbolTableRecord
100
AcDbLinetypeTableRecord
  2
ByLayer
 70
     0
  3

 72
    65
 73
     0
 40
0.0
  0
LTYPE
  5
16
330
5
100
AcDbSymbolTableRecord
100
AcDbLinetypeTableRecord
  2
Continuous
 70
     0
  3
Solid line
 72
    65
 73
     0
 40
0.0
  0
LTYPE
  5
6A
330
5
100
AcDbSymbolTableRecord
100
AcDbLinetypeTableRecord
  2
HIDDEN
 70
     0
  3
Hidden __ __ __ __ __ __ __ __ __ __ __ __ __ __
 72
    65
 73
     2
 40
1.905
 49
1.27
 74
     0
 49
-0.635
 74
     0
  0
LTYPE
  5
6B
330
5
100
AcDbSymbolTableRecord
100
AcDbLinetypeTableRecord
  2
PHANTOM
 70
     0
  3
Phantom ______  __  __  ______  __  __  ______
 72
    65
 73
     6
 40
12.7
 49
6.35
 74
     0
 49
-1.27
 74
     0
 49
1.27
 74
     0
 49
-1.27
 74
     0
 49
1.27
 74
     0
 49
-1.27
 74
     0
  0
LTYPE
  5
6C
330
5
100
AcDbSymbolTableRecord
100
AcDbLinetypeTableRecord
  2
CENTER
 70
     0
  3
Center ____ _ ____ _ ____ _ ____ _ ____ _ ____
 72
    65
 73
     4
 40
10.16
 49
6.35
 74
     0
 49
-1.27
 74
     0
 49
1.27
 74
     0
 49
-1.27
 74
     0
  0
LTYPE
  5
6D
330
5
100
AcDbSymbolTableRecord
100
AcDbLinetypeTableRecord
  2
CENTERX2
 70
     0
  3
Center (2x) ________  __  ________  __  _____
 72
    65
 73
     4
 40
20.32
 49
12.7
 74
     0
 49
-2.54
 74
     0
 49
2.54
 74
     0
 49
-2.54
 74
     0
  0
LTYPE
  5
6E
330
5
100
AcDbSymbolTableRecord
100
AcDbLinetypeTableRecord
  2
DOT2
 70
     0
  3
Dot (.5x) ........................................
 72
    65
 73
     2
 40
0.635
 49
0.0
 74
     0
 49
-0.635
 74
     0
  0
ENDTAB
  0
TABLE
  2
LAYER
  5
2
102
{ACAD_XDICTIONARY
360
1F3
102
}
330
0
100
AcDbSymbolTable
 70
    18
  0
LAYER
  5
10
330
2
100
AcDbSymbolTableRecord
100
AcDbLayerTableRecord
  2
0
 70
     0
 62
     7
  6
Continuous
370
    -3
390
F
  0
LAYER
  5
6F
330
2
100
AcDbSymbolTableRecord
100
AcDbLayerTableRecord
  2
FORMAT
 70
     0
 62
     2
  6
Continuous
370
    -3
390
F
  0
LAYER
  5
70
330
2
100
AcDbSymbolTableRecord
100
AcDbLayerTableRecord
  2
외형선
 70
     0
 62
     4
  6
Continuous
370
    30
390
F
  0
LAYER
  5
71
330
2
100
AcDbSymbolTableRecord
100
AcDbLayerTableRecord
  2
숨은선
 70
     0
 62
     2
  6
HIDDEN
370
    15
390
F
  0
LAYER
  5
72
330
2
100
AcDbSymbolTableRecord
100
AcDbLayerTableRecord
  2
중심선
 70
     0
 62
     1
  6
CENTERX2
370
    -3
390
F
  0
LAYER
  5
73
330
2
100
AcDbSymbolTableRecord
100
AcDbLayerTableRecord
  2
파단선
 70
     0
 62
     4
  6
Continuous
370
    -3
390
F
  0
LAYER
  5
74
330
2
100
AcDbSymbolTableRecord
100
AcDbLayerTableRecord
  2
해칭선
 70
     0
 62
   100
  6
Continuous
370
    -3
390
F
  0
LAYER
  5
75
330
2
100
AcDbSymbolTableRecord
100
AcDbLayerTableRecord
  2
가는실선
 70
     0
 62
     4
  6
Continuous
370
    -3
390
F
  0
LAYER
  5
76
330
2
100
AcDbSymbolTableRecord
100
AcDbLayerTableRecord
  2
치수_보조선
 70
     0
 62
     4
  6
Continuous
370
    -3
390
F
  0
LAYER
  5
77
330
2
100
AcDbSymbolTableRecord
100
AcDbLayerTableRecord
  2
치수문자_일반주서
 70
     0
 62
     7
  6
Continuous
370
    15
390
F
  0
LAYER
  5
78
330
2
100
AcDbSymbolTableRecord
100
AcDbLayerTableRecord
  2
개별주서
 70
     0
 62
   100
  6
Continuous
370
    30
390
F
  0
LAYER
  5
79
330
2
100
AcDbSymbolTableRecord
100
AcDbLayerTableRecord
  2
중간선
 70
     0
 62
     2
  6
Continuous
370
    15
390
F
  0
LAYER
  5
7A
330
2
100
AcDbSymbolTableRecord
100
AcDbLayerTableRecord
  2
윤곽선
 70
     0
 62
     3
  6
Continuous
370
    40
390
F
  0
LAYER
  5
7B
330
2
100
AcDbSymbolTableRecord
100
AcDbLayerTableRecord
  2
중심마크
 70
     0
 62
   100
  6
Continuous
370
    30
390
F
  0
LAYER
  5
7C
330
2
100
AcDbSymbolTableRecord
100
AcDbLayerTableRecord
  2
가상선
 70
     0
 62
     4
  6
PHANTOM
370
    -3
390
F
  0
LAYER
  5
7D
330
2
100
AcDbSymbolTableRecord
100
AcDbLayerTableRecord
  2
특수지정선
 70
     0
 62
     5
  6
CENTERX2
370
    60
390
F
  0
LAYER
  5
7E
330
2
100
AcDbSymbolTableRecord
100
AcDbLayerTableRecord
  2
참조1
 70
     0
 62
    -4
  6
Continuous
370
    -3
390
F
  0
LAYER
  5
152
330
2
100
AcDbSymbolTableRecord
100
AcDbLayerTableRecord
  2
Defpoints
 70
     0
 62
     7
  6
Continuous
290
     0
370
    -3
390
F
  0
ENDTAB
  0
TABLE
  2
STYLE
  5
3
330
0
100
AcDbSymbolTable
 70
     2
  0
STYLE
  5
11
330
3
100
AcDbSymbolTableRecord
100
AcDbTextStyleTableRecord
  2
Standard
 70
     0
 40
0.0
 41
1.0
 50
0.0
 71
     0
 42
3.5
  3
txt
  4

  0
STYLE
  5
94
330
3
100
AcDbSymbolTableRecord
100
AcDbTextStyleTableRecord
  2
SLDTEXTSTYLE0
 70
     0
 40
0.0
 41
0.75
 50
0.0
 71
     0
 42
3.5
  3
TXT
  4

  0
ENDTAB
  0
TABLE
  2
VIEW
  5
6
330
0
100
AcDbSymbolTable
 70
     0
  0
ENDTAB
  0
TABLE
  2
UCS
  5
7
330
0
100
AcDbSymbolTable
 70
     0
  0
ENDTAB
  0
TABLE
  2
APPID
  5
9
330
0
100
AcDbSymbolTable
 70
     1
  0
APPID
  5
12
330
9
100
AcDbSymbolTableRecord
100
AcDbRegAppTableRecord
  2
ACAD
 70
     0
  0
ENDTAB
  0
TABLE
  2
DIMSTYLE
  5
A
330
0
100
AcDbSymbolTable
 70
     4
100
AcDbDimStyleTable
  0
DIMSTYLE
105
27
330
A
100
AcDbSymbolTableRecord
100
AcDbDimStyleTableRecord
  2
ISO-25
 70
     0
 41
2.5
 42
0.625
 43
3.75
 44
1.25
 73
     0
 74
     0
 77
     1
 78
     8
140
2.5
141
2.5
143
0.03937007874016
147
0.625
171
     3
172
     1
178
     0
271
     2
272
     2
274
     3
278
    44
283
     0
284
     8
340
11
  0
DIMSTYLE
105
CF
330
A
100
AcDbSymbolTableRecord
100
AcDbDimStyleTableRecord
  2
SLDDIMSTYLE0
 70
     0
 41
3.302
 44
0.0
 45
0.000000001
 73
     0
 74
     0
 77
     1
 78
     4
 79
     1
140
3.5
143
0.0393700787401575
147
0.875
148
0.000000001
170
     1
173
     1
178
     0
271
     2
272
     2
276
     2
284
    12
340
94
  0
DIMSTYLE
105
E4
102
{ACAD_REACTORS
330
E3
330
10C
330
CE
330
F7
102
}
330
A
100
AcDbSymbolTableRecord
100
AcDbDimStyleTableRecord
  2
SLDDIMSTYLE1
 70
     0
 41
3.302
 44
0.0
 45
0.000000001
 73
     0
 74
     0
 77
     1
 78
    12
 79
     3
140
3.5
143
0.0393700787401575
147
0.875
148
0.000000001
170
     1
173
     1
178
     0
271
     2
272
     2
276
     2
284
    12
340
94
  0
DIMSTYLE
105
F8
330
A
100
AcDbSymbolTableRecord
100
AcDbDimStyleTableRecord
  2
SLDDIMSTYLE2
 70
     0
 41
3.302
 44
0.0
 45
0.000000001
 73
     0
 74
     0
 77
     1
 78
    12
 79
     3
140
3.5
143
0.0393700787401575
147
0.875
148
0.000000001
170
     1
172
     1
173
     1
178
     0
271
     2
272
     2
276
     2
284
    12
289
     0
340
94
  0
ENDTAB
  0
TABLE
  2
BLOCK_RECORD
  5
1
330
0
100
AcDbSymbolTable
 70
    15
  0
BLOCK_RECORD
  5
1F
330
1
100
AcDbSymbolTableRecord
100
AcDbBlockTableRecord
  2
*Model_Space
340
22
  0
BLOCK_RECORD
  5
1B
330
1
100
AcDbSymbolTableRecord
100
AcDbBlockTableRecord
  2
*Paper_Space
340
1E
  0
BLOCK_RECORD
  5
23
330
1
100
AcDbSymbolTableRecord
100
AcDbBlockTableRecord
  2
*Paper_Space0
340
26
  0
BLOCK_RECORD
  5
7F
330
1
100
AcDbSymbolTableRecord
100
AcDbBlockTableRecord
  2
블럭10
340
0
102
{BLKREFS
331
C7
102
}
  0
BLOCK_RECORD
  5
D0
330
1
100
AcDbSymbolTableRecord
100
AcDbBlockTableRecord
  2
_D
340
0
  0
BLOCK_RECORD
  5
E5
330
1
100
AcDbSymbolTableRecord
100
AcDbBlockTableRecord
  2
_D_1
340
0
  0
BLOCK_RECORD
  5
F9
330
1
100
AcDbSymbolTableRecord
100
AcDbBlockTableRecord
  2
_D_2
340
0
  0
BLOCK_RECORD
  5
10D
330
1
100
AcDbSymbolTableRecord
100
AcDbBlockTableRecord
  2
_D_3
340
0
  0
BLOCK_RECORD
  5
126
330
1
100
AcDbSymbolTableRecord
100
AcDbBlockTableRecord
  2
SW_DOWELSYMBOL_0
340
0
102
{BLKREFS
331
12C
102
}
  0
BLOCK_RECORD
  5
1E5
330
1
100
AcDbSymbolTableRecord
100
AcDbBlockTableRecord
  2
*D7
340
0
  0
BLOCK_RECORD
  5
1F7
330
1
100
AcDbSymbolTableRecord
100
AcDbBlockTableRecord
  2
*D8
340
0
  0
BLOCK_RECORD
  5
203
330
1
100
AcDbSymbolTableRecord
100
AcDbBlockTableRecord
  2
*D9
340
0
  0
BLOCK_RECORD
  5
20F
330
1
100
AcDbSymbolTableRecord
100
AcDbBlockTableRecord
  2
*D10
340
0
  0
BLOCK_RECORD
  5
25D
330
1
100
AcDbSymbolTableRecord
100
AcDbBlockTableRecord
  2
*D11
340
0
  0
BLOCK_RECORD
  5
269
330
1
100
AcDbSymbolTableRecord
100
AcDbBlockTableRecord
  2
*D12
340
0
  0
BLOCK_RECORD
  5
275
330
1
100
AcDbSymbolTableRecord
100
AcDbBlockTableRecord
  2
*D13
340
0
  0
BLOCK_RECORD
  5
281
330
1
100
AcDbSymbolTableRecord
100
AcDbBlockTableRecord
  2
*D14
340
0
  0
ENDTAB
  0
ENDSEC
  0
SECTION
  2
BLOCKS
  0
BLOCK
  5
20
330
1F
100
AcDbEntity
  8
0
100
AcDbBlockBegin
  2
*Model_Space
 70
     0
 10
0.0
 20
0.0
 30
0.0
  3
*Model_Space
  1
*Model_Space
  0
ENDBLK
  5
21
330
1F
100
AcDbEntity
  8
0
100
AcDbBlockEnd
  0
BLOCK
  5
1C
330
1B
100
AcDbEntity
 67
     1
  8
0
100
AcDbBlockBegin
  2
*Paper_Space
 70
     0
 10
0.0
 20
0.0
 30
0.0
  3
*Paper_Space
  1
*Paper_Space
  0
ENDBLK
  5
1D
330
1B
100
AcDbEntity
 67
     1
  8
0
100
AcDbBlockEnd
  0
BLOCK
  5
24
330
23
100
AcDbEntity
  8
0
100
AcDbBlockBegin
  2
*Paper_Space0
 70
     0
 10
0.0
 20
0.0
 30
0.0
  3
*Paper_Space0
  1
*Paper_Space0
  0
ENDBLK
  5
25
330
23
100
AcDbEntity
  8
0
100
AcDbBlockEnd
  0
BLOCK
  5
80
330
7F
100
AcDbEntity
  8
0
100
AcDbBlockBegin
  2
블럭10
 70
     2
 10
0.0
 20
0.0
 30
0.0
  3
블럭10
  1
블럭10
  0
ELLIPSE
  5
82
330
7F
100
AcDbEntity
  8
중심선
100
AcDbEllipse
 10
20.54032771741204
 20
12.0471743016438
 30
0.0
 11
6.600054785286829
 21
-1.261213355974178E-13
 31
0.0
210
0.0
220
0.0
230
1.0
 40
0.636358354079598
 41
0.9219305317359503
 42
6.513795318482858
  0
ELLIPSE
  5
83
330
7F
100
AcDbEntity
  8
중심선
100
AcDbEllipse
 10
20.54032771746488
 20
12.04717430159265
 30
0.0
 11
3.960054785062283
 21
1.540847449632565E-10
 31
0.0
210
0.0
220
0.0
230
1.0
 40
0.3939339440162632
 41
1.131841032648279
 42
5.62031148352944
  0
LINE
  5
84
330
7F
100
AcDbEntity
  8
중심선
100
AcDbLine
 10
2.268634060543552
 20
16.24717430164393
 30
0.0
 11
5.714909304380834
 21
16.24717430164393
 31
0.0
  0
LINE
  5
85
330
7F
100
AcDbEntity
  8
중심선
100
AcDbLine
 10
5.245725140726316
 20
7.84717430164391
 30
0.0
 11
8.692000384563599
 21
7.84717430164391
 31
0.0
  0
LINE
  5
86
330
7F
100
AcDbEntity
  8
중심선
100
AcDbLine
 10
15.74043728645272
 20
16.24717430164393
 30
0.0
 11
8.692000384563599
 21
7.84717430164391
 31
0.0
  0
LINE
  5
87
330
7F
100
AcDbEntity
  8
중심선
100
AcDbLine
 10
0.1404042013395286
 20
13.71084872107135
 30
0.0
 11
3.58671253028996
 21
13.71088815037384
 31
0.0
  0
LINE
  5
88
330
7F
100
AcDbEntity
  8
중심선
100
AcDbLine
 10
2.750260043222114
 20
10.84717430164391
 30
0.0
 11
6.196535287059397
 21
10.84717430164391
 31
0.0
  0
LINE
  5
89
330
7F
100
AcDbEntity
  8
중심선
100
AcDbLine
 10
12.29416204261559
 20
16.24717430164393
 30
0.0
 11
5.245725140726316
 21
7.84717430164391
 31
0.0
  0
LINE
  5
8A
330
7F
100
AcDbEntity
  8
중심선
100
AcDbLine
 10
10.72767329541681
 20
16.24717430164393
 30
0.0
 11
6.196535287059397
 21
10.84717430164391
 31
0.0
  0
LINE
  5
8B
330
7F
100
AcDbEntity
  8
중심선
100
AcDbLine
 10
7.28139805157953
 20
16.24717430164393
 30
0.0
 11
2.750260043222114
 21
10.84717430164391
 31
0.0
  0
LINE
  5
8C
330
7F
100
AcDbEntity
  8
중심선
100
AcDbLine
 10
5.714909304380834
 20
16.24717430164393
 30
0.0
 11
3.58671253028996
 21
13.71088815037384
 31
0.0
  0
LINE
  5
8D
330
7F
100
AcDbEntity
  8
중심선
100
AcDbLine
 10
2.268634060543552
 20
16.24717430164393
 30
0.0
 11
0.1404042013395286
 21
13.71084872107135
 31
0.0
  0
LINE
  5
8E
330
7F
100
AcDbEntity
  8
중심선
100
AcDbLine
 10
7.28139805157953
 20
16.24717430164393
 30
0.0
 11
10.72767329541681
 21
16.24717430164393
 31
0.0
  0
LINE
  5
8F
330
7F
100
AcDbEntity
  8
중심선
100
AcDbLine
 10
12.29416204261559
 20
16.24717430164393
 30
0.0
 11
15.74043728645272
 21
16.24717430164393
 31
0.0
  0
LINE
  5
90
330
7F
100
AcDbEntity
  8
중심선
100
AcDbLine
 10
19.22036997980202
 20
11.08717430171403
 30
0.0
 11
23.66174974927406
 21
11.08717430171406
 31
0.0
  0
LINE
  5
91
330
7F
100
AcDbEntity
  8
중심선
100
AcDbLine
 10
19.22039502424796
 20
13.00717430171391
 30
0.0
 11
19.22036997980202
 21
11.08717430171403
 31
0.0
  0
LINE
  5
92
330
7F
100
AcDbEntity
  8
중심선
100
AcDbLine
 10
19.22039502424796
 20
13.00717430171391
 30
0.0
 11
26.96566020931264
 21
13.00717430171391
 31
0.0
  0
LINE
  5
93
330
7F
100
AcDbEntity
  8
중심선
100
AcDbLine
 10
22.22332737316547
 20
13.45928029700563
 30
0.0
 11
24.52862924686651
 21
15.39360700705356
 31
0.0
  0
ATTDEF
  5
95
330
7F
100
AcDbEntity
  8
FORMAT
 62
     2
100
AcDbText
 10
4.408487351596664
 20
2.075366912832191
 30
0.0
 40
4.233333333333333
  1
E2034024
 41
0.75
  7
SLDTEXTSTYLE0
 11
4.408487351596664
 21
-0.0412997538344756
 31
0.0
100
AcDbAttributeDefinition
  3

  2
AUTOATTR0
 70
     0
 74
     1
  0
ENDBLK
  5
81
330
7F
100
AcDbEntity
  8
0
100
AcDbBlockEnd
  0
BLOCK
  5
D1
330
D0
100
AcDbEntity
  8
0
100
AcDbBlockBegin
  2
_D
 70
     0
 10
0.0
 20
0.0
 30
0.0
  3
_D
  1
_D
  0
LINE
  5
D3
330
D0
100
AcDbEntity
  8
치수문자_일반주서
 62
     0
370
    -2
100
AcDbLine
 10
48.1
 20
4.825000000000005
 30
0.0
 11
48.1
 21
15.52787716639598
 31
0.0
  0
LINE
  5
D4
330
D0
100
AcDbEntity
  8
치수문자_일반주서
 62
     0
370
    -2
100
AcDbLine
 10
9.999999999999998
 20
4.824853700972688
 30
0.0
 11
10.0
 21
15.52787716639598
 31
0.0
  0
LINE
  5
D5
330
D0
100
AcDbEntity
  8
치수문자_일반주서
 62
     0
370
    -2
100
AcDbLine
 10
44.798
 20
15.52787716639598
 30
0.0
 11
13.302
 21
15.52787716639598
 31
0.0
  0
SOLID
  5
D6
330
D0
100
AcDbEntity
  8
치수문자_일반주서
 62
     0
100
AcDbTrace
 10
44.798
 20
14.97754383306264
 30
0.0
 11
44.798
 21
16.07821049972931
 31
0.0
 12
48.1
 22
15.52787716639598
 32
0.0
 13
48.1
 23
15.52787716639598
 33
0.0
  0
SOLID
  5
D7
330
D0
100
AcDbEntity
  8
치수문자_일반주서
 62
     0
100
AcDbTrace
 10
13.302
 20
16.07821049972931
 30
0.0
 11
13.302
 21
14.97754383306264
 31
0.0
 12
10.0
 22
15.52787716639598
 32
0.0
 13
10.0
 23
15.52787716639598
 33
0.0
  0
MTEXT
  5
D8
330
D0
100
AcDbEntity
  8
치수문자_일반주서
 62
     0
100
AcDbMText
 10
29.04171686160924
 20
19.90287716639597
 30
0.0
 40
3.5
 41
0.0
 71
     2
 72
     1
  1
\A1;38.1 [1 1/2]
  7
SLDTEXTSTYLE0
 73
     1
 44
1.0
  0
POINT
  5
D9
330
D0
100
AcDbEntity
  8
Defpoints
 62
     0
100
AcDbPoint
 10
48.1
 20
4.762500000000005
 30
0.0
  0
POINT
  5
DA
330
D0
100
AcDbEntity
  8
Defpoints
 62
     0
100
AcDbPoint
 10
9.999999999999998
 20
4.762353700972688
 30
0.0
  0
POINT
  5
DB
330
D0
100
AcDbEntity
  8
Defpoints
 62
     0
100
AcDbPoint
 10
9.999999999999998
 20
15.52787716639598
 30
0.0
  0
ENDBLK
  5
D2
330
D0
100
AcDbEntity
  8
0
100
AcDbBlockEnd
  0
BLOCK
  5
E6
330
E5
100
AcDbEntity
  8
0
100
AcDbBlockBegin
  2
_D_1
 70
     0
 10
0.0
 20
0.0
 30
0.0
  3
_D_1
  1
_D_1
  0
LINE
  5
E8
330
E5
100
AcDbEntity
  8
치수문자_일반주서
 62
     0
370
    -2
100
AcDbLine
 10
48.1
 20
4.825000000000005
 30
0.0
 11
48.1
 21
33.64702942590522
 31
0.0
  0
LINE
  5
E9
330
E5
100
AcDbEntity
  8
치수문자_일반주서
 62
     0
370
    -2
100
AcDbLine
 10
-34.45
 20
3.872500000000001
 30
0.0
 11
-34.45
 21
33.64702942590522
 31
0.0
  0
LINE
  5
EA
330
E5
100
AcDbEntity
  8
치수문자_일반주서
 62
     0
370
    -2
100
AcDbLine
 10
44.798
 20
33.64702942590522
 30
0.0
 11
-31.148
 21
33.64702942590522
 31
0.0
  0
SOLID
  5
EB
330
E5
100
AcDbEntity
  8
치수문자_일반주서
 62
     0
100
AcDbTrace
 10
44.798
 20
33.09669609257188
 30
0.0
 11
44.798
 21
34.19736275923855
 31
0.0
 12
48.1
 22
33.64702942590522
 32
0.0
 13
48.1
 23
33.64702942590522
 33
0.0
  0
SOLID
  5
EC
330
E5
100
AcDbEntity
  8
치수문자_일반주서
 62
     0
100
AcDbTrace
 10
-31.148
 20
34.19736275923855
 30
0.0
 11
-31.148
 21
33.09669609257188
 31
0.0
 12
-34.45
 22
33.64702942590522
 32
0.0
 13
-34.45
 23
33.64702942590522
 33
0.0
  0
MTEXT
  5
ED
330
E5
100
AcDbEntity
  8
치수문자_일반주서
 62
     0
100
AcDbMText
 10
6.825
 20
38.02202942590522
 30
0.0
 40
3.5
 41
0.0
 71
     2
 72
     1
  1
\A1;82.55 [3 1/4]
  7
SLDTEXTSTYLE0
 73
     1
 44
1.0
  0
POINT
  5
EE
330
E5
100
AcDbEntity
  8
Defpoints
 62
     0
100
AcDbPoint
 10
48.1
 20
4.762500000000005
 30
0.0
  0
POINT
  5
EF
330
E5
100
AcDbEntity
  8
Defpoints
 62
     0
100
AcDbPoint
 10
-34.45
 20
3.810000000000001
 30
0.0
  0
POINT
  5
F0
330
E5
100
AcDbEntity
  8
Defpoints
 62
     0
100
AcDbPoint
 10
-34.45
 20
33.64702942590522
 30
0.0
  0
ENDBLK
  5
E7
330
E5
100
AcDbEntity
  8
0
100
AcDbBlockEnd
  0
BLOCK
  5
FA
330
F9
100
AcDbEntity
  8
0
100
AcDbBlockBegin
  2
_D_2
 70
     0
 10
0.0
 20
0.0
 30
0.0
  3
_D_2
  1
_D_2
  0
LINE
  5
FC
330
F9
100
AcDbEntity
  8
치수문자_일반주서
 62
     0
370
    -2
100
AcDbLine
 10
-33.56
 20
4.762500000000002
 30
0.0
 11
-45.75077283782721
 21
4.762499999999956
 31
0.0
  0
LINE
  5
FD
330
F9
100
AcDbEntity
  8
치수문자_일반주서
 62
     0
370
    -2
100
AcDbLine
 10
-33.56
 20
-4.762500000000004
 30
0.0
 11
-45.75077283782718
 21
-4.76250000000005
 31
0.0
  0
LINE
  5
FE
330
F9
100
AcDbEntity
  8
치수문자_일반주서
 62
     0
370
    -2
100
AcDbLine
 10
-45.7507728378272
 20
1.460499999999956
 30
0.0
 11
-45.75077283782719
 21
-1.46050000000005
 31
0.0
  0
SOLID
  5
FF
330
F9
100
AcDbEntity
  8
치수문자_일반주서
 62
     0
100
AcDbTrace
 10
-45.20043950449386
 20
1.460499999999958
 30
0.0
 11
-46.30110617116053
 21
1.460499999999954
 31
0.0
 12
-45.75077283782721
 22
4.762499999999956
 32
0.0
 13
-45.75077283782721
 23
4.762499999999956
 33
0.0
  0
SOLID
  5
100
330
F9
100
AcDbEntity
  8
치수문자_일반주서
 62
     0
100
AcDbTrace
 10
-46.30110617116053
 20
-1.460500000000052
 30
0.0
 11
-45.20043950449386
 21
-1.460500000000048
 31
0.0
 12
-45.75077283782718
 22
-4.76250000000005
 32
0.0
 13
-45.75077283782718
 23
-4.76250000000005
 33
0.0
  0
MTEXT
  5
101
330
F9
100
AcDbEntity
  8
치수문자_일반주서
 62
     0
100
AcDbMText
 10
-50.1257728378272
 20
-0.0000000000000143
 30
0.0
 40
3.5
 41
0.0
 71
     2
 72
     1
  1
\A1;%%c9.53 [3/8]
  7
SLDTEXTSTYLE0
 11
-3.729883127349605E-15
 21
1.0
 31
0.0
 73
     1
 44
1.0
  0
POINT
  5
102
330
F9
100
AcDbEntity
  8
Defpoints
 62
     0
100
AcDbPoint
 10
-33.4975
 20
4.762500000000002
 30
0.0
  0
POINT
  5
103
330
F9
100
AcDbEntity
  8
Defpoints
 62
     0
100
AcDbPoint
 10
-33.4975
 20
-4.762500000000004
 30
0.0
  0
POINT
  5
104
330
F9
100
AcDbEntity
  8
Defpoints
 62
     0
100
AcDbPoint
 10
-45.75077283782718
 20
-4.76250000000005
 30
0.0
  0
ENDBLK
  5
FB
330
F9
100
AcDbEntity
  8
0
100
AcDbBlockEnd
  0
BLOCK
  5
10E
330
10D
100
AcDbEntity
  8
0
100
AcDbBlockBegin
  2
_D_3
 70
     0
 10
0.0
 20
0.0
 30
0.0
  3
_D_3
  1
_D_3
  0
LINE
  5
110
330
10D
100
AcDbEntity
  8
치수문자_일반주서
 62
     0
370
    -2
100
AcDbLine
 10
48.16249999999999
 20
4.762500000000005
 30
0.0
 11
67.13029738311572
 21
4.762500000000077
 31
0.0
  0
LINE
  5
111
330
10D
100
AcDbEntity
  8
치수문자_일반주서
 62
     0
370
    -2
100
AcDbLine
 10
48.1625
 20
-4.762499999999994
 30
0.0
 11
67.13029738311575
 21
-4.762499999999921
 31
0.0
  0
LINE
  5
112
330
10D
100
AcDbEntity
  8
치수문자_일반주서
 62
     0
370
    -2
100
AcDbLine
 10
67.13029738311572
 20
4.762500000000077
 30
0.0
 11
67.13029738311563
 21
34.31450000000009
 31
0.0
  0
LINE
  5
113
330
10D
100
AcDbEntity
  8
치수문자_일반주서
 62
     0
370
    -2
100
AcDbLine
 10
67.13029738311573
 20
1.460500000000078
 30
0.0
 11
67.13029738311573
 21
-1.460499999999922
 31
0.0
  0
SOLID
  5
114
330
10D
100
AcDbEntity
  8
치수문자_일반주서
 62
     0
100
AcDbTrace
 10
67.68063071644906
 20
1.460500000000079
 30
0.0
 11
66.5799640497824
 21
1.460500000000076
 31
0.0
 12
67.13029738311572
 22
4.762500000000077
 32
0.0
 13
67.13029738311572
 23
4.762500000000077
 33
0.0
  0
SOLID
  5
115
330
10D
100
AcDbEntity
  8
치수문자_일반주서
 62
     0
100
AcDbTrace
 10
66.5799640497824
 20
-1.460499999999923
 30
0.0
 11
67.68063071644906
 21
-1.46049999999992
 31
0.0
 12
67.13029738311575
 22
-4.762499999999921
 32
0.0
 13
67.13029738311575
 23
-4.762499999999921
 33
0.0
  0
MTEXT
  5
116
330
10D
100
AcDbEntity
  8
치수문자_일반주서
 62
     0
100
AcDbMText
 10
62.75529738311567
 20
21.18950000000008
 30
0.0
 40
3.5
 41
0.0
 71
     2
 72
     1
  1
\A1;%%c9.53 [3/8]
  7
SLDTEXTSTYLE0
 11
-2.983906501879686E-15
 21
1.0
 31
0.0
 73
     1
 44
1.0
  0
POINT
  5
117
330
10D
100
AcDbEntity
  8
Defpoints
 62
     0
100
AcDbPoint
 10
48.09999999999999
 20
4.762500000000005
 30
0.0
  0
POINT
  5
118
330
10D
100
AcDbEntity
  8
Defpoints
 62
     0
100
AcDbPoint
 10
48.1
 20
-4.762499999999994
 30
0.0
  0
POINT
  5
119
330
10D
100
AcDbEntity
  8
Defpoints
 62
     0
100
AcDbPoint
 10
67.13029738311576
 20
-4.762499999999923
 30
0.0
  0
ENDBLK
  5
10F
330
10D
100
AcDbEntity
  8
0
100
AcDbBlockEnd
  0
BLOCK
  5
127
330
126
100
AcDbEntity
  8
0
100
AcDbBlockBegin
  2
SW_DOWELSYMBOL_0
 70
     0
 10
0.0
 20
0.0
 30
0.0
  3
SW_DOWELSYMBOL_0
  1
SW_DOWELSYMBOL_0
  0
CIRCLE
  5
129
330
126
100
AcDbEntity
  8
해칭선
 62
     0
100
AcDbCircle
 10
0.0
 20
0.0
 30
0.0
 40
3.000000000000001
  0
HATCH
  5
12A
330
126
100
AcDbEntity
  8
0
  6
Continuous
 62
     0
370
     0
100
AcDbHatch
 10
0.0
 20
0.0
 30
0.0
210
0.0
220
0.0
230
1.0
  2
SOLID
 70
     1
 71
     0
 91
        1
 92
        0
 93
        3
 72
     2
 10
0.0
 20
0.0
 40
3.000000000000001
 50
0.0
 51
90.0
 73
     1
 72
     1
 10
0.0
 20
3.000000000000001
 11
0.0
 21
0.0
 72
     1
 10
0.0
 20
0.0
 11
3.000000000000001
 21
0.0
 97
        0
 75
     0
 76
     1
 98
        1
 10
0.0
 20
0.0
  0
HATCH
  5
12B
330
126
100
AcDbEntity
  8
0
  6
Continuous
 62
     0
370
     0
100
AcDbHatch
 10
0.0
 20
0.0
 30
0.0
210
0.0
220
0.0
230
1.0
  2
SOLID
 70
     1
 71
     0
 91
        1
 92
        0
 93
        3
 72
     2
 10
0.0
 20
0.0
 40
3.000000000000001
 50
180.0
 51
270.0000000000007
 73
     1
 72
     1
 10
0.0
 20
-3.000000000000001
 11
0.0
 21
0.0
 72
     1
 10
0.0
 20
0.0
 11
-3.000000000000001
 21
0.0
 97
        0
 75
     0
 76
     1
 98
        1
 10
0.0
 20
0.0
  0
ENDBLK
  5
128
330
126
100
AcDbEntity
  8
0
100
AcDbBlockEnd
  0
BLOCK
  5
1E6
330
1E5
100
AcDbEntity
  8
0
100
AcDbBlockBegin
  2
*D7
 70
     1
 10
0.0
 20
0.0
 30
0.0
  3
*D7
  1
*D8
  0
LINE
  5
1E7
330
1E5
100
AcDbEntity
  8
치수문자_일반주서
 62
     0
370
    -2
100
AcDbLine
 10
98.28827283782724
 20
16.61562500000002
 30
0.0
 11
123.0948117899318
 21
16.61562500000001
 31
0.0
  0
LINE
  5
1E8
330
1E5
100
AcDbEntity
  8
치수문자_일반주서
 62
     0
370
    -2
100
AcDbLine
 10
98.28827283782724
 20
7.884375000000017
 30
0.0
 11
123.0948117899318
 21
7.884375000000013
 31
0.0
  0
LINE
  5
1E9
330
1E5
100
AcDbEntity
  8
치수문자_일반주서
 62
     0
370
    -2
100
AcDbLine
 10
123.0948117899318
 20
16.61562500000001
 30
0.0
 11
123.0948117899318
 21
50.54262573845977
 31
0.0
  0
LINE
  5
1EA
330
1E5
100
AcDbEntity
  8
치수문자_일반주서
 62
     0
370
    -2
100
AcDbLine
 10
123.0948117899318
 20
13.31362500000001
 30
0.0
 11
123.0948117899318
 21
11.18637500000001
 31
0.0
  0
SOLID
  5
1EB
330
1E5
100
AcDbEntity
  8
치수문자_일반주서
 62
     0
100
AcDbTrace
 10
123.6451451232651
 20
13.31362500000001
 30
0.0
 11
122.5444784565985
 21
13.31362500000001
 31
0.0
 12
123.0948117899318
 22
16.61562500000001
 32
0.0
 13
123.0948117899318
 23
16.61562500000001
 33
0.0
  0
SOLID
  5
1EC
330
1E5
100
AcDbEntity
  8
치수문자_일반주서
 62
     0
100
AcDbTrace
 10
122.5444784565985
 20
11.18637500000001
 30
0.0
 11
123.6451451232651
 21
11.18637500000001
 31
0.0
 12
123.0948117899318
 22
7.884375000000013
 32
0.0
 13
123.0948117899318
 23
7.884375000000013
 33
0.0
  0
MTEXT
  5
1ED
330
1E5
100
AcDbEntity
  8
치수문자_일반주서
 62
     0
100
AcDbMText
 10
120.4698117899318
 20
36.98012573845977
 30
0.0
 40
3.5
 41
0.0
 71
     5
 72
     1
  1
\A1;8.73 [11/32]
  7
SLDTEXTSTYLE0
 11
0.0
 21
1.0
 31
0.0
 73
     1
 44
1.0
  0
POINT
  5
1EE
330
1E5
100
AcDbEntity
  8
Defpoints
 62
     0
100
AcDbPoint
 10
98.22577283782724
 20
16.61562500000002
 30
0.0
  0
POINT
  5
1EF
330
1E5
100
AcDbEntity
  8
Defpoints
 62
     0
100
AcDbPoint
 10
98.22577283782724
 20
7.884375000000017
 30
0.0
  0
POINT
  5
1F0
330
1E5
100
AcDbEntity
  8
Defpoints
 62
     0
100
AcDbPoint
 10
123.0948117899318
 20
7.884375000000015
 30
0.0
  0
ENDBLK
  5
1F1
330
1E5
100
AcDbEntity
  8
0
100
AcDbBlockEnd
  0
BLOCK
  5
1F8
330
1F7
100
AcDbEntity
  8
0
100
AcDbBlockBegin
  2
*D8
 70
     1
 10
0.0
 20
0.0
 30
0.0
  3
*D8
  1
*D9
  0
LINE
  5
1FA
330
1F7
100
AcDbEntity
  8
치수문자_일반주서
 62
     0
370
    -2
100
AcDbLine
 10
98.22577283782724
 20
16.67812500000002
 30
0.0
 11
98.22577283782724
 21
29.78040869958965
 31
0.0
  0
LINE
  5
1FB
330
1F7
100
AcDbEntity
  8
치수문자_일반주서
 62
     0
370
    -2
100
AcDbLine
 10
60.12577283782724
 20
16.31284230802977
 30
0.0
 11
60.12577283782724
 21
29.78040869958965
 31
0.0
  0
LINE
  5
1FC
330
1F7
100
AcDbEntity
  8
치수문자_일반주서
 62
     0
370
    -2
100
AcDbLine
 10
94.92377283782724
 20
29.78040869958965
 30
0.0
 11
63.42777283782724
 21
29.78040869958965
 31
0.0
  0
SOLID
  5
1FD
330
1F7
100
AcDbEntity
  8
치수문자_일반주서
 62
     0
100
AcDbTrace
 10
94.92377283782724
 20
29.23007536625632
 30
0.0
 11
94.92377283782724
 21
30.33074203292298
 31
0.0
 12
98.22577283782724
 22
29.78040869958965
 32
0.0
 13
98.22577283782724
 23
29.78040869958965
 33
0.0
  0
SOLID
  5
1FE
330
1F7
100
AcDbEntity
  8
치수문자_일반주서
 62
     0
100
AcDbTrace
 10
63.42777283782724
 20
30.33074203292298
 30
0.0
 11
63.42777283782724
 21
29.23007536625632
 31
0.0
 12
60.12577283782724
 22
29.78040869958965
 32
0.0
 13
60.12577283782724
 23
29.78040869958965
 33
0.0
  0
MTEXT
  5
1FF
330
1F7
100
AcDbEntity
  8
치수문자_일반주서
 62
     0
100
AcDbMText
 10
79.17577283782722
 20
34.15540869958965
 30
0.0
 40
3.5
 41
0.0
 71
     2
 72
     1
  1
\A1;38.1 [1 1/2]
  7
SLDTEXTSTYLE0
 73
     1
 44
1.0
  0
POINT
  5
200
330
1F7
100
AcDbEntity
  8
Defpoints
 62
     0
100
AcDbPoint
 10
98.22577283782724
 20
16.61562500000002
 30
0.0
  0
POINT
  5
201
330
1F7
100
AcDbEntity
  8
Defpoints
 62
     0
100
AcDbPoint
 10
60.12577283782724
 20
16.25034230802977
 30
0.0
  0
POINT
  5
202
330
1F7
100
AcDbEntity
  8
Defpoints
 62
     0
100
AcDbPoint
 10
60.12577283782724
 20
29.78040869958965
 30
0.0
  0
ENDBLK
  5
1F9
330
1F7
100
AcDbEntity
  8
0
100
AcDbBlockEnd
  0
BLOCK
  5
204
330
203
100
AcDbEntity
  8
0
100
AcDbBlockBegin
  2
*D9
 70
     1
 10
0.0
 20
0.0
 30
0.0
  3
*D9
  1
*D10
  0
LINE
  5
206
330
203
100
AcDbEntity
  8
치수문자_일반주서
 62
     0
370
    -2
100
AcDbLine
 10
98.22577283782724
 20
16.67812500000002
 30
0.0
 11
98.22577283782724
 21
45.50161389739243
 31
0.0
  0
LINE
  5
207
330
203
100
AcDbEntity
  8
치수문자_일반주서
 62
     0
370
    -2
100
AcDbLine
 10
15.67577283782725
 20
16.12250000000001
 30
0.0
 11
15.67577283782725
 21
45.50161389739243
 31
0.0
  0
LINE
  5
208
330
203
100
AcDbEntity
  8
치수문자_일반주서
 62
     0
370
    -2
100
AcDbLine
 10
94.92377283782724
 20
45.50161389739243
 30
0.0
 11
18.97777283782725
 21
45.50161389739243
 31
0.0
  0
SOLID
  5
209
330
203
100
AcDbEntity
  8
치수문자_일반주서
 62
     0
100
AcDbTrace
 10
94.92377283782724
 20
44.9512805640591
 30
0.0
 11
94.92377283782724
 21
46.05194723072577
 31
0.0
 12
98.22577283782724
 22
45.50161389739243
 32
0.0
 13
98.22577283782724
 23
45.50161389739243
 33
0.0
  0
SOLID
  5
20A
330
203
100
AcDbEntity
  8
치수문자_일반주서
 62
     0
100
AcDbTrace
 10
18.97777283782725
 20
46.05194723072577
 30
0.0
 11
18.97777283782725
 21
44.9512805640591
 31
0.0
 12
15.67577283782725
 22
45.50161389739243
 32
0.0
 13
15.67577283782725
 23
45.50161389739243
 33
0.0
  0
MTEXT
  5
20B
330
203
100
AcDbEntity
  8
치수문자_일반주서
 62
     0
100
AcDbMText
 10
56.95077283782724
 20
49.87661389739243
 30
0.0
 40
3.5
 41
0.0
 71
     2
 72
     1
  1
\A1;82.55 [3 1/4]
  7
SLDTEXTSTYLE0
 73
     1
 44
1.0
  0
POINT
  5
20C
330
203
100
AcDbEntity
  8
Defpoints
 62
     0
100
AcDbPoint
 10
98.22577283782724
 20
16.61562500000002
 30
0.0
  0
POINT
  5
20D
330
203
100
AcDbEntity
  8
Defpoints
 62
     0
100
AcDbPoint
 10
15.67577283782725
 20
16.06000000000001
 30
0.0
  0
POINT
  5
20E
330
203
100
AcDbEntity
  8
Defpoints
 62
     0
100
AcDbPoint
 10
15.67577283782725
 20
45.50161389739243
 30
0.0
  0
ENDBLK
  5
205
330
203
100
AcDbEntity
  8
0
100
AcDbBlockEnd
  0
BLOCK
  5
210
330
20F
100
AcDbEntity
  8
0
100
AcDbBlockBegin
  2
*D10
 70
     1
 10
0.0
 20
0.0
 30
0.0
  3
*D10
  1
*D11
  0
LINE
  5
212
330
20F
100
AcDbEntity
  8
치수문자_일반주서
 62
     0
370
    -2
100
AcDbLine
 10
16.56577283782724
 20
17.01250000000001
 30
0.0
 11
4.375000000000027
 21
17.01249999999997
 31
0.0
  0
LINE
  5
213
330
20F
100
AcDbEntity
  8
치수문자_일반주서
 62
     0
370
    -2
100
AcDbLine
 10
16.56577283782724
 20
7.487500000000008
 30
0.0
 11
4.37500000000006
 21
7.487499999999962
 31
0.0
  0
LINE
  5
214
330
20F
100
AcDbEntity
  8
치수문자_일반주서
 62
     0
370
    -2
100
AcDbLine
 10
4.375000000000038
 20
13.71049999999997
 30
0.0
 11
4.375000000000048
 21
10.78949999999996
 31
0.0
  0
SOLID
  5
215
330
20F
100
AcDbEntity
  8
치수문자_일반주서
 62
     0
100
AcDbTrace
 10
4.925333333333372
 20
13.71049999999997
 30
0.0
 11
3.824666666666705
 21
13.71049999999997
 31
0.0
 12
4.375000000000027
 22
17.01249999999997
 32
0.0
 13
4.375000000000027
 23
17.01249999999997
 33
0.0
  0
SOLID
  5
216
330
20F
100
AcDbEntity
  8
치수문자_일반주서
 62
     0
100
AcDbTrace
 10
3.824666666666715
 20
10.78949999999996
 30
0.0
 11
4.925333333333382
 21
10.78949999999996
 31
0.0
 12
4.37500000000006
 22
7.487499999999962
 32
0.0
 13
4.37500000000006
 23
7.487499999999962
 33
0.0
  0
MTEXT
  5
217
330
20F
100
AcDbEntity
  8
치수문자_일반주서
 62
     0
100
AcDbMText
 10
0.0000000000000426
 20
12.25
 30
0.0
 40
3.5
 41
0.0
 71
     2
 72
     1
  1
\A1;%%c9.53 [3/8]
  7
SLDTEXTSTYLE0
 11
-3.450141892798385E-15
 21
1.0
 31
0.0
 73
     1
 44
1.0
  0
POINT
  5
218
330
20F
100
AcDbEntity
  8
Defpoints
 62
     0
100
AcDbPoint
 10
16.62827283782724
 20
17.01250000000001
 30
0.0
  0
POINT
  5
219
330
20F
100
AcDbEntity
  8
Defpoints
 62
     0
100
AcDbPoint
 10
16.62827283782724
 20
7.487500000000008
 30
0.0
  0
POINT
  5
21A
330
20F
100
AcDbEntity
  8
Defpoints
 62
     0
100
AcDbPoint
 10
4.375000000000064
 20
7.487499999999962
 30
0.0
  0
ENDBLK
  5
211
330
20F
100
AcDbEntity
  8
0
100
AcDbBlockEnd
  0
BLOCK
  5
25E
330
25D
100
AcDbEntity
  8
0
100
AcDbBlockBegin
  2
*D11
 70
     1
 10
0.0
 20
0.0
 30
0.0
  3
*D11
  1
*D12
  0
LINE
  5
260
330
25D
100
AcDbEntity
  8
치수문자_일반주서
 62
     0
370
    -2
100
AcDbLine
 10
175.0744500626484
 20
-43.77314867360565
 30
0.0
 11
175.0744500626484
 21
-30.67086497401602
 31
0.0
  0
LINE
  5
261
330
25D
100
AcDbEntity
  8
치수문자_일반주서
 62
     0
370
    -2
100
AcDbLine
 10
136.9744500626484
 20
-44.1384313655759
 30
0.0
 11
136.9744500626484
 21
-30.67086497401602
 31
0.0
  0
LINE
  5
262
330
25D
100
AcDbEntity
  8
치수문자_일반주서
 62
     0
370
    -2
100
AcDbLine
 10
171.7724500626484
 20
-30.67086497401602
 30
0.0
 11
140.2764500626484
 21
-30.67086497401602
 31
0.0
  0
SOLID
  5
263
330
25D
100
AcDbEntity
  8
치수문자_일반주서
 62
     0
100
AcDbTrace
 10
171.7724500626484
 20
-31.22119830734935
 30
0.0
 11
171.7724500626484
 21
-30.12053164068269
 31
0.0
 12
175.0744500626484
 22
-30.67086497401602
 32
0.0
 13
175.0744500626484
 23
-30.67086497401602
 33
0.0
  0
SOLID
  5
264
330
25D
100
AcDbEntity
  8
치수문자_일반주서
 62
     0
100
AcDbTrace
 10
140.2764500626484
 20
-30.12053164068269
 30
0.0
 11
140.2764500626484
 21
-31.22119830734935
 31
0.0
 12
136.9744500626484
 22
-30.67086497401602
 32
0.0
 13
136.9744500626484
 23
-30.67086497401602
 33
0.0
  0
MTEXT
  5
265
330
25D
100
AcDbEntity
  8
치수문자_일반주서
 62
     0
100
AcDbMText
 10
156.0244500626484
 20
-26.29586497401602
 30
0.0
 40
3.5
 41
0.0
 71
     2
 72
     1
  1
\A1;38.1 [1 1/2]
  7
SLDTEXTSTYLE0
 73
     1
 44
1.0
  0
POINT
  5
266
330
25D
100
AcDbEntity
  8
Defpoints
 62
     0
100
AcDbPoint
 10
175.0744500626484
 20
-43.83564867360565
 30
0.0
  0
POINT
  5
267
330
25D
100
AcDbEntity
  8
Defpoints
 62
     0
100
AcDbPoint
 10
136.9744500626484
 20
-44.2009313655759
 30
0.0
  0
POINT
  5
268
330
25D
100
AcDbEntity
  8
Defpoints
 62
     0
100
AcDbPoint
 10
136.9744500626484
 20
-30.67086497401602
 30
0.0
  0
ENDBLK
  5
25F
330
25D
100
AcDbEntity
  8
0
100
AcDbBlockEnd
  0
BLOCK
  5
26A
330
269
100
AcDbEntity
  8
0
100
AcDbBlockBegin
  2
*D12
 70
     1
 10
0.0
 20
0.0
 30
0.0
  3
*D12
  1
*D13
  0
LINE
  5
26C
330
269
100
AcDbEntity
  8
치수문자_일반주서
 62
     0
370
    -2
100
AcDbLine
 10
167.7479338272479
 20
-43.82246176365162
 30
0.0
 11
167.7479338272479
 21
-14.94965977621324
 31
0.0
  0
LINE
  5
26D
330
269
100
AcDbEntity
  8
치수문자_일반주서
 62
     0
370
    -2
100
AcDbLine
 10
93.47695006264841
 20
-44.32236261591335
 30
0.0
 11
93.47695006264841
 21
-14.94965977621324
 31
0.0
  0
LINE
  5
26E
330
269
100
AcDbEntity
  8
치수문자_일반주서
 62
     0
370
    -2
100
AcDbLine
 10
164.4459338272479
 20
-14.94965977621324
 30
0.0
 11
96.77895006264842
 21
-14.94965977621324
 31
0.0
  0
SOLID
  5
26F
330
269
100
AcDbEntity
  8
치수문자_일반주서
 62
     0
100
AcDbTrace
 10
164.4459338272479
 20
-15.49999310954657
 30
0.0
 11
164.4459338272479
 21
-14.39932644287991
 31
0.0
 12
167.7479338272479
 22
-14.94965977621324
 32
0.0
 13
167.7479338272479
 23
-14.94965977621324
 33
0.0
  0
SOLID
  5
270
330
269
100
AcDbEntity
  8
치수문자_일반주서
 62
     0
100
AcDbTrace
 10
96.77895006264842
 20
-14.39932644287991
 30
0.0
 11
96.77895006264842
 21
-15.49999310954657
 31
0.0
 12
93.47695006264841
 22
-14.94965977621324
 32
0.0
 13
93.47695006264841
 23
-14.94965977621324
 33
0.0
  0
MTEXT
  5
271
330
269
100
AcDbEntity
  8
치수문자_일반주서
 62
     0
100
AcDbMText
 10
133.7994500626484
 20
-10.57465977621324
 30
0.0
 40
3.5
 41
0.0
 71
     2
 72
     1
  1
\A1;74.27 [2 59/64]
  7
SLDTEXTSTYLE0
 73
     1
 44
1.0
  0
POINT
  5
272
330
269
100
AcDbEntity
  8
Defpoints
 62
     0
100
AcDbPoint
 10
167.7479338272479
 20
-43.88496176365162
 30
0.0
  0
POINT
  5
273
330
269
100
AcDbEntity
  8
Defpoints
 62
     0
100
AcDbPoint
 10
93.47695006264841
 20
-44.38486261591335
 30
0.0
  0
POINT
  5
274
330
269
100
AcDbEntity
  8
Defpoints
 62
     0
100
AcDbPoint
 10
93.47695006264841
 20
-14.94965977621324
 30
0.0
  0
ENDBLK
  5
26B
330
269
100
AcDbEntity
  8
0
100
AcDbBlockEnd
  0
BLOCK
  5
276
330
275
100
AcDbEntity
  8
0
100
AcDbBlockBegin
  2
*D13
 70
     1
 10
0.0
 20
0.0
 30
0.0
  3
*D13
  1
*D14
  0
LINE
  5
278
330
275
100
AcDbEntity
  8
치수문자_일반주서
 62
     0
370
    -2
100
AcDbLine
 10
93.4144500626484
 20
-43.43877367360565
 30
0.0
 11
81.22367722482119
 21
-43.4387736736057
 31
0.0
  0
LINE
  5
279
330
275
100
AcDbEntity
  8
치수문자_일반주서
 62
     0
370
    -2
100
AcDbLine
 10
93.4144500626484
 20
-52.96377367360566
 30
0.0
 11
81.22367722482122
 21
-52.9637736736057
 31
0.0
  0
LINE
  5
27A
330
275
100
AcDbEntity
  8
치수문자_일반주서
 62
     0
370
    -2
100
AcDbLine
 10
81.2236772248212
 20
-46.74077367360569
 30
0.0
 11
81.2236772248212
 21
-49.6617736736057
 31
0.0
  0
SOLID
  5
27B
330
275
100
AcDbEntity
  8
치수문자_일반주서
 62
     0
100
AcDbTrace
 10
81.77401055815453
 20
-46.74077367360569
 30
0.0
 11
80.67334389148787
 21
-46.74077367360569
 31
0.0
 12
81.22367722482119
 22
-43.4387736736057
 32
0.0
 13
81.22367722482119
 23
-43.4387736736057
 33
0.0
  0
SOLID
  5
27C
330
275
100
AcDbEntity
  8
치수문자_일반주서
 62
     0
100
AcDbTrace
 10
80.67334389148787
 20
-49.6617736736057
 30
0.0
 11
81.77401055815453
 21
-49.6617736736057
 31
0.0
 12
81.22367722482122
 22
-52.9637736736057
 32
0.0
 13
81.22367722482122
 23
-52.9637736736057
 33
0.0
  0
MTEXT
  5
27D
330
275
100
AcDbEntity
  8
치수문자_일반주서
 62
     0
100
AcDbMText
 10
76.8486772248212
 20
-48.20127367360567
 30
0.0
 40
3.5
 41
0.0
 71
     2
 72
     1
  1
\A1;%%c9.53 [3/8]
  7
SLDTEXTSTYLE0
 11
-2.983906501879684E-15
 21
1.0
 31
0.0
 73
     1
 44
1.0
  0
POINT
  5
27E
330
275
100
AcDbEntity
  8
Defpoints
 62
     0
100
AcDbPoint
 10
93.4769500626484
 20
-43.43877367360565
 30
0.0
  0
POINT
  5
27F
330
275
100
AcDbEntity
  8
Defpoints
 62
     0
100
AcDbPoint
 10
93.4769500626484
 20
-52.96377367360566
 30
0.0
  0
POINT
  5
280
330
275
100
AcDbEntity
  8
Defpoints
 62
     0
100
AcDbPoint
 10
81.22367722482122
 20
-52.9637736736057
 30
0.0
  0
ENDBLK
  5
277
330
275
100
AcDbEntity
  8
0
100
AcDbBlockEnd
  0
BLOCK
  5
282
330
281
100
AcDbEntity
  8
0
100
AcDbBlockBegin
  2
*D14
 70
     1
 10
0.0
 20
0.0
 30
0.0
  3
*D14
  1
*D15
  0
LINE
  5
284
330
281
100
AcDbEntity
  8
치수문자_일반주서
 62
     0
370
    -2
100
AcDbLine
 10
175.1369500626484
 20
-46.35042735567634
 30
0.0
 11
199.9434890147529
 21
-46.35042735567634
 31
0.0
  0
LINE
  5
285
330
281
100
AcDbEntity
  8
치수문자_일반주서
 62
     0
370
    -2
100
AcDbLine
 10
175.1369500626484
 20
-52.56689867360565
 30
0.0
 11
199.9434890147529
 21
-52.56689867360565
 31
0.0
  0
LINE
  5
286
330
281
100
AcDbEntity
  8
치수문자_일반주서
 62
     0
370
    -2
100
AcDbLine
 10
199.9434890147529
 20
-46.35042735567634
 30
0.0
 11
199.9434890147529
 21
-12.0961479351459
 31
0.0
  0
LINE
  5
287
330
281
100
AcDbEntity
  8
치수문자_일반주서
 62
     0
370
    -2
100
AcDbLine
 10
199.9434890147529
 20
-43.04842735567634
 30
0.0
 11
199.9434890147529
 21
-39.74642735567634
 31
0.0
  0
LINE
  5
288
330
281
100
AcDbEntity
  8
치수문자_일반주서
 62
     0
370
    -2
100
AcDbLine
 10
199.9434890147529
 20
-55.86889867360565
 30
0.0
 11
199.9434890147529
 21
-59.17089867360565
 31
0.0
  0
SOLID
  5
289
330
281
100
AcDbEntity
  8
치수문자_일반주서
 62
     0
100
AcDbTrace
 10
199.3931556814196
 20
-43.04842735567634
 30
0.0
 11
200.4938223480863
 21
-43.04842735567634
 31
0.0
 12
199.9434890147529
 22
-46.35042735567634
 32
0.0
 13
199.9434890147529
 23
-46.35042735567634
 33
0.0
  0
SOLID
  5
28A
330
281
100
AcDbEntity
  8
치수문자_일반주서
 62
     0
100
AcDbTrace
 10
200.4938223480863
 20
-55.86889867360565
 30
0.0
 11
199.3931556814196
 21
-55.86889867360565
 31
0.0
 12
199.9434890147529
 22
-52.56689867360565
 32
0.0
 13
199.9434890147529
 23
-52.56689867360565
 33
0.0
  0
MTEXT
  5
28B
330
281
100
AcDbEntity
  8
치수문자_일반주서
 62
     0
100
AcDbMText
 10
197.3184890147529
 20
-23.4711479351459
 30
0.0
 40
3.5
 41
0.0
 71
     5
 72
     1
  1
\A1;6.22 [1/4]
  7
SLDTEXTSTYLE0
 11
0.0
 21
1.0
 31
0.0
 73
     1
 44
1.0
  0
POINT
  5
28C
330
281
100
AcDbEntity
  8
Defpoints
 62
     0
100
AcDbPoint
 10
175.0744500626484
 20
-46.35042735567634
 30
0.0
  0
POINT
  5
28D
330
281
100
AcDbEntity
  8
Defpoints
 62
     0
100
AcDbPoint
 10
175.0744500626484
 20
-52.56689867360565
 30
0.0
  0
POINT
  5
291
330
281
100
AcDbEntity
  8
Defpoints
 62
     0
100
AcDbPoint
 10
199.9434890147529
 20
-52.56689867360565
 30
0.0
  0
ENDBLK
  5
283
330
281
100
AcDbEntity
  8
0
100
AcDbBlockEnd
  0
ENDSEC
  0
SECTION
  2
ENTITIES
  0
LINE
  5
96
330
1F
100
AcDbEntity
  8
외형선
  6
Continuous
370
    15
100
AcDbLine
 10
9.93530725131514
 20
-4.7625
 30
0.0
 11
9.999999999999995
 21
-4.7625
 31
0.0
  0
LINE
  5
97
330
1F
100
AcDbEntity
  8
외형선
  6
Continuous
370
    15
100
AcDbLine
 10
-33.4975
 20
-4.7625
 30
0.0
 11
9.499860645708534
 21
-4.7625
 31
0.0
  0
LINE
  5
98
330
1F
100
AcDbEntity
  8
외형선
  6
Continuous
370
    15
100
AcDbLine
 10
9.499860645708534
 20
4.762499999999998
 30
0.0
 11
-9.767549999999922
 21
4.762499999999998
 31
0.0
  0
LINE
  5
99
330
1F
100
AcDbEntity
  8
외형선
  6
Continuous
370
    15
100
AcDbLine
 10
9.999999999999995
 20
4.762499999999998
 30
0.0
 11
9.935307251315104
 21
4.762499999999998
 31
0.0
  0
LINE
  5
9A
330
1F
100
AcDbEntity
  8
외형선
  6
Continuous
370
    15
100
AcDbLine
 10
-33.4975
 20
4.762499999999998
 30
0.0
 11
-34.45
 21
3.810000000000001
 31
0.0
  0
LINE
  5
9B
330
1F
100
AcDbEntity
  8
외형선
  6
Continuous
370
    15
100
AcDbLine
 10
-34.45
 20
-3.810000000000002
 30
0.0
 11
-33.4975
 21
-4.7625
 31
0.0
  0
LINE
  5
9C
330
1F
100
AcDbEntity
  8
0
  6
Continuous
 62
     1
370
    15
100
AcDbLine
 10
35.85001893456064
 20
-4.762500000000002
 30
0.0
 11
38.75436114725568
 21
-4.762500000000002
 31
0.0
  0
LINE
  5
9D
330
1F
100
AcDbEntity
  8
0
  6
Continuous
 62
     1
370
    15
100
AcDbLine
 10
12.8393972315218
 20
4.7625
 30
0.0
 11
9.999999999999995
 21
4.7625
 31
0.0
  0
LINE
  5
9E
330
1F
100
AcDbEntity
  8
0
  6
Continuous
 62
     1
370
    15
100
AcDbLine
 10
25.79708645547032
 20
4.7625
 30
0.0
 11
22.89229966272381
 21
4.7625
 31
0.0
  0
LINE
  5
9F
330
1F
100
AcDbEntity
  8
0
  6
Continuous
 62
     1
370
    15
100
AcDbLine
 10
22.89229966272381
 20
-4.762500000000002
 30
0.0
 11
25.79708645547025
 21
-4.762500000000002
 31
0.0
  0
LINE
  5
A0
330
1F
100
AcDbEntity
  8
0
  6
Continuous
 62
     1
370
    15
100
AcDbLine
 10
9.999999999999995
 20
-4.762500000000002
 30
0.0
 11
12.8393972315218
 21
-4.762500000000002
 31
0.0
  0
LINE
  5
A1
330
1F
100
AcDbEntity
  8
0
  6
Continuous
 62
     1
370
    15
100
AcDbLine
 10
38.75436114725566
 20
4.7625
 30
0.0
 11
35.85001893456067
 21
4.7625
 31
0.0
  0
SPLINE
  5
A2
330
1F
100
AcDbEntity
  8
외형선
  6
Continuous
370
    15
100
AcDbSpline
210
0.0
220
0.0
230
1.0
 70
     8
 71
     3
 72
     8
 73
     4
 74
     0
 42
0.000000001
 43
0.00000001
 40
0.0
 40
0.0
 40
0.0
 40
0.0
 40
1.0
 40
1.0
 40
1.0
 40
1.0
 10
10.00000000000001
 20
-4.483179095734315
 30
0.0
 10
9.832992815693204
 20
-4.450705976828583
 30
0.0
 10
9.666127181674886
 20
-4.415493680178282
 30
0.0
 10
9.499860645708527
 20
-4.377651020643879
 30
0.0
  0
SPLINE
  5
A3
330
1F
100
AcDbEntity
  8
외형선
  6
Continuous
370
    15
100
AcDbSpline
210
0.0
220
0.0
230
1.0
 70
     8
 71
     3
 72
     8
 73
     4
 74
     0
 42
0.000000001
 43
0.00000001
 40
0.0
 40
0.0
 40
0.0
 40
0.0
 40
1.0
 40
1.0
 40
1.0
 40
1.0
 10
9.999999999999988
 20
-0.0373293026264549
 30
0.0
 10
9.832992815693192
 20
0.0589038076897348
 30
0.0
 10
9.666127181674886
 20
0.1551324749874655
 30
0.0
 10
9.49986064570854
 20
0.2510924971863841
 30
0.0
  0
SPLINE
  5
A4
330
1F
100
AcDbEntity
  8
외형선
  6
Continuous
370
    15
100
AcDbSpline
210
0.0
220
0.0
230
1.0
 70
    24
 71
     3
 72
    20
 73
    16
 74
     0
 42
0.000000001
 43
0.00000001
 40
0.0
 40
0.0
 40
0.0
 40
0.0
 40
0.0976122219245383
 40
0.1751159044390129
 40
0.2526195869534875
 40
0.3301232694679623
 40
0.4076269519824372
 40
0.4851306344969122
 40
0.5626343170113872
 40
0.6401379995258625
 40
0.7176416820403377
 40
0.795145364554811
 40
0.8726490470692844
 40
0.9501527295837597
 40
1.0
 40
1.0
 40
1.0
 40
1.0
 10
10.0
 20
-4.483179095734313
 30
0.0
 10
10.0
 20
-4.314407151525288
 30
0.0
 10
9.999999999999988
 20
-4.01163101272433
 30
0.0
 10
9.999999999999973
 20
-3.514829473250301
 30
0.0
 10
9.999999999999995
 20
-3.040153783024652
 30
0.0
 10
9.999999999999995
 20
-2.556275006772768
 30
0.0
 10
10.00000000000003
 20
-2.078224811230132
 30
0.0
 10
9.999999999999995
 20
-1.619747630588169
 30
0.0
 10
9.99999999999998
 20
-1.192908097837142
 30
0.0
 10
9.999999999999988
 20
-0.8112971838900226
 30
0.0
 10
9.999999999999995
 20
-0.4840032109506692
 30
0.0
 10
9.99999999999998
 20
-0.2216595421545484
 30
0.0
 10
10.0
 20
-0.0330900932291607
 30
0.0
 10
9.999999999999988
 20
0.0743919069130836
 30
0.0
 10
9.999999999999988
 20
0.0849142329615247
 30
0.0
 10
9.999999999999973
 20
0.0890328455032765
 30
0.0
  0
LINE
  5
A5
330
1F
100
AcDbEntity
  8
외형선
  6
Continuous
370
    15
100
AcDbLine
 10
9.499860645708534
 20
-4.7625
 30
0.0
 11
9.499860645708534
 21
-4.755875560457839
 31
0.0
  0
SPLINE
  5
A6
330
1F
100
AcDbEntity
  8
외형선
  6
Continuous
370
    15
100
AcDbSpline
210
0.0
220
0.0
230
1.0
 70
     8
 71
     3
 72
     8
 73
     4
 74
     0
 42
0.000000001
 43
0.00000001
 40
0.0
 40
0.0
 40
0.0
 40
0.0
 40
1.0
 40
1.0
 40
1.0
 40
1.0
 10
9.999999999999988
 20
4.762353700972389
 30
0.0
 10
9.832992815693192
 20
4.76310801598619
 30
0.0
 10
9.666127181674886
 20
4.760942570413029
 30
0.0
 10
9.49986064570854
 20
4.755876239754005
 30
0.0
  0
LINE
  5
A7
330
1F
100
AcDbEntity
  8
외형선
  6
Continuous
370
    15
100
AcDbLine
 10
9.499860645708534
 20
1.875497513089172
 30
0.0
 11
9.499860645708534
 21
4.762499999999998
 31
0.0
  0
SPLINE
  5
A8
330
1F
100
AcDbEntity
  8
외형선
  6
Continuous
370
    15
100
AcDbSpline
210
0.0
220
0.0
230
1.0
 70
     8
 71
     3
 72
     8
 73
     4
 74
     0
 42
0.000000001
 43
0.00000001
 40
0.0
 40
0.0
 40
0.0
 40
0.0
 40
1.0
 40
1.0
 40
1.0
 40
1.0
 10
10.00000000000001
 20
1.607019429120548
 30
0.0
 10
9.832992815693204
 20
1.697611244759726
 30
0.0
 10
9.666127181674886
 20
1.78719215639295
 30
0.0
 10
9.499860645708527
 20
1.875520672095001
 30
0.0
  0
LINE
  5
A9
330
1F
100
AcDbEntity
  8
외형선
  6
Continuous
370
    15
100
AcDbLine
 10
9.499860645708534
 20
-4.377660942603526
 30
0.0
 11
9.499860645708534
 21
0.251105363223924
 31
0.0
  0
LINE
  5
AA
330
1F
100
AcDbEntity
  8
외형선
  6
Continuous
370
    15
100
AcDbLine
 10
9.935307251315146
 20
-4.761515844948623
 30
0.0
 11
9.49986064570854
 21
-4.755876239754006
 31
0.0
  0
LINE
  5
AB
330
1F
100
AcDbEntity
  8
외형선
  6
Continuous
370
    15
100
AcDbLine
 10
-33.4975
 20
-0.0000000000000007
 30
0.0
 11
-33.4975
 21
4.762499999999998
 31
0.0
  0
LINE
  5
AC
330
1F
100
AcDbEntity
  8
외형선
  6
Continuous
370
    15
100
AcDbLine
 10
-33.4975
 20
-4.7625
 30
0.0
 11
-33.4975
 21
-0.0000000000000007
 31
0.0
  0
LINE
  5
AD
330
1F
100
AcDbEntity
  8
외형선
  6
Continuous
370
    15
100
AcDbLine
 10
9.999999999999995
 20
-4.7625
 30
0.0
 11
10.0
 21
-4.483179095734313
 31
0.0
  0
LINE
  5
AE
330
1F
100
AcDbEntity
  8
외형선
  6
Continuous
370
    15
100
AcDbLine
 10
9.999999999999973
 20
-0.0373293026264838
 30
0.0
 11
10.0
 21
1.607019429120554
 31
0.0
  0
LINE
  5
AF
330
1F
100
AcDbEntity
  8
외형선
  6
Continuous
370
    15
100
AcDbLine
 10
9.999999999999973
 20
4.762353700972479
 30
0.0
 11
9.999999999999995
 21
4.762499999999998
 31
0.0
  0
LINE
  5
B0
330
1F
100
AcDbEntity
  8
외형선
  6
Continuous
370
    15
100
AcDbLine
 10
-34.45
 20
-0.0000000000000007
 30
0.0
 11
-34.45
 21
3.810000000000001
 31
0.0
  0
LINE
  5
B1
330
1F
100
AcDbEntity
  8
외형선
  6
Continuous
370
    15
100
AcDbLine
 10
-34.45
 20
-3.810000000000002
 30
0.0
 11
-34.45
 21
-0.0000000000000007
 31
0.0
  0
SPLINE
  5
B2
330
1F
100
AcDbEntity
  8
외형선
  6
Continuous
370
    15
100
AcDbSpline
210
0.0
220
0.0
230
1.0
 70
    24
 71
     3
 72
    15
 73
    11
 74
     0
 42
0.000000001
 43
0.00000001
 40
0.0
 40
0.0
 40
0.0
 40
0.0
 40
0.0538148261891404
 40
0.1956575298852161
 40
0.3335027139063784
 40
0.4753454176024507
 40
0.6131906016236179
 40
0.7550333053196956
 40
0.8761758475543466
 40
1.0
 40
1.0
 40
1.0
 40
1.0
 10
9.999999999999995
 20
1.664169519435293
 30
0.0
 10
9.999999999999995
 20
1.7010322864084
 30
0.0
 10
10.00000000000001
 20
1.835056280192996
 30
0.0
 10
10.00000000000001
 20
2.127712654585526
 30
0.0
 10
9.99999999999996
 20
2.53252148293269
 30
0.0
 10
10.00000000000001
 20
2.975769294244555
 30
0.0
 10
9.99999999999998
 20
3.447971497052745
 30
0.0
 10
9.999999999999938
 20
3.908914344933513
 30
0.0
 10
10.00000000000004
 20
4.353628680379988
 30
0.0
 10
9.999999999999995
 20
4.625121365483111
 30
0.0
 10
9.999999999999973
 20
4.762353700972479
 30
0.0
  0
SPLINE
  5
B3
330
1F
100
AcDbEntity
  8
0
  6
Continuous
 62
     1
370
    15
100
AcDbSpline
210
0.0
220
0.0
230
1.0
 70
     8
 71
     3
 72
    28
 73
    24
 74
     0
 42
0.000000001
 43
0.00000001
 40
0.0
 40
0.0
 40
0.0
 40
0.0
 40
0.0068036829050088
 40
0.056133084733472
 40
0.1054250534905755
 40
0.1546920964669867
 40
0.2039548347695778
 40
0.2559226344840201
 40
0.3079079901063063
 40
0.3599172959388625
 40
0.4119145615665972
 40
0.4638900611510961
 40
0.515852252738842
 40
0.5678096488796908
 40
0.6197707817951176
 40
0.6717441683763611
 40
0.7237382753151487
 40
0.7757488865280797
 40
0.827737010296783
 40
0.8797065287322482
 40
0.9316659243609667
 40
0.9836237212001809
 40
1.0
 40
1.0
 40
1.0
 40
1.0
 10
12.8393972315218
 20
4.7528337437875
 30
0.0
 10
12.90957083123108
 20
4.7559428311173
 30
0.0
 10
13.48853088470951
 20
4.781594035761034
 30
0.0
 10
14.57616055516196
 20
4.674213385406532
 30
0.0
 10
16.1013778630866
 20
4.422889161066649
 30
0.0
 10
17.62581898511344
 20
4.005124452777136
 30
0.0
 10
19.17777296948331
 20
3.445081170904657
 30
0.0
 10
20.75802641338927
 20
2.748506824148909
 30
0.0
 10
22.3666385793343
 20
1.935691508101916
 30
0.0
 10
23.9758029588976
 20
1.049644249591861
 30
0.0
 10
25.58472910130997
 20
0.1236830230427599
 30
0.0
 10
27.19302135760444
 20
-0.8069501948354849
 30
0.0
 10
28.8008235062325
 20
-1.706902203443646
 30
0.0
 10
30.40844679224102
 20
-2.542155057341037
 30
0.0
 10
32.01620900209375
 20
-3.281109966108047
 30
0.0
 10
33.62442554141423
 20
-3.895818412092531
 30
0.0
 10
35.23328125809123
 20
-4.362855421181268
 30
0.0
 10
36.8424665135036
 20
-4.664684991010798
 30
0.0
 10
38.45117051143671
 20
-4.789054867887105
 30
0.0
 10
40.05924616767497
 20
-4.734707930715612
 30
0.0
 10
41.66694660929497
 20
-4.49053249646403
 30
0.0
 10
42.90754442481471
 20
-4.200892764129414
 30
0.0
 10
43.61231123345027
 20
-3.949497793747778
 30
0.0
 10
43.78120878037901
 20
-3.889250924446596
 30
0.0
  0
SPLINE
  5
B4
330
1F
100
AcDbEntity
  8
0
  6
Continuous
 62
     1
370
    15
100
AcDbSpline
210
0.0
220
0.0
230
1.0
 70
     8
 71
     3
 72
    26
 73
    22
 74
     0
 42
0.000000001
 43
0.00000001
 40
0.0
 40
0.0
 40
0.0
 40
0.0
 40
0.053223722642599
 40
0.1064230124602851
 40
0.1596065063580589
 40
0.2127829058921439
 40
0.2659609417132653
 40
0.319149337758429
 40
0.3723567755007761
 40
0.4255872281011721
 40
0.4788007893410922
 40
0.5319931442543736
 40
0.585172958108009
 40
0.6383489475458681
 40
0.6915298449016076
 40
0.7447243623758938
 40
0.7979411563877111
 40
0.8511702729917296
 40
0.9043748776643773
 40
0.9575615146781475
 40
1.0
 40
1.0
 40
1.0
 40
1.0
 10
48.09999999999999
 20
-4.762499999999994
 30
0.0
 10
47.56356355248324
 20
-4.701050176447174
 30
0.0
 10
46.49093691338879
 20
-4.613198014323244
 30
0.0
 10
44.88248012710461
 20
-4.258371809022475
 30
0.0
 10
43.27458166921799
 20
-3.755129042697478
 30
0.0
 10
41.66694386714539
 20
-3.106185436924697
 30
0.0
 10
40.05924690259114
 20
-2.340472987987267
 30
0.0
 10
38.45117031442453
 20
-1.485775096424244
 30
0.0
 10
36.84246656632686
 20
-0.5747058271685601
 30
0.0
 10
35.23328124393961
 20
0.3579181632853383
 30
0.0
 10
33.62442554520357
 20
1.277189237631756
 30
0.0
 10
32.01620900108024
 20
2.147986904121265
 30
0.0
 10
30.40844679250716
 20
2.937311971259126
 30
0.0
 10
28.80082350618128
 20
3.615334784360176
 30
0.0
 10
27.193021357543
 20
4.156382124159129
 30
0.0
 10
25.584729101607
 20
4.540059810396089
 30
0.0
 10
23.97580295777023
 20
4.751382212995805
 30
0.0
 10
22.36663858354677
 20
4.783720582571233
 30
0.0
 10
20.75802639767705
 20
4.630745140934821
 30
0.0
 10
19.25818826673444
 20
4.338383400460878
 30
0.0
 10
18.29467242805162
 20
4.032243075255361
 30
0.0
 10
17.86706353429464
 20
3.896377819553392
 30
0.0
  0
SPLINE
  5
B5
330
1F
100
AcDbEntity
  8
0
  6
Continuous
 62
     1
370
    15
100
AcDbSpline
210
0.0
220
0.0
230
1.0
 70
     8
 71
     3
 72
    21
 73
    17
 74
     0
 42
0.000000001
 43
0.00000001
 40
0.0
 40
0.0
 40
0.0
 40
0.0
 40
0.0732099679327515
 40
0.146464939035369
 40
0.219760838238839
 40
0.2930011176593081
 40
0.3662043612058061
 40
0.4394012086695072
 40
0.5166173610757594
 40
0.5938595988591714
 40
0.6711374229690495
 40
0.7483973571875795
 40
0.8256249504157075
 40
0.9028327700087933
 40
0.9800334643058205
 40
1.0
 40
1.0
 40
1.0
 40
1.0
 10
10.0
 20
1.607019429120552
 30
0.0
 10
10.50812119554512
 20
1.325460901770268
 30
0.0
 10
11.52467593569275
 20
0.76217076918712
 30
0.0
 10
13.05015390818554
 20
-0.1233292577959534
 30
0.0
 10
14.5761444044102
 20
-1.000297631272924
 30
0.0
 10
16.10138218635283
 20
-1.844684852936163
 30
0.0
 10
17.62581782893527
 20
-2.62573713663749
 30
0.0
 10
19.17777329896685
 20
-3.329950974930637
 30
0.0
 10
20.75802632025925
 20
-3.926340549896096
 30
0.0
 10
22.36663861481047
 20
-4.38446308253685
 30
0.0
 10
23.97580291016774
 20
-4.676557809325253
 30
0.0
 10
25.58472926067779
 20
-4.790665091396443
 30
0.0
 10
27.19302076917455
 20
-4.7262646930144
 30
0.0
 10
28.80082569999501
 20
-4.471353650327305
 30
0.0
 10
30.01114398727988
 20
-4.184031074909805
 30
0.0
 10
30.68559034431443
 20
-3.940983981041209
 30
0.0
 10
30.82417983855807
 20
-3.891041130189815
 30
0.0
  0
SPLINE
  5
B6
330
1F
100
AcDbEntity
  8
0
  6
Continuous
 62
     1
370
    15
100
AcDbSpline
210
0.0
220
0.0
230
1.0
 70
     8
 71
     3
 72
    24
 73
    20
 74
     0
 42
0.000000001
 43
0.00000001
 40
0.0
 40
0.0
 40
0.0
 40
0.0
 40
0.023860458505508
 40
0.0860959026910759
 40
0.1483065452071606
 40
0.2105025204392026
 40
0.2726940228600094
 40
0.3348912652922378
 40
0.3971044370121865
 40
0.4593436620571872
 40
0.5215972988795865
 40
0.5838222679920791
 40
0.6460262231899766
 40
0.7049922980120448
 40
0.7639635254043374
 40
0.8229645882361513
 40
0.8820104573731519
 40
0.9410233555620731
 40
1.0
 40
1.0
 40
1.0
 40
1.0
 10
35.85001893456064
 20
-4.741112243196689
 30
0.0
 10
35.64439140347901
 20
-4.746603502769137
 30
0.0
 10
34.90242377102454
 20
-4.766417663075059
 30
0.0
 10
33.62442538632921
 20
-4.612253489986935
 30
0.0
 10
32.01620904363911
 20
-4.286411030671396
 30
0.0
 10
30.40844678108011
 20
-3.78666688129587
 30
0.0
 10
28.80082350933864
 20
-3.146557863989264
 30
0.0
 10
27.19302135634096
 20
-2.386382050771748
 30
0.0
 10
25.58472910325753
 20
-1.53591136894327
 30
0.0
 10
23.97580295236778
 20
-0.6271469840932404
 30
0.0
 10
22.36663860350609
 20
0.3051966701079601
 30
0.0
 10
20.75802632329191
 20
1.226213363922106
 30
0.0
 10
19.17777329820131
 20
2.085450191310326
 30
0.0
 10
17.62581782913574
 20
2.854855208526426
 30
0.0
 10
16.10138218629911
 20
3.513016917947222
 30
0.0
 10
14.57614440442466
 20
4.052369652156383
 30
0.0
 10
13.0501539081817
 20
4.450255598419961
 30
0.0
 10
11.52467593569375
 20
4.708317944067464
 30
0.0
 10
10.50812119554548
 20
4.744345471972408
 30
0.0
 10
10.00000000000004
 20
4.762353700972389
 30
0.0
  0
SPLINE
  5
B7
330
1F
100
AcDbEntity
  8
외형선
  6
Continuous
370
    15
100
AcDbSpline
210
0.0
220
0.0
230
1.0
 70
    24
 71
     3
 72
    15
 73
    11
 74
     0
 42
0.000000001
 43
0.00000001
 40
0.0
 40
0.0
 40
0.0
 40
0.0
 40
0.1429070361986618
 40
0.290263169321387
 40
0.4284399483712699
 40
0.5706238633743593
 40
0.7088006424242447
 40
0.8509845574273364
 40
0.9891613364772233
 40
1.0
 40
1.0
 40
1.0
 40
1.0
 10
9.999999999999995
 20
4.762353700972688
 30
0.0
 10
10.00000000000001
 20
4.603976968888189
 30
0.0
 10
10.00000000000005
 20
4.282292792766133
 30
0.0
 10
9.999999999999973
 20
3.788365830370656
 30
0.0
 10
10.00000000000003
 20
3.300299903173085
 30
0.0
 10
9.999999999999938
 20
2.838993321583118
 30
0.0
 10
10.00000000000001
 20
2.401490023332407
 30
0.0
 10
9.99999999999998
 20
2.016994668722124
 30
0.0
 10
10.00000000000002
 20
1.767811389427244
 30
0.0
 10
9.99999999999998
 20
1.671187476175288
 30
0.0
 10
9.999999999999995
 20
1.664159519435293
 30
0.0
  0
LINE
  5
B8
330
1F
100
AcDbEntity
  8
0
  6
Continuous
 62
     1
370
    15
100
AcDbLine
 10
48.1
 20
-4.762499999999994
 30
0.0
 11
48.1
 21
-4.313307425830493
 31
0.0
  0
SPLINE
  5
B9
330
1F
100
AcDbEntity
  8
0
  6
Continuous
 62
     1
370
    15
100
AcDbSpline
210
0.0
220
0.0
230
1.0
 70
     8
 71
     3
 72
    21
 73
    17
 74
     0
 42
0.000000001
 43
0.00000001
 40
0.0
 40
0.0
 40
0.0
 40
0.0
 40
0.0625953816780174
 40
0.1346848499132904
 40
0.2067676652109906
 40
0.2788556647028911
 40
0.3509606642524423
 40
0.4230944100790722
 40
0.4952510530220525
 40
0.5673764981297067
 40
0.6394761312279268
 40
0.7115617205044157
 40
0.7836450917088477
 40
0.8557380796916967
 40
0.9278524798643226
 40
1.0
 40
1.0
 40
1.0
 40
1.0
 10
25.79708645547031
 20
4.752155661512427
 30
0.0
 10
26.26244479783787
 20
4.74319391202039
 30
0.0
 10
27.26374420391983
 20
4.723911149411731
 30
0.0
 10
28.80082133501001
 20
4.475566530195476
 30
0.0
 10
30.40844737428948
 20
4.063795771939829
 30
0.0
 10
32.01620884514867
 20
3.493340737807123
 30
0.0
 10
33.62442558700763
 20
2.791716346538924
 30
0.0
 10
35.23328123273222
 20
1.98388751728412
 30
0.0
 10
36.84246656932889
 20
1.101166119687071
 30
0.0
 10
38.45117031362057
 20
0.1764722642620172
 30
0.0
 10
40.05924690280647
 20
-0.7548326601853463
 30
0.0
 10
41.66694386708769
 20
-1.657247314726134
 30
0.0
 10
43.27458166923346
 20
-2.497703193461507
 30
0.0
 10
44.88248012710049
 20
-3.240423933534809
 30
0.0
 10
46.49093691338985
 20
-3.872168867295861
 30
0.0
 10
47.56356355248361
 20
-4.166238735253939
 30
0.0
 10
48.10000000000003
 20
-4.313307425830493
 30
0.0
  0
SPLINE
  5
BA
330
1F
100
AcDbEntity
  8
0
  6
Continuous
 62
     1
370
    15
100
AcDbSpline
210
0.0
220
0.0
230
1.0
 70
     8
 71
     3
 72
    10
 73
     6
 74
     0
 42
0.000000001
 43
0.00000001
 40
0.0
 40
0.0
 40
0.0
 40
0.0
 40
0.3725947474207428
 40
0.745018451897189
 40
1.0
 40
1.0
 40
1.0
 40
1.0
 10
48.09999999999999
 20
4.762500000000005
 30
0.0
 10
47.56356398833159
 20
4.699983288258372
 30
0.0
 10
46.4909382207338
 20
4.60999783952139
 30
0.0
 10
45.05138048021421
 20
4.30674518244571
 30
0.0
 10
44.14824775481743
 20
4.00989340475836
 30
0.0
 10
43.78120878037901
 20
3.889250924446594
 30
0.0
  0
SPLINE
  5
BB
330
1F
100
AcDbEntity
  8
0
  6
Continuous
 62
     1
370
    15
100
AcDbSpline
210
0.0
220
0.0
230
1.0
 70
     8
 71
     3
 72
    16
 73
    12
 74
     0
 42
0.000000001
 43
0.00000001
 40
0.0
 40
0.0
 40
0.0
 40
0.0
 40
0.0407831104084267
 40
0.1655467064065892
 40
0.2902681686505963
 40
0.4084975489400103
 40
0.5267372603424647
 40
0.6450367930156397
 40
0.7634261641545981
 40
0.8817494272005426
 40
1.0
 40
1.0
 40
1.0
 40
1.0
 10
22.89229966272381
 20
-4.742599229955393
 30
0.0
 10
22.71700878377753
 20
-4.748137862483324
 30
0.0
 10
22.0054684578421
 20
-4.770620266689702
 30
0.0
 10
20.75803002855754
 20
-4.625305132406233
 30
0.0
 10
19.17777236288119
 20
-4.315547016818461
 30
0.0
 10
17.62581807408851
 20
-3.845412434702617
 30
0.0
 10
16.10138212062797
 20
-3.255761314154361
 30
0.0
 10
14.57614442203413
 20
-2.554149372295456
 30
0.0
 10
13.0501539034872
 20
-1.766090271266376
 30
0.0
 10
11.52467593686626
 20
-0.917520776713647
 30
0.0
 10
10.50812119593623
 20
-0.3306663545545577
 30
0.0
 10
10.00000000000004
 20
-0.0373293026264814
 30
0.0
  0
LINE
  5
BC
330
1F
100
AcDbEntity
  8
0
  6
Continuous
 62
     1
370
    15
100
AcDbLine
 10
48.1
 20
-4.313307425830493
 30
0.0
 11
48.1
 21
0.4080574258305471
 31
0.0
  0
SPLINE
  5
BD
330
1F
100
AcDbEntity
  8
0
  6
Continuous
 62
     1
370
    15
100
AcDbSpline
210
0.0
220
0.0
230
1.0
 70
     8
 71
     3
 72
    18
 73
    14
 74
     0
 42
0.000000001
 43
0.00000001
 40
0.0
 40
0.0
 40
0.0
 40
0.0
 40
0.0931429167862264
 40
0.1862430754851802
 40
0.2793155909081492
 40
0.3723756910077641
 40
0.4654386546528004
 40
0.5585197489628471
 40
0.6516341667446122
 40
0.7447888611342818
 40
0.8379139951981212
 40
0.931002017631669
 40
1.0
 40
1.0
 40
1.0
 40
1.0
 10
48.09999999999999
 20
0.4080574258305466
 30
0.0
 10
47.56356355249041
 20
0.7149798423234994
 30
0.0
 10
46.49093691341026
 20
1.328683779834761
 30
0.0
 10
44.88248012701874
 20
2.194919772596208
 30
0.0
 10
43.27458166953987
 20
2.978963300004216
 30
0.0
 10
41.66694386594408
 20
3.649815924192556
 30
0.0
 10
40.05924690707506
 20
4.182446812191605
 30
0.0
 10
38.45117029768414
 20
4.556716962999833
 30
0.0
 10
36.84246662883866
 20
4.757965212804787
 30
0.0
 10
35.23328101056431
 20
4.780237296470387
 30
0.0
 10
33.62442641570443
 20
4.616305236783425
 30
0.0
 10
32.15480110902043
 20
4.323855219685317
 30
0.0
 10
31.22148206656003
 20
4.020272494428736
 30
0.0
 10
30.82417983855813
 20
3.891041130189812
 30
0.0
  0
LINE
  5
BE
330
1F
100
AcDbEntity
  8
0
  6
Continuous
 62
     1
370
    15
100
AcDbLine
 10
48.1
 20
2.005234947725734
 30
0.0
 11
48.1
 21
4.762500000000005
 31
0.0
  0
SPLINE
  5
BF
330
1F
100
AcDbEntity
  8
0
  6
Continuous
 62
     1
370
    15
100
AcDbSpline
210
0.0
220
0.0
230
1.0
 70
     8
 71
     3
 72
    13
 73
     9
 74
     0
 42
0.000000001
 43
0.00000001
 40
0.0
 40
0.0
 40
0.0
 40
0.0
 40
0.1937852421710811
 40
0.3876896067843271
 40
0.5817023072179437
 40
0.7755677832581793
 40
0.9693352261205682
 40
1.0
 40
1.0
 40
1.0
 40
1.0
 10
10.00000000000001
 20
-4.483179095734315
 30
0.0
 10
10.50812117926532
 20
-4.567463230258854
 30
0.0
 10
11.52467588684335
 20
-4.736083309919658
 30
0.0
 10
13.05015410376888
 20
-4.785751220987041
 30
0.0
 10
14.57614367076519
 20
-4.686580138141728
 30
0.0
 10
16.10138492234034
 20
-4.412539407712181
 30
0.0
 10
17.19818690240568
 20
-4.140294292071178
 30
0.0
 10
17.78665901591848
 20
-3.925698602432921
 30
0.0
 10
17.86706353429463
 20
-3.896377819553394
 30
0.0
  0
SPLINE
  5
C0
330
1F
100
AcDbEntity
  8
0
  6
Continuous
 62
     1
370
    15
100
AcDbSpline
210
0.0
220
0.0
230
1.0
 70
     8
 71
     3
 72
    13
 73
     9
 74
     0
 42
0.000000001
 43
0.00000001
 40
0.0
 40
0.0
 40
0.0
 40
0.0
 40
0.1396367877768303
 40
0.3116636479016716
 40
0.4836852147636664
 40
0.6557297313471271
 40
0.827825346517874
 40
0.9999999999999999
 40
0.9999999999999999
 40
0.9999999999999999
 40
0.9999999999999999
 10
38.75436114725566
 20
4.74868192890307
 30
0.0
 10
39.18935795214063
 20
4.742757226975449
 30
0.0
 10
40.16025318107339
 20
4.729533532525791
 30
0.0
 10
41.66694221617011
 20
4.493689941989953
 30
0.0
 10
43.2745821114986
 20
4.091939240161299
 30
0.0
 10
44.88248000911916
 20
3.528368373486204
 30
0.0
 10
46.49093694290462
 20
2.837893801877795
 30
0.0
 10
47.56356356232338
 20
2.292076420006631
 30
0.0
 10
48.10000000000002
 20
2.019105074104715
 30
0.0
  0
SPLINE
  5
C1
330
1F
100
AcDbEntity
  8
외형선
  6
Continuous
370
    15
100
AcDbSpline
210
0.0
220
0.0
230
1.0
 70
    24
 71
     3
 72
    21
 73
    17
 74
     0
 42
0.000000001
 43
0.00000001
 40
0.0
 40
0.0
 40
0.0
 40
0.0
 40
0.0231379998799622
 40
0.0986246636537244
 40
0.1741113274274863
 40
0.2495979912012494
 40
0.3250846549750125
 40
0.4005713187487766
 40
0.4760579825225406
 40
0.5515446462962623
 40
0.6270313100699842
 40
0.7025179738437899
 40
0.7780046376175954
 40
0.8534913013913586
 40
0.9289779651651218
 40
1.0
 40
1.0
 40
1.0
 40
1.0
 10
9.999999999999995
 20
0.0916066575085425
 30
0.0
 10
9.999999999999995
 20
0.0950104931344247
 30
0.0
 10
10.0
 20
0.1095191864301632
 30
0.0
 10
10.00000000000001
 20
0.0498559247815127
 30
0.0
 10
9.999999999999952
 20
-0.0826541704706002
 30
0.0
 10
9.999999999999966
 20
-0.2988190272313684
 30
0.0
 10
10.0
 20
-0.5816511350317186
 30
0.0
 10
9.999999999999988
 20
-0.9279337957639697
 30
0.0
 10
10.00000000000001
 20
-1.324934262302578
 30
0.0
 10
10.0
 20
-1.763434266814928
 30
0.0
 10
10.00000000000001
 20
-2.229549648233903
 30
0.0
 10
9.999999999999995
 20
-2.710867775607122
 30
0.0
 10
9.999999999999995
 20
-3.193688438362438
 30
0.0
 10
9.999999999999988
 20
-3.662956033178994
 30
0.0
 10
9.999999999999973
 20
-4.101501279224621
 30
0.0
 10
9.999999999999995
 20
-4.358564358539534
 30
0.0
 10
10.00000000000001
 20
-4.483179095734313
 30
0.0
  0
LINE
  5
C2
330
1F
100
AcDbEntity
  8
0
  6
Continuous
 62
     1
370
    15
100
AcDbLine
 10
48.1
 20
0.4080574258305469
 30
0.0
 11
48.1
 21
2.019105074104714
 31
0.0
  0
LINE
  5
C3
330
1F
100
AcDbEntity
  8
중심선
 48
0.8
100
AcDbLine
 10
-37.45
 20
-0.0000000000000046
 30
0.0
 11
51.09999999999999
 21
0.0000000000000063
 31
0.0
  0
LINE
  5
C4
330
1F
100
AcDbEntity
  8
참조1
100
AcDbLine
 10
5.43060364977728
 20
0.0010749287238892
 30
0.0
 11
5.430603649777285
 21
-39.99892507127611
 31
0.0
  0
LINE
  5
C5
330
1F
100
AcDbEntity
  8
참조1
100
AcDbLine
 10
5.430603649777285
 20
-39.99892507127611
 30
0.0
 11
-21.63450316453139
 21
-39.9989250712761
 31
0.0
  0
CIRCLE
  5
C6
330
1F
100
AcDbEntity
  8
해칭선
100
AcDbCircle
 10
0.0
 20
0.0
 30
0.0
 40
3.000000000000002
  0
INSERT
  5
C7
330
1F
100
AcDbEntity
  8
0
  6
Continuous
 62
     7
100
AcDbBlockReference
 66
     1
  2
블럭10
 10
-7.115272932125212
 20
-52.04717430164393
 30
0.0
  0
ATTRIB
  5
C8
330
C7
100
AcDbEntity
  8
FORMAT
 62
     2
100
AcDbText
 10
-16.29656822086649
 20
-49.97180738881174
 30
0.0
 40
4.233333333333333
  1
E1034024 [ 4 FLUTE ]
 41
0.75
  7
SLDTEXTSTYLE0
 11
-16.29656822086649
 21
-52.08847405547841
 31
0.0
100
AcDbAttribute
  2
AUTOATTR0
 70
     0
 74
     1
  0
SEQEND
  5
C9
330
C7
100
AcDbEntity
  8
0
  6
Continuous
 62
     7
  0
HATCH
  5
CA
330
1F
100
AcDbEntity
  8
중심선
100
AcDbHatch
 10
0.0
 20
0.0
 30
0.0
210
0.0
220
0.0
230
1.0
  2
SOLID
 70
     1
 71
     0
 91
        1
 92
        0
 93
        4
 72
     1
 10
-1.400363627744363
 20
-35.8
 11
-4.846638871581645
 21
-35.8
 72
     1
 10
-4.846638871581645
 20
-35.8
 11
-6.974868730785667
 21
-38.3363255805726
 72
     1
 10
-6.974868730785667
 20
-38.3363255805726
 11
-3.528560401835208
 21
-38.33628615127011
 72
     1
 10
-3.528560401835208
 20
-38.33628615127011
 11
-1.400363627744363
 21
-35.8
 97
        0
 75
     0
 76
     1
 98
        1
 10
1.394396350222713
 20
-0.0010749287238938
  0
HATCH
  5
CB
330
1F
100
AcDbEntity
  8
중심선
100
AcDbHatch
 10
0.0
 20
0.0
 30
0.0
210
0.0
220
0.0
230
1.0
  2
SOLID
 70
     1
 71
     0
 91
        1
 92
        0
 93
        4
 72
     1
 10
3.612400363291616
 20
-35.8
 11
0.1661251194543336
 21
-35.8
 72
     1
 10
0.1661251194543338
 20
-35.8
 11
-4.365012888903082
 21
-41.20000000000002
 72
     1
 10
-4.365012888903082
 20
-41.20000000000002
 11
-0.9187376450658
 21
-41.20000000000002
 72
     1
 10
-0.9187376450658
 20
-41.20000000000002
 11
3.612400363291616
 21
-35.8
 97
        0
 75
     0
 76
     1
 98
        1
 10
1.394396350222713
 20
-0.0010749287238938
  0
HATCH
  5
CC
330
1F
100
AcDbEntity
  8
중심선
100
AcDbHatch
 10
0.0
 20
0.0
 30
0.0
210
0.0
220
0.0
230
1.0
  2
SOLID
 70
     1
 71
     0
 91
        1
 92
        0
 93
        4
 72
     1
 10
8.62516435432754
 20
-35.79999999999998
 11
5.178889110490396
 21
-35.8
 72
     1
 10
5.178889110490396
 20
-35.8
 11
-1.86954779139888
 21
-44.20000000000002
 72
     1
 10
-1.86954779139888
 20
-44.20000000000002
 11
1.576727452438401
 21
-44.20000000000002
 72
     1
 10
1.576727452438402
 20
-44.20000000000002
 11
8.62516435432754
 21
-35.79999999999998
 97
        0
 75
     0
 76
     1
 98
        1
 10
1.394396350222713
 20
-0.0010749287238938
  0
HATCH
  5
CD
330
1F
100
AcDbEntity
  8
중심선
100
AcDbHatch
 10
0.0
 20
0.0
 30
0.0
210
0.0
220
0.0
230
1.0
  2
SOLID
 70
     1
 71
     0
 91
        1
 92
        0
 93
        6
 72
     3
 10
13.42505478533968
 20
-40.00000000005127
 11
3.960054785062283
 21
1.540882976769353E-10
 40
0.3939339440162628
 50
17.09539180608436
 51
320.0019657685082
 73
     0
 72
     1
 10
15.10805444104025
 20
-38.58789400463833
 11
17.41335631474132
 21
-36.65356729459038
 72
     3
 10
13.42505478528684
 20
-40.00000000000015
 11
6.600054785286829
 21
-1.278976924368180E-13
 40
0.636358354079598
 50
39.99873849337408
 51
368.4976242363724
 73
     1
 72
     1
 10
19.85038727718745
 20
-39.03999999993002
 11
12.10512209212276
 21
-39.03999999993002
 72
     1
 10
12.10512209212276
 20
-39.03999999993002
 11
12.10509704767682
 21
-40.95999999992991
 72
     1
 10
12.10509704767682
 20
-40.95999999992991
 11
16.54647681714886
 21
-40.95999999992988
 97
        0
 75
     0
 76
     1
 98
        1
 10
1.394396350222713
 20
-0.0010749287238938
  0
DIMENSION
  5
CE
330
1F
100
AcDbEntity
  8
치수문자_일반주서
100
AcDbDimension
  2
_D
 10
10.0
 20
15.52787716639598
 30
0.0
 11
29.04171686160924
 21
15.52787716639598
 31
0.0
 70
   160
  1
<>
 71
     2
 42
38.1
  3
SLDDIMSTYLE1
100
AcDbAlignedDimension
 13
48.1
 23
4.762500000000005
 33
0.0
 14
9.999999999999998
 24
4.762353700972688
 34
0.0
 50
0.0000000000000053
100
AcDbRotatedDimension
1001
ACAD
1000
DSTYLE
1002
{
1070
   171
1070
     6
1070
   273
1070
     7
1002
}
  0
DIMENSION
  5
E3
330
1F
100
AcDbEntity
  8
치수문자_일반주서
100
AcDbDimension
  2
_D_1
 10
-34.45
 20
33.64702942590522
 30
0.0
 11
6.825
 21
33.64702942590522
 31
0.0
 70
   160
  1
<>
 71
     2
 42
82.55
  3
SLDDIMSTYLE1
100
AcDbAlignedDimension
 13
48.1
 23
4.762500000000005
 33
0.0
 14
-34.45
 24
3.810000000000001
 34
0.0
 50
0.0000000000000049
100
AcDbRotatedDimension
1001
ACAD
1000
DSTYLE
1002
{
1070
   171
1070
     6
1070
   273
1070
     7
1002
}
  0
DIMENSION
  5
F7
330
1F
100
AcDbEntity
  8
치수문자_일반주서
100
AcDbDimension
  2
_D_2
 10
-45.75077283782718
 20
-4.76250000000005
 30
0.0
 11
-45.7507728378272
 21
0.000000000000002
 31
0.0
 70
   160
  1
%%c<>
 71
     2
 42
9.525000000000006
 52
-270.0
  3
SLDDIMSTYLE1
100
AcDbAlignedDimension
 13
-33.4975
 23
4.762500000000002
 33
0.0
 14
-33.4975
 24
-4.762500000000004
 34
0.0
 50
90.0000000000002
100
AcDbRotatedDimension
1001
ACAD
1000
DSTYLE
1002
{
1070
   171
1070
     6
1070
   273
1070
     7
1002
}
  0
DIMENSION
  5
10C
330
1F
100
AcDbEntity
  8
치수문자_일반주서
100
AcDbDimension
  2
_D_3
 10
67.13029738311575
 20
-4.762499999999921
 30
0.0
 11
67.13029738311567
 21
21.1895000000001
 31
0.0
 70
   160
  1
%%c<>
 71
     2
 42
9.524999999999999
 52
-270.0
  3
SLDDIMSTYLE1
100
AcDbAlignedDimension
 13
48.09999999999999
 23
4.762500000000005
 33
0.0
 14
48.1
 24
-4.762499999999994
 34
0.0
 50
90.0000000000002
100
AcDbRotatedDimension
1001
ACAD
1000
DSTYLE
1002
{
1070
   171
1070
     6
1070
   273
1070
     7
1002
}
  0
LINE
  5
11F
330
1F
100
AcDbEntity
  8
참조1
100
AcDbLine
 10
76.33783746512287
 20
7.441074928723896
 30
0.0
 11
76.33783746512287
 21
-7.438925071276109
 31
0.0
  0
LINE
  5
120
330
1F
100
AcDbEntity
  8
참조1
100
AcDbLine
 10
89.03783746512288
 20
5.441074928723896
 30
0.0
 11
76.33783746512287
 21
5.441074928723896
 31
0.0
  0
SOLID
  5
121
330
1F
100
AcDbEntity
  8
참조1
100
AcDbTrace
 10
76.33783746512287
 20
5.441074928723896
 30
0.0
 11
82.68783746512287
 21
4.425074928723896
 31
0.0
 12
82.68783746512287
 22
6.457074928723896
 32
0.0
 13
82.68783746512287
 23
6.457074928723896
 33
0.0
  0
LINE
  5
122
330
1F
100
AcDbEntity
  8
참조1
100
AcDbLine
 10
89.03783746512288
 20
-5.438925071276109
 30
0.0
 11
76.33783746512287
 21
-5.438925071276109
 31
0.0
  0
SOLID
  5
123
330
1F
100
AcDbEntity
  8
참조1
100
AcDbTrace
 10
76.33783746512287
 20
-5.438925071276109
 30
0.0
 11
82.68783746512287
 21
-6.454925071276109
 31
0.0
 12
82.68783746512287
 22
-4.422925071276109
 32
0.0
 13
82.68783746512287
 23
-4.422925071276109
 33
0.0
  0
MTEXT
  5
124
330
1F
100
AcDbEntity
  8
참조1
100
AcDbMText
 10
85.72218759774887
 20
11.01136670591222
 30
0.0
 40
3.5
 41
0.0
 71
     1
 72
     1
  1
A
  7
SLDTEXTSTYLE0
 73
     1
 44
1.0
  0
MTEXT
  5
125
330
1F
100
AcDbEntity
  8
참조1
100
AcDbMText
 10
85.72218759774887
 20
0.1313667059122201
 30
0.0
 40
3.5
 41
0.0
 71
     1
 72
     1
  1
A
  7
SLDTEXTSTYLE0
 73
     1
 44
1.0
  0
INSERT
  5
12C
330
1F
100
AcDbEntity
  8
해칭선
100
AcDbBlockReference
  2
SW_DOWELSYMBOL_0
 10
0.0
 20
0.0
 30
0.0
  0
LINE
  5
255
330
1F
100
AcDbEntity
  8
외형선
  6
Continuous
370
    15
100
AcDbLine
 10
-18.17495000000016
 20
3.492500000000001
 30
0.0
 11
-11.03755000000003
 21
3.492500000000001
 31
0.0
  0
LINE
  5
256
330
1F
100
AcDbEntity
  8
외형선
  6
Continuous
370
    15
100
AcDbLine
 10
-18.17495000000016
 20
3.492500000000001
 30
0.0
 11
-19.44495000000014
 21
4.762499999999982
 31
0.0
  0
LINE
  5
257
330
1F
100
AcDbEntity
  8
외형선
  6
Continuous
370
    15
100
AcDbLine
 10
-11.03755000000003
 20
3.492500000000001
 30
0.0
 11
-9.767549999999936
 21
4.762499999999982
 31
0.0
  0
LINE
  5
290
330
1F
100
AcDbEntity
  8
외형선
  6
Continuous
370
    15
100
AcDbLine
 10
-19.44495000000016
 20
4.762499999999998
 30
0.0
 11
-33.49750000000001
 21
4.762499999999998
 31
0.0
  0
ENDSEC
  0
SECTION
  2
OBJECTS
  0
DICTIONARY
  5
C
330
0
100
AcDbDictionary
281
     1
  3
ACAD_GROUP
350
D
  3
ACAD_IMAGE_VARS
350
150
  3
ACAD_LAYOUT
350
1A
  3
ACAD_MLINESTYLE
350
17
  3
ACAD_PLOTSETTINGS
350
19
  3
ACAD_PLOTSTYLENAME
350
E
  3
ACAD_SCALELIST
350
47
  3
APPDATA
350
14E
  3
DWGPROPS
350
2B7
  0
DICTIONARY
  5
1F3
330
2
100
AcDbDictionary
280
     1
281
     1
  3
ACAD_LAYERSTATES
360
1F4
  0
DICTIONARY
  5
D
102
{ACAD_REACTORS
330
C
102
}
330
C
100
AcDbDictionary
281
     1
  0
RASTERVARIABLES
  5
150
102
{ACAD_REACTORS
330
C
102
}
330
C
100
AcDbRasterVariables
 90
        0
 70
     1
 71
     1
 72
     1
  0
DICTIONARY
  5
1A
102
{ACAD_REACTORS
330
C
102
}
330
C
100
AcDbDictionary
281
     1
  3
Layout1
350
1E
  3
Layout2
350
26
  3
Model
350
22
  0
DICTIONARY
  5
17
102
{ACAD_REACTORS
330
C
102
}
330
C
100
AcDbDictionary
281
     1
  3
Standard
350
18
  0
DICTIONARY
  5
19
102
{ACAD_REACTORS
330
C
102
}
330
C
100
AcDbDictionary
281
     1
  0
ACDBDICTIONARYWDFLT
  5
E
102
{ACAD_REACTORS
330
C
102
}
330
C
100
AcDbDictionary
281
     1
  3
Normal
350
F
100
AcDbDictionaryWithDefault
340
F
  0
DICTIONARY
  5
47
102
{ACAD_REACTORS
330
C
102
}
330
C
100
AcDbDictionary
281
     1
  3
A0
350
48
  3
A1
350
49
  3
A2
350
4A
  3
A3
350
4B
  3
A4
350
4C
  3
A5
350
4D
  3
A6
350
4E
  3
A7
350
4F
  3
A8
350
50
  3
A9
350
51
  3
B0
350
52
  3
B1
350
53
  3
B2
350
54
  3
B3
350
55
  3
B4
350
56
  3
B5
350
57
  3
B6
350
58
  3
B7
350
59
  3
B8
350
5A
  3
B9
350
5B
  3
C0
350
5C
  3
C1
350
5D
  3
C2
350
5E
  3
C3
350
5F
  3
C4
350
60
  3
C5
350
61
  3
C6
350
62
  3
C7
350
63
  3
C8
350
64
  3
C9
350
65
  3
D0
350
66
  3
D1
350
67
  3
D2
350
68
  0
DICTIONARY
  5
14E
102
{ACAD_REACTORS
330
C
102
}
330
C
100
AcDbDictionary
281
     1
  0
XRECORD
  5
2B7
102
{ACAD_REACTORS
330
C
102
}
330
C
100
AcDbXrecord
280
     1
  1
DWGPROPS COOKIE
  2

  3

  4

  6

  7

  8
12016016
  9

300
=
301
=
302
=
303
=
304
=
305
=
306
=
307
=
308
=
309
=
 40
0.0
 41
2458312.297079907
 42
2458323.374721076
  1

 90
        0
  0
DICTIONARY
  5
1F4
102
{ACAD_REACTORS
330
1F3
102
}
330
1F3
100
AcDbDictionary
281
     1
  0
LAYOUT
  5
1E
102
{ACAD_REACTORS
330
1A
102
}
330
1A
100
AcDbPlotSettings
  1

  2
none_device
  4

  6

 40
0.0
 41
0.0
 42
0.0
 43
0.0
 44
0.0
 45
0.0
 46
0.0
 47
0.0
 48
0.0
 49
0.0
140
0.0
141
0.0
142
1.0
143
1.0
 70
   688
 72
     1
 73
     0
 74
     5
  7

 75
    16
147
1.0
148
0.0
149
0.0
100
AcDbLayout
  1
Layout1
 70
     1
 71
     1
 10
0.0
 20
0.0
 11
420.0
 21
297.0
 12
0.0
 22
0.0
 32
0.0
 14
1.000000000000000E+20
 24
1.000000000000000E+20
 34
1.000000000000000E+20
 15
-1.000000000000000E+20
 25
-1.000000000000000E+20
 35
-1.000000000000000E+20
146
0.0
 13
0.0
 23
0.0
 33
0.0
 16
1.0
 26
0.0
 36
0.0
 17
0.0
 27
1.0
 37
0.0
 76
     0
330
1B
  0
LAYOUT
  5
26
102
{ACAD_REACTORS
330
1A
102
}
330
1A
100
AcDbPlotSettings
  1

  2
none_device
  4

  6

 40
0.0
 41
0.0
 42
0.0
 43
0.0
 44
0.0
 45
0.0
 46
0.0
 47
0.0
 48
0.0
 49
0.0
140
0.0
141
0.0
142
1.0
143
1.0
 70
   688
 72
     1
 73
     0
 74
     5
  7

 75
    16
147
1.0
148
0.0
149
0.0
100
AcDbLayout
  1
Layout2
 70
     1
 71
     2
 10
0.0
 20
0.0
 11
0.0
 21
0.0
 12
0.0
 22
0.0
 32
0.0
 14
0.0
 24
0.0
 34
0.0
 15
0.0
 25
0.0
 35
0.0
146
0.0
 13
0.0
 23
0.0
 33
0.0
 16
1.0
 26
0.0
 36
0.0
 17
0.0
 27
1.0
 37
0.0
 76
     0
330
23
  0
LAYOUT
  5
22
102
{ACAD_REACTORS
330
1A
102
}
330
1A
100
AcDbPlotSettings
  1

  2
none_device
  4
ANSI_A_(11.00_x_8.50_Inches)
  6

 40
6.35
 41
19.05
 42
6.35000508
 43
19.05000254
 44
279.4
 45
215.9
 46
85.61556076584291
 47
92.16867632515616
 48
0.0
 49
0.0
140
0.0
141
0.0
142
0.0615431726316858
143
1.0
 70
  1696
 72
     0
 73
     0
 74
     0
  7

 75
     0
147
0.0235690232323232
148
0.0
149
0.0
100
AcDbLayout
  1
Model
 70
     1
 71
     0
 10
0.0
 20
0.0
 11
420.0
 21
297.0
 12
0.0
 22
0.0
 32
0.0
 14
-50.12577283782724
 24
-49.97180738881174
 34
0.0
 15
89.03783746512288
 25
38.02202942590522
 35
0.0
146
0.0
 13
0.0
 23
0.0
 33
0.0
 16
1.0
 26
0.0
 36
0.0
 17
0.0
 27
1.0
 37
0.0
 76
     0
330
1F
331
29
  0
MLINESTYLE
  5
18
102
{ACAD_REACTORS
330
17
102
}
330
17
100
AcDbMlineStyle
  2
Standard
 70
     0
  3

 62
   256
 51
90.0
 52
90.0
 71
     2
 49
0.5
 62
   256
  6
BYLAYER
 49
-0.5
 62
   256
  6
BYLAYER
  0
ACDBPLACEHOLDER
  5
F
102
{ACAD_REACTORS
330
E
102
}
330
E
  0
SCALE
  5
48
102
{ACAD_REACTORS
330
47
102
}
330
47
100
AcDbScale
 70
     0
300
1:1
140
1.0
141
1.0
290
     1
  0
SCALE
  5
49
102
{ACAD_REACTORS
330
47
102
}
330
47
100
AcDbScale
 70
     0
300
1:2
140
1.0
141
2.0
290
     0
  0
SCALE
  5
4A
102
{ACAD_REACTORS
330
47
102
}
330
47
100
AcDbScale
 70
     0
300
1:4
140
1.0
141
4.0
290
     0
  0
SCALE
  5
4B
102
{ACAD_REACTORS
330
47
102
}
330
47
100
AcDbScale
 70
     0
300
1:5
140
1.0
141
5.0
290
     0
  0
SCALE
  5
4C
102
{ACAD_REACTORS
330
47
102
}
330
47
100
AcDbScale
 70
     0
300
1:8
140
1.0
141
8.0
290
     0
  0
SCALE
  5
4D
102
{ACAD_REACTORS
330
47
102
}
330
47
100
AcDbScale
 70
     0
300
1:10
140
1.0
141
10.0
290
     0
  0
SCALE
  5
4E
102
{ACAD_REACTORS
330
47
102
}
330
47
100
AcDbScale
 70
     0
300
1:16
140
1.0
141
16.0
290
     0
  0
SCALE
  5
4F
102
{ACAD_REACTORS
330
47
102
}
330
47
100
AcDbScale
 70
     0
300
1:20
140
1.0
141
20.0
290
     0
  0
SCALE
  5
50
102
{ACAD_REACTORS
330
47
102
}
330
47
100
AcDbScale
 70
     0
300
1:30
140
1.0
141
30.0
290
     0
  0
SCALE
  5
51
102
{ACAD_REACTORS
330
47
102
}
330
47
100
AcDbScale
 70
     0
300
1:40
140
1.0
141
40.0
290
     0
  0
SCALE
  5
52
102
{ACAD_REACTORS
330
47
102
}
330
47
100
AcDbScale
 70
     0
300
1:50
140
1.0
141
50.0
290
     0
  0
SCALE
  5
53
102
{ACAD_REACTORS
330
47
102
}
330
47
100
AcDbScale
 70
     0
300
1:100
140
1.0
141
100.0
290
     0
  0
SCALE
  5
54
102
{ACAD_REACTORS
330
47
102
}
330
47
100
AcDbScale
 70
     0
300
2:1
140
2.0
141
1.0
290
     0
  0
SCALE
  5
55
102
{ACAD_REACTORS
330
47
102
}
330
47
100
AcDbScale
 70
     0
300
4:1
140
4.0
141
1.0
290
     0
  0
SCALE
  5
56
102
{ACAD_REACTORS
330
47
102
}
330
47
100
AcDbScale
 70
     0
300
8:1
140
8.0
141
1.0
290
     0
  0
SCALE
  5
57
102
{ACAD_REACTORS
330
47
102
}
330
47
100
AcDbScale
 70
     0
300
10:1
140
10.0
141
1.0
290
     0
  0
SCALE
  5
58
102
{ACAD_REACTORS
330
47
102
}
330
47
100
AcDbScale
 70
     0
300
100:1
140
100.0
141
1.0
290
     0
  0
SCALE
  5
59
102
{ACAD_REACTORS
330
47
102
}
330
47
100
AcDbScale
 70
     0
300
1/128" = 1'-0"
140
0.0078125
141
12.0
290
     0
  0
SCALE
  5
5A
102
{ACAD_REACTORS
330
47
102
}
330
47
100
AcDbScale
 70
     0
300
1/64" = 1'-0"
140
0.015625
141
12.0
290
     0
  0
SCALE
  5
5B
102
{ACAD_REACTORS
330
47
102
}
330
47
100
AcDbScale
 70
     0
300
1/32" = 1'-0"
140
0.03125
141
12.0
290
     0
  0
SCALE
  5
5C
102
{ACAD_REACTORS
330
47
102
}
330
47
100
AcDbScale
 70
     0
300
1/16" = 1'-0"
140
0.0625
141
12.0
290
     0
  0
SCALE
  5
5D
102
{ACAD_REACTORS
330
47
102
}
330
47
100
AcDbScale
 70
     0
300
3/32" = 1'-0"
140
0.09375
141
12.0
290
     0
  0
SCALE
  5
5E
102
{ACAD_REACTORS
330
47
102
}
330
47
100
AcDbScale
 70
     0
300
1/8" = 1'-0"
140
0.125
141
12.0
290
     0
  0
SCALE
  5
5F
102
{ACAD_REACTORS
330
47
102
}
330
47
100
AcDbScale
 70
     0
300
3/16" = 1'-0"
140
0.1875
141
12.0
290
     0
  0
SCALE
  5
60
102
{ACAD_REACTORS
330
47
102
}
330
47
100
AcDbScale
 70
     0
300
1/4" = 1'-0"
140
0.25
141
12.0
290
     0
  0
SCALE
  5
61
102
{ACAD_REACTORS
330
47
102
}
330
47
100
AcDbScale
 70
     0
300
3/8" = 1'-0"
140
0.375
141
12.0
290
     0
  0
SCALE
  5
62
102
{ACAD_REACTORS
330
47
102
}
330
47
100
AcDbScale
 70
     0
300
1/2" = 1'-0"
140
0.5
141
12.0
290
     0
  0
SCALE
  5
63
102
{ACAD_REACTORS
330
47
102
}
330
47
100
AcDbScale
 70
     0
300
3/4" = 1'-0"
140
0.75
141
12.0
290
     0
  0
SCALE
  5
64
102
{ACAD_REACTORS
330
47
102
}
330
47
100
AcDbScale
 70
     0
300
1" = 1'-0"
140
1.0
141
12.0
290
     0
  0
SCALE
  5
65
102
{ACAD_REACTORS
330
47
102
}
330
47
100
AcDbScale
 70
     0
300
1-1/2" = 1'-0"
140
1.5
141
12.0
290
     0
  0
SCALE
  5
66
102
{ACAD_REACTORS
330
47
102
}
330
47
100
AcDbScale
 70
     0
300
3" = 1'-0"
140
3.0
141
12.0
290
     0
  0
SCALE
  5
67
102
{ACAD_REACTORS
330
47
102
}
330
47
100
AcDbScale
 70
     0
300
6" = 1'-0"
140
6.0
141
12.0
290
     0
  0
SCALE
  5
68
102
{ACAD_REACTORS
330
47
102
}
330
47
100
AcDbScale
 70
     0
300
1'-0" = 1'-0"
140
12.0
141
12.0
290
     0
  0
ENDSEC
  0
EOF
