  0
SECTION
  2
HEADER
  9
$ACADVER
  1
AC1015
  9
$ACADMAINTVER
 70
     6
  9
$DWGCODEPAGE
  3
ANSI_949
  9
$INSBASE
 10
0.0
 20
0.0
 30
0.0
  9
$EXTMIN
 10
-54.16345750931944
 20
-49.97073246008785
 30
0.0
  9
$EXTMAX
 10
89.03783746512288
 20
42.75827703167123
 30
0.0
  9
$LIMMIN
 10
0.0
 20
0.0
  9
$LIMMAX
 10
420.0
 20
297.0
  9
$ORTHOMODE
 70
     1
  9
$REGENMODE
 70
     1
  9
$FILLMODE
 70
     1
  9
$QTEXTMODE
 70
     0
  9
$MIRRTEXT
 70
     1
  9
$LTSCALE
 40
1.0
  9
$ATTMODE
 70
     1
  9
$TEXTSIZE
 40
3.5
  9
$TRACEWID
 40
1.0
  9
$TEXTSTYLE
  7
Standard
  9
$CLAYER
  8
0
  9
$CELTYPE
  6
ByLayer
  9
$CECOLOR
 62
   256
  9
$CELTSCALE
 40
1.0
  9
$DISPSILH
 70
     0
  9
$DIMSCALE
 40
1.0
  9
$DIMASZ
 40
3.302
  9
$DIMEXO
 40
1.0
  9
$DIMDLI
 40
3.75
  9
$DIMRND
 40
0.0
  9
$DIMDLE
 40
0.0
  9
$DIMEXE
 40
1.0
  9
$DIMTP
 40
0.0
  9
$DIMTM
 40
0.0
  9
$DIMTXT
 40
3.5
  9
$DIMCEN
 40
2.5
  9
$DIMTSZ
 40
0.0
  9
$DIMTOL
 70
     0
  9
$DIMLIM
 70
     0
  9
$DIMTIH
 70
     1
  9
$DIMTOH
 70
     1
  9
$DIMSE1
 70
     0
  9
$DIMSE2
 70
     0
  9
$DIMTAD
 70
     1
  9
$DIMZIN
 70
     0
  9
$DIMBLK
  1

  9
$DIMASO
 70
     1
  9
$DIMSHO
 70
     1
  9
$DIMPOST
  1

  9
$DIMAPOST
  1

  9
$DIMALT
 70
     0
  9
$DIMALTD
 70
     3
  9
$DIMALTF
 40
0.0393700787401575
  9
$DIMLFAC
 40
1.0
  9
$DIMTOFL
 70
     1
  9
$DIMTVP
 40
0.0
  9
$DIMTIX
 70
     0
  9
$DIMSOXD
 70
     0
  9
$DIMSAH
 70
     0
  9
$DIMBLK1
  1

  9
$DIMBLK2
  1

  9
$DIMSTYLE
  2
ISO-25
  9
$DIMCLRD
 70
     0
  9
$DIMCLRE
 70
     0
  9
$DIMCLRT
 70
     0
  9
$DIMTFAC
 40
1.0
  9
$DIMGAP
 40
1.524
  9
$DIMJUST
 70
     0
  9
$DIMSD1
 70
     0
  9
$DIMSD2
 70
     0
  9
$DIMTOLJ
 70
     0
  9
$DIMTZIN
 70
     0
  9
$DIMALTZ
 70
     0
  9
$DIMALTTZ
 70
     0
  9
$DIMUPT
 70
     0
  9
$DIMDEC
 70
     2
  9
$DIMTDEC
 70
     2
  9
$DIMALTU
 70
     2
  9
$DIMALTTD
 70
     3
  9
$DIMTXSTY
  7
Standard
  9
$DIMAUNIT
 70
     0
  9
$DIMADEC
 70
     2
  9
$DIMALTRND
 40
0.0
  9
$DIMAZIN
 70
     0
  9
$DIMDSEP
 70
    44
  9
$DIMATFIT
 70
     3
  9
$DIMFRAC
 70
     0
  9
$DIMLDRBLK
  1

  9
$DIMLUNIT
 70
     2
  9
$DIMLWD
 70
    -2
  9
$DIMLWE
 70
    -2
  9
$DIMTMOVE
 70
     0
  9
$LUNITS
 70
     2
  9
$LUPREC
 70
     2
  9
$SKETCHINC
 40
1.0
  9
$FILLETRAD
 40
10.0
  9
$AUNITS
 70
     0
  9
$AUPREC
 70
     2
  9
$MENU
  1
.
  9
$ELEVATION
 40
0.0
  9
$PELEVATION
 40
0.0
  9
$THICKNESS
 40
0.0
  9
$LIMCHECK
 70
     0
  9
$CHAMFERA
 40
0.0
  9
$CHAMFERB
 40
0.0
  9
$CHAMFERC
 40
0.0
  9
$CHAMFERD
 40
0.0
  9
$SKPOLY
 70
     0
  9
$TDCREATE
 40
2458312.671656331
  9
$TDUCREATE
 40
2458312.296656331
  9
$TDUPDATE
 40
2458323.749800984
  9
$TDUUPDATE
 40
2458323.374800984
  9
$TDINDWG
 40
0.0007135301
  9
$TDUSRTIMER
 40
2458323.37477
  9
$USRTIMER
 70
     1
  9
$ANGBASE
 50
0.0
  9
$ANGDIR
 70
     0
  9
$PDMODE
 70
     0
  9
$PDSIZE
 40
-1.0
  9
$PLINEWID
 40
0.0
  9
$SPLFRAME
 70
     0
  9
$SPLINETYPE
 70
     6
  9
$SPLINESEGS
 70
     8
  9
$HANDSEED
  5
2E1
  9
$SURFTAB1
 70
     6
  9
$SURFTAB2
 70
     6
  9
$SURFTYPE
 70
     6
  9
$SURFU
 70
     6
  9
$SURFV
 70
     6
  9
$UCSBASE
  2

  9
$UCSNAME
  2

  9
$UCSORG
 10
0.0
 20
0.0
 30
0.0
  9
$UCSXDIR
 10
1.0
 20
0.0
 30
0.0
  9
$UCSYDIR
 10
0.0
 20
1.0
 30
0.0
  9
$UCSORTHOREF
  2

  9
$UCSORTHOVIEW
 70
     0
  9
$UCSORGTOP
 10
0.0
 20
0.0
 30
0.0
  9
$UCSORGBOTTOM
 10
0.0
 20
0.0
 30
0.0
  9
$UCSORGLEFT
 10
0.0
 20
0.0
 30
0.0
  9
$UCSORGRIGHT
 10
0.0
 20
0.0
 30
0.0
  9
$UCSORGFRONT
 10
0.0
 20
0.0
 30
0.0
  9
$UCSORGBACK
 10
0.0
 20
0.0
 30
0.0
  9
$PUCSBASE
  2

  9
$PUCSNAME
  2

  9
$PUCSORG
 10
0.0
 20
0.0
 30
0.0
  9
$PUCSXDIR
 10
1.0
 20
0.0
 30
0.0
  9
$PUCSYDIR
 10
0.0
 20
1.0
 30
0.0
  9
$PUCSORTHOREF
  2

  9
$PUCSORTHOVIEW
 70
     0
  9
$PUCSORGTOP
 10
0.0
 20
0.0
 30
0.0
  9
$PUCSORGBOTTOM
 10
0.0
 20
0.0
 30
0.0
  9
$PUCSORGLEFT
 10
0.0
 20
0.0
 30
0.0
  9
$PUCSORGRIGHT
 10
0.0
 20
0.0
 30
0.0
  9
$PUCSORGFRONT
 10
0.0
 20
0.0
 30
0.0
  9
$PUCSORGBACK
 10
0.0
 20
0.0
 30
0.0
  9
$USERI1
 70
     0
  9
$USERI2
 70
     0
  9
$USERI3
 70
     0
  9
$USERI4
 70
     0
  9
$USERI5
 70
     0
  9
$USERR1
 40
0.0
  9
$USERR2
 40
0.0
  9
$USERR3
 40
0.0
  9
$USERR4
 40
0.0
  9
$USERR5
 40
0.0
  9
$WORLDVIEW
 70
     1
  9
$SHADEDGE
 70
     3
  9
$SHADEDIF
 70
    70
  9
$TILEMODE
 70
     1
  9
$MAXACTVP
 70
    64
  9
$PINSBASE
 10
0.0
 20
0.0
 30
0.0
  9
$PLIMCHECK
 70
     0
  9
$PEXTMIN
 10
1.000000000000000E+20
 20
1.000000000000000E+20
 30
1.000000000000000E+20
  9
$PEXTMAX
 10
-1.000000000000000E+20
 20
-1.000000000000000E+20
 30
-1.000000000000000E+20
  9
$PLIMMIN
 10
0.0
 20
0.0
  9
$PLIMMAX
 10
0.0
 20
0.0
  9
$UNITMODE
 70
     0
  9
$VISRETAIN
 70
     1
  9
$PLINEGEN
 70
     0
  9
$PSLTSCALE
 70
     1
  9
$TREEDEPTH
 70
  3020
  9
$CMLSTYLE
  2
Standard
  9
$CMLJUST
 70
     0
  9
$CMLSCALE
 40
20.0
  9
$PROXYGRAPHICS
 70
     1
  9
$MEASUREMENT
 70
     1
  9
$CELWEIGHT
370
    -1
  9
$ENDCAPS
280
     0
  9
$JOINSTYLE
280
     0
  9
$LWDISPLAY
290
     1
  9
$INSUNITS
 70
     4
  9
$HYPERLINKBASE
  1

  9
$STYLESHEET
  1

  9
$XEDIT
290
     1
  9
$CEPSNTYPE
380
     0
  9
$PSTYLEMODE
290
     1
  9
$FINGERPRINTGUID
  2
{BE57C250-9BAF-4F50-997B-CFA3872F8916}
  9
$VERSIONGUID
  2
{FAEB1C32-E019-11D5-929B-00C0DF256EC4}
  9
$EXTNAMES
290
     1
  9
$PSVPSCALE
 40
0.0
  9
$OLESTARTUP
290
     0
  0
ENDSEC
  0
SECTION
  2
CLASSES
  0
CLASS
  1
ACDBDICTIONARYWDFLT
  2
AcDbDictionaryWithDefault
  3
ObjectDBX Classes
 90
        0
280
     0
281
     0
  0
CLASS
  1
VISUALSTYLE
  2
AcDbVisualStyle
  3
ObjectDBX Classes
 90
     4095
280
     0
281
     0
  0
CLASS
  1
MATERIAL
  2
AcDbMaterial
  3
ObjectDBX Classes
 90
     1153
280
     0
281
     0
  0
CLASS
  1
SCALE
  2
AcDbScale
  3
ObjectDBX Classes
 90
     1153
280
     0
281
     0
  0
CLASS
  1
SUN
  2
AcDbSun
  3
SCENEOE
 90
     1153
280
     0
281
     0
  0
CLASS
  1
ACDBPLACEHOLDER
  2
AcDbPlaceHolder
  3
ObjectDBX Classes
 90
        0
280
     0
281
     0
  0
CLASS
  1
LAYOUT
  2
AcDbLayout
  3
ObjectDBX Classes
 90
        0
280
     0
281
     0
  0
CLASS
  1
TABLESTYLE
  2
AcDbTableStyle
  3
ObjectDBX Classes
 90
     4095
280
     0
281
     0
  0
CLASS
  1
MLEADERSTYLE
  2
AcDbMLeaderStyle
  3
ACDB_MLEADERSTYLE_CLASS
 90
     4095
280
     0
281
     0
  0
CLASS
  1
RASTERVARIABLES
  2
AcDbRasterVariables
  3
ISM
 90
        0
280
     0
281
     0
  0
CLASS
  1
DIMASSOC
  2
AcDbDimAssoc
  3
"AcDbDimAssoc|Product Desc:     AcDim ARX App For Dimension|Company:          Autodesk, Inc.|WEB Address:      www.autodesk.com"
 90
        0
280
     0
281
     0
  0
ENDSEC
  0
SECTION
  2
TABLES
  0
TABLE
  2
VPORT
  5
8
330
0
100
AcDbSymbolTable
 70
     1
  0
VPORT
  5
29
330
8
100
AcDbSymbolTableRecord
100
AcDbViewportTableRecord
  2
*Active
 70
     0
 10
0.0
 20
0.0
 11
1.0
 21
1.0
 12
-15.13635671772799
 22
-15.15247552511468
 13
0.0
 23
0.0
 14
10.0
 24
10.0
 15
10.0
 25
10.0
 16
0.0
 26
0.0
 36
1.0
 17
0.0
 27
0.0
 37
0.0
 40
135.067764153279
 41
1.632093933463796
 42
50.0
 43
0.0
 44
0.0
 50
0.0
 51
0.0
 71
    16
 72
  2000
 73
     1
 74
     3
 75
     0
 76
     0
 77
     0
 78
     0
281
     0
 65
     1
110
0.0
120
0.0
130
0.0
111
1.0
121
0.0
131
0.0
112
0.0
122
1.0
132
0.0
 79
     0
146
0.0
  0
ENDTAB
  0
TABLE
  2
LTYPE
  5
5
330
0
100
AcDbSymbolTable
 70
     6
  0
LTYPE
  5
14
330
5
100
AcDbSymbolTableRecord
100
AcDbLinetypeTableRecord
  2
ByBlock
 70
     0
  3

 72
    65
 73
     0
 40
0.0
  0
LTYPE
  5
15
330
5
100
AcDbSymbolTableRecord
100
AcDbLinetypeTableRecord
  2
ByLayer
 70
     0
  3

 72
    65
 73
     0
 40
0.0
  0
LTYPE
  5
16
330
5
100
AcDbSymbolTableRecord
100
AcDbLinetypeTableRecord
  2
Continuous
 70
     0
  3
Solid line
 72
    65
 73
     0
 40
0.0
  0
LTYPE
  5
6A
330
5
100
AcDbSymbolTableRecord
100
AcDbLinetypeTableRecord
  2
HIDDEN
 70
     0
  3
Hidden __ __ __ __ __ __ __ __ __ __ __ __ __ __
 72
    65
 73
     2
 40
1.905
 49
1.27
 74
     0
 49
-0.635
 74
     0
  0
LTYPE
  5
6B
330
5
100
AcDbSymbolTableRecord
100
AcDbLinetypeTableRecord
  2
PHANTOM
 70
     0
  3
Phantom ______  __  __  ______  __  __  ______
 72
    65
 73
     6
 40
12.7
 49
6.35
 74
     0
 49
-1.27
 74
     0
 49
1.27
 74
     0
 49
-1.27
 74
     0
 49
1.27
 74
     0
 49
-1.27
 74
     0
  0
LTYPE
  5
6C
330
5
100
AcDbSymbolTableRecord
100
AcDbLinetypeTableRecord
  2
CENTER
 70
     0
  3
Center ____ _ ____ _ ____ _ ____ _ ____ _ ____
 72
    65
 73
     4
 40
10.16
 49
6.35
 74
     0
 49
-1.27
 74
     0
 49
1.27
 74
     0
 49
-1.27
 74
     0
  0
LTYPE
  5
6D
330
5
100
AcDbSymbolTableRecord
100
AcDbLinetypeTableRecord
  2
CENTERX2
 70
     0
  3
Center (2x) ________  __  ________  __  _____
 72
    65
 73
     4
 40
20.32
 49
12.7
 74
     0
 49
-2.54
 74
     0
 49
2.54
 74
     0
 49
-2.54
 74
     0
  0
LTYPE
  5
6E
330
5
100
AcDbSymbolTableRecord
100
AcDbLinetypeTableRecord
  2
DOT2
 70
     0
  3
Dot (.5x) ........................................
 72
    65
 73
     2
 40
0.635
 49
0.0
 74
     0
 49
-0.635
 74
     0
  0
ENDTAB
  0
TABLE
  2
LAYER
  5
2
102
{ACAD_XDICTIONARY
360
201
102
}
330
0
100
AcDbSymbolTable
 70
    18
  0
LAYER
  5
10
330
2
100
AcDbSymbolTableRecord
100
AcDbLayerTableRecord
  2
0
 70
     0
 62
     7
  6
Continuous
370
    -3
390
F
  0
LAYER
  5
6F
330
2
100
AcDbSymbolTableRecord
100
AcDbLayerTableRecord
  2
FORMAT
 70
     0
 62
     2
  6
Continuous
370
    -3
390
F
  0
LAYER
  5
70
330
2
100
AcDbSymbolTableRecord
100
AcDbLayerTableRecord
  2
외형선
 70
     0
 62
     4
  6
Continuous
370
    30
390
F
  0
LAYER
  5
71
330
2
100
AcDbSymbolTableRecord
100
AcDbLayerTableRecord
  2
숨은선
 70
     0
 62
     2
  6
HIDDEN
370
    15
390
F
  0
LAYER
  5
72
330
2
100
AcDbSymbolTableRecord
100
AcDbLayerTableRecord
  2
중심선
 70
     0
 62
     1
  6
CENTERX2
370
    -3
390
F
  0
LAYER
  5
73
330
2
100
AcDbSymbolTableRecord
100
AcDbLayerTableRecord
  2
파단선
 70
     0
 62
     4
  6
Continuous
370
    -3
390
F
  0
LAYER
  5
74
330
2
100
AcDbSymbolTableRecord
100
AcDbLayerTableRecord
  2
해칭선
 70
     0
 62
   100
  6
Continuous
370
    -3
390
F
  0
LAYER
  5
75
330
2
100
AcDbSymbolTableRecord
100
AcDbLayerTableRecord
  2
가는실선
 70
     0
 62
     4
  6
Continuous
370
    -3
390
F
  0
LAYER
  5
76
330
2
100
AcDbSymbolTableRecord
100
AcDbLayerTableRecord
  2
치수_보조선
 70
     0
 62
     4
  6
Continuous
370
    -3
390
F
  0
LAYER
  5
77
330
2
100
AcDbSymbolTableRecord
100
AcDbLayerTableRecord
  2
치수문자_일반주서
 70
     0
 62
     7
  6
Continuous
370
    15
390
F
  0
LAYER
  5
78
330
2
100
AcDbSymbolTableRecord
100
AcDbLayerTableRecord
  2
개별주서
 70
     0
 62
   100
  6
Continuous
370
    30
390
F
  0
LAYER
  5
79
330
2
100
AcDbSymbolTableRecord
100
AcDbLayerTableRecord
  2
중간선
 70
     0
 62
     2
  6
Continuous
370
    15
390
F
  0
LAYER
  5
7A
330
2
100
AcDbSymbolTableRecord
100
AcDbLayerTableRecord
  2
윤곽선
 70
     0
 62
     3
  6
Continuous
370
    40
390
F
  0
LAYER
  5
7B
330
2
100
AcDbSymbolTableRecord
100
AcDbLayerTableRecord
  2
중심마크
 70
     0
 62
   100
  6
Continuous
370
    30
390
F
  0
LAYER
  5
7C
330
2
100
AcDbSymbolTableRecord
100
AcDbLayerTableRecord
  2
가상선
 70
     0
 62
     4
  6
PHANTOM
370
    -3
390
F
  0
LAYER
  5
7D
330
2
100
AcDbSymbolTableRecord
100
AcDbLayerTableRecord
  2
특수지정선
 70
     0
 62
     5
  6
CENTERX2
370
    60
390
F
  0
LAYER
  5
7E
330
2
100
AcDbSymbolTableRecord
100
AcDbLayerTableRecord
  2
참조1
 70
     0
 62
    -4
  6
Continuous
370
    -3
390
F
  0
LAYER
  5
158
330
2
100
AcDbSymbolTableRecord
100
AcDbLayerTableRecord
  2
Defpoints
 70
     0
 62
     7
  6
Continuous
290
     0
370
    -3
390
F
  0
ENDTAB
  0
TABLE
  2
STYLE
  5
3
330
0
100
AcDbSymbolTable
 70
     2
  0
STYLE
  5
11
330
3
100
AcDbSymbolTableRecord
100
AcDbTextStyleTableRecord
  2
Standard
 70
     0
 40
0.0
 41
1.0
 50
0.0
 71
     0
 42
3.5
  3
txt
  4

  0
STYLE
  5
94
330
3
100
AcDbSymbolTableRecord
100
AcDbTextStyleTableRecord
  2
SLDTEXTSTYLE0
 70
     0
 40
0.0
 41
0.75
 50
0.0
 71
     0
 42
3.5
  3
TXT
  4

  0
ENDTAB
  0
TABLE
  2
VIEW
  5
6
330
0
100
AcDbSymbolTable
 70
     0
  0
ENDTAB
  0
TABLE
  2
UCS
  5
7
330
0
100
AcDbSymbolTable
 70
     0
  0
ENDTAB
  0
TABLE
  2
APPID
  5
9
330
0
100
AcDbSymbolTable
 70
     1
  0
APPID
  5
12
330
9
100
AcDbSymbolTableRecord
100
AcDbRegAppTableRecord
  2
ACAD
 70
     0
  0
ENDTAB
  0
TABLE
  2
DIMSTYLE
  5
A
330
0
100
AcDbSymbolTable
 70
     4
100
AcDbDimStyleTable
  0
DIMSTYLE
105
27
330
A
100
AcDbSymbolTableRecord
100
AcDbDimStyleTableRecord
  2
ISO-25
 70
     0
 41
2.5
 42
0.625
 43
3.75
 44
1.25
 73
     0
 74
     0
 77
     1
 78
     8
140
2.5
141
2.5
143
0.03937007874016
147
0.625
171
     3
172
     1
178
     0
271
     2
272
     2
274
     3
278
    44
283
     0
284
     8
340
11
  0
DIMSTYLE
105
D5
330
A
100
AcDbSymbolTableRecord
100
AcDbDimStyleTableRecord
  2
SLDDIMSTYLE0
 70
     0
 41
3.302
 44
0.0
 45
0.000000001
 73
     0
 74
     0
 77
     1
 78
    12
 79
     3
140
3.5
143
0.0393700787401575
147
0.875
148
0.000000001
170
     1
173
     1
178
     0
271
     2
272
     2
276
     2
284
    12
340
94
  0
DIMSTYLE
105
FD
102
{ACAD_REACTORS
330
FC
330
D4
330
2A9
330
E9
102
}
330
A
100
AcDbSymbolTableRecord
100
AcDbDimStyleTableRecord
  2
SLDDIMSTYLE1
 70
     0
 41
3.302
 44
0.0
 45
0.000000001
 73
     0
 74
     0
 77
     1
 78
    12
 79
     3
140
3.5
143
0.0393700787401575
147
0.875
148
0.000000001
170
     1
172
     1
173
     1
178
     0
271
     2
272
     2
276
     2
284
    12
289
     0
340
94
  0
DIMSTYLE
105
112
330
A
100
AcDbSymbolTableRecord
100
AcDbDimStyleTableRecord
  2
SLDDIMSTYLE2
 70
     0
 41
3.302
 44
0.0
 45
0.000000001
 73
     0
 74
     0
 77
     1
 78
     4
 79
     1
140
3.5
143
0.0393700787401575
147
0.875
148
0.000000001
170
     1
173
     1
178
     0
271
     2
272
     2
276
     2
284
    12
340
94
  0
ENDTAB
  0
TABLE
  2
BLOCK_RECORD
  5
1
330
0
100
AcDbSymbolTable
 70
    16
  0
BLOCK_RECORD
  5
1F
330
1
100
AcDbSymbolTableRecord
100
AcDbBlockTableRecord
  2
*Model_Space
340
22
  0
BLOCK_RECORD
  5
1B
330
1
100
AcDbSymbolTableRecord
100
AcDbBlockTableRecord
  2
*Paper_Space
340
1E
  0
BLOCK_RECORD
  5
23
330
1
100
AcDbSymbolTableRecord
100
AcDbBlockTableRecord
  2
*Paper_Space0
340
26
  0
BLOCK_RECORD
  5
7F
330
1
100
AcDbSymbolTableRecord
100
AcDbBlockTableRecord
  2
블럭10
340
0
102
{BLKREFS
331
CD
102
}
  0
BLOCK_RECORD
  5
D6
330
1
100
AcDbSymbolTableRecord
100
AcDbBlockTableRecord
  2
_D
340
0
  0
BLOCK_RECORD
  5
EA
330
1
100
AcDbSymbolTableRecord
100
AcDbBlockTableRecord
  2
_D_1
340
0
  0
BLOCK_RECORD
  5
FE
330
1
100
AcDbSymbolTableRecord
100
AcDbBlockTableRecord
  2
_D_2
340
0
  0
BLOCK_RECORD
  5
113
330
1
100
AcDbSymbolTableRecord
100
AcDbBlockTableRecord
  2
_D_3
340
0
  0
BLOCK_RECORD
  5
12C
330
1
100
AcDbSymbolTableRecord
100
AcDbBlockTableRecord
  2
SW_DOWELSYMBOL_0
340
0
102
{BLKREFS
331
132
102
}
  0
BLOCK_RECORD
  5
1F0
330
1
100
AcDbSymbolTableRecord
100
AcDbBlockTableRecord
  2
*D7
340
0
  0
BLOCK_RECORD
  5
205
330
1
100
AcDbSymbolTableRecord
100
AcDbBlockTableRecord
  2
*D8
340
0
  0
BLOCK_RECORD
  5
214
330
1
100
AcDbSymbolTableRecord
100
AcDbBlockTableRecord
  2
*D9
340
0
  0
BLOCK_RECORD
  5
220
330
1
100
AcDbSymbolTableRecord
100
AcDbBlockTableRecord
  2
*D10
340
0
  0
BLOCK_RECORD
  5
271
330
1
100
AcDbSymbolTableRecord
100
AcDbBlockTableRecord
  2
*D11
340
0
  0
BLOCK_RECORD
  5
280
330
1
100
AcDbSymbolTableRecord
100
AcDbBlockTableRecord
  2
*D12
340
0
  0
BLOCK_RECORD
  5
28C
330
1
100
AcDbSymbolTableRecord
100
AcDbBlockTableRecord
  2
*D13
340
0
  0
BLOCK_RECORD
  5
298
330
1
100
AcDbSymbolTableRecord
100
AcDbBlockTableRecord
  2
*D14
340
0
  0
BLOCK_RECORD
  5
2AA
330
1
100
AcDbSymbolTableRecord
100
AcDbBlockTableRecord
  2
*D15
340
0
  0
ENDTAB
  0
ENDSEC
  0
SECTION
  2
BLOCKS
  0
BLOCK
  5
20
330
1F
100
AcDbEntity
  8
0
100
AcDbBlockBegin
  2
*Model_Space
 70
     0
 10
0.0
 20
0.0
 30
0.0
  3
*Model_Space
  1
*Model_Space
  0
ENDBLK
  5
21
330
1F
100
AcDbEntity
  8
0
100
AcDbBlockEnd
  0
BLOCK
  5
1C
330
1B
100
AcDbEntity
 67
     1
  8
0
100
AcDbBlockBegin
  2
*Paper_Space
 70
     0
 10
0.0
 20
0.0
 30
0.0
  3
*Paper_Space
  1
*Paper_Space
  0
ENDBLK
  5
1D
330
1B
100
AcDbEntity
 67
     1
  8
0
100
AcDbBlockEnd
  0
BLOCK
  5
24
330
23
100
AcDbEntity
  8
0
100
AcDbBlockBegin
  2
*Paper_Space0
 70
     0
 10
0.0
 20
0.0
 30
0.0
  3
*Paper_Space0
  1
*Paper_Space0
  0
ENDBLK
  5
25
330
23
100
AcDbEntity
  8
0
100
AcDbBlockEnd
  0
BLOCK
  5
80
330
7F
100
AcDbEntity
  8
0
100
AcDbBlockBegin
  2
블럭10
 70
     2
 10
0.0
 20
0.0
 30
0.0
  3
블럭10
  1
블럭10
  0
ELLIPSE
  5
82
330
7F
100
AcDbEntity
  8
중심선
100
AcDbEllipse
 10
20.54032771741204
 20
12.0471743016438
 30
0.0
 11
6.600054785286829
 21
-1.261213355974178E-13
 31
0.0
210
0.0
220
0.0
230
1.0
 40
0.636358354079598
 41
0.9219305317359503
 42
6.513795318482858
  0
ELLIPSE
  5
83
330
7F
100
AcDbEntity
  8
중심선
100
AcDbEllipse
 10
20.54032771746488
 20
12.04717430159265
 30
0.0
 11
3.960054785062283
 21
1.540847449632565E-10
 31
0.0
210
0.0
220
0.0
230
1.0
 40
0.3939339440162632
 41
1.131841032648279
 42
5.62031148352944
  0
LINE
  5
84
330
7F
100
AcDbEntity
  8
중심선
100
AcDbLine
 10
2.268634060543552
 20
16.24717430164393
 30
0.0
 11
5.714909304380834
 21
16.24717430164393
 31
0.0
  0
LINE
  5
85
330
7F
100
AcDbEntity
  8
중심선
100
AcDbLine
 10
5.245725140726316
 20
7.84717430164391
 30
0.0
 11
8.692000384563599
 21
7.84717430164391
 31
0.0
  0
LINE
  5
86
330
7F
100
AcDbEntity
  8
중심선
100
AcDbLine
 10
15.74043728645272
 20
16.24717430164393
 30
0.0
 11
8.692000384563599
 21
7.84717430164391
 31
0.0
  0
LINE
  5
87
330
7F
100
AcDbEntity
  8
중심선
100
AcDbLine
 10
0.1404042013395286
 20
13.71084872107135
 30
0.0
 11
3.58671253028996
 21
13.71088815037384
 31
0.0
  0
LINE
  5
88
330
7F
100
AcDbEntity
  8
중심선
100
AcDbLine
 10
2.750260043222114
 20
10.84717430164391
 30
0.0
 11
6.196535287059397
 21
10.84717430164391
 31
0.0
  0
LINE
  5
89
330
7F
100
AcDbEntity
  8
중심선
100
AcDbLine
 10
12.29416204261559
 20
16.24717430164393
 30
0.0
 11
5.245725140726316
 21
7.84717430164391
 31
0.0
  0
LINE
  5
8A
330
7F
100
AcDbEntity
  8
중심선
100
AcDbLine
 10
10.72767329541681
 20
16.24717430164393
 30
0.0
 11
6.196535287059397
 21
10.84717430164391
 31
0.0
  0
LINE
  5
8B
330
7F
100
AcDbEntity
  8
중심선
100
AcDbLine
 10
7.28139805157953
 20
16.24717430164393
 30
0.0
 11
2.750260043222114
 21
10.84717430164391
 31
0.0
  0
LINE
  5
8C
330
7F
100
AcDbEntity
  8
중심선
100
AcDbLine
 10
5.714909304380834
 20
16.24717430164393
 30
0.0
 11
3.58671253028996
 21
13.71088815037384
 31
0.0
  0
LINE
  5
8D
330
7F
100
AcDbEntity
  8
중심선
100
AcDbLine
 10
2.268634060543552
 20
16.24717430164393
 30
0.0
 11
0.1404042013395286
 21
13.71084872107135
 31
0.0
  0
LINE
  5
8E
330
7F
100
AcDbEntity
  8
중심선
100
AcDbLine
 10
7.28139805157953
 20
16.24717430164393
 30
0.0
 11
10.72767329541681
 21
16.24717430164393
 31
0.0
  0
LINE
  5
8F
330
7F
100
AcDbEntity
  8
중심선
100
AcDbLine
 10
12.29416204261559
 20
16.24717430164393
 30
0.0
 11
15.74043728645272
 21
16.24717430164393
 31
0.0
  0
LINE
  5
90
330
7F
100
AcDbEntity
  8
중심선
100
AcDbLine
 10
19.22036997980202
 20
11.08717430171403
 30
0.0
 11
23.66174974927406
 21
11.08717430171406
 31
0.0
  0
LINE
  5
91
330
7F
100
AcDbEntity
  8
중심선
100
AcDbLine
 10
19.22039502424796
 20
13.00717430171391
 30
0.0
 11
19.22036997980202
 21
11.08717430171403
 31
0.0
  0
LINE
  5
92
330
7F
100
AcDbEntity
  8
중심선
100
AcDbLine
 10
19.22039502424796
 20
13.00717430171391
 30
0.0
 11
26.96566020931264
 21
13.00717430171391
 31
0.0
  0
LINE
  5
93
330
7F
100
AcDbEntity
  8
중심선
100
AcDbLine
 10
22.22332737316547
 20
13.45928029700563
 30
0.0
 11
24.52862924686651
 21
15.39360700705356
 31
0.0
  0
ATTDEF
  5
95
330
7F
100
AcDbEntity
  8
FORMAT
 62
     2
100
AcDbText
 10
4.408487351596664
 20
2.075366912832191
 30
0.0
 40
4.233333333333333
  1
E2034020
 41
0.75
  7
SLDTEXTSTYLE0
 11
4.408487351596664
 21
-0.0412997538344756
 31
0.0
100
AcDbAttributeDefinition
  3

  2
AUTOATTR0
 70
     0
 74
     1
  0
ENDBLK
  5
81
330
7F
100
AcDbEntity
  8
0
100
AcDbBlockEnd
  0
BLOCK
  5
D7
330
D6
100
AcDbEntity
  8
0
100
AcDbBlockBegin
  2
_D
 70
     0
 10
0.0
 20
0.0
 30
0.0
  3
_D
  1
_D
  0
LINE
  5
D9
330
D6
100
AcDbEntity
  8
치수문자_일반주서
 62
     0
370
    -2
100
AcDbLine
 10
40.88731532850781
 20
4.032324928723899
 30
0.0
 11
40.88731532850781
 21
13.19193360106745
 31
0.0
  0
LINE
  5
DA
330
D6
100
AcDbEntity
  8
치수문자_일반주서
 62
     0
370
    -2
100
AcDbLine
 10
5.962315328507811
 20
3.630105688151862
 30
0.0
 11
5.962315328507811
 21
13.19193360106745
 31
0.0
  0
LINE
  5
DB
330
D6
100
AcDbEntity
  8
치수문자_일반주서
 62
     0
370
    -2
100
AcDbLine
 10
5.962315328507811
 20
13.19193360106745
 30
0.0
 11
-31.26668467149219
 21
13.19193360106745
 31
0.0
  0
LINE
  5
DC
330
D6
100
AcDbEntity
  8
치수문자_일반주서
 62
     0
370
    -2
100
AcDbLine
 10
40.88731532850781
 20
13.19193360106745
 30
0.0
 11
5.962315328507811
 21
13.19193360106745
 31
0.0
  0
LINE
  5
DD
330
D6
100
AcDbEntity
  8
치수문자_일반주서
 62
     0
370
    -2
100
AcDbLine
 10
44.18931532850781
 20
13.19193360106745
 30
0.0
 11
47.49131532850781
 21
13.19193360106745
 31
0.0
  0
LINE
  5
DE
330
D6
100
AcDbEntity
  8
치수문자_일반주서
 62
     0
370
    -2
100
AcDbLine
 10
2.660315328507812
 20
13.19193360106745
 30
0.0
 11
-0.6416846714921878
 21
13.19193360106745
 31
0.0
  0
SOLID
  5
DF
330
D6
100
AcDbEntity
  8
치수문자_일반주서
 62
     0
100
AcDbTrace
 10
44.18931532850781
 20
13.74226693440079
 30
0.0
 11
44.18931532850781
 21
12.64160026773412
 31
0.0
 12
40.88731532850781
 22
13.19193360106745
 32
0.0
 13
40.88731532850781
 23
13.19193360106745
 33
0.0
  0
SOLID
  5
E0
330
D6
100
AcDbEntity
  8
치수문자_일반주서
 62
     0
100
AcDbTrace
 10
2.660315328507812
 20
12.64160026773412
 30
0.0
 11
2.660315328507812
 21
13.74226693440079
 31
0.0
 12
5.962315328507811
 22
13.19193360106745
 32
0.0
 13
5.962315328507811
 23
13.19193360106745
 33
0.0
  0
MTEXT
  5
E1
330
D6
100
AcDbEntity
  8
치수문자_일반주서
 62
     0
100
AcDbMText
 10
-15.95418467149219
 20
17.56693360106745
 30
0.0
 40
3.5
 41
0.0
 71
     2
 72
     1
  1
\A1;34.93 [1 3/8]
  7
SLDTEXTSTYLE0
 73
     1
 44
1.0
  0
POINT
  5
E2
330
D6
100
AcDbEntity
  8
Defpoints
 62
     0
100
AcDbPoint
 10
40.88731532850781
 20
3.969824928723899
 30
0.0
  0
POINT
  5
2A7
330
D6
100
AcDbEntity
  8
Defpoints
 62
     0
100
AcDbPoint
 10
5.962315328507811
 20
3.567605688151862
 30
0.0
  0
POINT
  5
2A8
330
D6
100
AcDbEntity
  8
Defpoints
 62
     0
100
AcDbPoint
 10
5.962315328507811
 20
13.19193360106745
 30
0.0
  0
ENDBLK
  5
D8
330
D6
100
AcDbEntity
  8
0
100
AcDbBlockEnd
  0
BLOCK
  5
EB
330
EA
100
AcDbEntity
  8
0
100
AcDbBlockBegin
  2
_D_1
 70
     0
 10
0.0
 20
0.0
 30
0.0
  3
_D_1
  1
_D_1
  0
LINE
  5
ED
330
EA
100
AcDbEntity
  8
치수문자_일반주서
 62
     0
370
    -2
100
AcDbLine
 10
40.88731532850781
 20
4.032324928723899
 30
0.0
 11
40.88731532850781
 21
32.85727329760351
 31
0.0
  0
LINE
  5
EE
330
EA
100
AcDbEntity
  8
치수문자_일반주서
 62
     0
370
    -2
100
AcDbLine
 10
-38.48768467149219
 20
3.873574928723895
 30
0.0
 11
-38.48768467149219
 21
32.85727329760351
 31
0.0
  0
LINE
  5
EF
330
EA
100
AcDbEntity
  8
치수문자_일반주서
 62
     0
370
    -2
100
AcDbLine
 10
37.58531532850781
 20
32.85727329760351
 30
0.0
 11
-35.18568467149219
 21
32.85727329760351
 31
0.0
  0
SOLID
  5
F0
330
EA
100
AcDbEntity
  8
치수문자_일반주서
 62
     0
100
AcDbTrace
 10
37.58531532850781
 20
32.30693996427017
 30
0.0
 11
37.58531532850781
 21
33.40760663093684
 31
0.0
 12
40.88731532850781
 22
32.85727329760351
 32
0.0
 13
40.88731532850781
 23
32.85727329760351
 33
0.0
  0
SOLID
  5
F1
330
EA
100
AcDbEntity
  8
치수문자_일반주서
 62
     0
100
AcDbTrace
 10
-35.18568467149219
 20
33.40760663093684
 30
0.0
 11
-35.18568467149219
 21
32.30693996427017
 31
0.0
 12
-38.48768467149219
 22
32.85727329760351
 32
0.0
 13
-38.48768467149219
 23
32.85727329760351
 33
0.0
  0
MTEXT
  5
F2
330
EA
100
AcDbEntity
  8
치수문자_일반주서
 62
     0
100
AcDbMText
 10
1.199815328507809
 20
37.23227329760351
 30
0.0
 40
3.5
 41
0.0
 71
     2
 72
     1
  1
\A1;79.38 [3 1/8]
  7
SLDTEXTSTYLE0
 73
     1
 44
1.0
  0
POINT
  5
F3
330
EA
100
AcDbEntity
  8
Defpoints
 62
     0
100
AcDbPoint
 10
40.88731532850781
 20
3.969824928723899
 30
0.0
  0
POINT
  5
F4
330
EA
100
AcDbEntity
  8
Defpoints
 62
     0
100
AcDbPoint
 10
-38.48768467149219
 20
3.811074928723895
 30
0.0
  0
POINT
  5
F5
330
EA
100
AcDbEntity
  8
Defpoints
 62
     0
100
AcDbPoint
 10
-38.48768467149219
 20
32.85727329760351
 30
0.0
  0
ENDBLK
  5
EC
330
EA
100
AcDbEntity
  8
0
100
AcDbBlockEnd
  0
BLOCK
  5
FF
330
FE
100
AcDbEntity
  8
0
100
AcDbBlockBegin
  2
_D_2
 70
     0
 10
0.0
 20
0.0
 30
0.0
  3
_D_2
  1
_D_2
  0
LINE
  5
101
330
FE
100
AcDbEntity
  8
치수문자_일반주서
 62
     0
370
    -2
100
AcDbLine
 10
-37.5976846714922
 20
4.763574928723896
 30
0.0
 11
-49.78845750931941
 21
4.76357492872385
 31
0.0
  0
LINE
  5
102
330
FE
100
AcDbEntity
  8
치수문자_일반주서
 62
     0
370
    -2
100
AcDbLine
 10
-37.5976846714922
 20
-4.761425071276109
 30
0.0
 11
-49.78845750931937
 21
-4.761425071276156
 31
0.0
  0
LINE
  5
103
330
FE
100
AcDbEntity
  8
치수문자_일반주서
 62
     0
370
    -2
100
AcDbLine
 10
-49.78845750931939
 20
1.46157492872385
 30
0.0
 11
-49.78845750931939
 21
-1.459425071276156
 31
0.0
  0
SOLID
  5
104
330
FE
100
AcDbEntity
  8
치수문자_일반주서
 62
     0
100
AcDbTrace
 10
-49.23812417598606
 20
1.461574928723852
 30
0.0
 11
-50.33879084265273
 21
1.461574928723848
 31
0.0
 12
-49.78845750931941
 22
4.76357492872385
 32
0.0
 13
-49.78845750931941
 23
4.76357492872385
 33
0.0
  0
SOLID
  5
105
330
FE
100
AcDbEntity
  8
치수문자_일반주서
 62
     0
100
AcDbTrace
 10
-50.33879084265272
 20
-1.459425071276158
 30
0.0
 11
-49.23812417598605
 21
-1.459425071276154
 31
0.0
 12
-49.78845750931937
 22
-4.761425071276156
 32
0.0
 13
-49.78845750931937
 23
-4.761425071276156
 33
0.0
  0
MTEXT
  5
106
330
FE
100
AcDbEntity
  8
치수문자_일반주서
 62
     0
100
AcDbMText
 10
-54.16345750931939
 20
0.0010749287238796
 30
0.0
 40
3.5
 41
0.0
 71
     2
 72
     1
  1
\A1;%%c9.53 [3/8]
  7
SLDTEXTSTYLE0
 11
-3.729883127349605E-15
 21
1.0
 31
0.0
 73
     1
 44
1.0
  0
POINT
  5
107
330
FE
100
AcDbEntity
  8
Defpoints
 62
     0
100
AcDbPoint
 10
-37.5351846714922
 20
4.763574928723896
 30
0.0
  0
POINT
  5
108
330
FE
100
AcDbEntity
  8
Defpoints
 62
     0
100
AcDbPoint
 10
-37.5351846714922
 20
-4.761425071276109
 30
0.0
  0
POINT
  5
109
330
FE
100
AcDbEntity
  8
Defpoints
 62
     0
100
AcDbPoint
 10
-49.78845750931937
 20
-4.761425071276156
 30
0.0
  0
ENDBLK
  5
100
330
FE
100
AcDbEntity
  8
0
100
AcDbBlockEnd
  0
BLOCK
  5
114
330
113
100
AcDbEntity
  8
0
100
AcDbBlockBegin
  2
_D_3
 70
     0
 10
0.0
 20
0.0
 30
0.0
  3
_D_3
  1
_D_3
  0
SOLID
  5
116
330
113
100
AcDbEntity
  8
치수문자_일반주서
100
AcDbTrace
 10
100.0376715928974
 20
12.70107492872389
 30
0.0
 11
99.52967159289743
 21
9.399074928723893
 31
0.0
 12
100.5456715928974
 22
9.399074928723893
 32
0.0
 13
100.5456715928974
 23
9.399074928723893
 33
0.0
  0
SOLID
  5
117
330
113
100
AcDbEntity
  8
치수문자_일반주서
100
AcDbTrace
 10
100.0376715928974
 20
-12.69892507127611
 30
0.0
 11
100.5456715928974
 21
-9.396925071276113
 31
0.0
 12
99.52967159289743
 22
-9.396925071276113
 32
0.0
 13
99.52967159289743
 23
-9.396925071276113
 33
0.0
  0
LINE
  5
118
330
113
100
AcDbEntity
  8
치수문자_일반주서
100
AcDbLine
 10
89.24478987685471
 20
99.56448627543307
 30
0.0
 11
89.24478987685471
 21
98.85354878986857
 31
0.0
  0
LINE
  5
119
330
113
100
AcDbEntity
  8
치수문자_일반주서
100
AcDbLine
 10
89.24478987685471
 20
98.85354878986857
 30
0.0
 11
94.80103986791401
 21
98.85354878986861
 31
0.0
  0
LINE
  5
11A
330
113
100
AcDbEntity
  8
치수문자_일반주서
100
AcDbLine
 10
94.80103986791401
 20
98.85354878986861
 30
0.0
 11
94.80103986791401
 21
99.56448627543311
 31
0.0
  0
LINE
  5
11B
330
113
100
AcDbEntity
  8
치수문자_일반주서
100
AcDbLine
 10
89.24478987685463
 20
110.3932191375703
 30
0.0
 11
89.24478987685463
 21
111.1041566231348
 31
0.0
  0
LINE
  5
11C
330
113
100
AcDbEntity
  8
치수문자_일반주서
100
AcDbLine
 10
89.24478987685463
 20
111.1041566231348
 30
0.0
 11
94.80103986791393
 21
111.1041566231349
 31
0.0
  0
LINE
  5
11D
330
113
100
AcDbEntity
  8
치수문자_일반주서
100
AcDbLine
 10
94.80103986791393
 20
111.1041566231349
 30
0.0
 11
94.80103986791393
 21
110.3932191375704
 31
0.0
  0
LINE
  5
11E
330
113
100
AcDbEntity
  8
치수문자_일반주서
100
AcDbLine
 10
54.53256574320836
 20
12.7010749287239
 30
0.0
 11
101.0376715928974
 21
12.70107492872389
 31
0.0
  0
LINE
  5
11F
330
113
100
AcDbEntity
  8
치수문자_일반주서
100
AcDbLine
 10
54.53256574320836
 20
-12.69892507127611
 30
0.0
 11
101.0376715928974
 21
-12.69892507127611
 31
0.0
  0
LINE
  5
120
330
113
100
AcDbEntity
  8
치수문자_일반주서
100
AcDbLine
 10
100.0376715928974
 20
12.70107492872389
 30
0.0
 11
100.0376715928974
 21
113.4368216493228
 31
0.0
  0
LINE
  5
121
330
113
100
AcDbEntity
  8
치수문자_일반주서
100
AcDbLine
 10
100.0376715928974
 20
12.70107492872389
 30
0.0
 11
100.0376715928974
 21
-12.69892507127611
 31
0.0
  0
MTEXT
  5
122
330
113
100
AcDbEntity
  8
치수문자_일반주서
100
AcDbMText
 10
90.2893029533351
 20
100.4531581760444
 30
0.0
 40
3.5
 41
0.0
 71
     1
 72
     1
  1
1.00
  7
SLDTEXTSTYLE0
 11
-7.044195017643634E-15
 21
1.0
 31
0.0
 73
     1
 44
1.0
  0
MTEXT
  5
123
330
113
100
AcDbEntity
  8
치수문자_일반주서
100
AcDbMText
 10
95.5259345036956
 20
96.52088376368073
 30
0.0
 40
3.5
 41
0.0
 71
     1
 72
     1
  1
%%c
  7
SLDTEXTSTYLE0
 11
-7.044195017643634E-15
 21
1.0
 31
0.0
 73
     1
 44
1.0
  0
MTEXT
  5
124
330
113
100
AcDbEntity
  8
치수문자_일반주서
100
AcDbMText
 10
95.52593450369555
 20
101.7993211620548
 30
0.0
 40
3.5
 41
0.0
 71
     1
 72
     1
  1
25.40
  7
SLDTEXTSTYLE0
 11
-7.044195017643634E-15
 21
1.0
 31
0.0
 73
     1
 44
1.0
  0
ENDBLK
  5
115
330
113
100
AcDbEntity
  8
0
100
AcDbBlockEnd
  0
BLOCK
  5
12D
330
12C
100
AcDbEntity
  8
0
100
AcDbBlockBegin
  2
SW_DOWELSYMBOL_0
 70
     0
 10
0.0
 20
0.0
 30
0.0
  3
SW_DOWELSYMBOL_0
  1
SW_DOWELSYMBOL_0
  0
CIRCLE
  5
12F
330
12C
100
AcDbEntity
  8
해칭선
 62
     0
100
AcDbCircle
 10
0.0
 20
0.0
 30
0.0
 40
3.000000000000001
  0
HATCH
  5
130
330
12C
100
AcDbEntity
  8
0
  6
Continuous
 62
     0
370
     0
100
AcDbHatch
 10
0.0
 20
0.0
 30
0.0
210
0.0
220
0.0
230
1.0
  2
SOLID
 70
     1
 71
     0
 91
        1
 92
        0
 93
        3
 72
     2
 10
0.0
 20
0.0
 40
3.000000000000001
 50
0.0
 51
90.0
 73
     1
 72
     1
 10
0.0
 20
3.000000000000001
 11
0.0
 21
0.0
 72
     1
 10
0.0
 20
0.0
 11
3.000000000000001
 21
0.0
 97
        0
 75
     0
 76
     1
 98
        1
 10
0.0
 20
0.0
  0
HATCH
  5
131
330
12C
100
AcDbEntity
  8
0
  6
Continuous
 62
     0
370
     0
100
AcDbHatch
 10
0.0
 20
0.0
 30
0.0
210
0.0
220
0.0
230
1.0
  2
SOLID
 70
     1
 71
     0
 91
        1
 92
        0
 93
        3
 72
     2
 10
0.0
 20
0.0
 40
3.000000000000001
 50
180.0
 51
270.0000000000007
 73
     1
 72
     1
 10
0.0
 20
-3.000000000000001
 11
0.0
 21
0.0
 72
     1
 10
0.0
 20
0.0
 11
-3.000000000000001
 21
0.0
 97
        0
 75
     0
 76
     1
 98
        1
 10
0.0
 20
0.0
  0
ENDBLK
  5
12E
330
12C
100
AcDbEntity
  8
0
100
AcDbBlockEnd
  0
BLOCK
  5
1F1
330
1F0
100
AcDbEntity
  8
0
100
AcDbBlockBegin
  2
*D7
 70
     1
 10
0.0
 20
0.0
 30
0.0
  3
*D7
  1
*D8
  0
LINE
  5
1F2
330
1F0
100
AcDbEntity
  8
치수문자_일반주서
 62
     0
370
    -2
100
AcDbLine
 10
95.11327283782728
 20
15.82187500000002
 30
0.0
 11
114.6984581990279
 21
15.82187500000002
 31
0.0
  0
LINE
  5
1F3
330
1F0
100
AcDbEntity
  8
치수문자_일반주서
 62
     0
370
    -2
100
AcDbLine
 10
95.11327283782728
 20
8.678125000000017
 30
0.0
 11
114.6984581990279
 21
8.678125000000016
 31
0.0
  0
LINE
  5
1F4
330
1F0
100
AcDbEntity
  8
치수문자_일반주서
 62
     0
370
    -2
100
AcDbLine
 10
114.6984581990279
 20
15.82187500000002
 30
0.0
 11
114.6984581990279
 21
47.85023975661525
 31
0.0
  0
LINE
  5
1F5
330
1F0
100
AcDbEntity
  8
치수문자_일반주서
 62
     0
370
    -2
100
AcDbLine
 10
114.6984581990279
 20
15.82187500000002
 30
0.0
 11
114.6984581990279
 21
8.678125000000016
 31
0.0
  0
LINE
  5
1F6
330
1F0
100
AcDbEntity
  8
치수문자_일반주서
 62
     0
370
    -2
100
AcDbLine
 10
114.6984581990279
 20
19.12387500000002
 30
0.0
 11
114.6984581990279
 21
22.42587500000002
 31
0.0
  0
LINE
  5
1F7
330
1F0
100
AcDbEntity
  8
치수문자_일반주서
 62
     0
370
    -2
100
AcDbLine
 10
114.6984581990279
 20
5.376125000000016
 30
0.0
 11
114.6984581990279
 21
2.074125000000016
 31
0.0
  0
SOLID
  5
1F8
330
1F0
100
AcDbEntity
  8
치수문자_일반주서
 62
     0
100
AcDbTrace
 10
114.1481248656945
 20
19.12387500000002
 30
0.0
 11
115.2487915323612
 21
19.12387500000002
 31
0.0
 12
114.6984581990279
 22
15.82187500000002
 32
0.0
 13
114.6984581990279
 23
15.82187500000002
 33
0.0
  0
SOLID
  5
1F9
330
1F0
100
AcDbEntity
  8
치수문자_일반주서
 62
     0
100
AcDbTrace
 10
115.2487915323612
 20
5.376125000000016
 30
0.0
 11
114.1481248656945
 21
5.376125000000016
 31
0.0
 12
114.6984581990279
 22
8.678125000000016
 32
0.0
 13
114.6984581990279
 23
8.678125000000016
 33
0.0
  0
MTEXT
  5
1FA
330
1F0
100
AcDbEntity
  8
치수문자_일반주서
 62
     0
100
AcDbMText
 10
112.0734581990279
 20
35.16273975661525
 30
0.0
 40
3.5
 41
0.0
 71
     5
 72
     1
  1
\A1;7.14 [9/32]
  7
SLDTEXTSTYLE0
 11
0.0
 21
1.0
 31
0.0
 73
     1
 44
1.0
  0
POINT
  5
1FB
330
1F0
100
AcDbEntity
  8
Defpoints
 62
     0
100
AcDbPoint
 10
95.05077283782728
 20
15.82187500000002
 30
0.0
  0
POINT
  5
1FC
330
1F0
100
AcDbEntity
  8
Defpoints
 62
     0
100
AcDbPoint
 10
95.05077283782728
 20
8.678125000000017
 30
0.0
  0
POINT
  5
1FD
330
1F0
100
AcDbEntity
  8
Defpoints
 62
     0
100
AcDbPoint
 10
114.6984581990279
 20
8.678125000000016
 30
0.0
  0
ENDBLK
  5
1FE
330
1F0
100
AcDbEntity
  8
0
100
AcDbBlockEnd
  0
BLOCK
  5
206
330
205
100
AcDbEntity
  8
0
100
AcDbBlockBegin
  2
*D8
 70
     1
 10
0.0
 20
0.0
 30
0.0
  3
*D8
  1
*D9
  0
LINE
  5
208
330
205
100
AcDbEntity
  8
치수문자_일반주서
 62
     0
370
    -2
100
AcDbLine
 10
95.05077283782725
 20
15.88437500000002
 30
0.0
 11
95.05077283782725
 21
29.82417777351454
 31
0.0
  0
LINE
  5
209
330
205
100
AcDbEntity
  8
치수문자_일반주서
 62
     0
370
    -2
100
AcDbLine
 10
60.12577283782724
 20
15.81302137042837
 30
0.0
 11
60.12577283782724
 21
29.82417777351454
 31
0.0
  0
LINE
  5
20A
330
205
100
AcDbEntity
  8
치수문자_일반주서
 62
     0
370
    -2
100
AcDbLine
 10
60.12577283782724
 20
29.82417777351454
 30
0.0
 11
22.89677283782724
 21
29.82417777351454
 31
0.0
  0
LINE
  5
20B
330
205
100
AcDbEntity
  8
치수문자_일반주서
 62
     0
370
    -2
100
AcDbLine
 10
95.05077283782725
 20
29.82417777351454
 30
0.0
 11
60.12577283782724
 21
29.82417777351454
 31
0.0
  0
LINE
  5
20C
330
205
100
AcDbEntity
  8
치수문자_일반주서
 62
     0
370
    -2
100
AcDbLine
 10
98.35277283782725
 20
29.82417777351454
 30
0.0
 11
101.6547728378272
 21
29.82417777351454
 31
0.0
  0
LINE
  5
20D
330
205
100
AcDbEntity
  8
치수문자_일반주서
 62
     0
370
    -2
100
AcDbLine
 10
56.82377283782724
 20
29.82417777351454
 30
0.0
 11
53.52177283782724
 21
29.82417777351454
 31
0.0
  0
SOLID
  5
20E
330
205
100
AcDbEntity
  8
치수문자_일반주서
 62
     0
100
AcDbTrace
 10
98.35277283782725
 20
30.37451110684788
 30
0.0
 11
98.35277283782725
 21
29.27384444018121
 31
0.0
 12
95.05077283782725
 22
29.82417777351454
 32
0.0
 13
95.05077283782725
 23
29.82417777351454
 33
0.0
  0
SOLID
  5
20F
330
205
100
AcDbEntity
  8
치수문자_일반주서
 62
     0
100
AcDbTrace
 10
56.82377283782724
 20
29.27384444018121
 30
0.0
 11
56.82377283782724
 21
30.37451110684788
 31
0.0
 12
60.12577283782724
 22
29.82417777351454
 32
0.0
 13
60.12577283782724
 23
29.82417777351454
 33
0.0
  0
MTEXT
  5
210
330
205
100
AcDbEntity
  8
치수문자_일반주서
 62
     0
100
AcDbMText
 10
38.20927283782724
 20
34.19917777351454
 30
0.0
 40
3.5
 41
0.0
 71
     2
 72
     1
  1
\A1;34.93 [1 3/8]
  7
SLDTEXTSTYLE0
 73
     1
 44
1.0
  0
POINT
  5
211
330
205
100
AcDbEntity
  8
Defpoints
 62
     0
100
AcDbPoint
 10
95.05077283782725
 20
15.82187500000002
 30
0.0
  0
POINT
  5
212
330
205
100
AcDbEntity
  8
Defpoints
 62
     0
100
AcDbPoint
 10
60.12577283782724
 20
15.75052137042837
 30
0.0
  0
POINT
  5
213
330
205
100
AcDbEntity
  8
Defpoints
 62
     0
100
AcDbPoint
 10
60.12577283782724
 20
29.82417777351454
 30
0.0
  0
ENDBLK
  5
207
330
205
100
AcDbEntity
  8
0
100
AcDbBlockEnd
  0
BLOCK
  5
215
330
214
100
AcDbEntity
  8
0
100
AcDbBlockBegin
  2
*D9
 70
     1
 10
0.0
 20
0.0
 30
0.0
  3
*D9
  1
*D10
  0
LINE
  5
217
330
214
100
AcDbEntity
  8
치수문자_일반주서
 62
     0
370
    -2
100
AcDbLine
 10
95.05077283782725
 20
15.88437500000002
 30
0.0
 11
95.05077283782725
 21
44.71078284036683
 31
0.0
  0
LINE
  5
218
330
214
100
AcDbEntity
  8
치수문자_일반주서
 62
     0
370
    -2
100
AcDbLine
 10
15.67577283782725
 20
16.12250000000001
 30
0.0
 11
15.67577283782725
 21
44.71078284036683
 31
0.0
  0
LINE
  5
219
330
214
100
AcDbEntity
  8
치수문자_일반주서
 62
     0
370
    -2
100
AcDbLine
 10
91.74877283782726
 20
44.71078284036683
 30
0.0
 11
18.97777283782725
 21
44.71078284036683
 31
0.0
  0
SOLID
  5
21A
330
214
100
AcDbEntity
  8
치수문자_일반주서
 62
     0
100
AcDbTrace
 10
91.74877283782726
 20
44.16044950703349
 30
0.0
 11
91.74877283782726
 21
45.26111617370016
 31
0.0
 12
95.05077283782725
 22
44.71078284036683
 32
0.0
 13
95.05077283782725
 23
44.71078284036683
 33
0.0
  0
SOLID
  5
21B
330
214
100
AcDbEntity
  8
치수문자_일반주서
 62
     0
100
AcDbTrace
 10
18.97777283782725
 20
45.26111617370016
 30
0.0
 11
18.97777283782725
 21
44.16044950703349
 31
0.0
 12
15.67577283782725
 22
44.71078284036683
 32
0.0
 13
15.67577283782725
 23
44.71078284036683
 33
0.0
  0
MTEXT
  5
21C
330
214
100
AcDbEntity
  8
치수문자_일반주서
 62
     0
100
AcDbMText
 10
55.36327283782725
 20
49.08578284036683
 30
0.0
 40
3.5
 41
0.0
 71
     2
 72
     1
  1
\A1;79.38 [3 1/8]
  7
SLDTEXTSTYLE0
 73
     1
 44
1.0
  0
POINT
  5
21D
330
214
100
AcDbEntity
  8
Defpoints
 62
     0
100
AcDbPoint
 10
95.05077283782725
 20
15.82187500000002
 30
0.0
  0
POINT
  5
21E
330
214
100
AcDbEntity
  8
Defpoints
 62
     0
100
AcDbPoint
 10
15.67577283782725
 20
16.06000000000001
 30
0.0
  0
POINT
  5
21F
330
214
100
AcDbEntity
  8
Defpoints
 62
     0
100
AcDbPoint
 10
15.67577283782725
 20
44.71078284036683
 30
0.0
  0
ENDBLK
  5
216
330
214
100
AcDbEntity
  8
0
100
AcDbBlockEnd
  0
BLOCK
  5
221
330
220
100
AcDbEntity
  8
0
100
AcDbBlockBegin
  2
*D10
 70
     1
 10
0.0
 20
0.0
 30
0.0
  3
*D10
  1
*D11
  0
LINE
  5
223
330
220
100
AcDbEntity
  8
치수문자_일반주서
 62
     0
370
    -2
100
AcDbLine
 10
16.56577283782724
 20
17.01250000000001
 30
0.0
 11
4.375000000000027
 21
17.01249999999997
 31
0.0
  0
LINE
  5
224
330
220
100
AcDbEntity
  8
치수문자_일반주서
 62
     0
370
    -2
100
AcDbLine
 10
16.56577283782724
 20
7.487500000000008
 30
0.0
 11
4.37500000000006
 21
7.487499999999962
 31
0.0
  0
LINE
  5
225
330
220
100
AcDbEntity
  8
치수문자_일반주서
 62
     0
370
    -2
100
AcDbLine
 10
4.375000000000038
 20
13.71049999999997
 30
0.0
 11
4.375000000000048
 21
10.78949999999996
 31
0.0
  0
SOLID
  5
226
330
220
100
AcDbEntity
  8
치수문자_일반주서
 62
     0
100
AcDbTrace
 10
4.925333333333372
 20
13.71049999999997
 30
0.0
 11
3.824666666666705
 21
13.71049999999997
 31
0.0
 12
4.375000000000027
 22
17.01249999999997
 32
0.0
 13
4.375000000000027
 23
17.01249999999997
 33
0.0
  0
SOLID
  5
227
330
220
100
AcDbEntity
  8
치수문자_일반주서
 62
     0
100
AcDbTrace
 10
3.824666666666715
 20
10.78949999999996
 30
0.0
 11
4.925333333333382
 21
10.78949999999996
 31
0.0
 12
4.37500000000006
 22
7.487499999999962
 32
0.0
 13
4.37500000000006
 23
7.487499999999962
 33
0.0
  0
MTEXT
  5
228
330
220
100
AcDbEntity
  8
치수문자_일반주서
 62
     0
100
AcDbMText
 10
0.0000000000000426
 20
12.25
 30
0.0
 40
3.5
 41
0.0
 71
     2
 72
     1
  1
\A1;%%c9.53 [3/8]
  7
SLDTEXTSTYLE0
 11
-3.450141892798385E-15
 21
1.0
 31
0.0
 73
     1
 44
1.0
  0
POINT
  5
229
330
220
100
AcDbEntity
  8
Defpoints
 62
     0
100
AcDbPoint
 10
16.62827283782724
 20
17.01250000000001
 30
0.0
  0
POINT
  5
22A
330
220
100
AcDbEntity
  8
Defpoints
 62
     0
100
AcDbPoint
 10
16.62827283782724
 20
7.487500000000008
 30
0.0
  0
POINT
  5
22B
330
220
100
AcDbEntity
  8
Defpoints
 62
     0
100
AcDbPoint
 10
4.375000000000064
 20
7.487499999999962
 30
0.0
  0
ENDBLK
  5
222
330
220
100
AcDbEntity
  8
0
100
AcDbBlockEnd
  0
BLOCK
  5
272
330
271
100
AcDbEntity
  8
0
100
AcDbBlockBegin
  2
*D11
 70
     1
 10
0.0
 20
0.0
 30
0.0
  3
*D11
  1
*D12
  0
LINE
  5
274
330
271
100
AcDbEntity
  8
치수문자_일반주서
 62
     0
370
    -2
100
AcDbLine
 10
196.6496292191848
 20
-40.50147111246594
 30
0.0
 11
196.6496292191848
 21
-26.56166833895141
 31
0.0
  0
LINE
  5
275
330
271
100
AcDbEntity
  8
치수문자_일반주서
 62
     0
370
    -2
100
AcDbLine
 10
161.7246292191848
 20
-40.57282474203758
 30
0.0
 11
161.7246292191848
 21
-26.56166833895141
 31
0.0
  0
LINE
  5
276
330
271
100
AcDbEntity
  8
치수문자_일반주서
 62
     0
370
    -2
100
AcDbLine
 10
161.7246292191848
 20
-26.56166833895141
 30
0.0
 11
124.4956292191848
 21
-26.56166833895141
 31
0.0
  0
LINE
  5
277
330
271
100
AcDbEntity
  8
치수문자_일반주서
 62
     0
370
    -2
100
AcDbLine
 10
196.6496292191848
 20
-26.56166833895141
 30
0.0
 11
161.7246292191848
 21
-26.56166833895141
 31
0.0
  0
LINE
  5
278
330
271
100
AcDbEntity
  8
치수문자_일반주서
 62
     0
370
    -2
100
AcDbLine
 10
199.9516292191848
 20
-26.56166833895141
 30
0.0
 11
203.2536292191848
 21
-26.56166833895141
 31
0.0
  0
LINE
  5
279
330
271
100
AcDbEntity
  8
치수문자_일반주서
 62
     0
370
    -2
100
AcDbLine
 10
158.4226292191848
 20
-26.56166833895141
 30
0.0
 11
155.1206292191848
 21
-26.56166833895141
 31
0.0
  0
SOLID
  5
27A
330
271
100
AcDbEntity
  8
치수문자_일반주서
 62
     0
100
AcDbTrace
 10
199.9516292191848
 20
-26.01133500561808
 30
0.0
 11
199.9516292191848
 21
-27.11200167228475
 31
0.0
 12
196.6496292191848
 22
-26.56166833895141
 32
0.0
 13
196.6496292191848
 23
-26.56166833895141
 33
0.0
  0
SOLID
  5
27B
330
271
100
AcDbEntity
  8
치수문자_일반주서
 62
     0
100
AcDbTrace
 10
158.4226292191848
 20
-27.11200167228475
 30
0.0
 11
158.4226292191848
 21
-26.01133500561808
 31
0.0
 12
161.7246292191848
 22
-26.56166833895141
 32
0.0
 13
161.7246292191848
 23
-26.56166833895141
 33
0.0
  0
MTEXT
  5
27C
330
271
100
AcDbEntity
  8
치수문자_일반주서
 62
     0
100
AcDbMText
 10
139.8081292191848
 20
-22.18666833895141
 30
0.0
 40
3.5
 41
0.0
 71
     2
 72
     1
  1
\A1;34.93 [1 3/8]
  7
SLDTEXTSTYLE0
 73
     1
 44
1.0
  0
POINT
  5
27D
330
271
100
AcDbEntity
  8
Defpoints
 62
     0
100
AcDbPoint
 10
196.6496292191848
 20
-40.56397111246594
 30
0.0
  0
POINT
  5
27E
330
271
100
AcDbEntity
  8
Defpoints
 62
     0
100
AcDbPoint
 10
161.7246292191848
 20
-40.63532474203758
 30
0.0
  0
POINT
  5
27F
330
271
100
AcDbEntity
  8
Defpoints
 62
     0
100
AcDbPoint
 10
161.7246292191848
 20
-26.56166833895141
 30
0.0
  0
ENDBLK
  5
273
330
271
100
AcDbEntity
  8
0
100
AcDbBlockEnd
  0
BLOCK
  5
281
330
280
100
AcDbEntity
  8
0
100
AcDbBlockBegin
  2
*D12
 70
     1
 10
0.0
 20
0.0
 30
0.0
  3
*D12
  1
*D13
  0
LINE
  5
283
330
280
100
AcDbEntity
  8
치수문자_일반주서
 62
     0
370
    -2
100
AcDbLine
 10
196.6496292191848
 20
-40.50147111246594
 30
0.0
 11
196.6496292191848
 21
-11.67506327209913
 31
0.0
  0
LINE
  5
284
330
280
100
AcDbEntity
  8
치수문자_일반주서
 62
     0
370
    -2
100
AcDbLine
 10
117.2746292191848
 20
-40.26334611246594
 30
0.0
 11
117.2746292191848
 21
-11.67506327209913
 31
0.0
  0
LINE
  5
285
330
280
100
AcDbEntity
  8
치수문자_일반주서
 62
     0
370
    -2
100
AcDbLine
 10
193.3476292191849
 20
-11.67506327209913
 30
0.0
 11
120.5766292191848
 21
-11.67506327209913
 31
0.0
  0
SOLID
  5
286
330
280
100
AcDbEntity
  8
치수문자_일반주서
 62
     0
100
AcDbTrace
 10
193.3476292191849
 20
-12.22539660543246
 30
0.0
 11
193.3476292191849
 21
-11.1247299387658
 31
0.0
 12
196.6496292191848
 22
-11.67506327209913
 32
0.0
 13
196.6496292191848
 23
-11.67506327209913
 33
0.0
  0
SOLID
  5
287
330
280
100
AcDbEntity
  8
치수문자_일반주서
 62
     0
100
AcDbTrace
 10
120.5766292191848
 20
-11.1247299387658
 30
0.0
 11
120.5766292191848
 21
-12.22539660543246
 31
0.0
 12
117.2746292191848
 22
-11.67506327209913
 32
0.0
 13
117.2746292191848
 23
-11.67506327209913
 33
0.0
  0
MTEXT
  5
288
330
280
100
AcDbEntity
  8
치수문자_일반주서
 62
     0
100
AcDbMText
 10
156.9621292191848
 20
-7.300063272099131
 30
0.0
 40
3.5
 41
0.0
 71
     2
 72
     1
  1
\A1;79.38 [3 1/8]
  7
SLDTEXTSTYLE0
 73
     1
 44
1.0
  0
POINT
  5
289
330
280
100
AcDbEntity
  8
Defpoints
 62
     0
100
AcDbPoint
 10
196.6496292191848
 20
-40.56397111246594
 30
0.0
  0
POINT
  5
28A
330
280
100
AcDbEntity
  8
Defpoints
 62
     0
100
AcDbPoint
 10
117.2746292191848
 20
-40.32584611246594
 30
0.0
  0
POINT
  5
28B
330
280
100
AcDbEntity
  8
Defpoints
 62
     0
100
AcDbPoint
 10
117.2746292191848
 20
-11.67506327209913
 30
0.0
  0
ENDBLK
  5
282
330
280
100
AcDbEntity
  8
0
100
AcDbBlockEnd
  0
BLOCK
  5
28D
330
28C
100
AcDbEntity
  8
0
100
AcDbBlockBegin
  2
*D13
 70
     1
 10
0.0
 20
0.0
 30
0.0
  3
*D13
  1
*D14
  0
LINE
  5
28F
330
28C
100
AcDbEntity
  8
치수문자_일반주서
 62
     0
370
    -2
100
AcDbLine
 10
118.1646292191848
 20
-39.37334611246594
 30
0.0
 11
105.9738563813576
 21
-39.37334611246598
 31
0.0
  0
LINE
  5
290
330
28C
100
AcDbEntity
  8
치수문자_일반주서
 62
     0
370
    -2
100
AcDbLine
 10
118.1646292191848
 20
-48.89834611246594
 30
0.0
 11
105.9738563813576
 21
-48.89834611246599
 31
0.0
  0
LINE
  5
291
330
28C
100
AcDbEntity
  8
치수문자_일반주서
 62
     0
370
    -2
100
AcDbLine
 10
105.9738563813576
 20
-42.67534611246598
 30
0.0
 11
105.9738563813576
 21
-45.59634611246599
 31
0.0
  0
SOLID
  5
292
330
28C
100
AcDbEntity
  8
치수문자_일반주서
 62
     0
100
AcDbTrace
 10
106.524189714691
 20
-42.67534611246598
 30
0.0
 11
105.4235230480243
 21
-42.67534611246598
 31
0.0
 12
105.9738563813576
 22
-39.37334611246598
 32
0.0
 13
105.9738563813576
 23
-39.37334611246598
 33
0.0
  0
SOLID
  5
293
330
28C
100
AcDbEntity
  8
치수문자_일반주서
 62
     0
100
AcDbTrace
 10
105.4235230480243
 20
-45.59634611246599
 30
0.0
 11
106.524189714691
 21
-45.59634611246599
 31
0.0
 12
105.9738563813576
 22
-48.89834611246599
 32
0.0
 13
105.9738563813576
 23
-48.89834611246599
 33
0.0
  0
MTEXT
  5
294
330
28C
100
AcDbEntity
  8
치수문자_일반주서
 62
     0
100
AcDbMText
 10
101.5988563813576
 20
-44.13584611246596
 30
0.0
 40
3.5
 41
0.0
 71
     2
 72
     1
  1
\A1;%%c9.53 [3/8]
  7
SLDTEXTSTYLE0
 11
-2.983906501879684E-15
 21
1.0
 31
0.0
 73
     1
 44
1.0
  0
POINT
  5
295
330
28C
100
AcDbEntity
  8
Defpoints
 62
     0
100
AcDbPoint
 10
118.2271292191848
 20
-39.37334611246594
 30
0.0
  0
POINT
  5
296
330
28C
100
AcDbEntity
  8
Defpoints
 62
     0
100
AcDbPoint
 10
118.2271292191848
 20
-48.89834611246594
 30
0.0
  0
POINT
  5
297
330
28C
100
AcDbEntity
  8
Defpoints
 62
     0
100
AcDbPoint
 10
105.9738563813576
 20
-48.89834611246599
 30
0.0
  0
ENDBLK
  5
28E
330
28C
100
AcDbEntity
  8
0
100
AcDbBlockEnd
  0
BLOCK
  5
299
330
298
100
AcDbEntity
  8
0
100
AcDbBlockBegin
  2
*D14
 70
     1
 10
0.0
 20
0.0
 30
0.0
  3
*D14
  1
*D15
  0
LINE
  5
29B
330
298
100
AcDbEntity
  8
치수문자_일반주서
 62
     0
370
    -2
100
AcDbLine
 10
196.7121292191849
 20
-40.56397111246594
 30
0.0
 11
216.2973145803855
 21
-40.56397111246594
 31
0.0
  0
LINE
  5
29C
330
298
100
AcDbEntity
  8
치수문자_일반주서
 62
     0
370
    -2
100
AcDbLine
 10
196.7121292191849
 20
-47.70772111246594
 30
0.0
 11
216.2973145803855
 21
-47.70772111246594
 31
0.0
  0
LINE
  5
29D
330
298
100
AcDbEntity
  8
치수문자_일반주서
 62
     0
370
    -2
100
AcDbLine
 10
216.2973145803855
 20
-40.56397111246594
 30
0.0
 11
216.2973145803855
 21
-8.53560635585071
 31
0.0
  0
LINE
  5
29E
330
298
100
AcDbEntity
  8
치수문자_일반주서
 62
     0
370
    -2
100
AcDbLine
 10
216.2973145803855
 20
-40.56397111246594
 30
0.0
 11
216.2973145803855
 21
-47.70772111246594
 31
0.0
  0
LINE
  5
29F
330
298
100
AcDbEntity
  8
치수문자_일반주서
 62
     0
370
    -2
100
AcDbLine
 10
216.2973145803855
 20
-37.26197111246594
 30
0.0
 11
216.2973145803855
 21
-33.95997111246594
 31
0.0
  0
LINE
  5
2A0
330
298
100
AcDbEntity
  8
치수문자_일반주서
 62
     0
370
    -2
100
AcDbLine
 10
216.2973145803855
 20
-51.00972111246594
 30
0.0
 11
216.2973145803855
 21
-54.31172111246594
 31
0.0
  0
SOLID
  5
2A1
330
298
100
AcDbEntity
  8
치수문자_일반주서
 62
     0
100
AcDbTrace
 10
215.7469812470521
 20
-37.26197111246594
 30
0.0
 11
216.8476479137188
 21
-37.26197111246594
 31
0.0
 12
216.2973145803855
 22
-40.56397111246594
 32
0.0
 13
216.2973145803855
 23
-40.56397111246594
 33
0.0
  0
SOLID
  5
2A2
330
298
100
AcDbEntity
  8
치수문자_일반주서
 62
     0
100
AcDbTrace
 10
216.8476479137188
 20
-51.00972111246594
 30
0.0
 11
215.7469812470521
 21
-51.00972111246594
 31
0.0
 12
216.2973145803855
 22
-47.70772111246594
 32
0.0
 13
216.2973145803855
 23
-47.70772111246594
 33
0.0
  0
MTEXT
  5
2A3
330
298
100
AcDbEntity
  8
치수문자_일반주서
 62
     0
100
AcDbMText
 10
213.6723145803855
 20
-21.22310635585071
 30
0.0
 40
3.5
 41
0.0
 71
     5
 72
     1
  1
\A1;7.14 [9/32]
  7
SLDTEXTSTYLE0
 11
0.0
 21
1.0
 31
0.0
 73
     1
 44
1.0
  0
POINT
  5
2A4
330
298
100
AcDbEntity
  8
Defpoints
 62
     0
100
AcDbPoint
 10
196.6496292191849
 20
-40.56397111246594
 30
0.0
  0
POINT
  5
2A5
330
298
100
AcDbEntity
  8
Defpoints
 62
     0
100
AcDbPoint
 10
196.6496292191849
 20
-47.70772111246594
 30
0.0
  0
POINT
  5
2A6
330
298
100
AcDbEntity
  8
Defpoints
 62
     0
100
AcDbPoint
 10
216.2973145803855
 20
-47.70772111246594
 30
0.0
  0
ENDBLK
  5
29A
330
298
100
AcDbEntity
  8
0
100
AcDbBlockEnd
  0
BLOCK
  5
2AB
330
2AA
100
AcDbEntity
  8
0
100
AcDbBlockBegin
  2
*D15
 70
     1
 10
0.0
 20
0.0
 30
0.0
  3
*D15
  1
*D16
  0
LINE
  5
2AD
330
2AA
100
AcDbEntity
  8
치수문자_일반주서
 62
     0
370
    -2
100
AcDbLine
 10
40.94981532850781
 20
3.969824928723899
 30
0.0
 11
63.4204467273029
 21
3.969824928723899
 31
0.0
  0
LINE
  5
2AE
330
2AA
100
AcDbEntity
  8
치수문자_일반주서
 62
     0
370
    -2
100
AcDbLine
 10
40.94981532850781
 20
-3.967675071276101
 30
0.0
 11
63.4204467273029
 21
-3.967675071276101
 31
0.0
  0
LINE
  5
2AF
330
2AA
100
AcDbEntity
  8
치수문자_일반주서
 62
     0
370
    -2
100
AcDbLine
 10
63.4204467273029
 20
3.969824928723899
 30
0.0
 11
63.4204467273029
 21
42.75827703167123
 31
0.0
  0
LINE
  5
2B0
330
2AA
100
AcDbEntity
  8
치수문자_일반주서
 62
     0
370
    -2
100
AcDbLine
 10
63.4204467273029
 20
3.969824928723899
 30
0.0
 11
63.4204467273029
 21
-3.967675071276101
 31
0.0
  0
LINE
  5
2B1
330
2AA
100
AcDbEntity
  8
치수문자_일반주서
 62
     0
370
    -2
100
AcDbLine
 10
63.4204467273029
 20
7.271824928723898
 30
0.0
 11
63.4204467273029
 21
10.5738249287239
 31
0.0
  0
LINE
  5
2B2
330
2AA
100
AcDbEntity
  8
치수문자_일반주서
 62
     0
370
    -2
100
AcDbLine
 10
63.4204467273029
 20
-7.269675071276101
 30
0.0
 11
63.4204467273029
 21
-10.5716750712761
 31
0.0
  0
SOLID
  5
2B3
330
2AA
100
AcDbEntity
  8
치수문자_일반주서
 62
     0
100
AcDbTrace
 10
62.87011339396957
 20
7.271824928723898
 30
0.0
 11
63.97078006063624
 21
7.271824928723898
 31
0.0
 12
63.4204467273029
 22
3.969824928723899
 32
0.0
 13
63.4204467273029
 23
3.969824928723899
 33
0.0
  0
SOLID
  5
2B4
330
2AA
100
AcDbEntity
  8
치수문자_일반주서
 62
     0
100
AcDbTrace
 10
63.97078006063624
 20
-7.269675071276101
 30
0.0
 11
62.87011339396957
 21
-7.269675071276101
 31
0.0
 12
63.4204467273029
 22
-3.967675071276101
 32
0.0
 13
63.4204467273029
 23
-3.967675071276101
 33
0.0
  0
MTEXT
  5
2B5
330
2AA
100
AcDbEntity
  8
치수문자_일반주서
 62
     0
100
AcDbMText
 10
60.7954467273029
 20
30.07077703167123
 30
0.0
 40
3.5
 41
0.0
 71
     5
 72
     1
  1
\A1;7.94 [5/16]
  7
SLDTEXTSTYLE0
 11
0.0
 21
1.0
 31
0.0
 73
     1
 44
1.0
  0
POINT
  5
2B6
330
2AA
100
AcDbEntity
  8
Defpoints
 62
     0
100
AcDbPoint
 10
40.88731532850781
 20
3.969824928723899
 30
0.0
  0
POINT
  5
2B7
330
2AA
100
AcDbEntity
  8
Defpoints
 62
     0
100
AcDbPoint
 10
40.88731532850781
 20
-3.967675071276101
 30
0.0
  0
POINT
  5
2B9
330
2AA
100
AcDbEntity
  8
Defpoints
 62
     0
100
AcDbPoint
 10
63.4204467273029
 20
-3.967675071276102
 30
0.0
  0
ENDBLK
  5
2AC
330
2AA
100
AcDbEntity
  8
0
100
AcDbBlockEnd
  0
ENDSEC
  0
SECTION
  2
ENTITIES
  0
LINE
  5
96
330
1F
100
AcDbEntity
  8
외형선
  6
Continuous
370
    15
100
AcDbLine
 10
1.999999999999996
 20
-4.761425071276113
 30
0.0
 11
4.962315328507808
 21
-3.967675071276107
 31
0.0
  0
LINE
  5
97
330
1F
100
AcDbEntity
  8
외형선
  6
Continuous
370
    15
100
AcDbLine
 10
4.962315328507808
 20
3.969824928723893
 30
0.0
 11
1.999999999999996
 21
4.7635749287239
 31
0.0
  0
LINE
  5
98
330
1F
100
AcDbEntity
  8
외형선
  6
Continuous
370
    15
100
AcDbLine
 10
-37.5351846714922
 20
-4.761425071276109
 30
0.0
 11
1.999999999999996
 21
-4.761425071276109
 31
0.0
  0
LINE
  5
99
330
1F
100
AcDbEntity
  8
외형선
  6
Continuous
370
    15
100
AcDbLine
 10
1.999999999999996
 20
4.763574928723896
 30
0.0
 11
-13.80523467149208
 21
4.763574928723896
 31
0.0
  0
LINE
  5
9A
330
1F
100
AcDbEntity
  8
외형선
  6
Continuous
370
    15
100
AcDbLine
 10
-37.5351846714922
 20
4.763574928723893
 30
0.0
 11
-38.48768467149219
 21
3.811074928723895
 31
0.0
  0
LINE
  5
9B
330
1F
100
AcDbEntity
  8
외형선
  6
Continuous
370
    15
100
AcDbLine
 10
-38.48768467149219
 20
-3.808925071276108
 30
0.0
 11
-37.5351846714922
 21
-4.761425071276106
 31
0.0
  0
LINE
  5
9C
330
1F
100
AcDbEntity
  8
외형선
  6
Continuous
370
    15
100
AcDbLine
 10
4.962315328507808
 20
-3.967675071276107
 30
0.0
 11
5.462440691859973
 21
-3.967675071276107
 31
0.0
  0
LINE
  5
9D
330
1F
100
AcDbEntity
  8
외형선
  6
Continuous
370
    15
100
AcDbLine
 10
5.462440691859973
 20
3.969824928723893
 30
0.0
 11
4.962315328507808
 21
3.969824928723893
 31
0.0
  0
LINE
  5
9E
330
1F
100
AcDbEntity
  8
0
  6
Continuous
 62
     1
370
    15
100
AcDbLine
 10
30.6796442897253
 20
-3.967675071276109
 30
0.0
 11
33.09993642800672
 21
-3.967675071276109
 31
0.0
  0
LINE
  5
9F
330
1F
100
AcDbEntity
  8
0
  6
Continuous
 62
     1
370
    15
100
AcDbLine
 10
11.5030402621563
 20
3.969824928723895
 30
0.0
 11
9.083660648374503
 21
3.969824928723895
 31
0.0
  0
LINE
  5
A0
330
1F
100
AcDbEntity
  8
0
  6
Continuous
 62
     1
370
    15
100
AcDbLine
 10
22.30070830706354
 20
3.969824928723895
 30
0.0
 11
19.88233862846634
 21
3.969824928723895
 31
0.0
  0
LINE
  5
A1
330
1F
100
AcDbEntity
  8
0
  6
Continuous
 62
     1
370
    15
100
AcDbLine
 10
19.88233862846635
 20
-3.967675071276109
 30
0.0
 11
22.30070830706349
 21
-3.967675071276109
 31
0.0
  0
LINE
  5
A2
330
1F
100
AcDbEntity
  8
0
  6
Continuous
 62
     1
370
    15
100
AcDbLine
 10
9.083660648374495
 20
-3.967675071276109
 30
0.0
 11
11.50304026215628
 21
-3.967675071276109
 31
0.0
  0
LINE
  5
A3
330
1F
100
AcDbEntity
  8
0
  6
Continuous
 62
     1
370
    15
100
AcDbLine
 10
33.09993642800672
 20
3.969824928723895
 30
0.0
 11
30.67964428972536
 21
3.969824928723895
 31
0.0
  0
LINE
  5
A4
330
1F
100
AcDbEntity
  8
외형선
  6
Continuous
370
    15
100
AcDbLine
 10
4.962315328507808
 20
0.0010749287238931
 30
0.0
 11
4.962315328507808
 21
3.969824928723893
 31
0.0
  0
LINE
  5
A5
330
1F
100
AcDbEntity
  8
외형선
  6
Continuous
370
    15
100
AcDbLine
 10
4.962315328507808
 20
-3.967675071276107
 30
0.0
 11
4.962315328507808
 21
0.0010749287238931
 31
0.0
  0
LINE
  5
A6
330
1F
100
AcDbEntity
  8
외형선
  6
Continuous
370
    15
100
AcDbLine
 10
1.999999999999996
 20
0.0010749287238931
 30
0.0
 11
1.999999999999996
 21
4.7635749287239
 31
0.0
  0
LINE
  5
A7
330
1F
100
AcDbEntity
  8
외형선
  6
Continuous
370
    15
100
AcDbLine
 10
1.999999999999996
 20
-4.761425071276113
 30
0.0
 11
1.999999999999996
 21
0.0010749287238931
 31
0.0
  0
LINE
  5
A8
330
1F
100
AcDbEntity
  8
외형선
  6
Continuous
370
    15
100
AcDbLine
 10
-37.5351846714922
 20
0.0010749287238931
 30
0.0
 11
-37.5351846714922
 21
4.763574928723896
 31
0.0
  0
LINE
  5
A9
330
1F
100
AcDbEntity
  8
외형선
  6
Continuous
370
    15
100
AcDbLine
 10
-37.5351846714922
 20
-4.761425071276109
 30
0.0
 11
-37.5351846714922
 21
0.0010749287238931
 31
0.0
  0
LINE
  5
AA
330
1F
100
AcDbEntity
  8
외형선
  6
Continuous
370
    15
100
AcDbLine
 10
-38.48768467149219
 20
0.0010749287238931
 30
0.0
 11
-38.48768467149219
 21
3.811074928723896
 31
0.0
  0
LINE
  5
AB
330
1F
100
AcDbEntity
  8
외형선
  6
Continuous
370
    15
100
AcDbLine
 10
-38.48768467149219
 20
-3.808925071276112
 30
0.0
 11
-38.48768467149219
 21
0.0010749287238931
 31
0.0
  0
LINE
  5
AC
330
1F
100
AcDbEntity
  8
외형선
  6
Continuous
370
    15
100
AcDbLine
 10
5.462440691859973
 20
-3.967675071276107
 30
0.0
 11
5.462440691859973
 21
-3.429407782612183
 31
0.0
  0
SPLINE
  5
AD
330
1F
100
AcDbEntity
  8
외형선
  6
Continuous
370
    15
100
AcDbSpline
210
0.0
220
0.0
230
1.0
 70
     8
 71
     3
 72
     8
 73
     4
 74
     0
 42
0.000000001
 43
0.00000001
 40
0.0
 40
0.0
 40
0.0
 40
0.0
 40
1.0
 40
1.0
 40
1.0
 40
1.0
 10
5.962315328507774
 20
3.567605688151855
 30
0.0
 10
5.796515797190949
 20
3.525438853172589
 30
0.0
 10
5.629671983982975
 20
3.480041010665485
 30
0.0
 10
5.46244069185998
 20
3.431565493424869
 30
0.0
  0
LINE
  5
AE
330
1F
100
AcDbEntity
  8
외형선
  6
Continuous
370
    15
100
AcDbLine
 10
5.462440691859966
 20
3.057196768362369
 30
0.0
 11
5.462440691859973
 21
3.969824928723893
 31
0.0
  0
SPLINE
  5
AF
330
1F
100
AcDbEntity
  8
외형선
  6
Continuous
370
    15
100
AcDbSpline
210
0.0
220
0.0
230
1.0
 70
     8
 71
     3
 72
     8
 73
     4
 74
     0
 42
0.000000001
 43
0.00000001
 40
0.0
 40
0.0
 40
0.0
 40
0.0
 40
1.0
 40
1.0
 40
1.0
 40
1.0
 10
5.962315328507803
 20
2.864983610187899
 30
0.0
 10
5.79651579719097
 20
2.931531560129006
 30
0.0
 10
5.62967198398297
 20
2.995695500542448
 30
0.0
 10
5.462440691859973
 20
3.057198848464529
 30
0.0
  0
LINE
  5
B0
330
1F
100
AcDbEntity
  8
외형선
  6
Continuous
370
    15
100
AcDbLine
 10
5.962315328507808
 20
1.742004250823383
 30
0.0
 11
5.962315328507803
 21
2.864983610187897
 31
0.0
  0
SPLINE
  5
B1
330
1F
100
AcDbEntity
  8
외형선
  6
Continuous
370
    15
100
AcDbSpline
210
0.0
220
0.0
230
1.0
 70
     8
 71
     3
 72
     8
 73
     4
 74
     0
 42
0.000000001
 43
0.00000001
 40
0.0
 40
0.0
 40
0.0
 40
0.0
 40
1.0
 40
1.0
 40
1.0
 40
1.0
 10
5.962315328507774
 20
1.742004250825786
 30
0.0
 10
5.796515797190949
 20
1.828388753672636
 30
0.0
 10
5.629671983982975
 20
1.913420331872012
 30
0.0
 10
5.46244069185998
 20
1.996748010167226
 30
0.0
  0
SPLINE
  5
B2
330
1F
100
AcDbEntity
  8
외형선
  6
Continuous
370
    15
100
AcDbSpline
210
0.0
220
0.0
230
1.0
 70
     8
 71
     3
 72
     8
 73
     4
 74
     0
 42
0.000000001
 43
0.00000001
 40
0.0
 40
0.0
 40
0.0
 40
0.0
 40
1.0
 40
1.0
 40
1.0
 40
1.0
 10
5.962315328507803
 20
-2.746470089421425
 30
0.0
 10
5.79651579719097
 20
-2.677103709503611
 30
0.0
 10
5.62967198398297
 20
-2.605170948219223
 30
0.0
 10
5.462440691859973
 20
-2.530936751677521
 30
0.0
  0
LINE
  5
B3
330
1F
100
AcDbEntity
  8
외형선
  6
Continuous
370
    15
100
AcDbLine
 10
5.962315328507808
 20
-3.565455830688159
 30
0.0
 11
5.962315328507803
 21
-2.746470089421428
 31
0.0
  0
SPLINE
  5
B4
330
1F
100
AcDbEntity
  8
외형선
  6
Continuous
370
    15
100
AcDbSpline
210
0.0
220
0.0
230
1.0
 70
     8
 71
     3
 72
     8
 73
     4
 74
     0
 42
0.000000001
 43
0.00000001
 40
0.0
 40
0.0
 40
0.0
 40
0.0
 40
1.0
 40
1.0
 40
1.0
 40
1.0
 10
5.962315328507774
 20
-3.565455830704058
 30
0.0
 10
5.796515797190949
 20
-3.52328899572479
 30
0.0
 10
5.629671983982975
 20
-3.477891153217685
 30
0.0
 10
5.46244069185998
 20
-3.429415635977068
 30
0.0
  0
LINE
  5
B5
330
1F
100
AcDbEntity
  8
외형선
  6
Continuous
370
    15
100
AcDbLine
 10
5.462440691859966
 20
-2.53093926234708
 30
0.0
 11
5.462440691859973
 21
1.996761509759136
 31
0.0
  0
SPLINE
  5
B6
330
1F
100
AcDbEntity
  8
외형선
  6
Continuous
370
    15
100
AcDbSpline
210
0.0
220
0.0
230
1.0
 70
    24
 71
     3
 72
    22
 73
    18
 74
     0
 42
0.000000001
 43
0.00000001
 40
0.0
 40
0.0
 40
0.0
 40
0.0
 40
0.125
 40
0.125
 40
0.25
 40
0.25
 40
0.375
 40
0.375
 40
0.5
 40
0.5
 40
0.625
 40
0.625
 40
0.75
 40
0.75
 40
0.875
 40
0.875
 40
1.0
 40
1.0
 40
1.0
 40
1.0
 10
5.962315328507865
 20
-2.746470089421441
 30
0.0
 10
5.962315328507865
 20
-2.625044025946211
 30
0.0
 10
5.962315328507872
 20
-2.451399908372037
 30
0.0
 10
5.962315328507858
 20
-2.004827215624681
 30
0.0
 10
5.962315328507865
 20
-1.73205837210585
 30
0.0
 10
5.962315328507872
 20
-1.141023034045267
 30
0.0
 10
5.962315328507858
 20
-0.8244697091454831
 30
0.0
 10
5.962315328507851
 20
-0.2205642273802956
 30
0.0
 10
5.962315328507865
 20
0.0656912766891324
 30
0.0
 10
5.962315328507858
 20
0.5643503451419393
 30
0.0
 10
5.962315328507851
 20
0.7771259958997475
 30
0.0
 10
5.962315328507851
 20
1.125555434465907
 30
0.0
 10
5.962315328507865
 20
1.261924278436986
 30
0.0
 10
5.962315328507858
 20
1.474810271649987
 30
0.0
 10
5.962315328507865
 20
1.551711126403016
 30
0.0
 10
5.962315328507851
 20
1.665281126864074
 30
0.0
 10
5.962315328507865
 20
1.713468983196049
 30
0.0
 10
5.962315328507865
 20
1.742004250823411
 30
0.0
  0
SPLINE
  5
B7
330
1F
100
AcDbEntity
  8
외형선
  6
Continuous
370
    15
100
AcDbSpline
210
0.0
220
0.0
230
1.0
 70
    24
 71
     3
 72
     9
 73
     5
 74
     0
 42
0.000000001
 43
0.00000001
 40
0.0
 40
0.0
 40
0.0
 40
0.0
 40
0.467782938269781
 40
1.0
 40
1.0
 40
1.0
 40
1.0
 10
5.962315328507822
 20
2.919931607939291
 30
0.0
 10
5.962315328507815
 20
3.017320232631501
 30
0.0
 10
5.962315328507803
 20
3.225512145428551
 30
0.0
 10
5.962315328507795
 20
3.448779168914834
 30
0.0
 10
5.962315328507808
 20
3.567605688135957
 30
0.0
  0
SPLINE
  5
B8
330
1F
100
AcDbEntity
  8
0
  6
Continuous
 62
     1
370
    15
100
AcDbSpline
210
0.0
220
0.0
230
1.0
 70
     8
 71
     3
 72
    22
 73
    18
 74
     0
 42
0.000000001
 43
0.00000001
 40
0.0
 40
0.0
 40
0.0
 40
0.0
 40
0.0678771677700934
 40
0.1357057956220093
 40
0.2035107779211373
 40
0.2713171790415742
 40
0.3391500531443619
 40
0.4070342641095444
 40
0.4789751718256068
 40
0.550887288772555
 40
0.6227786032486279
 40
0.6946572768037055
 40
0.7665315144876272
 40
0.8384095366353493
 40
0.9102995505406649
 40
0.9822097222250085
 40
1.0
 40
1.0
 40
1.0
 40
1.0
 10
5.962315328507803
 20
2.864983610187907
 30
0.0
 10
6.426842503701231
 20
2.668069617804746
 30
0.0
 10
7.355564664165989
 20
2.274382449006332
 30
0.0
 10
8.74804080215186
 20
1.559251319508893
 30
0.0
 10
10.13995547940612
 20
0.7889125218623035
 30
0.0
 10
11.53190441225241
 20
-0.0158987587681696
 30
0.0
 10
12.92448690250852
 20
-0.8195835715471911
 30
0.0
 10
14.34564655219006
 20
-1.604966599353119
 30
0.0
 10
15.79477116649468
 20
-2.336224353712966
 30
0.0
 10
17.27114870664928
 20
-2.974140777241342
 30
0.0
 10
18.74702922982205
 20
-3.4752565409429
 30
0.0
 10
20.22259457940998
 20
-3.816908203493256
 30
0.0
 10
21.69805249868283
 20
-3.982377313321635
 30
0.0
 10
23.17360052063773
 20
-3.968052341342827
 30
0.0
 10
24.64945420099023
 20
-3.759715451677801
 30
0.0
 10
25.75522646494231
 20
-3.507005623775069
 30
0.0
 10
26.36911910556412
 20
-3.283650164549789
 30
0.0
 10
26.49087234834621
 20
-3.239352107113856
 30
0.0
  0
SPLINE
  5
B9
330
1F
100
AcDbEntity
  8
외형선
  6
Continuous
370
    15
100
AcDbSpline
210
0.0
220
0.0
230
1.0
 70
    24
 71
     3
 72
     9
 73
     5
 74
     0
 42
0.000000001
 43
0.00000001
 40
0.0
 40
0.0
 40
0.0
 40
0.0
 40
0.6312312528675237
 40
1.0
 40
1.0
 40
1.0
 40
1.0
 10
5.962315328507808
 20
3.567605688151862
 30
0.0
 10
5.962315328507788
 20
3.425874638568232
 30
0.0
 10
5.962315328507774
 20
3.201343535363534
 30
0.0
 10
5.962315328507788
 20
2.99574859610605
 30
0.0
 10
5.962315328507795
 20
2.91993160793929
 30
0.0
  0
SPLINE
  5
BA
330
1F
100
AcDbEntity
  8
0
  6
Continuous
 62
     1
370
    15
100
AcDbSpline
210
0.0
220
0.0
230
1.0
 70
     8
 71
     3
 72
    25
 73
    21
 74
     0
 42
0.000000001
 43
0.00000001
 40
0.0
 40
0.0
 40
0.0
 40
0.0
 40
0.0050042185497038
 40
0.0647301103654006
 40
0.1244798011504685
 40
0.1842280873589245
 40
0.2439529067797684
 40
0.3036609842059227
 40
0.3633591019067699
 40
0.423054076430347
 40
0.4827527351560007
 40
0.5424618927680567
 40
0.6021883278220578
 40
0.6619386749798146
 40
0.7183197424485309
 40
0.7746581722101692
 40
0.8309746149002522
 40
0.8872898791917232
 40
0.9436247822399555
 40
1.0
 40
1.0
 40
1.0
 40
1.0
 10
30.6796442897253
 20
-3.960670818591284
 30
0.0
 10
30.63841476364079
 20
-3.962967868744316
 30
0.0
 10
30.10510636648428
 20
-3.992680461918198
 30
0.0
 10
29.07945833074142
 20
-3.878228774472442
 30
0.0
 10
27.60261348705853
 20
-3.607629424900018
 30
0.0
 10
26.12578294896485
 20
-3.151868934867788
 30
0.0
 10
24.6494494389144
 20
-2.556416070665499
 30
0.0
 10
23.17360179624603
 20
-1.842173826520838
 30
0.0
 10
21.69805215692957
 20
-1.043697600841534
 30
0.0
 10
20.22259467098622
 20
-0.1971602668941204
 30
0.0
 10
18.74702920527884
 20
0.6584760297364334
 30
0.0
 10
17.27114871322904
 20
1.48398342222664
 30
0.0
 10
15.79477116472722
 20
2.241471727894262
 30
0.0
 10
14.3456465526341
 20
2.883677948375612
 30
0.0
 10
12.92448690239253
 20
3.389119124661474
 30
0.0
 10
11.53190441228345
 20
3.746042279859005
 30
0.0
 10
10.13995547939781
 20
3.950442096013804
 30
0.0
 10
8.748040802154073
 20
3.990531218763342
 30
0.0
 10
7.355564664165421
 20
3.877874148095195
 30
0.0
 10
6.426842503701064
 20
3.671053167049104
 30
0.0
 10
5.962315328507808
 20
3.567605688151865
 30
0.0
  0
SPLINE
  5
BB
330
1F
100
AcDbEntity
  8
0
  6
Continuous
 62
     1
370
    15
100
AcDbSpline
210
0.0
220
0.0
230
1.0
 70
     8
 71
     3
 72
    26
 73
    22
 74
     0
 42
0.000000001
 43
0.00000001
 40
0.0
 40
0.0
 40
0.0
 40
0.0
 40
0.0011131929563112
 40
0.0551212686899369
 40
0.1091702184863062
 40
0.1664490828078639
 40
0.2237050241137111
 40
0.2809444026328956
 40
0.3381737165362506
 40
0.3953994986289829
 40
0.4526282938862057
 40
0.5098666368997465
 40
0.56712102940066
 40
0.6243979180209726
 40
0.6816761531197068
 40
0.7389315736574812
 40
0.7961706024691876
 40
0.8533997389279246
 40
0.9106255164501369
 40
0.9678544800266916
 40
1.0
 40
1.0
 40
1.0
 40
1.0
 10
11.5030402621563
 20
3.968186076657779
 30
0.0
 10
11.51260634428754
 20
3.968730999877659
 30
0.0
 10
11.98628395828642
 20
3.995713616905652
 30
0.0
 10
12.92449153809132
 20
3.899801492219332
 30
0.0
 10
14.34564522717372
 20
3.665401021225914
 30
0.0
 10
15.79477152836685
 20
3.245438715817189
 30
0.0
 10
17.27114861594855
 20
2.673985898859196
 30
0.0
 10
18.74702923092962
 20
1.978317487944038
 30
0.0
 10
20.22259466563352
 20
1.192294404230221
 30
0.0
 10
21.69805215269351
 20
0.3514787239261096
 30
0.0
 10
23.17360181854616
 20
-0.5054184697692519
 30
0.0
 10
24.64944935392464
 20
-1.339115796858137
 30
0.0
 10
26.12578326676715
 20
-2.111349524107992
 30
0.0
 10
27.60261230036011
 20
-2.786492719948529
 30
0.0
 10
29.07946275890313
 20
-3.333544053978512
 30
0.0
 10
30.55582674535648
 20
-3.727586867640016
 30
0.0
 10
32.03169604565836
 20
-3.949793743060259
 30
0.0
 10
33.50725553605772
 20
-3.992427223843186
 30
0.0
 10
34.98271521730084
 20
-3.844627157309098
 30
0.0
 10
36.24260869877538
 20
-3.590057079642431
 30
0.0
 10
37.01073821264477
 20
-3.328811340739929
 30
0.0
 10
37.28701306928661
 20
-3.234848502754444
 30
0.0
  0
LINE
  5
BC
330
1F
100
AcDbEntity
  8
0
  6
Continuous
 62
     1
370
    15
100
AcDbLine
 10
40.88731532850781
 20
-3.967675071276101
 30
0.0
 11
40.88731532850781
 21
-3.593347926134849
 31
0.0
  0
SPLINE
  5
BD
330
1F
100
AcDbEntity
  8
0
  6
Continuous
 62
     1
370
    15
100
AcDbSpline
210
0.0
220
0.0
230
1.0
 70
     8
 71
     3
 72
    25
 73
    21
 74
     0
 42
0.000000001
 43
0.00000001
 40
0.0
 40
0.0
 40
0.0
 40
0.0
 40
0.0586168704379972
 40
0.1172105453926008
 40
0.1757876204400092
 40
0.2343547481403003
 40
0.2929186152878948
 40
0.3514859199128103
 40
0.4100633482000005
 40
0.4686575514950516
 40
0.5272751028156767
 40
0.5858912761736621
 40
0.6444844273936398
 40
0.7030611538468942
 40
0.7616281092921039
 40
0.8201919811170886
 40
0.8787594673357458
 40
0.9373372535074973
 40
0.9959319897475523
 40
1.0
 40
1.0
 40
1.0
 40
1.0
 10
40.88731532850782
 20
-3.967675071276101
 30
0.0
 10
40.39497041502445
 20
-3.911123229998379
 30
0.0
 10
39.41047541555663
 20
-3.827225580185639
 30
0.0
 10
37.93412644329434
 20
-3.476809117453303
 30
0.0
 10
36.45826817706985
 20
-2.979717103211776
 30
0.0
 10
34.98271334870586
 20
-2.342272098299323
 30
0.0
 10
33.50725603676689
 20
-1.598163762936874
 30
0.0
 10
32.03169591145477
 20
-0.7803424532942449
 30
0.0
 10
30.55582678137168
 20
0.0733539023680741
 30
0.0
 10
29.07946274909115
 20
0.923864440579462
 30
0.0
 10
27.60261230357307
 20
1.731892530632461
 30
0.0
 10
26.12578326372963
 20
2.460427607723015
 30
0.0
 10
24.64944936285798
 20
3.076049560195655
 30
0.0
 10
23.17360178586078
 20
3.55026357650738
 30
0.0
 10
21.69805227448081
 20
3.861750305864352
 30
0.0
 10
20.22259421117508
 20
3.994816841226601
 30
0.0
 10
18.74703092722569
 20
3.948655075216655
 30
0.0
 10
17.27114228328698
 20
3.70558654776069
 30
0.0
 10
16.25292521048737
 20
3.460706716554218
 30
0.0
 10
15.72660311526014
 20
3.263424684955129
 30
0.0
 10
15.69243474889703
 20
3.250617309407604
 30
0.0
  0
SPLINE
  5
BE
330
1F
100
AcDbEntity
  8
0
  6
Continuous
 62
     1
370
    15
100
AcDbSpline
210
0.0
220
0.0
230
1.0
 70
     8
 71
     3
 72
    20
 73
    16
 74
     0
 42
0.000000001
 43
0.00000001
 40
0.0
 40
0.0
 40
0.0
 40
0.0
 40
0.046962905906469
 40
0.1263667996574796
 40
0.2057929580605224
 40
0.2852503242061468
 40
0.3647095582540184
 40
0.4441371428012396
 40
0.5235419879257843
 40
0.6029331098832562
 40
0.682319572155893
 40
0.7617104542825505
 40
0.8411148205716281
 40
0.9205416889250418
 40
0.9999999999999999
 40
0.9999999999999999
 40
0.9999999999999999
 40
0.9999999999999999
 10
22.30070830706354
 20
3.947746234665876
 30
0.0
 10
22.59164695605988
 20
3.95020982094288
 30
0.0
 10
23.37449855479954
 20
3.956838787091721
 30
0.0
 10
24.64945022838613
 20
3.764124916768546
 30
0.0
 10
26.12578303168308
 20
3.39841325122577
 30
0.0
 10
27.60261236576257
 20
2.868544014095108
 30
0.0
 10
29.0794627324346
 20
2.209148432956356
 30
0.0
 10
30.55582678583265
 20
1.447652660504534
 30
0.0
 10
32.03169591025985
 20
0.6199852047393086
 30
0.0
 10
33.50725603708705
 20
-0.2361552865870404
 30
0.0
 10
34.9827133486201
 20
-1.081141061847565
 30
0.0
 10
36.45826817709283
 20
-1.877300172714886
 30
0.0
 10
37.93412644328824
 20
-2.584065295315698
 30
0.0
 10
39.41047541555815
 20
-3.184010875523567
 30
0.0
 10
40.39497041502497
 20
-3.456884242426555
 30
0.0
 10
40.88731532850784
 20
-3.59334792613485
 30
0.0
  0
LINE
  5
BF
330
1F
100
AcDbEntity
  8
0
  6
Continuous
 62
     1
370
    15
100
AcDbLine
 10
40.88731532850781
 20
-3.593347926134849
 30
0.0
 11
40.88731532850781
 21
0.3411227835826828
 31
0.0
  0
SPLINE
  5
C0
330
1F
100
AcDbEntity
  8
0
  6
Continuous
 62
     1
370
    15
100
AcDbSpline
210
0.0
220
0.0
230
1.0
 70
     8
 71
     3
 72
    17
 73
    13
 74
     0
 42
0.000000001
 43
0.00000001
 40
0.0
 40
0.0
 40
0.0
 40
0.0
 40
0.1025854471242243
 40
0.2051302998083598
 40
0.3076461009773065
 40
0.4101444932835129
 40
0.5126371792929866
 40
0.6151358812351659
 40
0.7176523006094293
 40
0.8201980779427424
 40
0.922784716680376
 40
1.0
 40
1.0
 40
1.0
 40
1.0
 10
40.88731532850782
 20
0.3411227835826829
 30
0.0
 10
40.39497041495733
 20
0.6226760462196109
 30
0.0
 10
39.41047541535531
 20
1.185671157083603
 30
0.0
 10
37.934126444099
 20
1.971684654077256
 30
0.0
 10
36.4582681740536
 20
2.668200752001471
 30
0.0
 10
34.98271335996415
 20
3.241857896382592
 30
0.0
 10
33.50725599475068
 20
3.666851244257363
 30
0.0
 10
32.03169606828376
 20
3.923127359346494
 30
0.0
 10
30.5558261958954
 20
4.00062988919358
 30
0.0
 10
29.07946493517023
 20
3.889402758673268
 30
0.0
 10
27.72436030705141
 20
3.640568270701918
 30
0.0
 10
26.86144723675928
 20
3.361392840531414
 30
0.0
 10
26.49087234834625
 20
3.241501964561642
 30
0.0
  0
SPLINE
  5
C1
330
1F
100
AcDbEntity
  8
0
  6
Continuous
 62
     1
370
    15
100
AcDbSpline
210
0.0
220
0.0
230
1.0
 70
     8
 71
     3
 72
    10
 73
     6
 74
     0
 42
0.000000001
 43
0.00000001
 40
0.0
 40
0.0
 40
0.0
 40
0.0
 40
0.107489944836223
 40
0.553585353719252
 40
1.0
 40
1.0
 40
1.0
 40
1.0
 10
9.083660648374495
 20
-3.952804226839657
 30
0.0
 10
8.971837413603822
 20
-3.9572457809448
 30
0.0
 10
8.39593512740513
 20
-3.980120286128562
 30
0.0
 10
7.355562570314182
 20
-3.86832285165728
 30
0.0
 10
6.426841805584221
 20
-3.666435575034024
 30
0.0
 10
5.962315328507808
 20
-3.565455830704066
 30
0.0
  0
SPLINE
  5
C2
330
1F
100
AcDbEntity
  8
0
  6
Continuous
 62
     1
370
    15
100
AcDbSpline
210
0.0
220
0.0
230
1.0
 70
     8
 71
     3
 72
    10
 73
     6
 74
     0
 42
0.000000001
 43
0.00000001
 40
0.0
 40
0.0
 40
0.0
 40
0.0
 40
0.4102224398888725
 40
0.8202825492452378
 40
1.0
 40
1.0
 40
1.0
 40
1.0
 10
40.88731532850782
 20
3.969824928723899
 30
0.0
 10
40.39497112969727
 20
3.911657322193911
 30
0.0
 10
39.4104775592923
 20
3.824528781256687
 30
0.0
 10
38.21040610711358
 20
3.559378890891333
 30
0.0
 10
37.50267378242916
 20
3.312291125366773
 30
0.0
 10
37.28701306928662
 20
3.23699836020223
 30
0.0
  0
SPLINE
  5
C3
330
1F
100
AcDbEntity
  8
0
  6
Continuous
 62
     1
370
    15
100
AcDbSpline
210
0.0
220
0.0
230
1.0
 70
     8
 71
     3
 72
    17
 73
    13
 74
     0
 42
0.000000001
 43
0.00000001
 40
0.0
 40
0.0
 40
0.0
 40
0.0
 40
0.0815566876358707
 40
0.1875784691376597
 40
0.2936309291023191
 40
0.3997258482799541
 40
0.4998381502294111
 40
0.599874743094293
 40
0.6998722949043429
 40
0.7998677543063745
 40
0.8998980850089167
 40
1.0
 40
1.0
 40
1.0
 40
1.0
 10
19.88233862846635
 20
-3.951473331223319
 30
0.0
 10
19.50393015093668
 20
-3.947523454124124
 30
0.0
 10
18.63359952592843
 20
-3.938438829416743
 30
0.0
 10
17.27114812882933
 20
-3.709563704557636
 30
0.0
 10
15.79477132170871
 20
-3.31285883680173
 30
0.0
 10
14.34564651319541
 20
-2.768497094490669
 30
0.0
 10
12.9244869126912
 20
-2.11777789629829
 30
0.0
 10
11.53190440952608
 20
-1.392613609758991
 30
0.0
 10
10.13995548013624
 20
-0.610327130504294
 30
0.0
 10
8.748040801957085
 20
0.1956180786065822
 30
0.0
 10
7.355564664214743
 20
0.9988491191110582
 30
0.0
 10
6.426842503717502
 20
1.494226810542367
 30
0.0
 10
5.962315328507808
 20
1.742004250825772
 30
0.0
  0
LINE
  5
C4
330
1F
100
AcDbEntity
  8
0
  6
Continuous
 62
     1
370
    15
100
AcDbLine
 10
40.88731532850781
 20
1.673368689475802
 30
0.0
 11
40.88731532850781
 21
3.969824928723899
 31
0.0
  0
SPLINE
  5
C5
330
1F
100
AcDbEntity
  8
0
  6
Continuous
 62
     1
370
    15
100
AcDbSpline
210
0.0
220
0.0
230
1.0
 70
     8
 71
     3
 72
    14
 73
    10
 74
     0
 42
0.000000001
 43
0.00000001
 40
0.0
 40
0.0
 40
0.0
 40
0.0
 40
0.1432060369402827
 40
0.2863096652276417
 40
0.4293634065498068
 40
0.572420141275843
 40
0.7155327282274948
 40
0.8587536247750539
 40
1.0
 40
1.0
 40
1.0
 40
1.0
 10
5.962315328507803
 20
-2.746470089421421
 30
0.0
 10
6.426842500712683
 20
-2.929004266239676
 30
0.0
 10
7.355564655202459
 20
-3.293942087116814
 30
0.0
 10
8.748040837970867
 20
-3.676692134110153
 30
0.0
 10
10.13995534513272
 20
-3.916771014668991
 30
0.0
 10
11.53190491364083
 20
-3.995312051059728
 30
0.0
 10
12.92448502984264
 20
-3.907796585693977
 30
0.0
 10
14.31148549299628
 20
-3.673088932703959
 30
0.0
 10
15.23425334423387
 20
-3.389351460308551
 30
0.0
 10
15.69243474889703
 20
-3.248467451959816
 30
0.0
  0
SPLINE
  5
C6
330
1F
100
AcDbEntity
  8
0
  6
Continuous
 62
     1
370
    15
100
AcDbSpline
210
0.0
220
0.0
230
1.0
 70
     8
 71
     3
 72
    13
 73
     9
 74
     0
 42
0.000000001
 43
0.00000001
 40
0.0
 40
0.0
 40
0.0
 40
0.0
 40
0.0523112323197388
 40
0.2417847454085056
 40
0.4312688074655051
 40
0.6207850524860942
 40
0.8103550037061967
 40
1.0
 40
1.0
 40
1.0
 40
1.0
 10
33.09993642800671
 20
3.951571209961168
 30
0.0
 10
33.23571856045542
 20
3.956932160539806
 30
0.0
 10
33.86330936398456
 20
3.981710702610488
 30
0.0
 10
34.98271182672632
 20
3.842382995522466
 30
0.0
 10
36.4582685848254
 20
3.5347566754364
 30
0.0
 10
37.93412633451874
 20
3.049390261238837
 30
0.0
 10
39.41047544276631
 20
2.433181161305885
 30
0.0
 10
40.39497042409552
 20
1.933535006724761
 30
0.0
 10
40.88731532850782
 20
1.683662490477822
 30
0.0
  0
SPLINE
  5
C7
330
1F
100
AcDbEntity
  8
외형선
  6
Continuous
370
    15
100
AcDbSpline
210
0.0
220
0.0
230
1.0
 70
    24
 71
     3
 72
    22
 73
    18
 74
     0
 42
0.000000001
 43
0.00000001
 40
0.0
 40
0.0
 40
0.0
 40
0.0
 40
0.125
 40
0.125
 40
0.25
 40
0.25
 40
0.375
 40
0.375
 40
0.5
 40
0.5
 40
0.625
 40
0.625
 40
0.75
 40
0.75
 40
0.875
 40
0.875
 40
1.0
 40
1.0
 40
1.0
 40
1.0
 10
5.962315328507808
 20
1.742004250825774
 30
0.0
 10
5.962315328507808
 20
1.713468983199414
 30
0.0
 10
5.962315328507822
 20
1.665281126867397
 30
0.0
 10
5.962315328507836
 20
1.551711126407882
 30
0.0
 10
5.962315328507829
 20
1.474810271655699
 30
0.0
 10
5.962315328507843
 20
1.261924278444393
 30
0.0
 10
5.962315328507815
 20
1.125555434474165
 30
0.0
 10
5.962315328507822
 20
0.7771259959093624
 30
0.0
 10
5.962315328507815
 20
0.5643503451520531
 30
0.0
 10
5.962315328507822
 20
0.0656912766994604
 30
0.0
 10
5.962315328507803
 20
-0.2205642273702739
 30
0.0
 10
5.962315328507808
 20
-0.8244697091369527
 30
0.0
 10
5.962315328507815
 20
-1.141023034037919
 30
0.0
 10
5.962315328507808
 20
-1.732058372101098
 30
0.0
 10
5.962315328507815
 20
-2.004827215621309
 30
0.0
 10
5.962315328507815
 20
-2.451399908370833
 30
0.0
 10
5.962315328507815
 20
-2.625044025945792
 30
0.0
 10
5.962315328507822
 20
-2.74647008942143
 30
0.0
  0
LINE
  5
C8
330
1F
100
AcDbEntity
  8
0
  6
Continuous
 62
     1
370
    15
100
AcDbLine
 10
40.88731532850781
 20
0.3411227835826826
 30
0.0
 11
40.88731532850781
 21
1.683662490477822
 31
0.0
  0
LINE
  5
C9
330
1F
100
AcDbEntity
  8
중심선
 48
0.8
100
AcDbLine
 10
-41.4876846714922
 20
0.0010749287238892
 30
0.0
 11
43.88731532850781
 21
0.0010749287238997
 31
0.0
  0
LINE
  5
CA
330
1F
100
AcDbEntity
  8
참조1
100
AcDbLine
 10
3.843103649777288
 20
0.0010749287238892
 30
0.0
 11
3.843103649777293
 21
-39.99892507127611
 31
0.0
  0
LINE
  5
CB
330
1F
100
AcDbEntity
  8
참조1
100
AcDbLine
 10
3.843103649777293
 20
-39.99892507127611
 30
0.0
 11
-21.63450316453139
 21
-39.9989250712761
 31
0.0
  0
CIRCLE
  5
CC
330
1F
100
AcDbEntity
  8
해칭선
100
AcDbCircle
 10
0.0
 20
0.0
 30
0.0
 40
3.000000000000001
  0
INSERT
  5
CD
330
1F
100
AcDbEntity
  8
0
  6
Continuous
 62
     7
100
AcDbBlockReference
 66
     1
  2
블럭10
 10
-12.7404576036174
 20
-52.04609937292004
 30
0.0
  0
ATTRIB
  5
CE
330
CD
100
AcDbEntity
  8
FORMAT
 62
     2
100
AcDbText
 10
-21.92175289235868
 20
-49.97073246008785
 30
0.0
 40
4.233333333333333
  1
E1034020 [ 4 FLUTE ]
 41
0.75
  7
SLDTEXTSTYLE0
 11
-21.92175289235868
 21
-52.08739912675452
 31
0.0
100
AcDbAttribute
  2
AUTOATTR0
 70
     0
 74
     1
  0
SEQEND
  5
CF
330
CD
100
AcDbEntity
  8
0
  6
Continuous
 62
     7
  0
HATCH
  5
D0
330
1F
100
AcDbEntity
  8
중심선
100
AcDbHatch
 10
0.0
 20
0.0
 30
0.0
210
0.0
220
0.0
230
1.0
  2
SOLID
 70
     1
 71
     0
 91
        1
 92
        0
 93
        4
 72
     1
 10
-7.025548299236546
 20
-35.7989250712761
 11
-10.47182354307383
 21
-35.7989250712761
 72
     1
 10
-10.47182354307383
 20
-35.7989250712761
 11
-12.60005340227788
 21
-38.3352506518487
 72
     1
 10
-12.60005340227788
 20
-38.3352506518487
 11
-9.153745073327421
 21
-38.33521122254621
 72
     1
 10
-9.153745073327421
 20
-38.33521122254621
 11
-7.025548299236547
 21
-35.7989250712761
 97
        0
 75
     0
 76
     1
 98
        1
 10
-2.643288321269479
 20
0.0
  0
HATCH
  5
D1
330
1F
100
AcDbEntity
  8
중심선
100
AcDbHatch
 10
0.0
 20
0.0
 30
0.0
210
0.0
220
0.0
230
1.0
  2
SOLID
 70
     1
 71
     0
 91
        1
 92
        0
 93
        4
 72
     1
 10
-2.012784308200568
 20
-35.7989250712761
 11
-5.45905955203785
 21
-35.7989250712761
 72
     1
 10
-5.45905955203785
 20
-35.7989250712761
 11
-9.990197560395266
 21
-41.19892507127612
 72
     1
 10
-9.990197560395266
 20
-41.19892507127612
 11
-6.543922316557984
 21
-41.19892507127612
 72
     1
 10
-6.543922316557984
 20
-41.19892507127612
 11
-2.012784308200567
 21
-35.7989250712761
 97
        0
 75
     0
 76
     1
 98
        1
 10
-2.643288321269479
 20
0.0
  0
HATCH
  5
D2
330
1F
100
AcDbEntity
  8
중심선
100
AcDbHatch
 10
0.0
 20
0.0
 30
0.0
210
0.0
220
0.0
230
1.0
  2
SOLID
 70
     1
 71
     0
 91
        1
 92
        0
 93
        4
 72
     1
 10
2.999979682835328
 20
-35.79892507127608
 11
-0.4462955610018158
 21
-35.7989250712761
 72
     1
 10
-0.4462955610018158
 20
-35.7989250712761
 11
-7.494732462891065
 21
-44.19892507127612
 72
     1
 10
-7.494732462891065
 20
-44.19892507127612
 11
-4.048457219053782
 21
-44.19892507127612
 72
     1
 10
-4.048457219053782
 20
-44.19892507127612
 11
2.999979682835328
 21
-35.79892507127608
 97
        0
 75
     0
 76
     1
 98
        1
 10
-2.643288321269479
 20
0.0
  0
HATCH
  5
D3
330
1F
100
AcDbEntity
  8
중심선
100
AcDbHatch
 10
0.0
 20
0.0
 30
0.0
210
0.0
220
0.0
230
1.0
  2
SOLID
 70
     1
 71
     0
 91
        1
 92
        0
 93
        6
 72
     3
 10
7.799870113847499
 20
-39.99892507132738
 11
3.960054785062283
 21
1.540882976769353E-10
 40
0.3939339440162628
 50
17.09539180608436
 51
320.0019657685087
 73
     0
 72
     1
 10
9.482869769548095
 20
-38.58681907591443
 11
11.78817164324913
 21
-36.65249236586649
 72
     3
 10
7.799870113794652
 20
-39.99892507127625
 11
6.600054785286829
 21
-1.278976924368180E-13
 40
0.636358354079598
 50
39.99873849337411
 51
368.4976242363724
 73
     1
 72
     1
 10
14.22520260569526
 20
-39.03892507120613
 11
6.479937420630575
 21
-39.03892507120613
 72
     1
 10
6.479937420630575
 20
-39.03892507120613
 11
6.479912376184641
 21
-40.95892507120602
 72
     1
 10
6.479912376184641
 20
-40.95892507120602
 11
10.92129214565668
 21
-40.95892507120599
 97
        0
 75
     0
 76
     1
 98
        1
 10
-2.643288321269479
 20
0.0
  0
DIMENSION
  5
D4
330
1F
100
AcDbEntity
  8
치수문자_일반주서
100
AcDbDimension
  2
_D
 10
5.962315328507811
 20
13.19193360106745
 30
0.0
 11
-15.95418467149219
 21
13.19193360106745
 31
0.0
 70
   160
  1
<>
 71
     2
 42
34.925
  3
SLDDIMSTYLE1
100
AcDbAlignedDimension
 13
40.88731532850781
 23
3.969824928723899
 33
0.0
 14
5.962315328507811
 24
3.567605688151862
 34
0.0
100
AcDbRotatedDimension
1001
ACAD
1000
DSTYLE
1002
{
1070
   171
1070
     6
1070
   273
1070
     7
1002
}
  0
DIMENSION
  5
E9
330
1F
100
AcDbEntity
  8
치수문자_일반주서
100
AcDbDimension
  2
_D_1
 10
-38.48768467149219
 20
32.85727329760351
 30
0.0
 11
1.199815328507809
 21
32.85727329760351
 31
0.0
 70
   160
  1
<>
 71
     2
 42
79.375
  3
SLDDIMSTYLE1
100
AcDbAlignedDimension
 13
40.88731532850781
 23
3.969824928723899
 33
0.0
 14
-38.48768467149219
 24
3.811074928723895
 34
0.0
100
AcDbRotatedDimension
1001
ACAD
1000
DSTYLE
1002
{
1070
   171
1070
     6
1070
   273
1070
     7
1002
}
  0
DIMENSION
  5
FC
330
1F
100
AcDbEntity
  8
치수문자_일반주서
100
AcDbDimension
  2
_D_2
 10
-49.78845750931937
 20
-4.761425071276156
 30
0.0
 11
-49.78845750931939
 21
0.0010749287238959
 31
0.0
 70
   160
  1
%%c<>
 71
     2
 42
9.525000000000006
 52
-270.0
  3
SLDDIMSTYLE1
100
AcDbAlignedDimension
 13
-37.5351846714922
 23
4.763574928723896
 33
0.0
 14
-37.5351846714922
 24
-4.761425071276109
 34
0.0
 50
90.0000000000002
100
AcDbRotatedDimension
1001
ACAD
1000
DSTYLE
1002
{
1070
   171
1070
     6
1070
   273
1070
     7
1002
}
  0
LINE
  5
125
330
1F
100
AcDbEntity
  8
참조1
100
AcDbLine
 10
76.33783746512287
 20
7.441074928723896
 30
0.0
 11
76.33783746512287
 21
-7.438925071276109
 31
0.0
  0
LINE
  5
126
330
1F
100
AcDbEntity
  8
참조1
100
AcDbLine
 10
89.03783746512288
 20
5.441074928723896
 30
0.0
 11
76.33783746512287
 21
5.441074928723896
 31
0.0
  0
SOLID
  5
127
330
1F
100
AcDbEntity
  8
참조1
100
AcDbTrace
 10
76.33783746512287
 20
5.441074928723896
 30
0.0
 11
82.68783746512287
 21
4.425074928723896
 31
0.0
 12
82.68783746512287
 22
6.457074928723896
 32
0.0
 13
82.68783746512287
 23
6.457074928723896
 33
0.0
  0
LINE
  5
128
330
1F
100
AcDbEntity
  8
참조1
100
AcDbLine
 10
89.03783746512288
 20
-5.438925071276109
 30
0.0
 11
76.33783746512287
 21
-5.438925071276109
 31
0.0
  0
SOLID
  5
129
330
1F
100
AcDbEntity
  8
참조1
100
AcDbTrace
 10
76.33783746512287
 20
-5.438925071276109
 30
0.0
 11
82.68783746512287
 21
-6.454925071276109
 31
0.0
 12
82.68783746512287
 22
-4.422925071276109
 32
0.0
 13
82.68783746512287
 23
-4.422925071276109
 33
0.0
  0
MTEXT
  5
12A
330
1F
100
AcDbEntity
  8
참조1
100
AcDbMText
 10
85.72218759774887
 20
11.01136670591222
 30
0.0
 40
3.5
 41
0.0
 71
     1
 72
     1
  1
A
  7
SLDTEXTSTYLE0
 73
     1
 44
1.0
  0
MTEXT
  5
12B
330
1F
100
AcDbEntity
  8
참조1
100
AcDbMText
 10
85.72218759774887
 20
0.1313667059122201
 30
0.0
 40
3.5
 41
0.0
 71
     1
 72
     1
  1
A
  7
SLDTEXTSTYLE0
 73
     1
 44
1.0
  0
INSERT
  5
132
330
1F
100
AcDbEntity
  8
해칭선
100
AcDbBlockReference
  2
SW_DOWELSYMBOL_0
 10
0.0
 20
0.0
 30
0.0
  0
LINE
  5
269
330
1F
100
AcDbEntity
  8
외형선
  6
Continuous
370
    15
100
AcDbLine
 10
-22.21263467149232
 20
3.493574928723895
 30
0.0
 11
-15.0752346714922
 21
3.493574928723895
 31
0.0
  0
LINE
  5
26A
330
1F
100
AcDbEntity
  8
외형선
  6
Continuous
370
    15
100
AcDbLine
 10
-22.21263467149232
 20
3.493574928723895
 30
0.0
 11
-23.48263467149231
 21
4.763574928723877
 31
0.0
  0
LINE
  5
26B
330
1F
100
AcDbEntity
  8
외형선
  6
Continuous
370
    15
100
AcDbLine
 10
-15.0752346714922
 20
3.493574928723895
 30
0.0
 11
-13.8052346714921
 21
4.763574928723877
 31
0.0
  0
DIMENSION
  5
2A9
330
1F
100
AcDbEntity
  8
치수문자_일반주서
100
AcDbDimension
  2
*D15
 10
63.4204467273029
 20
-3.967675071276101
 30
0.0
 11
63.4204467273029
 21
30.07077703167123
 31
0.0
 70
   160
 71
     5
 42
7.9375
  3
SLDDIMSTYLE1
100
AcDbAlignedDimension
 13
40.88731532850781
 23
3.969824928723899
 33
0.0
 14
40.88731532850781
 24
-3.967675071276101
 34
0.0
 50
90.0
100
AcDbRotatedDimension
1001
ACAD
1000
DSTYLE
1002
{
1070
   171
1070
     6
1070
   273
1070
     7
1002
}
  0
LINE
  5
2BA
330
1F
100
AcDbEntity
  8
외형선
  6
Continuous
370
    15
100
AcDbLine
 10
-23.48263467149232
 20
4.763574928723896
 30
0.0
 11
-37.5351846714922
 21
4.763574928723896
 31
0.0
  0
ENDSEC
  0
SECTION
  2
OBJECTS
  0
DICTIONARY
  5
C
330
0
100
AcDbDictionary
281
     1
  3
ACAD_GROUP
350
D
  3
ACAD_IMAGE_VARS
350
156
  3
ACAD_LAYOUT
350
1A
  3
ACAD_MLINESTYLE
350
17
  3
ACAD_PLOTSETTINGS
350
19
  3
ACAD_PLOTSTYLENAME
350
E
  3
ACAD_SCALELIST
350
47
  3
APPDATA
350
154
  3
DWGPROPS
350
2E0
  0
DICTIONARY
  5
201
330
2
100
AcDbDictionary
280
     1
281
     1
  3
ACAD_LAYERSTATES
360
202
  0
DICTIONARY
  5
D
102
{ACAD_REACTORS
330
C
102
}
330
C
100
AcDbDictionary
281
     1
  0
RASTERVARIABLES
  5
156
102
{ACAD_REACTORS
330
C
102
}
330
C
100
AcDbRasterVariables
 90
        0
 70
     1
 71
     1
 72
     1
  0
DICTIONARY
  5
1A
102
{ACAD_REACTORS
330
C
102
}
330
C
100
AcDbDictionary
281
     1
  3
Layout1
350
1E
  3
Layout2
350
26
  3
Model
350
22
  0
DICTIONARY
  5
17
102
{ACAD_REACTORS
330
C
102
}
330
C
100
AcDbDictionary
281
     1
  3
Standard
350
18
  0
DICTIONARY
  5
19
102
{ACAD_REACTORS
330
C
102
}
330
C
100
AcDbDictionary
281
     1
  0
ACDBDICTIONARYWDFLT
  5
E
102
{ACAD_REACTORS
330
C
102
}
330
C
100
AcDbDictionary
281
     1
  3
Normal
350
F
100
AcDbDictionaryWithDefault
340
F
  0
DICTIONARY
  5
47
102
{ACAD_REACTORS
330
C
102
}
330
C
100
AcDbDictionary
281
     1
  3
A0
350
48
  3
A1
350
49
  3
A2
350
4A
  3
A3
350
4B
  3
A4
350
4C
  3
A5
350
4D
  3
A6
350
4E
  3
A7
350
4F
  3
A8
350
50
  3
A9
350
51
  3
B0
350
52
  3
B1
350
53
  3
B2
350
54
  3
B3
350
55
  3
B4
350
56
  3
B5
350
57
  3
B6
350
58
  3
B7
350
59
  3
B8
350
5A
  3
B9
350
5B
  3
C0
350
5C
  3
C1
350
5D
  3
C2
350
5E
  3
C3
350
5F
  3
C4
350
60
  3
C5
350
61
  3
C6
350
62
  3
C7
350
63
  3
C8
350
64
  3
C9
350
65
  3
D0
350
66
  3
D1
350
67
  3
D2
350
68
  0
DICTIONARY
  5
154
102
{ACAD_REACTORS
330
C
102
}
330
C
100
AcDbDictionary
281
     1
  0
XRECORD
  5
2E0
102
{ACAD_REACTORS
330
C
102
}
330
C
100
AcDbXrecord
280
     1
  1
DWGPROPS COOKIE
  2

  3

  4

  6

  7

  8
12016016
  9

300
=
301
=
302
=
303
=
304
=
305
=
306
=
307
=
308
=
309
=
 40
0.0
 41
2458312.296656331
 42
2458323.374800984
  1

 90
        0
  0
DICTIONARY
  5
202
102
{ACAD_REACTORS
330
201
102
}
330
201
100
AcDbDictionary
281
     1
  0
LAYOUT
  5
1E
102
{ACAD_REACTORS
330
1A
102
}
330
1A
100
AcDbPlotSettings
  1

  2
none_device
  4

  6

 40
0.0
 41
0.0
 42
0.0
 43
0.0
 44
0.0
 45
0.0
 46
0.0
 47
0.0
 48
0.0
 49
0.0
140
0.0
141
0.0
142
1.0
143
1.0
 70
   688
 72
     1
 73
     0
 74
     5
  7

 75
    16
147
1.0
148
0.0
149
0.0
100
AcDbLayout
  1
Layout1
 70
     1
 71
     1
 10
0.0
 20
0.0
 11
420.0
 21
297.0
 12
0.0
 22
0.0
 32
0.0
 14
1.000000000000000E+20
 24
1.000000000000000E+20
 34
1.000000000000000E+20
 15
-1.000000000000000E+20
 25
-1.000000000000000E+20
 35
-1.000000000000000E+20
146
0.0
 13
0.0
 23
0.0
 33
0.0
 16
1.0
 26
0.0
 36
0.0
 17
0.0
 27
1.0
 37
0.0
 76
     0
330
1B
  0
LAYOUT
  5
26
102
{ACAD_REACTORS
330
1A
102
}
330
1A
100
AcDbPlotSettings
  1

  2
none_device
  4

  6

 40
0.0
 41
0.0
 42
0.0
 43
0.0
 44
0.0
 45
0.0
 46
0.0
 47
0.0
 48
0.0
 49
0.0
140
0.0
141
0.0
142
1.0
143
1.0
 70
   688
 72
     1
 73
     0
 74
     5
  7

 75
    16
147
1.0
148
0.0
149
0.0
100
AcDbLayout
  1
Layout2
 70
     1
 71
     2
 10
0.0
 20
0.0
 11
0.0
 21
0.0
 12
0.0
 22
0.0
 32
0.0
 14
0.0
 24
0.0
 34
0.0
 15
0.0
 25
0.0
 35
0.0
146
0.0
 13
0.0
 23
0.0
 33
0.0
 16
1.0
 26
0.0
 36
0.0
 17
0.0
 27
1.0
 37
0.0
 76
     0
330
23
  0
LAYOUT
  5
22
102
{ACAD_REACTORS
330
1A
102
}
330
1A
100
AcDbPlotSettings
  1

  2
none_device
  4
ANSI_A_(11.00_x_8.50_Inches)
  6

 40
6.35
 41
19.05
 42
6.35000508
 43
19.05000254
 44
279.4
 45
215.9
 46
99.14717044762521
 47
48.06489284401853
 48
0.0
 49
0.0
140
0.0
141
0.0
142
0.0512636130803342
143
1.0
 70
  1696
 72
     0
 73
     0
 74
     0
  7

 75
     0
147
0.0235690232323232
148
0.0
149
0.0
100
AcDbLayout
  1
Model
 70
     1
 71
     0
 10
0.0
 20
0.0
 11
420.0
 21
297.0
 12
0.0
 22
0.0
 32
0.0
 14
-54.16345750931944
 24
-49.97073246008785
 34
0.0
 15
89.03783746512288
 25
42.75827703167123
 35
0.0
146
0.0
 13
0.0
 23
0.0
 33
0.0
 16
1.0
 26
0.0
 36
0.0
 17
0.0
 27
1.0
 37
0.0
 76
     0
330
1F
331
29
  0
MLINESTYLE
  5
18
102
{ACAD_REACTORS
330
17
102
}
330
17
100
AcDbMlineStyle
  2
Standard
 70
     0
  3

 62
   256
 51
90.0
 52
90.0
 71
     2
 49
0.5
 62
   256
  6
BYLAYER
 49
-0.5
 62
   256
  6
BYLAYER
  0
ACDBPLACEHOLDER
  5
F
102
{ACAD_REACTORS
330
E
102
}
330
E
  0
SCALE
  5
48
102
{ACAD_REACTORS
330
47
102
}
330
47
100
AcDbScale
 70
     0
300
1:1
140
1.0
141
1.0
290
     1
  0
SCALE
  5
49
102
{ACAD_REACTORS
330
47
102
}
330
47
100
AcDbScale
 70
     0
300
1:2
140
1.0
141
2.0
290
     0
  0
SCALE
  5
4A
102
{ACAD_REACTORS
330
47
102
}
330
47
100
AcDbScale
 70
     0
300
1:4
140
1.0
141
4.0
290
     0
  0
SCALE
  5
4B
102
{ACAD_REACTORS
330
47
102
}
330
47
100
AcDbScale
 70
     0
300
1:5
140
1.0
141
5.0
290
     0
  0
SCALE
  5
4C
102
{ACAD_REACTORS
330
47
102
}
330
47
100
AcDbScale
 70
     0
300
1:8
140
1.0
141
8.0
290
     0
  0
SCALE
  5
4D
102
{ACAD_REACTORS
330
47
102
}
330
47
100
AcDbScale
 70
     0
300
1:10
140
1.0
141
10.0
290
     0
  0
SCALE
  5
4E
102
{ACAD_REACTORS
330
47
102
}
330
47
100
AcDbScale
 70
     0
300
1:16
140
1.0
141
16.0
290
     0
  0
SCALE
  5
4F
102
{ACAD_REACTORS
330
47
102
}
330
47
100
AcDbScale
 70
     0
300
1:20
140
1.0
141
20.0
290
     0
  0
SCALE
  5
50
102
{ACAD_REACTORS
330
47
102
}
330
47
100
AcDbScale
 70
     0
300
1:30
140
1.0
141
30.0
290
     0
  0
SCALE
  5
51
102
{ACAD_REACTORS
330
47
102
}
330
47
100
AcDbScale
 70
     0
300
1:40
140
1.0
141
40.0
290
     0
  0
SCALE
  5
52
102
{ACAD_REACTORS
330
47
102
}
330
47
100
AcDbScale
 70
     0
300
1:50
140
1.0
141
50.0
290
     0
  0
SCALE
  5
53
102
{ACAD_REACTORS
330
47
102
}
330
47
100
AcDbScale
 70
     0
300
1:100
140
1.0
141
100.0
290
     0
  0
SCALE
  5
54
102
{ACAD_REACTORS
330
47
102
}
330
47
100
AcDbScale
 70
     0
300
2:1
140
2.0
141
1.0
290
     0
  0
SCALE
  5
55
102
{ACAD_REACTORS
330
47
102
}
330
47
100
AcDbScale
 70
     0
300
4:1
140
4.0
141
1.0
290
     0
  0
SCALE
  5
56
102
{ACAD_REACTORS
330
47
102
}
330
47
100
AcDbScale
 70
     0
300
8:1
140
8.0
141
1.0
290
     0
  0
SCALE
  5
57
102
{ACAD_REACTORS
330
47
102
}
330
47
100
AcDbScale
 70
     0
300
10:1
140
10.0
141
1.0
290
     0
  0
SCALE
  5
58
102
{ACAD_REACTORS
330
47
102
}
330
47
100
AcDbScale
 70
     0
300
100:1
140
100.0
141
1.0
290
     0
  0
SCALE
  5
59
102
{ACAD_REACTORS
330
47
102
}
330
47
100
AcDbScale
 70
     0
300
1/128" = 1'-0"
140
0.0078125
141
12.0
290
     0
  0
SCALE
  5
5A
102
{ACAD_REACTORS
330
47
102
}
330
47
100
AcDbScale
 70
     0
300
1/64" = 1'-0"
140
0.015625
141
12.0
290
     0
  0
SCALE
  5
5B
102
{ACAD_REACTORS
330
47
102
}
330
47
100
AcDbScale
 70
     0
300
1/32" = 1'-0"
140
0.03125
141
12.0
290
     0
  0
SCALE
  5
5C
102
{ACAD_REACTORS
330
47
102
}
330
47
100
AcDbScale
 70
     0
300
1/16" = 1'-0"
140
0.0625
141
12.0
290
     0
  0
SCALE
  5
5D
102
{ACAD_REACTORS
330
47
102
}
330
47
100
AcDbScale
 70
     0
300
3/32" = 1'-0"
140
0.09375
141
12.0
290
     0
  0
SCALE
  5
5E
102
{ACAD_REACTORS
330
47
102
}
330
47
100
AcDbScale
 70
     0
300
1/8" = 1'-0"
140
0.125
141
12.0
290
     0
  0
SCALE
  5
5F
102
{ACAD_REACTORS
330
47
102
}
330
47
100
AcDbScale
 70
     0
300
3/16" = 1'-0"
140
0.1875
141
12.0
290
     0
  0
SCALE
  5
60
102
{ACAD_REACTORS
330
47
102
}
330
47
100
AcDbScale
 70
     0
300
1/4" = 1'-0"
140
0.25
141
12.0
290
     0
  0
SCALE
  5
61
102
{ACAD_REACTORS
330
47
102
}
330
47
100
AcDbScale
 70
     0
300
3/8" = 1'-0"
140
0.375
141
12.0
290
     0
  0
SCALE
  5
62
102
{ACAD_REACTORS
330
47
102
}
330
47
100
AcDbScale
 70
     0
300
1/2" = 1'-0"
140
0.5
141
12.0
290
     0
  0
SCALE
  5
63
102
{ACAD_REACTORS
330
47
102
}
330
47
100
AcDbScale
 70
     0
300
3/4" = 1'-0"
140
0.75
141
12.0
290
     0
  0
SCALE
  5
64
102
{ACAD_REACTORS
330
47
102
}
330
47
100
AcDbScale
 70
     0
300
1" = 1'-0"
140
1.0
141
12.0
290
     0
  0
SCALE
  5
65
102
{ACAD_REACTORS
330
47
102
}
330
47
100
AcDbScale
 70
     0
300
1-1/2" = 1'-0"
140
1.5
141
12.0
290
     0
  0
SCALE
  5
66
102
{ACAD_REACTORS
330
47
102
}
330
47
100
AcDbScale
 70
     0
300
3" = 1'-0"
140
3.0
141
12.0
290
     0
  0
SCALE
  5
67
102
{ACAD_REACTORS
330
47
102
}
330
47
100
AcDbScale
 70
     0
300
6" = 1'-0"
140
6.0
141
12.0
290
     0
  0
SCALE
  5
68
102
{ACAD_REACTORS
330
47
102
}
330
47
100
AcDbScale
 70
     0
300
1'-0" = 1'-0"
140
12.0
141
12.0
290
     0
  0
ENDSEC
  0
EOF
