  0
SECTION
  2
HEADER
  9
$ACADVER
  1
AC1015
  9
$ACADMAINTVER
 70
     6
  9
$DWGCODEPAGE
  3
ANSI_949
  9
$INSBASE
 10
0.0
 20
0.0
 30
0.0
  9
$EXTMIN
 10
-51.52016918804996
 20
-49.97073246008785
 30
0.0
  9
$EXTMAX
 10
89.03783746512288
 20
36.4414422405779
 30
0.0
  9
$LIMMIN
 10
0.0
 20
0.0
  9
$LIMMAX
 10
420.0
 20
297.0
  9
$ORTHOMODE
 70
     0
  9
$REGENMODE
 70
     1
  9
$FILLMODE
 70
     1
  9
$QTEXTMODE
 70
     0
  9
$MIRRTEXT
 70
     1
  9
$LTSCALE
 40
1.0
  9
$ATTMODE
 70
     1
  9
$TEXTSIZE
 40
3.5
  9
$TRACEWID
 40
1.0
  9
$TEXTSTYLE
  7
Standard
  9
$CLAYER
  8
0
  9
$CELTYPE
  6
ByLayer
  9
$CECOLOR
 62
   256
  9
$CELTSCALE
 40
1.0
  9
$DISPSILH
 70
     0
  9
$DIMSCALE
 40
1.0
  9
$DIMASZ
 40
3.302
  9
$DIMEXO
 40
1.0
  9
$DIMDLI
 40
3.75
  9
$DIMRND
 40
0.0
  9
$DIMDLE
 40
0.0
  9
$DIMEXE
 40
1.0
  9
$DIMTP
 40
0.0
  9
$DIMTM
 40
0.0
  9
$DIMTXT
 40
3.5
  9
$DIMCEN
 40
2.5
  9
$DIMTSZ
 40
0.0
  9
$DIMTOL
 70
     0
  9
$DIMLIM
 70
     0
  9
$DIMTIH
 70
     1
  9
$DIMTOH
 70
     1
  9
$DIMSE1
 70
     0
  9
$DIMSE2
 70
     0
  9
$DIMTAD
 70
     1
  9
$DIMZIN
 70
     0
  9
$DIMBLK
  1

  9
$DIMASO
 70
     1
  9
$DIMSHO
 70
     1
  9
$DIMPOST
  1

  9
$DIMAPOST
  1

  9
$DIMALT
 70
     0
  9
$DIMALTD
 70
     3
  9
$DIMALTF
 40
0.0393700787401575
  9
$DIMLFAC
 40
1.0
  9
$DIMTOFL
 70
     1
  9
$DIMTVP
 40
0.0
  9
$DIMTIX
 70
     0
  9
$DIMSOXD
 70
     0
  9
$DIMSAH
 70
     0
  9
$DIMBLK1
  1

  9
$DIMBLK2
  1

  9
$DIMSTYLE
  2
ISO-25
  9
$DIMCLRD
 70
     0
  9
$DIMCLRE
 70
     0
  9
$DIMCLRT
 70
     0
  9
$DIMTFAC
 40
1.0
  9
$DIMGAP
 40
1.524
  9
$DIMJUST
 70
     0
  9
$DIMSD1
 70
     0
  9
$DIMSD2
 70
     0
  9
$DIMTOLJ
 70
     0
  9
$DIMTZIN
 70
     0
  9
$DIMALTZ
 70
     0
  9
$DIMALTTZ
 70
     0
  9
$DIMUPT
 70
     0
  9
$DIMDEC
 70
     2
  9
$DIMTDEC
 70
     2
  9
$DIMALTU
 70
     2
  9
$DIMALTTD
 70
     3
  9
$DIMTXSTY
  7
Standard
  9
$DIMAUNIT
 70
     0
  9
$DIMADEC
 70
     2
  9
$DIMALTRND
 40
0.0
  9
$DIMAZIN
 70
     0
  9
$DIMDSEP
 70
    44
  9
$DIMATFIT
 70
     3
  9
$DIMFRAC
 70
     0
  9
$DIMLDRBLK
  1

  9
$DIMLUNIT
 70
     2
  9
$DIMLWD
 70
    -2
  9
$DIMLWE
 70
    -2
  9
$DIMTMOVE
 70
     0
  9
$LUNITS
 70
     2
  9
$LUPREC
 70
     2
  9
$SKETCHINC
 40
1.0
  9
$FILLETRAD
 40
10.0
  9
$AUNITS
 70
     0
  9
$AUPREC
 70
     2
  9
$MENU
  1
.
  9
$ELEVATION
 40
0.0
  9
$PELEVATION
 40
0.0
  9
$THICKNESS
 40
0.0
  9
$LIMCHECK
 70
     0
  9
$CHAMFERA
 40
0.0
  9
$CHAMFERB
 40
0.0
  9
$CHAMFERC
 40
0.0
  9
$CHAMFERD
 40
0.0
  9
$SKPOLY
 70
     0
  9
$TDCREATE
 40
2458312.671232755
  9
$TDUCREATE
 40
2458312.296232755
  9
$TDUPDATE
 40
2458323.748983877
  9
$TDUUPDATE
 40
2458323.373983877
  9
$TDINDWG
 40
0.0009961921
  9
$TDUSRTIMER
 40
2458323.373927732
  9
$USRTIMER
 70
     1
  9
$ANGBASE
 50
0.0
  9
$ANGDIR
 70
     0
  9
$PDMODE
 70
     0
  9
$PDSIZE
 40
-1.0
  9
$PLINEWID
 40
0.0
  9
$SPLFRAME
 70
     0
  9
$SPLINETYPE
 70
     6
  9
$SPLINESEGS
 70
     8
  9
$HANDSEED
  5
449
  9
$SURFTAB1
 70
     6
  9
$SURFTAB2
 70
     6
  9
$SURFTYPE
 70
     6
  9
$SURFU
 70
     6
  9
$SURFV
 70
     6
  9
$UCSBASE
  2

  9
$UCSNAME
  2

  9
$UCSORG
 10
0.0
 20
0.0
 30
0.0
  9
$UCSXDIR
 10
1.0
 20
0.0
 30
0.0
  9
$UCSYDIR
 10
0.0
 20
1.0
 30
0.0
  9
$UCSORTHOREF
  2

  9
$UCSORTHOVIEW
 70
     0
  9
$UCSORGTOP
 10
0.0
 20
0.0
 30
0.0
  9
$UCSORGBOTTOM
 10
0.0
 20
0.0
 30
0.0
  9
$UCSORGLEFT
 10
0.0
 20
0.0
 30
0.0
  9
$UCSORGRIGHT
 10
0.0
 20
0.0
 30
0.0
  9
$UCSORGFRONT
 10
0.0
 20
0.0
 30
0.0
  9
$UCSORGBACK
 10
0.0
 20
0.0
 30
0.0
  9
$PUCSBASE
  2

  9
$PUCSNAME
  2

  9
$PUCSORG
 10
0.0
 20
0.0
 30
0.0
  9
$PUCSXDIR
 10
1.0
 20
0.0
 30
0.0
  9
$PUCSYDIR
 10
0.0
 20
1.0
 30
0.0
  9
$PUCSORTHOREF
  2

  9
$PUCSORTHOVIEW
 70
     0
  9
$PUCSORGTOP
 10
0.0
 20
0.0
 30
0.0
  9
$PUCSORGBOTTOM
 10
0.0
 20
0.0
 30
0.0
  9
$PUCSORGLEFT
 10
0.0
 20
0.0
 30
0.0
  9
$PUCSORGRIGHT
 10
0.0
 20
0.0
 30
0.0
  9
$PUCSORGFRONT
 10
0.0
 20
0.0
 30
0.0
  9
$PUCSORGBACK
 10
0.0
 20
0.0
 30
0.0
  9
$USERI1
 70
     0
  9
$USERI2
 70
     0
  9
$USERI3
 70
     0
  9
$USERI4
 70
     0
  9
$USERI5
 70
     0
  9
$USERR1
 40
0.0
  9
$USERR2
 40
0.0
  9
$USERR3
 40
0.0
  9
$USERR4
 40
0.0
  9
$USERR5
 40
0.0
  9
$WORLDVIEW
 70
     1
  9
$SHADEDGE
 70
     3
  9
$SHADEDIF
 70
    70
  9
$TILEMODE
 70
     1
  9
$MAXACTVP
 70
    64
  9
$PINSBASE
 10
0.0
 20
0.0
 30
0.0
  9
$PLIMCHECK
 70
     0
  9
$PEXTMIN
 10
1.000000000000000E+20
 20
1.000000000000000E+20
 30
1.000000000000000E+20
  9
$PEXTMAX
 10
-1.000000000000000E+20
 20
-1.000000000000000E+20
 30
-1.000000000000000E+20
  9
$PLIMMIN
 10
0.0
 20
0.0
  9
$PLIMMAX
 10
0.0
 20
0.0
  9
$UNITMODE
 70
     0
  9
$VISRETAIN
 70
     1
  9
$PLINEGEN
 70
     0
  9
$PSLTSCALE
 70
     1
  9
$TREEDEPTH
 70
  3020
  9
$CMLSTYLE
  2
Standard
  9
$CMLJUST
 70
     0
  9
$CMLSCALE
 40
20.0
  9
$PROXYGRAPHICS
 70
     1
  9
$MEASUREMENT
 70
     1
  9
$CELWEIGHT
370
    -1
  9
$ENDCAPS
280
     0
  9
$JOINSTYLE
280
     0
  9
$LWDISPLAY
290
     1
  9
$INSUNITS
 70
     4
  9
$HYPERLINKBASE
  1

  9
$STYLESHEET
  1

  9
$XEDIT
290
     1
  9
$CEPSNTYPE
380
     0
  9
$PSTYLEMODE
290
     1
  9
$FINGERPRINTGUID
  2
{446A99CD-135C-4FC8-A4E4-F4D597B1E2F7}
  9
$VERSIONGUID
  2
{FAEB1C32-E019-11D5-929B-00C0DF256EC4}
  9
$EXTNAMES
290
     1
  9
$PSVPSCALE
 40
0.0
  9
$OLESTARTUP
290
     0
  0
ENDSEC
  0
SECTION
  2
CLASSES
  0
CLASS
  1
ACDBDICTIONARYWDFLT
  2
AcDbDictionaryWithDefault
  3
ObjectDBX Classes
 90
        0
280
     0
281
     0
  0
CLASS
  1
VISUALSTYLE
  2
AcDbVisualStyle
  3
ObjectDBX Classes
 90
     4095
280
     0
281
     0
  0
CLASS
  1
MATERIAL
  2
AcDbMaterial
  3
ObjectDBX Classes
 90
     1153
280
     0
281
     0
  0
CLASS
  1
SCALE
  2
AcDbScale
  3
ObjectDBX Classes
 90
     1153
280
     0
281
     0
  0
CLASS
  1
SUN
  2
AcDbSun
  3
SCENEOE
 90
     1153
280
     0
281
     0
  0
CLASS
  1
ACDBPLACEHOLDER
  2
AcDbPlaceHolder
  3
ObjectDBX Classes
 90
        0
280
     0
281
     0
  0
CLASS
  1
LAYOUT
  2
AcDbLayout
  3
ObjectDBX Classes
 90
        0
280
     0
281
     0
  0
CLASS
  1
TABLESTYLE
  2
AcDbTableStyle
  3
ObjectDBX Classes
 90
     4095
280
     0
281
     0
  0
CLASS
  1
MLEADERSTYLE
  2
AcDbMLeaderStyle
  3
ACDB_MLEADERSTYLE_CLASS
 90
     4095
280
     0
281
     0
  0
CLASS
  1
RASTERVARIABLES
  2
AcDbRasterVariables
  3
ISM
 90
        0
280
     0
281
     0
  0
CLASS
  1
DIMASSOC
  2
AcDbDimAssoc
  3
"AcDbDimAssoc|Product Desc:     AcDim ARX App For Dimension|Company:          Autodesk, Inc.|WEB Address:      www.autodesk.com"
 90
        0
280
     0
281
     0
  0
ENDSEC
  0
SECTION
  2
TABLES
  0
TABLE
  2
VPORT
  5
8
330
0
100
AcDbSymbolTable
 70
     1
  0
VPORT
  5
29
330
8
100
AcDbSymbolTableRecord
100
AcDbViewportTableRecord
  2
*Active
 70
     0
 10
0.0
 20
0.0
 11
1.0
 21
1.0
 12
7.619242298028936
 22
-27.2930851663764
 13
0.0
 23
0.0
 14
10.0
 24
10.0
 15
10.0
 25
10.0
 16
0.0
 26
0.0
 36
1.0
 17
0.0
 27
0.0
 37
0.0
 40
108.0542113226232
 41
1.632495164410058
 42
50.0
 43
0.0
 44
0.0
 50
0.0
 51
0.0
 71
    16
 72
  2000
 73
     1
 74
     3
 75
     0
 76
     0
 77
     0
 78
     0
281
     0
 65
     1
110
0.0
120
0.0
130
0.0
111
1.0
121
0.0
131
0.0
112
0.0
122
1.0
132
0.0
 79
     0
146
0.0
  0
ENDTAB
  0
TABLE
  2
LTYPE
  5
5
330
0
100
AcDbSymbolTable
 70
     6
  0
LTYPE
  5
14
330
5
100
AcDbSymbolTableRecord
100
AcDbLinetypeTableRecord
  2
ByBlock
 70
     0
  3

 72
    65
 73
     0
 40
0.0
  0
LTYPE
  5
15
330
5
100
AcDbSymbolTableRecord
100
AcDbLinetypeTableRecord
  2
ByLayer
 70
     0
  3

 72
    65
 73
     0
 40
0.0
  0
LTYPE
  5
16
330
5
100
AcDbSymbolTableRecord
100
AcDbLinetypeTableRecord
  2
Continuous
 70
     0
  3
Solid line
 72
    65
 73
     0
 40
0.0
  0
LTYPE
  5
6A
330
5
100
AcDbSymbolTableRecord
100
AcDbLinetypeTableRecord
  2
HIDDEN
 70
     0
  3
Hidden __ __ __ __ __ __ __ __ __ __ __ __ __ __
 72
    65
 73
     2
 40
1.905
 49
1.27
 74
     0
 49
-0.635
 74
     0
  0
LTYPE
  5
6B
330
5
100
AcDbSymbolTableRecord
100
AcDbLinetypeTableRecord
  2
PHANTOM
 70
     0
  3
Phantom ______  __  __  ______  __  __  ______
 72
    65
 73
     6
 40
12.7
 49
6.35
 74
     0
 49
-1.27
 74
     0
 49
1.27
 74
     0
 49
-1.27
 74
     0
 49
1.27
 74
     0
 49
-1.27
 74
     0
  0
LTYPE
  5
6C
330
5
100
AcDbSymbolTableRecord
100
AcDbLinetypeTableRecord
  2
CENTER
 70
     0
  3
Center ____ _ ____ _ ____ _ ____ _ ____ _ ____
 72
    65
 73
     4
 40
10.16
 49
6.35
 74
     0
 49
-1.27
 74
     0
 49
1.27
 74
     0
 49
-1.27
 74
     0
  0
LTYPE
  5
6D
330
5
100
AcDbSymbolTableRecord
100
AcDbLinetypeTableRecord
  2
CENTERX2
 70
     0
  3
Center (2x) ________  __  ________  __  _____
 72
    65
 73
     4
 40
20.32
 49
12.7
 74
     0
 49
-2.54
 74
     0
 49
2.54
 74
     0
 49
-2.54
 74
     0
  0
LTYPE
  5
6E
330
5
100
AcDbSymbolTableRecord
100
AcDbLinetypeTableRecord
  2
DOT2
 70
     0
  3
Dot (.5x) ........................................
 72
    65
 73
     2
 40
0.635
 49
0.0
 74
     0
 49
-0.635
 74
     0
  0
ENDTAB
  0
TABLE
  2
LAYER
  5
2
102
{ACAD_XDICTIONARY
360
208
102
}
330
0
100
AcDbSymbolTable
 70
    18
  0
LAYER
  5
10
330
2
100
AcDbSymbolTableRecord
100
AcDbLayerTableRecord
  2
0
 70
     0
 62
     7
  6
Continuous
370
    -3
390
F
  0
LAYER
  5
6F
330
2
100
AcDbSymbolTableRecord
100
AcDbLayerTableRecord
  2
FORMAT
 70
     0
 62
     2
  6
Continuous
370
    -3
390
F
  0
LAYER
  5
70
330
2
100
AcDbSymbolTableRecord
100
AcDbLayerTableRecord
  2
외형선
 70
     0
 62
     4
  6
Continuous
370
    30
390
F
  0
LAYER
  5
71
330
2
100
AcDbSymbolTableRecord
100
AcDbLayerTableRecord
  2
숨은선
 70
     0
 62
     2
  6
HIDDEN
370
    15
390
F
  0
LAYER
  5
72
330
2
100
AcDbSymbolTableRecord
100
AcDbLayerTableRecord
  2
중심선
 70
     0
 62
     1
  6
CENTERX2
370
    -3
390
F
  0
LAYER
  5
73
330
2
100
AcDbSymbolTableRecord
100
AcDbLayerTableRecord
  2
파단선
 70
     0
 62
     4
  6
Continuous
370
    -3
390
F
  0
LAYER
  5
74
330
2
100
AcDbSymbolTableRecord
100
AcDbLayerTableRecord
  2
해칭선
 70
     0
 62
   100
  6
Continuous
370
    -3
390
F
  0
LAYER
  5
75
330
2
100
AcDbSymbolTableRecord
100
AcDbLayerTableRecord
  2
가는실선
 70
     0
 62
     4
  6
Continuous
370
    -3
390
F
  0
LAYER
  5
76
330
2
100
AcDbSymbolTableRecord
100
AcDbLayerTableRecord
  2
치수_보조선
 70
     0
 62
     4
  6
Continuous
370
    -3
390
F
  0
LAYER
  5
77
330
2
100
AcDbSymbolTableRecord
100
AcDbLayerTableRecord
  2
치수문자_일반주서
 70
     0
 62
     7
  6
Continuous
370
    15
390
F
  0
LAYER
  5
78
330
2
100
AcDbSymbolTableRecord
100
AcDbLayerTableRecord
  2
개별주서
 70
     0
 62
   100
  6
Continuous
370
    30
390
F
  0
LAYER
  5
79
330
2
100
AcDbSymbolTableRecord
100
AcDbLayerTableRecord
  2
중간선
 70
     0
 62
     2
  6
Continuous
370
    15
390
F
  0
LAYER
  5
7A
330
2
100
AcDbSymbolTableRecord
100
AcDbLayerTableRecord
  2
윤곽선
 70
     0
 62
     3
  6
Continuous
370
    40
390
F
  0
LAYER
  5
7B
330
2
100
AcDbSymbolTableRecord
100
AcDbLayerTableRecord
  2
중심마크
 70
     0
 62
   100
  6
Continuous
370
    30
390
F
  0
LAYER
  5
7C
330
2
100
AcDbSymbolTableRecord
100
AcDbLayerTableRecord
  2
가상선
 70
     0
 62
     4
  6
PHANTOM
370
    -3
390
F
  0
LAYER
  5
7D
330
2
100
AcDbSymbolTableRecord
100
AcDbLayerTableRecord
  2
특수지정선
 70
     0
 62
     5
  6
CENTERX2
370
    60
390
F
  0
LAYER
  5
7E
330
2
100
AcDbSymbolTableRecord
100
AcDbLayerTableRecord
  2
참조1
 70
     0
 62
    -4
  6
Continuous
370
    -3
390
F
  0
LAYER
  5
159
330
2
100
AcDbSymbolTableRecord
100
AcDbLayerTableRecord
  2
Defpoints
 70
     0
 62
     7
  6
Continuous
290
     0
370
    -3
390
F
  0
ENDTAB
  0
TABLE
  2
STYLE
  5
3
330
0
100
AcDbSymbolTable
 70
     2
  0
STYLE
  5
11
330
3
100
AcDbSymbolTableRecord
100
AcDbTextStyleTableRecord
  2
Standard
 70
     0
 40
0.0
 41
1.0
 50
0.0
 71
     0
 42
3.5
  3
txt
  4

  0
STYLE
  5
94
330
3
100
AcDbSymbolTableRecord
100
AcDbTextStyleTableRecord
  2
SLDTEXTSTYLE0
 70
     0
 40
0.0
 41
0.75
 50
0.0
 71
     0
 42
3.5
  3
TXT
  4

  0
ENDTAB
  0
TABLE
  2
VIEW
  5
6
330
0
100
AcDbSymbolTable
 70
     0
  0
ENDTAB
  0
TABLE
  2
UCS
  5
7
330
0
100
AcDbSymbolTable
 70
     0
  0
ENDTAB
  0
TABLE
  2
APPID
  5
9
330
0
100
AcDbSymbolTable
 70
     1
  0
APPID
  5
12
330
9
100
AcDbSymbolTableRecord
100
AcDbRegAppTableRecord
  2
ACAD
 70
     0
  0
ENDTAB
  0
TABLE
  2
DIMSTYLE
  5
A
330
0
100
AcDbSymbolTable
 70
     4
100
AcDbDimStyleTable
  0
DIMSTYLE
105
27
330
A
100
AcDbSymbolTableRecord
100
AcDbDimStyleTableRecord
  2
ISO-25
 70
     0
 41
2.5
 42
0.625
 43
3.75
 44
1.25
 73
     0
 74
     0
 77
     1
 78
     8
140
2.5
141
2.5
143
0.03937007874016
147
0.625
171
     3
172
     1
178
     0
271
     2
272
     2
274
     3
278
    44
283
     0
284
     8
340
11
  0
DIMSTYLE
105
D6
330
A
100
AcDbSymbolTableRecord
100
AcDbDimStyleTableRecord
  2
SLDDIMSTYLE0
 70
     0
 41
3.302
 44
0.0
 45
0.000000001
 73
     0
 74
     0
 77
     1
 78
    12
 79
     3
140
3.5
143
0.0393700787401575
147
0.875
148
0.000000001
170
     1
173
     1
178
     0
271
     2
272
     2
276
     2
284
    12
340
94
  0
DIMSTYLE
105
FE
102
{ACAD_REACTORS
330
FD
330
D5
330
EA
330
2B6
102
}
330
A
100
AcDbSymbolTableRecord
100
AcDbDimStyleTableRecord
  2
SLDDIMSTYLE1
 70
     0
 41
3.302
 44
0.0
 45
0.000000001
 73
     0
 74
     0
 77
     1
 78
    12
 79
     3
140
3.5
143
0.0393700787401575
147
0.875
148
0.000000001
170
     1
172
     1
173
     1
178
     0
271
     2
272
     2
276
     2
284
    12
289
     0
340
94
  0
DIMSTYLE
105
113
330
A
100
AcDbSymbolTableRecord
100
AcDbDimStyleTableRecord
  2
SLDDIMSTYLE2
 70
     0
 41
3.302
 44
0.0
 45
0.000000001
 73
     0
 74
     0
 77
     1
 78
     4
 79
     1
140
3.5
143
0.0393700787401575
147
0.875
148
0.000000001
170
     1
173
     1
178
     0
271
     2
272
     2
276
     2
284
    12
340
94
  0
ENDTAB
  0
TABLE
  2
BLOCK_RECORD
  5
1
330
0
100
AcDbSymbolTable
 70
    24
  0
BLOCK_RECORD
  5
1F
330
1
100
AcDbSymbolTableRecord
100
AcDbBlockTableRecord
  2
*Model_Space
340
22
  0
BLOCK_RECORD
  5
1B
330
1
100
AcDbSymbolTableRecord
100
AcDbBlockTableRecord
  2
*Paper_Space
340
1E
  0
BLOCK_RECORD
  5
23
330
1
100
AcDbSymbolTableRecord
100
AcDbBlockTableRecord
  2
*Paper_Space0
340
26
  0
BLOCK_RECORD
  5
7F
330
1
100
AcDbSymbolTableRecord
100
AcDbBlockTableRecord
  2
블럭10
340
0
102
{BLKREFS
331
CE
102
}
  0
BLOCK_RECORD
  5
D7
330
1
100
AcDbSymbolTableRecord
100
AcDbBlockTableRecord
  2
_D
340
0
  0
BLOCK_RECORD
  5
EB
330
1
100
AcDbSymbolTableRecord
100
AcDbBlockTableRecord
  2
_D_1
340
0
  0
BLOCK_RECORD
  5
FF
330
1
100
AcDbSymbolTableRecord
100
AcDbBlockTableRecord
  2
_D_2
340
0
  0
BLOCK_RECORD
  5
114
330
1
100
AcDbSymbolTableRecord
100
AcDbBlockTableRecord
  2
_D_3
340
0
  0
BLOCK_RECORD
  5
12D
330
1
100
AcDbSymbolTableRecord
100
AcDbBlockTableRecord
  2
SW_DOWELSYMBOL_0
340
0
102
{BLKREFS
331
133
102
}
  0
BLOCK_RECORD
  5
1F9
330
1
100
AcDbSymbolTableRecord
100
AcDbBlockTableRecord
  2
*D7
340
0
  0
BLOCK_RECORD
  5
20C
330
1
100
AcDbSymbolTableRecord
100
AcDbBlockTableRecord
  2
*D8
340
0
  0
BLOCK_RECORD
  5
21B
330
1
100
AcDbSymbolTableRecord
100
AcDbBlockTableRecord
  2
*D9
340
0
  0
BLOCK_RECORD
  5
227
330
1
100
AcDbSymbolTableRecord
100
AcDbBlockTableRecord
  2
*D10
340
0
  0
BLOCK_RECORD
  5
27E
330
1
100
AcDbSymbolTableRecord
100
AcDbBlockTableRecord
  2
*D11
340
0
  0
BLOCK_RECORD
  5
28D
330
1
100
AcDbSymbolTableRecord
100
AcDbBlockTableRecord
  2
*D12
340
0
  0
BLOCK_RECORD
  5
299
330
1
100
AcDbSymbolTableRecord
100
AcDbBlockTableRecord
  2
*D13
340
0
  0
BLOCK_RECORD
  5
2A5
330
1
100
AcDbSymbolTableRecord
100
AcDbBlockTableRecord
  2
*D14
340
0
  0
BLOCK_RECORD
  5
2B9
330
1
100
AcDbSymbolTableRecord
100
AcDbBlockTableRecord
  2
*D15
340
0
  0
BLOCK_RECORD
  5
36B
330
1
100
AcDbSymbolTableRecord
100
AcDbBlockTableRecord
  2
*D16
340
0
  0
BLOCK_RECORD
  5
37C
330
1
100
AcDbSymbolTableRecord
100
AcDbBlockTableRecord
  2
*D17
340
0
  0
BLOCK_RECORD
  5
38B
330
1
100
AcDbSymbolTableRecord
100
AcDbBlockTableRecord
  2
*D18
340
0
  0
BLOCK_RECORD
  5
397
330
1
100
AcDbSymbolTableRecord
100
AcDbBlockTableRecord
  2
*D19
340
0
  0
BLOCK_RECORD
  5
3EE
330
1
100
AcDbSymbolTableRecord
100
AcDbBlockTableRecord
  2
*D20
340
0
  0
BLOCK_RECORD
  5
3FD
330
1
100
AcDbSymbolTableRecord
100
AcDbBlockTableRecord
  2
*D21
340
0
  0
BLOCK_RECORD
  5
409
330
1
100
AcDbSymbolTableRecord
100
AcDbBlockTableRecord
  2
*D22
340
0
  0
BLOCK_RECORD
  5
415
330
1
100
AcDbSymbolTableRecord
100
AcDbBlockTableRecord
  2
*D23
340
0
  0
ENDTAB
  0
ENDSEC
  0
SECTION
  2
BLOCKS
  0
BLOCK
  5
20
330
1F
100
AcDbEntity
  8
0
100
AcDbBlockBegin
  2
*Model_Space
 70
     0
 10
0.0
 20
0.0
 30
0.0
  3
*Model_Space
  1
*Model_Space
  0
ENDBLK
  5
21
330
1F
100
AcDbEntity
  8
0
100
AcDbBlockEnd
  0
BLOCK
  5
1C
330
1B
100
AcDbEntity
 67
     1
  8
0
100
AcDbBlockBegin
  2
*Paper_Space
 70
     0
 10
0.0
 20
0.0
 30
0.0
  3
*Paper_Space
  1
*Paper_Space
  0
ENDBLK
  5
1D
330
1B
100
AcDbEntity
 67
     1
  8
0
100
AcDbBlockEnd
  0
BLOCK
  5
24
330
23
100
AcDbEntity
  8
0
100
AcDbBlockBegin
  2
*Paper_Space0
 70
     0
 10
0.0
 20
0.0
 30
0.0
  3
*Paper_Space0
  1
*Paper_Space0
  0
ENDBLK
  5
25
330
23
100
AcDbEntity
  8
0
100
AcDbBlockEnd
  0
BLOCK
  5
80
330
7F
100
AcDbEntity
  8
0
100
AcDbBlockBegin
  2
블럭10
 70
     2
 10
0.0
 20
0.0
 30
0.0
  3
블럭10
  1
블럭10
  0
ELLIPSE
  5
82
330
7F
100
AcDbEntity
  8
중심선
100
AcDbEllipse
 10
20.54032771741204
 20
12.0471743016438
 30
0.0
 11
6.600054785286829
 21
-1.261213355974178E-13
 31
0.0
210
0.0
220
0.0
230
1.0
 40
0.636358354079598
 41
0.9219305317359503
 42
6.513795318482858
  0
ELLIPSE
  5
83
330
7F
100
AcDbEntity
  8
중심선
100
AcDbEllipse
 10
20.54032771746488
 20
12.04717430159265
 30
0.0
 11
3.960054785062283
 21
1.540847449632565E-10
 31
0.0
210
0.0
220
0.0
230
1.0
 40
0.3939339440162632
 41
1.131841032648279
 42
5.62031148352944
  0
LINE
  5
84
330
7F
100
AcDbEntity
  8
중심선
100
AcDbLine
 10
2.268634060543552
 20
16.24717430164393
 30
0.0
 11
5.714909304380834
 21
16.24717430164393
 31
0.0
  0
LINE
  5
85
330
7F
100
AcDbEntity
  8
중심선
100
AcDbLine
 10
5.245725140726316
 20
7.84717430164391
 30
0.0
 11
8.692000384563599
 21
7.84717430164391
 31
0.0
  0
LINE
  5
86
330
7F
100
AcDbEntity
  8
중심선
100
AcDbLine
 10
15.74043728645272
 20
16.24717430164393
 30
0.0
 11
8.692000384563599
 21
7.84717430164391
 31
0.0
  0
LINE
  5
87
330
7F
100
AcDbEntity
  8
중심선
100
AcDbLine
 10
0.1404042013395286
 20
13.71084872107135
 30
0.0
 11
3.58671253028996
 21
13.71088815037384
 31
0.0
  0
LINE
  5
88
330
7F
100
AcDbEntity
  8
중심선
100
AcDbLine
 10
2.750260043222114
 20
10.84717430164391
 30
0.0
 11
6.196535287059397
 21
10.84717430164391
 31
0.0
  0
LINE
  5
89
330
7F
100
AcDbEntity
  8
중심선
100
AcDbLine
 10
12.29416204261559
 20
16.24717430164393
 30
0.0
 11
5.245725140726316
 21
7.84717430164391
 31
0.0
  0
LINE
  5
8A
330
7F
100
AcDbEntity
  8
중심선
100
AcDbLine
 10
10.72767329541681
 20
16.24717430164393
 30
0.0
 11
6.196535287059397
 21
10.84717430164391
 31
0.0
  0
LINE
  5
8B
330
7F
100
AcDbEntity
  8
중심선
100
AcDbLine
 10
7.28139805157953
 20
16.24717430164393
 30
0.0
 11
2.750260043222114
 21
10.84717430164391
 31
0.0
  0
LINE
  5
8C
330
7F
100
AcDbEntity
  8
중심선
100
AcDbLine
 10
5.714909304380834
 20
16.24717430164393
 30
0.0
 11
3.58671253028996
 21
13.71088815037384
 31
0.0
  0
LINE
  5
8D
330
7F
100
AcDbEntity
  8
중심선
100
AcDbLine
 10
2.268634060543552
 20
16.24717430164393
 30
0.0
 11
0.1404042013395286
 21
13.71084872107135
 31
0.0
  0
LINE
  5
8E
330
7F
100
AcDbEntity
  8
중심선
100
AcDbLine
 10
7.28139805157953
 20
16.24717430164393
 30
0.0
 11
10.72767329541681
 21
16.24717430164393
 31
0.0
  0
LINE
  5
8F
330
7F
100
AcDbEntity
  8
중심선
100
AcDbLine
 10
12.29416204261559
 20
16.24717430164393
 30
0.0
 11
15.74043728645272
 21
16.24717430164393
 31
0.0
  0
LINE
  5
90
330
7F
100
AcDbEntity
  8
중심선
100
AcDbLine
 10
19.22036997980202
 20
11.08717430171403
 30
0.0
 11
23.66174974927406
 21
11.08717430171406
 31
0.0
  0
LINE
  5
91
330
7F
100
AcDbEntity
  8
중심선
100
AcDbLine
 10
19.22039502424796
 20
13.00717430171391
 30
0.0
 11
19.22036997980202
 21
11.08717430171403
 31
0.0
  0
LINE
  5
92
330
7F
100
AcDbEntity
  8
중심선
100
AcDbLine
 10
19.22039502424796
 20
13.00717430171391
 30
0.0
 11
26.96566020931264
 21
13.00717430171391
 31
0.0
  0
LINE
  5
93
330
7F
100
AcDbEntity
  8
중심선
100
AcDbLine
 10
22.22332737316547
 20
13.45928029700563
 30
0.0
 11
24.52862924686651
 21
15.39360700705356
 31
0.0
  0
ATTDEF
  5
95
330
7F
100
AcDbEntity
  8
FORMAT
 62
     2
100
AcDbText
 10
4.408487351596664
 20
2.075366912832191
 30
0.0
 40
4.233333333333333
  1
E2034016
 41
0.75
  7
SLDTEXTSTYLE0
 11
4.408487351596664
 21
-0.0412997538344756
 31
0.0
100
AcDbAttributeDefinition
  3

  2
AUTOATTR0
 70
     0
 74
     1
  0
ENDBLK
  5
81
330
7F
100
AcDbEntity
  8
0
100
AcDbBlockEnd
  0
BLOCK
  5
D8
330
D7
100
AcDbEntity
  8
0
100
AcDbBlockBegin
  2
_D
 70
     0
 10
0.0
 20
0.0
 30
0.0
  3
_D
  1
_D
  0
LINE
  5
DA
330
D7
100
AcDbEntity
  8
치수문자_일반주서
 62
     0
370
    -2
100
AcDbLine
 10
41.94310364977729
 20
3.238574928723899
 30
0.0
 11
41.94310364977729
 21
15.01557319527101
 31
0.0
  0
LINE
  5
DB
330
D7
100
AcDbEntity
  8
치수문자_일반주서
 62
     0
370
    -2
100
AcDbLine
 10
10.19310364977728
 20
3.230393872625959
 30
0.0
 11
10.19310364977729
 21
15.01557319527101
 31
0.0
  0
LINE
  5
DC
330
D7
100
AcDbEntity
  8
치수문자_일반주서
 62
     0
370
    -2
100
AcDbLine
 10
10.19310364977729
 20
15.01557319527101
 30
0.0
 11
-25.28589635022271
 21
15.01557319527101
 31
0.0
  0
LINE
  5
DD
330
D7
100
AcDbEntity
  8
치수문자_일반주서
 62
     0
370
    -2
100
AcDbLine
 10
41.94310364977729
 20
15.01557319527101
 30
0.0
 11
10.19310364977729
 21
15.01557319527101
 31
0.0
  0
LINE
  5
DE
330
D7
100
AcDbEntity
  8
치수문자_일반주서
 62
     0
370
    -2
100
AcDbLine
 10
45.24510364977728
 20
15.01557319527101
 30
0.0
 11
48.54710364977728
 21
15.01557319527101
 31
0.0
  0
LINE
  5
DF
330
D7
100
AcDbEntity
  8
치수문자_일반주서
 62
     0
370
    -2
100
AcDbLine
 10
6.891103649777286
 20
15.01557319527101
 30
0.0
 11
3.589103649777286
 21
15.01557319527101
 31
0.0
  0
SOLID
  5
E0
330
D7
100
AcDbEntity
  8
치수문자_일반주서
 62
     0
100
AcDbTrace
 10
45.24510364977728
 20
15.56590652860434
 30
0.0
 11
45.24510364977728
 21
14.46523986193768
 31
0.0
 12
41.94310364977729
 22
15.01557319527101
 32
0.0
 13
41.94310364977729
 23
15.01557319527101
 33
0.0
  0
SOLID
  5
E1
330
D7
100
AcDbEntity
  8
치수문자_일반주서
 62
     0
100
AcDbTrace
 10
6.891103649777286
 20
14.46523986193768
 30
0.0
 11
6.891103649777286
 21
15.56590652860434
 31
0.0
 12
10.19310364977729
 22
15.01557319527101
 32
0.0
 13
10.19310364977729
 23
15.01557319527101
 33
0.0
  0
MTEXT
  5
E2
330
D7
100
AcDbEntity
  8
치수문자_일반주서
 62
     0
100
AcDbMText
 10
-10.84839635022271
 20
19.39057319527101
 30
0.0
 40
3.5
 41
0.0
 71
     2
 72
     1
  1
\A1;31.75 [1 1/4]
  7
SLDTEXTSTYLE0
 73
     1
 44
1.0
  0
POINT
  5
E3
330
D7
100
AcDbEntity
  8
Defpoints
 62
     0
100
AcDbPoint
 10
41.94310364977729
 20
3.176074928723899
 30
0.0
  0
POINT
  5
2B4
330
D7
100
AcDbEntity
  8
Defpoints
 62
     0
100
AcDbPoint
 10
10.19310364977728
 20
3.167893872625959
 30
0.0
  0
POINT
  5
2B5
330
D7
100
AcDbEntity
  8
Defpoints
 62
     0
100
AcDbPoint
 10
10.19310364977728
 20
15.01557319527101
 30
0.0
  0
ENDBLK
  5
D9
330
D7
100
AcDbEntity
  8
0
100
AcDbBlockEnd
  0
BLOCK
  5
EC
330
EB
100
AcDbEntity
  8
0
100
AcDbBlockBegin
  2
_D_1
 70
     0
 10
0.0
 20
0.0
 30
0.0
  3
_D_1
  1
_D_1
  0
LINE
  5
EE
330
EB
100
AcDbEntity
  8
치수문자_일반주서
 62
     0
370
    -2
100
AcDbLine
 10
41.94310364977729
 20
3.238574928723899
 30
0.0
 11
41.94310364977729
 21
32.0664422405779
 31
0.0
  0
LINE
  5
EF
330
EB
100
AcDbEntity
  8
치수문자_일반주서
 62
     0
370
    -2
100
AcDbLine
 10
-35.84439635022271
 20
3.873574928723895
 30
0.0
 11
-35.84439635022271
 21
32.0664422405779
 31
0.0
  0
LINE
  5
F0
330
EB
100
AcDbEntity
  8
치수문자_일반주서
 62
     0
370
    -2
100
AcDbLine
 10
38.64110364977729
 20
32.0664422405779
 30
0.0
 11
-32.54239635022271
 21
32.0664422405779
 31
0.0
  0
SOLID
  5
F1
330
EB
100
AcDbEntity
  8
치수문자_일반주서
 62
     0
100
AcDbTrace
 10
38.64110364977729
 20
31.51610890724456
 30
0.0
 11
38.64110364977729
 21
32.61677557391123
 31
0.0
 12
41.94310364977729
 22
32.0664422405779
 32
0.0
 13
41.94310364977729
 23
32.0664422405779
 33
0.0
  0
SOLID
  5
F2
330
EB
100
AcDbEntity
  8
치수문자_일반주서
 62
     0
100
AcDbTrace
 10
-32.54239635022271
 20
32.61677557391123
 30
0.0
 11
-32.54239635022271
 21
31.51610890724456
 31
0.0
 12
-35.84439635022271
 22
32.0664422405779
 32
0.0
 13
-35.84439635022271
 23
32.0664422405779
 33
0.0
  0
MTEXT
  5
F3
330
EB
100
AcDbEntity
  8
치수문자_일반주서
 62
     0
100
AcDbMText
 10
3.049353649777285
 20
36.4414422405779
 30
0.0
 40
3.5
 41
0.0
 71
     2
 72
     1
  1
\A1;77.79 [3 1/16]
  7
SLDTEXTSTYLE0
 73
     1
 44
1.0
  0
POINT
  5
F4
330
EB
100
AcDbEntity
  8
Defpoints
 62
     0
100
AcDbPoint
 10
41.94310364977729
 20
3.176074928723899
 30
0.0
  0
POINT
  5
F5
330
EB
100
AcDbEntity
  8
Defpoints
 62
     0
100
AcDbPoint
 10
-35.84439635022271
 20
3.811074928723895
 30
0.0
  0
POINT
  5
F6
330
EB
100
AcDbEntity
  8
Defpoints
 62
     0
100
AcDbPoint
 10
-35.84439635022271
 20
32.0664422405779
 30
0.0
  0
ENDBLK
  5
ED
330
EB
100
AcDbEntity
  8
0
100
AcDbBlockEnd
  0
BLOCK
  5
100
330
FF
100
AcDbEntity
  8
0
100
AcDbBlockBegin
  2
_D_2
 70
     0
 10
0.0
 20
0.0
 30
0.0
  3
_D_2
  1
_D_2
  0
LINE
  5
102
330
FF
100
AcDbEntity
  8
치수문자_일반주서
 62
     0
370
    -2
100
AcDbLine
 10
-34.95439635022272
 20
4.763574928723896
 30
0.0
 11
-47.14516918804993
 21
4.763574928723854
 31
0.0
  0
LINE
  5
103
330
FF
100
AcDbEntity
  8
치수문자_일반주서
 62
     0
370
    -2
100
AcDbLine
 10
-34.95439635022272
 20
-4.761425071276109
 30
0.0
 11
-47.14516918804989
 21
-4.761425071276152
 31
0.0
  0
LINE
  5
104
330
FF
100
AcDbEntity
  8
치수문자_일반주서
 62
     0
370
    -2
100
AcDbLine
 10
-47.14516918804991
 20
1.461574928723854
 30
0.0
 11
-47.14516918804991
 21
-1.459425071276153
 31
0.0
  0
SOLID
  5
105
330
FF
100
AcDbEntity
  8
치수문자_일반주서
 62
     0
100
AcDbTrace
 10
-46.59483585471658
 20
1.461574928723856
 30
0.0
 11
-47.69550252138325
 21
1.461574928723852
 31
0.0
 12
-47.14516918804993
 22
4.763574928723854
 32
0.0
 13
-47.14516918804993
 23
4.763574928723854
 33
0.0
  0
SOLID
  5
106
330
FF
100
AcDbEntity
  8
치수문자_일반주서
 62
     0
100
AcDbTrace
 10
-47.69550252138324
 20
-1.459425071276155
 30
0.0
 11
-46.59483585471657
 21
-1.459425071276151
 31
0.0
 12
-47.14516918804989
 22
-4.761425071276152
 32
0.0
 13
-47.14516918804989
 23
-4.761425071276152
 33
0.0
  0
MTEXT
  5
107
330
FF
100
AcDbEntity
  8
치수문자_일반주서
 62
     0
100
AcDbMText
 10
-51.52016918804991
 20
0.0010749287238796
 30
0.0
 40
3.5
 41
0.0
 71
     2
 72
     1
  1
\A1;%%c9.53 [3/8]
  7
SLDTEXTSTYLE0
 11
-3.729883127349605E-15
 21
1.0
 31
0.0
 73
     1
 44
1.0
  0
POINT
  5
108
330
FF
100
AcDbEntity
  8
Defpoints
 62
     0
100
AcDbPoint
 10
-34.89189635022272
 20
4.763574928723896
 30
0.0
  0
POINT
  5
109
330
FF
100
AcDbEntity
  8
Defpoints
 62
     0
100
AcDbPoint
 10
-34.89189635022272
 20
-4.761425071276109
 30
0.0
  0
POINT
  5
10A
330
FF
100
AcDbEntity
  8
Defpoints
 62
     0
100
AcDbPoint
 10
-47.14516918804991
 20
-4.761425071276152
 30
0.0
  0
ENDBLK
  5
101
330
FF
100
AcDbEntity
  8
0
100
AcDbBlockEnd
  0
BLOCK
  5
115
330
114
100
AcDbEntity
  8
0
100
AcDbBlockBegin
  2
_D_3
 70
     0
 10
0.0
 20
0.0
 30
0.0
  3
_D_3
  1
_D_3
  0
LINE
  5
117
330
114
100
AcDbEntity
  8
치수문자_일반주서
 62
     0
370
    -2
100
AcDbLine
 10
53.59506574320836
 20
12.7010749287239
 30
0.0
 11
100.0376715928977
 21
12.70107492872405
 31
0.0
  0
LINE
  5
118
330
114
100
AcDbEntity
  8
치수문자_일반주서
 62
     0
370
    -2
100
AcDbLine
 10
53.59506574320836
 20
-12.69892507127611
 30
0.0
 11
100.0376715928978
 21
-12.69892507127595
 31
0.0
  0
LINE
  5
119
330
114
100
AcDbEntity
  8
치수문자_일반주서
 62
     0
370
    -2
100
AcDbLine
 10
100.0376715928977
 20
12.70107492872405
 30
0.0
 11
100.0376715928974
 21
115.0413527065018
 31
0.0
  0
LINE
  5
11A
330
114
100
AcDbEntity
  8
치수문자_일반주서
 62
     0
370
    -2
100
AcDbLine
 10
100.0376715928977
 20
12.70107492872405
 30
0.0
 11
100.0376715928978
 21
-12.69892507127595
 31
0.0
  0
LINE
  5
11B
330
114
100
AcDbEntity
  8
치수문자_일반주서
 62
     0
370
    -2
100
AcDbLine
 10
100.0376715928977
 20
16.00307492872405
 30
0.0
 11
100.0376715928977
 21
19.30507492872405
 31
0.0
  0
LINE
  5
11C
330
114
100
AcDbEntity
  8
치수문자_일반주서
 62
     0
370
    -2
100
AcDbLine
 10
100.0376715928978
 20
-16.00092507127595
 30
0.0
 11
100.0376715928979
 21
-19.30292507127595
 31
0.0
  0
SOLID
  5
11D
330
114
100
AcDbEntity
  8
치수문자_일반주서
 62
     0
100
AcDbTrace
 10
99.4873382595644
 20
16.00307492872405
 30
0.0
 11
100.5880049262311
 21
16.00307492872406
 31
0.0
 12
100.0376715928977
 22
12.70107492872405
 32
0.0
 13
100.0376715928977
 23
12.70107492872405
 33
0.0
  0
SOLID
  5
11E
330
114
100
AcDbEntity
  8
치수문자_일반주서
 62
     0
100
AcDbTrace
 10
100.5880049262312
 20
-16.00092507127595
 30
0.0
 11
99.48733825956451
 21
-16.00092507127595
 31
0.0
 12
100.0376715928978
 22
-12.69892507127595
 32
0.0
 13
100.0376715928978
 23
-12.69892507127595
 33
0.0
  0
MTEXT
  5
11F
330
114
100
AcDbEntity
  8
치수문자_일반주서
 62
     0
100
AcDbMText
 10
95.66267159289742
 20
104.9788527065017
 30
0.0
 40
3.5
 41
0.0
 71
     2
 72
     1
  1
\A1;%%c25.4 [1]
  7
SLDTEXTSTYLE0
 11
-3.356894814614646E-15
 21
1.0
 31
0.0
 73
     1
 44
1.0
  0
POINT
  5
120
330
114
100
AcDbEntity
  8
Defpoints
 62
     0
100
AcDbPoint
 10
53.53256574320836
 20
12.7010749287239
 30
0.0
  0
POINT
  5
121
330
114
100
AcDbEntity
  8
Defpoints
 62
     0
100
AcDbPoint
 10
53.53256574320836
 20
-12.69892507127611
 30
0.0
  0
POINT
  5
122
330
114
100
AcDbEntity
  8
Defpoints
 62
     0
100
AcDbPoint
 10
100.0376715928974
 20
-12.69892507127595
 30
0.0
  0
ENDBLK
  5
116
330
114
100
AcDbEntity
  8
0
100
AcDbBlockEnd
  0
BLOCK
  5
12E
330
12D
100
AcDbEntity
  8
0
100
AcDbBlockBegin
  2
SW_DOWELSYMBOL_0
 70
     0
 10
0.0
 20
0.0
 30
0.0
  3
SW_DOWELSYMBOL_0
  1
SW_DOWELSYMBOL_0
  0
CIRCLE
  5
130
330
12D
100
AcDbEntity
  8
해칭선
 62
     0
100
AcDbCircle
 10
0.0
 20
0.0
 30
0.0
 40
3.000000000000001
  0
HATCH
  5
131
330
12D
100
AcDbEntity
  8
0
  6
Continuous
 62
     0
370
     0
100
AcDbHatch
 10
0.0
 20
0.0
 30
0.0
210
0.0
220
0.0
230
1.0
  2
SOLID
 70
     1
 71
     0
 91
        1
 92
        0
 93
        3
 72
     2
 10
0.0
 20
0.0
 40
3.000000000000001
 50
0.0
 51
90.0
 73
     1
 72
     1
 10
0.0
 20
3.000000000000001
 11
0.0
 21
0.0
 72
     1
 10
0.0
 20
0.0
 11
3.000000000000001
 21
0.0
 97
        0
 75
     0
 76
     1
 98
        1
 10
0.0
 20
0.0
  0
HATCH
  5
132
330
12D
100
AcDbEntity
  8
0
  6
Continuous
 62
     0
370
     0
100
AcDbHatch
 10
0.0
 20
0.0
 30
0.0
210
0.0
220
0.0
230
1.0
  2
SOLID
 70
     1
 71
     0
 91
        1
 92
        0
 93
        3
 72
     2
 10
0.0
 20
0.0
 40
3.000000000000001
 50
180.0
 51
270.0000000000007
 73
     1
 72
     1
 10
0.0
 20
-3.000000000000001
 11
0.0
 21
0.0
 72
     1
 10
0.0
 20
0.0
 11
-3.000000000000001
 21
0.0
 97
        0
 75
     0
 76
     1
 98
        1
 10
0.0
 20
0.0
  0
ENDBLK
  5
12F
330
12D
100
AcDbEntity
  8
0
100
AcDbBlockEnd
  0
BLOCK
  5
1FA
330
1F9
100
AcDbEntity
  8
0
100
AcDbBlockBegin
  2
*D7
 70
     1
 10
0.0
 20
0.0
 30
0.0
  3
*D7
  1
*D8
  0
LINE
  5
1FB
330
1F9
100
AcDbEntity
  8
치수문자_일반주서
 62
     0
370
    -2
100
AcDbLine
 10
84.00077283782724
 20
13.83750000000002
 30
0.0
 11
104.0755179342603
 21
13.83750000000001
 31
0.0
  0
LINE
  5
1FC
330
1F9
100
AcDbEntity
  8
치수문자_일반주서
 62
     0
370
    -2
100
AcDbLine
 10
84.00077283782724
 20
10.66250000000002
 30
0.0
 11
104.0755179342603
 21
10.66250000000002
 31
0.0
  0
LINE
  5
1FD
330
1F9
100
AcDbEntity
  8
치수문자_일반주서
 62
     0
370
    -2
100
AcDbLine
 10
104.0755179342603
 20
13.83750000000001
 30
0.0
 11
104.0755179342603
 21
43.61652552276446
 31
0.0
  0
LINE
  5
1FE
330
1F9
100
AcDbEntity
  8
치수문자_일반주서
 62
     0
370
    -2
100
AcDbLine
 10
104.0755179342603
 20
13.83750000000001
 30
0.0
 11
104.0755179342603
 21
10.66250000000002
 31
0.0
  0
LINE
  5
1FF
330
1F9
100
AcDbEntity
  8
치수문자_일반주서
 62
     0
370
    -2
100
AcDbLine
 10
104.0755179342603
 20
17.13950000000001
 30
0.0
 11
104.0755179342603
 21
20.44150000000001
 31
0.0
  0
LINE
  5
200
330
1F9
100
AcDbEntity
  8
치수문자_일반주서
 62
     0
370
    -2
100
AcDbLine
 10
104.0755179342603
 20
7.360500000000016
 30
0.0
 11
104.0755179342603
 21
4.058500000000016
 31
0.0
  0
SOLID
  5
201
330
1F9
100
AcDbEntity
  8
치수문자_일반주서
 62
     0
100
AcDbTrace
 10
103.525184600927
 20
17.13950000000001
 30
0.0
 11
104.6258512675937
 21
17.13950000000001
 31
0.0
 12
104.0755179342603
 22
13.83750000000001
 32
0.0
 13
104.0755179342603
 23
13.83750000000001
 33
0.0
  0
SOLID
  5
202
330
1F9
100
AcDbEntity
  8
치수문자_일반주서
 62
     0
100
AcDbTrace
 10
104.6258512675937
 20
7.360500000000016
 30
0.0
 11
103.525184600927
 21
7.360500000000016
 31
0.0
 12
104.0755179342603
 22
10.66250000000002
 32
0.0
 13
104.0755179342603
 23
10.66250000000002
 33
0.0
  0
MTEXT
  5
203
330
1F9
100
AcDbEntity
  8
치수문자_일반주서
 62
     0
100
AcDbMText
 10
101.4505179342603
 20
32.67902552276446
 30
0.0
 40
3.5
 41
0.0
 71
     5
 72
     1
  1
\A1;3.18 [1/8]
  7
SLDTEXTSTYLE0
 11
0.0
 21
1.0
 31
0.0
 73
     1
 44
1.0
  0
POINT
  5
204
330
1F9
100
AcDbEntity
  8
Defpoints
 62
     0
100
AcDbPoint
 10
83.93827283782724
 20
13.83750000000002
 30
0.0
  0
POINT
  5
205
330
1F9
100
AcDbEntity
  8
Defpoints
 62
     0
100
AcDbPoint
 10
83.93827283782724
 20
10.66250000000002
 30
0.0
  0
POINT
  5
206
330
1F9
100
AcDbEntity
  8
Defpoints
 62
     0
100
AcDbPoint
 10
104.0755179342603
 20
10.66250000000001
 30
0.0
  0
ENDBLK
  5
207
330
1F9
100
AcDbEntity
  8
0
100
AcDbBlockEnd
  0
BLOCK
  5
20D
330
20C
100
AcDbEntity
  8
0
100
AcDbBlockBegin
  2
*D8
 70
     1
 10
0.0
 20
0.0
 30
0.0
  3
*D8
  1
*D9
  0
LINE
  5
20F
330
20C
100
AcDbEntity
  8
치수문자_일반주서
 62
     0
370
    -2
100
AcDbLine
 10
83.93827283782724
 20
13.90000000000002
 30
0.0
 11
83.93827283782724
 21
27.53982293447375
 31
0.0
  0
LINE
  5
210
330
20C
100
AcDbEntity
  8
치수문자_일반주서
 62
     0
370
    -2
100
AcDbLine
 10
64.88827283782724
 20
13.71480718904203
 30
0.0
 11
64.88827283782724
 21
27.53982293447375
 31
0.0
  0
LINE
  5
211
330
20C
100
AcDbEntity
  8
치수문자_일반주서
 62
     0
370
    -2
100
AcDbLine
 10
64.88827283782724
 20
27.53982293447375
 30
0.0
 11
33.34677283782725
 21
27.53982293447375
 31
0.0
  0
LINE
  5
212
330
20C
100
AcDbEntity
  8
치수문자_일반주서
 62
     0
370
    -2
100
AcDbLine
 10
83.93827283782724
 20
27.53982293447375
 30
0.0
 11
64.88827283782724
 21
27.53982293447375
 31
0.0
  0
LINE
  5
213
330
20C
100
AcDbEntity
  8
치수문자_일반주서
 62
     0
370
    -2
100
AcDbLine
 10
87.24027283782723
 20
27.53982293447375
 30
0.0
 11
90.54227283782723
 21
27.53982293447375
 31
0.0
  0
LINE
  5
214
330
20C
100
AcDbEntity
  8
치수문자_일반주서
 62
     0
370
    -2
100
AcDbLine
 10
61.58627283782725
 20
27.53982293447375
 30
0.0
 11
58.28427283782725
 21
27.53982293447375
 31
0.0
  0
SOLID
  5
215
330
20C
100
AcDbEntity
  8
치수문자_일반주서
 62
     0
100
AcDbTrace
 10
87.24027283782723
 20
28.09015626780708
 30
0.0
 11
87.24027283782723
 21
26.98948960114041
 31
0.0
 12
83.93827283782724
 22
27.53982293447375
 32
0.0
 13
83.93827283782724
 23
27.53982293447375
 33
0.0
  0
SOLID
  5
216
330
20C
100
AcDbEntity
  8
치수문자_일반주서
 62
     0
100
AcDbTrace
 10
61.58627283782725
 20
26.98948960114041
 30
0.0
 11
61.58627283782725
 21
28.09015626780708
 31
0.0
 12
64.88827283782724
 22
27.53982293447375
 32
0.0
 13
64.88827283782724
 23
27.53982293447375
 33
0.0
  0
MTEXT
  5
217
330
20C
100
AcDbEntity
  8
치수문자_일반주서
 62
     0
100
AcDbMText
 10
45.81552283782725
 20
31.91482293447375
 30
0.0
 40
3.5
 41
0.0
 71
     2
 72
     1
  1
\A1;19.05 [3/4]
  7
SLDTEXTSTYLE0
 73
     1
 44
1.0
  0
POINT
  5
218
330
20C
100
AcDbEntity
  8
Defpoints
 62
     0
100
AcDbPoint
 10
83.93827283782724
 20
13.83750000000002
 30
0.0
  0
POINT
  5
219
330
20C
100
AcDbEntity
  8
Defpoints
 62
     0
100
AcDbPoint
 10
64.88827283782724
 20
13.65230718904203
 30
0.0
  0
POINT
  5
21A
330
20C
100
AcDbEntity
  8
Defpoints
 62
     0
100
AcDbPoint
 10
64.88827283782724
 20
27.53982293447375
 30
0.0
  0
ENDBLK
  5
20E
330
20C
100
AcDbEntity
  8
0
100
AcDbBlockEnd
  0
BLOCK
  5
21C
330
21B
100
AcDbEntity
  8
0
100
AcDbBlockBegin
  2
*D9
 70
     1
 10
0.0
 20
0.0
 30
0.0
  3
*D9
  1
*D10
  0
LINE
  5
21E
330
21B
100
AcDbEntity
  8
치수문자_일반주서
 62
     0
370
    -2
100
AcDbLine
 10
83.93827283782724
 20
13.90000000000002
 30
0.0
 11
83.93827283782724
 21
42.7337051978028
 31
0.0
  0
LINE
  5
21F
330
21B
100
AcDbEntity
  8
치수문자_일반주서
 62
     0
370
    -2
100
AcDbLine
 10
15.67577283782725
 20
16.12250000000001
 30
0.0
 11
15.67577283782725
 21
42.7337051978028
 31
0.0
  0
LINE
  5
220
330
21B
100
AcDbEntity
  8
치수문자_일반주서
 62
     0
370
    -2
100
AcDbLine
 10
80.63627283782725
 20
42.7337051978028
 30
0.0
 11
18.97777283782725
 21
42.7337051978028
 31
0.0
  0
SOLID
  5
221
330
21B
100
AcDbEntity
  8
치수문자_일반주서
 62
     0
100
AcDbTrace
 10
80.63627283782725
 20
42.18337186446946
 30
0.0
 11
80.63627283782725
 21
43.28403853113613
 31
0.0
 12
83.93827283782724
 22
42.7337051978028
 32
0.0
 13
83.93827283782724
 23
42.7337051978028
 33
0.0
  0
SOLID
  5
222
330
21B
100
AcDbEntity
  8
치수문자_일반주서
 62
     0
100
AcDbTrace
 10
18.97777283782725
 20
43.28403853113613
 30
0.0
 11
18.97777283782725
 21
42.18337186446946
 31
0.0
 12
15.67577283782725
 22
42.7337051978028
 32
0.0
 13
15.67577283782725
 23
42.7337051978028
 33
0.0
  0
MTEXT
  5
223
330
21B
100
AcDbEntity
  8
치수문자_일반주서
 62
     0
100
AcDbMText
 10
49.80702283782725
 20
47.1087051978028
 30
0.0
 40
3.5
 41
0.0
 71
     2
 72
     1
  1
\A1;68.26 [2 11/16]
  7
SLDTEXTSTYLE0
 73
     1
 44
1.0
  0
POINT
  5
224
330
21B
100
AcDbEntity
  8
Defpoints
 62
     0
100
AcDbPoint
 10
83.93827283782724
 20
13.83750000000002
 30
0.0
  0
POINT
  5
225
330
21B
100
AcDbEntity
  8
Defpoints
 62
     0
100
AcDbPoint
 10
15.67577283782725
 20
16.06000000000001
 30
0.0
  0
POINT
  5
226
330
21B
100
AcDbEntity
  8
Defpoints
 62
     0
100
AcDbPoint
 10
15.67577283782725
 20
42.7337051978028
 30
0.0
  0
ENDBLK
  5
21D
330
21B
100
AcDbEntity
  8
0
100
AcDbBlockEnd
  0
BLOCK
  5
228
330
227
100
AcDbEntity
  8
0
100
AcDbBlockBegin
  2
*D10
 70
     1
 10
0.0
 20
0.0
 30
0.0
  3
*D10
  1
*D11
  0
LINE
  5
22A
330
227
100
AcDbEntity
  8
치수문자_일반주서
 62
     0
370
    -2
100
AcDbLine
 10
16.56577283782724
 20
17.01250000000001
 30
0.0
 11
4.375000000000027
 21
17.01249999999997
 31
0.0
  0
LINE
  5
22B
330
227
100
AcDbEntity
  8
치수문자_일반주서
 62
     0
370
    -2
100
AcDbLine
 10
16.56577283782724
 20
7.487500000000008
 30
0.0
 11
4.37500000000006
 21
7.487499999999962
 31
0.0
  0
LINE
  5
22C
330
227
100
AcDbEntity
  8
치수문자_일반주서
 62
     0
370
    -2
100
AcDbLine
 10
4.375000000000038
 20
13.71049999999997
 30
0.0
 11
4.375000000000048
 21
10.78949999999996
 31
0.0
  0
SOLID
  5
22D
330
227
100
AcDbEntity
  8
치수문자_일반주서
 62
     0
100
AcDbTrace
 10
4.925333333333372
 20
13.71049999999997
 30
0.0
 11
3.824666666666705
 21
13.71049999999997
 31
0.0
 12
4.375000000000027
 22
17.01249999999997
 32
0.0
 13
4.375000000000027
 23
17.01249999999997
 33
0.0
  0
SOLID
  5
22E
330
227
100
AcDbEntity
  8
치수문자_일반주서
 62
     0
100
AcDbTrace
 10
3.824666666666715
 20
10.78949999999996
 30
0.0
 11
4.925333333333382
 21
10.78949999999996
 31
0.0
 12
4.37500000000006
 22
7.487499999999962
 32
0.0
 13
4.37500000000006
 23
7.487499999999962
 33
0.0
  0
MTEXT
  5
22F
330
227
100
AcDbEntity
  8
치수문자_일반주서
 62
     0
100
AcDbMText
 10
0.0000000000000426
 20
12.25
 30
0.0
 40
3.5
 41
0.0
 71
     2
 72
     1
  1
\A1;%%c9.53 [3/8]
  7
SLDTEXTSTYLE0
 11
-3.450141892798385E-15
 21
1.0
 31
0.0
 73
     1
 44
1.0
  0
POINT
  5
230
330
227
100
AcDbEntity
  8
Defpoints
 62
     0
100
AcDbPoint
 10
16.62827283782724
 20
17.01250000000001
 30
0.0
  0
POINT
  5
231
330
227
100
AcDbEntity
  8
Defpoints
 62
     0
100
AcDbPoint
 10
16.62827283782724
 20
7.487500000000008
 30
0.0
  0
POINT
  5
232
330
227
100
AcDbEntity
  8
Defpoints
 62
     0
100
AcDbPoint
 10
4.375000000000064
 20
7.487499999999962
 30
0.0
  0
ENDBLK
  5
229
330
227
100
AcDbEntity
  8
0
100
AcDbBlockEnd
  0
BLOCK
  5
27F
330
27E
100
AcDbEntity
  8
0
100
AcDbBlockBegin
  2
*D11
 70
     1
 10
0.0
 20
0.0
 30
0.0
  3
*D11
  1
*D12
  0
LINE
  5
281
330
27E
100
AcDbEntity
  8
치수문자_일반주서
 62
     0
370
    -2
100
AcDbLine
 10
180.4099705338307
 20
-46.12025268214809
 30
0.0
 11
180.4099705338307
 21
-32.48042974767436
 31
0.0
  0
LINE
  5
282
330
27E
100
AcDbEntity
  8
치수문자_일반주서
 62
     0
370
    -2
100
AcDbLine
 10
161.3599705338307
 20
-46.30544549310608
 30
0.0
 11
161.3599705338307
 21
-32.48042974767436
 31
0.0
  0
LINE
  5
283
330
27E
100
AcDbEntity
  8
치수문자_일반주서
 62
     0
370
    -2
100
AcDbLine
 10
161.3599705338307
 20
-32.48042974767436
 30
0.0
 11
129.8184705338307
 21
-32.48042974767436
 31
0.0
  0
LINE
  5
284
330
27E
100
AcDbEntity
  8
치수문자_일반주서
 62
     0
370
    -2
100
AcDbLine
 10
180.4099705338307
 20
-32.48042974767436
 30
0.0
 11
161.3599705338307
 21
-32.48042974767436
 31
0.0
  0
LINE
  5
285
330
27E
100
AcDbEntity
  8
치수문자_일반주서
 62
     0
370
    -2
100
AcDbLine
 10
183.7119705338307
 20
-32.48042974767436
 30
0.0
 11
187.0139705338307
 21
-32.48042974767436
 31
0.0
  0
LINE
  5
286
330
27E
100
AcDbEntity
  8
치수문자_일반주서
 62
     0
370
    -2
100
AcDbLine
 10
158.0579705338307
 20
-32.48042974767436
 30
0.0
 11
154.7559705338307
 21
-32.48042974767436
 31
0.0
  0
SOLID
  5
287
330
27E
100
AcDbEntity
  8
치수문자_일반주서
 62
     0
100
AcDbTrace
 10
183.7119705338307
 20
-31.93009641434103
 30
0.0
 11
183.7119705338307
 21
-33.0307630810077
 31
0.0
 12
180.4099705338307
 22
-32.48042974767436
 32
0.0
 13
180.4099705338307
 23
-32.48042974767436
 33
0.0
  0
SOLID
  5
288
330
27E
100
AcDbEntity
  8
치수문자_일반주서
 62
     0
100
AcDbTrace
 10
158.0579705338307
 20
-33.0307630810077
 30
0.0
 11
158.0579705338307
 21
-31.93009641434103
 31
0.0
 12
161.3599705338307
 22
-32.48042974767436
 32
0.0
 13
161.3599705338307
 23
-32.48042974767436
 33
0.0
  0
MTEXT
  5
289
330
27E
100
AcDbEntity
  8
치수문자_일반주서
 62
     0
100
AcDbMText
 10
142.2872205338307
 20
-28.10542974767436
 30
0.0
 40
3.5
 41
0.0
 71
     2
 72
     1
  1
\A1;19.05 [3/4]
  7
SLDTEXTSTYLE0
 73
     1
 44
1.0
  0
POINT
  5
28A
330
27E
100
AcDbEntity
  8
Defpoints
 62
     0
100
AcDbPoint
 10
180.4099705338307
 20
-46.18275268214809
 30
0.0
  0
POINT
  5
28B
330
27E
100
AcDbEntity
  8
Defpoints
 62
     0
100
AcDbPoint
 10
161.3599705338307
 20
-46.36794549310608
 30
0.0
  0
POINT
  5
28C
330
27E
100
AcDbEntity
  8
Defpoints
 62
     0
100
AcDbPoint
 10
161.3599705338307
 20
-32.48042974767436
 30
0.0
  0
ENDBLK
  5
280
330
27E
100
AcDbEntity
  8
0
100
AcDbBlockEnd
  0
BLOCK
  5
28E
330
28D
100
AcDbEntity
  8
0
100
AcDbBlockBegin
  2
*D12
 70
     1
 10
0.0
 20
0.0
 30
0.0
  3
*D12
  1
*D13
  0
LINE
  5
290
330
28D
100
AcDbEntity
  8
치수문자_일반주서
 62
     0
370
    -2
100
AcDbLine
 10
180.4099705338307
 20
-46.12025268214809
 30
0.0
 11
180.4099705338307
 21
-17.28654748434531
 31
0.0
  0
LINE
  5
291
330
28D
100
AcDbEntity
  8
치수문자_일반주서
 62
     0
370
    -2
100
AcDbLine
 10
112.1474705338307
 20
-43.8977526821481
 30
0.0
 11
112.1474705338307
 21
-17.28654748434531
 31
0.0
  0
LINE
  5
292
330
28D
100
AcDbEntity
  8
치수문자_일반주서
 62
     0
370
    -2
100
AcDbLine
 10
177.1079705338307
 20
-17.28654748434531
 30
0.0
 11
115.4494705338307
 21
-17.28654748434531
 31
0.0
  0
SOLID
  5
293
330
28D
100
AcDbEntity
  8
치수문자_일반주서
 62
     0
100
AcDbTrace
 10
177.1079705338307
 20
-17.83688081767865
 30
0.0
 11
177.1079705338307
 21
-16.73621415101198
 31
0.0
 12
180.4099705338307
 22
-17.28654748434531
 32
0.0
 13
180.4099705338307
 23
-17.28654748434531
 33
0.0
  0
SOLID
  5
294
330
28D
100
AcDbEntity
  8
치수문자_일반주서
 62
     0
100
AcDbTrace
 10
115.4494705338307
 20
-16.73621415101198
 30
0.0
 11
115.4494705338307
 21
-17.83688081767865
 31
0.0
 12
112.1474705338307
 22
-17.28654748434531
 32
0.0
 13
112.1474705338307
 23
-17.28654748434531
 33
0.0
  0
MTEXT
  5
295
330
28D
100
AcDbEntity
  8
치수문자_일반주서
 62
     0
100
AcDbMText
 10
146.2787205338307
 20
-12.91154748434531
 30
0.0
 40
3.5
 41
0.0
 71
     2
 72
     1
  1
\A1;68.26 [2 11/16]
  7
SLDTEXTSTYLE0
 73
     1
 44
1.0
  0
POINT
  5
296
330
28D
100
AcDbEntity
  8
Defpoints
 62
     0
100
AcDbPoint
 10
180.4099705338307
 20
-46.18275268214809
 30
0.0
  0
POINT
  5
297
330
28D
100
AcDbEntity
  8
Defpoints
 62
     0
100
AcDbPoint
 10
112.1474705338307
 20
-43.9602526821481
 30
0.0
  0
POINT
  5
298
330
28D
100
AcDbEntity
  8
Defpoints
 62
     0
100
AcDbPoint
 10
112.1474705338307
 20
-17.28654748434531
 30
0.0
  0
ENDBLK
  5
28F
330
28D
100
AcDbEntity
  8
0
100
AcDbBlockEnd
  0
BLOCK
  5
29A
330
299
100
AcDbEntity
  8
0
100
AcDbBlockBegin
  2
*D13
 70
     1
 10
0.0
 20
0.0
 30
0.0
  3
*D13
  1
*D14
  0
LINE
  5
29C
330
299
100
AcDbEntity
  8
치수문자_일반주서
 62
     0
370
    -2
100
AcDbLine
 10
113.0374705338307
 20
-43.00775268214809
 30
0.0
 11
100.8466976960035
 21
-43.00775268214814
 31
0.0
  0
LINE
  5
29D
330
299
100
AcDbEntity
  8
치수문자_일반주서
 62
     0
370
    -2
100
AcDbLine
 10
113.0374705338307
 20
-52.5327526821481
 30
0.0
 11
100.8466976960035
 21
-52.53275268214814
 31
0.0
  0
LINE
  5
29E
330
299
100
AcDbEntity
  8
치수문자_일반주서
 62
     0
370
    -2
100
AcDbLine
 10
100.8466976960035
 20
-46.30975268214814
 30
0.0
 11
100.8466976960035
 21
-49.23075268214814
 31
0.0
  0
SOLID
  5
29F
330
299
100
AcDbEntity
  8
치수문자_일반주서
 62
     0
100
AcDbTrace
 10
101.3970310293368
 20
-46.30975268214814
 30
0.0
 11
100.2963643626702
 21
-46.30975268214814
 31
0.0
 12
100.8466976960035
 22
-43.00775268214814
 32
0.0
 13
100.8466976960035
 23
-43.00775268214814
 33
0.0
  0
SOLID
  5
2A0
330
299
100
AcDbEntity
  8
치수문자_일반주서
 62
     0
100
AcDbTrace
 10
100.2963643626702
 20
-49.23075268214814
 30
0.0
 11
101.3970310293368
 21
-49.23075268214814
 31
0.0
 12
100.8466976960035
 22
-52.53275268214814
 32
0.0
 13
100.8466976960035
 23
-52.53275268214814
 33
0.0
  0
MTEXT
  5
2A1
330
299
100
AcDbEntity
  8
치수문자_일반주서
 62
     0
100
AcDbMText
 10
96.47169769600352
 20
-47.77025268214811
 30
0.0
 40
3.5
 41
0.0
 71
     2
 72
     1
  1
\A1;%%c9.53 [3/8]
  7
SLDTEXTSTYLE0
 11
-2.983906501879684E-15
 21
1.0
 31
0.0
 73
     1
 44
1.0
  0
POINT
  5
2A2
330
299
100
AcDbEntity
  8
Defpoints
 62
     0
100
AcDbPoint
 10
113.0999705338307
 20
-43.00775268214809
 30
0.0
  0
POINT
  5
2A3
330
299
100
AcDbEntity
  8
Defpoints
 62
     0
100
AcDbPoint
 10
113.0999705338307
 20
-52.5327526821481
 30
0.0
  0
POINT
  5
2A4
330
299
100
AcDbEntity
  8
Defpoints
 62
     0
100
AcDbPoint
 10
100.8466976960035
 20
-52.53275268214814
 30
0.0
  0
ENDBLK
  5
29B
330
299
100
AcDbEntity
  8
0
100
AcDbBlockEnd
  0
BLOCK
  5
2A6
330
2A5
100
AcDbEntity
  8
0
100
AcDbBlockBegin
  2
*D14
 70
     1
 10
0.0
 20
0.0
 30
0.0
  3
*D14
  1
*D15
  0
LINE
  5
2A8
330
2A5
100
AcDbEntity
  8
치수문자_일반주서
 62
     0
370
    -2
100
AcDbLine
 10
180.4724705338307
 20
-46.18275268214809
 30
0.0
 11
200.5472156302638
 21
-46.18275268214809
 31
0.0
  0
LINE
  5
2A9
330
2A5
100
AcDbEntity
  8
치수문자_일반주서
 62
     0
370
    -2
100
AcDbLine
 10
180.4724705338307
 20
-49.3577526821481
 30
0.0
 11
200.5472156302638
 21
-49.3577526821481
 31
0.0
  0
LINE
  5
2AA
330
2A5
100
AcDbEntity
  8
치수문자_일반주서
 62
     0
370
    -2
100
AcDbLine
 10
200.5472156302638
 20
-46.18275268214809
 30
0.0
 11
200.5472156302638
 21
-16.40372715938366
 31
0.0
  0
LINE
  5
2AB
330
2A5
100
AcDbEntity
  8
치수문자_일반주서
 62
     0
370
    -2
100
AcDbLine
 10
200.5472156302638
 20
-46.18275268214809
 30
0.0
 11
200.5472156302638
 21
-49.3577526821481
 31
0.0
  0
LINE
  5
2AC
330
2A5
100
AcDbEntity
  8
치수문자_일반주서
 62
     0
370
    -2
100
AcDbLine
 10
200.5472156302638
 20
-42.88075268214809
 30
0.0
 11
200.5472156302638
 21
-39.57875268214809
 31
0.0
  0
LINE
  5
2AD
330
2A5
100
AcDbEntity
  8
치수문자_일반주서
 62
     0
370
    -2
100
AcDbLine
 10
200.5472156302638
 20
-52.6597526821481
 30
0.0
 11
200.5472156302638
 21
-55.9617526821481
 31
0.0
  0
SOLID
  5
2AE
330
2A5
100
AcDbEntity
  8
치수문자_일반주서
 62
     0
100
AcDbTrace
 10
199.9968822969305
 20
-42.88075268214809
 30
0.0
 11
201.0975489635971
 21
-42.88075268214809
 31
0.0
 12
200.5472156302638
 22
-46.18275268214809
 32
0.0
 13
200.5472156302638
 23
-46.18275268214809
 33
0.0
  0
SOLID
  5
2AF
330
2A5
100
AcDbEntity
  8
치수문자_일반주서
 62
     0
100
AcDbTrace
 10
201.0975489635971
 20
-52.6597526821481
 30
0.0
 11
199.9968822969305
 21
-52.6597526821481
 31
0.0
 12
200.5472156302638
 22
-49.3577526821481
 32
0.0
 13
200.5472156302638
 23
-49.3577526821481
 33
0.0
  0
MTEXT
  5
2B0
330
2A5
100
AcDbEntity
  8
치수문자_일반주서
 62
     0
100
AcDbMText
 10
197.9222156302638
 20
-27.34122715938366
 30
0.0
 40
3.5
 41
0.0
 71
     5
 72
     1
  1
\A1;3.18 [1/8]
  7
SLDTEXTSTYLE0
 11
0.0
 21
1.0
 31
0.0
 73
     1
 44
1.0
  0
POINT
  5
2B1
330
2A5
100
AcDbEntity
  8
Defpoints
 62
     0
100
AcDbPoint
 10
180.4099705338307
 20
-46.18275268214809
 30
0.0
  0
POINT
  5
2B2
330
2A5
100
AcDbEntity
  8
Defpoints
 62
     0
100
AcDbPoint
 10
180.4099705338307
 20
-49.3577526821481
 30
0.0
  0
POINT
  5
2B3
330
2A5
100
AcDbEntity
  8
Defpoints
 62
     0
100
AcDbPoint
 10
200.5472156302638
 20
-49.3577526821481
 30
0.0
  0
ENDBLK
  5
2A7
330
2A5
100
AcDbEntity
  8
0
100
AcDbBlockEnd
  0
BLOCK
  5
2BA
330
2B9
100
AcDbEntity
  8
0
100
AcDbBlockBegin
  2
*D15
 70
     1
 10
0.0
 20
0.0
 30
0.0
  3
*D15
  1
*D16
  0
LINE
  5
2BC
330
2B9
100
AcDbEntity
  8
치수문자_일반주서
 62
     0
370
    -2
100
AcDbLine
 10
42.00560364977729
 20
3.176074928723899
 30
0.0
 11
58.43348575598296
 21
3.176074928723899
 31
0.0
  0
LINE
  5
2BD
330
2B9
100
AcDbEntity
  8
치수문자_일반주서
 62
     0
370
    -2
100
AcDbLine
 10
42.00560364977729
 20
-3.173925071276101
 30
0.0
 11
58.43348575598296
 21
-3.173925071276102
 31
0.0
  0
LINE
  5
2BE
330
2B9
100
AcDbEntity
  8
치수문자_일반주서
 62
     0
370
    -2
100
AcDbLine
 10
58.43348575598296
 20
3.176074928723899
 30
0.0
 11
58.43348575598296
 21
32.53007492872389
 31
0.0
  0
LINE
  5
2BF
330
2B9
100
AcDbEntity
  8
치수문자_일반주서
 62
     0
370
    -2
100
AcDbLine
 10
58.43348575598296
 20
3.176074928723899
 30
0.0
 11
58.43348575598296
 21
-3.173925071276102
 31
0.0
  0
LINE
  5
2C0
330
2B9
100
AcDbEntity
  8
치수문자_일반주서
 62
     0
370
    -2
100
AcDbLine
 10
58.43348575598296
 20
6.478074928723899
 30
0.0
 11
58.43348575598296
 21
9.780074928723899
 31
0.0
  0
LINE
  5
2C1
330
2B9
100
AcDbEntity
  8
치수문자_일반주서
 62
     0
370
    -2
100
AcDbLine
 10
58.43348575598296
 20
-6.475925071276102
 30
0.0
 11
58.43348575598296
 21
-9.777925071276101
 31
0.0
  0
SOLID
  5
2C2
330
2B9
100
AcDbEntity
  8
치수문자_일반주서
 62
     0
100
AcDbTrace
 10
57.88315242264963
 20
6.478074928723899
 30
0.0
 11
58.9838190893163
 21
6.478074928723899
 31
0.0
 12
58.43348575598296
 22
3.176074928723899
 32
0.0
 13
58.43348575598296
 23
3.176074928723899
 33
0.0
  0
SOLID
  5
2C3
330
2B9
100
AcDbEntity
  8
치수문자_일반주서
 62
     0
100
AcDbTrace
 10
58.9838190893163
 20
-6.475925071276102
 30
0.0
 11
57.88315242264963
 21
-6.475925071276102
 31
0.0
 12
58.43348575598296
 22
-3.173925071276102
 32
0.0
 13
58.43348575598296
 23
-3.173925071276102
 33
0.0
  0
MTEXT
  5
2C4
330
2B9
100
AcDbEntity
  8
치수문자_일반주서
 62
     0
100
AcDbMText
 10
55.80848575598296
 20
21.1550749287239
 30
0.0
 40
3.5
 41
0.0
 71
     5
 72
     1
  1
\A1;6.35 [1/4]
  7
SLDTEXTSTYLE0
 11
0.0
 21
1.0
 31
0.0
 73
     1
 44
1.0
  0
POINT
  5
2C5
330
2B9
100
AcDbEntity
  8
Defpoints
 62
     0
100
AcDbPoint
 10
41.94310364977729
 20
3.176074928723899
 30
0.0
  0
POINT
  5
2C6
330
2B9
100
AcDbEntity
  8
Defpoints
 62
     0
100
AcDbPoint
 10
41.94310364977729
 20
-3.173925071276101
 30
0.0
  0
POINT
  5
2C8
330
2B9
100
AcDbEntity
  8
Defpoints
 62
     0
100
AcDbPoint
 10
58.43348575598296
 20
-3.173925071276102
 30
0.0
  0
ENDBLK
  5
2BB
330
2B9
100
AcDbEntity
  8
0
100
AcDbBlockEnd
  0
BLOCK
  5
36C
330
36B
100
AcDbEntity
  8
0
100
AcDbBlockBegin
  2
*D16
 70
     1
 10
0.0
 20
0.0
 30
0.0
  3
*D16
  1
*D18
  0
LINE
  5
36D
330
36B
100
AcDbEntity
  8
치수문자_일반주서
 62
     0
370
    -2
100
AcDbLine
 10
84.00077283782724
 20
13.83750000000002
 30
0.0
 11
104.0755179342603
 21
13.83750000000001
 31
0.0
  0
LINE
  5
36E
330
36B
100
AcDbEntity
  8
치수문자_일반주서
 62
     0
370
    -2
100
AcDbLine
 10
84.00077283782724
 20
10.66250000000002
 30
0.0
 11
104.0755179342603
 21
10.66250000000002
 31
0.0
  0
LINE
  5
36F
330
36B
100
AcDbEntity
  8
치수문자_일반주서
 62
     0
370
    -2
100
AcDbLine
 10
104.0755179342603
 20
13.83750000000001
 30
0.0
 11
104.0755179342603
 21
43.61652552276446
 31
0.0
  0
LINE
  5
370
330
36B
100
AcDbEntity
  8
치수문자_일반주서
 62
     0
370
    -2
100
AcDbLine
 10
104.0755179342603
 20
13.83750000000001
 30
0.0
 11
104.0755179342603
 21
10.66250000000002
 31
0.0
  0
LINE
  5
371
330
36B
100
AcDbEntity
  8
치수문자_일반주서
 62
     0
370
    -2
100
AcDbLine
 10
104.0755179342603
 20
17.13950000000001
 30
0.0
 11
104.0755179342603
 21
20.44150000000001
 31
0.0
  0
LINE
  5
372
330
36B
100
AcDbEntity
  8
치수문자_일반주서
 62
     0
370
    -2
100
AcDbLine
 10
104.0755179342603
 20
7.360500000000016
 30
0.0
 11
104.0755179342603
 21
4.058500000000016
 31
0.0
  0
SOLID
  5
373
330
36B
100
AcDbEntity
  8
치수문자_일반주서
 62
     0
100
AcDbTrace
 10
103.525184600927
 20
17.13950000000001
 30
0.0
 11
104.6258512675937
 21
17.13950000000001
 31
0.0
 12
104.0755179342603
 22
13.83750000000001
 32
0.0
 13
104.0755179342603
 23
13.83750000000001
 33
0.0
  0
SOLID
  5
374
330
36B
100
AcDbEntity
  8
치수문자_일반주서
 62
     0
100
AcDbTrace
 10
104.6258512675937
 20
7.360500000000016
 30
0.0
 11
103.525184600927
 21
7.360500000000016
 31
0.0
 12
104.0755179342603
 22
10.66250000000002
 32
0.0
 13
104.0755179342603
 23
10.66250000000002
 33
0.0
  0
MTEXT
  5
375
330
36B
100
AcDbEntity
  8
치수문자_일반주서
 62
     0
100
AcDbMText
 10
101.4505179342603
 20
32.67902552276446
 30
0.0
 40
3.5
 41
0.0
 71
     5
 72
     1
  1
\A1;3.18 [1/8]
  7
SLDTEXTSTYLE0
 11
0.0
 21
1.0
 31
0.0
 73
     1
 44
1.0
  0
POINT
  5
376
330
36B
100
AcDbEntity
  8
Defpoints
 62
     0
100
AcDbPoint
 10
83.93827283782724
 20
13.83750000000002
 30
0.0
  0
POINT
  5
377
330
36B
100
AcDbEntity
  8
Defpoints
 62
     0
100
AcDbPoint
 10
83.93827283782724
 20
10.66250000000002
 30
0.0
  0
POINT
  5
378
330
36B
100
AcDbEntity
  8
Defpoints
 62
     0
100
AcDbPoint
 10
104.0755179342603
 20
10.66250000000001
 30
0.0
  0
ENDBLK
  5
379
330
36B
100
AcDbEntity
  8
0
100
AcDbBlockEnd
  0
BLOCK
  5
37D
330
37C
100
AcDbEntity
  8
0
100
AcDbBlockBegin
  2
*D17
 70
     1
 10
0.0
 20
0.0
 30
0.0
  3
*D17
  1
*D19
  0
LINE
  5
37F
330
37C
100
AcDbEntity
  8
치수문자_일반주서
 62
     0
370
    -2
100
AcDbLine
 10
83.93827283782724
 20
13.90000000000002
 30
0.0
 11
83.93827283782724
 21
27.53982293447375
 31
0.0
  0
LINE
  5
380
330
37C
100
AcDbEntity
  8
치수문자_일반주서
 62
     0
370
    -2
100
AcDbLine
 10
64.88827283782724
 20
13.71480718904203
 30
0.0
 11
64.88827283782724
 21
27.53982293447375
 31
0.0
  0
LINE
  5
381
330
37C
100
AcDbEntity
  8
치수문자_일반주서
 62
     0
370
    -2
100
AcDbLine
 10
64.88827283782724
 20
27.53982293447375
 30
0.0
 11
33.34677283782725
 21
27.53982293447375
 31
0.0
  0
LINE
  5
382
330
37C
100
AcDbEntity
  8
치수문자_일반주서
 62
     0
370
    -2
100
AcDbLine
 10
83.93827283782724
 20
27.53982293447375
 30
0.0
 11
64.88827283782724
 21
27.53982293447375
 31
0.0
  0
LINE
  5
383
330
37C
100
AcDbEntity
  8
치수문자_일반주서
 62
     0
370
    -2
100
AcDbLine
 10
87.24027283782723
 20
27.53982293447375
 30
0.0
 11
90.54227283782723
 21
27.53982293447375
 31
0.0
  0
LINE
  5
384
330
37C
100
AcDbEntity
  8
치수문자_일반주서
 62
     0
370
    -2
100
AcDbLine
 10
61.58627283782725
 20
27.53982293447375
 30
0.0
 11
58.28427283782725
 21
27.53982293447375
 31
0.0
  0
SOLID
  5
385
330
37C
100
AcDbEntity
  8
치수문자_일반주서
 62
     0
100
AcDbTrace
 10
87.24027283782723
 20
28.09015626780708
 30
0.0
 11
87.24027283782723
 21
26.98948960114041
 31
0.0
 12
83.93827283782724
 22
27.53982293447375
 32
0.0
 13
83.93827283782724
 23
27.53982293447375
 33
0.0
  0
SOLID
  5
386
330
37C
100
AcDbEntity
  8
치수문자_일반주서
 62
     0
100
AcDbTrace
 10
61.58627283782725
 20
26.98948960114041
 30
0.0
 11
61.58627283782725
 21
28.09015626780708
 31
0.0
 12
64.88827283782724
 22
27.53982293447375
 32
0.0
 13
64.88827283782724
 23
27.53982293447375
 33
0.0
  0
MTEXT
  5
387
330
37C
100
AcDbEntity
  8
치수문자_일반주서
 62
     0
100
AcDbMText
 10
45.81552283782725
 20
31.91482293447375
 30
0.0
 40
3.5
 41
0.0
 71
     2
 72
     1
  1
\A1;19.05 [3/4]
  7
SLDTEXTSTYLE0
 73
     1
 44
1.0
  0
POINT
  5
388
330
37C
100
AcDbEntity
  8
Defpoints
 62
     0
100
AcDbPoint
 10
83.93827283782724
 20
13.83750000000002
 30
0.0
  0
POINT
  5
389
330
37C
100
AcDbEntity
  8
Defpoints
 62
     0
100
AcDbPoint
 10
64.88827283782724
 20
13.65230718904203
 30
0.0
  0
POINT
  5
38A
330
37C
100
AcDbEntity
  8
Defpoints
 62
     0
100
AcDbPoint
 10
64.88827283782724
 20
27.53982293447375
 30
0.0
  0
ENDBLK
  5
37E
330
37C
100
AcDbEntity
  8
0
100
AcDbBlockEnd
  0
BLOCK
  5
38C
330
38B
100
AcDbEntity
  8
0
100
AcDbBlockBegin
  2
*D18
 70
     1
 10
0.0
 20
0.0
 30
0.0
  3
*D18
  1
*D20
  0
LINE
  5
38E
330
38B
100
AcDbEntity
  8
치수문자_일반주서
 62
     0
370
    -2
100
AcDbLine
 10
83.93827283782724
 20
13.90000000000002
 30
0.0
 11
83.93827283782724
 21
42.7337051978028
 31
0.0
  0
LINE
  5
38F
330
38B
100
AcDbEntity
  8
치수문자_일반주서
 62
     0
370
    -2
100
AcDbLine
 10
15.67577283782725
 20
16.12250000000001
 30
0.0
 11
15.67577283782725
 21
42.7337051978028
 31
0.0
  0
LINE
  5
390
330
38B
100
AcDbEntity
  8
치수문자_일반주서
 62
     0
370
    -2
100
AcDbLine
 10
80.63627283782725
 20
42.7337051978028
 30
0.0
 11
18.97777283782725
 21
42.7337051978028
 31
0.0
  0
SOLID
  5
391
330
38B
100
AcDbEntity
  8
치수문자_일반주서
 62
     0
100
AcDbTrace
 10
80.63627283782725
 20
42.18337186446946
 30
0.0
 11
80.63627283782725
 21
43.28403853113613
 31
0.0
 12
83.93827283782724
 22
42.7337051978028
 32
0.0
 13
83.93827283782724
 23
42.7337051978028
 33
0.0
  0
SOLID
  5
392
330
38B
100
AcDbEntity
  8
치수문자_일반주서
 62
     0
100
AcDbTrace
 10
18.97777283782725
 20
43.28403853113613
 30
0.0
 11
18.97777283782725
 21
42.18337186446946
 31
0.0
 12
15.67577283782725
 22
42.7337051978028
 32
0.0
 13
15.67577283782725
 23
42.7337051978028
 33
0.0
  0
MTEXT
  5
393
330
38B
100
AcDbEntity
  8
치수문자_일반주서
 62
     0
100
AcDbMText
 10
49.80702283782725
 20
47.1087051978028
 30
0.0
 40
3.5
 41
0.0
 71
     2
 72
     1
  1
\A1;68.26 [2 11/16]
  7
SLDTEXTSTYLE0
 73
     1
 44
1.0
  0
POINT
  5
394
330
38B
100
AcDbEntity
  8
Defpoints
 62
     0
100
AcDbPoint
 10
83.93827283782724
 20
13.83750000000002
 30
0.0
  0
POINT
  5
395
330
38B
100
AcDbEntity
  8
Defpoints
 62
     0
100
AcDbPoint
 10
15.67577283782725
 20
16.06000000000001
 30
0.0
  0
POINT
  5
396
330
38B
100
AcDbEntity
  8
Defpoints
 62
     0
100
AcDbPoint
 10
15.67577283782725
 20
42.7337051978028
 30
0.0
  0
ENDBLK
  5
38D
330
38B
100
AcDbEntity
  8
0
100
AcDbBlockEnd
  0
BLOCK
  5
398
330
397
100
AcDbEntity
  8
0
100
AcDbBlockBegin
  2
*D19
 70
     1
 10
0.0
 20
0.0
 30
0.0
  3
*D19
  1
*D21
  0
LINE
  5
39A
330
397
100
AcDbEntity
  8
치수문자_일반주서
 62
     0
370
    -2
100
AcDbLine
 10
16.56577283782724
 20
17.01250000000001
 30
0.0
 11
4.375000000000027
 21
17.01249999999997
 31
0.0
  0
LINE
  5
39B
330
397
100
AcDbEntity
  8
치수문자_일반주서
 62
     0
370
    -2
100
AcDbLine
 10
16.56577283782724
 20
7.487500000000008
 30
0.0
 11
4.37500000000006
 21
7.487499999999962
 31
0.0
  0
LINE
  5
39C
330
397
100
AcDbEntity
  8
치수문자_일반주서
 62
     0
370
    -2
100
AcDbLine
 10
4.375000000000038
 20
13.71049999999997
 30
0.0
 11
4.375000000000048
 21
10.78949999999996
 31
0.0
  0
SOLID
  5
39D
330
397
100
AcDbEntity
  8
치수문자_일반주서
 62
     0
100
AcDbTrace
 10
4.925333333333372
 20
13.71049999999997
 30
0.0
 11
3.824666666666705
 21
13.71049999999997
 31
0.0
 12
4.375000000000027
 22
17.01249999999997
 32
0.0
 13
4.375000000000027
 23
17.01249999999997
 33
0.0
  0
SOLID
  5
39E
330
397
100
AcDbEntity
  8
치수문자_일반주서
 62
     0
100
AcDbTrace
 10
3.824666666666715
 20
10.78949999999996
 30
0.0
 11
4.925333333333382
 21
10.78949999999996
 31
0.0
 12
4.37500000000006
 22
7.487499999999962
 32
0.0
 13
4.37500000000006
 23
7.487499999999962
 33
0.0
  0
MTEXT
  5
39F
330
397
100
AcDbEntity
  8
치수문자_일반주서
 62
     0
100
AcDbMText
 10
0.0000000000000426
 20
12.25
 30
0.0
 40
3.5
 41
0.0
 71
     2
 72
     1
  1
\A1;%%c9.53 [3/8]
  7
SLDTEXTSTYLE0
 11
-3.450141892798385E-15
 21
1.0
 31
0.0
 73
     1
 44
1.0
  0
POINT
  5
3A0
330
397
100
AcDbEntity
  8
Defpoints
 62
     0
100
AcDbPoint
 10
16.62827283782724
 20
17.01250000000001
 30
0.0
  0
POINT
  5
3A1
330
397
100
AcDbEntity
  8
Defpoints
 62
     0
100
AcDbPoint
 10
16.62827283782724
 20
7.487500000000008
 30
0.0
  0
POINT
  5
3A2
330
397
100
AcDbEntity
  8
Defpoints
 62
     0
100
AcDbPoint
 10
4.375000000000064
 20
7.487499999999962
 30
0.0
  0
ENDBLK
  5
399
330
397
100
AcDbEntity
  8
0
100
AcDbBlockEnd
  0
BLOCK
  5
3EF
330
3EE
100
AcDbEntity
  8
0
100
AcDbBlockBegin
  2
*D20
 70
     1
 10
0.0
 20
0.0
 30
0.0
  3
*D20
  1
*D22
  0
LINE
  5
3F1
330
3EE
100
AcDbEntity
  8
치수문자_일반주서
 62
     0
370
    -2
100
AcDbLine
 10
151.2978611289496
 20
-33.37715099126568
 30
0.0
 11
151.2978611289496
 21
-19.73732805679195
 31
0.0
  0
LINE
  5
3F2
330
3EE
100
AcDbEntity
  8
치수문자_일반주서
 62
     0
370
    -2
100
AcDbLine
 10
132.2478611289496
 20
-33.56234380222367
 30
0.0
 11
132.2478611289496
 21
-19.73732805679195
 31
0.0
  0
LINE
  5
3F3
330
3EE
100
AcDbEntity
  8
치수문자_일반주서
 62
     0
370
    -2
100
AcDbLine
 10
132.2478611289496
 20
-19.73732805679195
 30
0.0
 11
100.7063611289496
 21
-19.73732805679195
 31
0.0
  0
LINE
  5
3F4
330
3EE
100
AcDbEntity
  8
치수문자_일반주서
 62
     0
370
    -2
100
AcDbLine
 10
151.2978611289496
 20
-19.73732805679195
 30
0.0
 11
132.2478611289496
 21
-19.73732805679195
 31
0.0
  0
LINE
  5
3F5
330
3EE
100
AcDbEntity
  8
치수문자_일반주서
 62
     0
370
    -2
100
AcDbLine
 10
154.5998611289496
 20
-19.73732805679195
 30
0.0
 11
157.9018611289496
 21
-19.73732805679195
 31
0.0
  0
LINE
  5
3F6
330
3EE
100
AcDbEntity
  8
치수문자_일반주서
 62
     0
370
    -2
100
AcDbLine
 10
128.9458611289496
 20
-19.73732805679195
 30
0.0
 11
125.6438611289497
 21
-19.73732805679195
 31
0.0
  0
SOLID
  5
3F7
330
3EE
100
AcDbEntity
  8
치수문자_일반주서
 62
     0
100
AcDbTrace
 10
154.5998611289496
 20
-19.18699472345862
 30
0.0
 11
154.5998611289496
 21
-20.28766139012529
 31
0.0
 12
151.2978611289496
 22
-19.73732805679195
 32
0.0
 13
151.2978611289496
 23
-19.73732805679195
 33
0.0
  0
SOLID
  5
3F8
330
3EE
100
AcDbEntity
  8
치수문자_일반주서
 62
     0
100
AcDbTrace
 10
128.9458611289496
 20
-20.28766139012529
 30
0.0
 11
128.9458611289496
 21
-19.18699472345862
 31
0.0
 12
132.2478611289496
 22
-19.73732805679195
 32
0.0
 13
132.2478611289496
 23
-19.73732805679195
 33
0.0
  0
MTEXT
  5
3F9
330
3EE
100
AcDbEntity
  8
치수문자_일반주서
 62
     0
100
AcDbMText
 10
113.1751111289496
 20
-15.36232805679195
 30
0.0
 40
3.5
 41
0.0
 71
     2
 72
     1
  1
\A1;19.05 [3/4]
  7
SLDTEXTSTYLE0
 73
     1
 44
1.0
  0
POINT
  5
3FA
330
3EE
100
AcDbEntity
  8
Defpoints
 62
     0
100
AcDbPoint
 10
151.2978611289496
 20
-33.43965099126568
 30
0.0
  0
POINT
  5
3FB
330
3EE
100
AcDbEntity
  8
Defpoints
 62
     0
100
AcDbPoint
 10
132.2478611289496
 20
-33.62484380222367
 30
0.0
  0
POINT
  5
3FC
330
3EE
100
AcDbEntity
  8
Defpoints
 62
     0
100
AcDbPoint
 10
132.2478611289496
 20
-19.73732805679195
 30
0.0
  0
ENDBLK
  5
3F0
330
3EE
100
AcDbEntity
  8
0
100
AcDbBlockEnd
  0
BLOCK
  5
3FE
330
3FD
100
AcDbEntity
  8
0
100
AcDbBlockBegin
  2
*D21
 70
     1
 10
0.0
 20
0.0
 30
0.0
  3
*D21
  1
*D23
  0
LINE
  5
400
330
3FD
100
AcDbEntity
  8
치수문자_일반주서
 62
     0
370
    -2
100
AcDbLine
 10
151.2978611289496
 20
-33.37715099126568
 30
0.0
 11
151.2978611289496
 21
-4.543445793462901
 31
0.0
  0
LINE
  5
401
330
3FD
100
AcDbEntity
  8
치수문자_일반주서
 62
     0
370
    -2
100
AcDbLine
 10
83.03536112894963
 20
-31.15465099126569
 30
0.0
 11
83.03536112894963
 21
-4.543445793462901
 31
0.0
  0
LINE
  5
402
330
3FD
100
AcDbEntity
  8
치수문자_일반주서
 62
     0
370
    -2
100
AcDbLine
 10
147.9958611289496
 20
-4.543445793462901
 30
0.0
 11
86.33736112894962
 21
-4.543445793462901
 31
0.0
  0
SOLID
  5
403
330
3FD
100
AcDbEntity
  8
치수문자_일반주서
 62
     0
100
AcDbTrace
 10
147.9958611289496
 20
-5.093779126796234
 30
0.0
 11
147.9958611289496
 21
-3.993112460129568
 31
0.0
 12
151.2978611289496
 22
-4.543445793462901
 32
0.0
 13
151.2978611289496
 23
-4.543445793462901
 33
0.0
  0
SOLID
  5
404
330
3FD
100
AcDbEntity
  8
치수문자_일반주서
 62
     0
100
AcDbTrace
 10
86.33736112894962
 20
-3.993112460129568
 30
0.0
 11
86.33736112894962
 21
-5.093779126796234
 31
0.0
 12
83.03536112894963
 22
-4.543445793462901
 32
0.0
 13
83.03536112894963
 23
-4.543445793462901
 33
0.0
  0
MTEXT
  5
405
330
3FD
100
AcDbEntity
  8
치수문자_일반주서
 62
     0
100
AcDbMText
 10
117.1666111289496
 20
-0.1684457934629009
 30
0.0
 40
3.5
 41
0.0
 71
     2
 72
     1
  1
\A1;68.26 [2 11/16]
  7
SLDTEXTSTYLE0
 73
     1
 44
1.0
  0
POINT
  5
406
330
3FD
100
AcDbEntity
  8
Defpoints
 62
     0
100
AcDbPoint
 10
151.2978611289496
 20
-33.43965099126568
 30
0.0
  0
POINT
  5
407
330
3FD
100
AcDbEntity
  8
Defpoints
 62
     0
100
AcDbPoint
 10
83.03536112894963
 20
-31.21715099126569
 30
0.0
  0
POINT
  5
408
330
3FD
100
AcDbEntity
  8
Defpoints
 62
     0
100
AcDbPoint
 10
83.03536112894963
 20
-4.543445793462901
 30
0.0
  0
ENDBLK
  5
3FF
330
3FD
100
AcDbEntity
  8
0
100
AcDbBlockEnd
  0
BLOCK
  5
40A
330
409
100
AcDbEntity
  8
0
100
AcDbBlockBegin
  2
*D22
 70
     1
 10
0.0
 20
0.0
 30
0.0
  3
*D22
  1
*D24
  0
LINE
  5
40C
330
409
100
AcDbEntity
  8
치수문자_일반주서
 62
     0
370
    -2
100
AcDbLine
 10
83.92536112894962
 20
-30.26465099126569
 30
0.0
 11
71.7345882911224
 21
-30.26465099126573
 31
0.0
  0
LINE
  5
40D
330
409
100
AcDbEntity
  8
치수문자_일반주서
 62
     0
370
    -2
100
AcDbLine
 10
83.92536112894962
 20
-39.78965099126569
 30
0.0
 11
71.73458829112244
 21
-39.78965099126573
 31
0.0
  0
LINE
  5
40E
330
409
100
AcDbEntity
  8
치수문자_일반주서
 62
     0
370
    -2
100
AcDbLine
 10
71.73458829112242
 20
-33.56665099126573
 30
0.0
 11
71.73458829112242
 21
-36.48765099126573
 31
0.0
  0
SOLID
  5
40F
330
409
100
AcDbEntity
  8
치수문자_일반주서
 62
     0
100
AcDbTrace
 10
72.28492162445575
 20
-33.56665099126573
 30
0.0
 11
71.1842549577891
 21
-33.56665099126573
 31
0.0
 12
71.7345882911224
 22
-30.26465099126573
 32
0.0
 13
71.7345882911224
 23
-30.26465099126573
 33
0.0
  0
SOLID
  5
410
330
409
100
AcDbEntity
  8
치수문자_일반주서
 62
     0
100
AcDbTrace
 10
71.1842549577891
 20
-36.48765099126573
 30
0.0
 11
72.28492162445575
 21
-36.48765099126573
 31
0.0
 12
71.73458829112244
 22
-39.78965099126573
 32
0.0
 13
71.73458829112244
 23
-39.78965099126573
 33
0.0
  0
MTEXT
  5
411
330
409
100
AcDbEntity
  8
치수문자_일반주서
 62
     0
100
AcDbMText
 10
67.35958829112242
 20
-35.0271509912657
 30
0.0
 40
3.5
 41
0.0
 71
     2
 72
     1
  1
\A1;%%c9.53 [3/8]
  7
SLDTEXTSTYLE0
 11
-2.983906501879686E-15
 21
1.0
 31
0.0
 73
     1
 44
1.0
  0
POINT
  5
412
330
409
100
AcDbEntity
  8
Defpoints
 62
     0
100
AcDbPoint
 10
83.98786112894962
 20
-30.26465099126569
 30
0.0
  0
POINT
  5
413
330
409
100
AcDbEntity
  8
Defpoints
 62
     0
100
AcDbPoint
 10
83.98786112894962
 20
-39.78965099126569
 30
0.0
  0
POINT
  5
414
330
409
100
AcDbEntity
  8
Defpoints
 62
     0
100
AcDbPoint
 10
71.73458829112244
 20
-39.78965099126573
 30
0.0
  0
ENDBLK
  5
40B
330
409
100
AcDbEntity
  8
0
100
AcDbBlockEnd
  0
BLOCK
  5
416
330
415
100
AcDbEntity
  8
0
100
AcDbBlockBegin
  2
*D23
 70
     1
 10
0.0
 20
0.0
 30
0.0
  3
*D23
  1
*D25
  0
LINE
  5
418
330
415
100
AcDbEntity
  8
치수문자_일반주서
 62
     0
370
    -2
100
AcDbLine
 10
151.3603611289496
 20
-33.43965099126568
 30
0.0
 11
171.4351062253827
 21
-33.43965099126568
 31
0.0
  0
LINE
  5
419
330
415
100
AcDbEntity
  8
치수문자_일반주서
 62
     0
370
    -2
100
AcDbLine
 10
151.3603611289496
 20
-36.61465099126568
 30
0.0
 11
171.4351062253827
 21
-36.61465099126568
 31
0.0
  0
LINE
  5
41A
330
415
100
AcDbEntity
  8
치수문자_일반주서
 62
     0
370
    -2
100
AcDbLine
 10
171.4351062253827
 20
-33.43965099126568
 30
0.0
 11
171.4351062253827
 21
-3.660625468501244
 31
0.0
  0
LINE
  5
41B
330
415
100
AcDbEntity
  8
치수문자_일반주서
 62
     0
370
    -2
100
AcDbLine
 10
171.4351062253827
 20
-33.43965099126568
 30
0.0
 11
171.4351062253827
 21
-36.61465099126568
 31
0.0
  0
LINE
  5
41C
330
415
100
AcDbEntity
  8
치수문자_일반주서
 62
     0
370
    -2
100
AcDbLine
 10
171.4351062253827
 20
-30.13765099126568
 30
0.0
 11
171.4351062253827
 21
-26.83565099126568
 31
0.0
  0
LINE
  5
41D
330
415
100
AcDbEntity
  8
치수문자_일반주서
 62
     0
370
    -2
100
AcDbLine
 10
171.4351062253827
 20
-39.91665099126568
 30
0.0
 11
171.4351062253827
 21
-43.21865099126568
 31
0.0
  0
SOLID
  5
41E
330
415
100
AcDbEntity
  8
치수문자_일반주서
 62
     0
100
AcDbTrace
 10
170.8847728920494
 20
-30.13765099126568
 30
0.0
 11
171.9854395587161
 21
-30.13765099126568
 31
0.0
 12
171.4351062253827
 22
-33.43965099126568
 32
0.0
 13
171.4351062253827
 23
-33.43965099126568
 33
0.0
  0
SOLID
  5
41F
330
415
100
AcDbEntity
  8
치수문자_일반주서
 62
     0
100
AcDbTrace
 10
171.9854395587161
 20
-39.91665099126568
 30
0.0
 11
170.8847728920494
 21
-39.91665099126568
 31
0.0
 12
171.4351062253827
 22
-36.61465099126568
 32
0.0
 13
171.4351062253827
 23
-36.61465099126568
 33
0.0
  0
MTEXT
  5
420
330
415
100
AcDbEntity
  8
치수문자_일반주서
 62
     0
100
AcDbMText
 10
168.8101062253827
 20
-14.59812546850124
 30
0.0
 40
3.5
 41
0.0
 71
     5
 72
     1
  1
\A1;3.18 [1/8]
  7
SLDTEXTSTYLE0
 11
0.0
 21
1.0
 31
0.0
 73
     1
 44
1.0
  0
POINT
  5
421
330
415
100
AcDbEntity
  8
Defpoints
 62
     0
100
AcDbPoint
 10
151.2978611289496
 20
-33.43965099126568
 30
0.0
  0
POINT
  5
422
330
415
100
AcDbEntity
  8
Defpoints
 62
     0
100
AcDbPoint
 10
151.2978611289496
 20
-36.61465099126568
 30
0.0
  0
POINT
  5
423
330
415
100
AcDbEntity
  8
Defpoints
 62
     0
100
AcDbPoint
 10
171.4351062253827
 20
-36.61465099126568
 30
0.0
  0
ENDBLK
  5
417
330
415
100
AcDbEntity
  8
0
100
AcDbBlockEnd
  0
ENDSEC
  0
SECTION
  2
ENTITIES
  0
LINE
  5
96
330
1F
100
AcDbEntity
  8
외형선
  6
Continuous
370
    15
100
AcDbLine
 10
3.268472992761676
 20
-4.761425071276111
 30
0.0
 11
9.193103649777278
 21
-3.173925071276107
 31
0.0
  0
LINE
  5
97
330
1F
100
AcDbEntity
  8
외형선
  6
Continuous
370
    15
100
AcDbLine
 10
9.193103649777278
 20
3.176074928723893
 30
0.0
 11
3.268472992761676
 21
4.763574928723898
 31
0.0
  0
LINE
  5
98
330
1F
100
AcDbEntity
  8
외형선
  6
Continuous
370
    15
100
AcDbLine
 10
-34.89189635022272
 20
-4.761425071276109
 30
0.0
 11
3.268472992761676
 21
-4.761425071276109
 31
0.0
  0
LINE
  5
99
330
1F
100
AcDbEntity
  8
외형선
  6
Continuous
370
    15
100
AcDbLine
 10
3.268472992761676
 20
4.763574928723895
 30
0.0
 11
-11.16194635022259
 21
4.763574928723895
 31
0.0
  0
LINE
  5
9A
330
1F
100
AcDbEntity
  8
외형선
  6
Continuous
370
    15
100
AcDbLine
 10
-34.89189635022272
 20
4.763574928723893
 30
0.0
 11
-35.84439635022271
 21
3.811074928723895
 31
0.0
  0
LINE
  5
9B
330
1F
100
AcDbEntity
  8
외형선
  6
Continuous
370
    15
100
AcDbLine
 10
-35.84439635022271
 20
-3.808925071276108
 30
0.0
 11
-34.89189635022272
 21
-4.761425071276106
 31
0.0
  0
LINE
  5
9C
330
1F
100
AcDbEntity
  8
외형선
  6
Continuous
370
    15
100
AcDbLine
 10
9.193103649777278
 20
-3.173925071276107
 30
0.0
 11
9.79822515269416
 21
-3.173925071276107
 31
0.0
  0
LINE
  5
9D
330
1F
100
AcDbEntity
  8
외형선
  6
Continuous
370
    15
100
AcDbLine
 10
9.798225152694126
 20
3.176074928723893
 30
0.0
 11
9.193103649777278
 21
3.176074928723893
 31
0.0
  0
LINE
  5
9E
330
1F
100
AcDbEntity
  8
0
  6
Continuous
 62
     1
370
    15
100
AcDbLine
 10
33.77667279611567
 20
-3.173925071276109
 30
0.0
 11
35.71144287540914
 21
-3.173925071276109
 31
0.0
  0
LINE
  5
9F
330
1F
100
AcDbEntity
  8
0
  6
Continuous
 62
     1
370
    15
100
AcDbLine
 10
18.43536999687883
 20
3.176074928723895
 30
0.0
 11
16.49954626776176
 21
3.176074928723895
 31
0.0
  0
LINE
  5
A0
330
1F
100
AcDbEntity
  8
0
  6
Continuous
 62
     1
370
    15
100
AcDbLine
 10
25.13915159575539
 20
-3.173925071276109
 30
0.0
 11
27.07541783139256
 21
-3.173925071276109
 31
0.0
  0
LINE
  5
A1
330
1F
100
AcDbEntity
  8
0
  6
Continuous
 62
     1
370
    15
100
AcDbLine
 10
37.33144924477086
 20
-0.920736181700166
 30
0.0
 11
37.38897850841895
 21
-0.9514842112859064
 31
0.0
  0
LINE
  5
A2
330
1F
100
AcDbEntity
  8
0
  6
Continuous
 62
     1
370
    15
100
AcDbLine
 10
27.07541783139257
 20
3.176074928723895
 30
0.0
 11
25.1391515957554
 21
3.176074928723895
 31
0.0
  0
LINE
  5
A3
330
1F
100
AcDbEntity
  8
0
  6
Continuous
 62
     1
370
    15
100
AcDbLine
 10
16.49954626776179
 20
-3.173925071276109
 30
0.0
 11
18.43536999687884
 21
-3.173925071276109
 31
0.0
  0
LINE
  5
A4
330
1F
100
AcDbEntity
  8
0
  6
Continuous
 62
     1
370
    15
100
AcDbLine
 10
35.71144287540914
 20
3.176074928723895
 30
0.0
 11
33.7766727961157
 21
3.176074928723895
 31
0.0
  0
LINE
  5
A5
330
1F
100
AcDbEntity
  8
외형선
  6
Continuous
370
    15
100
AcDbLine
 10
9.193103649777278
 20
0.0010749287238931
 30
0.0
 11
9.193103649777278
 21
3.176074928723893
 31
0.0
  0
LINE
  5
A6
330
1F
100
AcDbEntity
  8
외형선
  6
Continuous
370
    15
100
AcDbLine
 10
9.193103649777278
 20
-3.173925071276109
 30
0.0
 11
9.193103649777278
 21
0.0010749287238931
 31
0.0
  0
LINE
  5
A7
330
1F
100
AcDbEntity
  8
외형선
  6
Continuous
370
    15
100
AcDbLine
 10
3.268472992761676
 20
0.0010749287238931
 30
0.0
 11
3.268472992761676
 21
4.763574928723898
 31
0.0
  0
LINE
  5
A8
330
1F
100
AcDbEntity
  8
외형선
  6
Continuous
370
    15
100
AcDbLine
 10
3.268472992761676
 20
-4.761425071276111
 30
0.0
 11
3.268472992761676
 21
0.0010749287238931
 31
0.0
  0
LINE
  5
A9
330
1F
100
AcDbEntity
  8
외형선
  6
Continuous
370
    15
100
AcDbLine
 10
-34.89189635022272
 20
0.0010749287238931
 30
0.0
 11
-34.89189635022272
 21
4.763574928723895
 31
0.0
  0
LINE
  5
AA
330
1F
100
AcDbEntity
  8
외형선
  6
Continuous
370
    15
100
AcDbLine
 10
-34.89189635022272
 20
-4.761425071276109
 30
0.0
 11
-34.89189635022272
 21
0.0010749287238931
 31
0.0
  0
LINE
  5
AB
330
1F
100
AcDbEntity
  8
외형선
  6
Continuous
370
    15
100
AcDbLine
 10
-35.84439635022271
 20
0.0010749287238931
 30
0.0
 11
-35.84439635022271
 21
3.811074928723896
 31
0.0
  0
LINE
  5
AC
330
1F
100
AcDbEntity
  8
외형선
  6
Continuous
370
    15
100
AcDbLine
 10
-35.84439635022271
 20
-3.808925071276112
 30
0.0
 11
-35.84439635022271
 21
0.0010749287238931
 31
0.0
  0
SPLINE
  5
AD
330
1F
100
AcDbEntity
  8
외형선
  6
Continuous
370
    15
100
AcDbSpline
210
0.0
220
0.0
230
1.0
 70
     8
 71
     3
 72
     8
 73
     4
 74
     0
 42
0.000000001
 43
0.00000001
 40
0.0
 40
0.0
 40
0.0
 40
0.0
 40
1.0
 40
1.0
 40
1.0
 40
1.0
 10
10.19310364977728
 20
-0.2267029818447426
 30
0.0
 10
10.0274469947173
 20
-0.1309258455546023
 30
0.0
 10
9.86046470754617
 20
-0.0345804898909203
 30
0.0
 10
9.693182937974619
 20
0.0617390950152693
 30
0.0
  0
SPLINE
  5
AE
330
1F
100
AcDbEntity
  8
외형선
  6
Continuous
370
    15
100
AcDbSpline
210
0.0
220
0.0
230
1.0
 70
     8
 71
     3
 72
     8
 73
     4
 74
     0
 42
0.000000001
 43
0.00000001
 40
0.0
 40
0.0
 40
0.0
 40
0.0
 40
1.0
 40
1.0
 40
1.0
 40
1.0
 10
10.19310364977726
 20
2.895154595787775
 30
0.0
 10
10.02744699471728
 20
2.934645003704655
 30
0.0
 10
9.86046470754615
 20
2.970261553003859
 30
0.0
 10
9.6931829379746
 20
3.001744727102787
 30
0.0
  0
SPLINE
  5
AF
330
1F
100
AcDbEntity
  8
외형선
  6
Continuous
370
    15
100
AcDbSpline
210
0.0
220
0.0
230
1.0
 70
    24
 71
     3
 72
    21
 73
    17
 74
     0
 42
0.000000001
 43
0.00000001
 40
0.0
 40
0.0
 40
0.0
 40
0.0
 40
0.0267132923552718
 40
0.1017759158271789
 40
0.1768385392990861
 40
0.2519011627710105
 40
0.3269637862429352
 40
0.4020264097148512
 40
0.4770890331867673
 40
0.5521516566586825
 40
0.6272142801305978
 40
0.702276903602508
 40
0.7773395270744184
 40
0.8524021505463405
 40
0.9274647740182623
 40
1.0
 40
1.0
 40
1.0
 40
1.0
 10
10.19310364977727
 20
-0.2690516509491414
 30
0.0
 10
10.19310364977726
 20
-0.2688470983076616
 30
0.0
 10
10.19310364977727
 20
-0.2680677659758549
 30
0.0
 10
10.19310364977727
 20
-0.2095171190755541
 30
0.0
 10
10.19310364977726
 20
-0.0978578299227922
 30
0.0
 10
10.19310364977727
 20
0.0675082542536716
 30
0.0
 10
10.19310364977725
 20
0.2752262139946881
 30
0.0
 10
10.19310364977726
 20
0.5223716976886782
 30
0.0
 10
10.19310364977727
 20
0.8001536744353134
 30
0.0
 10
10.19310364977727
 20
1.101902861348002
 30
0.0
 10
10.19310364977724
 20
1.418254744923632
 30
0.0
 10
10.19310364977727
 20
1.74060481896868
 30
0.0
 10
10.19310364977729
 20
2.059968170789884
 30
0.0
 10
10.19310364977728
 20
2.366128144565871
 30
0.0
 10
10.19310364977727
 20
2.650950192583862
 30
0.0
 10
10.19310364977729
 20
2.814687716664342
 30
0.0
 10
10.19310364977729
 20
2.895154595787785
 30
0.0
  0
LINE
  5
B0
330
1F
100
AcDbEntity
  8
외형선
  6
Continuous
370
    15
100
AcDbLine
 10
9.693182937974612
 20
-3.173345687467883
 30
0.0
 11
9.693182937974619
 21
-1.03651923848007
 31
0.0
  0
SPLINE
  5
B1
330
1F
100
AcDbEntity
  8
외형선
  6
Continuous
370
    15
100
AcDbSpline
210
0.0
220
0.0
230
1.0
 70
     8
 71
     3
 72
     8
 73
     4
 74
     0
 42
0.000000001
 43
0.00000001
 40
0.0
 40
0.0
 40
0.0
 40
0.0
 40
1.0
 40
1.0
 40
1.0
 40
1.0
 10
10.19310364977728
 20
-3.165744015178175
 30
0.0
 10
10.0274469947173
 20
-3.172632920534265
 30
0.0
 10
9.86046470754617
 20
-3.175186165979559
 30
0.0
 10
9.693182937974619
 20
-3.173345468597196
 30
0.0
  0
LINE
  5
B2
330
1F
100
AcDbEntity
  8
외형선
  6
Continuous
370
    15
100
AcDbLine
 10
9.798225152694126
 20
3.173898125762278
 30
0.0
 11
10.19310364977728
 21
3.16789387262596
 31
0.0
  0
LINE
  5
B3
330
1F
100
AcDbEntity
  8
외형선
  6
Continuous
370
    15
100
AcDbLine
 10
9.693182937974612
 20
0.0617276409189608
 30
0.0
 11
9.693182937974619
 21
3.001745411163484
 31
0.0
  0
SPLINE
  5
B4
330
1F
100
AcDbEntity
  8
외형선
  6
Continuous
370
    15
100
AcDbSpline
210
0.0
220
0.0
230
1.0
 70
     8
 71
     3
 72
     8
 73
     4
 74
     0
 42
0.000000001
 43
0.00000001
 40
0.0
 40
0.0
 40
0.0
 40
0.0
 40
1.0
 40
1.0
 40
1.0
 40
1.0
 10
10.19310364977726
 20
-1.304653940792032
 30
0.0
 10
10.02744699471728
 20
-1.217125519490702
 30
0.0
 10
9.86046470754615
 20
-1.127568788664471
 30
0.0
 10
9.6931829379746
 20
-1.036521216747313
 30
0.0
  0
LINE
  5
B5
330
1F
100
AcDbEntity
  8
외형선
  6
Continuous
370
    15
100
AcDbLine
 10
10.19310364977729
 20
-1.304653940792067
 30
0.0
 11
10.19310364977728
 21
-0.2267029818447449
 31
0.0
  0
LINE
  5
B6
330
1F
100
AcDbEntity
  8
외형선
  6
Continuous
370
    15
100
AcDbLine
 10
10.19310364977729
 20
2.895154595787785
 30
0.0
 11
10.19310364977728
 21
3.167893872625959
 31
0.0
  0
SPLINE
  5
B7
330
1F
100
AcDbEntity
  8
외형선
  6
Continuous
370
    15
100
AcDbSpline
210
0.0
220
0.0
230
1.0
 70
    24
 71
     3
 72
    14
 73
    10
 74
     0
 42
0.000000001
 43
0.00000001
 40
0.0
 40
0.0
 40
0.0
 40
0.0
 40
0.1641944105694447
 40
0.3333729222639076
 40
0.4940471851588958
 40
0.6593810125626867
 40
0.8200552754577116
 40
0.9853891028615406
 40
1.0
 40
1.0
 40
1.0
 40
1.0
 10
10.19310364977728
 20
-3.165744015178175
 30
0.0
 10
10.19310364977728
 20
-3.059539426397145
 30
0.0
 10
10.1931036497773
 20
-2.843906421613501
 30
0.0
 10
10.19310364977723
 20
-2.517247060166976
 30
0.0
 10
10.19310364977734
 20
-2.197390096225741
 30
0.0
 10
10.19310364977724
 20
-1.896451084845352
 30
0.0
 10
10.19310364977726
 20
-1.620680754338222
 30
0.0
 10
10.19310364977728
 20
-1.440301517345105
 30
0.0
 10
10.19310364977725
 20
-1.364674687880635
 30
0.0
 10
10.19310364977727
 20
-1.358534047586657
 30
0.0
  0
SPLINE
  5
B8
330
1F
100
AcDbEntity
  8
0
  6
Continuous
 62
     1
370
    15
100
AcDbSpline
210
0.0
220
0.0
230
1.0
 70
     8
 71
     3
 72
    23
 73
    19
 74
     0
 42
0.000000001
 43
0.00000001
 40
0.0
 40
0.0
 40
0.0
 40
0.0
 40
0.0321222314487199
 40
0.0972857145354919
 40
0.1624606783633641
 40
0.2276354569997192
 40
0.2927987801916455
 40
0.3579523831701818
 40
0.4230980151936309
 40
0.4882374370548304
 40
0.5533724185529248
 40
0.61850473593731
 40
0.6836361693316355
 40
0.7487685001457778
 40
0.81390350848385
 40
0.8790429705562323
 40
0.9441886561036957
 40
1.0
 40
1.0
 40
1.0
 40
1.0
 10
18.43536999687883
 20
3.152410233383276
 30
0.0
 10
18.65622875074039
 20
3.157072671219765
 30
0.0
 10
19.32512380291449
 20
3.171193377532596
 30
0.0
 10
20.44217265899754
 20
2.990465349218494
 30
0.0
 10
21.78653973129234
 20
2.632537617676822
 30
0.0
 10
23.13090621628883
 20
2.10827626828059
 30
0.0
 10
24.47506405166746
 20
1.46144848415683
 30
0.0
 10
25.81898537056868
 20
0.727173720634962
 30
0.0
 10
27.16270844668477
 20
-0.0500144957726423
 30
0.0
 10
28.50627815835978
 20
-0.8241869393400006
 30
0.0
 10
29.84973792603662
 20
-1.549305100152246
 30
0.0
 10
31.19313179845962
 20
-2.182296011950823
 30
0.0
 10
32.53650377168657
 20
-2.685665990164387
 30
0.0
 10
33.8798980266734
 20
-3.029140045080234
 30
0.0
 10
35.22335825744367
 20
-3.19373238868326
 30
0.0
 10
36.56692971794367
 20
-3.164356172031829
 30
0.0
 10
37.84641900249142
 20
-2.972164713905346
 30
0.0
 10
38.67807508143012
 20
-2.712650865192735
 30
0.0
 10
39.061813369635
 20
-2.592907376757559
 30
0.0
  0
SPLINE
  5
B9
330
1F
100
AcDbEntity
  8
0
  6
Continuous
 62
     1
370
    15
100
AcDbSpline
210
0.0
220
0.0
230
1.0
 70
     8
 71
     3
 72
    22
 73
    18
 74
     0
 42
0.000000001
 43
0.00000001
 40
0.0
 40
0.0
 40
0.0
 40
0.0
 40
0.0666965809613087
 40
0.1333814256875759
 40
0.2000563098063771
 40
0.2667230233191325
 40
0.3333833680504897
 40
0.4000391550613027
 40
0.4666922020330926
 40
0.5333443306320157
 40
0.5999973638604881
 40
0.6666531234046614
 40
0.7333134269859812
 40
0.7999800857250382
 40
0.8666549015258372
 40
0.9333396644885372
 40
1.0
 40
1.0
 40
1.0
 40
1.0
 10
41.94310364977729
 20
-3.173925071276101
 30
0.0
 10
41.49495492241062
 20
-3.12181922213909
 30
0.0
 10
40.59873632597437
 20
-3.040966181921265
 30
0.0
 10
39.25457648833558
 20
-2.688535988972095
 30
0.0
 10
37.91065352496808
 20
-2.189803831990729
 30
0.0
 10
36.56692912271986
 20
-1.557313774158678
 30
0.0
 10
35.22335841691519
 20
-0.8332346231307832
 30
0.0
 10
33.8798979839458
 20
-0.0593534215992872
 30
0.0
 10
32.53650378313683
 20
0.7180338780347842
 30
0.0
 10
31.19313179538467
 20
1.45285068493317
 30
0.0
 10
29.84973792688607
 20
2.101412182525174
 30
0.0
 10
28.50627815803707
 20
2.625274513267938
 30
0.0
 10
27.16270844712611
 20
2.993041546684686
 30
0.0
 10
25.81898536912587
 20
3.183864648285266
 30
0.0
 10
24.47506405699832
 20
3.182608573974865
 30
0.0
 10
23.13114908725872
 20
3.003444474498047
 30
0.0
 10
22.23517484496938
 20
2.73748726315689
 30
0.0
 10
21.78726979045995
 20
2.604533017799834
 30
0.0
  0
SPLINE
  5
BA
330
1F
100
AcDbEntity
  8
0
  6
Continuous
 62
     1
370
    15
100
AcDbSpline
210
0.0
220
0.0
230
1.0
 70
     8
 71
     3
 72
    23
 73
    19
 74
     0
 42
0.000000001
 43
0.00000001
 40
0.0
 40
0.0
 40
0.0
 40
0.0
 40
0.0623239502498972
 40
0.1246174429724624
 40
0.1868921917613516
 40
0.2491600044839954
 40
0.3114327239640826
 40
0.3737221682923541
 40
0.4401405020425157
 40
0.506568771456725
 40
0.5730087444467218
 40
0.6394485286507388
 40
0.705876635066634
 40
0.7722948326052984
 40
0.8387049044771484
 40
0.9051086456510143
 40
0.9715078602768404
 40
1.0
 40
1.0
 40
1.0
 40
1.0
 10
10.19310364977729
 20
3.167893872625962
 30
0.0
 10
10.61346358189602
 20
3.134411983072451
 30
0.0
 10
11.45397801749698
 20
3.067464566464309
 30
0.0
 10
12.71435178125768
 20
2.762242428524604
 30
0.0
 10
13.97428370168024
 20
2.324535452020031
 30
0.0
 10
15.23404213437807
 20
1.762170476144808
 30
0.0
 10
16.4939279601864
 20
1.108533663720332
 30
0.0
 10
17.78184314404473
 20
0.3811066668704445
 30
0.0
 10
19.09801941446405
 20
-0.3843917245279437
 30
0.0
 10
20.44216891062414
 20
-1.143211595426734
 30
0.0
 10
21.78654073610238
 20
-1.834019847810584
 30
0.0
 10
23.13090594576436
 20
-2.415737946461885
 30
0.0
 10
24.47506412912934
 20
-2.854023466373102
 30
0.0
 10
25.81898533118977
 20
-3.121977434359002
 30
0.0
 10
27.16270852674012
 20
-3.206794321658603
 30
0.0
 10
28.50627787754749
 20
-3.091976529580637
 30
0.0
 10
29.5941005602593
 20
-2.877590266454943
 30
0.0
 10
30.23407055569574
 20
-2.651345173451081
 30
0.0
 10
30.42622836241798
 20
-2.583412674797538
 30
0.0
  0
SPLINE
  5
BB
330
1F
100
AcDbEntity
  8
0
  6
Continuous
 62
     1
370
    15
100
AcDbSpline
210
0.0
220
0.0
230
1.0
 70
     8
 71
     3
 72
    23
 73
    19
 74
     0
 42
0.000000001
 43
0.00000001
 40
0.0
 40
0.0
 40
0.0
 40
0.0
 40
0.0601270717303687
 40
0.1252570835657135
 40
0.1903879793718255
 40
0.2555215392334989
 40
0.3206595393613625
 40
0.3858037495159325
 40
0.4509559304516159
 40
0.516117831388535
 40
0.5812911875198574
 40
0.646464728838655
 40
0.7116267896669304
 40
0.7767791042177439
 40
0.8378812313101907
 40
0.8989669523516541
 40
0.9600478601648074
 40
1.0
 40
1.0
 40
1.0
 40
1.0
 10
33.77667279611567
 20
-3.167229731511812
 30
0.0
 10
33.36328094544199
 20
-3.154358462942386
 30
0.0
 10
32.50210051381514
 20
-3.127544957537913
 30
0.0
 10
31.19313194010265
 20
-2.855490798411806
 30
0.0
 10
29.849737888427
 20
-2.422832434968078
 30
0.0
 10
28.50627816714909
 20
-1.841826772168274
 30
0.0
 10
27.16270844914071
 20
-1.152489618545625
 30
0.0
 10
25.8189853519516
 20
-0.3942785549196139
 30
0.0
 10
24.47506412369363
 20
0.3873762333461604
 30
0.0
 10
23.13090594674132
 20
1.14614884643187
 30
0.0
 10
21.78654073763204
 20
1.836858705554525
 30
0.0
 10
20.44216890352902
 20
2.418450153651786
 30
0.0
 10
19.09801944130795
 20
2.856522734585087
 30
0.0
 10
17.78184304641225
 20
3.118905403526417
 30
0.0
 10
16.49392829942064
 20
3.204901083115624
 30
0.0
 10
15.23404086604084
 20
3.116074053882679
 30
0.0
 10
14.11958151807704
 20
2.911398364795276
 30
0.0
 10
13.42501793292746
 20
2.680451779131167
 30
0.0
 10
13.15036224229728
 20
2.589127103694001
 30
0.0
  0
LINE
  5
BC
330
1F
100
AcDbEntity
  8
0
  6
Continuous
 62
     1
370
    15
100
AcDbLine
 10
41.94310364977729
 20
1.347144978127036
 30
0.0
 11
41.94310364977729
 21
3.176074928723899
 31
0.0
  0
SPLINE
  5
BD
330
1F
100
AcDbEntity
  8
0
  6
Continuous
 62
     1
370
    15
100
AcDbSpline
210
0.0
220
0.0
230
1.0
 70
     8
 71
     3
 72
    17
 73
    13
 74
     0
 42
0.000000001
 43
0.00000001
 40
0.0
 40
0.0
 40
0.0
 40
0.0
 40
0.1087593065520153
 40
0.2174654627575161
 40
0.3261389095917323
 40
0.4348002525437006
 40
0.5434701581033793
 40
0.6521692496001406
 40
0.7680735190189392
 40
0.8839951268113104
 40
0.9999371580970855
 40
1.0
 40
1.0
 40
1.0
 40
1.0
 10
10.19310364977729
 20
-0.2267029818447467
 30
0.0
 10
10.61346358194713
 20
-0.4675141697832087
 30
0.0
 10
11.45397801765029
 20
-0.9490188619557284
 30
0.0
 10
12.71435178064492
 20
-1.618535106314503
 30
0.0
 10
13.97428370397729
 20
-2.204122408602492
 30
0.0
 10
15.23404212580308
 20
-2.674063030447176
 30
0.0
 10
16.49392799219619
 20
-3.00449754787558
 30
0.0
 10
17.78184302119899
 20
-3.180368905675492
 30
0.0
 10
19.09801990691667
 20
-3.185463400794858
 30
0.0
 10
20.44216707624548
 20
-2.983295308567109
 30
0.0
 10
21.33863818578757
 20
-2.774919521260426
 30
0.0
 10
21.78702689032426
 20
-2.602476575762465
 30
0.0
 10
21.78726979045995
 20
-2.602383160352047
 30
0.0
  0
SPLINE
  5
BE
330
1F
100
AcDbEntity
  8
0
  6
Continuous
 62
     1
370
    15
100
AcDbSpline
210
0.0
220
0.0
230
1.0
 70
     8
 71
     3
 72
    12
 73
     8
 74
     0
 42
0.000000001
 43
0.00000001
 40
0.0
 40
0.0
 40
0.0
 40
0.0
 40
0.1372816736627617
 40
0.3529158352301066
 40
0.5685764247056418
 40
0.7842692318671338
 40
1.0
 40
1.0
 40
1.0
 40
1.0
 10
35.71144287540914
 20
3.154184779486832
 30
0.0
 10
35.99659125731283
 20
3.155386428377994
 30
0.0
 10
36.72963432620248
 20
3.158475558272487
 30
0.0
 10
37.91065407328107
 20
2.950276136372075
 30
0.0
 10
39.2545763420877
 20
2.56541237500609
 30
0.0
 10
40.59873636254611
 20
2.026197707117717
 30
0.0
 10
41.49495493460191
 20
1.573509165149374
 30
0.0
 10
41.9431036497773
 20
1.347144978127037
 30
0.0
  0
SPLINE
  5
BF
330
1F
100
AcDbEntity
  8
0
  6
Continuous
 62
     1
370
    15
100
AcDbSpline
210
0.0
220
0.0
230
1.0
 70
     8
 71
     3
 72
    10
 73
     6
 74
     0
 42
0.000000001
 43
0.00000001
 40
0.0
 40
0.0
 40
0.0
 40
0.0
 40
0.4665993082048783
 40
0.9331165114641595
 40
1.0
 40
1.0
 40
1.0
 40
1.0
 10
41.94310364977729
 20
3.176074928723899
 30
0.0
 10
41.49495557709625
 20
3.121345640353316
 30
0.0
 10
40.5987382899161
 20
3.035246183300722
 30
0.0
 10
39.63831802710445
 20
2.811541281916154
 30
0.0
 10
39.12604735065953
 20
2.61917782374891
 30
0.0
 10
39.061813369635
 20
2.595057234205346
 30
0.0
  0
SPLINE
  5
C0
330
1F
100
AcDbEntity
  8
0
  6
Continuous
 62
     1
370
    15
100
AcDbSpline
210
0.0
220
0.0
230
1.0
 70
     8
 71
     3
 72
    19
 73
    15
 74
     0
 42
0.000000001
 43
0.00000001
 40
0.0
 40
0.0
 40
0.0
 40
0.0
 40
0.0444260858374765
 40
0.1343525156197128
 40
0.2242947540987541
 40
0.3142372481450556
 40
0.4041638985847407
 40
0.4940770987118471
 40
0.578400853275782
 40
0.6627019667324048
 40
0.7469964377118832
 40
0.8313002983263788
 40
0.9156295333663469
 40
1.0
 40
1.0
 40
1.0
 40
1.0
 10
25.13915159575539
 20
-3.150259094792654
 30
0.0
 10
24.91781020089805
 20
-3.154904334672956
 30
0.0
 10
24.24843380526758
 20
-3.168952379910584
 30
0.0
 10
23.13090478495112
 20
-2.988026743898283
 30
0.0
 10
21.78654104717079
 20
-2.629901875425984
 30
0.0
 10
20.44216882727665
 20
-2.105492906525125
 30
0.0
 10
19.0980194368393
 20
-1.458547691026225
 30
0.0
 10
17.78184313846306
 20
-0.739390705384777
 30
0.0
 10
16.49392796164081
 20
0.0043587383182985
 30
0.0
 10
15.23404213398844
 20
0.7317696989558186
 30
0.0
 10
13.9742837017846
 20
1.421704232490302
 30
0.0
 10
12.71435178122983
 20
2.034474383702762
 30
0.0
 10
11.45397801750394
 20
2.551829771131358
 30
0.0
 10
10.61346358189833
 20
2.780694342108215
 30
0.0
 10
10.19310364977728
 20
2.895154595787772
 30
0.0
  0
SPLINE
  5
C1
330
1F
100
AcDbEntity
  8
외형선
  6
Continuous
370
    15
100
AcDbSpline
210
0.0
220
0.0
230
1.0
 70
    24
 71
     3
 72
    21
 73
    17
 74
     0
 42
0.000000001
 43
0.00000001
 40
0.0
 40
0.0
 40
0.0
 40
0.0
 40
0.0504942754804068
 40
0.1253884251029262
 40
0.2002825747254486
 40
0.275176724347969
 40
0.3500708739704895
 40
0.4249650235930099
 40
0.4998591732155304
 40
0.5747533228380509
 40
0.6496474724605713
 40
0.7245416220830923
 40
0.7994357717056132
 40
0.8743299213281333
 40
0.9492240709506532
 40
1.0
 40
1.0
 40
1.0
 40
1.0
 10
10.19310364977727
 20
2.895154595787765
 30
0.0
 10
10.19310364977728
 20
2.839700435553086
 30
0.0
 10
10.19310364977733
 20
2.701995522450022
 30
0.0
 10
10.19310364977729
 20
2.452326201815362
 30
0.0
 10
10.19310364977731
 20
2.15137866173568
 30
0.0
 10
10.19310364977729
 20
1.834675897682574
 30
0.0
 10
10.19310364977727
 20
1.512345323701819
 30
0.0
 10
10.19310364977731
 20
1.193293281681891
 30
0.0
 10
10.19310364977729
 20
0.8863035553475667
 30
0.0
 10
10.1931036497773
 20
0.6007769090940428
 30
0.0
 10
10.19310364977727
 20
0.3437393338566179
 30
0.0
 10
10.19310364977726
 20
0.1240229083246016
 30
0.0
 10
10.19310364977727
 20
-0.0544594656955374
 30
0.0
 10
10.19310364977726
 20
-0.1821842251200758
 30
0.0
 10
10.19310364977729
 20
-0.2581216069498969
 30
0.0
 10
10.19310364977727
 20
-0.2665739562339947
 30
0.0
 10
10.19310364977728
 20
-0.2699890562489335
 30
0.0
  0
LINE
  5
C2
330
1F
100
AcDbEntity
  8
0
  6
Continuous
 62
     1
370
    15
100
AcDbLine
 10
41.94310364977729
 20
-2.874463355163101
 30
0.0
 11
41.94310364977729
 21
0.2731132126109249
 31
0.0
  0
SPLINE
  5
C3
330
1F
100
AcDbEntity
  8
0
  6
Continuous
 62
     1
370
    15
100
AcDbSpline
210
0.0
220
0.0
230
1.0
 70
     8
 71
     3
 72
    10
 73
     6
 74
     0
 42
0.000000001
 43
0.00000001
 40
0.0
 40
0.0
 40
0.0
 40
0.0
 40
0.4263982373208086
 40
0.8525880951034864
 40
0.9999999999999999
 40
0.9999999999999999
 40
0.9999999999999999
 40
0.9999999999999999
 10
10.19310364977729
 20
-3.165744015178177
 30
0.0
 10
10.6134629206501
 20
-3.130564828798332
 30
0.0
 10
11.45397603408237
 20
-3.060223648001385
 30
0.0
 10
12.4396906218485
 20
-2.841413921211114
 30
0.0
 10
13.00506477841081
 20
-2.638997057546355
 30
0.0
 10
13.15036224229732
 20
-2.586977246246214
 30
0.0
  0
SPLINE
  5
C4
330
1F
100
AcDbEntity
  8
0
  6
Continuous
 62
     1
370
    15
100
AcDbSpline
210
0.0
220
0.0
230
1.0
 70
     8
 71
     3
 72
    19
 73
    15
 74
     0
 42
0.000000001
 43
0.00000001
 40
0.0
 40
0.0
 40
0.0
 40
0.0
 40
0.0058737196902461
 40
0.0962426631800578
 40
0.1866054464843621
 40
0.2769645338218559
 40
0.3673223947860497
 40
0.4576815007548565
 40
0.5480443212946835
 40
0.6384133205701008
 40
0.7287909537702884
 40
0.8191796635632352
 40
0.9095818765886142
 40
1.0
 40
1.0
 40
1.0
 40
1.0
 10
27.07541783139257
 20
3.170338436180573
 30
0.0
 10
27.10452754421216
 20
3.172229050992464
 30
0.0
 10
27.58149894119896
 20
3.203207343137784
 30
0.0
 10
28.50627620893702
 20
3.086823044100305
 30
0.0
 10
29.84973844910725
 20
2.811612200775878
 30
0.0
 10
31.19313165546055
 20
2.348773248896538
 30
0.0
 10
32.53650382062971
 20
1.752014820437398
 30
0.0
 10
33.87989797389915
 20
1.049775239246195
 30
0.0
 10
35.22335841960741
 20
0.2855614854639309
 30
0.0
 10
36.56692912199842
 20
-0.4954447007821319
 30
0.0
 10
37.9106535251614
 20
-1.247834311811187
 30
0.0
 10
39.25457648828404
 20
-1.922776555400625
 30
0.0
 10
40.59873632598725
 20
-2.495704328152711
 30
0.0
 10
41.49495492241491
 20
-2.748202940373198
 30
0.0
 10
41.9431036497773
 20
-2.874463355163101
 30
0.0
  0
SPLINE
  5
C5
330
1F
100
AcDbEntity
  8
0
  6
Continuous
 62
     1
370
    15
100
AcDbSpline
210
0.0
220
0.0
230
1.0
 70
     8
 71
     3
 72
    16
 73
    12
 74
     0
 42
0.000000001
 43
0.00000001
 40
0.0
 40
0.0
 40
0.0
 40
0.0
 40
0.1167258457691134
 40
0.2334311519252267
 40
0.3501190259984046
 40
0.4667926006744109
 40
0.5834550293308685
 40
0.7001094815097072
 40
0.8167591383397019
 40
0.9334071879231471
 40
1.0
 40
1.0
 40
1.0
 40
1.0
 10
41.94310364977729
 20
0.2731132126109244
 30
0.0
 10
41.49495492238546
 20
0.5292311300423228
 30
0.0
 10
40.59873632589895
 20
1.041421897226477
 30
0.0
 10
39.2545764886372
 20
1.743605906013282
 30
0.0
 10
37.91065352383725
 20
2.343323070177405
 30
0.0
 10
36.56692912694091
 20
2.80367761403204
 30
0.0
 10
35.22335840116354
 20
3.097083061977693
 30
0.0
 10
33.87989804272658
 20
3.208459026463355
 30
0.0
 10
32.53650356377472
 20
3.122144652618694
 30
0.0
 10
31.38528975095009
 20
2.912214881530852
 30
0.0
 10
30.68186481790991
 20
2.672631253547159
 30
0.0
 10
30.42622836241803
 20
2.585562532245324
 30
0.0
  0
SPLINE
  5
C6
330
1F
100
AcDbEntity
  8
0
  6
Continuous
 62
     1
370
    15
100
AcDbSpline
210
0.0
220
0.0
230
1.0
 70
     8
 71
     3
 72
    13
 73
     9
 74
     0
 42
0.000000001
 43
0.00000001
 40
0.0
 40
0.0
 40
0.0
 40
0.0
 40
0.000907715816935
 40
0.200681820335337
 40
0.4004401837221109
 40
0.6002207983680959
 40
0.8000615445226531
 40
1.0
 40
1.0
 40
1.0
 40
1.0
 10
16.49954626776179
 20
-3.173549630813917
 30
0.0
 10
16.49763809713916
 20
-3.173674718463134
 30
0.0
 10
16.07577131139674
 20
-3.201329648208723
 30
0.0
 10
15.23404979035208
 20
-3.104549398001884
 30
0.0
 10
13.9742816508098
 20
-2.873419752214863
 30
0.0
 10
12.71435232835709
 20
-2.470358166021373
 30
0.0
 10
11.45397788062695
 20
-1.948273483332872
 30
0.0
 10
10.61346353626524
 20
-1.519228742326038
 30
0.0
 10
10.19310364977728
 20
-1.304653940792043
 30
0.0
  0
SPLINE
  5
C7
330
1F
100
AcDbEntity
  8
외형선
  6
Continuous
370
    15
100
AcDbSpline
210
0.0
220
0.0
230
1.0
 70
    24
 71
     3
 72
    14
 73
    10
 74
     0
 42
0.000000001
 43
0.00000001
 40
0.0
 40
0.0
 40
0.0
 40
0.0
 40
0.1284207567027207
 40
0.2935868935336605
 40
0.4540981918399046
 40
0.6192643286708468
 40
0.7797756269770962
 40
0.9449417638080339
 40
1.0
 40
1.0
 40
1.0
 40
1.0
 10
10.19310364977729
 20
-1.358544047586657
 30
0.0
 10
10.19310364977729
 20
-1.418386154405721
 30
0.0
 10
10.19310364977731
 20
-1.555193152702645
 30
0.0
 10
10.19310364977724
 20
-1.808450113136934
 30
0.0
 10
10.19310364977728
 20
-2.103910208252439
 30
0.0
 10
10.19310364977727
 20
-2.415467501600429
 30
0.0
 10
10.19310364977735
 20
-2.738226893936639
 30
0.0
 10
10.19310364977727
 20
-2.989029333327677
 30
0.0
 10
10.19310364977729
 20
-3.130399978300356
 30
0.0
 10
10.19310364977729
 20
-3.165744015178176
 30
0.0
  0
LINE
  5
C8
330
1F
100
AcDbEntity
  8
0
  6
Continuous
 62
     1
370
    15
100
AcDbLine
 10
41.94310364977729
 20
-3.173925071276101
 30
0.0
 11
41.94310364977729
 21
-2.874463355163101
 31
0.0
  0
LINE
  5
C9
330
1F
100
AcDbEntity
  8
0
  6
Continuous
 62
     1
370
    15
100
AcDbLine
 10
41.94310364977729
 20
0.2731132126109249
 30
0.0
 11
41.94310364977729
 21
1.347144978127036
 31
0.0
  0
LINE
  5
CA
330
1F
100
AcDbEntity
  8
중심선
 48
0.8
100
AcDbLine
 10
-38.84439635022272
 20
0.0010749287238892
 30
0.0
 11
44.9431036497773
 21
0.0010749287238995
 31
0.0
  0
LINE
  5
CB
330
1F
100
AcDbEntity
  8
참조1
100
AcDbLine
 10
3.049353649777292
 20
0.0010749287238892
 30
0.0
 11
3.049353649777297
 21
-39.99892507127611
 31
0.0
  0
LINE
  5
CC
330
1F
100
AcDbEntity
  8
참조1
100
AcDbLine
 10
3.049353649777297
 20
-39.99892507127611
 30
0.0
 11
-21.63450316453139
 21
-39.9989250712761
 31
0.0
  0
CIRCLE
  5
CD
330
1F
100
AcDbEntity
  8
해칭선
100
AcDbCircle
 10
1.26847299276168
 20
0.0
 30
0.0
 40
3.000000000000001
  0
INSERT
  5
CE
330
1F
100
AcDbEntity
  8
0
  6
Continuous
 62
     7
100
AcDbBlockReference
 66
     1
  2
블럭10
 10
-10.89091928234791
 20
-52.04609937292004
 30
0.0
  0
ATTRIB
  5
CF
330
CE
100
AcDbEntity
  8
FORMAT
 62
     2
100
AcDbText
 10
-20.07221457108919
 20
-49.97073246008785
 30
0.0
 40
4.233333333333333
  1
E1034016 [ 4 FLUTE ]
 41
0.75
  7
SLDTEXTSTYLE0
 11
-20.07221457108919
 21
-52.08739912675452
 31
0.0
100
AcDbAttribute
  2
AUTOATTR0
 70
     0
 74
     1
  0
SEQEND
  5
D0
330
CE
100
AcDbEntity
  8
0
  6
Continuous
 62
     7
  0
HATCH
  5
D1
330
1F
100
AcDbEntity
  8
중심선
100
AcDbHatch
 10
0.0
 20
0.0
 30
0.0
210
0.0
220
0.0
230
1.0
  2
SOLID
 70
     1
 71
     0
 91
        1
 92
        0
 93
        4
 72
     1
 10
-5.176009977967078
 20
-35.7989250712761
 11
-8.62228522180436
 21
-35.7989250712761
 72
     1
 10
-8.62228522180436
 20
-35.7989250712761
 11
-10.75051508100838
 21
-38.33525065184873
 72
     1
 10
-10.75051508100838
 20
-38.33525065184873
 11
-7.304206752057923
 21
-38.33521122254624
 72
     1
 10
-7.304206752057923
 20
-38.33521122254624
 11
-5.176009977967078
 21
-35.7989250712761
 97
        0
 75
     0
 76
     1
 98
        1
 10
0.0
 20
0.0
  0
HATCH
  5
D2
330
1F
100
AcDbEntity
  8
중심선
100
AcDbHatch
 10
0.0
 20
0.0
 30
0.0
210
0.0
220
0.0
230
1.0
  2
SOLID
 70
     1
 71
     0
 91
        1
 92
        0
 93
        4
 72
     1
 10
-0.1632459869310987
 20
-35.7989250712761
 11
-3.60952123076838
 21
-35.7989250712761
 72
     1
 10
-3.609521230768381
 20
-35.7989250712761
 11
-8.140659239125798
 21
-41.19892507127612
 72
     1
 10
-8.140659239125798
 20
-41.19892507127612
 11
-4.694383995288515
 21
-41.19892507127612
 72
     1
 10
-4.694383995288515
 20
-41.19892507127612
 11
-0.1632459869310985
 21
-35.7989250712761
 97
        0
 75
     0
 76
     1
 98
        1
 10
0.0
 20
0.0
  0
HATCH
  5
D3
330
1F
100
AcDbEntity
  8
중심선
100
AcDbHatch
 10
0.0
 20
0.0
 30
0.0
210
0.0
220
0.0
230
1.0
  2
SOLID
 70
     1
 71
     0
 91
        1
 92
        0
 93
        4
 72
     1
 10
4.84951800410477
 20
-35.7989250712761
 11
1.403242760267681
 21
-35.7989250712761
 72
     1
 10
1.403242760267681
 20
-35.7989250712761
 11
-5.645194141621596
 21
-44.19892507127612
 72
     1
 10
-5.645194141621595
 20
-44.19892507127612
 11
-2.198918897784313
 21
-44.19892507127612
 72
     1
 10
-2.198918897784313
 20
-44.19892507127612
 11
4.84951800410477
 21
-35.7989250712761
 97
        0
 75
     0
 76
     1
 98
        1
 10
0.0
 20
0.0
  0
HATCH
  5
D4
330
1F
100
AcDbEntity
  8
중심선
100
AcDbHatch
 10
0.0
 20
0.0
 30
0.0
210
0.0
220
0.0
230
1.0
  2
SOLID
 70
     1
 71
     0
 91
        1
 92
        0
 93
        6
 72
     3
 10
9.649408435116968
 20
-39.99892507132738
 11
3.960054785062284
 21
1.540850780301639E-10
 40
0.3939339440162633
 50
17.09539180608433
 51
320.0019657685081
 73
     0
 72
     1
 10
11.33240809081754
 20
-38.58681907591443
 11
13.6377099645186
 21
-36.65249236586651
 72
     3
 10
9.649408435064121
 20
-39.99892507127625
 11
6.600054785286829
 21
-1.249000902703301E-13
 40
0.6363583540795982
 50
39.99873849337382
 51
368.4976242363724
 73
     1
 72
     1
 10
16.07474092696473
 20
-39.03892507120613
 11
8.329475741900072
 21
-39.03892507120613
 72
     1
 10
8.329475741900072
 20
-39.03892507120613
 11
8.32945069745411
 21
-40.95892507120602
 72
     1
 10
8.32945069745411
 20
-40.95892507120602
 11
12.77083046692615
 21
-40.95892507120599
 97
        0
 75
     0
 76
     1
 98
        1
 10
0.0
 20
0.0
  0
DIMENSION
  5
D5
330
1F
100
AcDbEntity
  8
치수문자_일반주서
100
AcDbDimension
  2
_D
 10
10.19310364977729
 20
15.01557319527101
 30
0.0
 11
-10.84839635022271
 21
15.01557319527101
 31
0.0
 70
   160
  1
<>
 71
     2
 42
31.75
  3
SLDDIMSTYLE1
100
AcDbAlignedDimension
 13
41.94310364977729
 23
3.176074928723899
 33
0.0
 14
10.19310364977728
 24
3.167893872625959
 34
0.0
 50
0.0000000000000705
100
AcDbRotatedDimension
1001
ACAD
1000
DSTYLE
1002
{
1070
   171
1070
     6
1070
   273
1070
     7
1002
}
  0
DIMENSION
  5
EA
330
1F
100
AcDbEntity
  8
치수문자_일반주서
100
AcDbDimension
  2
_D_1
 10
-35.84439635022271
 20
32.0664422405779
 30
0.0
 11
3.049353649777285
 21
32.0664422405779
 31
0.0
 70
   160
  1
<>
 71
     2
 42
77.7875
  3
SLDDIMSTYLE1
100
AcDbAlignedDimension
 13
41.94310364977729
 23
3.176074928723899
 33
0.0
 14
-35.84439635022271
 24
3.811074928723895
 34
0.0
100
AcDbRotatedDimension
1001
ACAD
1000
DSTYLE
1002
{
1070
   171
1070
     6
1070
   273
1070
     7
1002
}
  0
DIMENSION
  5
FD
330
1F
100
AcDbEntity
  8
치수문자_일반주서
100
AcDbDimension
  2
_D_2
 10
-47.14516918804989
 20
-4.761425071276152
 30
0.0
 11
-47.14516918804991
 21
0.0010749287238959
 31
0.0
 70
   160
  1
%%c<>
 71
     2
 42
9.525000000000006
  3
SLDDIMSTYLE1
100
AcDbAlignedDimension
 13
-34.89189635022272
 23
4.763574928723896
 33
0.0
 14
-34.89189635022272
 24
-4.761425071276109
 34
0.0
 50
90.0000000000002
100
AcDbRotatedDimension
1001
ACAD
1000
DSTYLE
1002
{
1070
   171
1070
     6
1070
   273
1070
     7
1002
}
  0
LINE
  5
126
330
1F
100
AcDbEntity
  8
참조1
100
AcDbLine
 10
76.33783746512287
 20
7.441074928723896
 30
0.0
 11
76.33783746512287
 21
-7.438925071276109
 31
0.0
  0
LINE
  5
127
330
1F
100
AcDbEntity
  8
참조1
100
AcDbLine
 10
89.03783746512288
 20
5.441074928723896
 30
0.0
 11
76.33783746512287
 21
5.441074928723896
 31
0.0
  0
SOLID
  5
128
330
1F
100
AcDbEntity
  8
참조1
100
AcDbTrace
 10
76.33783746512287
 20
5.441074928723896
 30
0.0
 11
82.68783746512287
 21
4.425074928723896
 31
0.0
 12
82.68783746512287
 22
6.457074928723896
 32
0.0
 13
82.68783746512287
 23
6.457074928723896
 33
0.0
  0
LINE
  5
129
330
1F
100
AcDbEntity
  8
참조1
100
AcDbLine
 10
89.03783746512288
 20
-5.438925071276109
 30
0.0
 11
76.33783746512287
 21
-5.438925071276109
 31
0.0
  0
SOLID
  5
12A
330
1F
100
AcDbEntity
  8
참조1
100
AcDbTrace
 10
76.33783746512287
 20
-5.438925071276109
 30
0.0
 11
82.68783746512287
 21
-6.454925071276109
 31
0.0
 12
82.68783746512287
 22
-4.422925071276109
 32
0.0
 13
82.68783746512287
 23
-4.422925071276109
 33
0.0
  0
MTEXT
  5
12B
330
1F
100
AcDbEntity
  8
참조1
100
AcDbMText
 10
85.72218759774887
 20
11.01136670591222
 30
0.0
 40
3.5
 41
0.0
 71
     1
 72
     1
  1
A
  7
SLDTEXTSTYLE0
 73
     1
 44
1.0
  0
MTEXT
  5
12C
330
1F
100
AcDbEntity
  8
참조1
100
AcDbMText
 10
85.72218759774887
 20
0.1313667059122201
 30
0.0
 40
3.5
 41
0.0
 71
     1
 72
     1
  1
A
  7
SLDTEXTSTYLE0
 73
     1
 44
1.0
  0
INSERT
  5
133
330
1F
100
AcDbEntity
  8
해칭선
100
AcDbBlockReference
  2
SW_DOWELSYMBOL_0
 10
1.26847299276168
 20
0.0
 30
0.0
  0
DIMENSION
  5
2B6
330
1F
100
AcDbEntity
  8
치수문자_일반주서
100
AcDbDimension
  2
*D15
 10
58.43348575598296
 20
-3.173925071276102
 30
0.0
 11
58.43348575598296
 21
21.1550749287239
 31
0.0
 70
   160
 71
     5
 42
6.35
  3
SLDDIMSTYLE1
100
AcDbAlignedDimension
 13
41.94310364977729
 23
3.176074928723899
 33
0.0
 14
41.94310364977729
 24
-3.173925071276101
 34
0.0
 50
90.0
100
AcDbRotatedDimension
1001
ACAD
1000
DSTYLE
1002
{
1070
   171
1070
     6
1070
   273
1070
     7
1002
}
  0
LINE
  5
3E5
330
1F
100
AcDbEntity
  8
외형선
  6
Continuous
370
    15
100
AcDbLine
 10
-19.56934635022283
 20
3.493574928723895
 30
0.0
 11
-12.4319463502227
 21
3.493574928723895
 31
0.0
  0
LINE
  5
3E6
330
1F
100
AcDbEntity
  8
외형선
  6
Continuous
370
    15
100
AcDbLine
 10
-19.56934635022283
 20
3.493574928723895
 30
0.0
 11
-20.83934635022281
 21
4.763574928723877
 31
0.0
  0
LINE
  5
3E7
330
1F
100
AcDbEntity
  8
외형선
  6
Continuous
370
    15
100
AcDbLine
 10
-12.4319463502227
 20
3.493574928723895
 30
0.0
 11
-11.16194635022261
 21
4.763574928723877
 31
0.0
  0
LINE
  5
424
330
1F
100
AcDbEntity
  8
외형선
  6
Continuous
370
    15
100
AcDbLine
 10
-20.83934635022283
 20
4.763574928723895
 30
0.0
 11
-34.89189635022272
 21
4.763574928723895
 31
0.0
  0
ENDSEC
  0
SECTION
  2
OBJECTS
  0
DICTIONARY
  5
C
330
0
100
AcDbDictionary
281
     1
  3
ACAD_GROUP
350
D
  3
ACAD_IMAGE_VARS
350
157
  3
ACAD_LAYOUT
350
1A
  3
ACAD_MLINESTYLE
350
17
  3
ACAD_PLOTSETTINGS
350
19
  3
ACAD_PLOTSTYLENAME
350
E
  3
ACAD_SCALELIST
350
47
  3
APPDATA
350
155
  3
DWGPROPS
350
448
  0
DICTIONARY
  5
208
330
2
100
AcDbDictionary
280
     1
281
     1
  3
ACAD_LAYERSTATES
360
209
  0
DICTIONARY
  5
D
102
{ACAD_REACTORS
330
C
102
}
330
C
100
AcDbDictionary
281
     1
  0
RASTERVARIABLES
  5
157
102
{ACAD_REACTORS
330
C
102
}
330
C
100
AcDbRasterVariables
 90
        0
 70
     1
 71
     1
 72
     1
  0
DICTIONARY
  5
1A
102
{ACAD_REACTORS
330
C
102
}
330
C
100
AcDbDictionary
281
     1
  3
Layout1
350
1E
  3
Layout2
350
26
  3
Model
350
22
  0
DICTIONARY
  5
17
102
{ACAD_REACTORS
330
C
102
}
330
C
100
AcDbDictionary
281
     1
  3
Standard
350
18
  0
DICTIONARY
  5
19
102
{ACAD_REACTORS
330
C
102
}
330
C
100
AcDbDictionary
281
     1
  0
ACDBDICTIONARYWDFLT
  5
E
102
{ACAD_REACTORS
330
C
102
}
330
C
100
AcDbDictionary
281
     1
  3
Normal
350
F
100
AcDbDictionaryWithDefault
340
F
  0
DICTIONARY
  5
47
102
{ACAD_REACTORS
330
C
102
}
330
C
100
AcDbDictionary
281
     1
  3
A0
350
48
  3
A1
350
49
  3
A2
350
4A
  3
A3
350
4B
  3
A4
350
4C
  3
A5
350
4D
  3
A6
350
4E
  3
A7
350
4F
  3
A8
350
50
  3
A9
350
51
  3
B0
350
52
  3
B1
350
53
  3
B2
350
54
  3
B3
350
55
  3
B4
350
56
  3
B5
350
57
  3
B6
350
58
  3
B7
350
59
  3
B8
350
5A
  3
B9
350
5B
  3
C0
350
5C
  3
C1
350
5D
  3
C2
350
5E
  3
C3
350
5F
  3
C4
350
60
  3
C5
350
61
  3
C6
350
62
  3
C7
350
63
  3
C8
350
64
  3
C9
350
65
  3
D0
350
66
  3
D1
350
67
  3
D2
350
68
  0
DICTIONARY
  5
155
102
{ACAD_REACTORS
330
C
102
}
330
C
100
AcDbDictionary
281
     1
  0
XRECORD
  5
448
102
{ACAD_REACTORS
330
C
102
}
330
C
100
AcDbXrecord
280
     1
  1
DWGPROPS COOKIE
  2

  3

  4

  6

  7

  8
12016016
  9

300
=
301
=
302
=
303
=
304
=
305
=
306
=
307
=
308
=
309
=
 40
0.0
 41
2458312.296232755
 42
2458323.373983877
  1

 90
        0
  0
DICTIONARY
  5
209
102
{ACAD_REACTORS
330
208
102
}
330
208
100
AcDbDictionary
281
     1
  0
LAYOUT
  5
1E
102
{ACAD_REACTORS
330
1A
102
}
330
1A
100
AcDbPlotSettings
  1

  2
none_device
  4

  6

 40
0.0
 41
0.0
 42
0.0
 43
0.0
 44
0.0
 45
0.0
 46
0.0
 47
0.0
 48
0.0
 49
0.0
140
0.0
141
0.0
142
1.0
143
1.0
 70
   688
 72
     1
 73
     0
 74
     5
  7

 75
    16
147
1.0
148
0.0
149
0.0
100
AcDbLayout
  1
Layout1
 70
     1
 71
     1
 10
0.0
 20
0.0
 11
420.0
 21
297.0
 12
0.0
 22
0.0
 32
0.0
 14
1.000000000000000E+20
 24
1.000000000000000E+20
 34
1.000000000000000E+20
 15
-1.000000000000000E+20
 25
-1.000000000000000E+20
 35
-1.000000000000000E+20
146
0.0
 13
0.0
 23
0.0
 33
0.0
 16
1.0
 26
0.0
 36
0.0
 17
0.0
 27
1.0
 37
0.0
 76
     0
330
1B
  0
LAYOUT
  5
26
102
{ACAD_REACTORS
330
1A
102
}
330
1A
100
AcDbPlotSettings
  1

  2
none_device
  4

  6

 40
0.0
 41
0.0
 42
0.0
 43
0.0
 44
0.0
 45
0.0
 46
0.0
 47
0.0
 48
0.0
 49
0.0
140
0.0
141
0.0
142
1.0
143
1.0
 70
   688
 72
     1
 73
     0
 74
     5
  7

 75
    16
147
1.0
148
0.0
149
0.0
100
AcDbLayout
  1
Layout2
 70
     1
 71
     2
 10
0.0
 20
0.0
 11
0.0
 21
0.0
 12
0.0
 22
0.0
 32
0.0
 14
0.0
 24
0.0
 34
0.0
 15
0.0
 25
0.0
 35
0.0
146
0.0
 13
0.0
 23
0.0
 33
0.0
 16
1.0
 26
0.0
 36
0.0
 17
0.0
 27
1.0
 37
0.0
 76
     0
330
23
  0
LAYOUT
  5
22
102
{ACAD_REACTORS
330
1A
102
}
330
1A
100
AcDbPlotSettings
  1

  2
none_device
  4
ANSI_A_(11.00_x_8.50_Inches)
  6

 40
6.35
 41
19.05
 42
6.35000508
 43
19.05000254
 44
279.4
 45
215.9
 46
103.6721559913463
 47
48.06489284401853
 48
0.0
 49
0.0
140
0.0
141
0.0
142
0.0512636130803342
143
1.0
 70
  1696
 72
     0
 73
     0
 74
     0
  7

 75
     0
147
0.0235690232323232
148
0.0
149
0.0
100
AcDbLayout
  1
Model
 70
     1
 71
     0
 10
0.0
 20
0.0
 11
420.0
 21
297.0
 12
0.0
 22
0.0
 32
0.0
 14
-51.52016918804996
 24
-49.97073246008785
 34
0.0
 15
89.03783746512288
 25
36.4414422405779
 35
0.0
146
0.0
 13
0.0
 23
0.0
 33
0.0
 16
1.0
 26
0.0
 36
0.0
 17
0.0
 27
1.0
 37
0.0
 76
     0
330
1F
331
29
  0
MLINESTYLE
  5
18
102
{ACAD_REACTORS
330
17
102
}
330
17
100
AcDbMlineStyle
  2
Standard
 70
     0
  3

 62
   256
 51
90.0
 52
90.0
 71
     2
 49
0.5
 62
   256
  6
BYLAYER
 49
-0.5
 62
   256
  6
BYLAYER
  0
ACDBPLACEHOLDER
  5
F
102
{ACAD_REACTORS
330
E
102
}
330
E
  0
SCALE
  5
48
102
{ACAD_REACTORS
330
47
102
}
330
47
100
AcDbScale
 70
     0
300
1:1
140
1.0
141
1.0
290
     1
  0
SCALE
  5
49
102
{ACAD_REACTORS
330
47
102
}
330
47
100
AcDbScale
 70
     0
300
1:2
140
1.0
141
2.0
290
     0
  0
SCALE
  5
4A
102
{ACAD_REACTORS
330
47
102
}
330
47
100
AcDbScale
 70
     0
300
1:4
140
1.0
141
4.0
290
     0
  0
SCALE
  5
4B
102
{ACAD_REACTORS
330
47
102
}
330
47
100
AcDbScale
 70
     0
300
1:5
140
1.0
141
5.0
290
     0
  0
SCALE
  5
4C
102
{ACAD_REACTORS
330
47
102
}
330
47
100
AcDbScale
 70
     0
300
1:8
140
1.0
141
8.0
290
     0
  0
SCALE
  5
4D
102
{ACAD_REACTORS
330
47
102
}
330
47
100
AcDbScale
 70
     0
300
1:10
140
1.0
141
10.0
290
     0
  0
SCALE
  5
4E
102
{ACAD_REACTORS
330
47
102
}
330
47
100
AcDbScale
 70
     0
300
1:16
140
1.0
141
16.0
290
     0
  0
SCALE
  5
4F
102
{ACAD_REACTORS
330
47
102
}
330
47
100
AcDbScale
 70
     0
300
1:20
140
1.0
141
20.0
290
     0
  0
SCALE
  5
50
102
{ACAD_REACTORS
330
47
102
}
330
47
100
AcDbScale
 70
     0
300
1:30
140
1.0
141
30.0
290
     0
  0
SCALE
  5
51
102
{ACAD_REACTORS
330
47
102
}
330
47
100
AcDbScale
 70
     0
300
1:40
140
1.0
141
40.0
290
     0
  0
SCALE
  5
52
102
{ACAD_REACTORS
330
47
102
}
330
47
100
AcDbScale
 70
     0
300
1:50
140
1.0
141
50.0
290
     0
  0
SCALE
  5
53
102
{ACAD_REACTORS
330
47
102
}
330
47
100
AcDbScale
 70
     0
300
1:100
140
1.0
141
100.0
290
     0
  0
SCALE
  5
54
102
{ACAD_REACTORS
330
47
102
}
330
47
100
AcDbScale
 70
     0
300
2:1
140
2.0
141
1.0
290
     0
  0
SCALE
  5
55
102
{ACAD_REACTORS
330
47
102
}
330
47
100
AcDbScale
 70
     0
300
4:1
140
4.0
141
1.0
290
     0
  0
SCALE
  5
56
102
{ACAD_REACTORS
330
47
102
}
330
47
100
AcDbScale
 70
     0
300
8:1
140
8.0
141
1.0
290
     0
  0
SCALE
  5
57
102
{ACAD_REACTORS
330
47
102
}
330
47
100
AcDbScale
 70
     0
300
10:1
140
10.0
141
1.0
290
     0
  0
SCALE
  5
58
102
{ACAD_REACTORS
330
47
102
}
330
47
100
AcDbScale
 70
     0
300
100:1
140
100.0
141
1.0
290
     0
  0
SCALE
  5
59
102
{ACAD_REACTORS
330
47
102
}
330
47
100
AcDbScale
 70
     0
300
1/128" = 1'-0"
140
0.0078125
141
12.0
290
     0
  0
SCALE
  5
5A
102
{ACAD_REACTORS
330
47
102
}
330
47
100
AcDbScale
 70
     0
300
1/64" = 1'-0"
140
0.015625
141
12.0
290
     0
  0
SCALE
  5
5B
102
{ACAD_REACTORS
330
47
102
}
330
47
100
AcDbScale
 70
     0
300
1/32" = 1'-0"
140
0.03125
141
12.0
290
     0
  0
SCALE
  5
5C
102
{ACAD_REACTORS
330
47
102
}
330
47
100
AcDbScale
 70
     0
300
1/16" = 1'-0"
140
0.0625
141
12.0
290
     0
  0
SCALE
  5
5D
102
{ACAD_REACTORS
330
47
102
}
330
47
100
AcDbScale
 70
     0
300
3/32" = 1'-0"
140
0.09375
141
12.0
290
     0
  0
SCALE
  5
5E
102
{ACAD_REACTORS
330
47
102
}
330
47
100
AcDbScale
 70
     0
300
1/8" = 1'-0"
140
0.125
141
12.0
290
     0
  0
SCALE
  5
5F
102
{ACAD_REACTORS
330
47
102
}
330
47
100
AcDbScale
 70
     0
300
3/16" = 1'-0"
140
0.1875
141
12.0
290
     0
  0
SCALE
  5
60
102
{ACAD_REACTORS
330
47
102
}
330
47
100
AcDbScale
 70
     0
300
1/4" = 1'-0"
140
0.25
141
12.0
290
     0
  0
SCALE
  5
61
102
{ACAD_REACTORS
330
47
102
}
330
47
100
AcDbScale
 70
     0
300
3/8" = 1'-0"
140
0.375
141
12.0
290
     0
  0
SCALE
  5
62
102
{ACAD_REACTORS
330
47
102
}
330
47
100
AcDbScale
 70
     0
300
1/2" = 1'-0"
140
0.5
141
12.0
290
     0
  0
SCALE
  5
63
102
{ACAD_REACTORS
330
47
102
}
330
47
100
AcDbScale
 70
     0
300
3/4" = 1'-0"
140
0.75
141
12.0
290
     0
  0
SCALE
  5
64
102
{ACAD_REACTORS
330
47
102
}
330
47
100
AcDbScale
 70
     0
300
1" = 1'-0"
140
1.0
141
12.0
290
     0
  0
SCALE
  5
65
102
{ACAD_REACTORS
330
47
102
}
330
47
100
AcDbScale
 70
     0
300
1-1/2" = 1'-0"
140
1.5
141
12.0
290
     0
  0
SCALE
  5
66
102
{ACAD_REACTORS
330
47
102
}
330
47
100
AcDbScale
 70
     0
300
3" = 1'-0"
140
3.0
141
12.0
290
     0
  0
SCALE
  5
67
102
{ACAD_REACTORS
330
47
102
}
330
47
100
AcDbScale
 70
     0
300
6" = 1'-0"
140
6.0
141
12.0
290
     0
  0
SCALE
  5
68
102
{ACAD_REACTORS
330
47
102
}
330
47
100
AcDbScale
 70
     0
300
1'-0" = 1'-0"
140
12.0
141
12.0
290
     0
  0
ENDSEC
  0
EOF
