  0
SECTION
  2
HEADER
  9
$ACADVER
  1
AC1015
  9
$ACADMAINTVER
 70
     6
  9
$DWGCODEPAGE
  3
ANSI_949
  9
$INSBASE
 10
0.0
 20
0.0
 30
0.0
  9
$EXTMIN
 10
-74.30287356130563
 20
-49.97180738881174
 30
0.0
  9
$EXTMAX
 10
161.2775483300464
 20
58.63272202592247
 30
0.0
  9
$LIMMIN
 10
0.0
 20
0.0
  9
$LIMMAX
 10
420.0
 20
297.0
  9
$ORTHOMODE
 70
     1
  9
$REGENMODE
 70
     1
  9
$FILLMODE
 70
     1
  9
$QTEXTMODE
 70
     0
  9
$MIRRTEXT
 70
     1
  9
$LTSCALE
 40
1.0
  9
$ATTMODE
 70
     1
  9
$TEXTSIZE
 40
3.5
  9
$TRACEWID
 40
1.0
  9
$TEXTSTYLE
  7
Standard
  9
$CLAYER
  8
0
  9
$CELTYPE
  6
ByLayer
  9
$CECOLOR
 62
   256
  9
$CELTSCALE
 40
1.0
  9
$DISPSILH
 70
     0
  9
$DIMSCALE
 40
1.0
  9
$DIMASZ
 40
3.302
  9
$DIMEXO
 40
1.0
  9
$DIMDLI
 40
3.75
  9
$DIMRND
 40
0.0
  9
$DIMDLE
 40
0.0
  9
$DIMEXE
 40
1.0
  9
$DIMTP
 40
0.0
  9
$DIMTM
 40
0.0
  9
$DIMTXT
 40
3.5
  9
$DIMCEN
 40
2.5
  9
$DIMTSZ
 40
0.0
  9
$DIMTOL
 70
     0
  9
$DIMLIM
 70
     0
  9
$DIMTIH
 70
     1
  9
$DIMTOH
 70
     1
  9
$DIMSE1
 70
     0
  9
$DIMSE2
 70
     0
  9
$DIMTAD
 70
     1
  9
$DIMZIN
 70
     0
  9
$DIMBLK
  1

  9
$DIMASO
 70
     1
  9
$DIMSHO
 70
     1
  9
$DIMPOST
  1

  9
$DIMAPOST
  1

  9
$DIMALT
 70
     0
  9
$DIMALTD
 70
     3
  9
$DIMALTF
 40
0.0393700787401575
  9
$DIMLFAC
 40
1.0
  9
$DIMTOFL
 70
     1
  9
$DIMTVP
 40
0.0
  9
$DIMTIX
 70
     0
  9
$DIMSOXD
 70
     0
  9
$DIMSAH
 70
     0
  9
$DIMBLK1
  1

  9
$DIMBLK2
  1

  9
$DIMSTYLE
  2
ISO-25
  9
$DIMCLRD
 70
     0
  9
$DIMCLRE
 70
     0
  9
$DIMCLRT
 70
     0
  9
$DIMTFAC
 40
1.0
  9
$DIMGAP
 40
1.524
  9
$DIMJUST
 70
     0
  9
$DIMSD1
 70
     0
  9
$DIMSD2
 70
     0
  9
$DIMTOLJ
 70
     0
  9
$DIMTZIN
 70
     0
  9
$DIMALTZ
 70
     0
  9
$DIMALTTZ
 70
     0
  9
$DIMUPT
 70
     0
  9
$DIMDEC
 70
     2
  9
$DIMTDEC
 70
     2
  9
$DIMALTU
 70
     2
  9
$DIMALTTD
 70
     3
  9
$DIMTXSTY
  7
Standard
  9
$DIMAUNIT
 70
     0
  9
$DIMADEC
 70
     2
  9
$DIMALTRND
 40
0.0
  9
$DIMAZIN
 70
     0
  9
$DIMDSEP
 70
    44
  9
$DIMATFIT
 70
     3
  9
$DIMFRAC
 70
     0
  9
$DIMLDRBLK
  1

  9
$DIMLUNIT
 70
     2
  9
$DIMLWD
 70
    -2
  9
$DIMLWE
 70
    -2
  9
$DIMTMOVE
 70
     0
  9
$LUNITS
 70
     2
  9
$LUPREC
 70
     2
  9
$SKETCHINC
 40
1.0
  9
$FILLETRAD
 40
10.0
  9
$AUNITS
 70
     0
  9
$AUPREC
 70
     2
  9
$MENU
  1
.
  9
$ELEVATION
 40
0.0
  9
$PELEVATION
 40
0.0
  9
$THICKNESS
 40
0.0
  9
$LIMCHECK
 70
     0
  9
$CHAMFERA
 40
0.0
  9
$CHAMFERB
 40
0.0
  9
$CHAMFERC
 40
0.0
  9
$CHAMFERD
 40
0.0
  9
$SKPOLY
 70
     0
  9
$TDCREATE
 40
2458311.479993172
  9
$TDUCREATE
 40
2458311.104993172
  9
$TDUPDATE
 40
2458323.40634007
  9
$TDUUPDATE
 40
2458323.03134007
  9
$TDINDWG
 40
0.003274294
  9
$TDUSRTIMER
 40
2458323.028597234
  9
$USRTIMER
 70
     1
  9
$ANGBASE
 50
0.0
  9
$ANGDIR
 70
     0
  9
$PDMODE
 70
     0
  9
$PDSIZE
 40
-1.0
  9
$PLINEWID
 40
0.0
  9
$SPLFRAME
 70
     0
  9
$SPLINETYPE
 70
     6
  9
$SPLINESEGS
 70
     8
  9
$HANDSEED
  5
39D
  9
$SURFTAB1
 70
     6
  9
$SURFTAB2
 70
     6
  9
$SURFTYPE
 70
     6
  9
$SURFU
 70
     6
  9
$SURFV
 70
     6
  9
$UCSBASE
  2

  9
$UCSNAME
  2

  9
$UCSORG
 10
0.0
 20
0.0
 30
0.0
  9
$UCSXDIR
 10
1.0
 20
0.0
 30
0.0
  9
$UCSYDIR
 10
0.0
 20
1.0
 30
0.0
  9
$UCSORTHOREF
  2

  9
$UCSORTHOVIEW
 70
     0
  9
$UCSORGTOP
 10
0.0
 20
0.0
 30
0.0
  9
$UCSORGBOTTOM
 10
0.0
 20
0.0
 30
0.0
  9
$UCSORGLEFT
 10
0.0
 20
0.0
 30
0.0
  9
$UCSORGRIGHT
 10
0.0
 20
0.0
 30
0.0
  9
$UCSORGFRONT
 10
0.0
 20
0.0
 30
0.0
  9
$UCSORGBACK
 10
0.0
 20
0.0
 30
0.0
  9
$PUCSBASE
  2

  9
$PUCSNAME
  2

  9
$PUCSORG
 10
0.0
 20
0.0
 30
0.0
  9
$PUCSXDIR
 10
1.0
 20
0.0
 30
0.0
  9
$PUCSYDIR
 10
0.0
 20
1.0
 30
0.0
  9
$PUCSORTHOREF
  2

  9
$PUCSORTHOVIEW
 70
     0
  9
$PUCSORGTOP
 10
0.0
 20
0.0
 30
0.0
  9
$PUCSORGBOTTOM
 10
0.0
 20
0.0
 30
0.0
  9
$PUCSORGLEFT
 10
0.0
 20
0.0
 30
0.0
  9
$PUCSORGRIGHT
 10
0.0
 20
0.0
 30
0.0
  9
$PUCSORGFRONT
 10
0.0
 20
0.0
 30
0.0
  9
$PUCSORGBACK
 10
0.0
 20
0.0
 30
0.0
  9
$USERI1
 70
     0
  9
$USERI2
 70
     0
  9
$USERI3
 70
     0
  9
$USERI4
 70
     0
  9
$USERI5
 70
     0
  9
$USERR1
 40
0.0
  9
$USERR2
 40
0.0
  9
$USERR3
 40
0.0
  9
$USERR4
 40
0.0
  9
$USERR5
 40
0.0
  9
$WORLDVIEW
 70
     1
  9
$SHADEDGE
 70
     3
  9
$SHADEDIF
 70
    70
  9
$TILEMODE
 70
     1
  9
$MAXACTVP
 70
    64
  9
$PINSBASE
 10
0.0
 20
0.0
 30
0.0
  9
$PLIMCHECK
 70
     0
  9
$PEXTMIN
 10
1.000000000000000E+20
 20
1.000000000000000E+20
 30
1.000000000000000E+20
  9
$PEXTMAX
 10
-1.000000000000000E+20
 20
-1.000000000000000E+20
 30
-1.000000000000000E+20
  9
$PLIMMIN
 10
0.0
 20
0.0
  9
$PLIMMAX
 10
0.0
 20
0.0
  9
$UNITMODE
 70
     0
  9
$VISRETAIN
 70
     1
  9
$PLINEGEN
 70
     0
  9
$PSLTSCALE
 70
     1
  9
$TREEDEPTH
 70
  3020
  9
$CMLSTYLE
  2
Standard
  9
$CMLJUST
 70
     0
  9
$CMLSCALE
 40
20.0
  9
$PROXYGRAPHICS
 70
     1
  9
$MEASUREMENT
 70
     1
  9
$CELWEIGHT
370
    -1
  9
$ENDCAPS
280
     0
  9
$JOINSTYLE
280
     0
  9
$LWDISPLAY
290
     1
  9
$INSUNITS
 70
     4
  9
$HYPERLINKBASE
  1

  9
$STYLESHEET
  1

  9
$XEDIT
290
     1
  9
$CEPSNTYPE
380
     0
  9
$PSTYLEMODE
290
     1
  9
$FINGERPRINTGUID
  2
{5AFDCB66-DCE9-43D2-A567-4CFBEE5565FD}
  9
$VERSIONGUID
  2
{FAEB1C32-E019-11D5-929B-00C0DF256EC4}
  9
$EXTNAMES
290
     1
  9
$PSVPSCALE
 40
0.0
  9
$OLESTARTUP
290
     0
  0
ENDSEC
  0
SECTION
  2
CLASSES
  0
CLASS
  1
ACDBDICTIONARYWDFLT
  2
AcDbDictionaryWithDefault
  3
ObjectDBX Classes
 90
        0
280
     0
281
     0
  0
CLASS
  1
VISUALSTYLE
  2
AcDbVisualStyle
  3
ObjectDBX Classes
 90
     4095
280
     0
281
     0
  0
CLASS
  1
MATERIAL
  2
AcDbMaterial
  3
ObjectDBX Classes
 90
     1153
280
     0
281
     0
  0
CLASS
  1
SCALE
  2
AcDbScale
  3
ObjectDBX Classes
 90
     1153
280
     0
281
     0
  0
CLASS
  1
SUN
  2
AcDbSun
  3
SCENEOE
 90
     1153
280
     0
281
     0
  0
CLASS
  1
ACDBPLACEHOLDER
  2
AcDbPlaceHolder
  3
ObjectDBX Classes
 90
        0
280
     0
281
     0
  0
CLASS
  1
LAYOUT
  2
AcDbLayout
  3
ObjectDBX Classes
 90
        0
280
     0
281
     0
  0
CLASS
  1
TABLESTYLE
  2
AcDbTableStyle
  3
ObjectDBX Classes
 90
     4095
280
     0
281
     0
  0
CLASS
  1
MLEADERSTYLE
  2
AcDbMLeaderStyle
  3
ACDB_MLEADERSTYLE_CLASS
 90
     4095
280
     0
281
     0
  0
CLASS
  1
RASTERVARIABLES
  2
AcDbRasterVariables
  3
ISM
 90
        0
280
     0
281
     0
  0
CLASS
  1
DIMASSOC
  2
AcDbDimAssoc
  3
"AcDbDimAssoc|Product Desc:     AcDim ARX App For Dimension|Company:          Autodesk, Inc.|WEB Address:      www.autodesk.com"
 90
        0
280
     0
281
     0
  0
ENDSEC
  0
SECTION
  2
TABLES
  0
TABLE
  2
VPORT
  5
8
330
0
100
AcDbSymbolTable
 70
     1
  0
VPORT
  5
29
330
8
100
AcDbSymbolTableRecord
100
AcDbViewportTableRecord
  2
*Active
 70
     0
 10
0.0
 20
0.0
 11
1.0
 21
1.0
 12
143.5918978101625
 22
17.99460508981431
 13
0.0
 23
0.0
 14
10.0
 24
10.0
 15
10.0
 25
10.0
 16
0.0
 26
0.0
 36
1.0
 17
0.0
 27
0.0
 37
0.0
 40
369.8759637010088
 41
1.586073500967118
 42
50.0
 43
0.0
 44
0.0
 50
0.0
 51
0.0
 71
    16
 72
  2000
 73
     1
 74
     3
 75
     0
 76
     0
 77
     0
 78
     0
281
     0
 65
     1
110
0.0
120
0.0
130
0.0
111
1.0
121
0.0
131
0.0
112
0.0
122
1.0
132
0.0
 79
     0
146
0.0
  0
ENDTAB
  0
TABLE
  2
LTYPE
  5
5
330
0
100
AcDbSymbolTable
 70
     6
  0
LTYPE
  5
14
330
5
100
AcDbSymbolTableRecord
100
AcDbLinetypeTableRecord
  2
ByBlock
 70
     0
  3

 72
    65
 73
     0
 40
0.0
  0
LTYPE
  5
15
330
5
100
AcDbSymbolTableRecord
100
AcDbLinetypeTableRecord
  2
ByLayer
 70
     0
  3

 72
    65
 73
     0
 40
0.0
  0
LTYPE
  5
16
330
5
100
AcDbSymbolTableRecord
100
AcDbLinetypeTableRecord
  2
Continuous
 70
     0
  3
Solid line
 72
    65
 73
     0
 40
0.0
  0
LTYPE
  5
6A
330
5
100
AcDbSymbolTableRecord
100
AcDbLinetypeTableRecord
  2
HIDDEN
 70
     0
  3
Hidden __ __ __ __ __ __ __ __ __ __ __ __ __ __
 72
    65
 73
     2
 40
1.905
 49
1.27
 74
     0
 49
-0.635
 74
     0
  0
LTYPE
  5
6B
330
5
100
AcDbSymbolTableRecord
100
AcDbLinetypeTableRecord
  2
PHANTOM
 70
     0
  3
Phantom ______  __  __  ______  __  __  ______
 72
    65
 73
     6
 40
12.7
 49
6.35
 74
     0
 49
-1.27
 74
     0
 49
1.27
 74
     0
 49
-1.27
 74
     0
 49
1.27
 74
     0
 49
-1.27
 74
     0
  0
LTYPE
  5
6C
330
5
100
AcDbSymbolTableRecord
100
AcDbLinetypeTableRecord
  2
CENTER
 70
     0
  3
Center ____ _ ____ _ ____ _ ____ _ ____ _ ____
 72
    65
 73
     4
 40
10.16
 49
6.35
 74
     0
 49
-1.27
 74
     0
 49
1.27
 74
     0
 49
-1.27
 74
     0
  0
LTYPE
  5
6D
330
5
100
AcDbSymbolTableRecord
100
AcDbLinetypeTableRecord
  2
CENTERX2
 70
     0
  3
Center (2x) ________  __  ________  __  _____
 72
    65
 73
     4
 40
20.32
 49
12.7
 74
     0
 49
-2.54
 74
     0
 49
2.54
 74
     0
 49
-2.54
 74
     0
  0
LTYPE
  5
6E
330
5
100
AcDbSymbolTableRecord
100
AcDbLinetypeTableRecord
  2
DOT2
 70
     0
  3
Dot (.5x) ........................................
 72
    65
 73
     2
 40
0.635
 49
0.0
 74
     0
 49
-0.635
 74
     0
  0
ENDTAB
  0
TABLE
  2
LAYER
  5
2
102
{ACAD_XDICTIONARY
360
17C
102
}
330
0
100
AcDbSymbolTable
 70
    18
  0
LAYER
  5
10
330
2
100
AcDbSymbolTableRecord
100
AcDbLayerTableRecord
  2
0
 70
     0
 62
     7
  6
Continuous
370
    -3
390
F
  0
LAYER
  5
6F
330
2
100
AcDbSymbolTableRecord
100
AcDbLayerTableRecord
  2
FORMAT
 70
     0
 62
     2
  6
Continuous
370
    -3
390
F
  0
LAYER
  5
70
330
2
100
AcDbSymbolTableRecord
100
AcDbLayerTableRecord
  2
외형선
 70
     0
 62
     4
  6
Continuous
370
    30
390
F
  0
LAYER
  5
71
330
2
100
AcDbSymbolTableRecord
100
AcDbLayerTableRecord
  2
숨은선
 70
     0
 62
     2
  6
HIDDEN
370
    15
390
F
  0
LAYER
  5
72
330
2
100
AcDbSymbolTableRecord
100
AcDbLayerTableRecord
  2
중심선
 70
     0
 62
     1
  6
CENTERX2
370
    -3
390
F
  0
LAYER
  5
73
330
2
100
AcDbSymbolTableRecord
100
AcDbLayerTableRecord
  2
파단선
 70
     0
 62
     4
  6
Continuous
370
    -3
390
F
  0
LAYER
  5
74
330
2
100
AcDbSymbolTableRecord
100
AcDbLayerTableRecord
  2
해칭선
 70
     0
 62
   100
  6
Continuous
370
    -3
390
F
  0
LAYER
  5
75
330
2
100
AcDbSymbolTableRecord
100
AcDbLayerTableRecord
  2
가는실선
 70
     0
 62
     4
  6
Continuous
370
    -3
390
F
  0
LAYER
  5
76
330
2
100
AcDbSymbolTableRecord
100
AcDbLayerTableRecord
  2
치수_보조선
 70
     0
 62
     4
  6
Continuous
370
    -3
390
F
  0
LAYER
  5
77
330
2
100
AcDbSymbolTableRecord
100
AcDbLayerTableRecord
  2
치수문자_일반주서
 70
     0
 62
     7
  6
Continuous
370
    15
390
F
  0
LAYER
  5
78
330
2
100
AcDbSymbolTableRecord
100
AcDbLayerTableRecord
  2
개별주서
 70
     0
 62
   100
  6
Continuous
370
    30
390
F
  0
LAYER
  5
79
330
2
100
AcDbSymbolTableRecord
100
AcDbLayerTableRecord
  2
중간선
 70
     0
 62
     2
  6
Continuous
370
    15
390
F
  0
LAYER
  5
7A
330
2
100
AcDbSymbolTableRecord
100
AcDbLayerTableRecord
  2
윤곽선
 70
     0
 62
     3
  6
Continuous
370
    40
390
F
  0
LAYER
  5
7B
330
2
100
AcDbSymbolTableRecord
100
AcDbLayerTableRecord
  2
중심마크
 70
     0
 62
   100
  6
Continuous
370
    30
390
F
  0
LAYER
  5
7C
330
2
100
AcDbSymbolTableRecord
100
AcDbLayerTableRecord
  2
가상선
 70
     0
 62
     4
  6
PHANTOM
370
    -3
390
F
  0
LAYER
  5
7D
330
2
100
AcDbSymbolTableRecord
100
AcDbLayerTableRecord
  2
특수지정선
 70
     0
 62
     5
  6
CENTERX2
370
    60
390
F
  0
LAYER
  5
7E
330
2
100
AcDbSymbolTableRecord
100
AcDbLayerTableRecord
  2
참조1
 70
     0
 62
    -4
  6
Continuous
370
    -3
390
F
  0
LAYER
  5
1B7
330
2
100
AcDbSymbolTableRecord
100
AcDbLayerTableRecord
  2
Defpoints
 70
     0
 62
     7
  6
Continuous
290
     0
370
    -3
390
F
  0
ENDTAB
  0
TABLE
  2
STYLE
  5
3
330
0
100
AcDbSymbolTable
 70
     2
  0
STYLE
  5
11
330
3
100
AcDbSymbolTableRecord
100
AcDbTextStyleTableRecord
  2
Standard
 70
     0
 40
0.0
 41
1.0
 50
0.0
 71
     0
 42
3.5
  3
txt
  4

  0
STYLE
  5
94
330
3
100
AcDbSymbolTableRecord
100
AcDbTextStyleTableRecord
  2
SLDTEXTSTYLE0
 70
     0
 40
0.0
 41
0.75
 50
0.0
 71
     0
 42
3.5
  3
TXT
  4

  0
ENDTAB
  0
TABLE
  2
VIEW
  5
6
330
0
100
AcDbSymbolTable
 70
     0
  0
ENDTAB
  0
TABLE
  2
UCS
  5
7
330
0
100
AcDbSymbolTable
 70
     0
  0
ENDTAB
  0
TABLE
  2
APPID
  5
9
330
0
100
AcDbSymbolTable
 70
     1
  0
APPID
  5
12
330
9
100
AcDbSymbolTableRecord
100
AcDbRegAppTableRecord
  2
ACAD
 70
     0
  0
ENDTAB
  0
TABLE
  2
DIMSTYLE
  5
A
330
0
100
AcDbSymbolTable
 70
     3
100
AcDbDimStyleTable
  0
DIMSTYLE
105
27
330
A
100
AcDbSymbolTableRecord
100
AcDbDimStyleTableRecord
  2
ISO-25
 70
     0
 41
2.5
 42
0.625
 43
3.75
 44
1.25
 73
     0
 74
     0
 77
     1
 78
     8
140
2.5
141
2.5
143
0.03937007874016
147
0.625
171
     3
172
     1
178
     0
271
     2
272
     2
274
     3
278
    44
283
     0
284
     8
340
11
  0
DIMSTYLE
105
D4
102
{ACAD_REACTORS
330
D3
330
FB
330
10E
330
E6
330
38D
102
}
330
A
100
AcDbSymbolTableRecord
100
AcDbDimStyleTableRecord
  2
SLDDIMSTYLE0
 70
     0
 41
3.302
 44
0.0
 45
0.000000001
 73
     0
 74
     0
 77
     1
 78
    12
 79
     3
140
3.5
143
0.0393700787401575
147
0.875
148
0.000000001
170
     1
173
     1
178
     0
271
     2
272
     2
276
     2
284
    12
340
94
  0
DIMSTYLE
105
E7
330
A
100
AcDbSymbolTableRecord
100
AcDbDimStyleTableRecord
  2
SLDDIMSTYLE1
 70
     0
 41
3.302
 44
0.0
 45
0.000000001
 73
     0
 74
     0
 77
     1
 78
     4
 79
     1
140
3.5
143
0.0393700787401575
147
0.875
148
0.000000001
170
     1
173
     1
178
     0
271
     2
272
     2
276
     2
284
    12
340
94
  0
ENDTAB
  0
TABLE
  2
BLOCK_RECORD
  5
1
330
0
100
AcDbSymbolTable
 70
    16
  0
BLOCK_RECORD
  5
1F
330
1
100
AcDbSymbolTableRecord
100
AcDbBlockTableRecord
  2
*Model_Space
340
22
  0
BLOCK_RECORD
  5
1B
330
1
100
AcDbSymbolTableRecord
100
AcDbBlockTableRecord
  2
*Paper_Space
340
1E
  0
BLOCK_RECORD
  5
23
330
1
100
AcDbSymbolTableRecord
100
AcDbBlockTableRecord
  2
*Paper_Space0
340
26
  0
BLOCK_RECORD
  5
7F
330
1
100
AcDbSymbolTableRecord
100
AcDbBlockTableRecord
  2
블럭10
340
0
102
{BLKREFS
331
CC
102
}
  0
BLOCK_RECORD
  5
D5
330
1
100
AcDbSymbolTableRecord
100
AcDbBlockTableRecord
  2
_D
340
0
  0
BLOCK_RECORD
  5
E8
330
1
100
AcDbSymbolTableRecord
100
AcDbBlockTableRecord
  2
_D_1
340
0
  0
BLOCK_RECORD
  5
FC
330
1
100
AcDbSymbolTableRecord
100
AcDbBlockTableRecord
  2
_D_2
340
0
  0
BLOCK_RECORD
  5
10F
330
1
100
AcDbSymbolTableRecord
100
AcDbBlockTableRecord
  2
_D_3
340
0
  0
BLOCK_RECORD
  5
128
330
1
100
AcDbSymbolTableRecord
100
AcDbBlockTableRecord
  2
SW_DOWELSYMBOL_0
340
0
102
{BLKREFS
331
12E
102
}
  0
BLOCK_RECORD
  5
25B
330
1
100
AcDbSymbolTableRecord
100
AcDbBlockTableRecord
  2
*D7
340
0
  0
BLOCK_RECORD
  5
267
330
1
100
AcDbSymbolTableRecord
100
AcDbBlockTableRecord
  2
*D8
340
0
  0
BLOCK_RECORD
  5
273
330
1
100
AcDbSymbolTableRecord
100
AcDbBlockTableRecord
  2
*D9
340
0
  0
BLOCK_RECORD
  5
27F
330
1
100
AcDbSymbolTableRecord
100
AcDbBlockTableRecord
  2
*D10
340
0
  0
BLOCK_RECORD
  5
2CD
330
1
100
AcDbSymbolTableRecord
100
AcDbBlockTableRecord
  2
*D11
340
0
  0
BLOCK_RECORD
  5
2D9
330
1
100
AcDbSymbolTableRecord
100
AcDbBlockTableRecord
  2
*D12
340
0
  0
BLOCK_RECORD
  5
2E5
330
1
100
AcDbSymbolTableRecord
100
AcDbBlockTableRecord
  2
*D13
340
0
  0
BLOCK_RECORD
  5
2F1
330
1
100
AcDbSymbolTableRecord
100
AcDbBlockTableRecord
  2
*D14
340
0
  0
BLOCK_RECORD
  5
390
330
1
100
AcDbSymbolTableRecord
100
AcDbBlockTableRecord
  2
*D15
340
0
  0
ENDTAB
  0
ENDSEC
  0
SECTION
  2
BLOCKS
  0
BLOCK
  5
20
330
1F
100
AcDbEntity
  8
0
100
AcDbBlockBegin
  2
*Model_Space
 70
     0
 10
0.0
 20
0.0
 30
0.0
  3
*Model_Space
  1
*Model_Space
  0
ENDBLK
  5
21
330
1F
100
AcDbEntity
  8
0
100
AcDbBlockEnd
  0
BLOCK
  5
1C
330
1B
100
AcDbEntity
 67
     1
  8
0
100
AcDbBlockBegin
  2
*Paper_Space
 70
     0
 10
0.0
 20
0.0
 30
0.0
  3
*Paper_Space
  1
*Paper_Space
  0
ENDBLK
  5
1D
330
1B
100
AcDbEntity
 67
     1
  8
0
100
AcDbBlockEnd
  0
BLOCK
  5
24
330
23
100
AcDbEntity
  8
0
100
AcDbBlockBegin
  2
*Paper_Space0
 70
     0
 10
0.0
 20
0.0
 30
0.0
  3
*Paper_Space0
  1
*Paper_Space0
  0
ENDBLK
  5
25
330
23
100
AcDbEntity
  8
0
100
AcDbBlockEnd
  0
BLOCK
  5
80
330
7F
100
AcDbEntity
  8
0
100
AcDbBlockBegin
  2
블럭10
 70
     2
 10
0.0
 20
0.0
 30
0.0
  3
블럭10
  1
블럭10
  0
ELLIPSE
  5
82
330
7F
100
AcDbEntity
  8
중심선
100
AcDbEllipse
 10
20.54032771741204
 20
12.0471743016438
 30
0.0
 11
6.600054785286829
 21
-1.261213355974178E-13
 31
0.0
210
0.0
220
0.0
230
1.0
 40
0.636358354079598
 41
0.9219305317359503
 42
6.513795318482858
  0
ELLIPSE
  5
83
330
7F
100
AcDbEntity
  8
중심선
100
AcDbEllipse
 10
20.54032771746488
 20
12.04717430159265
 30
0.0
 11
3.960054785062283
 21
1.540847449632565E-10
 31
0.0
210
0.0
220
0.0
230
1.0
 40
0.3939339440162632
 41
1.131841032648279
 42
5.62031148352944
  0
LINE
  5
84
330
7F
100
AcDbEntity
  8
중심선
100
AcDbLine
 10
2.268634060543552
 20
16.24717430164393
 30
0.0
 11
5.714909304380834
 21
16.24717430164393
 31
0.0
  0
LINE
  5
85
330
7F
100
AcDbEntity
  8
중심선
100
AcDbLine
 10
5.245725140726316
 20
7.84717430164391
 30
0.0
 11
8.692000384563599
 21
7.84717430164391
 31
0.0
  0
LINE
  5
86
330
7F
100
AcDbEntity
  8
중심선
100
AcDbLine
 10
15.74043728645272
 20
16.24717430164393
 30
0.0
 11
8.692000384563599
 21
7.84717430164391
 31
0.0
  0
LINE
  5
87
330
7F
100
AcDbEntity
  8
중심선
100
AcDbLine
 10
0.1404042013395286
 20
13.71084872107135
 30
0.0
 11
3.58671253028996
 21
13.71088815037384
 31
0.0
  0
LINE
  5
88
330
7F
100
AcDbEntity
  8
중심선
100
AcDbLine
 10
2.750260043222114
 20
10.84717430164391
 30
0.0
 11
6.196535287059397
 21
10.84717430164391
 31
0.0
  0
LINE
  5
89
330
7F
100
AcDbEntity
  8
중심선
100
AcDbLine
 10
12.29416204261559
 20
16.24717430164393
 30
0.0
 11
5.245725140726316
 21
7.84717430164391
 31
0.0
  0
LINE
  5
8A
330
7F
100
AcDbEntity
  8
중심선
100
AcDbLine
 10
10.72767329541681
 20
16.24717430164393
 30
0.0
 11
6.196535287059397
 21
10.84717430164391
 31
0.0
  0
LINE
  5
8B
330
7F
100
AcDbEntity
  8
중심선
100
AcDbLine
 10
7.28139805157953
 20
16.24717430164393
 30
0.0
 11
2.750260043222114
 21
10.84717430164391
 31
0.0
  0
LINE
  5
8C
330
7F
100
AcDbEntity
  8
중심선
100
AcDbLine
 10
5.714909304380834
 20
16.24717430164393
 30
0.0
 11
3.58671253028996
 21
13.71088815037384
 31
0.0
  0
LINE
  5
8D
330
7F
100
AcDbEntity
  8
중심선
100
AcDbLine
 10
2.268634060543552
 20
16.24717430164393
 30
0.0
 11
0.1404042013395286
 21
13.71084872107135
 31
0.0
  0
LINE
  5
8E
330
7F
100
AcDbEntity
  8
중심선
100
AcDbLine
 10
7.28139805157953
 20
16.24717430164393
 30
0.0
 11
10.72767329541681
 21
16.24717430164393
 31
0.0
  0
LINE
  5
8F
330
7F
100
AcDbEntity
  8
중심선
100
AcDbLine
 10
12.29416204261559
 20
16.24717430164393
 30
0.0
 11
15.74043728645272
 21
16.24717430164393
 31
0.0
  0
LINE
  5
90
330
7F
100
AcDbEntity
  8
중심선
100
AcDbLine
 10
19.22036997980202
 20
11.08717430171403
 30
0.0
 11
23.66174974927406
 21
11.08717430171406
 31
0.0
  0
LINE
  5
91
330
7F
100
AcDbEntity
  8
중심선
100
AcDbLine
 10
19.22039502424796
 20
13.00717430171391
 30
0.0
 11
19.22036997980202
 21
11.08717430171403
 31
0.0
  0
LINE
  5
92
330
7F
100
AcDbEntity
  8
중심선
100
AcDbLine
 10
19.22039502424796
 20
13.00717430171391
 30
0.0
 11
26.96566020931264
 21
13.00717430171391
 31
0.0
  0
LINE
  5
93
330
7F
100
AcDbEntity
  8
중심선
100
AcDbLine
 10
22.22332737316547
 20
13.45928029700563
 30
0.0
 11
24.52862924686651
 21
15.39360700705356
 31
0.0
  0
ATTDEF
  5
95
330
7F
100
AcDbEntity
  8
FORMAT
 62
     2
100
AcDbText
 10
4.408487351596664
 20
2.075366912832191
 30
0.0
 40
4.233333333333333
  1
E2033116
 41
0.75
  7
SLDTEXTSTYLE0
 11
4.408487351596664
 21
-0.0412997538344756
 31
0.0
100
AcDbAttributeDefinition
  3

  2
AUTOATTR0
 70
     0
 74
     1
  0
ENDBLK
  5
81
330
7F
100
AcDbEntity
  8
0
100
AcDbBlockEnd
  0
BLOCK
  5
D6
330
D5
100
AcDbEntity
  8
0
100
AcDbBlockBegin
  2
_D
 70
     0
 10
0.0
 20
0.0
 30
0.0
  3
_D
  1
_D
  0
LINE
  5
D8
330
D5
100
AcDbEntity
  8
치수문자_일반주서
 62
     0
370
    -2
100
AcDbLine
 10
-56.4903735613056
 20
15.875
 30
0.0
 11
-69.92787356130563
 21
15.87499999999995
 31
0.0
  0
LINE
  5
D9
330
D5
100
AcDbEntity
  8
치수문자_일반주서
 62
     0
370
    -2
100
AcDbLine
 10
-56.4903735613056
 20
-15.875
 30
0.0
 11
-69.92787356130552
 21
-15.87500000000005
 31
0.0
  0
LINE
  5
DA
330
D5
100
AcDbEntity
  8
치수문자_일반주서
 62
     0
370
    -2
100
AcDbLine
 10
-69.92787356130562
 20
12.57299999999995
 30
0.0
 11
-69.92787356130553
 21
-12.57300000000005
 31
0.0
  0
SOLID
  5
DB
330
D5
100
AcDbEntity
  8
치수문자_일반주서
 62
     0
100
AcDbTrace
 10
-69.37754022797229
 20
12.57299999999995
 30
0.0
 11
-70.47820689463894
 21
12.57299999999995
 31
0.0
 12
-69.92787356130563
 22
15.87499999999995
 32
0.0
 13
-69.92787356130563
 23
15.87499999999995
 33
0.0
  0
SOLID
  5
DC
330
D5
100
AcDbEntity
  8
치수문자_일반주서
 62
     0
100
AcDbTrace
 10
-70.47820689463886
 20
-12.57300000000005
 30
0.0
 11
-69.3775402279722
 21
-12.57300000000005
 31
0.0
 12
-69.92787356130552
 22
-15.87500000000005
 32
0.0
 13
-69.92787356130552
 23
-15.87500000000005
 33
0.0
  0
MTEXT
  5
DD
330
D5
100
AcDbEntity
  8
치수문자_일반주서
 62
     0
100
AcDbMText
 10
-74.30287356130557
 20
0.0000000000000018
 30
0.0
 40
3.5
 41
0.0
 71
     2
 72
     1
  1
\A1;%%c31.75 [1 1/4]
  7
SLDTEXTSTYLE0
 11
-3.580687802255623E-15
 21
1.0
 31
0.0
 73
     1
 44
1.0
  0
POINT
  5
DE
330
D5
100
AcDbEntity
  8
Defpoints
 62
     0
100
AcDbPoint
 10
-56.4278735613056
 20
15.875
 30
0.0
  0
POINT
  5
DF
330
D5
100
AcDbEntity
  8
Defpoints
 62
     0
100
AcDbPoint
 10
-56.4278735613056
 20
-15.875
 30
0.0
  0
POINT
  5
E0
330
D5
100
AcDbEntity
  8
Defpoints
 62
     0
100
AcDbPoint
 10
-69.92787356130557
 20
-15.87500000000005
 30
0.0
  0
ENDBLK
  5
D7
330
D5
100
AcDbEntity
  8
0
100
AcDbBlockEnd
  0
BLOCK
  5
E9
330
E8
100
AcDbEntity
  8
0
100
AcDbBlockBegin
  2
_D_1
 70
     0
 10
0.0
 20
0.0
 30
0.0
  3
_D_1
  1
_D_1
  0
LINE
  5
EB
330
E8
100
AcDbEntity
  8
치수문자_일반주서
 62
     0
370
    -2
100
AcDbLine
 10
126.7221264386944
 20
15.93750000000002
 30
0.0
 11
126.7221264386944
 21
29.03792442259353
 31
0.0
  0
LINE
  5
EC
330
E8
100
AcDbEntity
  8
치수문자_일반주서
 62
     0
370
    -2
100
AcDbLine
 10
50.52212643869439
 20
15.91813557177589
 30
0.0
 11
50.52212643869439
 21
29.03792442259353
 31
0.0
  0
LINE
  5
ED
330
E8
100
AcDbEntity
  8
치수문자_일반주서
 62
     0
370
    -2
100
AcDbLine
 10
123.4201264386944
 20
29.03792442259353
 30
0.0
 11
53.82412643869439
 21
29.03792442259353
 31
0.0
  0
SOLID
  5
EE
330
E8
100
AcDbEntity
  8
치수문자_일반주서
 62
     0
100
AcDbTrace
 10
123.4201264386944
 20
28.48759108926019
 30
0.0
 11
123.4201264386944
 21
29.58825775592686
 31
0.0
 12
126.7221264386944
 22
29.03792442259353
 32
0.0
 13
126.7221264386944
 23
29.03792442259353
 33
0.0
  0
SOLID
  5
EF
330
E8
100
AcDbEntity
  8
치수문자_일반주서
 62
     0
100
AcDbTrace
 10
53.82412643869439
 20
29.58825775592686
 30
0.0
 11
53.82412643869439
 21
28.48759108926019
 31
0.0
 12
50.52212643869439
 22
29.03792442259353
 32
0.0
 13
50.52212643869439
 23
29.03792442259353
 33
0.0
  0
MTEXT
  5
F0
330
E8
100
AcDbEntity
  8
치수문자_일반주서
 62
     0
100
AcDbMText
 10
84.73661169918876
 20
33.41292442259353
 30
0.0
 40
3.5
 41
0.0
 71
     2
 72
     1
  1
\A1;76.2 [3]
  7
SLDTEXTSTYLE0
 73
     1
 44
1.0
  0
POINT
  5
F1
330
E8
100
AcDbEntity
  8
Defpoints
 62
     0
100
AcDbPoint
 10
126.7221264386944
 20
15.87500000000002
 30
0.0
  0
POINT
  5
F2
330
E8
100
AcDbEntity
  8
Defpoints
 62
     0
100
AcDbPoint
 10
50.52212643869439
 20
15.85563557177589
 30
0.0
  0
POINT
  5
F3
330
E8
100
AcDbEntity
  8
Defpoints
 62
     0
100
AcDbPoint
 10
50.52212643869439
 20
29.03792442259353
 30
0.0
  0
ENDBLK
  5
EA
330
E8
100
AcDbEntity
  8
0
100
AcDbBlockEnd
  0
BLOCK
  5
FD
330
FC
100
AcDbEntity
  8
0
100
AcDbBlockBegin
  2
_D_2
 70
     0
 10
0.0
 20
0.0
 30
0.0
  3
_D_2
  1
_D_2
  0
LINE
  5
FF
330
FC
100
AcDbEntity
  8
치수문자_일반주서
 62
     0
370
    -2
100
AcDbLine
 10
126.7221264386944
 20
15.93750000000002
 30
0.0
 11
126.7221264386944
 21
54.25772202592247
 31
0.0
  0
LINE
  5
100
330
FC
100
AcDbEntity
  8
치수문자_일반주서
 62
     0
370
    -2
100
AcDbLine
 10
-57.42787356130562
 20
14.93749999999999
 30
0.0
 11
-57.42787356130562
 21
54.25772202592247
 31
0.0
  0
LINE
  5
101
330
FC
100
AcDbEntity
  8
치수문자_일반주서
 62
     0
370
    -2
100
AcDbLine
 10
123.4201264386944
 20
54.25772202592247
 30
0.0
 11
-54.12587356130562
 21
54.25772202592247
 31
0.0
  0
SOLID
  5
102
330
FC
100
AcDbEntity
  8
치수문자_일반주서
 62
     0
100
AcDbTrace
 10
123.4201264386944
 20
53.70738869258913
 30
0.0
 11
123.4201264386944
 21
54.8080553592558
 31
0.0
 12
126.7221264386944
 22
54.25772202592247
 32
0.0
 13
126.7221264386944
 23
54.25772202592247
 33
0.0
  0
SOLID
  5
103
330
FC
100
AcDbEntity
  8
치수문자_일반주서
 62
     0
100
AcDbTrace
 10
-54.12587356130562
 20
54.8080553592558
 30
0.0
 11
-54.12587356130562
 21
53.70738869258913
 31
0.0
 12
-57.42787356130562
 22
54.25772202592247
 32
0.0
 13
-57.42787356130562
 23
54.25772202592247
 33
0.0
  0
MTEXT
  5
104
330
FC
100
AcDbEntity
  8
치수문자_일반주서
 62
     0
100
AcDbMText
 10
34.64712643869438
 20
58.63272202592247
 30
0.0
 40
3.5
 41
0.0
 71
     2
 72
     1
  1
\A1;184.15 [7 1/4]
  7
SLDTEXTSTYLE0
 73
     1
 44
1.0
  0
POINT
  5
105
330
FC
100
AcDbEntity
  8
Defpoints
 62
     0
100
AcDbPoint
 10
126.7221264386944
 20
15.87500000000002
 30
0.0
  0
POINT
  5
106
330
FC
100
AcDbEntity
  8
Defpoints
 62
     0
100
AcDbPoint
 10
-57.42787356130562
 20
14.87499999999999
 30
0.0
  0
POINT
  5
107
330
FC
100
AcDbEntity
  8
Defpoints
 62
     0
100
AcDbPoint
 10
-57.42787356130562
 20
54.25772202592247
 30
0.0
  0
ENDBLK
  5
FE
330
FC
100
AcDbEntity
  8
0
100
AcDbBlockEnd
  0
BLOCK
  5
110
330
10F
100
AcDbEntity
  8
0
100
AcDbBlockBegin
  2
_D_3
 70
     0
 10
0.0
 20
0.0
 30
0.0
  3
_D_3
  1
_D_3
  0
LINE
  5
112
330
10F
100
AcDbEntity
  8
치수문자_일반주서
 62
     0
370
    -2
100
AcDbLine
 10
126.7846264386944
 20
-15.87499999999998
 30
0.0
 11
160.7272149967131
 21
-15.87499999999985
 31
0.0
  0
LINE
  5
113
330
10F
100
AcDbEntity
  8
치수문자_일반주서
 62
     0
370
    -2
100
AcDbLine
 10
126.7846264386944
 20
15.87500000000002
 30
0.0
 11
160.727214996713
 21
15.87500000000015
 31
0.0
  0
LINE
  5
114
330
10F
100
AcDbEntity
  8
치수문자_일반주서
 62
     0
370
    -2
100
AcDbLine
 10
160.727214996713
 20
15.87500000000015
 30
0.0
 11
160.7272149967129
 21
53.24431335776145
 31
0.0
  0
LINE
  5
115
330
10F
100
AcDbEntity
  8
치수문자_일반주서
 62
     0
370
    -2
100
AcDbLine
 10
160.7272149967131
 20
-12.57299999999985
 30
0.0
 11
160.727214996713
 21
12.57300000000015
 31
0.0
  0
SOLID
  5
116
330
10F
100
AcDbEntity
  8
치수문자_일반주서
 62
     0
100
AcDbTrace
 10
160.1768816633798
 20
-12.57299999999985
 30
0.0
 11
161.2775483300464
 21
-12.57299999999985
 31
0.0
 12
160.7272149967131
 22
-15.87499999999985
 32
0.0
 13
160.7272149967131
 23
-15.87499999999985
 33
0.0
  0
SOLID
  5
117
330
10F
100
AcDbEntity
  8
치수문자_일반주서
 62
     0
100
AcDbTrace
 10
161.2775483300463
 20
12.57300000000015
 30
0.0
 11
160.1768816633797
 21
12.57300000000015
 31
0.0
 12
160.727214996713
 22
15.87500000000015
 32
0.0
 13
160.727214996713
 23
15.87500000000015
 33
0.0
  0
MTEXT
  5
118
330
10F
100
AcDbEntity
  8
치수문자_일반주서
 62
     0
100
AcDbMText
 10
156.3522149967129
 20
37.49431335776143
 30
0.0
 40
3.5
 41
0.0
 71
     2
 72
     1
  1
\A1;%%c31.75 [1 1/4]
  7
SLDTEXTSTYLE0
 11
-3.580687802255623E-15
 21
1.0
 31
0.0
 73
     1
 44
1.0
  0
POINT
  5
119
330
10F
100
AcDbEntity
  8
Defpoints
 62
     0
100
AcDbPoint
 10
126.7221264386944
 20
-15.87499999999998
 30
0.0
  0
POINT
  5
11A
330
10F
100
AcDbEntity
  8
Defpoints
 62
     0
100
AcDbPoint
 10
126.7221264386944
 20
15.87500000000002
 30
0.0
  0
POINT
  5
11B
330
10F
100
AcDbEntity
  8
Defpoints
 62
     0
100
AcDbPoint
 10
160.727214996713
 20
15.87500000000015
 30
0.0
  0
ENDBLK
  5
111
330
10F
100
AcDbEntity
  8
0
100
AcDbBlockEnd
  0
BLOCK
  5
129
330
128
100
AcDbEntity
  8
0
100
AcDbBlockBegin
  2
SW_DOWELSYMBOL_0
 70
     0
 10
0.0
 20
0.0
 30
0.0
  3
SW_DOWELSYMBOL_0
  1
SW_DOWELSYMBOL_0
  0
CIRCLE
  5
12B
330
128
100
AcDbEntity
  8
해칭선
 62
     0
100
AcDbCircle
 10
0.0
 20
0.0
 30
0.0
 40
2.999999999999996
  0
HATCH
  5
12C
330
128
100
AcDbEntity
  8
0
  6
Continuous
 62
     0
370
     0
100
AcDbHatch
 10
0.0
 20
0.0
 30
0.0
210
0.0
220
0.0
230
1.0
  2
SOLID
 70
     1
 71
     0
 91
        1
 92
        0
 93
        3
 72
     2
 10
0.0
 20
0.0
 40
2.999999999999996
 50
0.0
 51
90.0
 73
     1
 72
     1
 10
0.0
 20
2.999999999999996
 11
0.0
 21
0.0
 72
     1
 10
0.0
 20
0.0
 11
2.999999999999996
 21
0.0
 97
        0
 75
     0
 76
     1
 98
        1
 10
0.0
 20
0.0
  0
HATCH
  5
12D
330
128
100
AcDbEntity
  8
0
  6
Continuous
 62
     0
370
     0
100
AcDbHatch
 10
0.0
 20
0.0
 30
0.0
210
0.0
220
0.0
230
1.0
  2
SOLID
 70
     1
 71
     0
 91
        1
 92
        0
 93
        3
 72
     2
 10
0.0
 20
0.0
 40
2.999999999999996
 50
180.0
 51
270.0000000000007
 73
     1
 72
     1
 10
0.0
 20
-2.999999999999996
 11
0.0
 21
0.0
 72
     1
 10
0.0
 20
0.0
 11
-2.999999999999996
 21
0.0
 97
        0
 75
     0
 76
     1
 98
        1
 10
0.0
 20
0.0
  0
ENDBLK
  5
12A
330
128
100
AcDbEntity
  8
0
100
AcDbBlockEnd
  0
BLOCK
  5
25C
330
25B
100
AcDbEntity
  8
0
100
AcDbBlockBegin
  2
*D7
 70
     1
 10
0.0
 20
0.0
 30
0.0
  3
*D7
  1
*D10
  0
LINE
  5
25E
330
25B
100
AcDbEntity
  8
치수문자_일반주서
 62
     0
370
    -2
100
AcDbLine
 10
17.81250000000004
 20
32.0039999999999
 30
0.0
 11
4.374999999999998
 21
32.00399999999985
 31
0.0
  0
LINE
  5
25F
330
25B
100
AcDbEntity
  8
치수문자_일반주서
 62
     0
370
    -2
100
AcDbLine
 10
17.81250000000004
 20
6.603999999999887
 30
0.0
 11
4.375000000000087
 21
6.603999999999838
 31
0.0
  0
LINE
  5
260
330
25B
100
AcDbEntity
  8
치수문자_일반주서
 62
     0
370
    -2
100
AcDbLine
 10
4.37500000000001
 20
28.70199999999985
 30
0.0
 11
4.375000000000075
 21
9.905999999999837
 31
0.0
  0
SOLID
  5
261
330
25B
100
AcDbEntity
  8
치수문자_일반주서
 62
     0
100
AcDbTrace
 10
4.925333333333343
 20
28.70199999999985
 30
0.0
 11
3.824666666666677
 21
28.70199999999985
 31
0.0
 12
4.374999999999998
 22
32.00399999999985
 32
0.0
 13
4.374999999999998
 23
32.00399999999985
 33
0.0
  0
SOLID
  5
262
330
25B
100
AcDbEntity
  8
치수문자_일반주서
 62
     0
100
AcDbTrace
 10
3.824666666666742
 20
9.905999999999835
 30
0.0
 11
4.925333333333409
 21
9.905999999999839
 31
0.0
 12
4.375000000000087
 22
6.603999999999838
 32
0.0
 13
4.375000000000087
 23
6.603999999999838
 33
0.0
  0
MTEXT
  5
263
330
25B
100
AcDbEntity
  8
치수문자_일반주서
 62
     0
100
AcDbMText
 10
0.0000000000000426
 20
19.30399999999989
 30
0.0
 40
3.5
 41
0.0
 71
     2
 72
     1
  1
\A1;%%c25.4 [1]
  7
SLDTEXTSTYLE0
 11
-3.496765431890255E-15
 21
1.0
 31
0.0
 73
     1
 44
1.0
  0
POINT
  5
264
330
25B
100
AcDbEntity
  8
Defpoints
 62
     0
100
AcDbPoint
 10
17.87500000000004
 20
32.0039999999999
 30
0.0
  0
POINT
  5
265
330
25B
100
AcDbEntity
  8
Defpoints
 62
     0
100
AcDbPoint
 10
17.87500000000004
 20
6.603999999999887
 30
0.0
  0
POINT
  5
266
330
25B
100
AcDbEntity
  8
Defpoints
 62
     0
100
AcDbPoint
 10
4.375000000000043
 20
6.603999999999837
 30
0.0
  0
ENDBLK
  5
25D
330
25B
100
AcDbEntity
  8
0
100
AcDbBlockEnd
  0
BLOCK
  5
268
330
267
100
AcDbEntity
  8
0
100
AcDbBlockBegin
  2
*D8
 70
     1
 10
0.0
 20
0.0
 30
0.0
  3
*D8
  1
*D11
  0
LINE
  5
26A
330
267
100
AcDbEntity
  8
치수문자_일반주서
 62
     0
370
    -2
100
AcDbLine
 10
201.025
 20
32.06649999999993
 30
0.0
 11
201.025
 21
45.16960788423931
 31
0.0
  0
LINE
  5
26B
330
267
100
AcDbEntity
  8
치수문자_일반주서
 62
     0
370
    -2
100
AcDbLine
 10
137.5250000000001
 20
32.06649999999991
 30
0.0
 11
137.5250000000001
 21
45.16960788423931
 31
0.0
  0
LINE
  5
26C
330
267
100
AcDbEntity
  8
치수문자_일반주서
 62
     0
370
    -2
100
AcDbLine
 10
197.723
 20
45.16960788423931
 30
0.0
 11
140.8270000000001
 21
45.16960788423931
 31
0.0
  0
SOLID
  5
26D
330
267
100
AcDbEntity
  8
치수문자_일반주서
 62
     0
100
AcDbTrace
 10
197.723
 20
44.61927455090598
 30
0.0
 11
197.723
 21
45.71994121757265
 31
0.0
 12
201.025
 22
45.16960788423931
 32
0.0
 13
201.025
 23
45.16960788423931
 33
0.0
  0
SOLID
  5
26E
330
267
100
AcDbEntity
  8
치수문자_일반주서
 62
     0
100
AcDbTrace
 10
140.8270000000001
 20
45.71994121757265
 30
0.0
 11
140.8270000000001
 21
44.61927455090598
 31
0.0
 12
137.5250000000001
 22
45.16960788423931
 32
0.0
 13
137.5250000000001
 23
45.16960788423931
 33
0.0
  0
MTEXT
  5
26F
330
267
100
AcDbEntity
  8
치수문자_일반주서
 62
     0
100
AcDbMText
 10
169.2750000000001
 20
49.54460788423931
 30
0.0
 40
3.5
 41
0.0
 71
     2
 72
     1
  1
\A1;63.5 [2 1/2]
  7
SLDTEXTSTYLE0
 73
     1
 44
1.0
  0
POINT
  5
270
330
267
100
AcDbEntity
  8
Defpoints
 62
     0
100
AcDbPoint
 10
201.025
 20
32.00399999999993
 30
0.0
  0
POINT
  5
271
330
267
100
AcDbEntity
  8
Defpoints
 62
     0
100
AcDbPoint
 10
137.5250000000001
 20
32.00399999999991
 30
0.0
  0
POINT
  5
272
330
267
100
AcDbEntity
  8
Defpoints
 62
     0
100
AcDbPoint
 10
137.5250000000001
 20
45.16960788423931
 30
0.0
  0
ENDBLK
  5
269
330
267
100
AcDbEntity
  8
0
100
AcDbBlockEnd
  0
BLOCK
  5
274
330
273
100
AcDbEntity
  8
0
100
AcDbBlockBegin
  2
*D9
 70
     1
 10
0.0
 20
0.0
 30
0.0
  3
*D9
  1
*D12
  0
LINE
  5
276
330
273
100
AcDbEntity
  8
치수문자_일반주서
 62
     0
370
    -2
100
AcDbLine
 10
201.025
 20
32.06649999999993
 30
0.0
 11
201.025
 21
61.88107860462915
 31
0.0
  0
LINE
  5
277
330
273
100
AcDbEntity
  8
치수문자_일반주서
 62
     0
370
    -2
100
AcDbLine
 10
16.87500000000004
 20
31.06649999999989
 30
0.0
 11
16.87500000000004
 21
61.88107860462915
 31
0.0
  0
LINE
  5
278
330
273
100
AcDbEntity
  8
치수문자_일반주서
 62
     0
370
    -2
100
AcDbLine
 10
197.723
 20
61.88107860462915
 30
0.0
 11
20.17700000000004
 21
61.88107860462915
 31
0.0
  0
SOLID
  5
279
330
273
100
AcDbEntity
  8
치수문자_일반주서
 62
     0
100
AcDbTrace
 10
197.723
 20
61.33074527129581
 30
0.0
 11
197.723
 21
62.43141193796248
 31
0.0
 12
201.025
 22
61.88107860462915
 32
0.0
 13
201.025
 23
61.88107860462915
 33
0.0
  0
SOLID
  5
27A
330
273
100
AcDbEntity
  8
치수문자_일반주서
 62
     0
100
AcDbTrace
 10
20.17700000000004
 20
62.43141193796248
 30
0.0
 11
20.17700000000004
 21
61.33074527129581
 31
0.0
 12
16.87500000000004
 22
61.88107860462915
 32
0.0
 13
16.87500000000004
 23
61.88107860462915
 33
0.0
  0
MTEXT
  5
27B
330
273
100
AcDbEntity
  8
치수문자_일반주서
 62
     0
100
AcDbMText
 10
108.95
 20
66.25607860462915
 30
0.0
 40
3.5
 41
0.0
 71
     2
 72
     1
  1
\A1;184.15 [7 1/4]
  7
SLDTEXTSTYLE0
 73
     1
 44
1.0
  0
POINT
  5
27C
330
273
100
AcDbEntity
  8
Defpoints
 62
     0
100
AcDbPoint
 10
201.025
 20
32.00399999999993
 30
0.0
  0
POINT
  5
27D
330
273
100
AcDbEntity
  8
Defpoints
 62
     0
100
AcDbPoint
 10
16.87500000000004
 20
31.00399999999989
 30
0.0
  0
POINT
  5
27E
330
273
100
AcDbEntity
  8
Defpoints
 62
     0
100
AcDbPoint
 10
16.87500000000004
 20
61.88107860462915
 30
0.0
  0
ENDBLK
  5
275
330
273
100
AcDbEntity
  8
0
100
AcDbBlockEnd
  0
BLOCK
  5
280
330
27F
100
AcDbEntity
  8
0
100
AcDbBlockBegin
  2
*D10
 70
     1
 10
0.0
 20
0.0
 30
0.0
  3
*D10
  1
*D13
  0
LINE
  5
282
330
27F
100
AcDbEntity
  8
치수문자_일반주서
 62
     0
370
    -2
100
AcDbLine
 10
201.0875
 20
6.603999999999926
 30
0.0
 11
220.8076864970028
 21
6.604000000000006
 31
0.0
  0
LINE
  5
283
330
27F
100
AcDbEntity
  8
치수문자_일반주서
 62
     0
370
    -2
100
AcDbLine
 10
201.0875
 20
32.00399999999993
 30
0.0
 11
220.8076864970027
 21
32.004
 31
0.0
  0
LINE
  5
284
330
27F
100
AcDbEntity
  8
치수문자_일반주서
 62
     0
370
    -2
100
AcDbLine
 10
220.8076864970027
 20
32.004
 30
0.0
 11
220.8076864970027
 21
62.27049517218192
 31
0.0
  0
LINE
  5
285
330
27F
100
AcDbEntity
  8
치수문자_일반주서
 62
     0
370
    -2
100
AcDbLine
 10
220.8076864970028
 20
9.906000000000006
 30
0.0
 11
220.8076864970027
 21
28.70200000000001
 31
0.0
  0
SOLID
  5
286
330
27F
100
AcDbEntity
  8
치수문자_일반주서
 62
     0
100
AcDbTrace
 10
220.2573531636695
 20
9.906000000000004
 30
0.0
 11
221.3580198303362
 21
9.906000000000008
 31
0.0
 12
220.8076864970028
 22
6.604000000000006
 32
0.0
 13
220.8076864970028
 23
6.604000000000006
 33
0.0
  0
SOLID
  5
287
330
27F
100
AcDbEntity
  8
치수문자_일반주서
 62
     0
100
AcDbTrace
 10
221.3580198303361
 20
28.70200000000001
 30
0.0
 11
220.2573531636694
 21
28.702
 31
0.0
 12
220.8076864970027
 22
32.004
 32
0.0
 13
220.8076864970027
 23
32.004
 33
0.0
  0
MTEXT
  5
288
330
27F
100
AcDbEntity
  8
치수문자_일반주서
 62
     0
100
AcDbMText
 10
216.4326864970027
 20
52.20799517218191
 30
0.0
 40
3.5
 41
0.0
 71
     2
 72
     1
  1
\A1;%%c25.4 [1]
  7
SLDTEXTSTYLE0
 11
-3.356894814614647E-15
 21
1.0
 31
0.0
 73
     1
 44
1.0
  0
POINT
  5
289
330
27F
100
AcDbEntity
  8
Defpoints
 62
     0
100
AcDbPoint
 10
201.025
 20
6.603999999999926
 30
0.0
  0
POINT
  5
28A
330
27F
100
AcDbEntity
  8
Defpoints
 62
     0
100
AcDbPoint
 10
201.025
 20
32.00399999999993
 30
0.0
  0
POINT
  5
28B
330
27F
100
AcDbEntity
  8
Defpoints
 62
     0
100
AcDbPoint
 10
220.8076864970027
 20
32.004
 30
0.0
  0
ENDBLK
  5
281
330
27F
100
AcDbEntity
  8
0
100
AcDbBlockEnd
  0
BLOCK
  5
2CE
330
2CD
100
AcDbEntity
  8
0
100
AcDbBlockBegin
  2
*D11
 70
     1
 10
0.0
 20
0.0
 30
0.0
  3
*D11
  1
*D14
  0
LINE
  5
2D0
330
2CD
100
AcDbEntity
  8
치수문자_일반주서
 62
     0
370
    -2
100
AcDbLine
 10
8.774260972122661
 20
-108.786236438697
 30
0.0
 11
-4.663239027877383
 21
-108.7862364386971
 31
0.0
  0
LINE
  5
2D1
330
2CD
100
AcDbEntity
  8
치수문자_일반주서
 62
     0
370
    -2
100
AcDbLine
 10
8.774260972122661
 20
-134.1862364386971
 30
0.0
 11
-4.663239027877294
 21
-134.1862364386971
 31
0.0
  0
LINE
  5
2D2
330
2CD
100
AcDbEntity
  8
치수문자_일반주서
 62
     0
370
    -2
100
AcDbLine
 10
-4.663239027877371
 20
-112.0882364386971
 30
0.0
 11
-4.663239027877306
 21
-130.8842364386971
 31
0.0
  0
SOLID
  5
2D3
330
2CD
100
AcDbEntity
  8
치수문자_일반주서
 62
     0
100
AcDbTrace
 10
-4.112905694544038
 20
-112.0882364386971
 30
0.0
 11
-5.213572361210705
 21
-112.0882364386971
 31
0.0
 12
-4.663239027877383
 22
-108.7862364386971
 32
0.0
 13
-4.663239027877383
 23
-108.7862364386971
 33
0.0
  0
SOLID
  5
2D4
330
2CD
100
AcDbEntity
  8
치수문자_일반주서
 62
     0
100
AcDbTrace
 10
-5.213572361210639
 20
-130.8842364386971
 30
0.0
 11
-4.112905694543972
 21
-130.8842364386971
 31
0.0
 12
-4.663239027877294
 22
-134.1862364386971
 32
0.0
 13
-4.663239027877294
 23
-134.1862364386971
 33
0.0
  0
MTEXT
  5
2D5
330
2CD
100
AcDbEntity
  8
치수문자_일반주서
 62
     0
100
AcDbMText
 10
-9.038239027877339
 20
-121.486236438697
 30
0.0
 40
3.5
 41
0.0
 71
     2
 72
     1
  1
\A1;%%c25.4 [1]
  7
SLDTEXTSTYLE0
 11
-3.496765431890256E-15
 21
1.0
 31
0.0
 73
     1
 44
1.0
  0
POINT
  5
2D6
330
2CD
100
AcDbEntity
  8
Defpoints
 62
     0
100
AcDbPoint
 10
8.836760972122661
 20
-108.786236438697
 30
0.0
  0
POINT
  5
2D7
330
2CD
100
AcDbEntity
  8
Defpoints
 62
     0
100
AcDbPoint
 10
8.836760972122661
 20
-134.1862364386971
 30
0.0
  0
POINT
  5
2D8
330
2CD
100
AcDbEntity
  8
Defpoints
 62
     0
100
AcDbPoint
 10
-4.663239027877294
 20
-134.1862364386971
 30
0.0
  0
ENDBLK
  5
2CF
330
2CD
100
AcDbEntity
  8
0
100
AcDbBlockEnd
  0
BLOCK
  5
2DA
330
2D9
100
AcDbEntity
  8
0
100
AcDbBlockBegin
  2
*D12
 70
     1
 10
0.0
 20
0.0
 30
0.0
  3
*D12
  1
*D15
  0
LINE
  5
2DC
330
2D9
100
AcDbEntity
  8
치수문자_일반주서
 62
     0
370
    -2
100
AcDbLine
 10
191.9867609721227
 20
-108.723736438697
 30
0.0
 11
191.9867609721227
 21
-95.62062855445764
 31
0.0
  0
LINE
  5
2DD
330
2D9
100
AcDbEntity
  8
치수문자_일반주서
 62
     0
370
    -2
100
AcDbLine
 10
128.4867609721227
 20
-108.723736438697
 30
0.0
 11
128.4867609721227
 21
-95.62062855445764
 31
0.0
  0
LINE
  5
2DE
330
2D9
100
AcDbEntity
  8
치수문자_일반주서
 62
     0
370
    -2
100
AcDbLine
 10
188.6847609721227
 20
-95.62062855445764
 30
0.0
 11
131.7887609721227
 21
-95.62062855445764
 31
0.0
  0
SOLID
  5
2DF
330
2D9
100
AcDbEntity
  8
치수문자_일반주서
 62
     0
100
AcDbTrace
 10
188.6847609721227
 20
-96.17096188779097
 30
0.0
 11
188.6847609721227
 21
-95.07029522112431
 31
0.0
 12
191.9867609721227
 22
-95.62062855445764
 32
0.0
 13
191.9867609721227
 23
-95.62062855445764
 33
0.0
  0
SOLID
  5
2E0
330
2D9
100
AcDbEntity
  8
치수문자_일반주서
 62
     0
100
AcDbTrace
 10
131.7887609721227
 20
-95.07029522112431
 30
0.0
 11
131.7887609721227
 21
-96.17096188779097
 31
0.0
 12
128.4867609721227
 22
-95.62062855445764
 32
0.0
 13
128.4867609721227
 23
-95.62062855445764
 33
0.0
  0
MTEXT
  5
2E1
330
2D9
100
AcDbEntity
  8
치수문자_일반주서
 62
     0
100
AcDbMText
 10
160.2367609721227
 20
-91.24562855445764
 30
0.0
 40
3.5
 41
0.0
 71
     2
 72
     1
  1
\A1;63.5 [2 1/2]
  7
SLDTEXTSTYLE0
 73
     1
 44
1.0
  0
POINT
  5
2E2
330
2D9
100
AcDbEntity
  8
Defpoints
 62
     0
100
AcDbPoint
 10
191.9867609721227
 20
-108.786236438697
 30
0.0
  0
POINT
  5
2E3
330
2D9
100
AcDbEntity
  8
Defpoints
 62
     0
100
AcDbPoint
 10
128.4867609721227
 20
-108.786236438697
 30
0.0
  0
POINT
  5
2E4
330
2D9
100
AcDbEntity
  8
Defpoints
 62
     0
100
AcDbPoint
 10
128.4867609721227
 20
-95.62062855445764
 30
0.0
  0
ENDBLK
  5
2DB
330
2D9
100
AcDbEntity
  8
0
100
AcDbBlockEnd
  0
BLOCK
  5
2E6
330
2E5
100
AcDbEntity
  8
0
100
AcDbBlockBegin
  2
*D13
 70
     1
 10
0.0
 20
0.0
 30
0.0
  3
*D13
  1
*D16
  0
LINE
  5
2E8
330
2E5
100
AcDbEntity
  8
치수문자_일반주서
 62
     0
370
    -2
100
AcDbLine
 10
191.9867609721227
 20
-108.723736438697
 30
0.0
 11
191.9867609721226
 21
-78.9091578340678
 31
0.0
  0
LINE
  5
2E9
330
2E5
100
AcDbEntity
  8
치수문자_일반주서
 62
     0
370
    -2
100
AcDbLine
 10
7.836760972122661
 20
-109.7237364386971
 30
0.0
 11
7.836760972122633
 21
-78.9091578340678
 31
0.0
  0
LINE
  5
2EA
330
2E5
100
AcDbEntity
  8
치수문자_일반주서
 62
     0
370
    -2
100
AcDbLine
 10
188.6847609721226
 20
-78.9091578340678
 30
0.0
 11
11.13876097212263
 21
-78.9091578340678
 31
0.0
  0
SOLID
  5
2EB
330
2E5
100
AcDbEntity
  8
치수문자_일반주서
 62
     0
100
AcDbTrace
 10
188.6847609721226
 20
-79.45949116740113
 30
0.0
 11
188.6847609721226
 21
-78.35882450073447
 31
0.0
 12
191.9867609721226
 22
-78.9091578340678
 32
0.0
 13
191.9867609721226
 23
-78.9091578340678
 33
0.0
  0
SOLID
  5
2EC
330
2E5
100
AcDbEntity
  8
치수문자_일반주서
 62
     0
100
AcDbTrace
 10
11.13876097212263
 20
-78.35882450073447
 30
0.0
 11
11.13876097212263
 21
-79.45949116740113
 31
0.0
 12
7.836760972122633
 22
-78.9091578340678
 32
0.0
 13
7.836760972122633
 23
-78.9091578340678
 33
0.0
  0
MTEXT
  5
2ED
330
2E5
100
AcDbEntity
  8
치수문자_일반주서
 62
     0
100
AcDbMText
 10
99.91176097212266
 20
-74.5341578340678
 30
0.0
 40
3.5
 41
0.0
 71
     2
 72
     1
  1
\A1;184.15 [7 1/4]
  7
SLDTEXTSTYLE0
 73
     1
 44
1.0
  0
POINT
  5
2EE
330
2E5
100
AcDbEntity
  8
Defpoints
 62
     0
100
AcDbPoint
 10
191.9867609721227
 20
-108.786236438697
 30
0.0
  0
POINT
  5
2EF
330
2E5
100
AcDbEntity
  8
Defpoints
 62
     0
100
AcDbPoint
 10
7.836760972122661
 20
-109.7862364386971
 30
0.0
  0
POINT
  5
2F0
330
2E5
100
AcDbEntity
  8
Defpoints
 62
     0
100
AcDbPoint
 10
7.836760972122661
 20
-78.9091578340678
 30
0.0
  0
ENDBLK
  5
2E7
330
2E5
100
AcDbEntity
  8
0
100
AcDbBlockEnd
  0
BLOCK
  5
2F2
330
2F1
100
AcDbEntity
  8
0
100
AcDbBlockBegin
  2
*D14
 70
     1
 10
0.0
 20
0.0
 30
0.0
  3
*D14
  1
*D17
  0
LINE
  5
2F4
330
2F1
100
AcDbEntity
  8
치수문자_일반주서
 62
     0
370
    -2
100
AcDbLine
 10
192.0492609721227
 20
-134.186236438697
 30
0.0
 11
211.7694474691255
 21
-134.1862364386969
 31
0.0
  0
LINE
  5
2F5
330
2F1
100
AcDbEntity
  8
치수문자_일반주서
 62
     0
370
    -2
100
AcDbLine
 10
192.0492609721227
 20
-108.786236438697
 30
0.0
 11
211.7694474691254
 21
-108.7862364386969
 31
0.0
  0
LINE
  5
2F6
330
2F1
100
AcDbEntity
  8
치수문자_일반주서
 62
     0
370
    -2
100
AcDbLine
 10
211.7694474691254
 20
-108.7862364386969
 30
0.0
 11
211.7694474691253
 21
-78.51974126651503
 31
0.0
  0
LINE
  5
2F7
330
2F1
100
AcDbEntity
  8
치수문자_일반주서
 62
     0
370
    -2
100
AcDbLine
 10
211.7694474691255
 20
-130.8842364386969
 30
0.0
 11
211.7694474691254
 21
-112.0882364386969
 31
0.0
  0
SOLID
  5
2F8
330
2F1
100
AcDbEntity
  8
치수문자_일반주서
 62
     0
100
AcDbTrace
 10
211.2191141357921
 20
-130.8842364386969
 30
0.0
 11
212.3197808024588
 21
-130.8842364386969
 31
0.0
 12
211.7694474691255
 22
-134.1862364386969
 32
0.0
 13
211.7694474691255
 23
-134.1862364386969
 33
0.0
  0
SOLID
  5
2F9
330
2F1
100
AcDbEntity
  8
치수문자_일반주서
 62
     0
100
AcDbTrace
 10
212.3197808024587
 20
-112.0882364386969
 30
0.0
 11
211.219114135792
 21
-112.0882364386969
 31
0.0
 12
211.7694474691254
 22
-108.7862364386969
 32
0.0
 13
211.7694474691254
 23
-108.7862364386969
 33
0.0
  0
MTEXT
  5
2FA
330
2F1
100
AcDbEntity
  8
치수문자_일반주서
 62
     0
100
AcDbMText
 10
207.3944474691253
 20
-88.58224126651504
 30
0.0
 40
3.5
 41
0.0
 71
     2
 72
     1
  1
\A1;%%c25.4 [1]
  7
SLDTEXTSTYLE0
 11
-3.356894814614648E-15
 21
1.0
 31
0.0
 73
     1
 44
1.0
  0
POINT
  5
2FB
330
2F1
100
AcDbEntity
  8
Defpoints
 62
     0
100
AcDbPoint
 10
191.9867609721227
 20
-134.186236438697
 30
0.0
  0
POINT
  5
2FC
330
2F1
100
AcDbEntity
  8
Defpoints
 62
     0
100
AcDbPoint
 10
191.9867609721227
 20
-108.786236438697
 30
0.0
  0
POINT
  5
2FD
330
2F1
100
AcDbEntity
  8
Defpoints
 62
     0
100
AcDbPoint
 10
211.7694474691254
 20
-108.7862364386969
 30
0.0
  0
ENDBLK
  5
2F3
330
2F1
100
AcDbEntity
  8
0
100
AcDbBlockEnd
  0
BLOCK
  5
391
330
390
100
AcDbEntity
  8
0
100
AcDbBlockBegin
  2
*D15
 70
     1
 10
0.0
 20
0.0
 30
0.0
  3
*D15
  1
*D15
  0
LINE
  5
393
330
390
100
AcDbEntity
  8
치수문자_일반주서
 62
     0
370
    -2
100
AcDbLine
 10
126.7221264386944
 20
15.93750000000002
 30
0.0
 11
126.7221264386944
 21
40.87734093124732
 31
0.0
  0
LINE
  5
394
330
390
100
AcDbEntity
  8
치수문자_일반주서
 62
     0
370
    -2
100
AcDbLine
 10
0.5158764386943844
 20
15.747
 30
0.0
 11
0.5158764386943844
 21
40.87734093124732
 31
0.0
  0
LINE
  5
395
330
390
100
AcDbEntity
  8
치수문자_일반주서
 62
     0
370
    -2
100
AcDbLine
 10
123.4201264386944
 20
40.87734093124732
 30
0.0
 11
3.817876438694384
 21
40.87734093124732
 31
0.0
  0
SOLID
  5
396
330
390
100
AcDbEntity
  8
치수문자_일반주서
 62
     0
100
AcDbTrace
 10
123.4201264386944
 20
40.32700759791398
 30
0.0
 11
123.4201264386944
 21
41.42767426458065
 31
0.0
 12
126.7221264386944
 22
40.87734093124732
 32
0.0
 13
126.7221264386944
 23
40.87734093124732
 33
0.0
  0
SOLID
  5
397
330
390
100
AcDbEntity
  8
치수문자_일반주서
 62
     0
100
AcDbTrace
 10
3.817876438694384
 20
41.42767426458065
 30
0.0
 11
3.817876438694384
 21
40.32700759791398
 31
0.0
 12
0.5158764386943844
 22
40.87734093124732
 32
0.0
 13
0.5158764386943844
 23
40.87734093124732
 33
0.0
  0
MTEXT
  5
398
330
390
100
AcDbEntity
  8
치수문자_일반주서
 62
     0
100
AcDbMText
 10
63.61900143869438
 20
43.50234093124732
 30
0.0
 40
3.5
 41
0.0
 71
     5
 72
     1
  1
\A1;126.21 [4 31/32]
  7
SLDTEXTSTYLE0
 73
     1
 44
1.0
  0
POINT
  5
399
330
390
100
AcDbEntity
  8
Defpoints
 62
     0
100
AcDbPoint
 10
126.7221264386944
 20
15.87500000000002
 30
0.0
  0
POINT
  5
39A
330
390
100
AcDbEntity
  8
Defpoints
 62
     0
100
AcDbPoint
 10
0.5158764386943844
 20
15.6845
 30
0.0
  0
POINT
  5
39B
330
390
100
AcDbEntity
  8
Defpoints
 62
     0
100
AcDbPoint
 10
0.5158764386943844
 20
40.87734093124732
 30
0.0
  0
ENDBLK
  5
392
330
390
100
AcDbEntity
  8
0
100
AcDbBlockEnd
  0
ENDSEC
  0
SECTION
  2
ENTITIES
  0
LINE
  5
96
330
1F
100
AcDbEntity
  8
외형선
  6
Continuous
370
    15
100
AcDbLine
 10
0.0
 20
15.875
 30
0.0
 11
-19.51519856130558
 21
15.875
 31
0.0
  0
LINE
  5
97
330
1F
100
AcDbEntity
  8
외형선
  6
Continuous
370
    15
100
AcDbLine
 10
-56.4278735613056
 20
-15.875
 30
0.0
 11
0.0
 21
-15.875
 31
0.0
  0
LINE
  5
99
330
1F
100
AcDbEntity
  8
외형선
  6
Continuous
370
    15
100
AcDbLine
 10
-57.42787356130562
 20
-14.875
 30
0.0
 11
-56.4278735613056
 21
-15.875
 31
0.0
  0
LINE
  5
9A
330
1F
100
AcDbEntity
  8
0
  6
Continuous
 62
     1
370
    15
100
AcDbLine
 10
76.84342785146325
 20
4.453668571087561
 30
0.0
 11
76.64276594841559
 21
4.564101584494146
 31
0.0
  0
SPLINE
  5
9B
330
1F
100
AcDbEntity
  8
0
  6
Continuous
 62
     1
370
    15
100
AcDbSpline
210
0.0
220
0.0
230
1.0
 70
     8
 71
     3
 72
    10
 73
     6
 74
     0
 42
0.000000001
 43
0.00000001
 40
0.0
 40
0.0
 40
0.0
 40
0.0
 40
0.4989488702314961
 40
0.6864628464817071
 40
1.0
 40
1.0
 40
1.0
 40
1.0
 10
85.59342196806469
 20
4.067957309629181
 30
0.0
 10
84.86109446421128
 20
4.417531511960001
 30
0.0
 10
83.8535450882225
 20
4.898481998684717
 30
0.0
 10
82.38620533431086
 20
5.643107341687245
 30
0.0
 10
81.65035366132628
 20
6.029130325595296
 30
0.0
 10
81.18988800173207
 20
6.270687604636034
 30
0.0
  0
SPLINE
  5
9C
330
1F
100
AcDbEntity
  8
0
  6
Continuous
 62
     1
370
    15
100
AcDbSpline
210
0.0
220
0.0
230
1.0
 70
     8
 71
     3
 72
    21
 73
    17
 74
     0
 42
0.000000001
 43
0.00000001
 40
0.0
 40
0.0
 40
0.0
 40
0.0
 40
0.1244469517242513
 40
0.2251133488842931
 40
0.304062649652529
 40
0.3617753900075894
 40
0.4104314950577934
 40
0.470133050030453
 40
0.525939164126149
 40
0.5930089934527917
 40
0.6717202095273055
 40
0.752456680699516
 40
0.8133117935344916
 40
0.8614137785533346
 40
0.9494409757457789
 40
1.0
 40
1.0
 40
1.0
 40
1.0
 10
80.34518925732276
 20
12.61489316832762
 30
0.0
 10
79.82045587877687
 20
12.58798286340245
 30
0.0
 10
78.87126036631804
 20
12.53930454081383
 30
0.0
 10
77.53776386134584
 20
12.48875731287705
 30
0.0
 10
76.48997106025826
 20
12.45643078033068
 30
0.0
 10
75.67770045228238
 20
12.43585104497301
 30
0.0
 10
74.97513639842374
 20
12.42170009099315
 30
0.0
 10
74.26421022552884
 20
12.41030997891598
 30
0.0
 10
73.47240278873244
 20
12.40173819058455
 30
0.0
 10
72.59788090770849
 20
12.39691710926962
 30
0.0
 10
71.61542428657145
 20
12.39773215061782
 30
0.0
 10
70.6602221675024
 20
12.4051895429223
 30
0.0
 10
69.83776709050179
 20
12.41662811385524
 30
0.0
 10
68.9832920945523
 20
12.4327666884576
 30
0.0
 10
68.17365283000962
 20
12.45162198972386
 30
0.0
 10
67.57261465990507
 20
12.47186945127888
 30
0.0
 10
67.35334391925845
 20
12.4792561300494
 30
0.0
  0
SPLINE
  5
9D
330
1F
100
AcDbEntity
  8
0
  6
Continuous
 62
     1
370
    15
100
AcDbSpline
210
0.0
220
0.0
230
1.0
 70
     8
 71
     3
 72
    34
 73
    30
 74
     0
 42
0.000000001
 43
0.00000001
 40
0.0
 40
0.0
 40
0.0
 40
0.0
 40
0.0541286599550607
 40
0.1012993825423367
 40
0.1432345668840497
 40
0.1802485595537499
 40
0.2134303836981992
 40
0.2480649507966585
 40
0.2870627405759371
 40
0.3263983345870287
 40
0.360515150477222
 40
0.3953140143406729
 40
0.4342387722241461
 40
0.4842773113541737
 40
0.526211013725154
 40
0.5543123202009443
 40
0.5755584554620151
 40
0.6043569647567216
 40
0.6409543045540225
 40
0.6773812194041979
 40
0.709079851926824
 40
0.7580236753666585
 40
0.8127830132931804
 40
0.8309563408923742
 40
0.849085125921843
 40
0.8734606843136086
 40
0.906715749508085
 40
0.9489301009531002
 40
0.9999999999999999
 40
0.9999999999999999
 40
0.9999999999999999
 40
0.9999999999999999
 10
120.8237143694147
 20
10.85774753690679
 30
0.0
 10
120.3471279621038
 20
10.81787131113781
 30
0.0
 10
119.4552176722731
 20
10.74324472603722
 30
0.0
 10
118.1015667733685
 20
10.65365327534515
 30
0.0
 10
116.8962524751943
 20
10.58611666296193
 30
0.0
 10
115.8220997683611
 20
10.53458515270155
 30
0.0
 10
114.8916814589315
 20
10.50285841503036
 30
0.0
 10
113.9502346241141
 20
10.47633805929521
 30
0.0
 10
112.9002980465062
 20
10.45584182242019
 30
0.0
 10
111.859320695119
 20
10.44635390132849
 30
0.0
 10
110.8566538460329
 20
10.44659888679011
 30
0.0
 10
109.857702522167
 20
10.45572566611468
 30
0.0
 10
108.7113776877188
 20
10.4771467294182
 30
0.0
 10
107.4987837993773
 20
10.51358755582599
 30
0.0
 10
106.3864841166539
 20
10.5600301761789
 30
0.0
 10
105.5408534641562
 20
10.60288062365232
 30
0.0
 10
104.8169018944222
 20
10.6441635827005
 30
0.0
 10
104.0142192660704
 20
10.69490200298661
 30
0.0
 10
103.0704862377706
 20
10.76214932604582
 30
0.0
 10
102.0998695566314
 20
10.84000981095936
 30
0.0
 10
101.0152236897714
 20
10.93611633628736
 30
0.0
 10
99.76184061102856
 20
11.05957517119382
 30
0.0
 10
98.63391279401807
 20
11.18400760589379
 30
0.0
 10
97.7890244877256
 20
11.2843468979953
 30
0.0
 10
97.22496693286833
 20
11.35369896486371
 30
0.0
 10
96.52303199219517
 20
11.44346902522312
 30
0.0
 10
95.59895061607244
 20
11.5677876736943
 30
0.0
 10
94.42745987929604
 20
11.7337228411013
 30
0.0
 10
93.56302322836714
 20
11.86712249111785
 30
0.0
 10
93.0897740757762
 20
11.94015418321284
 30
0.0
  0
SPLINE
  5
9E
330
1F
100
AcDbEntity
  8
0
  6
Continuous
 62
     1
370
    15
100
AcDbSpline
210
0.0
220
0.0
230
1.0
 70
     8
 71
     3
 72
    20
 73
    16
 74
     0
 42
0.000000001
 43
0.00000001
 40
0.0
 40
0.0
 40
0.0
 40
0.0
 40
0.1197115604766677
 40
0.218665072825545
 40
0.2966173661035897
 40
0.3827755853694806
 40
0.454365354576952
 40
0.5273798573630621
 40
0.5957635526075253
 40
0.6585583250367044
 40
0.7274549031121441
 40
0.8070161302952111
 40
0.9025397317164827
 40
0.9807961456528975
 40
1.0
 40
1.0
 40
1.0
 40
1.0
 10
93.0897740757762
 20
-11.94015418321284
 30
0.0
 10
93.56301207129178
 20
-11.8671238038242
 30
0.0
 10
94.42742834271274
 20
-11.73372655159636
 30
0.0
 10
95.59904292187773
 20
-11.56777681328393
 30
0.0
 10
96.63733468972546
 20
-11.428086942969
 30
0.0
 10
97.57056212295846
 20
-11.31007897653861
 30
0.0
 10
98.48453585780777
 20
-11.20163468371534
 30
0.0
 10
99.32554793360295
 20
-11.10781995492122
 30
0.0
 10
100.1319286525836
 20
-11.02348290630028
 30
0.0
 10
100.9220149778025
 20
-10.9458974307651
 30
0.0
 10
101.7568151196297
 20
-10.86964514700388
 30
0.0
 10
102.7213980448287
 20
-10.78897498063137
 30
0.0
 10
103.7231953540944
 20
-10.71486789847337
 30
0.0
 10
104.4860040192111
 20
-10.66410082063186
 30
0.0
 10
104.8711719503104
 20
-10.6419371490588
 30
0.0
 10
104.9470665582186
 20
-10.63756995483512
 30
0.0
  0
SPLINE
  5
9F
330
1F
100
AcDbEntity
  8
0
  6
Continuous
 62
     1
370
    15
100
AcDbSpline
210
0.0
220
0.0
230
1.0
 70
     8
 71
     3
 72
    32
 73
    28
 74
     0
 42
0.000000001
 43
0.00000001
 40
0.0
 40
0.0
 40
0.0
 40
0.0
 40
0.0560155586126707
 40
0.103362163383955
 40
0.1433840184875439
 40
0.17511943973901
 40
0.2006180116627478
 40
0.2259778880354271
 40
0.2557497911073801
 40
0.2866883787933136
 40
0.3231953950271228
 40
0.3654229265284744
 40
0.408641056187682
 40
0.4415042784379273
 40
0.4677187103049619
 40
0.5163430228711736
 40
0.5686091176980292
 40
0.6087649813182446
 40
0.6487543656796946
 40
0.6937388075660859
 40
0.7393833974732563
 40
0.7888725612668351
 40
0.8272416037567231
 40
0.8486266257719042
 40
0.8813897362853903
 40
0.9318877679958316
 40
1.0
 40
1.0
 40
1.0
 40
1.0
 10
56.47026738310264
 20
-13.21020519336282
 30
0.0
 10
56.90526340268097
 20
-13.16725121838112
 30
0.0
 10
57.70793556664037
 20
-13.08799081484309
 30
0.0
 10
58.8721643733183
 20
-12.98527169857992
 30
0.0
 10
59.82533362145895
 20
-12.90572715724458
 30
0.0
 10
60.62407253792362
 20
-12.84078529611781
 30
0.0
 10
61.26022005237135
 20
-12.79625271121716
 30
0.0
 10
61.85416689155188
 20
-12.75575592422023
 30
0.0
 10
62.53607393541472
 20
-12.71042374450105
 30
0.0
 10
63.31192314110388
 20
-12.66275592389792
 30
0.0
 10
64.18737899617523
 20
-12.61340378062897
 30
0.0
 10
65.16065820007421
 20
-12.56443504276014
 30
0.0
 10
66.10458497474497
 20
-12.52309891754023
 30
0.0
 10
66.92068147803468
 20
-12.49220602943063
 30
0.0
 10
67.78032168958953
 20
-12.46373282115492
 30
0.0
 10
68.79471350679472
 20
-12.43615042638827
 30
0.0
 10
69.92018254528986
 20
-12.41454295880933
 30
0.0
 10
70.97729278978227
 20
-12.4020312511706
 30
0.0
 10
71.9730813146084
 20
-12.39667473965092
 30
0.0
 10
73.01149034453344
 20
-12.39808316010603
 30
0.0
 10
74.13080355313605
 20
-12.4077429063364
 30
0.0
 10
75.19872438134016
 20
-12.42517711601919
 30
0.0
 10
76.07205724589255
 20
-12.44554747845429
 30
0.0
 10
76.80893075762961
 20
-12.46617271411923
 30
0.0
 10
77.64354891848973
 20
-12.49319769928496
 30
0.0
 10
78.85215436135238
 20
-12.53951707342879
 30
0.0
 10
79.80056318624767
 20
-12.58739763789592
 30
0.0
 10
80.34518925732276
 20
-12.61489316832761
 30
0.0
  0
LINE
  5
A1
330
1F
100
AcDbEntity
  8
외형선
  6
Continuous
370
    15
100
AcDbLine
 10
50.52212643869439
 20
15.85563557177589
 30
0.0
 11
50.52212643869439
 21
15.02245316348582
 31
0.0
  0
LINE
  5
A4
330
1F
100
AcDbEntity
  8
외형선
  6
Continuous
370
    15
100
AcDbLine
 10
-56.4278735613056
 20
13.48739999999998
 30
0.0
 11
-56.4278735613056
 21
-15.875
 31
0.0
  0
LINE
  5
A6
330
1F
100
AcDbEntity
  8
외형선
  6
Continuous
370
    15
100
AcDbLine
 10
-57.42787356130562
 20
13.48739999999998
 30
0.0
 11
-57.42787356130562
 21
-14.875
 31
0.0
  0
SPLINE
  5
A9
330
1F
100
AcDbEntity
  8
외형선
  6
Continuous
370
    15
100
AcDbSpline
210
0.0
220
0.0
230
1.0
 70
    24
 71
     3
 72
    14
 73
    10
 74
     0
 42
0.000000001
 43
0.00000001
 40
0.0
 40
0.0
 40
0.0
 40
0.0
 40
0.2500000000000001
 40
0.2500000000000001
 40
0.5000000000000002
 40
0.5000000000000002
 40
0.7500000000000001
 40
0.7500000000000001
 40
1.0
 40
1.0
 40
1.0
 40
1.0
 10
50.52212643869439
 20
-4.596452788543443
 30
0.0
 10
50.52212643869439
 20
-5.678900030011934
 30
0.0
 10
50.52212643869439
 20
-6.726217482642259
 30
0.0
 10
50.52212643869439
 20
-8.66544071741198
 30
0.0
 10
50.52212643869439
 20
-9.55665607704995
 30
0.0
 10
50.52212643869439
 20
-11.11153882544168
 30
0.0
 10
50.52212643869439
 20
-11.77475721125789
 30
0.0
 10
50.52212643869439
 20
-12.83409643281526
 30
0.0
 10
50.52212643869439
 20
-13.23021970349085
 30
0.0
 10
50.52212643869439
 20
-13.49294678832515
 30
0.0
  0
SPLINE
  5
AB
330
1F
100
AcDbEntity
  8
외형선
  6
Continuous
370
    15
100
AcDbSpline
210
0.0
220
0.0
230
1.0
 70
    24
 71
     3
 72
    14
 73
    10
 74
     0
 42
0.000000001
 43
0.00000001
 40
0.0
 40
0.0
 40
0.0
 40
0.0
 40
0.2499999999999998
 40
0.2499999999999998
 40
0.4999999999999999
 40
0.4999999999999999
 40
0.75
 40
0.75
 40
1.0
 40
1.0
 40
1.0
 40
1.0
 10
50.52212643869439
 20
10.35915089604647
 30
0.0
 10
50.52212643869439
 20
9.582756945670196
 30
0.0
 10
50.52212643869439
 20
8.637707314538986
 30
0.0
 10
50.52212643869439
 20
6.454749135365304
 30
0.0
 10
50.52212643869439
 20
5.217332327574907
 30
0.0
 10
50.52212643869439
 20
2.559290366167045
 30
0.0
 10
50.52212643869439
 20
1.140081528434632
 30
0.0
 10
50.52212643869439
 20
-1.735563022997713
 30
0.0
 10
50.52212643869439
 20
-3.190534081060123
 30
0.0
 10
50.52212643869439
 20
-4.596452788543438
 30
0.0
  0
SPLINE
  5
AC
330
1F
100
AcDbEntity
  8
외형선
  6
Continuous
370
    15
100
AcDbSpline
210
0.0
220
0.0
230
1.0
 70
    24
 71
     3
 72
    14
 73
    10
 74
     0
 42
0.000000001
 43
0.00000001
 40
0.0
 40
0.0
 40
0.0
 40
0.0
 40
0.25
 40
0.25
 40
0.5
 40
0.5
 40
0.75
 40
0.75
 40
1.0
 40
1.0
 40
1.0
 40
1.0
 10
50.52212643869439
 20
15.0224531634858
 30
0.0
 10
50.52212643869439
 20
14.68869454530032
 30
0.0
 10
50.52212643869439
 20
14.327447962827
 30
0.0
 10
50.52212643869439
 20
13.56858929192955
 30
0.0
 10
50.52212643869439
 20
13.17110924543959
 30
0.0
 10
50.52212643869439
 20
12.36319394452032
 30
0.0
 10
50.52212643869439
 20
11.95290995258555
 30
0.0
 10
50.52212643869439
 20
11.14300692027275
 30
0.0
 10
50.52212643869439
 20
10.74350208859499
 30
0.0
 10
50.52212643869439
 20
10.35915089604647
 30
0.0
  0
SPLINE
  5
AD
330
1F
100
AcDbEntity
  8
외형선
  6
Continuous
370
    15
100
AcDbSpline
210
0.0
220
0.0
230
1.0
 70
    24
 71
     3
 72
     8
 73
     4
 74
     0
 42
0.000000001
 43
0.00000001
 40
0.0
 40
0.0
 40
0.0
 40
0.0
 40
1.0
 40
1.0
 40
1.0
 40
1.0
 10
50.52212643869439
 20
-13.49294678832516
 30
0.0
 10
50.52212643869439
 20
-14.30102015066553
 30
0.0
 10
50.52212643869439
 20
-15.09373578099008
 30
0.0
 10
50.52212643869439
 20
-15.85563557176709
 30
0.0
  0
SPLINE
  5
AE
330
1F
100
AcDbEntity
  8
0
  6
Continuous
 62
     1
370
    15
100
AcDbSpline
210
0.0
220
0.0
230
1.0
 70
     8
 71
     3
 72
    70
 73
    66
 74
     0
 42
0.000000001
 43
0.00000001
 40
0.0
 40
0.0
 40
0.0
 40
0.0
 40
0.03125
 40
0.03125
 40
0.0625
 40
0.0625
 40
0.09375
 40
0.09375
 40
0.125
 40
0.125
 40
0.15625
 40
0.15625
 40
0.1875
 40
0.1875
 40
0.2187499999999998
 40
0.2187499999999998
 40
0.2499999999999997
 40
0.2499999999999997
 40
0.2812499999999997
 40
0.2812499999999997
 40
0.3124999999999997
 40
0.3124999999999997
 40
0.3437499999999997
 40
0.3437499999999997
 40
0.3749999999999997
 40
0.3749999999999997
 40
0.4062499999999997
 40
0.4062499999999997
 40
0.4374999999999997
 40
0.4374999999999997
 40
0.4687499999999998
 40
0.4687499999999998
 40
0.4999999999999998
 40
0.4999999999999998
 40
0.5312499999999998
 40
0.5312499999999998
 40
0.5624999999999998
 40
0.5624999999999998
 40
0.5937499999999998
 40
0.5937499999999998
 40
0.6249999999999998
 40
0.6249999999999998
 40
0.6562499999999999
 40
0.6562499999999999
 40
0.6874999999999999
 40
0.6874999999999999
 40
0.7187499999999999
 40
0.7187499999999999
 40
0.7499999999999999
 40
0.7499999999999999
 40
0.7812499999999999
 40
0.7812499999999999
 40
0.8124999999999999
 40
0.8124999999999999
 40
0.8437499999999999
 40
0.8437499999999999
 40
0.8749999999999999
 40
0.8749999999999999
 40
0.90625
 40
0.90625
 40
0.9375
 40
0.9375
 40
0.96875
 40
0.96875
 40
1.0
 40
1.0
 40
1.0
 40
1.0
 10
126.7221264386944
 20
-15.87499999999998
 30
0.0
 10
125.930832359727
 20
-15.84276481572522
 30
0.0
 10
125.1354925428227
 20
-15.804091973066
 30
0.0
 10
123.5456376693827
 20
-15.68728980446149
 30
0.0
 10
122.7533009365933
 20
-15.60925475767795
 30
0.0
 10
121.1680112655216
 20
-15.41442391364456
 30
0.0
 10
120.3721462939335
 20
-15.2974689024405
 30
0.0
 10
118.782911883203
 20
-15.02569817395004
 30
0.0
 10
117.9922053753242
 20
-14.87109507674421
 30
0.0
 10
116.4048287258526
 20
-14.52476127912949
 30
0.0
 10
115.60875004739
 20
-14.33301532393769
 30
0.0
 10
114.0207557551765
 20
-13.91450554580045
 30
0.0
 10
113.230304497712
 20
-13.6879299265209
 30
0.0
 10
111.64145811196
 20
-13.20038696423618
 30
0.0
 10
110.8454774538091
 20
-12.93961099305793
 30
0.0
 10
109.2593413243187
 20
-12.38703514315975
 30
0.0
 10
108.4677700114653
 20
-12.09511186798093
 30
0.0
 10
106.8780730408154
 20
-11.48094416336092
 30
0.0
 10
106.08250200201
 20
-11.15899247913231
 30
0.0
 10
104.498839667543
 20
-10.48907555758656
 30
0.0
 10
103.7047744470773
 20
-10.14028056343563
 30
0.0
 10
102.1148471488525
 20
-9.417919093228235
 30
0.0
 10
101.3215558643379
 20
-9.044751001520492
 30
0.0
 10
99.7371973129398
 20
-8.277140999267806
 30
0.0
 10
98.94149093451914
 20
-7.881935162018928
 30
0.0
 10
97.35195386564129
 20
-7.073094120257305
 30
0.0
 10
96.56080268411603
 20
-6.659942410947844
 30
0.0
 10
94.97412871166182
 20
-5.817291443114128
 30
0.0
 10
94.17809297829609
 20
-5.387679129361339
 30
0.0
 10
92.58956618812681
 20
-4.516690922987321
 30
0.0
 10
91.79918071219754
 20
-4.075721997639251
 30
0.0
 10
90.21080764875582
 20
-3.183297881599994
 30
0.0
 10
89.41475423148216
 20
-2.732190492072175
 30
0.0
 10
87.82785645604918
 20
-1.825259883992311
 30
0.0
 10
87.03686129452551
 20
-1.369416659415126
 30
0.0
 10
85.44740767637307
 20
-0.4540176145493219
 30
0.0
 10
84.6516482693492
 20
0.0050211760942159
 30
0.0
 10
83.06699612915614
 20
0.9206204064455612
 30
0.0
 10
82.27401668217018
 20
1.377968418506835
 30
0.0
 10
80.68410245014633
 20
2.28883344554017
 30
0.0
 10
79.88966765269066
 20
2.741867533499483
 30
0.0
 10
78.30632471598912
 20
3.638920654086131
 30
0.0
 10
77.51081980878322
 20
4.084181754896903
 30
0.0
 10
75.92106550281258
 20
4.963135268179928
 30
0.0
 10
75.12928030392162
 20
5.396384546142262
 30
0.0
 10
73.54339391709865
 20
6.248758220308276
 30
0.0
 10
72.74744406619055
 20
6.668195935904273
 30
0.0
 10
71.1584700181701
 20
7.488830222451704
 30
0.0
 10
70.36796084313234
 20
7.889621711518364
 30
0.0
 10
68.78014631458409
 20
8.671645174452792
 30
0.0
 10
67.98406307873398
 20
9.052641668879053
 30
0.0
 10
66.39648860598817
 20
9.790327049341526
 30
0.0
 10
65.60588022417812
 20
10.14691703937422
 30
0.0
 10
64.01675536462561
 20
10.83502991366277
 30
0.0
 10
63.22085047697857
 20
11.16613192196196
 30
0.0
 10
61.6352930784836
 20
11.79876963999274
 30
0.0
 10
60.84321038804399
 20
12.10066053029685
 30
0.0
 10
59.25339471086505
 20
12.67413625385953
 30
0.0
 10
58.45797967140524
 20
12.94540587056785
 30
0.0
 10
56.87505422897041
 20
13.45410210790967
 30
0.0
 10
56.08012404114368
 20
13.69232726071612
 30
0.0
 10
54.49023795806234
 20
14.13390934976251
 30
0.0
 10
53.69762951143458
 20
14.3370750846389
 30
0.0
 10
52.11261547809178
 20
14.70712337777494
 30
0.0
 10
51.3167944315326
 20
14.87423757535122
 30
0.0
 10
50.52212643869441
 20
15.02245316348582
 30
0.0
  0
SPLINE
  5
AF
330
1F
100
AcDbEntity
  8
0
  6
Continuous
 62
     1
370
    15
100
AcDbSpline
210
0.0
220
0.0
230
1.0
 70
     8
 71
     3
 72
    15
 73
    11
 74
     0
 42
0.000000001
 43
0.00000001
 40
0.0
 40
0.0
 40
0.0
 40
0.0
 40
0.0052579531865024
 40
0.1399770469025606
 40
0.2747113490180677
 40
0.4094483713198024
 40
0.5441756184590744
 40
0.6960738648238
 40
0.8480112212552341
 40
1.0
 40
1.0
 40
1.0
 40
1.0
 10
87.29129357984581
 20
-1.513346416002596
 30
0.0
 10
87.22685305212107
 20
-1.487973894665091
 30
0.0
 10
85.5113195637467
 20
-0.812507513866302
 30
0.0
 10
82.1444001636008
 20
0.5684000034495986
 30
0.0
 10
77.19055591940105
 20
2.552418831256074
 30
0.0
 10
72.23657718234233
 20
4.461250457345429
 30
0.0
 10
67.0723141388565
 20
6.300281809186934
 30
0.0
 10
61.69717496156525
 20
7.975356528991603
 30
0.0
 10
56.1103342977821
 20
9.418097603766062
 30
0.0
 10
52.38507248836426
 20
10.04543108504631
 30
0.0
 10
50.52212643869439
 20
10.35915089604647
 30
0.0
  0
SPLINE
  5
B0
330
1F
100
AcDbEntity
  8
외형선
  6
Continuous
370
    15
100
AcDbSpline
210
0.0
220
0.0
230
1.0
 70
    24
 71
     3
 72
    14
 73
    10
 74
     0
 42
0.000000001
 43
0.00000001
 40
0.0
 40
0.0
 40
0.0
 40
0.0
 40
0.25
 40
0.25
 40
0.5
 40
0.5
 40
0.75
 40
0.75
 40
1.0
 40
1.0
 40
1.0
 40
1.0
 10
50.52212643869439
 20
15.02245316348581
 30
0.0
 10
50.52212643869439
 20
14.68869454530033
 30
0.0
 10
50.52212643869439
 20
14.327447962827
 30
0.0
 10
50.52212643869439
 20
13.56858929192955
 30
0.0
 10
50.52212643869439
 20
13.17110924543959
 30
0.0
 10
50.52212643869439
 20
12.36319394452032
 30
0.0
 10
50.52212643869439
 20
11.95290995258555
 30
0.0
 10
50.52212643869439
 20
11.14300692027276
 30
0.0
 10
50.52212643869439
 20
10.74350208859499
 30
0.0
 10
50.52212643869439
 20
10.35915089604647
 30
0.0
  0
SPLINE
  5
B1
330
1F
100
AcDbEntity
  8
0
  6
Continuous
 62
     1
370
    15
100
AcDbSpline
210
0.0
220
0.0
230
1.0
 70
     8
 71
     3
 72
    70
 73
    66
 74
     0
 42
0.000000001
 43
0.00000001
 40
0.0
 40
0.0
 40
0.0
 40
0.0
 40
0.03125
 40
0.03125
 40
0.0625
 40
0.0625
 40
0.09375
 40
0.09375
 40
0.125
 40
0.125
 40
0.15625
 40
0.15625
 40
0.1875
 40
0.1875
 40
0.21875
 40
0.21875
 40
0.25
 40
0.25
 40
0.28125
 40
0.28125
 40
0.3125
 40
0.3125
 40
0.34375
 40
0.34375
 40
0.375
 40
0.375
 40
0.40625
 40
0.40625
 40
0.4375
 40
0.4375
 40
0.46875
 40
0.46875
 40
0.5
 40
0.5
 40
0.53125
 40
0.53125
 40
0.5625
 40
0.5625
 40
0.59375
 40
0.59375
 40
0.625
 40
0.625
 40
0.65625
 40
0.65625
 40
0.6875
 40
0.6875
 40
0.71875
 40
0.71875
 40
0.75
 40
0.75
 40
0.78125
 40
0.78125
 40
0.8125
 40
0.8125
 40
0.84375
 40
0.84375
 40
0.875
 40
0.875
 40
0.90625
 40
0.90625
 40
0.9375
 40
0.9375
 40
0.96875
 40
0.96875
 40
1.0
 40
1.0
 40
1.0
 40
1.0
 10
126.7221264386944
 20
-15.06443629905641
 30
0.0
 10
125.9308323597269
 20
-14.92002286398576
 30
0.0
 10
125.1354925428227
 20
-14.75653691870385
 30
0.0
 10
123.5456376693826
 20
-14.39308567225693
 30
0.0
 10
122.7533009365932
 20
-14.19332514817617
 30
0.0
 10
121.1680112655214
 20
-13.75884775241217
 30
0.0
 10
120.3721462939334
 20
-13.52382894824094
 30
0.0
 10
118.7829118832028
 20
-13.02078630375062
 30
0.0
 10
117.992205375324
 20
-12.75309724097319
 30
0.0
 10
116.4048287258524
 20
-12.18587873477119
 30
0.0
 10
115.6087500473897
 20
-11.88637042362099
 30
0.0
 10
114.0207557551762
 20
-11.25890894930027
 30
0.0
 10
113.2303044977117
 20
-10.9311976865155
 30
0.0
 10
111.6414581119597
 20
-10.24818719718707
 30
0.0
 10
110.8454774538087
 20
-9.893190637863345
 30
0.0
 10
109.2593413243182
 20
-9.160245621516392
 30
0.0
 10
108.4677700114649
 20
-8.782109984506501
 30
0.0
 10
106.878073040815
 20
-8.003780958356602
 30
0.0
 10
106.0825020020094
 20
-7.603979713078996
 30
0.0
 10
104.4988396675425
 20
-6.787666614103053
 30
0.0
 10
103.7047744470768
 20
-6.370137122375027
 30
0.0
 10
102.1148471488519
 20
-5.519862416018504
 30
0.0
 10
101.3215558643373
 20
-5.087582438707103
 30
0.0
 10
99.73719731293912
 20
-4.211818801228027
 30
0.0
 10
98.94149093451844
 20
-3.767472775406903
 30
0.0
 10
97.35195386564052
 20
-2.870809712878185
 30
0.0
 10
96.56080268411529
 20
-2.41901081538062
 30
0.0
 10
94.97412871166104
 20
-1.509675509563592
 30
0.0
 10
94.17809297829528
 20
-1.052034232520086
 30
0.0
 10
92.58956618812594
 20
-0.1359419739262576
 30
0.0
 10
91.79918071219669
 20
0.3221005762804513
 30
0.0
 10
90.21080764875492
 20
1.237698299158173
 30
0.0
 10
89.41475423148123
 20
1.694877499953961
 30
0.0
 10
87.82785645604822
 20
2.60286378443176
 30
0.0
 10
87.03686129452456
 20
3.053707409833809
 30
0.0
 10
85.44740767637205
 20
3.948046114007366
 30
0.0
 10
84.65164826934816
 20
4.391019695588388
 30
0.0
 10
83.06699612915506
 20
5.263631990950956
 30
0.0
 10
82.27401668216906
 20
5.694030184249045
 30
0.0
 10
80.68410245014516
 20
6.540219033240105
 30
0.0
 10
79.8896676526895
 20
6.955555547077014
 30
0.0
 10
78.30632471598791
 20
7.76689141132187
 30
0.0
 10
77.510819808782
 20
8.164010669075575
 30
0.0
 10
75.92106550281133
 20
8.936613214193436
 30
0.0
 10
75.12928030392035
 20
9.311720924037578
 30
0.0
 10
73.54339391709733
 20
10.03813160102151
 30
0.0
 10
72.74744406618922
 20
10.38968721300114
 30
0.0
 10
71.15847001816873
 20
11.06550039294654
 30
0.0
 10
70.36796084313096
 20
11.38944466060534
 30
0.0
 10
68.78014631458265
 20
12.00900692417651
 30
0.0
 10
67.98406307873253
 20
12.30441706571318
 30
0.0
 10
66.39648860598668
 20
12.86318103455323
 30
0.0
 10
65.60588022417662
 20
13.12648206262937
 30
0.0
 10
64.01675536462406
 20
13.62049371929363
 30
0.0
 10
63.22085047697699
 20
13.85087848523687
 30
0.0
 10
61.63529307848201
 20
14.27589507991043
 30
0.0
 10
60.84321038804238
 20
14.47078326800699
 30
0.0
 10
59.25339471086339
 20
14.82433872232948
 30
0.0
 10
58.45797967140356
 20
14.98279208037676
 30
0.0
 10
56.87505422896871
 20
15.26143264421716
 30
0.0
 10
56.08012404114194
 20
15.38206002368041
 30
0.0
 10
54.49023795806055
 20
15.5845087692963
 30
0.0
 10
53.69762951143279
 20
15.66626059292965
 30
0.0
 10
52.11261547808992
 20
15.79047943049745
 30
0.0
 10
51.31679443153074
 20
15.83299876616753
 30
0.0
 10
50.5221264386925
 20
15.85563557177596
 30
0.0
  0
SPLINE
  5
B2
330
1F
100
AcDbEntity
  8
0
  6
Continuous
 62
     1
370
    15
100
AcDbSpline
210
0.0
220
0.0
230
1.0
 70
     8
 71
     3
 72
    16
 73
    12
 74
     0
 42
0.000000001
 43
0.00000001
 40
0.0
 40
0.0
 40
0.0
 40
0.0
 40
0.120205899190398
 40
0.2404375099225066
 40
0.3606841702494072
 40
0.4809351790506298
 40
0.6011798238765531
 40
0.7214074088561704
 40
0.8416085685417813
 40
0.9618201179763205
 40
1.0
 40
1.0
 40
1.0
 40
1.0
 10
126.7221264386944
 20
-12.52493469684543
 30
0.0
 10
125.0714743824699
 20
-12.18426191914132
 30
0.0
 10
121.7698172024138
 20
-11.50284349524336
 30
0.0
 10
116.8167312163346
 20
-9.999961186746075
 30
0.0
 10
111.8629499765878
 20
-8.202528999916865
 30
0.0
 10
106.9089574675262
 20
-6.131613232933701
 30
0.0
 10
101.9552721716529
 20
-3.865098717865383
 30
0.0
 10
97.00235629163743
 20
-1.470411496264018
 30
0.0
 10
92.05013637805419
 20
0.9619350947061992
 30
0.0
 10
88.22451202071977
 20
2.845709259359367
 30
0.0
 10
86.04939938235216
 20
3.844243849611607
 30
0.0
 10
85.52509359663802
 20
4.084938264084717
 30
0.0
  0
LINE
  5
B3
330
1F
100
AcDbEntity
  8
0
  6
Continuous
 62
     1
370
    15
100
AcDbLine
 10
126.7221264386944
 20
-15.06443629905641
 30
0.0
 11
126.7221264386944
 21
-12.52493469684543
 31
0.0
  0
LINE
  5
B4
330
1F
100
AcDbEntity
  8
0
  6
Continuous
 62
     1
370
    15
100
AcDbLine
 10
126.7221264386944
 20
-15.87499999999998
 30
0.0
 11
126.7221264386938
 21
-15.06443629905641
 31
0.0
  0
SPLINE
  5
B5
330
1F
100
AcDbEntity
  8
0
  6
Continuous
 62
     1
370
    15
100
AcDbSpline
210
0.0
220
0.0
230
1.0
 70
     8
 71
     3
 72
    17
 73
    13
 74
     0
 42
0.000000001
 43
0.00000001
 40
0.0
 40
0.0
 40
0.0
 40
0.0
 40
0.0975244306799468
 40
0.1950487421911916
 40
0.2925729488525505
 40
0.3900970649862241
 40
0.5038116518642051
 40
0.6175098793146087
 40
0.7311827671101709
 40
0.8448656196187901
 40
0.958571207180739
 40
1.0
 40
1.0
 40
1.0
 40
1.0
 10
123.9015667056316
 20
1.300194242658497
 30
0.0
 10
122.4855047748985
 20
1.947822277596496
 30
0.0
 10
119.6533826437706
 20
3.243077556111892
 30
0.0
 10
115.4052129077754
 20
5.100395991782741
 30
0.0
 10
111.1570075813964
 20
6.838445518208133
 30
0.0
 10
106.6738783251195
 20
8.500048859956859
 30
0.0
 10
101.9552229756491
 20
10.00809900321646
 30
0.0
 10
97.00235207821956
 20
11.26539222893074
 30
0.0
 10
92.05011134818454
 20
12.16545300653547
 30
0.0
 10
87.09767201840629
 20
12.64483478753337
 30
0.0
 10
83.19414877715113
 20
12.77926217470674
 30
0.0
 10
80.94139370390238
 20
12.61194189262674
 30
0.0
 10
80.33979318844717
 20
12.56725884246262
 30
0.0
  0
SPLINE
  5
B6
330
1F
100
AcDbEntity
  8
0
  6
Continuous
 62
     1
370
    15
100
AcDbSpline
210
0.0
220
0.0
230
1.0
 70
     8
 71
     3
 72
     8
 73
     4
 74
     0
 42
0.000000001
 43
0.00000001
 40
0.0
 40
0.0
 40
0.0
 40
0.0
 40
1.0
 40
1.0
 40
1.0
 40
1.0
 10
123.9015667056316
 20
1.300194242658502
 30
0.0
 10
123.8845308605754
 20
0.2921095860622965
 30
0.0
 10
123.7587272622952
 20
-0.6903983468759748
 30
0.0
 10
123.5450144222507
 20
-1.652234432534701
 30
0.0
  0
SPLINE
  5
B7
330
1F
100
AcDbEntity
  8
0
  6
Continuous
 62
     1
370
    15
100
AcDbSpline
210
0.0
220
0.0
230
1.0
 70
     8
 71
     3
 72
     8
 73
     4
 74
     0
 42
0.000000001
 43
0.00000001
 40
0.0
 40
0.0
 40
0.0
 40
0.0
 40
1.0
 40
1.0
 40
1.0
 40
1.0
 10
126.7221264386944
 20
-4.242481768220599
 30
0.0
 10
125.6539069427007
 20
-3.40268724311036
 30
0.0
 10
124.594882667182
 20
-2.539237859000435
 30
0.0
 10
123.5450144222507
 20
-1.652234432534694
 30
0.0
  0
SPLINE
  5
B8
330
1F
100
AcDbEntity
  8
0
  6
Continuous
 62
     1
370
    15
100
AcDbSpline
210
0.0
220
0.0
230
1.0
 70
    24
 71
     3
 72
    14
 73
    10
 74
     0
 42
0.000000001
 43
0.00000001
 40
0.0
 40
0.0
 40
0.0
 40
0.0
 40
0.25
 40
0.25
 40
0.5
 40
0.5
 40
0.75
 40
0.75
 40
1.0
 40
1.0
 40
1.0
 40
1.0
 10
126.7221264386944
 20
-12.52493469684542
 30
0.0
 10
126.7221264386944
 20
-12.04486774864041
 30
0.0
 10
126.7221264386944
 20
-11.50271046987281
 30
0.0
 10
126.7221264386944
 20
-10.30352123776152
 30
0.0
 10
126.7221264386944
 20
-9.646511261890645
 30
0.0
 10
126.7221264386944
 20
-8.236264171641572
 30
0.0
 10
126.7221264386944
 20
-7.483105696757495
 30
0.0
 10
126.7221264386944
 20
-5.907098256972247
 30
0.0
 10
126.7221264386944
 20
-5.084368713330318
 30
0.0
 10
126.7221264386944
 20
-4.242481768221106
 30
0.0
  0
SPLINE
  5
B9
330
1F
100
AcDbEntity
  8
0
  6
Continuous
 62
     1
370
    15
100
AcDbSpline
210
0.0
220
0.0
230
1.0
 70
    24
 71
     3
 72
    10
 73
     6
 74
     0
 42
0.000000001
 43
0.00000001
 40
0.0
 40
0.0
 40
0.0
 40
0.0
 40
0.5
 40
0.5
 40
1.0
 40
1.0
 40
1.0
 40
1.0
 10
121.7221264386944
 20
4.691538593597908
 30
0.0
 10
121.7221264386944
 20
5.728628384846501
 30
0.0
 10
121.7221264386944
 20
6.684238768094229
 30
0.0
 10
121.7221264386944
 20
8.33674841224509
 30
0.0
 10
121.7221264386944
 20
9.032833253919858
 30
0.0
 10
121.7221264386944
 20
9.570389447124668
 30
0.0
  0
SPLINE
  5
BA
330
1F
100
AcDbEntity
  8
0
  6
Continuous
 62
     1
370
    15
100
AcDbSpline
210
0.0
220
0.0
230
1.0
 70
     8
 71
     3
 72
     9
 73
     5
 74
     0
 42
0.000000001
 43
0.00000001
 40
0.0
 40
0.0
 40
0.0
 40
0.0
 40
0.8386368205581692
 40
0.9999999999999999
 40
0.9999999999999999
 40
0.9999999999999999
 40
0.9999999999999999
 10
126.7221264386944
 20
11.1125
 30
0.0
 10
125.0714768136267
 20
11.10200804395075
 30
0.0
 10
123.1032235905341
 20
11.08949731726663
 30
0.0
 10
121.1349025431069
 20
10.86611193790648
 30
0.0
 10
120.8172880007318
 20
10.83006576285211
 30
0.0
  0
SPLINE
  5
BB
330
1F
100
AcDbEntity
  8
0
  6
Continuous
 62
     1
370
    15
100
AcDbSpline
210
0.0
220
0.0
230
1.0
 70
     8
 71
     3
 72
     8
 73
     4
 74
     0
 42
0.000000001
 43
0.00000001
 40
0.0
 40
0.0
 40
0.0
 40
0.0
 40
1.0
 40
1.0
 40
1.0
 40
1.0
 10
126.7221264386944
 20
11.11250000000001
 30
0.0
 10
125.0447202006335
 20
10.65780123202017
 30
0.0
 10
123.3777847555467
 20
10.14524943066149
 30
0.0
 10
121.7221264386944
 20
9.570389447124668
 30
0.0
  0
SPLINE
  5
BC
330
1F
100
AcDbEntity
  8
0
  6
Continuous
 62
     1
370
    15
100
AcDbSpline
210
0.0
220
0.0
230
1.0
 70
     8
 71
     3
 72
     8
 73
     4
 74
     0
 42
0.000000001
 43
0.00000001
 40
0.0
 40
0.0
 40
0.0
 40
0.0
 40
1.0
 40
1.0
 40
1.0
 40
1.0
 10
121.7221264386944
 20
4.691538593597905
 30
0.0
 10
122.5646921135841
 20
3.688219129697092
 30
0.0
 10
123.2982713935369
 20
2.5655455402726
 30
0.0
 10
123.9015667056316
 20
1.3001942426585
 30
0.0
  0
LINE
  5
BD
330
1F
100
AcDbEntity
  8
0
  6
Continuous
 62
     1
370
    15
100
AcDbLine
 10
123.6362305757653
 20
1.813099250365636
 30
0.0
 11
126.7221264386944
 21
0.0000000000000137
 31
0.0
  0
LINE
  5
BE
330
1F
100
AcDbEntity
  8
0
  6
Continuous
 62
     1
370
    15
100
AcDbLine
 10
126.7221264386944
 20
0.0000000000000137
 30
0.0
 11
126.7221264386944
 21
-4.242481768220601
 31
0.0
  0
SPLINE
  5
BF
330
1F
100
AcDbEntity
  8
0
  6
Continuous
 62
     1
370
    15
100
AcDbSpline
210
0.0
220
0.0
230
1.0
 70
     8
 71
     3
 72
    17
 73
    13
 74
     0
 42
0.000000001
 43
0.00000001
 40
0.0
 40
0.0
 40
0.0
 40
0.0
 40
0.0248113619512768
 40
0.1411031799615325
 40
0.2574182547833997
 40
0.3737461184571952
 40
0.4900762696456173
 40
0.6063982010369153
 40
0.7047995899504957
 40
0.8032002940925949
 40
0.9016004014317084
 40
1.0
 40
1.0
 40
1.0
 40
1.0
 10
93.10681523830681
 20
-11.90555468946785
 30
0.0
 10
92.75462393830192
 20
-11.97095826224152
 30
0.0
 10
90.75169832369566
 20
-12.34291092317696
 30
0.0
 10
87.09767381895163
 20
-12.64130167457553
 30
0.0
 10
82.14442357422573
 20
-12.75808151676935
 30
0.0
 10
77.19055298714966
 20
-12.42940730967736
 30
0.0
 10
72.23661511108968
 20
-11.70725611226034
 30
0.0
 10
67.53703686675439
 20
-10.66024233374407
 30
0.0
 10
63.09259043165068
 20
-9.38697144937855
 30
0.0
 10
58.90238856335493
 20
-7.96685104536432
 30
0.0
 10
54.71225255328552
 20
-6.369749108607404
 30
0.0
 10
51.91883273635516
 20
-5.187550543149734
 30
0.0
 10
50.52212643869439
 20
-4.596452788543448
 30
0.0
  0
SPLINE
  5
C0
330
1F
100
AcDbEntity
  8
외형선
  6
Continuous
370
    15
100
AcDbSpline
210
0.0
220
0.0
230
1.0
 70
    24
 71
     3
 72
    14
 73
    10
 74
     0
 42
0.000000001
 43
0.00000001
 40
0.0
 40
0.0
 40
0.0
 40
0.0
 40
0.2499999999999998
 40
0.2499999999999998
 40
0.4999999999999999
 40
0.4999999999999999
 40
0.75
 40
0.75
 40
1.0
 40
1.0
 40
1.0
 40
1.0
 10
50.52212643869439
 20
10.35915089604647
 30
0.0
 10
50.52212643869439
 20
9.582756945670196
 30
0.0
 10
50.52212643869439
 20
8.637707314538986
 30
0.0
 10
50.52212643869439
 20
6.454749135365304
 30
0.0
 10
50.52212643869439
 20
5.217332327574907
 30
0.0
 10
50.52212643869439
 20
2.559290366167045
 30
0.0
 10
50.52212643869439
 20
1.140081528434632
 30
0.0
 10
50.52212643869439
 20
-1.735563022997713
 30
0.0
 10
50.52212643869439
 20
-3.190534081060123
 30
0.0
 10
50.52212643869439
 20
-4.596452788543438
 30
0.0
  0
SPLINE
  5
C1
330
1F
100
AcDbEntity
  8
0
  6
Continuous
 62
     1
370
    15
100
AcDbSpline
210
0.0
220
0.0
230
1.0
 70
     8
 71
     3
 72
     9
 73
     5
 74
     0
 42
0.000000001
 43
0.00000001
 40
0.0
 40
0.0
 40
0.0
 40
0.0
 40
0.2965154081126242
 40
1.0
 40
1.0
 40
1.0
 40
1.0
 10
56.47837564988802
 20
-13.17192232764683
 30
0.0
 10
55.88966871479482
 20
-13.24070581679031
 30
0.0
 10
53.90425102995869
 20
-13.47267854826249
 30
0.0
 10
51.91883560127138
 20
-13.48457665415625
 30
0.0
 10
50.52212643869439
 20
-13.49294678832516
 30
0.0
  0
SPLINE
  5
C2
330
1F
100
AcDbEntity
  8
외형선
  6
Continuous
370
    15
100
AcDbSpline
210
0.0
220
0.0
230
1.0
 70
    24
 71
     3
 72
    14
 73
    10
 74
     0
 42
0.000000001
 43
0.00000001
 40
0.0
 40
0.0
 40
0.0
 40
0.0
 40
0.2500000000000001
 40
0.2500000000000001
 40
0.5000000000000002
 40
0.5000000000000002
 40
0.7500000000000001
 40
0.7500000000000001
 40
1.0
 40
1.0
 40
1.0
 40
1.0
 10
50.52212643869439
 20
-4.596452788543443
 30
0.0
 10
50.52212643869439
 20
-5.678900030011934
 30
0.0
 10
50.52212643869439
 20
-6.726217482642259
 30
0.0
 10
50.52212643869439
 20
-8.66544071741198
 30
0.0
 10
50.52212643869439
 20
-9.55665607704995
 30
0.0
 10
50.52212643869439
 20
-11.11153882544168
 30
0.0
 10
50.52212643869439
 20
-11.77475721125789
 30
0.0
 10
50.52212643869439
 20
-12.83409643281526
 30
0.0
 10
50.52212643869439
 20
-13.23021970349085
 30
0.0
 10
50.52212643869439
 20
-13.49294678832515
 30
0.0
  0
LINE
  5
C3
330
1F
100
AcDbEntity
  8
0
  6
Continuous
 62
     1
370
    15
100
AcDbLine
 10
126.7221264386944
 20
0.0000000000000137
 30
0.0
 11
126.7221264386944
 21
11.11250000000001
 31
0.0
  0
SPLINE
  5
C4
330
1F
100
AcDbEntity
  8
0
  6
Continuous
 62
     1
370
    15
100
AcDbSpline
210
0.0
220
0.0
230
1.0
 70
     8
 71
     3
 72
    11
 73
     7
 74
     0
 42
0.000000001
 43
0.00000001
 40
0.0
 40
0.0
 40
0.0
 40
0.0
 40
0.1463266294672029
 40
0.4308807240171321
 40
0.7154419333510714
 40
1.0
 40
1.0
 40
1.0
 40
1.0
 10
67.35629538964234
 20
-12.47821392573804
 30
0.0
 10
66.53521166379491
 20
-12.77827360456475
 30
0.0
 10
64.11740738879705
 20
-13.66184436767167
 30
0.0
 10
60.10277187001618
 20
-14.69169359880696
 30
0.0
 10
55.31245076658469
 20
-15.58287519128034
 30
0.0
 10
52.11889533636989
 20
-15.76471577965288
 30
0.0
 10
50.5221264386925
 20
-15.85563557177595
 30
0.0
  0
SPLINE
  5
C5
330
1F
100
AcDbEntity
  8
외형선
  6
Continuous
370
    15
100
AcDbSpline
210
0.0
220
0.0
230
1.0
 70
    24
 71
     3
 72
     8
 73
     4
 74
     0
 42
0.000000001
 43
0.00000001
 40
0.0
 40
0.0
 40
0.0
 40
0.0
 40
1.0
 40
1.0
 40
1.0
 40
1.0
 10
50.52212643869439
 20
-13.49294678832516
 30
0.0
 10
50.52212643869439
 20
-14.30102015066553
 30
0.0
 10
50.52212643869439
 20
-15.09373578099008
 30
0.0
 10
50.52212643869439
 20
-15.85563557176709
 30
0.0
  0
SPLINE
  5
C6
330
1F
100
AcDbEntity
  8
0
  6
Continuous
 62
     1
370
    15
100
AcDbSpline
210
0.0
220
0.0
230
1.0
 70
     8
 71
     3
 72
    12
 73
     8
 74
     0
 42
0.000000001
 43
0.00000001
 40
0.0
 40
0.0
 40
0.0
 40
0.0
 40
0.1201991853353063
 40
0.3401761825921784
 40
0.5601405827765972
 40
0.7800844806420226
 40
1.0
 40
1.0
 40
1.0
 40
1.0
 10
104.946421805507
 20
10.63729689767986
 30
0.0
 10
105.8189180867299
 20
11.01632010677666
 30
0.0
 10
108.2881732105836
 20
12.08899516713343
 30
0.0
 10
112.3540820395927
 20
13.47880453809717
 30
0.0
 10
117.1439532061439
 20
14.75726882258391
 30
0.0
 10
121.9333000952107
 20
15.60797655951582
 30
0.0
 10
125.1259196505142
 20
15.77705095042231
 30
0.0
 10
126.7221264386944
 20
15.87500000000002
 30
0.0
  0
SPLINE
  5
C7
102
{ACAD_REACTORS
102
}
330
1F
100
AcDbEntity
  8
0
  6
Continuous
 62
     1
370
    15
100
AcDbSpline
210
0.0
220
0.0
230
1.0
 70
    24
 71
     3
 72
    14
 73
    10
 74
     0
 42
0.000000001
 43
0.00000001
 40
0.0
 40
0.0
 40
0.0
 40
0.0
 40
0.25
 40
0.25
 40
0.5
 40
0.5
 40
0.75
 40
0.75
 40
1.0
 40
1.0
 40
1.0
 40
1.0
 10
126.7221264386944
 20
11.1125
 30
0.0
 10
126.7221264386944
 20
11.44930603840805
 30
0.0
 10
126.7221264386944
 20
11.81258118427563
 30
0.0
 10
126.7221264386944
 20
12.57771108481404
 30
0.0
 10
126.7221264386944
 20
12.97948956501251
 30
0.0
 10
126.7221264386944
 20
13.80064530850656
 30
0.0
 10
126.7221264386944
 20
14.21988443375764
 30
0.0
 10
126.7221264386944
 20
15.05166832183919
 30
0.0
 10
126.7221264386944
 20
15.46406174255949
 30
0.0
 10
126.7221264386944
 20
15.87500000000002
 30
0.0
  0
LINE
  5
C8
330
1F
100
AcDbEntity
  8
중심선
100
AcDbLine
 10
-60.42787356130562
 20
-0.0000000000000001
 30
0.0
 11
129.7221264386944
 21
0.0000000000000232
 31
0.0
  0
LINE
  5
C9
330
1F
100
AcDbEntity
  8
참조1
100
AcDbLine
 10
34.64712643869439
 20
-0.0000000000000006
 30
0.0
 11
34.64712643869439
 21
-40.0
 31
0.0
  0
LINE
  5
CA
330
1F
100
AcDbEntity
  8
참조1
100
AcDbLine
 10
34.64712643869439
 20
-40.0
 30
0.0
 11
15.52206390339476
 21
-39.99999999999999
 31
0.0
  0
CIRCLE
  5
CB
330
1F
100
AcDbEntity
  8
해칭선
100
AcDbCircle
 10
0.0
 20
0.0000000000000018
 30
0.0
 40
2.999999999999996
  0
INSERT
  5
CC
330
1F
100
AcDbEntity
  8
0
  6
Continuous
 62
     7
100
AcDbBlockReference
 66
     1
  2
블럭10
 10
20.70685350656919
 20
-52.04717430164393
 30
0.0
  0
ATTRIB
  5
CD
330
CC
100
AcDbEntity
  8
FORMAT
 62
     2
100
AcDbText
 10
11.52555821782791
 20
-49.97180738881174
 30
0.0
 40
4.233333333333333
  1
E1033116 [ 2 FLUTE ]
 41
0.75
  7
SLDTEXTSTYLE0
 11
11.52555821782791
 21
-52.08847405547841
 31
0.0
100
AcDbAttribute
  2
AUTOATTR0
 70
     0
 74
     1
  0
SEQEND
  5
CE
330
CC
100
AcDbEntity
  8
0
  6
Continuous
 62
     7
  0
HATCH
  5
CF
330
1F
100
AcDbEntity
  8
중심선
100
AcDbHatch
 10
0.0
 20
0.0
 30
0.0
210
0.0
220
0.0
230
1.0
  2
SOLID
 70
     1
 71
     0
 91
        1
 92
        0
 93
        4
 72
     1
 10
26.42176281095002
 20
-35.79999999999999
 11
22.97548756711274
 21
-35.79999999999999
 72
     1
 10
22.97548756711274
 20
-35.79999999999999
 11
20.84725770790872
 21
-38.33632558057256
 72
     1
 10
20.84725770790872
 20
-38.33632558057256
 11
24.29356603685915
 21
-38.33628615127008
 72
     1
 10
24.29356603685915
 20
-38.33628615127008
 11
26.42176281095002
 21
-35.79999999999999
 97
        0
 75
     0
 76
     1
 98
        1
 10
35.67286512466323
 20
-0.0010749287238898
  0
HATCH
  5
D0
330
1F
100
AcDbEntity
  8
중심선
100
AcDbHatch
 10
0.0
 20
0.0
 30
0.0
210
0.0
220
0.0
230
1.0
  2
SOLID
 70
     1
 71
     0
 91
        1
 92
        0
 93
        4
 72
     1
 10
31.434526801986
 20
-35.79999999999999
 11
27.98825155814874
 21
-35.79999999999997
 72
     1
 10
27.98825155814874
 20
-35.79999999999997
 11
23.45711354979129
 21
-41.20000000000001
 72
     1
 10
23.45711354979129
 20
-41.20000000000001
 11
26.90338879362858
 21
-41.20000000000001
 72
     1
 10
26.90338879362858
 20
-41.20000000000001
 11
31.434526801986
 21
-35.79999999999999
 97
        0
 75
     0
 76
     1
 98
        1
 10
35.67286512466323
 20
-0.0010749287238898
  0
HATCH
  5
D1
330
1F
100
AcDbEntity
  8
중심선
100
AcDbHatch
 10
0.0
 20
0.0
 30
0.0
210
0.0
220
0.0
230
1.0
  2
SOLID
 70
     1
 71
     0
 91
        1
 92
        0
 93
        4
 72
     1
 10
36.44729079302189
 20
-35.79999999999999
 11
33.00101554918475
 21
-35.79999999999997
 72
     1
 10
33.00101554918475
 20
-35.79999999999997
 11
25.9525786472955
 21
-44.20000000000001
 72
     1
 10
25.9525786472955
 20
-44.20000000000001
 11
29.39885389113279
 21
-44.20000000000001
 72
     1
 10
29.39885389113278
 20
-44.20000000000001
 11
36.44729079302189
 21
-35.79999999999999
 97
        0
 75
     0
 76
     1
 98
        1
 10
35.67286512466323
 20
-0.0010749287238898
  0
HATCH
  5
D2
330
1F
100
AcDbEntity
  8
중심선
100
AcDbHatch
 10
0.0
 20
0.0
 30
0.0
210
0.0
220
0.0
230
1.0
  2
SOLID
 70
     1
 71
     0
 91
        1
 92
        0
 93
        6
 72
     3
 10
41.24718122403407
 20
-40.00000000005127
 11
3.960054785062283
 21
1.540882976769353E-10
 40
0.3939339440162628
 50
17.09539180608436
 51
320.0019657685075
 73
     0
 72
     1
 10
42.93018087973464
 20
-38.5878940046383
 11
45.2354827534357
 21
-36.65356729459038
 72
     3
 10
41.24718122398122
 20
-40.00000000000014
 11
6.600054785286822
 21
-1.278976924368180E-13
 40
0.6363583540795986
 50
39.99873849337413
 51
368.4976242363725
 73
     1
 72
     1
 10
47.67251371588183
 20
-39.03999999993002
 11
39.92724853081715
 21
-39.03999999993002
 72
     1
 10
39.92724853081715
 20
-39.03999999993002
 11
39.92722348637121
 21
-40.95999999992991
 72
     1
 10
39.92722348637121
 20
-40.95999999992991
 11
44.36860325584325
 21
-40.95999999992988
 97
        0
 75
     0
 76
     1
 98
        1
 10
35.67286512466323
 20
-0.0010749287238898
  0
DIMENSION
  5
D3
330
1F
100
AcDbEntity
  8
치수문자_일반주서
100
AcDbDimension
  2
_D
 10
-69.92787356130552
 20
-15.87500000000005
 30
0.0
 11
-69.92787356130557
 21
0.0000000000000173
 31
0.0
 70
   160
  1
%%c<>
 71
     2
 42
31.75
 52
-270.0
  3
SLDDIMSTYLE0
100
AcDbAlignedDimension
 13
-56.4278735613056
 23
15.875
 33
0.0
 14
-56.4278735613056
 24
-15.875
 34
0.0
 50
90.0000000000002
100
AcDbRotatedDimension
1001
ACAD
1000
DSTYLE
1002
{
1070
   171
1070
     6
1070
   273
1070
     7
1002
}
  0
DIMENSION
  5
E6
330
1F
100
AcDbEntity
  8
치수문자_일반주서
100
AcDbDimension
  2
_D_1
 10
50.52212643869439
 20
29.03792442259353
 30
0.0
 11
84.73661169918876
 21
29.03792442259353
 31
0.0
 70
   160
  1
<>
 71
     2
 42
76.19999999999999
  3
SLDDIMSTYLE0
100
AcDbAlignedDimension
 13
126.7221264386944
 23
15.87500000000002
 33
0.0
 14
50.52212643869439
 24
15.85563557177589
 34
0.0
100
AcDbRotatedDimension
1001
ACAD
1000
DSTYLE
1002
{
1070
   171
1070
     6
1070
   273
1070
     7
1002
}
  0
DIMENSION
  5
FB
330
1F
100
AcDbEntity
  8
치수문자_일반주서
100
AcDbDimension
  2
_D_2
 10
-57.42787356130562
 20
54.25772202592247
 30
0.0
 11
34.64712643869438
 21
54.25772202592247
 31
0.0
 70
   160
  1
<>
 71
     2
 42
184.15
  3
SLDDIMSTYLE0
100
AcDbAlignedDimension
 13
126.7221264386944
 23
15.87500000000002
 33
0.0
 14
-57.42787356130562
 24
14.87499999999999
 34
0.0
 50
0.0000000000000044
100
AcDbRotatedDimension
1001
ACAD
1000
DSTYLE
1002
{
1070
   171
1070
     6
1070
   273
1070
     7
1002
}
  0
DIMENSION
  5
10E
330
1F
100
AcDbEntity
  8
치수문자_일반주서
100
AcDbDimension
  2
_D_3
 10
160.727214996713
 20
15.87500000000015
 30
0.0
 11
160.7272149967129
 21
37.49431335776145
 31
0.0
 70
   160
  1
%%c<>
 71
     2
 42
31.75
 52
-270.0
  3
SLDDIMSTYLE0
100
AcDbAlignedDimension
 13
126.7221264386944
 23
-15.87499999999998
 33
0.0
 14
126.7221264386944
 24
15.87500000000002
 34
0.0
 50
90.0000000000002
100
AcDbRotatedDimension
1001
ACAD
1000
DSTYLE
1002
{
1070
   171
1070
     6
1070
   273
1070
     7
1002
}
  0
LINE
  5
121
330
1F
100
AcDbEntity
  8
참조1
100
AcDbLine
 10
113.494404533049
 20
7.440000000000007
 30
0.0
 11
113.494404533049
 21
-7.439999999999999
 31
0.0
  0
LINE
  5
122
330
1F
100
AcDbEntity
  8
참조1
100
AcDbLine
 10
126.194404533049
 20
5.440000000000007
 30
0.0
 11
113.494404533049
 21
5.440000000000007
 31
0.0
  0
SOLID
  5
123
330
1F
100
AcDbEntity
  8
참조1
100
AcDbTrace
 10
113.494404533049
 20
5.440000000000007
 30
0.0
 11
119.844404533049
 21
4.424000000000007
 31
0.0
 12
119.844404533049
 22
6.456000000000007
 32
0.0
 13
119.844404533049
 23
6.456000000000007
 33
0.0
  0
LINE
  5
124
330
1F
100
AcDbEntity
  8
참조1
100
AcDbLine
 10
126.194404533049
 20
-5.439999999999999
 30
0.0
 11
113.494404533049
 21
-5.439999999999999
 31
0.0
  0
SOLID
  5
125
330
1F
100
AcDbEntity
  8
참조1
100
AcDbTrace
 10
113.494404533049
 20
-5.439999999999999
 30
0.0
 11
119.844404533049
 21
-6.455999999999999
 31
0.0
 12
119.844404533049
 22
-4.423999999999999
 32
0.0
 13
119.844404533049
 23
-4.423999999999999
 33
0.0
  0
MTEXT
  5
126
330
1F
100
AcDbEntity
  8
참조1
100
AcDbMText
 10
122.878754665675
 20
11.01029177718833
 30
0.0
 40
3.5
 41
0.0
 71
     1
 72
     1
  1
A
  7
SLDTEXTSTYLE0
 73
     1
 44
1.0
  0
MTEXT
  5
127
330
1F
100
AcDbEntity
  8
참조1
100
AcDbMText
 10
122.878754665675
 20
0.1302917771883294
 30
0.0
 40
3.5
 41
0.0
 71
     1
 72
     1
  1
A
  7
SLDTEXTSTYLE0
 73
     1
 44
1.0
  0
INSERT
  5
12E
330
1F
100
AcDbEntity
  8
해칭선
100
AcDbBlockReference
  2
SW_DOWELSYMBOL_0
 10
0.0
 20
0.0000000000000018
 30
0.0
  0
LINE
  5
332
330
1F
100
AcDbEntity
  8
외형선
  6
Continuous
370
    15
100
AcDbLine
 10
-35.00919856130562
 20
13.48739999999998
 30
0.0
 11
-21.9027985613056
 21
13.48739999999998
 31
0.0
  0
LINE
  5
333
330
1F
100
AcDbEntity
  8
외형선
  6
Continuous
370
    15
100
AcDbLine
 10
-21.9027985613056
 20
13.48739999999998
 30
0.0
 11
-19.51519856130558
 21
15.87500000000001
 31
0.0
  0
LINE
  5
334
330
1F
100
AcDbEntity
  8
외형선
  6
Continuous
370
    15
100
AcDbLine
 10
-35.00919856130562
 20
13.48739999999998
 30
0.0
 11
-37.39679856130564
 21
15.87500000000001
 31
0.0
  0
LINE
  5
336
330
1F
100
AcDbEntity
  8
외형선
  6
Continuous
370
    15
100
AcDbLine
 10
-57.42787356130562
 20
13.48739999999998
 30
0.0
 11
-44.72787356130564
 21
13.48739999999998
 31
0.0
  0
LINE
  5
337
330
1F
100
AcDbEntity
  8
외형선
  6
Continuous
370
    15
100
AcDbLine
 10
-44.72787356130564
 20
13.48739999999998
 30
0.0
 11
-42.34027356130573
 21
15.87499999999998
 31
0.0
  0
LINE
  5
338
330
1F
100
AcDbEntity
  8
외형선
  6
Continuous
370
    15
100
AcDbLine
 10
-37.39679856130565
 20
15.875
 30
0.0
 11
-42.34027356130571
 21
15.875
 31
0.0
  0
LINE
  5
382
330
1F
100
AcDbEntity
  8
외형선
  6
Continuous
370
    15
100
AcDbLine
 10
0.0
 20
-15.875
 30
0.0
 11
0.0
 21
15.875
 31
0.0
  0
LINE
  5
383
330
1F
100
AcDbEntity
  8
외형선
  6
Continuous
370
    15
100
AcDbLine
 10
0.0
 20
15.6845
 30
0.0
 11
0.0
 21
-15.6845
 31
0.0
  0
LINE
  5
384
330
1F
100
AcDbEntity
  8
외형선
  6
Continuous
370
    15
100
AcDbLine
 10
0.5158764386943844
 20
15.6845
 30
0.0
 11
50.02979490784636
 21
15.6845
 31
0.0
  0
ARC
  5
385
330
1F
100
AcDbEntity
  8
외형선
  6
Continuous
370
    15
100
AcDbCircle
 10
0.5158764386943844
 20
16.47825
 30
0.0
 40
0.7937500000000002
100
AcDbArc
 50
229.4641978886834
 51
270.0
  0
ARC
  5
386
330
1F
100
AcDbEntity
  8
외형선
  6
Continuous
370
    15
100
AcDbCircle
 10
50.02979490784636
 20
16.47825
 30
0.0
 40
0.7937499999999997
100
AcDbArc
 50
270.0
 51
308.3351378792886
  0
LINE
  5
388
330
1F
100
AcDbEntity
  8
외형선
  6
Continuous
370
    15
100
AcDbLine
 10
0.5158764386943844
 20
-15.68450000000001
 30
0.0
 11
50.02979490784636
 21
-15.68450000000001
 31
0.0
  0
ARC
  5
389
330
1F
100
AcDbEntity
  8
외형선
  6
Continuous
370
    15
100
AcDbCircle
 10
50.02979490784636
 20
-16.47825
 30
0.0
 40
0.7937499999999997
100
AcDbArc
 50
51.66486212071122
 51
90.0
  0
ARC
  5
38A
330
1F
100
AcDbEntity
  8
외형선
  6
Continuous
370
    15
100
AcDbCircle
 10
0.5158764386943844
 20
-16.47825
 30
0.0
 40
0.7937500000000002
100
AcDbArc
 50
90.0
 51
130.5358021113167
  0
LINE
  5
38B
102
{ACAD_REACTORS
102
}
330
1F
100
AcDbEntity
  8
외형선
  6
Continuous
370
    15
100
AcDbLine
 10
0.5158764386943844
 20
-15.6845
 30
0.0
 11
0.5158764386943844
 21
15.6845
 31
0.0
  0
LINE
  5
38C
330
1F
100
AcDbEntity
  8
외형선
  6
Continuous
370
    15
100
AcDbLine
 10
50.02979490784636
 20
15.6845
 30
0.0
 11
50.02979490784636
 21
-15.68450000000001
 31
0.0
  0
DIMENSION
  5
38D
102
{ACAD_REACTORS
102
}
102
{ACAD_XDICTIONARY
360
38E
102
}
330
1F
100
AcDbEntity
  8
치수문자_일반주서
100
AcDbDimension
  2
*D15
 10
0.5158764386943844
 20
40.87734093124732
 30
0.0
 11
63.61900143869438
 21
43.50234093124732
 31
0.0
 70
    32
 71
     5
 42
126.20625
  3
SLDDIMSTYLE0
100
AcDbAlignedDimension
 13
126.7221264386944
 23
15.87500000000002
 33
0.0
 14
0.5158764386943844
 24
15.6845
 34
0.0
100
AcDbRotatedDimension
1001
ACAD
1000
DSTYLE
1002
{
1070
   171
1070
     6
1070
   273
1070
     7
1002
}
  0
ENDSEC
  0
SECTION
  2
OBJECTS
  0
DICTIONARY
  5
C
330
0
100
AcDbDictionary
281
     1
  3
ACAD_GROUP
350
D
  3
ACAD_IMAGE_VARS
350
152
  3
ACAD_LAYOUT
350
1A
  3
ACAD_MLINESTYLE
350
17
  3
ACAD_PLOTSETTINGS
350
19
  3
ACAD_PLOTSTYLENAME
350
E
  3
ACAD_SCALELIST
350
47
  3
APPDATA
350
150
  3
DWGPROPS
350
39C
  0
DICTIONARY
  5
17C
330
2
100
AcDbDictionary
280
     1
281
     1
  3
ACAD_LAYERSTATES
360
17D
  0
DICTIONARY
  5
38E
330
38D
100
AcDbDictionary
280
     1
281
     1
  0
DICTIONARY
  5
D
102
{ACAD_REACTORS
330
C
102
}
330
C
100
AcDbDictionary
281
     1
  0
RASTERVARIABLES
  5
152
102
{ACAD_REACTORS
330
C
102
}
330
C
100
AcDbRasterVariables
 90
        0
 70
     1
 71
     1
 72
     1
  0
DICTIONARY
  5
1A
102
{ACAD_REACTORS
330
C
102
}
330
C
100
AcDbDictionary
281
     1
  3
Layout1
350
1E
  3
Layout2
350
26
  3
Model
350
22
  0
DICTIONARY
  5
17
102
{ACAD_REACTORS
330
C
102
}
330
C
100
AcDbDictionary
281
     1
  3
Standard
350
18
  0
DICTIONARY
  5
19
102
{ACAD_REACTORS
330
C
102
}
330
C
100
AcDbDictionary
281
     1
  0
ACDBDICTIONARYWDFLT
  5
E
102
{ACAD_REACTORS
330
C
102
}
330
C
100
AcDbDictionary
281
     1
  3
Normal
350
F
100
AcDbDictionaryWithDefault
340
F
  0
DICTIONARY
  5
47
102
{ACAD_REACTORS
330
C
102
}
330
C
100
AcDbDictionary
281
     1
  3
A0
350
48
  3
A1
350
49
  3
A2
350
4A
  3
A3
350
4B
  3
A4
350
4C
  3
A5
350
4D
  3
A6
350
4E
  3
A7
350
4F
  3
A8
350
50
  3
A9
350
51
  3
B0
350
52
  3
B1
350
53
  3
B2
350
54
  3
B3
350
55
  3
B4
350
56
  3
B5
350
57
  3
B6
350
58
  3
B7
350
59
  3
B8
350
5A
  3
B9
350
5B
  3
C0
350
5C
  3
C1
350
5D
  3
C2
350
5E
  3
C3
350
5F
  3
C4
350
60
  3
C5
350
61
  3
C6
350
62
  3
C7
350
63
  3
C8
350
64
  3
C9
350
65
  3
D0
350
66
  3
D1
350
67
  3
D2
350
68
  0
DICTIONARY
  5
150
102
{ACAD_REACTORS
330
C
102
}
330
C
100
AcDbDictionary
281
     1
  0
XRECORD
  5
39C
102
{ACAD_REACTORS
330
C
102
}
330
C
100
AcDbXrecord
280
     1
  1
DWGPROPS COOKIE
  2

  3

  4

  6

  7

  8
12016016
  9

300
=
301
=
302
=
303
=
304
=
305
=
306
=
307
=
308
=
309
=
 40
0.0
 41
2458311.104993172
 42
2458323.03134007
  1

 90
        0
  0
DICTIONARY
  5
17D
102
{ACAD_REACTORS
330
17C
102
}
330
17C
100
AcDbDictionary
281
     1
  0
LAYOUT
  5
1E
102
{ACAD_REACTORS
330
1A
102
}
330
1A
100
AcDbPlotSettings
  1

  2
none_device
  4

  6

 40
0.0
 41
0.0
 42
0.0
 43
0.0
 44
0.0
 45
0.0
 46
0.0
 47
0.0
 48
0.0
 49
0.0
140
0.0
141
0.0
142
1.0
143
1.0
 70
   688
 72
     1
 73
     0
 74
     5
  7

 75
    16
147
1.0
148
0.0
149
0.0
100
AcDbLayout
  1
Layout1
 70
     1
 71
     1
 10
0.0
 20
0.0
 11
420.0
 21
297.0
 12
0.0
 22
0.0
 32
0.0
 14
1.000000000000000E+20
 24
1.000000000000000E+20
 34
1.000000000000000E+20
 15
-1.000000000000000E+20
 25
-1.000000000000000E+20
 35
-1.000000000000000E+20
146
0.0
 13
0.0
 23
0.0
 33
0.0
 16
1.0
 26
0.0
 36
0.0
 17
0.0
 27
1.0
 37
0.0
 76
     0
330
1B
  0
LAYOUT
  5
26
102
{ACAD_REACTORS
330
1A
102
}
330
1A
100
AcDbPlotSettings
  1

  2
none_device
  4

  6

 40
0.0
 41
0.0
 42
0.0
 43
0.0
 44
0.0
 45
0.0
 46
0.0
 47
0.0
 48
0.0
 49
0.0
140
0.0
141
0.0
142
1.0
143
1.0
 70
   688
 72
     1
 73
     0
 74
     5
  7

 75
    16
147
1.0
148
0.0
149
0.0
100
AcDbLayout
  1
Layout2
 70
     1
 71
     2
 10
0.0
 20
0.0
 11
0.0
 21
0.0
 12
0.0
 22
0.0
 32
0.0
 14
0.0
 24
0.0
 34
0.0
 15
0.0
 25
0.0
 35
0.0
146
0.0
 13
0.0
 23
0.0
 33
0.0
 16
1.0
 26
0.0
 36
0.0
 17
0.0
 27
1.0
 37
0.0
 76
     0
330
23
  0
LAYOUT
  5
22
102
{ACAD_REACTORS
330
1A
102
}
330
1A
100
AcDbPlotSettings
  1

  2
none_device
  4
ANSI_A_(11.00_x_8.50_Inches)
  6

 40
6.35
 41
19.05
 42
6.35000508
 43
19.05000254
 44
279.4
 45
215.9
 46
104.0224308010087
 47
39.57311094191814
 48
0.0
 49
0.0
140
0.0
141
0.0
142
0.036860881004988
143
1.0
 70
  1696
 72
     0
 73
     0
 74
     0
  7

 75
     0
147
0.0235690232323232
148
0.0
149
0.0
100
AcDbLayout
  1
Model
 70
     1
 71
     0
 10
0.0
 20
0.0
 11
420.0
 21
297.0
 12
0.0
 22
0.0
 32
0.0
 14
-74.30287356130563
 24
-49.97180738881174
 34
0.0
 15
161.2775483300464
 25
58.63272202592247
 35
0.0
146
0.0
 13
0.0
 23
0.0
 33
0.0
 16
1.0
 26
0.0
 36
0.0
 17
0.0
 27
1.0
 37
0.0
 76
     0
330
1F
331
29
  0
MLINESTYLE
  5
18
102
{ACAD_REACTORS
330
17
102
}
330
17
100
AcDbMlineStyle
  2
Standard
 70
     0
  3

 62
   256
 51
90.0
 52
90.0
 71
     2
 49
0.5
 62
   256
  6
BYLAYER
 49
-0.5
 62
   256
  6
BYLAYER
  0
ACDBPLACEHOLDER
  5
F
102
{ACAD_REACTORS
330
E
102
}
330
E
  0
SCALE
  5
48
102
{ACAD_REACTORS
330
47
102
}
330
47
100
AcDbScale
 70
     0
300
1:1
140
1.0
141
1.0
290
     1
  0
SCALE
  5
49
102
{ACAD_REACTORS
330
47
102
}
330
47
100
AcDbScale
 70
     0
300
1:2
140
1.0
141
2.0
290
     0
  0
SCALE
  5
4A
102
{ACAD_REACTORS
330
47
102
}
330
47
100
AcDbScale
 70
     0
300
1:4
140
1.0
141
4.0
290
     0
  0
SCALE
  5
4B
102
{ACAD_REACTORS
330
47
102
}
330
47
100
AcDbScale
 70
     0
300
1:5
140
1.0
141
5.0
290
     0
  0
SCALE
  5
4C
102
{ACAD_REACTORS
330
47
102
}
330
47
100
AcDbScale
 70
     0
300
1:8
140
1.0
141
8.0
290
     0
  0
SCALE
  5
4D
102
{ACAD_REACTORS
330
47
102
}
330
47
100
AcDbScale
 70
     0
300
1:10
140
1.0
141
10.0
290
     0
  0
SCALE
  5
4E
102
{ACAD_REACTORS
330
47
102
}
330
47
100
AcDbScale
 70
     0
300
1:16
140
1.0
141
16.0
290
     0
  0
SCALE
  5
4F
102
{ACAD_REACTORS
330
47
102
}
330
47
100
AcDbScale
 70
     0
300
1:20
140
1.0
141
20.0
290
     0
  0
SCALE
  5
50
102
{ACAD_REACTORS
330
47
102
}
330
47
100
AcDbScale
 70
     0
300
1:30
140
1.0
141
30.0
290
     0
  0
SCALE
  5
51
102
{ACAD_REACTORS
330
47
102
}
330
47
100
AcDbScale
 70
     0
300
1:40
140
1.0
141
40.0
290
     0
  0
SCALE
  5
52
102
{ACAD_REACTORS
330
47
102
}
330
47
100
AcDbScale
 70
     0
300
1:50
140
1.0
141
50.0
290
     0
  0
SCALE
  5
53
102
{ACAD_REACTORS
330
47
102
}
330
47
100
AcDbScale
 70
     0
300
1:100
140
1.0
141
100.0
290
     0
  0
SCALE
  5
54
102
{ACAD_REACTORS
330
47
102
}
330
47
100
AcDbScale
 70
     0
300
2:1
140
2.0
141
1.0
290
     0
  0
SCALE
  5
55
102
{ACAD_REACTORS
330
47
102
}
330
47
100
AcDbScale
 70
     0
300
4:1
140
4.0
141
1.0
290
     0
  0
SCALE
  5
56
102
{ACAD_REACTORS
330
47
102
}
330
47
100
AcDbScale
 70
     0
300
8:1
140
8.0
141
1.0
290
     0
  0
SCALE
  5
57
102
{ACAD_REACTORS
330
47
102
}
330
47
100
AcDbScale
 70
     0
300
10:1
140
10.0
141
1.0
290
     0
  0
SCALE
  5
58
102
{ACAD_REACTORS
330
47
102
}
330
47
100
AcDbScale
 70
     0
300
100:1
140
100.0
141
1.0
290
     0
  0
SCALE
  5
59
102
{ACAD_REACTORS
330
47
102
}
330
47
100
AcDbScale
 70
     0
300
1/128" = 1'-0"
140
0.0078125
141
12.0
290
     0
  0
SCALE
  5
5A
102
{ACAD_REACTORS
330
47
102
}
330
47
100
AcDbScale
 70
     0
300
1/64" = 1'-0"
140
0.015625
141
12.0
290
     0
  0
SCALE
  5
5B
102
{ACAD_REACTORS
330
47
102
}
330
47
100
AcDbScale
 70
     0
300
1/32" = 1'-0"
140
0.03125
141
12.0
290
     0
  0
SCALE
  5
5C
102
{ACAD_REACTORS
330
47
102
}
330
47
100
AcDbScale
 70
     0
300
1/16" = 1'-0"
140
0.0625
141
12.0
290
     0
  0
SCALE
  5
5D
102
{ACAD_REACTORS
330
47
102
}
330
47
100
AcDbScale
 70
     0
300
3/32" = 1'-0"
140
0.09375
141
12.0
290
     0
  0
SCALE
  5
5E
102
{ACAD_REACTORS
330
47
102
}
330
47
100
AcDbScale
 70
     0
300
1/8" = 1'-0"
140
0.125
141
12.0
290
     0
  0
SCALE
  5
5F
102
{ACAD_REACTORS
330
47
102
}
330
47
100
AcDbScale
 70
     0
300
3/16" = 1'-0"
140
0.1875
141
12.0
290
     0
  0
SCALE
  5
60
102
{ACAD_REACTORS
330
47
102
}
330
47
100
AcDbScale
 70
     0
300
1/4" = 1'-0"
140
0.25
141
12.0
290
     0
  0
SCALE
  5
61
102
{ACAD_REACTORS
330
47
102
}
330
47
100
AcDbScale
 70
     0
300
3/8" = 1'-0"
140
0.375
141
12.0
290
     0
  0
SCALE
  5
62
102
{ACAD_REACTORS
330
47
102
}
330
47
100
AcDbScale
 70
     0
300
1/2" = 1'-0"
140
0.5
141
12.0
290
     0
  0
SCALE
  5
63
102
{ACAD_REACTORS
330
47
102
}
330
47
100
AcDbScale
 70
     0
300
3/4" = 1'-0"
140
0.75
141
12.0
290
     0
  0
SCALE
  5
64
102
{ACAD_REACTORS
330
47
102
}
330
47
100
AcDbScale
 70
     0
300
1" = 1'-0"
140
1.0
141
12.0
290
     0
  0
SCALE
  5
65
102
{ACAD_REACTORS
330
47
102
}
330
47
100
AcDbScale
 70
     0
300
1-1/2" = 1'-0"
140
1.5
141
12.0
290
     0
  0
SCALE
  5
66
102
{ACAD_REACTORS
330
47
102
}
330
47
100
AcDbScale
 70
     0
300
3" = 1'-0"
140
3.0
141
12.0
290
     0
  0
SCALE
  5
67
102
{ACAD_REACTORS
330
47
102
}
330
47
100
AcDbScale
 70
     0
300
6" = 1'-0"
140
6.0
141
12.0
290
     0
  0
SCALE
  5
68
102
{ACAD_REACTORS
330
47
102
}
330
47
100
AcDbScale
 70
     0
300
1'-0" = 1'-0"
140
12.0
141
12.0
290
     0
  0
ENDSEC
  0
EOF
