  0
SECTION
  2
HEADER
  9
$ACADVER
  1
AC1015
  9
$ACADMAINTVER
 70
     6
  9
$DWGCODEPAGE
  3
ANSI_949
  9
$INSBASE
 10
0.0
 20
0.0
 30
0.0
  9
$EXTMIN
 10
-74.30287356130567
 20
-49.97180738881174
 30
0.0
  9
$EXTMAX
 10
147.0551462690305
 20
46.95207860462924
 30
0.0
  9
$LIMMIN
 10
0.0
 20
0.0
  9
$LIMMAX
 10
420.0
 20
297.0
  9
$ORTHOMODE
 70
     1
  9
$REGENMODE
 70
     1
  9
$FILLMODE
 70
     1
  9
$QTEXTMODE
 70
     0
  9
$MIRRTEXT
 70
     1
  9
$LTSCALE
 40
1.0
  9
$ATTMODE
 70
     1
  9
$TEXTSIZE
 40
3.5
  9
$TRACEWID
 40
1.0
  9
$TEXTSTYLE
  7
Standard
  9
$CLAYER
  8
0
  9
$CELTYPE
  6
ByLayer
  9
$CECOLOR
 62
   256
  9
$CELTSCALE
 40
1.0
  9
$DISPSILH
 70
     0
  9
$DIMSCALE
 40
1.0
  9
$DIMASZ
 40
3.302
  9
$DIMEXO
 40
1.0
  9
$DIMDLI
 40
3.75
  9
$DIMRND
 40
0.0
  9
$DIMDLE
 40
0.0
  9
$DIMEXE
 40
1.0
  9
$DIMTP
 40
0.0
  9
$DIMTM
 40
0.0
  9
$DIMTXT
 40
3.5
  9
$DIMCEN
 40
2.5
  9
$DIMTSZ
 40
0.0
  9
$DIMTOL
 70
     0
  9
$DIMLIM
 70
     0
  9
$DIMTIH
 70
     1
  9
$DIMTOH
 70
     1
  9
$DIMSE1
 70
     0
  9
$DIMSE2
 70
     0
  9
$DIMTAD
 70
     1
  9
$DIMZIN
 70
     0
  9
$DIMBLK
  1

  9
$DIMASO
 70
     1
  9
$DIMSHO
 70
     1
  9
$DIMPOST
  1

  9
$DIMAPOST
  1

  9
$DIMALT
 70
     0
  9
$DIMALTD
 70
     3
  9
$DIMALTF
 40
0.0393700787401575
  9
$DIMLFAC
 40
1.0
  9
$DIMTOFL
 70
     1
  9
$DIMTVP
 40
0.0
  9
$DIMTIX
 70
     0
  9
$DIMSOXD
 70
     0
  9
$DIMSAH
 70
     0
  9
$DIMBLK1
  1

  9
$DIMBLK2
  1

  9
$DIMSTYLE
  2
ISO-25
  9
$DIMCLRD
 70
     0
  9
$DIMCLRE
 70
     0
  9
$DIMCLRT
 70
     0
  9
$DIMTFAC
 40
1.0
  9
$DIMGAP
 40
1.524
  9
$DIMJUST
 70
     0
  9
$DIMSD1
 70
     0
  9
$DIMSD2
 70
     0
  9
$DIMTOLJ
 70
     0
  9
$DIMTZIN
 70
     0
  9
$DIMALTZ
 70
     0
  9
$DIMALTTZ
 70
     0
  9
$DIMUPT
 70
     0
  9
$DIMDEC
 70
     2
  9
$DIMTDEC
 70
     2
  9
$DIMALTU
 70
     2
  9
$DIMALTTD
 70
     3
  9
$DIMTXSTY
  7
Standard
  9
$DIMAUNIT
 70
     0
  9
$DIMADEC
 70
     2
  9
$DIMALTRND
 40
0.0
  9
$DIMAZIN
 70
     0
  9
$DIMDSEP
 70
    44
  9
$DIMATFIT
 70
     3
  9
$DIMFRAC
 70
     0
  9
$DIMLDRBLK
  1

  9
$DIMLUNIT
 70
     2
  9
$DIMLWD
 70
    -2
  9
$DIMLWE
 70
    -2
  9
$DIMTMOVE
 70
     0
  9
$LUNITS
 70
     2
  9
$LUPREC
 70
     2
  9
$SKETCHINC
 40
1.0
  9
$FILLETRAD
 40
10.0
  9
$AUNITS
 70
     0
  9
$AUPREC
 70
     2
  9
$MENU
  1
.
  9
$ELEVATION
 40
0.0
  9
$PELEVATION
 40
0.0
  9
$THICKNESS
 40
0.0
  9
$LIMCHECK
 70
     0
  9
$CHAMFERA
 40
0.0
  9
$CHAMFERB
 40
0.0
  9
$CHAMFERC
 40
0.0
  9
$CHAMFERD
 40
0.0
  9
$SKPOLY
 70
     0
  9
$TDCREATE
 40
2458311.479781539
  9
$TDUCREATE
 40
2458311.104781539
  9
$TDUPDATE
 40
2458323.408629247
  9
$TDUUPDATE
 40
2458323.033629247
  9
$TDINDWG
 40
0.0033457292
  9
$TDUSRTIMER
 40
2458323.031361585
  9
$USRTIMER
 70
     1
  9
$ANGBASE
 50
0.0
  9
$ANGDIR
 70
     0
  9
$PDMODE
 70
     0
  9
$PDSIZE
 40
-1.0
  9
$PLINEWID
 40
0.0
  9
$SPLFRAME
 70
     0
  9
$SPLINETYPE
 70
     6
  9
$SPLINESEGS
 70
     8
  9
$HANDSEED
  5
343
  9
$SURFTAB1
 70
     6
  9
$SURFTAB2
 70
     6
  9
$SURFTYPE
 70
     6
  9
$SURFU
 70
     6
  9
$SURFV
 70
     6
  9
$UCSBASE
  2

  9
$UCSNAME
  2

  9
$UCSORG
 10
0.0
 20
0.0
 30
0.0
  9
$UCSXDIR
 10
1.0
 20
0.0
 30
0.0
  9
$UCSYDIR
 10
0.0
 20
1.0
 30
0.0
  9
$UCSORTHOREF
  2

  9
$UCSORTHOVIEW
 70
     0
  9
$UCSORGTOP
 10
0.0
 20
0.0
 30
0.0
  9
$UCSORGBOTTOM
 10
0.0
 20
0.0
 30
0.0
  9
$UCSORGLEFT
 10
0.0
 20
0.0
 30
0.0
  9
$UCSORGRIGHT
 10
0.0
 20
0.0
 30
0.0
  9
$UCSORGFRONT
 10
0.0
 20
0.0
 30
0.0
  9
$UCSORGBACK
 10
0.0
 20
0.0
 30
0.0
  9
$PUCSBASE
  2

  9
$PUCSNAME
  2

  9
$PUCSORG
 10
0.0
 20
0.0
 30
0.0
  9
$PUCSXDIR
 10
1.0
 20
0.0
 30
0.0
  9
$PUCSYDIR
 10
0.0
 20
1.0
 30
0.0
  9
$PUCSORTHOREF
  2

  9
$PUCSORTHOVIEW
 70
     0
  9
$PUCSORGTOP
 10
0.0
 20
0.0
 30
0.0
  9
$PUCSORGBOTTOM
 10
0.0
 20
0.0
 30
0.0
  9
$PUCSORGLEFT
 10
0.0
 20
0.0
 30
0.0
  9
$PUCSORGRIGHT
 10
0.0
 20
0.0
 30
0.0
  9
$PUCSORGFRONT
 10
0.0
 20
0.0
 30
0.0
  9
$PUCSORGBACK
 10
0.0
 20
0.0
 30
0.0
  9
$USERI1
 70
     0
  9
$USERI2
 70
     0
  9
$USERI3
 70
     0
  9
$USERI4
 70
     0
  9
$USERI5
 70
     0
  9
$USERR1
 40
0.0
  9
$USERR2
 40
0.0
  9
$USERR3
 40
0.0
  9
$USERR4
 40
0.0
  9
$USERR5
 40
0.0
  9
$WORLDVIEW
 70
     1
  9
$SHADEDGE
 70
     3
  9
$SHADEDIF
 70
    70
  9
$TILEMODE
 70
     1
  9
$MAXACTVP
 70
    64
  9
$PINSBASE
 10
0.0
 20
0.0
 30
0.0
  9
$PLIMCHECK
 70
     0
  9
$PEXTMIN
 10
1.000000000000000E+20
 20
1.000000000000000E+20
 30
1.000000000000000E+20
  9
$PEXTMAX
 10
-1.000000000000000E+20
 20
-1.000000000000000E+20
 30
-1.000000000000000E+20
  9
$PLIMMIN
 10
0.0
 20
0.0
  9
$PLIMMAX
 10
0.0
 20
0.0
  9
$UNITMODE
 70
     0
  9
$VISRETAIN
 70
     1
  9
$PLINEGEN
 70
     0
  9
$PSLTSCALE
 70
     1
  9
$TREEDEPTH
 70
  3020
  9
$CMLSTYLE
  2
Standard
  9
$CMLJUST
 70
     0
  9
$CMLSCALE
 40
20.0
  9
$PROXYGRAPHICS
 70
     1
  9
$MEASUREMENT
 70
     1
  9
$CELWEIGHT
370
    -1
  9
$ENDCAPS
280
     0
  9
$JOINSTYLE
280
     0
  9
$LWDISPLAY
290
     1
  9
$INSUNITS
 70
     4
  9
$HYPERLINKBASE
  1

  9
$STYLESHEET
  1

  9
$XEDIT
290
     1
  9
$CEPSNTYPE
380
     0
  9
$PSTYLEMODE
290
     1
  9
$FINGERPRINTGUID
  2
{ECF1EF05-0D7D-4006-BE41-7C2AAF3765D1}
  9
$VERSIONGUID
  2
{FAEB1C32-E019-11D5-929B-00C0DF256EC4}
  9
$EXTNAMES
290
     1
  9
$PSVPSCALE
 40
0.0
  9
$OLESTARTUP
290
     0
  0
ENDSEC
  0
SECTION
  2
CLASSES
  0
CLASS
  1
ACDBDICTIONARYWDFLT
  2
AcDbDictionaryWithDefault
  3
ObjectDBX Classes
 90
        0
280
     0
281
     0
  0
CLASS
  1
VISUALSTYLE
  2
AcDbVisualStyle
  3
ObjectDBX Classes
 90
     4095
280
     0
281
     0
  0
CLASS
  1
MATERIAL
  2
AcDbMaterial
  3
ObjectDBX Classes
 90
     1153
280
     0
281
     0
  0
CLASS
  1
SCALE
  2
AcDbScale
  3
ObjectDBX Classes
 90
     1153
280
     0
281
     0
  0
CLASS
  1
SUN
  2
AcDbSun
  3
SCENEOE
 90
     1153
280
     0
281
     0
  0
CLASS
  1
ACDBPLACEHOLDER
  2
AcDbPlaceHolder
  3
ObjectDBX Classes
 90
        0
280
     0
281
     0
  0
CLASS
  1
LAYOUT
  2
AcDbLayout
  3
ObjectDBX Classes
 90
        0
280
     0
281
     0
  0
CLASS
  1
TABLESTYLE
  2
AcDbTableStyle
  3
ObjectDBX Classes
 90
     4095
280
     0
281
     0
  0
CLASS
  1
MLEADERSTYLE
  2
AcDbMLeaderStyle
  3
ACDB_MLEADERSTYLE_CLASS
 90
     4095
280
     0
281
     0
  0
CLASS
  1
RASTERVARIABLES
  2
AcDbRasterVariables
  3
ISM
 90
        0
280
     0
281
     0
  0
CLASS
  1
DIMASSOC
  2
AcDbDimAssoc
  3
"AcDbDimAssoc|Product Desc:     AcDim ARX App For Dimension|Company:          Autodesk, Inc.|WEB Address:      www.autodesk.com"
 90
        0
280
     0
281
     0
  0
ENDSEC
  0
SECTION
  2
TABLES
  0
TABLE
  2
VPORT
  5
8
330
0
100
AcDbSymbolTable
 70
     1
  0
VPORT
  5
29
330
8
100
AcDbSymbolTableRecord
100
AcDbViewportTableRecord
  2
*Active
 70
     0
 10
0.0
 20
0.0
 11
1.0
 21
1.0
 12
-23.76008288268919
 22
-0.2919684296337195
 13
0.0
 23
0.0
 14
10.0
 24
10.0
 15
10.0
 25
10.0
 16
0.0
 26
0.0
 36
1.0
 17
0.0
 27
0.0
 37
0.0
 40
58.30852716760246
 41
1.586073500967118
 42
50.0
 43
0.0
 44
0.0
 50
0.0
 51
0.0
 71
    16
 72
  2000
 73
     1
 74
     3
 75
     0
 76
     0
 77
     0
 78
     0
281
     0
 65
     1
110
0.0
120
0.0
130
0.0
111
1.0
121
0.0
131
0.0
112
0.0
122
1.0
132
0.0
 79
     0
146
0.0
  0
ENDTAB
  0
TABLE
  2
LTYPE
  5
5
330
0
100
AcDbSymbolTable
 70
     6
  0
LTYPE
  5
14
330
5
100
AcDbSymbolTableRecord
100
AcDbLinetypeTableRecord
  2
ByBlock
 70
     0
  3

 72
    65
 73
     0
 40
0.0
  0
LTYPE
  5
15
330
5
100
AcDbSymbolTableRecord
100
AcDbLinetypeTableRecord
  2
ByLayer
 70
     0
  3

 72
    65
 73
     0
 40
0.0
  0
LTYPE
  5
16
330
5
100
AcDbSymbolTableRecord
100
AcDbLinetypeTableRecord
  2
Continuous
 70
     0
  3
Solid line
 72
    65
 73
     0
 40
0.0
  0
LTYPE
  5
6A
330
5
100
AcDbSymbolTableRecord
100
AcDbLinetypeTableRecord
  2
HIDDEN
 70
     0
  3
Hidden __ __ __ __ __ __ __ __ __ __ __ __ __ __
 72
    65
 73
     2
 40
1.905
 49
1.27
 74
     0
 49
-0.635
 74
     0
  0
LTYPE
  5
6B
330
5
100
AcDbSymbolTableRecord
100
AcDbLinetypeTableRecord
  2
PHANTOM
 70
     0
  3
Phantom ______  __  __  ______  __  __  ______
 72
    65
 73
     6
 40
12.7
 49
6.35
 74
     0
 49
-1.27
 74
     0
 49
1.27
 74
     0
 49
-1.27
 74
     0
 49
1.27
 74
     0
 49
-1.27
 74
     0
  0
LTYPE
  5
6C
330
5
100
AcDbSymbolTableRecord
100
AcDbLinetypeTableRecord
  2
CENTER
 70
     0
  3
Center ____ _ ____ _ ____ _ ____ _ ____ _ ____
 72
    65
 73
     4
 40
10.16
 49
6.35
 74
     0
 49
-1.27
 74
     0
 49
1.27
 74
     0
 49
-1.27
 74
     0
  0
LTYPE
  5
6D
330
5
100
AcDbSymbolTableRecord
100
AcDbLinetypeTableRecord
  2
CENTERX2
 70
     0
  3
Center (2x) ________  __  ________  __  _____
 72
    65
 73
     4
 40
20.32
 49
12.7
 74
     0
 49
-2.54
 74
     0
 49
2.54
 74
     0
 49
-2.54
 74
     0
  0
LTYPE
  5
6E
330
5
100
AcDbSymbolTableRecord
100
AcDbLinetypeTableRecord
  2
DOT2
 70
     0
  3
Dot (.5x) ........................................
 72
    65
 73
     2
 40
0.635
 49
0.0
 74
     0
 49
-0.635
 74
     0
  0
ENDTAB
  0
TABLE
  2
LAYER
  5
2
102
{ACAD_XDICTIONARY
360
1F6
102
}
330
0
100
AcDbSymbolTable
 70
    18
  0
LAYER
  5
10
330
2
100
AcDbSymbolTableRecord
100
AcDbLayerTableRecord
  2
0
 70
     0
 62
     7
  6
Continuous
370
    -3
390
F
  0
LAYER
  5
6F
330
2
100
AcDbSymbolTableRecord
100
AcDbLayerTableRecord
  2
FORMAT
 70
     0
 62
     2
  6
Continuous
370
    -3
390
F
  0
LAYER
  5
70
330
2
100
AcDbSymbolTableRecord
100
AcDbLayerTableRecord
  2
외형선
 70
     0
 62
     4
  6
Continuous
370
    30
390
F
  0
LAYER
  5
71
330
2
100
AcDbSymbolTableRecord
100
AcDbLayerTableRecord
  2
숨은선
 70
     0
 62
     2
  6
HIDDEN
370
    15
390
F
  0
LAYER
  5
72
330
2
100
AcDbSymbolTableRecord
100
AcDbLayerTableRecord
  2
중심선
 70
     0
 62
     1
  6
CENTERX2
370
    -3
390
F
  0
LAYER
  5
73
330
2
100
AcDbSymbolTableRecord
100
AcDbLayerTableRecord
  2
파단선
 70
     0
 62
     4
  6
Continuous
370
    -3
390
F
  0
LAYER
  5
74
330
2
100
AcDbSymbolTableRecord
100
AcDbLayerTableRecord
  2
해칭선
 70
     0
 62
   100
  6
Continuous
370
    -3
390
F
  0
LAYER
  5
75
330
2
100
AcDbSymbolTableRecord
100
AcDbLayerTableRecord
  2
가는실선
 70
     0
 62
     4
  6
Continuous
370
    -3
390
F
  0
LAYER
  5
76
330
2
100
AcDbSymbolTableRecord
100
AcDbLayerTableRecord
  2
치수_보조선
 70
     0
 62
     4
  6
Continuous
370
    -3
390
F
  0
LAYER
  5
77
330
2
100
AcDbSymbolTableRecord
100
AcDbLayerTableRecord
  2
치수문자_일반주서
 70
     0
 62
     7
  6
Continuous
370
    15
390
F
  0
LAYER
  5
78
330
2
100
AcDbSymbolTableRecord
100
AcDbLayerTableRecord
  2
개별주서
 70
     0
 62
   100
  6
Continuous
370
    30
390
F
  0
LAYER
  5
79
330
2
100
AcDbSymbolTableRecord
100
AcDbLayerTableRecord
  2
중간선
 70
     0
 62
     2
  6
Continuous
370
    15
390
F
  0
LAYER
  5
7A
330
2
100
AcDbSymbolTableRecord
100
AcDbLayerTableRecord
  2
윤곽선
 70
     0
 62
     3
  6
Continuous
370
    40
390
F
  0
LAYER
  5
7B
330
2
100
AcDbSymbolTableRecord
100
AcDbLayerTableRecord
  2
중심마크
 70
     0
 62
   100
  6
Continuous
370
    30
390
F
  0
LAYER
  5
7C
330
2
100
AcDbSymbolTableRecord
100
AcDbLayerTableRecord
  2
가상선
 70
     0
 62
     4
  6
PHANTOM
370
    -3
390
F
  0
LAYER
  5
7D
330
2
100
AcDbSymbolTableRecord
100
AcDbLayerTableRecord
  2
특수지정선
 70
     0
 62
     5
  6
CENTERX2
370
    60
390
F
  0
LAYER
  5
7E
330
2
100
AcDbSymbolTableRecord
100
AcDbLayerTableRecord
  2
참조1
 70
     0
 62
    -4
  6
Continuous
370
    -3
390
F
  0
LAYER
  5
157
330
2
100
AcDbSymbolTableRecord
100
AcDbLayerTableRecord
  2
Defpoints
 70
     0
 62
     7
  6
Continuous
290
     0
370
    -3
390
F
  0
ENDTAB
  0
TABLE
  2
STYLE
  5
3
330
0
100
AcDbSymbolTable
 70
     2
  0
STYLE
  5
11
330
3
100
AcDbSymbolTableRecord
100
AcDbTextStyleTableRecord
  2
Standard
 70
     0
 40
0.0
 41
1.0
 50
0.0
 71
     0
 42
3.5
  3
txt
  4

  0
STYLE
  5
94
330
3
100
AcDbSymbolTableRecord
100
AcDbTextStyleTableRecord
  2
SLDTEXTSTYLE0
 70
     0
 40
0.0
 41
0.75
 50
0.0
 71
     0
 42
3.5
  3
TXT
  4

  0
ENDTAB
  0
TABLE
  2
VIEW
  5
6
330
0
100
AcDbSymbolTable
 70
     0
  0
ENDTAB
  0
TABLE
  2
UCS
  5
7
330
0
100
AcDbSymbolTable
 70
     0
  0
ENDTAB
  0
TABLE
  2
APPID
  5
9
330
0
100
AcDbSymbolTable
 70
     1
  0
APPID
  5
12
330
9
100
AcDbSymbolTableRecord
100
AcDbRegAppTableRecord
  2
ACAD
 70
     0
  0
ENDTAB
  0
TABLE
  2
DIMSTYLE
  5
A
330
0
100
AcDbSymbolTable
 70
     4
100
AcDbDimStyleTable
  0
DIMSTYLE
105
27
330
A
100
AcDbSymbolTableRecord
100
AcDbDimStyleTableRecord
  2
ISO-25
 70
     0
 41
2.5
 42
0.625
 43
3.75
 44
1.25
 73
     0
 74
     0
 77
     1
 78
     8
140
2.5
141
2.5
143
0.03937007874016
147
0.625
171
     3
172
     1
178
     0
271
     2
272
     2
274
     3
278
    44
283
     0
284
     8
340
11
  0
DIMSTYLE
105
D4
102
{ACAD_REACTORS
330
D3
330
E8
330
FD
330
111
330
331
102
}
330
A
100
AcDbSymbolTableRecord
100
AcDbDimStyleTableRecord
  2
SLDDIMSTYLE0
 70
     0
 41
3.302
 44
0.0
 45
0.000000001
 73
     0
 74
     0
 77
     1
 78
     4
 79
     1
140
3.5
143
0.0393700787401575
147
0.875
148
0.000000001
170
     1
172
     1
173
     1
178
     0
271
     2
272
     2
276
     2
284
    12
289
     0
340
94
  0
DIMSTYLE
105
E9
330
A
100
AcDbSymbolTableRecord
100
AcDbDimStyleTableRecord
  2
SLDDIMSTYLE1
 70
     0
 41
3.302
 44
0.0
 45
0.000000001
 73
     0
 74
     0
 77
     1
 78
     4
 79
     1
140
3.5
143
0.0393700787401575
147
0.875
148
0.000000001
170
     1
173
     1
178
     0
271
     2
272
     2
276
     2
284
    12
340
94
  0
DIMSTYLE
105
FE
330
A
100
AcDbSymbolTableRecord
100
AcDbDimStyleTableRecord
  2
SLDDIMSTYLE2
 70
     0
 41
3.302
 44
0.0
 45
0.000000001
 73
     0
 74
     0
 77
     1
 78
    12
 79
     3
140
3.5
143
0.0393700787401575
147
0.875
148
0.000000001
170
     1
173
     1
178
     0
271
     2
272
     2
276
     2
284
    12
340
94
  0
ENDTAB
  0
TABLE
  2
BLOCK_RECORD
  5
1
330
0
100
AcDbSymbolTable
 70
    16
  0
BLOCK_RECORD
  5
1F
330
1
100
AcDbSymbolTableRecord
100
AcDbBlockTableRecord
  2
*Model_Space
340
22
  0
BLOCK_RECORD
  5
1B
330
1
100
AcDbSymbolTableRecord
100
AcDbBlockTableRecord
  2
*Paper_Space
340
1E
  0
BLOCK_RECORD
  5
23
330
1
100
AcDbSymbolTableRecord
100
AcDbBlockTableRecord
  2
*Paper_Space0
340
26
  0
BLOCK_RECORD
  5
7F
330
1
100
AcDbSymbolTableRecord
100
AcDbBlockTableRecord
  2
블럭10
340
0
102
{BLKREFS
331
CC
102
}
  0
BLOCK_RECORD
  5
D5
330
1
100
AcDbSymbolTableRecord
100
AcDbBlockTableRecord
  2
_D
340
0
  0
BLOCK_RECORD
  5
EA
330
1
100
AcDbSymbolTableRecord
100
AcDbBlockTableRecord
  2
_D_1
340
0
  0
BLOCK_RECORD
  5
FF
330
1
100
AcDbSymbolTableRecord
100
AcDbBlockTableRecord
  2
_D_2
340
0
  0
BLOCK_RECORD
  5
112
330
1
100
AcDbSymbolTableRecord
100
AcDbBlockTableRecord
  2
_D_3
340
0
  0
BLOCK_RECORD
  5
12B
330
1
100
AcDbSymbolTableRecord
100
AcDbBlockTableRecord
  2
SW_DOWELSYMBOL_0
340
0
102
{BLKREFS
331
131
102
}
  0
BLOCK_RECORD
  5
1FA
330
1
100
AcDbSymbolTableRecord
100
AcDbBlockTableRecord
  2
*D7
340
0
  0
BLOCK_RECORD
  5
206
330
1
100
AcDbSymbolTableRecord
100
AcDbBlockTableRecord
  2
*D8
340
0
  0
BLOCK_RECORD
  5
212
330
1
100
AcDbSymbolTableRecord
100
AcDbBlockTableRecord
  2
*D9
340
0
  0
BLOCK_RECORD
  5
21E
330
1
100
AcDbSymbolTableRecord
100
AcDbBlockTableRecord
  2
*D10
340
0
  0
BLOCK_RECORD
  5
26B
330
1
100
AcDbSymbolTableRecord
100
AcDbBlockTableRecord
  2
*D11
340
0
  0
BLOCK_RECORD
  5
277
330
1
100
AcDbSymbolTableRecord
100
AcDbBlockTableRecord
  2
*D12
340
0
  0
BLOCK_RECORD
  5
283
330
1
100
AcDbSymbolTableRecord
100
AcDbBlockTableRecord
  2
*D13
340
0
  0
BLOCK_RECORD
  5
28F
330
1
100
AcDbSymbolTableRecord
100
AcDbBlockTableRecord
  2
*D14
340
0
  0
BLOCK_RECORD
  5
334
330
1
100
AcDbSymbolTableRecord
100
AcDbBlockTableRecord
  2
*D15
340
0
  0
ENDTAB
  0
ENDSEC
  0
SECTION
  2
BLOCKS
  0
BLOCK
  5
20
330
1F
100
AcDbEntity
  8
0
100
AcDbBlockBegin
  2
*Model_Space
 70
     0
 10
0.0
 20
0.0
 30
0.0
  3
*Model_Space
  1
*Model_Space
  0
ENDBLK
  5
21
330
1F
100
AcDbEntity
  8
0
100
AcDbBlockEnd
  0
BLOCK
  5
1C
330
1B
100
AcDbEntity
 67
     1
  8
0
100
AcDbBlockBegin
  2
*Paper_Space
 70
     0
 10
0.0
 20
0.0
 30
0.0
  3
*Paper_Space
  1
*Paper_Space
  0
ENDBLK
  5
1D
330
1B
100
AcDbEntity
 67
     1
  8
0
100
AcDbBlockEnd
  0
BLOCK
  5
24
330
23
100
AcDbEntity
  8
0
100
AcDbBlockBegin
  2
*Paper_Space0
 70
     0
 10
0.0
 20
0.0
 30
0.0
  3
*Paper_Space0
  1
*Paper_Space0
  0
ENDBLK
  5
25
330
23
100
AcDbEntity
  8
0
100
AcDbBlockEnd
  0
BLOCK
  5
80
330
7F
100
AcDbEntity
  8
0
100
AcDbBlockBegin
  2
블럭10
 70
     2
 10
0.0
 20
0.0
 30
0.0
  3
블럭10
  1
블럭10
  0
ELLIPSE
  5
82
330
7F
100
AcDbEntity
  8
중심선
100
AcDbEllipse
 10
20.54032771741204
 20
12.0471743016438
 30
0.0
 11
6.600054785286829
 21
-1.261213355974178E-13
 31
0.0
210
0.0
220
0.0
230
1.0
 40
0.636358354079598
 41
0.9219305317359503
 42
6.513795318482858
  0
ELLIPSE
  5
83
330
7F
100
AcDbEntity
  8
중심선
100
AcDbEllipse
 10
20.54032771746488
 20
12.04717430159265
 30
0.0
 11
3.960054785062283
 21
1.540847449632565E-10
 31
0.0
210
0.0
220
0.0
230
1.0
 40
0.3939339440162632
 41
1.131841032648279
 42
5.62031148352944
  0
LINE
  5
84
330
7F
100
AcDbEntity
  8
중심선
100
AcDbLine
 10
2.268634060543552
 20
16.24717430164393
 30
0.0
 11
5.714909304380834
 21
16.24717430164393
 31
0.0
  0
LINE
  5
85
330
7F
100
AcDbEntity
  8
중심선
100
AcDbLine
 10
5.245725140726316
 20
7.84717430164391
 30
0.0
 11
8.692000384563599
 21
7.84717430164391
 31
0.0
  0
LINE
  5
86
330
7F
100
AcDbEntity
  8
중심선
100
AcDbLine
 10
15.74043728645272
 20
16.24717430164393
 30
0.0
 11
8.692000384563599
 21
7.84717430164391
 31
0.0
  0
LINE
  5
87
330
7F
100
AcDbEntity
  8
중심선
100
AcDbLine
 10
0.1404042013395286
 20
13.71084872107135
 30
0.0
 11
3.58671253028996
 21
13.71088815037384
 31
0.0
  0
LINE
  5
88
330
7F
100
AcDbEntity
  8
중심선
100
AcDbLine
 10
2.750260043222114
 20
10.84717430164391
 30
0.0
 11
6.196535287059397
 21
10.84717430164391
 31
0.0
  0
LINE
  5
89
330
7F
100
AcDbEntity
  8
중심선
100
AcDbLine
 10
12.29416204261559
 20
16.24717430164393
 30
0.0
 11
5.245725140726316
 21
7.84717430164391
 31
0.0
  0
LINE
  5
8A
330
7F
100
AcDbEntity
  8
중심선
100
AcDbLine
 10
10.72767329541681
 20
16.24717430164393
 30
0.0
 11
6.196535287059397
 21
10.84717430164391
 31
0.0
  0
LINE
  5
8B
330
7F
100
AcDbEntity
  8
중심선
100
AcDbLine
 10
7.28139805157953
 20
16.24717430164393
 30
0.0
 11
2.750260043222114
 21
10.84717430164391
 31
0.0
  0
LINE
  5
8C
330
7F
100
AcDbEntity
  8
중심선
100
AcDbLine
 10
5.714909304380834
 20
16.24717430164393
 30
0.0
 11
3.58671253028996
 21
13.71088815037384
 31
0.0
  0
LINE
  5
8D
330
7F
100
AcDbEntity
  8
중심선
100
AcDbLine
 10
2.268634060543552
 20
16.24717430164393
 30
0.0
 11
0.1404042013395286
 21
13.71084872107135
 31
0.0
  0
LINE
  5
8E
330
7F
100
AcDbEntity
  8
중심선
100
AcDbLine
 10
7.28139805157953
 20
16.24717430164393
 30
0.0
 11
10.72767329541681
 21
16.24717430164393
 31
0.0
  0
LINE
  5
8F
330
7F
100
AcDbEntity
  8
중심선
100
AcDbLine
 10
12.29416204261559
 20
16.24717430164393
 30
0.0
 11
15.74043728645272
 21
16.24717430164393
 31
0.0
  0
LINE
  5
90
330
7F
100
AcDbEntity
  8
중심선
100
AcDbLine
 10
19.22036997980202
 20
11.08717430171403
 30
0.0
 11
23.66174974927406
 21
11.08717430171406
 31
0.0
  0
LINE
  5
91
330
7F
100
AcDbEntity
  8
중심선
100
AcDbLine
 10
19.22039502424796
 20
13.00717430171391
 30
0.0
 11
19.22036997980202
 21
11.08717430171403
 31
0.0
  0
LINE
  5
92
330
7F
100
AcDbEntity
  8
중심선
100
AcDbLine
 10
19.22039502424796
 20
13.00717430171391
 30
0.0
 11
26.96566020931264
 21
13.00717430171391
 31
0.0
  0
LINE
  5
93
330
7F
100
AcDbEntity
  8
중심선
100
AcDbLine
 10
22.22332737316547
 20
13.45928029700563
 30
0.0
 11
24.52862924686651
 21
15.39360700705356
 31
0.0
  0
ATTDEF
  5
95
330
7F
100
AcDbEntity
  8
FORMAT
 62
     2
100
AcDbText
 10
4.408487351596664
 20
2.075366912832191
 30
0.0
 40
4.233333333333333
  1
E2033064
 41
0.75
  7
SLDTEXTSTYLE0
 11
4.408487351596664
 21
-0.0412997538344756
 31
0.0
100
AcDbAttributeDefinition
  3

  2
AUTOATTR0
 70
     0
 74
     1
  0
ENDBLK
  5
81
330
7F
100
AcDbEntity
  8
0
100
AcDbBlockEnd
  0
BLOCK
  5
D6
330
D5
100
AcDbEntity
  8
0
100
AcDbBlockBegin
  2
_D
 70
     0
 10
0.0
 20
0.0
 30
0.0
  3
_D
  1
_D
  0
LINE
  5
D8
330
D5
100
AcDbEntity
  8
치수문자_일반주서
 62
     0
370
    -2
100
AcDbLine
 10
-56.49037356130564
 20
12.69999999999999
 30
0.0
 11
-69.92787356130567
 21
12.69999999999994
 31
0.0
  0
LINE
  5
D9
330
D5
100
AcDbEntity
  8
치수문자_일반주서
 62
     0
370
    -2
100
AcDbLine
 10
-56.49037356130564
 20
-12.70000000000002
 30
0.0
 11
-69.92787356130559
 21
-12.70000000000007
 31
0.0
  0
LINE
  5
DA
330
D5
100
AcDbEntity
  8
치수문자_일반주서
 62
     0
370
    -2
100
AcDbLine
 10
-69.92787356130566
 20
9.397999999999945
 30
0.0
 11
-69.9278735613056
 21
-9.398000000000065
 31
0.0
  0
SOLID
  5
DB
330
D5
100
AcDbEntity
  8
치수문자_일반주서
 62
     0
100
AcDbTrace
 10
-69.37754022797233
 20
9.397999999999946
 30
0.0
 11
-70.47820689463899
 21
9.397999999999943
 31
0.0
 12
-69.92787356130567
 22
12.69999999999994
 32
0.0
 13
-69.92787356130567
 23
12.69999999999994
 33
0.0
  0
SOLID
  5
DC
330
D5
100
AcDbEntity
  8
치수문자_일반주서
 62
     0
100
AcDbTrace
 10
-70.47820689463893
 20
-9.398000000000067
 30
0.0
 11
-69.37754022797228
 21
-9.398000000000064
 31
0.0
 12
-69.92787356130559
 22
-12.70000000000007
 32
0.0
 13
-69.92787356130559
 23
-12.70000000000007
 33
0.0
  0
MTEXT
  5
DD
330
D5
100
AcDbEntity
  8
치수문자_일반주서
 62
     0
100
AcDbMText
 10
-74.30287356130563
 20
-0.0000000000000059
 30
0.0
 40
3.5
 41
0.0
 71
     2
 72
     1
  1
\A1;%%c25.40 [1]
  7
SLDTEXTSTYLE0
 11
-3.356894814614645E-15
 21
1.0
 31
0.0
 73
     1
 44
1.0
  0
POINT
  5
DE
330
D5
100
AcDbEntity
  8
Defpoints
 62
     0
100
AcDbPoint
 10
-56.42787356130564
 20
12.69999999999999
 30
0.0
  0
POINT
  5
DF
330
D5
100
AcDbEntity
  8
Defpoints
 62
     0
100
AcDbPoint
 10
-56.42787356130564
 20
-12.70000000000002
 30
0.0
  0
POINT
  5
E0
330
D5
100
AcDbEntity
  8
Defpoints
 62
     0
100
AcDbPoint
 10
-69.92787356130563
 20
-12.70000000000007
 30
0.0
  0
ENDBLK
  5
D7
330
D5
100
AcDbEntity
  8
0
100
AcDbBlockEnd
  0
BLOCK
  5
EB
330
EA
100
AcDbEntity
  8
0
100
AcDbBlockBegin
  2
_D_1
 70
     0
 10
0.0
 20
0.0
 30
0.0
  3
_D_1
  1
_D_1
  0
LINE
  5
ED
330
EA
100
AcDbEntity
  8
치수문자_일반주서
 62
     0
370
    -2
100
AcDbLine
 10
126.7221264386944
 20
12.76250000000002
 30
0.0
 11
126.7221264386944
 21
25.86560788423941
 31
0.0
  0
LINE
  5
EE
330
EA
100
AcDbEntity
  8
치수문자_일반주서
 62
     0
370
    -2
100
AcDbLine
 10
63.22212643869439
 20
12.7625
 30
0.0
 11
63.22212643869439
 21
25.86560788423941
 31
0.0
  0
LINE
  5
EF
330
EA
100
AcDbEntity
  8
치수문자_일반주서
 62
     0
370
    -2
100
AcDbLine
 10
123.4201264386944
 20
25.86560788423941
 30
0.0
 11
66.5241264386944
 21
25.86560788423941
 31
0.0
  0
SOLID
  5
F0
330
EA
100
AcDbEntity
  8
치수문자_일반주서
 62
     0
100
AcDbTrace
 10
123.4201264386944
 20
25.31527455090608
 30
0.0
 11
123.4201264386944
 21
26.41594121757275
 31
0.0
 12
126.7221264386944
 22
25.86560788423941
 32
0.0
 13
126.7221264386944
 23
25.86560788423941
 33
0.0
  0
SOLID
  5
F1
330
EA
100
AcDbEntity
  8
치수문자_일반주서
 62
     0
100
AcDbTrace
 10
66.5241264386944
 20
26.41594121757275
 30
0.0
 11
66.5241264386944
 21
25.31527455090608
 31
0.0
 12
63.22212643869439
 22
25.86560788423941
 32
0.0
 13
63.22212643869439
 23
25.86560788423941
 33
0.0
  0
MTEXT
  5
F2
330
EA
100
AcDbEntity
  8
치수문자_일반주서
 62
     0
100
AcDbMText
 10
94.97212643869439
 20
30.24060788423941
 30
0.0
 40
3.5
 41
0.0
 71
     2
 72
     1
  1
\A1;63.50 [2 1/2]
  7
SLDTEXTSTYLE0
 73
     1
 44
1.0
  0
POINT
  5
F3
330
EA
100
AcDbEntity
  8
Defpoints
 62
     0
100
AcDbPoint
 10
126.7221264386944
 20
12.70000000000002
 30
0.0
  0
POINT
  5
F4
330
EA
100
AcDbEntity
  8
Defpoints
 62
     0
100
AcDbPoint
 10
63.22212643869439
 20
12.7
 30
0.0
  0
POINT
  5
F5
330
EA
100
AcDbEntity
  8
Defpoints
 62
     0
100
AcDbPoint
 10
63.22212643869439
 20
25.86560788423941
 30
0.0
  0
ENDBLK
  5
EC
330
EA
100
AcDbEntity
  8
0
100
AcDbBlockEnd
  0
BLOCK
  5
100
330
FF
100
AcDbEntity
  8
0
100
AcDbBlockBegin
  2
_D_2
 70
     0
 10
0.0
 20
0.0
 30
0.0
  3
_D_2
  1
_D_2
  0
LINE
  5
102
330
FF
100
AcDbEntity
  8
치수문자_일반주서
 62
     0
370
    -2
100
AcDbLine
 10
126.7221264386944
 20
12.76250000000002
 30
0.0
 11
126.7221264386944
 21
42.57707860462924
 31
0.0
  0
LINE
  5
103
330
FF
100
AcDbEntity
  8
치수문자_일반주서
 62
     0
370
    -2
100
AcDbLine
 10
-57.42787356130564
 20
11.76249999999999
 30
0.0
 11
-57.42787356130565
 21
42.57707860462924
 31
0.0
  0
LINE
  5
104
330
FF
100
AcDbEntity
  8
치수문자_일반주서
 62
     0
370
    -2
100
AcDbLine
 10
123.4201264386944
 20
42.57707860462924
 30
0.0
 11
-54.12587356130565
 21
42.57707860462924
 31
0.0
  0
SOLID
  5
105
330
FF
100
AcDbEntity
  8
치수문자_일반주서
 62
     0
100
AcDbTrace
 10
123.4201264386944
 20
42.02674527129591
 30
0.0
 11
123.4201264386944
 21
43.12741193796258
 31
0.0
 12
126.7221264386944
 22
42.57707860462924
 32
0.0
 13
126.7221264386944
 23
42.57707860462924
 33
0.0
  0
SOLID
  5
106
330
FF
100
AcDbEntity
  8
치수문자_일반주서
 62
     0
100
AcDbTrace
 10
-54.12587356130565
 20
43.12741193796258
 30
0.0
 11
-54.12587356130565
 21
42.02674527129591
 31
0.0
 12
-57.42787356130565
 22
42.57707860462924
 32
0.0
 13
-57.42787356130565
 23
42.57707860462924
 33
0.0
  0
MTEXT
  5
107
330
FF
100
AcDbEntity
  8
치수문자_일반주서
 62
     0
100
AcDbMText
 10
34.64712643869437
 20
46.95207860462924
 30
0.0
 40
3.5
 41
0.0
 71
     2
 72
     1
  1
\A1;184.15 [7 1/4]
  7
SLDTEXTSTYLE0
 73
     1
 44
1.0
  0
POINT
  5
108
330
FF
100
AcDbEntity
  8
Defpoints
 62
     0
100
AcDbPoint
 10
126.7221264386944
 20
12.70000000000002
 30
0.0
  0
POINT
  5
109
330
FF
100
AcDbEntity
  8
Defpoints
 62
     0
100
AcDbPoint
 10
-57.42787356130564
 20
11.69999999999999
 30
0.0
  0
POINT
  5
10A
330
FF
100
AcDbEntity
  8
Defpoints
 62
     0
100
AcDbPoint
 10
-57.42787356130564
 20
42.57707860462924
 30
0.0
  0
ENDBLK
  5
101
330
FF
100
AcDbEntity
  8
0
100
AcDbBlockEnd
  0
BLOCK
  5
113
330
112
100
AcDbEntity
  8
0
100
AcDbBlockBegin
  2
_D_3
 70
     0
 10
0.0
 20
0.0
 30
0.0
  3
_D_3
  1
_D_3
  0
LINE
  5
115
330
112
100
AcDbEntity
  8
치수문자_일반주서
 62
     0
370
    -2
100
AcDbLine
 10
126.7846264386944
 20
-12.69999999999998
 30
0.0
 11
146.5048129356971
 21
-12.6999999999999
 31
0.0
  0
LINE
  5
116
330
112
100
AcDbEntity
  8
치수문자_일반주서
 62
     0
370
    -2
100
AcDbLine
 10
126.7846264386944
 20
12.70000000000002
 30
0.0
 11
146.5048129356971
 21
12.7000000000001
 31
0.0
  0
LINE
  5
117
330
112
100
AcDbEntity
  8
치수문자_일반주서
 62
     0
370
    -2
100
AcDbLine
 10
146.5048129356971
 20
12.7000000000001
 30
0.0
 11
146.504812935697
 21
44.06024517218202
 31
0.0
  0
LINE
  5
118
330
112
100
AcDbEntity
  8
치수문자_일반주서
 62
     0
370
    -2
100
AcDbLine
 10
146.5048129356971
 20
-12.6999999999999
 30
0.0
 11
146.5048129356971
 21
12.7000000000001
 31
0.0
  0
LINE
  5
119
330
112
100
AcDbEntity
  8
치수문자_일반주서
 62
     0
370
    -2
100
AcDbLine
 10
146.5048129356971
 20
-16.0019999999999
 30
0.0
 11
146.5048129356971
 21
-19.3039999999999
 31
0.0
  0
LINE
  5
11A
330
112
100
AcDbEntity
  8
치수문자_일반주서
 62
     0
370
    -2
100
AcDbLine
 10
146.5048129356971
 20
16.00200000000009
 30
0.0
 11
146.5048129356971
 21
19.30400000000009
 31
0.0
  0
SOLID
  5
11B
330
112
100
AcDbEntity
  8
치수문자_일반주서
 62
     0
100
AcDbTrace
 10
147.0551462690305
 20
-16.0019999999999
 30
0.0
 11
145.9544796023638
 21
-16.00199999999991
 31
0.0
 12
146.5048129356971
 22
-12.6999999999999
 32
0.0
 13
146.5048129356971
 23
-12.6999999999999
 33
0.0
  0
SOLID
  5
11C
330
112
100
AcDbEntity
  8
치수문자_일반주서
 62
     0
100
AcDbTrace
 10
145.9544796023637
 20
16.00200000000009
 30
0.0
 11
147.0551462690304
 21
16.0020000000001
 31
0.0
 12
146.5048129356971
 22
12.7000000000001
 32
0.0
 13
146.5048129356971
 23
12.7000000000001
 33
0.0
  0
MTEXT
  5
11D
330
112
100
AcDbEntity
  8
치수문자_일반주서
 62
     0
100
AcDbMText
 10
142.129812935697
 20
32.90399517218201
 30
0.0
 40
3.5
 41
0.0
 71
     2
 72
     1
  1
\A1;%%c25.40 [1]
  7
SLDTEXTSTYLE0
 11
-3.356894814614646E-15
 21
1.0
 31
0.0
 73
     1
 44
1.0
  0
POINT
  5
11E
330
112
100
AcDbEntity
  8
Defpoints
 62
     0
100
AcDbPoint
 10
126.7221264386944
 20
-12.69999999999998
 30
0.0
  0
POINT
  5
2A0
330
112
100
AcDbEntity
  8
Defpoints
 62
     0
100
AcDbPoint
 10
126.7221264386944
 20
12.70000000000002
 30
0.0
  0
POINT
  5
2A1
330
112
100
AcDbEntity
  8
Defpoints
 62
     0
100
AcDbPoint
 10
146.5048129356971
 20
12.7000000000001
 30
0.0
  0
ENDBLK
  5
114
330
112
100
AcDbEntity
  8
0
100
AcDbBlockEnd
  0
BLOCK
  5
12C
330
12B
100
AcDbEntity
  8
0
100
AcDbBlockBegin
  2
SW_DOWELSYMBOL_0
 70
     0
 10
0.0
 20
0.0
 30
0.0
  3
SW_DOWELSYMBOL_0
  1
SW_DOWELSYMBOL_0
  0
CIRCLE
  5
12E
330
12B
100
AcDbEntity
  8
해칭선
 62
     0
100
AcDbCircle
 10
0.0
 20
0.0
 30
0.0
 40
2.999999999999996
  0
HATCH
  5
12F
330
12B
100
AcDbEntity
  8
0
  6
Continuous
 62
     0
370
     0
100
AcDbHatch
 10
0.0
 20
0.0
 30
0.0
210
0.0
220
0.0
230
1.0
  2
SOLID
 70
     1
 71
     0
 91
        1
 92
        0
 93
        3
 72
     2
 10
0.0
 20
0.0
 40
2.999999999999996
 50
0.0
 51
90.0
 73
     1
 72
     1
 10
0.0
 20
2.999999999999996
 11
0.0
 21
0.0
 72
     1
 10
0.0
 20
0.0
 11
2.999999999999996
 21
0.0
 97
        0
 75
     0
 76
     1
 98
        1
 10
0.0
 20
0.0
  0
HATCH
  5
130
330
12B
100
AcDbEntity
  8
0
  6
Continuous
 62
     0
370
     0
100
AcDbHatch
 10
0.0
 20
0.0
 30
0.0
210
0.0
220
0.0
230
1.0
  2
SOLID
 70
     1
 71
     0
 91
        1
 92
        0
 93
        3
 72
     2
 10
0.0
 20
0.0
 40
2.999999999999996
 50
180.0
 51
270.0000000000007
 73
     1
 72
     1
 10
0.0
 20
-2.999999999999996
 11
0.0
 21
0.0
 72
     1
 10
0.0
 20
0.0
 11
-2.999999999999996
 21
0.0
 97
        0
 75
     0
 76
     1
 98
        1
 10
0.0
 20
0.0
  0
ENDBLK
  5
12D
330
12B
100
AcDbEntity
  8
0
100
AcDbBlockEnd
  0
BLOCK
  5
1FB
330
1FA
100
AcDbEntity
  8
0
100
AcDbBlockBegin
  2
*D7
 70
     1
 10
0.0
 20
0.0
 30
0.0
  3
*D7
  1
*D8
  0
LINE
  5
1FD
330
1FA
100
AcDbEntity
  8
치수문자_일반주서
 62
     0
370
    -2
100
AcDbLine
 10
17.81250000000006
 20
28.82899999999986
 30
0.0
 11
4.375000000000004
 21
28.82899999999981
 31
0.0
  0
LINE
  5
1FE
330
1FA
100
AcDbEntity
  8
치수문자_일반주서
 62
     0
370
    -2
100
AcDbLine
 10
17.81250000000006
 20
6.603999999999862
 30
0.0
 11
4.375000000000082
 21
6.603999999999813
 31
0.0
  0
LINE
  5
1FF
330
1FA
100
AcDbEntity
  8
치수문자_일반주서
 62
     0
370
    -2
100
AcDbLine
 10
4.375000000000016
 20
25.52699999999981
 30
0.0
 11
4.37500000000007
 21
9.905999999999812
 31
0.0
  0
SOLID
  5
200
330
1FA
100
AcDbEntity
  8
치수문자_일반주서
 62
     0
100
AcDbTrace
 10
4.92533333333335
 20
25.52699999999981
 30
0.0
 11
3.824666666666683
 21
25.52699999999981
 31
0.0
 12
4.375000000000004
 22
28.82899999999981
 32
0.0
 13
4.375000000000004
 23
28.82899999999981
 33
0.0
  0
SOLID
  5
201
330
1FA
100
AcDbEntity
  8
치수문자_일반주서
 62
     0
100
AcDbTrace
 10
3.824666666666737
 20
9.90599999999981
 30
0.0
 11
4.925333333333404
 21
9.905999999999814
 31
0.0
 12
4.375000000000082
 22
6.603999999999813
 32
0.0
 13
4.375000000000082
 23
6.603999999999813
 33
0.0
  0
MTEXT
  5
202
330
1FA
100
AcDbEntity
  8
치수문자_일반주서
 62
     0
100
AcDbMText
 10
0.0000000000000426
 20
17.71649999999984
 30
0.0
 40
3.5
 41
0.0
 71
     2
 72
     1
  1
\A1;%%c22.23 [7/8]
  7
SLDTEXTSTYLE0
 11
-3.476783915136599E-15
 21
1.0
 31
0.0
 73
     1
 44
1.0
  0
POINT
  5
203
330
1FA
100
AcDbEntity
  8
Defpoints
 62
     0
100
AcDbPoint
 10
17.87500000000006
 20
28.82899999999986
 30
0.0
  0
POINT
  5
204
330
1FA
100
AcDbEntity
  8
Defpoints
 62
     0
100
AcDbPoint
 10
17.87500000000006
 20
6.603999999999862
 30
0.0
  0
POINT
  5
205
330
1FA
100
AcDbEntity
  8
Defpoints
 62
     0
100
AcDbPoint
 10
4.375000000000085
 20
6.603999999999812
 30
0.0
  0
ENDBLK
  5
1FC
330
1FA
100
AcDbEntity
  8
0
100
AcDbBlockEnd
  0
BLOCK
  5
207
330
206
100
AcDbEntity
  8
0
100
AcDbBlockBegin
  2
*D8
 70
     1
 10
0.0
 20
0.0
 30
0.0
  3
*D8
  1
*D9
  0
LINE
  5
209
330
206
100
AcDbEntity
  8
치수문자_일반주서
 62
     0
370
    -2
100
AcDbLine
 10
169.2750000000001
 20
28.89149999999987
 30
0.0
 11
169.2750000000001
 21
41.99594961506222
 31
0.0
  0
LINE
  5
20A
330
206
100
AcDbEntity
  8
치수문자_일반주서
 62
     0
370
    -2
100
AcDbLine
 10
118.4750000000001
 20
28.70935520638416
 30
0.0
 11
118.4750000000001
 21
41.99594961506222
 31
0.0
  0
LINE
  5
20B
330
206
100
AcDbEntity
  8
치수문자_일반주서
 62
     0
370
    -2
100
AcDbLine
 10
165.9730000000001
 20
41.99594961506222
 30
0.0
 11
121.7770000000001
 21
41.99594961506222
 31
0.0
  0
SOLID
  5
20C
330
206
100
AcDbEntity
  8
치수문자_일반주서
 62
     0
100
AcDbTrace
 10
165.9730000000001
 20
41.44561628172888
 30
0.0
 11
165.9730000000001
 21
42.54628294839555
 31
0.0
 12
169.2750000000001
 22
41.99594961506222
 32
0.0
 13
169.2750000000001
 23
41.99594961506222
 33
0.0
  0
SOLID
  5
20D
330
206
100
AcDbEntity
  8
치수문자_일반주서
 62
     0
100
AcDbTrace
 10
121.7770000000001
 20
42.54628294839555
 30
0.0
 11
121.7770000000001
 21
41.44561628172888
 31
0.0
 12
118.4750000000001
 22
41.99594961506222
 32
0.0
 13
118.4750000000001
 23
41.99594961506222
 33
0.0
  0
MTEXT
  5
20E
330
206
100
AcDbEntity
  8
치수문자_일반주서
 62
     0
100
AcDbMText
 10
143.8750000000001
 20
46.37094961506222
 30
0.0
 40
3.5
 41
0.0
 71
     2
 72
     1
  1
\A1;50.80 [2]
  7
SLDTEXTSTYLE0
 73
     1
 44
1.0
  0
POINT
  5
20F
330
206
100
AcDbEntity
  8
Defpoints
 62
     0
100
AcDbPoint
 10
169.2750000000001
 20
28.82899999999987
 30
0.0
  0
POINT
  5
210
330
206
100
AcDbEntity
  8
Defpoints
 62
     0
100
AcDbPoint
 10
118.4750000000001
 20
28.64685520638416
 30
0.0
  0
POINT
  5
211
330
206
100
AcDbEntity
  8
Defpoints
 62
     0
100
AcDbPoint
 10
118.4750000000001
 20
41.99594961506222
 30
0.0
  0
ENDBLK
  5
208
330
206
100
AcDbEntity
  8
0
100
AcDbBlockEnd
  0
BLOCK
  5
213
330
212
100
AcDbEntity
  8
0
100
AcDbBlockBegin
  2
*D9
 70
     1
 10
0.0
 20
0.0
 30
0.0
  3
*D9
  1
*D10
  0
LINE
  5
215
330
212
100
AcDbEntity
  8
치수문자_일반주서
 62
     0
370
    -2
100
AcDbLine
 10
169.2750000000001
 20
28.89149999999987
 30
0.0
 11
169.2750000000001
 21
58.78713497472346
 31
0.0
  0
LINE
  5
216
330
212
100
AcDbEntity
  8
치수문자_일반주서
 62
     0
370
    -2
100
AcDbLine
 10
16.87500000000006
 20
27.89149999999985
 30
0.0
 11
16.87500000000006
 21
58.78713497472346
 31
0.0
  0
LINE
  5
217
330
212
100
AcDbEntity
  8
치수문자_일반주서
 62
     0
370
    -2
100
AcDbLine
 10
165.9730000000001
 20
58.78713497472346
 30
0.0
 11
20.17700000000006
 21
58.78713497472346
 31
0.0
  0
SOLID
  5
218
330
212
100
AcDbEntity
  8
치수문자_일반주서
 62
     0
100
AcDbTrace
 10
165.9730000000001
 20
58.23680164139012
 30
0.0
 11
165.9730000000001
 21
59.33746830805679
 31
0.0
 12
169.2750000000001
 22
58.78713497472346
 32
0.0
 13
169.2750000000001
 23
58.78713497472346
 33
0.0
  0
SOLID
  5
219
330
212
100
AcDbEntity
  8
치수문자_일반주서
 62
     0
100
AcDbTrace
 10
20.17700000000006
 20
59.33746830805679
 30
0.0
 11
20.17700000000006
 21
58.23680164139012
 31
0.0
 12
16.87500000000006
 22
58.78713497472346
 32
0.0
 13
16.87500000000006
 23
58.78713497472346
 33
0.0
  0
MTEXT
  5
21A
330
212
100
AcDbEntity
  8
치수문자_일반주서
 62
     0
100
AcDbMText
 10
93.07499999999993
 20
63.16213497472346
 30
0.0
 40
3.5
 41
0.0
 71
     2
 72
     1
  1
\A1;152.40 [6]
  7
SLDTEXTSTYLE0
 73
     1
 44
1.0
  0
POINT
  5
21B
330
212
100
AcDbEntity
  8
Defpoints
 62
     0
100
AcDbPoint
 10
169.2750000000001
 20
28.82899999999987
 30
0.0
  0
POINT
  5
21C
330
212
100
AcDbEntity
  8
Defpoints
 62
     0
100
AcDbPoint
 10
16.87500000000006
 20
27.82899999999985
 30
0.0
  0
POINT
  5
21D
330
212
100
AcDbEntity
  8
Defpoints
 62
     0
100
AcDbPoint
 10
16.87500000000006
 20
58.78713497472346
 30
0.0
  0
ENDBLK
  5
214
330
212
100
AcDbEntity
  8
0
100
AcDbBlockEnd
  0
BLOCK
  5
21F
330
21E
100
AcDbEntity
  8
0
100
AcDbBlockBegin
  2
*D10
 70
     1
 10
0.0
 20
0.0
 30
0.0
  3
*D10
  1
*D11
  0
LINE
  5
221
330
21E
100
AcDbEntity
  8
치수문자_일반주서
 62
     0
370
    -2
100
AcDbLine
 10
169.3375000000001
 20
6.603999999999873
 30
0.0
 11
203.2800885580183
 21
6.603999999999999
 31
0.0
  0
LINE
  5
222
330
21E
100
AcDbEntity
  8
치수문자_일반주서
 62
     0
370
    -2
100
AcDbLine
 10
169.3375000000001
 20
28.82899999999987
 30
0.0
 11
203.2800885580183
 21
28.829
 31
0.0
  0
LINE
  5
223
330
21E
100
AcDbEntity
  8
치수문자_일반주서
 62
     0
370
    -2
100
AcDbLine
 10
203.2800885580183
 20
28.829
 30
0.0
 11
203.2800885580181
 21
64.58639224311972
 31
0.0
  0
LINE
  5
224
330
21E
100
AcDbEntity
  8
치수문자_일반주서
 62
     0
370
    -2
100
AcDbLine
 10
203.2800885580183
 20
6.603999999999999
 30
0.0
 11
203.2800885580183
 21
28.829
 31
0.0
  0
LINE
  5
225
330
21E
100
AcDbEntity
  8
치수문자_일반주서
 62
     0
370
    -2
100
AcDbLine
 10
203.2800885580183
 20
3.302
 30
0.0
 11
203.2800885580183
 21
0.0
 31
0.0
  0
LINE
  5
226
330
21E
100
AcDbEntity
  8
치수문자_일반주서
 62
     0
370
    -2
100
AcDbLine
 10
203.2800885580183
 20
32.131
 30
0.0
 11
203.2800885580183
 21
35.433
 31
0.0
  0
SOLID
  5
227
330
21E
100
AcDbEntity
  8
치수문자_일반주서
 62
     0
100
AcDbTrace
 10
203.8304218913517
 20
3.302000000000002
 30
0.0
 11
202.729755224685
 21
3.301999999999997
 31
0.0
 12
203.2800885580183
 22
6.603999999999999
 32
0.0
 13
203.2800885580183
 23
6.603999999999999
 33
0.0
  0
SOLID
  5
228
330
21E
100
AcDbEntity
  8
치수문자_일반주서
 62
     0
100
AcDbTrace
 10
202.7297552246849
 20
32.131
 30
0.0
 11
203.8304218913516
 21
32.131
 31
0.0
 12
203.2800885580183
 22
28.829
 32
0.0
 13
203.2800885580183
 23
28.829
 33
0.0
  0
MTEXT
  5
229
330
21E
100
AcDbEntity
  8
치수문자_일반주서
 62
     0
100
AcDbMText
 10
198.9050885580182
 20
50.1488922431197
 30
0.0
 40
3.5
 41
0.0
 71
     2
 72
     1
  1
\A1;%%c22.23 [7/8]
  7
SLDTEXTSTYLE0
 11
-3.836451216702453E-15
 21
1.0
 31
0.0
 73
     1
 44
1.0
  0
POINT
  5
22A
330
21E
100
AcDbEntity
  8
Defpoints
 62
     0
100
AcDbPoint
 10
169.2750000000001
 20
6.603999999999873
 30
0.0
  0
POINT
  5
22B
330
21E
100
AcDbEntity
  8
Defpoints
 62
     0
100
AcDbPoint
 10
169.2750000000001
 20
28.82899999999987
 30
0.0
  0
POINT
  5
22C
330
21E
100
AcDbEntity
  8
Defpoints
 62
     0
100
AcDbPoint
 10
203.2800885580183
 20
28.829
 30
0.0
  0
ENDBLK
  5
220
330
21E
100
AcDbEntity
  8
0
100
AcDbBlockEnd
  0
BLOCK
  5
26C
330
26B
100
AcDbEntity
  8
0
100
AcDbBlockBegin
  2
*D11
 70
     1
 10
0.0
 20
0.0
 30
0.0
  3
*D11
  1
*D12
  0
LINE
  5
26E
330
26B
100
AcDbEntity
  8
치수문자_일반주서
 62
     0
370
    -2
100
AcDbLine
 10
124.2275061646974
 20
-67.58258965910818
 30
0.0
 11
110.7900061646974
 21
-67.58258965910824
 31
0.0
  0
LINE
  5
26F
330
26B
100
AcDbEntity
  8
치수문자_일반주서
 62
     0
370
    -2
100
AcDbLine
 10
124.2275061646974
 20
-89.80758965910817
 30
0.0
 11
110.7900061646975
 21
-89.80758965910823
 31
0.0
  0
LINE
  5
270
330
26B
100
AcDbEntity
  8
치수문자_일반주서
 62
     0
370
    -2
100
AcDbLine
 10
110.7900061646974
 20
-70.88458965910823
 30
0.0
 11
110.7900061646975
 21
-86.50558965910824
 31
0.0
  0
SOLID
  5
271
330
26B
100
AcDbEntity
  8
치수문자_일반주서
 62
     0
100
AcDbTrace
 10
111.3403394980307
 20
-70.88458965910823
 30
0.0
 11
110.2396728313641
 21
-70.88458965910823
 31
0.0
 12
110.7900061646974
 22
-67.58258965910824
 32
0.0
 13
110.7900061646974
 23
-67.58258965910824
 33
0.0
  0
SOLID
  5
272
330
26B
100
AcDbEntity
  8
치수문자_일반주서
 62
     0
100
AcDbTrace
 10
110.2396728313641
 20
-86.50558965910824
 30
0.0
 11
111.3403394980308
 21
-86.50558965910824
 31
0.0
 12
110.7900061646975
 22
-89.80758965910823
 32
0.0
 13
110.7900061646975
 23
-89.80758965910823
 33
0.0
  0
MTEXT
  5
273
330
26B
100
AcDbEntity
  8
치수문자_일반주서
 62
     0
100
AcDbMText
 10
106.4150061646974
 20
-78.69508965910818
 30
0.0
 40
3.5
 41
0.0
 71
     2
 72
     1
  1
\A1;%%c22.23 [7/8]
  7
SLDTEXTSTYLE0
 11
-3.197042680585378E-15
 21
1.0
 31
0.0
 73
     1
 44
1.0
  0
POINT
  5
274
330
26B
100
AcDbEntity
  8
Defpoints
 62
     0
100
AcDbPoint
 10
124.2900061646974
 20
-67.58258965910818
 30
0.0
  0
POINT
  5
275
330
26B
100
AcDbEntity
  8
Defpoints
 62
     0
100
AcDbPoint
 10
124.2900061646974
 20
-89.80758965910817
 30
0.0
  0
POINT
  5
276
330
26B
100
AcDbEntity
  8
Defpoints
 62
     0
100
AcDbPoint
 10
110.7900061646975
 20
-89.80758965910823
 30
0.0
  0
ENDBLK
  5
26D
330
26B
100
AcDbEntity
  8
0
100
AcDbBlockEnd
  0
BLOCK
  5
278
330
277
100
AcDbEntity
  8
0
100
AcDbBlockBegin
  2
*D12
 70
     1
 10
0.0
 20
0.0
 30
0.0
  3
*D12
  1
*D13
  0
LINE
  5
27A
330
277
100
AcDbEntity
  8
치수문자_일반주서
 62
     0
370
    -2
100
AcDbLine
 10
275.6900061646975
 20
-67.52008965910815
 30
0.0
 11
275.6900061646975
 21
-54.41564004404582
 31
0.0
  0
LINE
  5
27B
330
277
100
AcDbEntity
  8
치수문자_일반주서
 62
     0
370
    -2
100
AcDbLine
 10
224.8900061646975
 20
-67.70223445272387
 30
0.0
 11
224.8900061646975
 21
-54.41564004404582
 31
0.0
  0
LINE
  5
27C
330
277
100
AcDbEntity
  8
치수문자_일반주서
 62
     0
370
    -2
100
AcDbLine
 10
272.3880061646975
 20
-54.41564004404582
 30
0.0
 11
228.1920061646975
 21
-54.41564004404582
 31
0.0
  0
SOLID
  5
27D
330
277
100
AcDbEntity
  8
치수문자_일반주서
 62
     0
100
AcDbTrace
 10
272.3880061646975
 20
-54.96597337737915
 30
0.0
 11
272.3880061646975
 21
-53.86530671071248
 31
0.0
 12
275.6900061646975
 22
-54.41564004404582
 32
0.0
 13
275.6900061646975
 23
-54.41564004404582
 33
0.0
  0
SOLID
  5
27E
330
277
100
AcDbEntity
  8
치수문자_일반주서
 62
     0
100
AcDbTrace
 10
228.1920061646975
 20
-53.86530671071248
 30
0.0
 11
228.1920061646975
 21
-54.96597337737915
 31
0.0
 12
224.8900061646975
 22
-54.41564004404582
 32
0.0
 13
224.8900061646975
 23
-54.41564004404582
 33
0.0
  0
MTEXT
  5
27F
330
277
100
AcDbEntity
  8
치수문자_일반주서
 62
     0
100
AcDbMText
 10
250.2900061646975
 20
-50.04064004404582
 30
0.0
 40
3.5
 41
0.0
 71
     2
 72
     1
  1
\A1;50.80 [2]
  7
SLDTEXTSTYLE0
 73
     1
 44
1.0
  0
POINT
  5
280
330
277
100
AcDbEntity
  8
Defpoints
 62
     0
100
AcDbPoint
 10
275.6900061646975
 20
-67.58258965910815
 30
0.0
  0
POINT
  5
281
330
277
100
AcDbEntity
  8
Defpoints
 62
     0
100
AcDbPoint
 10
224.8900061646975
 20
-67.76473445272387
 30
0.0
  0
POINT
  5
282
330
277
100
AcDbEntity
  8
Defpoints
 62
     0
100
AcDbPoint
 10
224.8900061646975
 20
-54.41564004404582
 30
0.0
  0
ENDBLK
  5
279
330
277
100
AcDbEntity
  8
0
100
AcDbBlockEnd
  0
BLOCK
  5
284
330
283
100
AcDbEntity
  8
0
100
AcDbBlockBegin
  2
*D13
 70
     1
 10
0.0
 20
0.0
 30
0.0
  3
*D13
  1
*D14
  0
LINE
  5
286
330
283
100
AcDbEntity
  8
치수문자_일반주서
 62
     0
370
    -2
100
AcDbLine
 10
275.6900061646975
 20
-67.52008965910817
 30
0.0
 11
275.6900061646975
 21
-37.62445468438457
 31
0.0
  0
LINE
  5
287
330
283
100
AcDbEntity
  8
치수문자_일반주서
 62
     0
370
    -2
100
AcDbLine
 10
123.2900061646974
 20
-68.52008965910818
 30
0.0
 11
123.2900061646974
 21
-37.62445468438457
 31
0.0
  0
LINE
  5
288
330
283
100
AcDbEntity
  8
치수문자_일반주서
 62
     0
370
    -2
100
AcDbLine
 10
272.3880061646975
 20
-37.62445468438457
 30
0.0
 11
126.5920061646974
 21
-37.62445468438457
 31
0.0
  0
SOLID
  5
289
330
283
100
AcDbEntity
  8
치수문자_일반주서
 62
     0
100
AcDbTrace
 10
272.3880061646975
 20
-38.17478801771791
 30
0.0
 11
272.3880061646975
 21
-37.07412135105124
 31
0.0
 12
275.6900061646975
 22
-37.62445468438457
 32
0.0
 13
275.6900061646975
 23
-37.62445468438457
 33
0.0
  0
SOLID
  5
28A
330
283
100
AcDbEntity
  8
치수문자_일반주서
 62
     0
100
AcDbTrace
 10
126.5920061646974
 20
-37.07412135105124
 30
0.0
 11
126.5920061646974
 21
-38.17478801771791
 31
0.0
 12
123.2900061646974
 22
-37.62445468438457
 32
0.0
 13
123.2900061646974
 23
-37.62445468438457
 33
0.0
  0
MTEXT
  5
28B
330
283
100
AcDbEntity
  8
치수문자_일반주서
 62
     0
100
AcDbMText
 10
199.4900061646973
 20
-33.24945468438457
 30
0.0
 40
3.5
 41
0.0
 71
     2
 72
     1
  1
\A1;152.40 [6]
  7
SLDTEXTSTYLE0
 73
     1
 44
1.0
  0
POINT
  5
28C
330
283
100
AcDbEntity
  8
Defpoints
 62
     0
100
AcDbPoint
 10
275.6900061646975
 20
-67.58258965910817
 30
0.0
  0
POINT
  5
28D
330
283
100
AcDbEntity
  8
Defpoints
 62
     0
100
AcDbPoint
 10
123.2900061646974
 20
-68.58258965910818
 30
0.0
  0
POINT
  5
28E
330
283
100
AcDbEntity
  8
Defpoints
 62
     0
100
AcDbPoint
 10
123.2900061646974
 20
-37.62445468438457
 30
0.0
  0
ENDBLK
  5
285
330
283
100
AcDbEntity
  8
0
100
AcDbBlockEnd
  0
BLOCK
  5
290
330
28F
100
AcDbEntity
  8
0
100
AcDbBlockBegin
  2
*D14
 70
     1
 10
0.0
 20
0.0
 30
0.0
  3
*D14
  1
*D15
  0
LINE
  5
292
330
28F
100
AcDbEntity
  8
치수문자_일반주서
 62
     0
370
    -2
100
AcDbLine
 10
275.7525061646975
 20
-89.80758965910816
 30
0.0
 11
309.6950947227157
 21
-89.80758965910803
 31
0.0
  0
LINE
  5
293
330
28F
100
AcDbEntity
  8
치수문자_일반주서
 62
     0
370
    -2
100
AcDbLine
 10
275.7525061646975
 20
-67.58258965910815
 30
0.0
 11
309.6950947227156
 21
-67.58258965910802
 31
0.0
  0
LINE
  5
294
330
28F
100
AcDbEntity
  8
치수문자_일반주서
 62
     0
370
    -2
100
AcDbLine
 10
309.6950947227156
 20
-67.58258965910802
 30
0.0
 11
309.6950947227155
 21
-31.82519741598832
 31
0.0
  0
LINE
  5
295
330
28F
100
AcDbEntity
  8
치수문자_일반주서
 62
     0
370
    -2
100
AcDbLine
 10
309.6950947227157
 20
-89.80758965910803
 30
0.0
 11
309.6950947227156
 21
-67.58258965910802
 31
0.0
  0
LINE
  5
296
330
28F
100
AcDbEntity
  8
치수문자_일반주서
 62
     0
370
    -2
100
AcDbLine
 10
309.6950947227157
 20
-93.10958965910802
 30
0.0
 11
309.6950947227157
 21
-96.41158965910802
 31
0.0
  0
LINE
  5
297
330
28F
100
AcDbEntity
  8
치수문자_일반주서
 62
     0
370
    -2
100
AcDbLine
 10
309.6950947227156
 20
-64.28058965910802
 30
0.0
 11
309.6950947227156
 21
-60.97858965910802
 31
0.0
  0
SOLID
  5
298
330
28F
100
AcDbEntity
  8
치수문자_일반주서
 62
     0
100
AcDbTrace
 10
310.245428056049
 20
-93.10958965910802
 30
0.0
 11
309.1447613893823
 21
-93.10958965910802
 31
0.0
 12
309.6950947227157
 22
-89.80758965910803
 32
0.0
 13
309.6950947227157
 23
-89.80758965910803
 33
0.0
  0
SOLID
  5
299
330
28F
100
AcDbEntity
  8
치수문자_일반주서
 62
     0
100
AcDbTrace
 10
309.1447613893823
 20
-64.28058965910802
 30
0.0
 11
310.245428056049
 21
-64.28058965910802
 31
0.0
 12
309.6950947227156
 22
-67.58258965910802
 32
0.0
 13
309.6950947227156
 23
-67.58258965910802
 33
0.0
  0
MTEXT
  5
29A
330
28F
100
AcDbEntity
  8
치수문자_일반주서
 62
     0
100
AcDbMText
 10
305.3200947227156
 20
-46.26269741598833
 30
0.0
 40
3.5
 41
0.0
 71
     2
 72
     1
  1
\A1;%%c22.23 [7/8]
  7
SLDTEXTSTYLE0
 11
-2.557634144468301E-15
 21
1.0
 31
0.0
 73
     1
 44
1.0
  0
POINT
  5
29B
330
28F
100
AcDbEntity
  8
Defpoints
 62
     0
100
AcDbPoint
 10
275.6900061646975
 20
-89.80758965910816
 30
0.0
  0
POINT
  5
29C
330
28F
100
AcDbEntity
  8
Defpoints
 62
     0
100
AcDbPoint
 10
275.6900061646975
 20
-67.58258965910815
 30
0.0
  0
POINT
  5
29D
330
28F
100
AcDbEntity
  8
Defpoints
 62
     0
100
AcDbPoint
 10
309.6950947227157
 20
-67.58258965910802
 30
0.0
  0
ENDBLK
  5
291
330
28F
100
AcDbEntity
  8
0
100
AcDbBlockEnd
  0
BLOCK
  5
335
330
334
100
AcDbEntity
  8
0
100
AcDbBlockBegin
  2
*D15
 70
     1
 10
0.0
 20
0.0
 30
0.0
  3
*D15
  1
*D15
  0
LINE
  5
337
330
334
100
AcDbEntity
  8
치수문자_일반주서
 62
     0
370
    -2
100
AcDbLine
 10
126.7221264386944
 20
12.76250000000002
 30
0.0
 11
126.7221264386944
 21
32.99295242208521
 31
0.0
  0
LINE
  5
338
330
334
100
AcDbEntity
  8
치수문자_일반주서
 62
     0
370
    -2
100
AcDbLine
 10
0.5158764386943844
 20
12.572
 30
0.0
 11
0.5158764386943844
 21
32.99295242208521
 31
0.0
  0
LINE
  5
339
330
334
100
AcDbEntity
  8
치수문자_일반주서
 62
     0
370
    -2
100
AcDbLine
 10
123.4201264386944
 20
32.99295242208521
 30
0.0
 11
3.817876438694384
 21
32.99295242208521
 31
0.0
  0
SOLID
  5
33A
330
334
100
AcDbEntity
  8
치수문자_일반주서
 62
     0
100
AcDbTrace
 10
123.4201264386944
 20
32.44261908875188
 30
0.0
 11
123.4201264386944
 21
33.54328575541854
 31
0.0
 12
126.7221264386944
 22
32.99295242208521
 32
0.0
 13
126.7221264386944
 23
32.99295242208521
 33
0.0
  0
SOLID
  5
33B
330
334
100
AcDbEntity
  8
치수문자_일반주서
 62
     0
100
AcDbTrace
 10
3.817876438694384
 20
33.54328575541854
 30
0.0
 11
3.817876438694384
 21
32.44261908875188
 31
0.0
 12
0.5158764386943844
 22
32.99295242208521
 32
0.0
 13
0.5158764386943844
 23
32.99295242208521
 33
0.0
  0
MTEXT
  5
33C
330
334
100
AcDbEntity
  8
치수문자_일반주서
 62
     0
100
AcDbMText
 10
63.61900143869438
 20
35.61795242208521
 30
0.0
 40
3.5
 41
0.0
 71
     5
 72
     1
  1
\A1;126.21 [4 31/32]
  7
SLDTEXTSTYLE0
 73
     1
 44
1.0
  0
POINT
  5
33D
330
334
100
AcDbEntity
  8
Defpoints
 62
     0
100
AcDbPoint
 10
126.7221264386944
 20
12.70000000000002
 30
0.0
  0
POINT
  5
33E
330
334
100
AcDbEntity
  8
Defpoints
 62
     0
100
AcDbPoint
 10
0.5158764386943844
 20
12.5095
 30
0.0
  0
POINT
  5
33F
330
334
100
AcDbEntity
  8
Defpoints
 62
     0
100
AcDbPoint
 10
0.5158764386943844
 20
32.99295242208521
 30
0.0
  0
ENDBLK
  5
336
330
334
100
AcDbEntity
  8
0
100
AcDbBlockEnd
  0
ENDSEC
  0
SECTION
  2
ENTITIES
  0
LINE
  5
96
330
1F
100
AcDbEntity
  8
외형선
  6
Continuous
370
    15
100
AcDbLine
 10
0.0
 20
12.7
 30
0.0
 11
-19.99779856130561
 21
12.7
 31
0.0
  0
LINE
  5
97
330
1F
100
AcDbEntity
  8
외형선
  6
Continuous
370
    15
100
AcDbLine
 10
-56.42787356130564
 20
-12.70000000000001
 30
0.0
 11
0.0
 21
-12.7
 31
0.0
  0
LINE
  5
99
330
1F
100
AcDbEntity
  8
외형선
  6
Continuous
370
    15
100
AcDbLine
 10
-57.42787356130564
 20
-11.69999999999999
 30
0.0
 11
-56.42787356130564
 21
-12.69999999999999
 31
0.0
  0
SPLINE
  5
9A
330
1F
100
AcDbEntity
  8
0
  6
Continuous
 62
     1
370
    15
100
AcDbSpline
210
0.0
220
0.0
230
1.0
 70
     8
 71
     3
 72
     9
 73
     5
 74
     0
 42
0.000000001
 43
0.00000001
 40
0.0
 40
0.0
 40
0.0
 40
0.0
 40
0.5259860019659643
 40
1.0
 40
1.0
 40
1.0
 40
1.0
 10
93.81970729623062
 20
3.254303877252791
 30
0.0
 10
93.2020003372149
 20
3.548956846642127
 30
0.0
 10
92.02762125353789
 20
4.109148502480914
 30
0.0
 10
90.85325160572148
 20
4.724754034439441
 30
0.0
 10
90.2965839537902
 20
5.01655967385497
 30
0.0
  0
LINE
  5
9B
330
1F
100
AcDbEntity
  8
0
  6
Continuous
 62
     1
370
    15
100
AcDbLine
 10
64.67560533802802
 20
12.70000000000001
 30
0.0
 11
63.22212643869439
 21
12.70000000000001
 31
0.0
  0
SPLINE
  5
9C
330
1F
100
AcDbEntity
  8
0
  6
Continuous
 62
     1
370
    15
100
AcDbSpline
210
0.0
220
0.0
230
1.0
 70
     8
 71
     3
 72
    20
 73
    16
 74
     0
 42
0.000000001
 43
0.00000001
 40
0.0
 40
0.0
 40
0.0
 40
0.0
 40
0.1259968330296467
 40
0.243258275665356
 40
0.3432238725393973
 40
0.4212448397039603
 40
0.4838107147035916
 40
0.5364708009388202
 40
0.5873258796722745
 40
0.6592133734243957
 40
0.7433461126101468
 40
0.8108415862170333
 40
0.8664406233306954
 40
0.9496013160027289
 40
1.0
 40
1.0
 40
1.0
 40
1.0
 10
89.6220996319093
 20
10.09191843472897
 30
0.0
 10
89.21440890997832
 20
10.07035042005063
 30
0.0
 10
88.4272927608101
 20
10.02870970628012
 30
0.0
 10
87.21633245309627
 20
9.984560715899157
 30
0.0
 10
86.18764389837591
 20
9.955336659133522
 30
0.0
 10
85.35297652046656
 20
9.93751339636136
 30
0.0
 10
84.68996636293906
 20
9.927431410798224
 30
0.0
 10
84.1213267242959
 20
9.921560879898173
 30
0.0
 10
83.5209426228732
 20
9.918001124528729
 30
0.0
 10
82.80747680511773
 20
9.917599984101239
 30
0.0
 10
82.03589525179316
 20
9.922426756936863
 30
0.0
 10
81.3212926154027
 20
9.931488497586576
 30
0.0
 10
80.61161513873385
 20
9.944459320488102
 30
0.0
 10
79.9608231482947
 20
9.959309943218331
 30
0.0
 10
79.50139431022652
 20
9.97443979870779
 30
0.0
 10
79.32802865514141
 20
9.980149055704592
 30
0.0
  0
SPLINE
  5
9D
330
1F
100
AcDbEntity
  8
0
  6
Continuous
 62
     1
370
    15
100
AcDbSpline
210
0.0
220
0.0
230
1.0
 70
     8
 71
     3
 72
    30
 73
    26
 74
     0
 42
0.000000001
 43
0.00000001
 40
0.0
 40
0.0
 40
0.0
 40
0.0
 40
0.0758191752765947
 40
0.1329244800840672
 40
0.1782189950705735
 40
0.2160573615346346
 40
0.2479441839421625
 40
0.2769580264109586
 40
0.3063713945024253
 40
0.3476121227424606
 40
0.3890615813069349
 40
0.417768022079572
 40
0.4521174214743753
 40
0.4999668169495363
 40
0.5544299315507486
 40
0.5973632449364198
 40
0.6426834486274584
 40
0.689670263357378
 40
0.7272340255937711
 40
0.7567443838048671
 40
0.7865682899529216
 40
0.8229241754171036
 40
0.8695381321120654
 40
0.9275943935369132
 40
1.0
 40
1.0
 40
1.0
 40
1.0
 10
122.0037166390815
 20
8.686203246322336
 30
0.0
 10
121.4612831671041
 20
8.641824981931235
 30
0.0
 10
120.5103009521199
 20
8.564022002675651
 30
0.0
 10
119.1759511693951
 20
8.48414551107307
 30
0.0
 10
118.1156085691561
 20
8.43408630925207
 30
0.0
 10
117.2561731581265
 20
8.402346681646028
 30
0.0
 10
116.5270955522321
 20
8.381924008500532
 30
0.0
 10
115.8582663454899
 20
8.368353297532066
 30
0.0
 10
115.1200264869112
 20
8.358950239766608
 30
0.0
 10
114.2901539305513
 20
8.355953945544023
 30
0.0
 10
113.4653692884532
 20
8.36174443988503
 30
0.0
 10
112.6926413790969
 20
8.374114284986097
 30
0.0
 10
111.8644439754843
 20
8.394164943075001
 30
0.0
 10
110.8395723019989
 20
8.429565223890213
 30
0.0
 10
109.7535570415099
 20
8.481417806553084
 30
0.0
 10
108.723250237278
 20
8.544012050328334
 30
0.0
 10
107.7313718148607
 20
8.614372270966356
 30
0.0
 10
106.7682833308266
 20
8.693474885298569
 30
0.0
 10
105.92357131507
 20
8.771489054132148
 30
0.0
 10
105.2056250785003
 20
8.843622618866345
 30
0.0
 10
104.4995269280621
 20
8.919651475203924
 30
0.0
 10
103.6557064289546
 20
9.01682906147416
 30
0.0
 10
102.5917085678193
 20
9.14861518606285
 30
0.0
 10
101.2632361884481
 20
9.32853344227722
 30
0.0
 10
100.3334455571344
 20
9.472313525124958
 30
0.0
 10
99.81741696093343
 20
9.552110666346683
 30
0.0
  0
SPLINE
  5
9E
330
1F
100
AcDbEntity
  8
0
  6
Continuous
 62
     1
370
    15
100
AcDbSpline
210
0.0
220
0.0
230
1.0
 70
     8
 71
     3
 72
    29
 73
    25
 74
     0
 42
0.000000001
 43
0.00000001
 40
0.0
 40
0.0
 40
0.0
 40
0.0
 40
0.0690280568012363
 40
0.1318298269003495
 40
0.18563939752675
 40
0.2282197586291554
 40
0.2624879134831771
 40
0.2909434171276943
 40
0.3182261235161802
 40
0.3570927627050471
 40
0.4026666250095212
 40
0.4391431608092686
 40
0.4689237849203253
 40
0.512931750495003
 40
0.563650829367506
 40
0.6067803991560303
 40
0.6441863140369318
 40
0.6801198516937488
 40
0.7293700058856636
 40
0.7845361845522065
 40
0.8297294728135559
 40
0.8670949506135924
 40
0.9222876166212585
 40
1.0
 40
1.0
 40
1.0
 40
1.0
 10
70.52024479743346
 20
-10.56815819287868
 30
0.0
 10
70.93757652680182
 20
-10.52658369451956
 30
0.0
 10
71.73459692969496
 20
-10.44718469103995
 30
0.0
 10
72.94395595064302
 20
-10.34439059938452
 30
0.0
 10
73.97013119341747
 20
-10.26501657024673
 30
0.0
 10
74.80938036331905
 20
-10.2054353912523
 30
0.0
 10
75.47916549670583
 20
-10.16173515232847
 30
0.0
 10
76.05235528776674
 20
-10.12694263420265
 30
0.0
 10
76.65486110641965
 20
-10.0930032606674
 30
0.0
 10
77.36766315471543
 20
-10.05650708154095
 30
0.0
 10
78.13922454051786
 20
-10.02205008874771
 30
0.0
 10
78.85254034337845
 20
-9.994733220134485
 30
0.0
 10
79.55546775050891
 20
-9.971420570811208
 30
0.0
 10
80.34911882519067
 20
-9.949760826558675
 30
0.0
 10
81.22803411860414
 20
-9.93243199692354
 30
0.0
 10
82.06496042855136
 20
-9.92217795850153
 30
0.0
 10
82.80748387629579
 20
-9.917850035244403
 30
0.0
 10
83.58865736073372
 20
-9.917895554992366
 30
0.0
 10
84.48312840188481
 20
-9.924049993595954
 30
0.0
 10
85.43702430184499
 20
-9.93855442049329
 30
0.0
 10
86.31719724035776
 20
-9.958945859231248
 30
0.0
 10
87.20089694656996
 20
-9.985389238322812
 30
0.0
 10
88.28398457695204
 20
-10.02499119438992
 30
0.0
 10
89.12836979772382
 20
-10.06722401465449
 30
0.0
 10
89.6220996319093
 20
-10.09191843472897
 30
0.0
  0
SPLINE
  5
9F
330
1F
100
AcDbEntity
  8
0
  6
Continuous
 62
     1
370
    15
100
AcDbSpline
210
0.0
220
0.0
230
1.0
 70
     8
 71
     3
 72
    17
 73
    13
 74
     0
 42
0.000000001
 43
0.00000001
 40
0.0
 40
0.0
 40
0.0
 40
0.0
 40
0.1689729572701938
 40
0.3044588493193038
 40
0.4132418358526464
 40
0.4980855624802394
 40
0.5676856095671278
 40
0.6365539298618247
 40
0.7242164784037508
 40
0.8338696036996338
 40
0.9396333589644454
 40
1.0
 40
1.0
 40
1.0
 40
1.0
 10
99.81741696093343
 20
-9.55211066634667
 30
0.0
 10
100.3334455399078
 20
-9.472313508309156
 30
0.0
 10
101.2632361401822
 20
-9.328533395162387
 30
0.0
 10
102.5917087051537
 20
-9.148615320121923
 30
0.0
 10
103.6557060601241
 20
-9.016828701440083
 30
0.0
 10
104.4995279015184
 20
-8.919652425443662
 30
0.0
 10
105.2056221542594
 20
-8.843619764367507
 30
0.0
 10
105.923583428348
 20
-8.771500878512839
 30
0.0
 10
106.7682177092107
 20
-8.693410828734557
 30
0.0
 10
107.7316783735301
 20
-8.614671518322124
 30
0.0
 10
108.5971921754652
 20
-8.552019042078992
 30
0.0
 10
109.1146631387268
 20
-8.521593652785956
 30
0.0
 10
109.3026960609445
 20
-8.51053800857682
 30
0.0
  0
LINE
  5
A0
330
1F
100
AcDbEntity
  8
0
  6
Continuous
 62
     1
370
    15
100
AcDbLine
 10
63.22212643869439
 20
-12.70000000000001
 30
0.0
 11
64.67560533802806
 21
-12.70000000000001
 31
0.0
  0
LINE
  5
A1
330
1F
100
AcDbEntity
  8
외형선
  6
Continuous
370
    15
100
AcDbLine
 10
63.22212643869439
 20
12.7
 30
0.0
 11
63.22212643869439
 21
12.41106739455354
 31
0.0
  0
LINE
  5
A4
330
1F
100
AcDbEntity
  8
외형선
  6
Continuous
370
    15
100
AcDbLine
 10
63.22212643869439
 20
-12.67226439871005
 30
0.0
 11
63.22212643869439
 21
-12.7
 31
0.0
  0
LINE
  5
A5
330
1F
100
AcDbEntity
  8
외형선
  6
Continuous
370
    15
100
AcDbLine
 10
-56.42787356130564
 20
10.795
 30
0.0
 11
-56.42787356130564
 21
-12.70000000000001
 31
0.0
  0
LINE
  5
A7
330
1F
100
AcDbEntity
  8
외형선
  6
Continuous
370
    15
100
AcDbLine
 10
-57.42787356130564
 20
10.795
 30
0.0
 11
-57.42787356130564
 21
-11.69999999999999
 31
0.0
  0
SPLINE
  5
AA
330
1F
100
AcDbEntity
  8
외형선
  6
Continuous
370
    15
100
AcDbSpline
210
0.0
220
0.0
230
1.0
 70
    24
 71
     3
 72
    14
 73
    10
 74
     0
 42
0.000000001
 43
0.00000001
 40
0.0
 40
0.0
 40
0.0
 40
0.0
 40
0.25
 40
0.25
 40
0.5
 40
0.5
 40
0.75
 40
0.75
 40
1.0
 40
1.0
 40
1.0
 40
1.0
 10
63.22212643869439
 20
-2.561177293075832
 30
0.0
 10
63.22212643869439
 20
-3.474104740185876
 30
0.0
 10
63.22212643869439
 20
-4.370979856599631
 30
0.0
 10
63.22212643869439
 20
-6.062814561577053
 30
0.0
 10
63.22212643869439
 20
-6.857208115984037
 30
0.0
 10
63.22212643869439
 20
-8.281218513156915
 30
0.0
 10
63.22212643869439
 20
-8.9104241449475
 30
0.0
 10
63.22212643869439
 20
-9.964767001460547
 30
0.0
 10
63.22212643869439
 20
-10.38984017974387
 30
0.0
 10
63.22212643869439
 20
-10.70886557836866
 30
0.0
  0
SPLINE
  5
AC
330
1F
100
AcDbEntity
  8
외형선
  6
Continuous
370
    15
100
AcDbSpline
210
0.0
220
0.0
230
1.0
 70
    24
 71
     3
 72
    14
 73
    10
 74
     0
 42
0.000000001
 43
0.00000001
 40
0.0
 40
0.0
 40
0.0
 40
0.0
 40
0.2499999999999999
 40
0.2499999999999999
 40
0.4999999999999998
 40
0.4999999999999998
 40
0.7499999999999999
 40
0.7499999999999999
 40
1.0
 40
1.0
 40
1.0
 40
1.0
 10
63.22212643869437
 20
8.602899740783462
 30
0.0
 10
63.22212643869437
 20
8.0940231822589
 30
0.0
 10
63.22212643869437
 20
7.445818526871639
 30
0.0
 10
63.22212643869437
 20
5.894060387025228
 30
0.0
 10
63.22212643869437
 20
4.990764732466616
 30
0.0
 10
63.22212643869437
 20
3.006586370815852
 30
0.0
 10
63.22212643869437
 20
1.926760916909756
 30
0.0
 10
63.22212643869437
 20
-0.2976327963694523
 30
0.0
 10
63.22212643869437
 20
-1.440998472885408
 30
0.0
 10
63.22212643869437
 20
-2.561177293075821
 30
0.0
  0
SPLINE
  5
AD
330
1F
100
AcDbEntity
  8
외형선
  6
Continuous
370
    15
100
AcDbSpline
210
0.0
220
0.0
230
1.0
 70
    24
 71
     3
 72
     8
 73
     4
 74
     0
 42
0.000000001
 43
0.00000001
 40
0.0
 40
0.0
 40
0.0
 40
0.0
 40
1.0
 40
1.0
 40
1.0
 40
1.0
 10
63.22212643869439
 20
-10.70886557836866
 30
0.0
 10
63.22212643869439
 20
-11.37368136155256
 30
0.0
 10
63.22212643869439
 20
-12.0323998339388
 30
0.0
 10
63.22212643869439
 20
-12.67226439869567
 30
0.0
  0
SPLINE
  5
AE
330
1F
100
AcDbEntity
  8
외형선
  6
Continuous
370
    15
100
AcDbSpline
210
0.0
220
0.0
230
1.0
 70
    24
 71
     3
 72
    10
 73
     6
 74
     0
 42
0.000000001
 43
0.00000001
 40
0.0
 40
0.0
 40
0.0
 40
0.0
 40
0.5
 40
0.5
 40
1.0
 40
1.0
 40
1.0
 40
1.0
 10
63.22212643869439
 20
12.41106739455353
 30
0.0
 10
63.22212643869439
 20
11.83659960270082
 30
0.0
 10
63.22212643869439
 20
11.18417443654145
 30
0.0
 10
63.22212643869439
 20
9.86547314286231
 30
0.0
 10
63.22212643869439
 20
9.202816631191132
 30
0.0
 10
63.22212643869439
 20
8.602899740783455
 30
0.0
  0
SPLINE
  5
AF
330
1F
100
AcDbEntity
  8
0
  6
Continuous
 62
     1
370
    15
100
AcDbSpline
210
0.0
220
0.0
230
1.0
 70
     8
 71
     3
 72
    23
 73
    19
 74
     0
 42
0.000000001
 43
0.00000001
 40
0.0
 40
0.0
 40
0.0
 40
0.0
 40
0.0641776517033686
 40
0.1283626219262579
 40
0.1925532019979555
 40
0.2567476765565913
 40
0.3209443255891986
 40
0.3839943881469892
 40
0.4470438724379983
 40
0.5100919156007833
 40
0.5731376558588052
 40
0.6374648954198399
 40
0.7017850211013069
 40
0.7661009779318848
 40
0.8304243170525294
 40
0.8947539962285398
 40
0.9590881686346215
 40
1.0
 40
1.0
 40
1.0
 40
1.0
 10
126.7221264386944
 20
-12.05154903924512
 30
0.0
 10
125.3948430347787
 20
-11.7716584600926
 30
0.0
 10
122.74012486975
 20
-11.21184538437372
 30
0.0
 10
118.7577357529566
 20
-9.900082499367148
 30
0.0
 10
114.7749349075265
 20
-8.29290914586287
 30
0.0
 10
110.7918504623104
 20
-6.406990854423492
 30
0.0
 10
106.8322973855192
 20
-4.326074626305408
 30
0.0
 10
102.8965351368687
 20
-2.118961957016617
 30
0.0
 10
98.98450760369415
 20
0.1415287611212911
 30
0.0
 10
95.07258936377352
 20
2.397571257943755
 30
0.0
 10
91.13429329169863
 20
4.592772377737484
 30
0.0
 10
87.16964337400739
 20
6.654841902359506
 30
0.0
 10
83.1788456573401
 20
8.512549997632364
 30
0.0
 10
79.18821048064889
 20
10.08960724454361
 30
0.0
 10
75.19723717878392
 20
11.33990224967122
 30
0.0
 10
71.20581824730479
 20
12.20077065315855
 30
0.0
 10
67.69855428569947
 20
12.66142594605493
 30
0.0
 10
65.52177535318661
 20
12.65437092858271
 30
0.0
 10
64.67560533802802
 20
12.65162846165038
 30
0.0
  0
SPLINE
  5
B0
330
1F
100
AcDbEntity
  8
0
  6
Continuous
 62
     1
370
    15
100
AcDbSpline
210
0.0
220
0.0
230
1.0
 70
     8
 71
     3
 72
    15
 73
    11
 74
     0
 42
0.000000001
 43
0.00000001
 40
0.0
 40
0.0
 40
0.0
 40
0.0
 40
0.1259892911479677
 40
0.2520074913111913
 40
0.3780429843895652
 40
0.5040841065751396
 40
0.6301191785142107
 40
0.7561365375615611
 40
0.8821246225602237
 40
1.0
 40
1.0
 40
1.0
 40
1.0
 10
126.7221264386944
 20
-10.01994775747634
 30
0.0
 10
125.3360244941802
 20
-9.732222515272342
 30
0.0
 10
122.5635025555628
 20
-9.156706010543566
 30
0.0
 10
118.4041753659506
 20
-7.871426155311346
 30
0.0
 10
114.2442077387928
 20
-6.331063163379534
 30
0.0
 10
110.0840216484612
 20
-4.558279746558089
 30
0.0
 10
105.924071033712
 20
-2.624168079536415
 30
0.0
 10
101.7647708897816
 20
-0.5987306336110655
 30
0.0
 10
97.69545831422215
 20
1.41354476949781
 30
0.0
 10
95.01250248741817
 20
2.685407048947906
 30
0.0
 10
93.71565207950351
 20
3.300182402100453
 30
0.0
  0
LINE
  5
B1
330
1F
100
AcDbEntity
  8
0
  6
Continuous
 62
     1
370
    15
100
AcDbLine
 10
126.7221264386944
 20
-12.05154903924513
 30
0.0
 11
126.7221264386944
 21
-10.01994775747634
 31
0.0
  0
SPLINE
  5
B2
330
1F
100
AcDbEntity
  8
0
  6
Continuous
 62
     1
370
    15
100
AcDbSpline
210
0.0
220
0.0
230
1.0
 70
     8
 71
     3
 72
    68
 73
    64
 74
     0
 42
0.000000001
 43
0.00000001
 40
0.0
 40
0.0
 40
0.0
 40
0.0
 40
0.03125
 40
0.03125
 40
0.0625
 40
0.0625
 40
0.0937500000000001
 40
0.0937500000000001
 40
0.1250000000000001
 40
0.1250000000000001
 40
0.1562500000000001
 40
0.1562500000000001
 40
0.1875000000000001
 40
0.1875000000000001
 40
0.2187500000000001
 40
0.2187500000000001
 40
0.2500000000000002
 40
0.2500000000000002
 40
0.2812500000000002
 40
0.2812500000000002
 40
0.3125000000000002
 40
0.3125000000000002
 40
0.3750000000000002
 40
0.3750000000000002
 40
0.4062500000000002
 40
0.4062500000000002
 40
0.4375000000000001
 40
0.4375000000000001
 40
0.46875
 40
0.46875
 40
0.4999999999999999
 40
0.4999999999999999
 40
0.5312499999999998
 40
0.5312499999999998
 40
0.5624999999999998
 40
0.5624999999999998
 40
0.5937499999999999
 40
0.5937499999999999
 40
0.6249999999999999
 40
0.6249999999999999
 40
0.6562499999999999
 40
0.6562499999999999
 40
0.6874999999999999
 40
0.6874999999999999
 40
0.7187499999999999
 40
0.7187499999999999
 40
0.7499999999999999
 40
0.7499999999999999
 40
0.78125
 40
0.78125
 40
0.8125
 40
0.8125
 40
0.84375
 40
0.84375
 40
0.875
 40
0.875
 40
0.90625
 40
0.90625
 40
0.9375000000000001
 40
0.9375000000000001
 40
0.9687500000000001
 40
0.9687500000000001
 40
1.0
 40
1.0
 40
1.0
 40
1.0
 10
126.7221264386944
 20
-12.69999999999997
 30
0.0
 10
126.0629246790401
 20
-12.67358609014831
 30
0.0
 10
125.4000264615996
 20
-12.64066989283191
 30
0.0
 10
124.0748979386439
 20
-12.5405919782918
 30
0.0
 10
123.4145261798217
 20
-12.47351289220098
 30
0.0
 10
122.093879184026
 20
-12.30578965605946
 30
0.0
 10
121.4305285731543
 20
-12.2049804806714
 30
0.0
 10
120.1058522337739
 20
-11.97059443382638
 30
0.0
 10
119.4469942235684
 20
-11.83721818655172
 30
0.0
 10
118.1245508481323
 20
-11.53845317322915
 30
0.0
 10
117.4609748270246
 20
-11.37301256545726
 30
0.0
 10
116.1372023405914
 20
-11.01200065271972
 30
0.0
 10
115.478843652276
 20
-10.81665351691543
 30
0.0
 10
114.1550530304861
 20
-10.39647494743118
 30
0.0
 10
113.4914788400843
 20
-10.17178698297545
 30
0.0
 10
112.1690608487905
 20
-9.69598138943517
 30
0.0
 10
111.5101864891304
 20
-9.444904773748071
 30
0.0
 10
110.1854992837803
 20
-8.916933426779973
 30
0.0
 10
109.5221541629325
 20
-8.64032689108978
 30
0.0
 10
108.2015397712645
 20
-8.065315743763566
 30
0.0
 10
107.5411353320808
 20
-7.766479529356454
 30
0.0
 10
105.5534371713037
 20
-6.838581675811675
 30
0.0
 10
104.2343656374213
 20
-6.180402118384589
 30
0.0
 10
102.2466784053703
 20
-5.146779523906889
 30
0.0
 10
101.5863390640716
 20
-4.79516932309192
 30
0.0
 10
100.2656595801872
 20
-4.079926824295466
 30
0.0
 10
99.60230353820278
 20
-3.715737663783039
 30
0.0
 10
98.27763818201814
 20
-2.97862957698272
 30
0.0
 10
97.61879625798339
 20
-2.606185508538338
 30
0.0
 10
96.29632761497282
 20
-1.854351542954369
 30
0.0
 10
95.6327498221373
 20
-1.474961053304956
 30
0.0
 10
94.30899558802021
 20
-0.713853280780808
 30
0.0
 10
93.65063663627407
 20
-0.332490868240557
 30
0.0
 10
92.32682799609219
 20
0.4314633688189218
 30
0.0
 10
91.66325569537375
 20
0.8136927433590256
 30
0.0
 10
90.34086320478244
 20
1.573998644264127
 30
0.0
 10
89.68197223238894
 20
1.95209387083946
 30
0.0
 10
88.35727427829832
 20
2.703280757938334
 30
0.0
 10
87.6939347063839
 20
3.07589346734714
 30
0.0
 10
86.37335303487342
 20
3.81064138072578
 30
0.0
 10
85.71291565249948
 20
4.173378351263459
 30
0.0
 10
84.38778007844633
 20
4.887316758384391
 30
0.0
 10
83.72497902314251
 20
5.238162506887662
 30
0.0
 10
82.4064962756191
 20
5.923487327748363
 30
0.0
 10
81.74357994838108
 20
6.259217578522793
 30
0.0
 10
80.4184589459607
 20
6.912642715360526
 30
0.0
 10
79.75815175933782
 20
7.230041943478418
 30
0.0
 10
78.43743990341333
 20
7.844432785495391
 30
0.0
 10
77.77407848922901
 20
8.141860925758472
 30
0.0
 10
76.44942423346295
 20
8.71349386436578
 30
0.0
 10
75.79059813231045
 20
8.98738048172563
 30
0.0
 10
74.46810433830059
 20
9.51073957980989
 30
0.0
 10
73.80452483271581
 20
9.76015829346588
 30
0.0
 10
72.48078896786886
 20
10.23140926935443
 30
0.0
 10
71.82242948926118
 20
10.45307824805651
 30
0.0
 10
70.49860294765746
 20
10.86827562785823
 30
0.0
 10
69.83503259559933
 20
11.0615512308104
 30
0.0
 10
68.51266572226334
 20
11.41713307617744
 30
0.0
 10
67.85375787386232
 20
11.57949919393215
 30
0.0
 10
66.52904928826362
 20
11.87294215578979
 30
0.0
 10
65.8657153241904
 20
12.00378386848927
 30
0.0
 10
64.54516648885732
 20
12.23221499179181
 30
0.0
 10
63.88469590047436
 20
12.33002483094903
 30
0.0
 10
63.22212643869437
 20
12.41106739455355
 30
0.0
  0
SPLINE
  5
B3
330
1F
100
AcDbEntity
  8
0
  6
Continuous
 62
     1
370
    15
100
AcDbSpline
210
0.0
220
0.0
230
1.0
 70
     8
 71
     3
 72
    15
 73
    11
 74
     0
 42
0.000000001
 43
0.00000001
 40
0.0
 40
0.0
 40
0.0
 40
0.0
 40
0.0532624246784928
 40
0.1835492418978308
 40
0.3138542196270365
 40
0.4441648019246261
 40
0.5744684172650507
 40
0.7163037617480794
 40
0.8581164593440791
 40
0.9999999999999999
 40
0.9999999999999999
 40
0.9999999999999999
 40
0.9999999999999999
 10
95.14815554621677
 20
-1.194436031742972
 30
0.0
 10
94.58136154823933
 20
-0.9688608875118248
 30
0.0
 10
92.62811572308249
 20
-0.1914996058099851
 30
0.0
 10
89.288108890914
 20
1.170044514543922
 30
0.0
 10
85.12813429250053
 20
2.813724702854807
 30
0.0
 10
80.96794132188647
 20
4.35946614079314
 30
0.0
 10
76.68511976955935
 20
5.791734557913625
 30
0.0
 10
72.27975282118885
 20
7.031928119940992
 30
0.0
 10
67.75140267333045
 20
8.035984307212598
 30
0.0
 10
64.73213650173838
 20
8.413896472879276
 30
0.0
 10
63.22212643869437
 20
8.602899740783458
 30
0.0
  0
SPLINE
  5
B4
330
1F
100
AcDbEntity
  8
외형선
  6
Continuous
370
    15
100
AcDbSpline
210
0.0
220
0.0
230
1.0
 70
    24
 71
     3
 72
    10
 73
     6
 74
     0
 42
0.000000001
 43
0.00000001
 40
0.0
 40
0.0
 40
0.0
 40
0.0
 40
0.5
 40
0.5
 40
1.0
 40
1.0
 40
1.0
 40
1.0
 10
63.22212643869439
 20
12.41106739455353
 30
0.0
 10
63.22212643869439
 20
11.83659960270082
 30
0.0
 10
63.22212643869439
 20
11.18417443654145
 30
0.0
 10
63.22212643869439
 20
9.86547314286231
 30
0.0
 10
63.22212643869439
 20
9.202816631191132
 30
0.0
 10
63.22212643869439
 20
8.602899740783455
 30
0.0
  0
LINE
  5
B5
330
1F
100
AcDbEntity
  8
0
  6
Continuous
 62
     1
370
    15
100
AcDbLine
 10
126.7221264386944
 20
-12.69999999999998
 30
0.0
 11
126.7221264386944
 21
-12.05154903924513
 31
0.0
  0
SPLINE
  5
B6
330
1F
100
AcDbEntity
  8
0
  6
Continuous
 62
     1
370
    15
100
AcDbSpline
210
0.0
220
0.0
230
1.0
 70
     8
 71
     3
 72
    10
 73
     6
 74
     0
 42
0.000000001
 43
0.00000001
 40
0.0
 40
0.0
 40
0.0
 40
0.0
 40
0.5000000000000012
 40
0.5000000000000012
 40
1.0
 40
1.0
 40
1.0
 40
1.0
 10
126.7221264386944
 20
-3.393985414576475
 30
0.0
 10
125.8715286716998
 20
-2.725276500219896
 30
0.0
 10
125.0295657028447
 20
-2.038875865003494
 30
0.0
 10
123.3626668096137
 20
-0.6311881139455158
 30
0.0
 10
122.5377297067732
 20
0.0900965873561519
 30
0.0
 10
121.7221264386961
 20
0.8305052561804435
 30
0.0
  0
LINE
  5
B7
330
1F
100
AcDbEntity
  8
0
  6
Continuous
 62
     1
370
    15
100
AcDbLine
 10
121.7221264386944
 20
2.9377194352966
 30
0.0
 11
126.7221264386944
 21
0.0000000000000139
 31
0.0
  0
LINE
  5
B8
330
1F
100
AcDbEntity
  8
0
  6
Continuous
 62
     1
370
    15
100
AcDbLine
 10
126.7221264386944
 20
0.0000000000000139
 30
0.0
 11
126.7221264386944
 21
-3.393985414576477
 31
0.0
  0
SPLINE
  5
B9
330
1F
100
AcDbEntity
  8
0
  6
Continuous
 62
     1
370
    15
100
AcDbSpline
210
0.0
220
0.0
230
1.0
 70
     8
 71
     3
 72
    15
 73
    11
 74
     0
 42
0.000000001
 43
0.00000001
 40
0.0
 40
0.0
 40
0.0
 40
0.0
 40
0.120847974631888
 40
0.2416970150311005
 40
0.3625459117976844
 40
0.4921330241626354
 40
0.6217016690436907
 40
0.7512397932850396
 40
0.8807804755009205
 40
1.0
 40
1.0
 40
1.0
 40
1.0
 10
121.7221264386944
 20
2.28978474425064
 30
0.0
 10
120.4290046165573
 20
2.864779567799665
 30
0.0
 10
117.8427495681452
 20
4.014774285820058
 30
0.0
 10
113.9633366914361
 20
5.596154913077507
 30
0.0
 10
109.9904900807107
 20
7.043268554974974
 30
0.0
 10
105.9240379463515
 20
8.286159340950885
 30
0.0
 10
101.7647609381227
 20
9.264862404700802
 30
0.0
 10
97.60613759451684
 20
9.904879786508646
 30
0.0
 10
93.55824598848083
 20
10.21457932675145
 30
0.0
 10
90.89632598600778
 20
10.12260755641816
 30
0.0
 10
89.62058803281873
 20
10.07852964351051
 30
0.0
  0
SPLINE
  5
BA
330
1F
100
AcDbEntity
  8
0
  6
Continuous
 62
     1
370
    15
100
AcDbSpline
210
0.0
220
0.0
230
1.0
 70
    24
 71
     3
 72
     8
 73
     4
 74
     0
 42
0.000000001
 43
0.00000001
 40
0.0
 40
0.0
 40
0.0
 40
0.0
 40
1.0
 40
1.0
 40
1.0
 40
1.0
 10
121.7221264386944
 20
0.8305052561693953
 30
0.0
 10
121.7221264386944
 20
1.322728240362259
 30
0.0
 10
121.7221264386944
 20
1.810406971894862
 30
0.0
 10
121.7221264386944
 20
2.289784744250648
 30
0.0
  0
SPLINE
  5
BB
330
1F
100
AcDbEntity
  8
0
  6
Continuous
 62
     1
370
    15
100
AcDbSpline
210
0.0
220
0.0
230
1.0
 70
    24
 71
     3
 72
    12
 73
     8
 74
     0
 42
0.000000001
 43
0.00000001
 40
0.0
 40
0.0
 40
0.0
 40
0.0
 40
0.5000000000000001
 40
0.5000000000000001
 40
0.75
 40
0.75
 40
1.0
 40
1.0
 40
1.0
 40
1.0
 10
126.7221264386944
 20
-10.01994775747634
 30
0.0
 10
126.7221264386944
 20
-9.251840640348318
 30
0.0
 10
126.7221264386944
 20
-8.281307845612142
 30
0.0
 10
126.7221264386944
 20
-6.589011337313255
 30
0.0
 10
126.7221264386944
 20
-5.986484557405994
 30
0.0
 10
126.7221264386944
 20
-4.725678605577797
 30
0.0
 10
126.7221264386944
 20
-4.067494970664255
 30
0.0
 10
126.7221264386944
 20
-3.393985414576885
 30
0.0
  0
SPLINE
  5
BC
330
1F
100
AcDbEntity
  8
0
  6
Continuous
 62
     1
370
    15
100
AcDbSpline
210
0.0
220
0.0
230
1.0
 70
    24
 71
     3
 72
    10
 73
     6
 74
     0
 42
0.000000001
 43
0.00000001
 40
0.0
 40
0.0
 40
0.0
 40
0.0
 40
0.5
 40
0.5
 40
1.0
 40
1.0
 40
1.0
 40
1.0
 10
121.7221264386944
 20
2.289784744250653
 30
0.0
 10
121.7221264386944
 20
3.318117051978213
 30
0.0
 10
121.7221264386944
 20
4.293337801787557
 30
0.0
 10
121.7221264386944
 20
6.003026800807393
 30
0.0
 10
121.7221264386944
 20
6.73576111203932
 30
0.0
 10
121.7221264386944
 20
7.298596457508388
 30
0.0
  0
SPLINE
  5
BD
330
1F
100
AcDbEntity
  8
0
  6
Continuous
 62
     1
370
    15
100
AcDbSpline
210
0.0
220
0.0
230
1.0
 70
     8
 71
     3
 72
     9
 73
     5
 74
     0
 42
0.000000001
 43
0.00000001
 40
0.0
 40
0.0
 40
0.0
 40
0.0
 40
0.8804535201710566
 40
1.0
 40
1.0
 40
1.0
 40
1.0
 10
126.7221264386944
 20
8.890000000000008
 30
0.0
 10
125.3360270714156
 20
8.882849591386227
 30
0.0
 10
123.761725492146
 20
8.874728312465804
 30
0.0
 10
122.1873657233077
 20
8.689903634847699
 30
0.0
 10
121.9991565549588
 20
8.667808495252936
 30
0.0
  0
SPLINE
  5
BE
330
1F
100
AcDbEntity
  8
0
  6
Continuous
 62
     1
370
    15
100
AcDbSpline
210
0.0
220
0.0
230
1.0
 70
     8
 71
     3
 72
     8
 73
     4
 74
     0
 42
0.000000001
 43
0.00000001
 40
0.0
 40
0.0
 40
0.0
 40
0.0
 40
1.0
 40
1.0
 40
1.0
 40
1.0
 10
126.7221264386944
 20
8.890000000000015
 30
0.0
 10
125.0414783252565
 20
8.434389401781305
 30
0.0
 10
123.3741687783915
 20
7.90736356168452
 30
0.0
 10
121.7221264386944
 20
7.298596457508388
 30
0.0
  0
SPLINE
  5
BF
330
1F
100
AcDbEntity
  8
0
  6
Continuous
 62
     1
370
    15
100
AcDbSpline
210
0.0
220
0.0
230
1.0
 70
     8
 71
     3
 72
     9
 73
     5
 74
     0
 42
0.000000001
 43
0.00000001
 40
0.0
 40
0.0
 40
0.0
 40
0.0
 40
0.3802642413053806
 40
1.0
 40
1.0
 40
1.0
 40
1.0
 10
70.53146449760278
 20
-10.51383414167409
 30
0.0
 10
69.6050246435497
 20
-10.61387421802468
 30
0.0
 10
67.16871916588296
 20
-10.87695463812194
 30
0.0
 10
64.73215338285104
 20
-10.77317903222388
 30
0.0
 10
63.2221264386944
 20
-10.70886557836866
 30
0.0
  0
SPLINE
  5
C0
330
1F
100
AcDbEntity
  8
0
  6
Continuous
 62
     1
370
    15
100
AcDbSpline
210
0.0
220
0.0
230
1.0
 70
     8
 71
     3
 72
    16
 73
    12
 74
     0
 42
0.000000001
 43
0.00000001
 40
0.0
 40
0.0
 40
0.0
 40
0.0
 40
0.0608548463631783
 40
0.1744400669850044
 40
0.2880513324318391
 40
0.4016780216589712
 40
0.5153094709643602
 40
0.628935003467944
 40
0.7526161032464855
 40
0.8762779680184694
 40
1.0
 40
1.0
 40
1.0
 40
1.0
 10
99.83407255179827
 20
-9.5068741359496
 30
0.0
 10
99.0914356992576
 20
-9.631039175953605
 30
0.0
 10
96.96267143404849
 20
-9.986957548768693
 30
0.0
 10
93.44748737642834
 20
-10.1930128105477
 30
0.0
 10
89.28812549686091
 20
-10.13593780958556
 30
0.0
 10
85.1281446808567
 20
-9.700812089825776
 30
0.0
 10
80.96794522508378
 20
-8.924169052594818
 30
0.0
 10
76.68513703497538
 20
-7.796403193650922
 30
0.0
 10
72.27974231705346
 20
-6.325578850497175
 30
0.0
 10
67.75144288192186
 20
-4.553674843516905
 30
0.0
 10
64.73214336500318
 20
-3.225450824083729
 30
0.0
 10
63.22212643869441
 20
-2.561177293075839
 30
0.0
  0
SPLINE
  5
C1
330
1F
100
AcDbEntity
  8
외형선
  6
Continuous
370
    15
100
AcDbSpline
210
0.0
220
0.0
230
1.0
 70
    24
 71
     3
 72
    14
 73
    10
 74
     0
 42
0.000000001
 43
0.00000001
 40
0.0
 40
0.0
 40
0.0
 40
0.0
 40
0.25
 40
0.25
 40
0.5
 40
0.5
 40
0.75
 40
0.75
 40
1.0
 40
1.0
 40
1.0
 40
1.0
 10
63.22212643869439
 20
-2.561177293075832
 30
0.0
 10
63.22212643869439
 20
-3.474104740185876
 30
0.0
 10
63.22212643869439
 20
-4.370979856599631
 30
0.0
 10
63.22212643869439
 20
-6.062814561577053
 30
0.0
 10
63.22212643869439
 20
-6.857208115984037
 30
0.0
 10
63.22212643869439
 20
-8.281218513156915
 30
0.0
 10
63.22212643869439
 20
-8.9104241449475
 30
0.0
 10
63.22212643869439
 20
-9.964767001460547
 30
0.0
 10
63.22212643869439
 20
-10.38984017974387
 30
0.0
 10
63.22212643869439
 20
-10.70886557836866
 30
0.0
  0
SPLINE
  5
C2
330
1F
100
AcDbEntity
  8
외형선
  6
Continuous
370
    15
100
AcDbSpline
210
0.0
220
0.0
230
1.0
 70
    24
 71
     3
 72
    14
 73
    10
 74
     0
 42
0.000000001
 43
0.00000001
 40
0.0
 40
0.0
 40
0.0
 40
0.0
 40
0.2499999999999999
 40
0.2499999999999999
 40
0.4999999999999998
 40
0.4999999999999998
 40
0.7499999999999999
 40
0.7499999999999999
 40
1.0
 40
1.0
 40
1.0
 40
1.0
 10
63.22212643869437
 20
8.602899740783462
 30
0.0
 10
63.22212643869437
 20
8.0940231822589
 30
0.0
 10
63.22212643869437
 20
7.445818526871639
 30
0.0
 10
63.22212643869437
 20
5.894060387025228
 30
0.0
 10
63.22212643869437
 20
4.990764732466616
 30
0.0
 10
63.22212643869437
 20
3.006586370815852
 30
0.0
 10
63.22212643869437
 20
1.926760916909756
 30
0.0
 10
63.22212643869437
 20
-0.2976327963694523
 30
0.0
 10
63.22212643869437
 20
-1.440998472885408
 30
0.0
 10
63.22212643869437
 20
-2.561177293075821
 30
0.0
  0
LINE
  5
C3
330
1F
100
AcDbEntity
  8
0
  6
Continuous
 62
     1
370
    15
100
AcDbLine
 10
126.7221264386944
 20
0.0000000000000139
 30
0.0
 11
126.7221264386944
 21
8.890000000000011
 31
0.0
  0
SPLINE
  5
C4
330
1F
100
AcDbEntity
  8
0
  6
Continuous
 62
     1
370
    15
100
AcDbSpline
210
0.0
220
0.0
230
1.0
 70
     8
 71
     3
 72
    12
 73
     8
 74
     0
 42
0.000000001
 43
0.00000001
 40
0.0
 40
0.0
 40
0.0
 40
0.0
 40
0.0087997334164767
 40
0.2565702869756545
 40
0.5043652621374586
 40
0.7521775450155177
 40
1.0
 40
1.0
 40
1.0
 40
1.0
 10
79.33007885472689
 20
-9.979342801776243
 30
0.0
 10
79.28283249861883
 20
-9.997981378418812
 30
0.0
 10
77.90528950140731
 20
-10.5414188590416
 30
0.0
 10
75.19723238637741
 20
-11.31570972759502
 30
0.0
 10
71.20581987392289
 20
-12.21253665309181
 30
0.0
 10
67.21406332771333
 20
-12.70218965440131
 30
0.0
 10
64.55279027448167
 20
-12.68223962042115
 30
0.0
 10
63.22212643868968
 20
-12.67226439870988
 30
0.0
  0
SPLINE
  5
C5
330
1F
100
AcDbEntity
  8
외형선
  6
Continuous
370
    15
100
AcDbSpline
210
0.0
220
0.0
230
1.0
 70
    24
 71
     3
 72
     8
 73
     4
 74
     0
 42
0.000000001
 43
0.00000001
 40
0.0
 40
0.0
 40
0.0
 40
0.0
 40
1.0
 40
1.0
 40
1.0
 40
1.0
 10
63.22212643869439
 20
-10.70886557836866
 30
0.0
 10
63.22212643869439
 20
-11.37368136155256
 30
0.0
 10
63.22212643869439
 20
-12.0323998339388
 30
0.0
 10
63.22212643869439
 20
-12.67226439869567
 30
0.0
  0
SPLINE
  5
C6
102
{ACAD_REACTORS
102
}
330
1F
100
AcDbEntity
  8
0
  6
Continuous
 62
     1
370
    15
100
AcDbSpline
210
0.0
220
0.0
230
1.0
 70
     8
 71
     3
 72
    12
 73
     8
 74
     0
 42
0.000000001
 43
0.00000001
 40
0.0
 40
0.0
 40
0.0
 40
0.0
 40
0.0834851806188136
 40
0.3126416040089517
 40
0.5417839339884815
 40
0.7709055856461937
 40
1.0
 40
1.0
 40
1.0
 40
1.0
 10
109.3026960609445
 20
8.51053800857683
 30
0.0
 10
109.7874647642166
 20
8.725990543861311
 30
0.0
 10
111.6028631839236
 20
9.53283345561943
 30
0.0
 10
114.7487880008707
 20
10.63310172338864
 30
0.0
 10
118.7403186808009
 20
11.73980184480469
 30
0.0
 10
122.7314247032659
 20
12.47284865451311
 30
0.0
 10
125.3919452424863
 20
12.61712984590545
 30
0.0
 10
126.7221264386944
 20
12.70000000000002
 30
0.0
  0
SPLINE
  5
C7
330
1F
100
AcDbEntity
  8
0
  6
Continuous
 62
     1
370
    15
100
AcDbSpline
210
0.0
220
0.0
230
1.0
 70
    24
 71
     3
 72
    10
 73
     6
 74
     0
 42
0.000000001
 43
0.00000001
 40
0.0
 40
0.0
 40
0.0
 40
0.0
 40
0.5
 40
0.5
 40
1.0
 40
1.0
 40
1.0
 40
1.0
 10
126.7221264386944
 20
8.890000000000004
 30
0.0
 10
126.7221264386944
 20
9.42888966145289
 30
0.0
 10
126.7221264386944
 20
10.05512935461238
 30
0.0
 10
126.7221264386944
 20
11.36897854420288
 30
0.0
 10
126.7221264386944
 20
12.0532326346787
 30
0.0
 10
126.7221264386944
 20
12.70000000000002
 30
0.0
  0
LINE
  5
C8
330
1F
100
AcDbEntity
  8
중심선
100
AcDbLine
 10
-60.42787356130564
 20
0.0000000000000016
 30
0.0
 11
129.7221264386944
 21
0.0000000000000249
 31
0.0
  0
LINE
  5
C9
330
1F
100
AcDbEntity
  8
참조1
100
AcDbLine
 10
37.49638775272552
 20
0.0010749287239034
 30
0.0
 11
37.49638775272552
 21
-39.9989250712761
 31
0.0
  0
LINE
  5
CA
330
1F
100
AcDbEntity
  8
참조1
100
AcDbLine
 10
37.49638775272552
 20
-39.9989250712761
 30
0.0
 11
31.0713252174259
 21
-39.99892507127608
 31
0.0
  0
CIRCLE
  5
CB
330
1F
100
AcDbEntity
  8
해칭선
100
AcDbCircle
 10
0.0
 20
-0.0000000000000018
 30
0.0
 40
2.999999999999996
  0
INSERT
  5
CC
330
1F
100
AcDbEntity
  8
0
  6
Continuous
 62
     7
100
AcDbBlockReference
 66
     1
  2
블럭10
 10
20.70685350656916
 20
-52.04717430164393
 30
0.0
  0
ATTRIB
  5
CD
330
CC
100
AcDbEntity
  8
FORMAT
 62
     2
100
AcDbText
 10
11.52555821782788
 20
-49.97180738881174
 30
0.0
 40
4.233333333333333
  1
E1033064 [ 2 FLUTE ]
 41
0.75
  7
SLDTEXTSTYLE0
 11
11.52555821782788
 21
-52.08847405547841
 31
0.0
100
AcDbAttribute
  2
AUTOATTR0
 70
     0
 74
     1
  0
SEQEND
  5
CE
330
CC
100
AcDbEntity
  8
0
  6
Continuous
 62
     7
  0
HATCH
  5
CF
330
1F
100
AcDbEntity
  8
중심선
100
AcDbHatch
 10
0.0
 20
0.0
 30
0.0
210
0.0
220
0.0
230
1.0
  2
SOLID
 70
     1
 71
     0
 91
        1
 92
        0
 93
        4
 72
     1
 10
26.42176281095
 20
-35.79999999999998
 11
22.97548756711272
 21
-35.79999999999998
 72
     1
 10
22.97548756711272
 20
-35.79999999999998
 11
20.8472577079087
 21
-38.3363255805726
 72
     1
 10
20.8472577079087
 20
-38.3363255805726
 11
24.29356603685913
 21
-38.33628615127011
 72
     1
 10
24.29356603685913
 20
-38.33628615127011
 11
26.42176281095
 21
-35.79999999999998
 97
        0
 75
     0
 76
     1
 98
        1
 10
48.37286512466322
 20
-0.001074928723888
  0
HATCH
  5
D0
330
1F
100
AcDbEntity
  8
중심선
100
AcDbHatch
 10
0.0
 20
0.0
 30
0.0
210
0.0
220
0.0
230
1.0
  2
SOLID
 70
     1
 71
     0
 91
        1
 92
        0
 93
        4
 72
     1
 10
31.43452680198598
 20
-35.79999999999998
 11
27.9882515581487
 21
-35.79999999999998
 72
     1
 10
27.9882515581487
 20
-35.79999999999998
 11
23.45711354979128
 21
-41.2
 72
     1
 10
23.45711354979128
 20
-41.2
 11
26.90338879362856
 21
-41.2
 72
     1
 10
26.90338879362857
 20
-41.2
 11
31.43452680198598
 21
-35.79999999999998
 97
        0
 75
     0
 76
     1
 98
        1
 10
48.37286512466322
 20
-0.001074928723888
  0
HATCH
  5
D1
330
1F
100
AcDbEntity
  8
중심선
100
AcDbHatch
 10
0.0
 20
0.0
 30
0.0
210
0.0
220
0.0
230
1.0
  2
SOLID
 70
     1
 71
     0
 91
        1
 92
        0
 93
        4
 72
     1
 10
36.44729079302185
 20
-35.79999999999998
 11
33.00101554918473
 21
-35.79999999999998
 72
     1
 10
33.00101554918473
 20
-35.79999999999998
 11
25.95257864729548
 21
-44.2
 72
     1
 10
25.95257864729548
 20
-44.2
 11
29.39885389113277
 21
-44.2
 72
     1
 10
29.39885389113277
 20
-44.2
 11
36.44729079302185
 21
-35.79999999999998
 97
        0
 75
     0
 76
     1
 98
        1
 10
48.37286512466322
 20
-0.001074928723888
  0
HATCH
  5
D2
330
1F
100
AcDbEntity
  8
중심선
100
AcDbHatch
 10
0.0
 20
0.0
 30
0.0
210
0.0
220
0.0
230
1.0
  2
SOLID
 70
     1
 71
     0
 91
        1
 92
        0
 93
        6
 72
     3
 10
41.24718122403405
 20
-40.00000000005127
 11
3.960054785062283
 21
1.540882976769353E-10
 40
0.3939339440162628
 50
17.09539180608439
 51
320.0019657685082
 73
     0
 72
     1
 10
42.93018087973461
 20
-38.58789400463833
 11
45.2354827534357
 21
-36.65356729459037
 72
     3
 10
41.2471812239812
 20
-40.00000000000015
 11
6.600054785286829
 21
-1.278976924368180E-13
 40
0.636358354079598
 50
39.99873849337381
 51
368.4976242363724
 73
     1
 72
     1
 10
47.67251371588181
 20
-39.03999999993002
 11
39.92724853081712
 21
-39.03999999993002
 72
     1
 10
39.92724853081712
 20
-39.03999999993002
 11
39.92722348637118
 21
-40.95999999992991
 72
     1
 10
39.92722348637119
 20
-40.95999999992991
 11
44.36860325584323
 21
-40.95999999992988
 97
        0
 75
     0
 76
     1
 98
        1
 10
48.37286512466322
 20
-0.001074928723888
  0
DIMENSION
  5
D3
330
1F
100
AcDbEntity
  8
치수문자_일반주서
100
AcDbDimension
  2
_D
 10
-69.92787356130559
 20
-12.70000000000007
 30
0.0
 11
-69.92787356130563
 21
0.0000000000000086
 31
0.0
 70
   160
  1
%%c<>
 71
     2
 42
25.40000000000001
 52
-270.0
  3
SLDDIMSTYLE0
100
AcDbAlignedDimension
 13
-56.42787356130564
 23
12.69999999999999
 33
0.0
 14
-56.42787356130564
 24
-12.70000000000002
 34
0.0
 50
90.0000000000002
100
AcDbRotatedDimension
1001
ACAD
1000
DSTYLE
1002
{
1070
   171
1070
     6
1070
   273
1070
     7
1002
}
  0
DIMENSION
  5
E8
330
1F
100
AcDbEntity
  8
치수문자_일반주서
100
AcDbDimension
  2
_D_1
 10
63.22212643869439
 20
25.86560788423941
 30
0.0
 11
94.97212643869439
 21
25.86560788423941
 31
0.0
 70
   160
  1
<>
 71
     2
 42
63.49999999999999
  3
SLDDIMSTYLE0
100
AcDbAlignedDimension
 13
126.7221264386944
 23
12.70000000000002
 33
0.0
 14
63.22212643869439
 24
12.7
 34
0.0
 50
0.0000000000000032
100
AcDbRotatedDimension
1001
ACAD
1000
DSTYLE
1002
{
1070
   171
1070
     6
1070
   273
1070
     7
1002
}
  0
DIMENSION
  5
FD
330
1F
100
AcDbEntity
  8
치수문자_일반주서
100
AcDbDimension
  2
_D_2
 10
-57.42787356130565
 20
42.57707860462924
 30
0.0
 11
34.64712643869437
 21
42.57707860462924
 31
0.0
 70
   160
  1
<>
 71
     2
 42
184.15
  3
SLDDIMSTYLE0
100
AcDbAlignedDimension
 13
126.7221264386944
 23
12.70000000000002
 33
0.0
 14
-57.42787356130564
 24
11.69999999999999
 34
0.0
 50
0.0000000000000044
100
AcDbRotatedDimension
1001
ACAD
1000
DSTYLE
1002
{
1070
   171
1070
     6
1070
   273
1070
     7
1002
}
  0
DIMENSION
  5
111
330
1F
100
AcDbEntity
  8
치수문자_일반주서
100
AcDbDimension
  2
_D_3
 10
146.5048129356971
 20
12.7000000000001
 30
0.0
 11
146.504812935697
 21
32.90399517218202
 31
0.0
 70
   160
  1
%%c<>
 71
     2
 42
25.4
 52
-270.0
  3
SLDDIMSTYLE0
100
AcDbAlignedDimension
 13
126.7221264386944
 23
-12.69999999999998
 33
0.0
 14
126.7221264386944
 24
12.70000000000002
 34
0.0
 50
90.0000000000002
100
AcDbRotatedDimension
1001
ACAD
1000
DSTYLE
1002
{
1070
   171
1070
     6
1070
   273
1070
     7
1002
}
  0
LINE
  5
124
330
1F
100
AcDbEntity
  8
참조1
100
AcDbLine
 10
129.0436658470801
 20
7.441074928723911
 30
0.0
 11
129.0436658470801
 21
-7.438925071276095
 31
0.0
  0
LINE
  5
125
330
1F
100
AcDbEntity
  8
참조1
100
AcDbLine
 10
141.7436658470802
 20
5.441074928723911
 30
0.0
 11
129.0436658470801
 21
5.441074928723911
 31
0.0
  0
SOLID
  5
126
330
1F
100
AcDbEntity
  8
참조1
100
AcDbTrace
 10
129.0436658470801
 20
5.441074928723911
 30
0.0
 11
135.3936658470801
 21
4.425074928723911
 31
0.0
 12
135.3936658470801
 22
6.457074928723911
 32
0.0
 13
135.3936658470801
 23
6.457074928723911
 33
0.0
  0
LINE
  5
127
330
1F
100
AcDbEntity
  8
참조1
100
AcDbLine
 10
141.7436658470802
 20
-5.438925071276095
 30
0.0
 11
129.0436658470801
 21
-5.438925071276095
 31
0.0
  0
SOLID
  5
128
330
1F
100
AcDbEntity
  8
참조1
100
AcDbTrace
 10
129.0436658470801
 20
-5.438925071276095
 30
0.0
 11
135.3936658470801
 21
-6.454925071276095
 31
0.0
 12
135.3936658470801
 22
-4.422925071276095
 32
0.0
 13
135.3936658470801
 23
-4.422925071276095
 33
0.0
  0
MTEXT
  5
129
330
1F
100
AcDbEntity
  8
참조1
100
AcDbMText
 10
138.4280159797061
 20
11.01136670591223
 30
0.0
 40
3.5
 41
0.0
 71
     1
 72
     1
  1
A
  7
SLDTEXTSTYLE0
 73
     1
 44
1.0
  0
MTEXT
  5
12A
330
1F
100
AcDbEntity
  8
참조1
100
AcDbMText
 10
138.4280159797061
 20
0.1313667059122334
 30
0.0
 40
3.5
 41
0.0
 71
     1
 72
     1
  1
A
  7
SLDTEXTSTYLE0
 73
     1
 44
1.0
  0
INSERT
  5
131
330
1F
100
AcDbEntity
  8
해칭선
100
AcDbBlockReference
  2
SW_DOWELSYMBOL_0
 10
0.0
 20
-0.0000000000000018
 30
0.0
  0
LINE
  5
2D4
330
1F
100
AcDbEntity
  8
외형선
  6
Continuous
370
    15
100
AcDbLine
 10
-42.82287356130565
 20
12.7
 30
0.0
 11
-36.91419856130552
 21
12.7
 31
0.0
  0
LINE
  5
2D5
330
1F
100
AcDbEntity
  8
외형선
  6
Continuous
370
    15
100
AcDbLine
 10
-35.00919856130555
 20
10.795
 30
0.0
 11
-36.91419856130552
 21
12.7
 31
0.0
  0
LINE
  5
2D6
330
1F
100
AcDbEntity
  8
외형선
  6
Continuous
370
    15
100
AcDbLine
 10
-57.42787356130564
 20
10.795
 30
0.0
 11
-44.72787356130562
 21
10.795
 31
0.0
  0
LINE
  5
2D7
330
1F
100
AcDbEntity
  8
외형선
  6
Continuous
370
    15
100
AcDbLine
 10
-44.72787356130562
 20
10.795
 30
0.0
 11
-42.82287356130565
 21
12.69999999999999
 31
0.0
  0
LINE
  5
2D9
330
1F
100
AcDbEntity
  8
외형선
  6
Continuous
370
    15
100
AcDbLine
 10
-35.00919856130555
 20
10.795
 30
0.0
 11
-21.90279856130565
 21
10.795
 31
0.0
  0
LINE
  5
2DA
330
1F
100
AcDbEntity
  8
외형선
  6
Continuous
370
    15
100
AcDbLine
 10
-21.90279856130565
 20
10.795
 30
0.0
 11
-19.99779856130562
 21
12.7
 31
0.0
  0
LINE
  5
2DB
330
1F
100
AcDbEntity
  8
외형선
  6
Continuous
370
    15
100
AcDbLine
 10
-19.99779856130562
 20
12.7
 30
0.0
 11
0.0
 21
12.7
 31
0.0
  0
LINE
  5
2DC
330
1F
100
AcDbEntity
  8
외형선
  6
Continuous
370
    15
100
AcDbLine
 10
-36.91419856130549
 20
12.69999999999999
 30
0.0
 11
-42.82287356130563
 21
12.69999999999999
 31
0.0
  0
LINE
  5
326
330
1F
100
AcDbEntity
  8
외형선
  6
Continuous
370
    15
100
AcDbLine
 10
0.0
 20
-12.7
 30
0.0
 11
0.0
 21
12.7
 31
0.0
  0
LINE
  5
327
330
1F
100
AcDbEntity
  8
외형선
  6
Continuous
370
    15
100
AcDbLine
 10
0.0
 20
12.5095
 30
0.0
 11
0.0
 21
-12.5095
 31
0.0
  0
LINE
  5
328
330
1F
100
AcDbEntity
  8
외형선
  6
Continuous
370
    15
100
AcDbLine
 10
0.5158764386943844
 20
12.5095
 30
0.0
 11
62.70625
 21
12.5095
 31
0.0
  0
ARC
  5
329
102
{ACAD_REACTORS
102
}
330
1F
100
AcDbEntity
  8
외형선
  6
Continuous
370
    15
100
AcDbCircle
 10
0.5158764386943844
 20
13.30325
 30
0.0
 40
0.7937499999999997
100
AcDbArc
 50
229.4641978886834
 51
270.0
  0
ARC
  5
32A
330
1F
100
AcDbEntity
  8
외형선
  6
Continuous
370
    15
100
AcDbCircle
 10
62.70625
 20
13.30325
 30
0.0
 40
0.7937499999999997
100
AcDbArc
 50
270.0
 51
310.5358021113171
  0
LINE
  5
32C
330
1F
100
AcDbEntity
  8
외형선
  6
Continuous
370
    15
100
AcDbLine
 10
0.5158764386943844
 20
-12.5095
 30
0.0
 11
62.70625
 21
-12.5095
 31
0.0
  0
ARC
  5
32D
330
1F
100
AcDbEntity
  8
외형선
  6
Continuous
370
    15
100
AcDbCircle
 10
62.70625
 20
-13.30325
 30
0.0
 40
0.7937499999999997
100
AcDbArc
 50
49.46419788868288
 51
90.0
  0
ARC
  5
32E
330
1F
100
AcDbEntity
  8
외형선
  6
Continuous
370
    15
100
AcDbCircle
 10
0.5158764386943844
 20
-13.30325
 30
0.0
 40
0.7937499999999997
100
AcDbArc
 50
90.0
 51
130.5358021113167
  0
LINE
  5
32F
330
1F
100
AcDbEntity
  8
외형선
  6
Continuous
370
    15
100
AcDbLine
 10
0.5158764386943844
 20
-12.5095
 30
0.0
 11
0.5158764386943844
 21
12.5095
 31
0.0
  0
LINE
  5
330
330
1F
100
AcDbEntity
  8
외형선
  6
Continuous
370
    15
100
AcDbLine
 10
62.70625
 20
12.5095
 30
0.0
 11
62.70625
 21
-12.5095
 31
0.0
  0
DIMENSION
  5
331
102
{ACAD_REACTORS
102
}
102
{ACAD_XDICTIONARY
360
332
102
}
330
1F
100
AcDbEntity
  8
치수문자_일반주서
100
AcDbDimension
  2
*D15
 10
0.5158764386943844
 20
32.99295242208521
 30
0.0
 11
63.61900143869438
 21
35.61795242208521
 31
0.0
 70
    32
 71
     5
 42
126.20625
  3
SLDDIMSTYLE0
100
AcDbAlignedDimension
 13
126.7221264386944
 23
12.70000000000002
 33
0.0
 14
0.5158764386943844
 24
12.5095
 34
0.0
100
AcDbRotatedDimension
1001
ACAD
1000
DSTYLE
1002
{
1070
   171
1070
     6
1070
   273
1070
     7
1002
}
  0
ENDSEC
  0
SECTION
  2
OBJECTS
  0
DICTIONARY
  5
C
330
0
100
AcDbDictionary
281
     1
  3
ACAD_GROUP
350
D
  3
ACAD_IMAGE_VARS
350
155
  3
ACAD_LAYOUT
350
1A
  3
ACAD_MLINESTYLE
350
17
  3
ACAD_PLOTSETTINGS
350
19
  3
ACAD_PLOTSTYLENAME
350
E
  3
ACAD_SCALELIST
350
47
  3
APPDATA
350
153
  3
DWGPROPS
350
342
  0
DICTIONARY
  5
1F6
330
2
100
AcDbDictionary
280
     1
281
     1
  3
ACAD_LAYERSTATES
360
1F7
  0
DICTIONARY
  5
332
330
331
100
AcDbDictionary
280
     1
281
     1
  0
DICTIONARY
  5
D
102
{ACAD_REACTORS
330
C
102
}
330
C
100
AcDbDictionary
281
     1
  0
RASTERVARIABLES
  5
155
102
{ACAD_REACTORS
330
C
102
}
330
C
100
AcDbRasterVariables
 90
        0
 70
     1
 71
     1
 72
     1
  0
DICTIONARY
  5
1A
102
{ACAD_REACTORS
330
C
102
}
330
C
100
AcDbDictionary
281
     1
  3
Layout1
350
1E
  3
Layout2
350
26
  3
Model
350
22
  0
DICTIONARY
  5
17
102
{ACAD_REACTORS
330
C
102
}
330
C
100
AcDbDictionary
281
     1
  3
Standard
350
18
  0
DICTIONARY
  5
19
102
{ACAD_REACTORS
330
C
102
}
330
C
100
AcDbDictionary
281
     1
  0
ACDBDICTIONARYWDFLT
  5
E
102
{ACAD_REACTORS
330
C
102
}
330
C
100
AcDbDictionary
281
     1
  3
Normal
350
F
100
AcDbDictionaryWithDefault
340
F
  0
DICTIONARY
  5
47
102
{ACAD_REACTORS
330
C
102
}
330
C
100
AcDbDictionary
281
     1
  3
A0
350
48
  3
A1
350
49
  3
A2
350
4A
  3
A3
350
4B
  3
A4
350
4C
  3
A5
350
4D
  3
A6
350
4E
  3
A7
350
4F
  3
A8
350
50
  3
A9
350
51
  3
B0
350
52
  3
B1
350
53
  3
B2
350
54
  3
B3
350
55
  3
B4
350
56
  3
B5
350
57
  3
B6
350
58
  3
B7
350
59
  3
B8
350
5A
  3
B9
350
5B
  3
C0
350
5C
  3
C1
350
5D
  3
C2
350
5E
  3
C3
350
5F
  3
C4
350
60
  3
C5
350
61
  3
C6
350
62
  3
C7
350
63
  3
C8
350
64
  3
C9
350
65
  3
D0
350
66
  3
D1
350
67
  3
D2
350
68
  0
DICTIONARY
  5
153
102
{ACAD_REACTORS
330
C
102
}
330
C
100
AcDbDictionary
281
     1
  0
XRECORD
  5
342
102
{ACAD_REACTORS
330
C
102
}
330
C
100
AcDbXrecord
280
     1
  1
DWGPROPS COOKIE
  2

  3

  4

  6

  7

  8
12016016
  9

300
=
301
=
302
=
303
=
304
=
305
=
306
=
307
=
308
=
309
=
 40
0.0
 41
2458311.104781539
 42
2458323.033629247
  1

 90
        0
  0
DICTIONARY
  5
1F7
102
{ACAD_REACTORS
330
1F6
102
}
330
1F6
100
AcDbDictionary
281
     1
  0
LAYOUT
  5
1E
102
{ACAD_REACTORS
330
1A
102
}
330
1A
100
AcDbPlotSettings
  1

  2
none_device
  4

  6

 40
0.0
 41
0.0
 42
0.0
 43
0.0
 44
0.0
 45
0.0
 46
0.0
 47
0.0
 48
0.0
 49
0.0
140
0.0
141
0.0
142
1.0
143
1.0
 70
   688
 72
     1
 73
     0
 74
     5
  7

 75
    16
147
1.0
148
0.0
149
0.0
100
AcDbLayout
  1
Layout1
 70
     1
 71
     1
 10
0.0
 20
0.0
 11
420.0
 21
297.0
 12
0.0
 22
0.0
 32
0.0
 14
1.000000000000000E+20
 24
1.000000000000000E+20
 34
1.000000000000000E+20
 15
-1.000000000000000E+20
 25
-1.000000000000000E+20
 35
-1.000000000000000E+20
146
0.0
 13
0.0
 23
0.0
 33
0.0
 16
1.0
 26
0.0
 36
0.0
 17
0.0
 27
1.0
 37
0.0
 76
     0
330
1B
  0
LAYOUT
  5
26
102
{ACAD_REACTORS
330
1A
102
}
330
1A
100
AcDbPlotSettings
  1

  2
none_device
  4

  6

 40
0.0
 41
0.0
 42
0.0
 43
0.0
 44
0.0
 45
0.0
 46
0.0
 47
0.0
 48
0.0
 49
0.0
140
0.0
141
0.0
142
1.0
143
1.0
 70
   688
 72
     1
 73
     0
 74
     5
  7

 75
    16
147
1.0
148
0.0
149
0.0
100
AcDbLayout
  1
Layout2
 70
     1
 71
     2
 10
0.0
 20
0.0
 11
0.0
 21
0.0
 12
0.0
 22
0.0
 32
0.0
 14
0.0
 24
0.0
 34
0.0
 15
0.0
 25
0.0
 35
0.0
146
0.0
 13
0.0
 23
0.0
 33
0.0
 16
1.0
 26
0.0
 36
0.0
 17
0.0
 27
1.0
 37
0.0
 76
     0
330
23
  0
LAYOUT
  5
22
102
{ACAD_REACTORS
330
1A
102
}
330
1A
100
AcDbPlotSettings
  1

  2
none_device
  4
ANSI_A_(11.00_x_8.50_Inches)
  6

 40
6.35
 41
19.05
 42
6.35000508
 43
19.05000254
 44
279.4
 45
215.9
 46
121.6287008260718
 47
51.71571945984604
 48
0.0
 49
0.0
140
0.0
141
0.0
142
0.0386040116704934
143
1.0
 70
  1696
 72
     0
 73
     0
 74
     0
  7

 75
     0
147
0.0235690232323232
148
0.0
149
0.0
100
AcDbLayout
  1
Model
 70
     1
 71
     0
 10
0.0
 20
0.0
 11
420.0
 21
297.0
 12
0.0
 22
0.0
 32
0.0
 14
-74.30287356130567
 24
-49.97180738881174
 34
0.0
 15
147.0551462690305
 25
46.95207860462924
 35
0.0
146
0.0
 13
0.0
 23
0.0
 33
0.0
 16
1.0
 26
0.0
 36
0.0
 17
0.0
 27
1.0
 37
0.0
 76
     0
330
1F
331
29
  0
MLINESTYLE
  5
18
102
{ACAD_REACTORS
330
17
102
}
330
17
100
AcDbMlineStyle
  2
Standard
 70
     0
  3

 62
   256
 51
90.0
 52
90.0
 71
     2
 49
0.5
 62
   256
  6
BYLAYER
 49
-0.5
 62
   256
  6
BYLAYER
  0
ACDBPLACEHOLDER
  5
F
102
{ACAD_REACTORS
330
E
102
}
330
E
  0
SCALE
  5
48
102
{ACAD_REACTORS
330
47
102
}
330
47
100
AcDbScale
 70
     0
300
1:1
140
1.0
141
1.0
290
     1
  0
SCALE
  5
49
102
{ACAD_REACTORS
330
47
102
}
330
47
100
AcDbScale
 70
     0
300
1:2
140
1.0
141
2.0
290
     0
  0
SCALE
  5
4A
102
{ACAD_REACTORS
330
47
102
}
330
47
100
AcDbScale
 70
     0
300
1:4
140
1.0
141
4.0
290
     0
  0
SCALE
  5
4B
102
{ACAD_REACTORS
330
47
102
}
330
47
100
AcDbScale
 70
     0
300
1:5
140
1.0
141
5.0
290
     0
  0
SCALE
  5
4C
102
{ACAD_REACTORS
330
47
102
}
330
47
100
AcDbScale
 70
     0
300
1:8
140
1.0
141
8.0
290
     0
  0
SCALE
  5
4D
102
{ACAD_REACTORS
330
47
102
}
330
47
100
AcDbScale
 70
     0
300
1:10
140
1.0
141
10.0
290
     0
  0
SCALE
  5
4E
102
{ACAD_REACTORS
330
47
102
}
330
47
100
AcDbScale
 70
     0
300
1:16
140
1.0
141
16.0
290
     0
  0
SCALE
  5
4F
102
{ACAD_REACTORS
330
47
102
}
330
47
100
AcDbScale
 70
     0
300
1:20
140
1.0
141
20.0
290
     0
  0
SCALE
  5
50
102
{ACAD_REACTORS
330
47
102
}
330
47
100
AcDbScale
 70
     0
300
1:30
140
1.0
141
30.0
290
     0
  0
SCALE
  5
51
102
{ACAD_REACTORS
330
47
102
}
330
47
100
AcDbScale
 70
     0
300
1:40
140
1.0
141
40.0
290
     0
  0
SCALE
  5
52
102
{ACAD_REACTORS
330
47
102
}
330
47
100
AcDbScale
 70
     0
300
1:50
140
1.0
141
50.0
290
     0
  0
SCALE
  5
53
102
{ACAD_REACTORS
330
47
102
}
330
47
100
AcDbScale
 70
     0
300
1:100
140
1.0
141
100.0
290
     0
  0
SCALE
  5
54
102
{ACAD_REACTORS
330
47
102
}
330
47
100
AcDbScale
 70
     0
300
2:1
140
2.0
141
1.0
290
     0
  0
SCALE
  5
55
102
{ACAD_REACTORS
330
47
102
}
330
47
100
AcDbScale
 70
     0
300
4:1
140
4.0
141
1.0
290
     0
  0
SCALE
  5
56
102
{ACAD_REACTORS
330
47
102
}
330
47
100
AcDbScale
 70
     0
300
8:1
140
8.0
141
1.0
290
     0
  0
SCALE
  5
57
102
{ACAD_REACTORS
330
47
102
}
330
47
100
AcDbScale
 70
     0
300
10:1
140
10.0
141
1.0
290
     0
  0
SCALE
  5
58
102
{ACAD_REACTORS
330
47
102
}
330
47
100
AcDbScale
 70
     0
300
100:1
140
100.0
141
1.0
290
     0
  0
SCALE
  5
59
102
{ACAD_REACTORS
330
47
102
}
330
47
100
AcDbScale
 70
     0
300
1/128" = 1'-0"
140
0.0078125
141
12.0
290
     0
  0
SCALE
  5
5A
102
{ACAD_REACTORS
330
47
102
}
330
47
100
AcDbScale
 70
     0
300
1/64" = 1'-0"
140
0.015625
141
12.0
290
     0
  0
SCALE
  5
5B
102
{ACAD_REACTORS
330
47
102
}
330
47
100
AcDbScale
 70
     0
300
1/32" = 1'-0"
140
0.03125
141
12.0
290
     0
  0
SCALE
  5
5C
102
{ACAD_REACTORS
330
47
102
}
330
47
100
AcDbScale
 70
     0
300
1/16" = 1'-0"
140
0.0625
141
12.0
290
     0
  0
SCALE
  5
5D
102
{ACAD_REACTORS
330
47
102
}
330
47
100
AcDbScale
 70
     0
300
3/32" = 1'-0"
140
0.09375
141
12.0
290
     0
  0
SCALE
  5
5E
102
{ACAD_REACTORS
330
47
102
}
330
47
100
AcDbScale
 70
     0
300
1/8" = 1'-0"
140
0.125
141
12.0
290
     0
  0
SCALE
  5
5F
102
{ACAD_REACTORS
330
47
102
}
330
47
100
AcDbScale
 70
     0
300
3/16" = 1'-0"
140
0.1875
141
12.0
290
     0
  0
SCALE
  5
60
102
{ACAD_REACTORS
330
47
102
}
330
47
100
AcDbScale
 70
     0
300
1/4" = 1'-0"
140
0.25
141
12.0
290
     0
  0
SCALE
  5
61
102
{ACAD_REACTORS
330
47
102
}
330
47
100
AcDbScale
 70
     0
300
3/8" = 1'-0"
140
0.375
141
12.0
290
     0
  0
SCALE
  5
62
102
{ACAD_REACTORS
330
47
102
}
330
47
100
AcDbScale
 70
     0
300
1/2" = 1'-0"
140
0.5
141
12.0
290
     0
  0
SCALE
  5
63
102
{ACAD_REACTORS
330
47
102
}
330
47
100
AcDbScale
 70
     0
300
3/4" = 1'-0"
140
0.75
141
12.0
290
     0
  0
SCALE
  5
64
102
{ACAD_REACTORS
330
47
102
}
330
47
100
AcDbScale
 70
     0
300
1" = 1'-0"
140
1.0
141
12.0
290
     0
  0
SCALE
  5
65
102
{ACAD_REACTORS
330
47
102
}
330
47
100
AcDbScale
 70
     0
300
1-1/2" = 1'-0"
140
1.5
141
12.0
290
     0
  0
SCALE
  5
66
102
{ACAD_REACTORS
330
47
102
}
330
47
100
AcDbScale
 70
     0
300
3" = 1'-0"
140
3.0
141
12.0
290
     0
  0
SCALE
  5
67
102
{ACAD_REACTORS
330
47
102
}
330
47
100
AcDbScale
 70
     0
300
6" = 1'-0"
140
6.0
141
12.0
290
     0
  0
SCALE
  5
68
102
{ACAD_REACTORS
330
47
102
}
330
47
100
AcDbScale
 70
     0
300
1'-0" = 1'-0"
140
12.0
141
12.0
290
     0
  0
ENDSEC
  0
EOF
