  0
SECTION
  2
HEADER
  9
$ACADVER
  1
AC1015
  9
$ACADMAINTVER
 70
     6
  9
$DWGCODEPAGE
  3
ANSI_949
  9
$INSBASE
 10
0.0
 20
0.0
 30
0.0
  9
$EXTMIN
 10
-64.77787356130565
 20
-49.97180738881173
 30
0.0
  9
$EXTMAX
 10
113.1686658470802
 20
42.54150000000013
 30
0.0
  9
$LIMMIN
 10
0.0
 20
0.0
  9
$LIMMAX
 10
420.0
 20
297.0
  9
$ORTHOMODE
 70
     1
  9
$REGENMODE
 70
     1
  9
$FILLMODE
 70
     1
  9
$QTEXTMODE
 70
     0
  9
$MIRRTEXT
 70
     1
  9
$LTSCALE
 40
1.0
  9
$ATTMODE
 70
     1
  9
$TEXTSIZE
 40
3.5
  9
$TRACEWID
 40
1.0
  9
$TEXTSTYLE
  7
Standard
  9
$CLAYER
  8
0
  9
$CELTYPE
  6
ByLayer
  9
$CECOLOR
 62
   256
  9
$CELTSCALE
 40
1.0
  9
$DISPSILH
 70
     0
  9
$DIMSCALE
 40
1.0
  9
$DIMASZ
 40
3.302
  9
$DIMEXO
 40
1.0
  9
$DIMDLI
 40
3.75
  9
$DIMRND
 40
0.0
  9
$DIMDLE
 40
0.0
  9
$DIMEXE
 40
1.0
  9
$DIMTP
 40
0.0
  9
$DIMTM
 40
0.0
  9
$DIMTXT
 40
3.5
  9
$DIMCEN
 40
2.5
  9
$DIMTSZ
 40
0.0
  9
$DIMTOL
 70
     0
  9
$DIMLIM
 70
     0
  9
$DIMTIH
 70
     1
  9
$DIMTOH
 70
     1
  9
$DIMSE1
 70
     0
  9
$DIMSE2
 70
     0
  9
$DIMTAD
 70
     1
  9
$DIMZIN
 70
     0
  9
$DIMBLK
  1

  9
$DIMASO
 70
     1
  9
$DIMSHO
 70
     1
  9
$DIMPOST
  1

  9
$DIMAPOST
  1

  9
$DIMALT
 70
     0
  9
$DIMALTD
 70
     3
  9
$DIMALTF
 40
0.0393700787401575
  9
$DIMLFAC
 40
1.0
  9
$DIMTOFL
 70
     1
  9
$DIMTVP
 40
0.0
  9
$DIMTIX
 70
     0
  9
$DIMSOXD
 70
     0
  9
$DIMSAH
 70
     0
  9
$DIMBLK1
  1

  9
$DIMBLK2
  1

  9
$DIMSTYLE
  2
ISO-25
  9
$DIMCLRD
 70
     0
  9
$DIMCLRE
 70
     0
  9
$DIMCLRT
 70
     0
  9
$DIMTFAC
 40
1.0
  9
$DIMGAP
 40
1.524
  9
$DIMJUST
 70
     0
  9
$DIMSD1
 70
     0
  9
$DIMSD2
 70
     0
  9
$DIMTOLJ
 70
     0
  9
$DIMTZIN
 70
     0
  9
$DIMALTZ
 70
     0
  9
$DIMALTTZ
 70
     0
  9
$DIMUPT
 70
     0
  9
$DIMDEC
 70
     2
  9
$DIMTDEC
 70
     2
  9
$DIMALTU
 70
     2
  9
$DIMALTTD
 70
     3
  9
$DIMTXSTY
  7
Standard
  9
$DIMAUNIT
 70
     0
  9
$DIMADEC
 70
     2
  9
$DIMALTRND
 40
0.0
  9
$DIMAZIN
 70
     0
  9
$DIMDSEP
 70
    44
  9
$DIMATFIT
 70
     3
  9
$DIMFRAC
 70
     0
  9
$DIMLDRBLK
  1

  9
$DIMLUNIT
 70
     2
  9
$DIMLWD
 70
    -2
  9
$DIMLWE
 70
    -2
  9
$DIMTMOVE
 70
     0
  9
$LUNITS
 70
     2
  9
$LUPREC
 70
     2
  9
$SKETCHINC
 40
1.0
  9
$FILLETRAD
 40
10.0
  9
$AUNITS
 70
     0
  9
$AUPREC
 70
     2
  9
$MENU
  1
.
  9
$ELEVATION
 40
0.0
  9
$PELEVATION
 40
0.0
  9
$THICKNESS
 40
0.0
  9
$LIMCHECK
 70
     0
  9
$CHAMFERA
 40
0.0
  9
$CHAMFERB
 40
0.0
  9
$CHAMFERC
 40
0.0
  9
$CHAMFERD
 40
0.0
  9
$SKPOLY
 70
     0
  9
$TDCREATE
 40
2458311.479146181
  9
$TDUCREATE
 40
2458311.104146181
  9
$TDUPDATE
 40
2458323.41482213
  9
$TDUUPDATE
 40
2458323.03982213
  9
$TDINDWG
 40
0.0034381597
  9
$TDUSRTIMER
 40
2458323.038049271
  9
$USRTIMER
 70
     1
  9
$ANGBASE
 50
0.0
  9
$ANGDIR
 70
     0
  9
$PDMODE
 70
     0
  9
$PDSIZE
 40
-1.0
  9
$PLINEWID
 40
0.0
  9
$SPLFRAME
 70
     0
  9
$SPLINETYPE
 70
     6
  9
$SPLINESEGS
 70
     8
  9
$HANDSEED
  5
3EF
  9
$SURFTAB1
 70
     6
  9
$SURFTAB2
 70
     6
  9
$SURFTYPE
 70
     6
  9
$SURFU
 70
     6
  9
$SURFV
 70
     6
  9
$UCSBASE
  2

  9
$UCSNAME
  2

  9
$UCSORG
 10
0.0
 20
0.0
 30
0.0
  9
$UCSXDIR
 10
1.0
 20
0.0
 30
0.0
  9
$UCSYDIR
 10
0.0
 20
1.0
 30
0.0
  9
$UCSORTHOREF
  2

  9
$UCSORTHOVIEW
 70
     0
  9
$UCSORGTOP
 10
0.0
 20
0.0
 30
0.0
  9
$UCSORGBOTTOM
 10
0.0
 20
0.0
 30
0.0
  9
$UCSORGLEFT
 10
0.0
 20
0.0
 30
0.0
  9
$UCSORGRIGHT
 10
0.0
 20
0.0
 30
0.0
  9
$UCSORGFRONT
 10
0.0
 20
0.0
 30
0.0
  9
$UCSORGBACK
 10
0.0
 20
0.0
 30
0.0
  9
$PUCSBASE
  2

  9
$PUCSNAME
  2

  9
$PUCSORG
 10
0.0
 20
0.0
 30
0.0
  9
$PUCSXDIR
 10
1.0
 20
0.0
 30
0.0
  9
$PUCSYDIR
 10
0.0
 20
1.0
 30
0.0
  9
$PUCSORTHOREF
  2

  9
$PUCSORTHOVIEW
 70
     0
  9
$PUCSORGTOP
 10
0.0
 20
0.0
 30
0.0
  9
$PUCSORGBOTTOM
 10
0.0
 20
0.0
 30
0.0
  9
$PUCSORGLEFT
 10
0.0
 20
0.0
 30
0.0
  9
$PUCSORGRIGHT
 10
0.0
 20
0.0
 30
0.0
  9
$PUCSORGFRONT
 10
0.0
 20
0.0
 30
0.0
  9
$PUCSORGBACK
 10
0.0
 20
0.0
 30
0.0
  9
$USERI1
 70
     0
  9
$USERI2
 70
     0
  9
$USERI3
 70
     0
  9
$USERI4
 70
     0
  9
$USERI5
 70
     0
  9
$USERR1
 40
0.0
  9
$USERR2
 40
0.0
  9
$USERR3
 40
0.0
  9
$USERR4
 40
0.0
  9
$USERR5
 40
0.0
  9
$WORLDVIEW
 70
     1
  9
$SHADEDGE
 70
     3
  9
$SHADEDIF
 70
    70
  9
$TILEMODE
 70
     1
  9
$MAXACTVP
 70
    64
  9
$PINSBASE
 10
0.0
 20
0.0
 30
0.0
  9
$PLIMCHECK
 70
     0
  9
$PEXTMIN
 10
1.000000000000000E+20
 20
1.000000000000000E+20
 30
1.000000000000000E+20
  9
$PEXTMAX
 10
-1.000000000000000E+20
 20
-1.000000000000000E+20
 30
-1.000000000000000E+20
  9
$PLIMMIN
 10
0.0
 20
0.0
  9
$PLIMMAX
 10
0.0
 20
0.0
  9
$UNITMODE
 70
     0
  9
$VISRETAIN
 70
     1
  9
$PLINEGEN
 70
     0
  9
$PSLTSCALE
 70
     1
  9
$TREEDEPTH
 70
  3020
  9
$CMLSTYLE
  2
Standard
  9
$CMLJUST
 70
     0
  9
$CMLSCALE
 40
20.0
  9
$PROXYGRAPHICS
 70
     1
  9
$MEASUREMENT
 70
     1
  9
$CELWEIGHT
370
    -1
  9
$ENDCAPS
280
     0
  9
$JOINSTYLE
280
     0
  9
$LWDISPLAY
290
     1
  9
$INSUNITS
 70
     4
  9
$HYPERLINKBASE
  1

  9
$STYLESHEET
  1

  9
$XEDIT
290
     1
  9
$CEPSNTYPE
380
     0
  9
$PSTYLEMODE
290
     1
  9
$FINGERPRINTGUID
  2
{9E4D5619-F825-4856-90D6-3728AC627066}
  9
$VERSIONGUID
  2
{FAEB1C32-E019-11D5-929B-00C0DF256EC4}
  9
$EXTNAMES
290
     1
  9
$PSVPSCALE
 40
0.0
  9
$OLESTARTUP
290
     0
  0
ENDSEC
  0
SECTION
  2
CLASSES
  0
CLASS
  1
ACDBDICTIONARYWDFLT
  2
AcDbDictionaryWithDefault
  3
ObjectDBX Classes
 90
        0
280
     0
281
     0
  0
CLASS
  1
VISUALSTYLE
  2
AcDbVisualStyle
  3
ObjectDBX Classes
 90
     4095
280
     0
281
     0
  0
CLASS
  1
MATERIAL
  2
AcDbMaterial
  3
ObjectDBX Classes
 90
     1153
280
     0
281
     0
  0
CLASS
  1
SCALE
  2
AcDbScale
  3
ObjectDBX Classes
 90
     1153
280
     0
281
     0
  0
CLASS
  1
SUN
  2
AcDbSun
  3
SCENEOE
 90
     1153
280
     0
281
     0
  0
CLASS
  1
ACDBPLACEHOLDER
  2
AcDbPlaceHolder
  3
ObjectDBX Classes
 90
        0
280
     0
281
     0
  0
CLASS
  1
LAYOUT
  2
AcDbLayout
  3
ObjectDBX Classes
 90
        0
280
     0
281
     0
  0
CLASS
  1
TABLESTYLE
  2
AcDbTableStyle
  3
ObjectDBX Classes
 90
     4095
280
     0
281
     0
  0
CLASS
  1
MLEADERSTYLE
  2
AcDbMLeaderStyle
  3
ACDB_MLEADERSTYLE_CLASS
 90
     4095
280
     0
281
     0
  0
CLASS
  1
RASTERVARIABLES
  2
AcDbRasterVariables
  3
ISM
 90
        0
280
     0
281
     0
  0
CLASS
  1
DIMASSOC
  2
AcDbDimAssoc
  3
"AcDbDimAssoc|Product Desc:     AcDim ARX App For Dimension|Company:          Autodesk, Inc.|WEB Address:      www.autodesk.com"
 90
        0
280
     0
281
     0
  0
ENDSEC
  0
SECTION
  2
TABLES
  0
TABLE
  2
VPORT
  5
8
330
0
100
AcDbSymbolTable
 70
     1
  0
VPORT
  5
29
330
8
100
AcDbSymbolTableRecord
100
AcDbViewportTableRecord
  2
*Active
 70
     0
 10
0.0
 20
0.0
 11
1.0
 21
1.0
 12
38.51324737494974
 22
13.92801332707922
 13
0.0
 23
0.0
 14
10.0
 24
10.0
 15
10.0
 25
10.0
 16
0.0
 26
0.0
 36
1.0
 17
0.0
 27
0.0
 37
0.0
 40
58.59173656452256
 41
1.586073500967118
 42
50.0
 43
0.0
 44
0.0
 50
0.0
 51
0.0
 71
    16
 72
  2000
 73
     1
 74
     3
 75
     0
 76
     0
 77
     0
 78
     0
281
     0
 65
     1
110
0.0
120
0.0
130
0.0
111
1.0
121
0.0
131
0.0
112
0.0
122
1.0
132
0.0
 79
     0
146
0.0
  0
ENDTAB
  0
TABLE
  2
LTYPE
  5
5
330
0
100
AcDbSymbolTable
 70
     6
  0
LTYPE
  5
14
330
5
100
AcDbSymbolTableRecord
100
AcDbLinetypeTableRecord
  2
ByBlock
 70
     0
  3

 72
    65
 73
     0
 40
0.0
  0
LTYPE
  5
15
330
5
100
AcDbSymbolTableRecord
100
AcDbLinetypeTableRecord
  2
ByLayer
 70
     0
  3

 72
    65
 73
     0
 40
0.0
  0
LTYPE
  5
16
330
5
100
AcDbSymbolTableRecord
100
AcDbLinetypeTableRecord
  2
Continuous
 70
     0
  3
Solid line
 72
    65
 73
     0
 40
0.0
  0
LTYPE
  5
6A
330
5
100
AcDbSymbolTableRecord
100
AcDbLinetypeTableRecord
  2
HIDDEN
 70
     0
  3
Hidden __ __ __ __ __ __ __ __ __ __ __ __ __ __
 72
    65
 73
     2
 40
1.905
 49
1.27
 74
     0
 49
-0.635
 74
     0
  0
LTYPE
  5
6B
330
5
100
AcDbSymbolTableRecord
100
AcDbLinetypeTableRecord
  2
PHANTOM
 70
     0
  3
Phantom ______  __  __  ______  __  __  ______
 72
    65
 73
     6
 40
12.7
 49
6.35
 74
     0
 49
-1.27
 74
     0
 49
1.27
 74
     0
 49
-1.27
 74
     0
 49
1.27
 74
     0
 49
-1.27
 74
     0
  0
LTYPE
  5
6C
330
5
100
AcDbSymbolTableRecord
100
AcDbLinetypeTableRecord
  2
CENTER
 70
     0
  3
Center ____ _ ____ _ ____ _ ____ _ ____ _ ____
 72
    65
 73
     4
 40
10.16
 49
6.35
 74
     0
 49
-1.27
 74
     0
 49
1.27
 74
     0
 49
-1.27
 74
     0
  0
LTYPE
  5
6D
330
5
100
AcDbSymbolTableRecord
100
AcDbLinetypeTableRecord
  2
CENTERX2
 70
     0
  3
Center (2x) ________  __  ________  __  _____
 72
    65
 73
     4
 40
20.32
 49
12.7
 74
     0
 49
-2.54
 74
     0
 49
2.54
 74
     0
 49
-2.54
 74
     0
  0
LTYPE
  5
6E
330
5
100
AcDbSymbolTableRecord
100
AcDbLinetypeTableRecord
  2
DOT2
 70
     0
  3
Dot (.5x) ........................................
 72
    65
 73
     2
 40
0.635
 49
0.0
 74
     0
 49
-0.635
 74
     0
  0
ENDTAB
  0
TABLE
  2
LAYER
  5
2
102
{ACAD_XDICTIONARY
360
17C
102
}
330
0
100
AcDbSymbolTable
 70
    18
  0
LAYER
  5
10
330
2
100
AcDbSymbolTableRecord
100
AcDbLayerTableRecord
  2
0
 70
     0
 62
     7
  6
Continuous
370
    -3
390
F
  0
LAYER
  5
6F
330
2
100
AcDbSymbolTableRecord
100
AcDbLayerTableRecord
  2
FORMAT
 70
     0
 62
     2
  6
Continuous
370
    -3
390
F
  0
LAYER
  5
70
330
2
100
AcDbSymbolTableRecord
100
AcDbLayerTableRecord
  2
외형선
 70
     0
 62
     4
  6
Continuous
370
    30
390
F
  0
LAYER
  5
71
330
2
100
AcDbSymbolTableRecord
100
AcDbLayerTableRecord
  2
숨은선
 70
     0
 62
     2
  6
HIDDEN
370
    15
390
F
  0
LAYER
  5
72
330
2
100
AcDbSymbolTableRecord
100
AcDbLayerTableRecord
  2
중심선
 70
     0
 62
     1
  6
CENTERX2
370
    -3
390
F
  0
LAYER
  5
73
330
2
100
AcDbSymbolTableRecord
100
AcDbLayerTableRecord
  2
파단선
 70
     0
 62
     4
  6
Continuous
370
    -3
390
F
  0
LAYER
  5
74
330
2
100
AcDbSymbolTableRecord
100
AcDbLayerTableRecord
  2
해칭선
 70
     0
 62
   100
  6
Continuous
370
    -3
390
F
  0
LAYER
  5
75
330
2
100
AcDbSymbolTableRecord
100
AcDbLayerTableRecord
  2
가는실선
 70
     0
 62
     4
  6
Continuous
370
    -3
390
F
  0
LAYER
  5
76
330
2
100
AcDbSymbolTableRecord
100
AcDbLayerTableRecord
  2
치수_보조선
 70
     0
 62
     4
  6
Continuous
370
    -3
390
F
  0
LAYER
  5
77
330
2
100
AcDbSymbolTableRecord
100
AcDbLayerTableRecord
  2
치수문자_일반주서
 70
     0
 62
     7
  6
Continuous
370
    15
390
F
  0
LAYER
  5
78
330
2
100
AcDbSymbolTableRecord
100
AcDbLayerTableRecord
  2
개별주서
 70
     0
 62
   100
  6
Continuous
370
    30
390
F
  0
LAYER
  5
79
330
2
100
AcDbSymbolTableRecord
100
AcDbLayerTableRecord
  2
중간선
 70
     0
 62
     2
  6
Continuous
370
    15
390
F
  0
LAYER
  5
7A
330
2
100
AcDbSymbolTableRecord
100
AcDbLayerTableRecord
  2
윤곽선
 70
     0
 62
     3
  6
Continuous
370
    40
390
F
  0
LAYER
  5
7B
330
2
100
AcDbSymbolTableRecord
100
AcDbLayerTableRecord
  2
중심마크
 70
     0
 62
   100
  6
Continuous
370
    30
390
F
  0
LAYER
  5
7C
330
2
100
AcDbSymbolTableRecord
100
AcDbLayerTableRecord
  2
가상선
 70
     0
 62
     4
  6
PHANTOM
370
    -3
390
F
  0
LAYER
  5
7D
330
2
100
AcDbSymbolTableRecord
100
AcDbLayerTableRecord
  2
특수지정선
 70
     0
 62
     5
  6
CENTERX2
370
    60
390
F
  0
LAYER
  5
7E
330
2
100
AcDbSymbolTableRecord
100
AcDbLayerTableRecord
  2
참조1
 70
     0
 62
    -4
  6
Continuous
370
    -3
390
F
  0
LAYER
  5
181
330
2
100
AcDbSymbolTableRecord
100
AcDbLayerTableRecord
  2
Defpoints
 70
     0
 62
     7
  6
Continuous
290
     0
370
    -3
390
F
  0
ENDTAB
  0
TABLE
  2
STYLE
  5
3
330
0
100
AcDbSymbolTable
 70
     2
  0
STYLE
  5
11
330
3
100
AcDbSymbolTableRecord
100
AcDbTextStyleTableRecord
  2
Standard
 70
     0
 40
0.0
 41
1.0
 50
0.0
 71
     0
 42
3.5
  3
txt
  4

  0
STYLE
  5
94
330
3
100
AcDbSymbolTableRecord
100
AcDbTextStyleTableRecord
  2
SLDTEXTSTYLE0
 70
     0
 40
0.0
 41
0.75
 50
0.0
 71
     0
 42
3.5
  3
TXT
  4

  0
ENDTAB
  0
TABLE
  2
VIEW
  5
6
330
0
100
AcDbSymbolTable
 70
     0
  0
ENDTAB
  0
TABLE
  2
UCS
  5
7
330
0
100
AcDbSymbolTable
 70
     0
  0
ENDTAB
  0
TABLE
  2
APPID
  5
9
330
0
100
AcDbSymbolTable
 70
     1
  0
APPID
  5
12
330
9
100
AcDbSymbolTableRecord
100
AcDbRegAppTableRecord
  2
ACAD
 70
     0
  0
ENDTAB
  0
TABLE
  2
DIMSTYLE
  5
A
330
0
100
AcDbSymbolTable
 70
     3
100
AcDbDimStyleTable
  0
DIMSTYLE
105
27
330
A
100
AcDbSymbolTableRecord
100
AcDbDimStyleTableRecord
  2
ISO-25
 70
     0
 41
2.5
 42
0.625
 43
3.75
 44
1.25
 73
     0
 74
     0
 77
     1
 78
     8
140
2.5
141
2.5
143
0.03937007874016
147
0.625
171
     3
172
     1
178
     0
271
     2
272
     2
274
     3
278
    44
283
     0
284
     8
340
11
  0
DIMSTYLE
105
D4
102
{ACAD_REACTORS
330
D3
330
E8
330
FD
330
110
330
3DF
102
}
330
A
100
AcDbSymbolTableRecord
100
AcDbDimStyleTableRecord
  2
SLDDIMSTYLE0
 70
     0
 41
3.302
 44
0.0
 45
0.000000001
 73
     0
 74
     0
 77
     1
 78
    12
 79
     3
140
3.5
143
0.0393700787401575
147
0.875
148
0.000000001
170
     1
172
     1
173
     1
178
     0
271
     2
272
     2
276
     2
284
    12
289
     0
340
94
  0
DIMSTYLE
105
E9
330
A
100
AcDbSymbolTableRecord
100
AcDbDimStyleTableRecord
  2
SLDDIMSTYLE1
 70
     0
 41
3.302
 44
0.0
 45
0.000000001
 73
     0
 74
     0
 77
     1
 78
    12
 79
     3
140
3.5
143
0.0393700787401575
147
0.875
148
0.000000001
170
     1
173
     1
178
     0
271
     2
272
     2
276
     2
284
    12
340
94
  0
ENDTAB
  0
TABLE
  2
BLOCK_RECORD
  5
1
330
0
100
AcDbSymbolTable
 70
    16
  0
BLOCK_RECORD
  5
1F
330
1
100
AcDbSymbolTableRecord
100
AcDbBlockTableRecord
  2
*Model_Space
340
22
  0
BLOCK_RECORD
  5
1B
330
1
100
AcDbSymbolTableRecord
100
AcDbBlockTableRecord
  2
*Paper_Space
340
1E
  0
BLOCK_RECORD
  5
23
330
1
100
AcDbSymbolTableRecord
100
AcDbBlockTableRecord
  2
*Paper_Space0
340
26
  0
BLOCK_RECORD
  5
7F
330
1
100
AcDbSymbolTableRecord
100
AcDbBlockTableRecord
  2
블럭10
340
0
102
{BLKREFS
331
CC
102
}
  0
BLOCK_RECORD
  5
D5
330
1
100
AcDbSymbolTableRecord
100
AcDbBlockTableRecord
  2
_D
340
0
  0
BLOCK_RECORD
  5
EA
330
1
100
AcDbSymbolTableRecord
100
AcDbBlockTableRecord
  2
_D_1
340
0
  0
BLOCK_RECORD
  5
FE
330
1
100
AcDbSymbolTableRecord
100
AcDbBlockTableRecord
  2
_D_2
340
0
  0
BLOCK_RECORD
  5
111
330
1
100
AcDbSymbolTableRecord
100
AcDbBlockTableRecord
  2
_D_3
340
0
  0
BLOCK_RECORD
  5
12A
330
1
100
AcDbSymbolTableRecord
100
AcDbBlockTableRecord
  2
SW_DOWELSYMBOL_0
340
0
102
{BLKREFS
331
130
102
}
  0
BLOCK_RECORD
  5
223
330
1
100
AcDbSymbolTableRecord
100
AcDbBlockTableRecord
  2
*D7
340
0
  0
BLOCK_RECORD
  5
22F
330
1
100
AcDbSymbolTableRecord
100
AcDbBlockTableRecord
  2
*D8
340
0
  0
BLOCK_RECORD
  5
23E
330
1
100
AcDbSymbolTableRecord
100
AcDbBlockTableRecord
  2
*D9
340
0
  0
BLOCK_RECORD
  5
24A
330
1
100
AcDbSymbolTableRecord
100
AcDbBlockTableRecord
  2
*D10
340
0
  0
BLOCK_RECORD
  5
295
330
1
100
AcDbSymbolTableRecord
100
AcDbBlockTableRecord
  2
*D11
340
0
  0
BLOCK_RECORD
  5
2A1
330
1
100
AcDbSymbolTableRecord
100
AcDbBlockTableRecord
  2
*D12
340
0
  0
BLOCK_RECORD
  5
2B0
330
1
100
AcDbSymbolTableRecord
100
AcDbBlockTableRecord
  2
*D13
340
0
  0
BLOCK_RECORD
  5
2BC
330
1
100
AcDbSymbolTableRecord
100
AcDbBlockTableRecord
  2
*D14
340
0
  0
BLOCK_RECORD
  5
3E2
330
1
100
AcDbSymbolTableRecord
100
AcDbBlockTableRecord
  2
*D15
340
0
  0
ENDTAB
  0
ENDSEC
  0
SECTION
  2
BLOCKS
  0
BLOCK
  5
20
330
1F
100
AcDbEntity
  8
0
100
AcDbBlockBegin
  2
*Model_Space
 70
     0
 10
0.0
 20
0.0
 30
0.0
  3
*Model_Space
  1
*Model_Space
  0
ENDBLK
  5
21
330
1F
100
AcDbEntity
  8
0
100
AcDbBlockEnd
  0
BLOCK
  5
1C
330
1B
100
AcDbEntity
 67
     1
  8
0
100
AcDbBlockBegin
  2
*Paper_Space
 70
     0
 10
0.0
 20
0.0
 30
0.0
  3
*Paper_Space
  1
*Paper_Space
  0
ENDBLK
  5
1D
330
1B
100
AcDbEntity
 67
     1
  8
0
100
AcDbBlockEnd
  0
BLOCK
  5
24
330
23
100
AcDbEntity
  8
0
100
AcDbBlockBegin
  2
*Paper_Space0
 70
     0
 10
0.0
 20
0.0
 30
0.0
  3
*Paper_Space0
  1
*Paper_Space0
  0
ENDBLK
  5
25
330
23
100
AcDbEntity
  8
0
100
AcDbBlockEnd
  0
BLOCK
  5
80
330
7F
100
AcDbEntity
  8
0
100
AcDbBlockBegin
  2
블럭10
 70
     2
 10
0.0
 20
0.0
 30
0.0
  3
블럭10
  1
블럭10
  0
ELLIPSE
  5
82
330
7F
100
AcDbEntity
  8
중심선
100
AcDbEllipse
 10
20.54032771741204
 20
12.0471743016438
 30
0.0
 11
6.600054785286829
 21
-1.261213355974178E-13
 31
0.0
210
0.0
220
0.0
230
1.0
 40
0.636358354079598
 41
0.9219305317359503
 42
6.513795318482858
  0
ELLIPSE
  5
83
330
7F
100
AcDbEntity
  8
중심선
100
AcDbEllipse
 10
20.54032771746488
 20
12.04717430159265
 30
0.0
 11
3.960054785062283
 21
1.540847449632565E-10
 31
0.0
210
0.0
220
0.0
230
1.0
 40
0.3939339440162632
 41
1.131841032648279
 42
5.62031148352944
  0
LINE
  5
84
330
7F
100
AcDbEntity
  8
중심선
100
AcDbLine
 10
2.268634060543552
 20
16.24717430164393
 30
0.0
 11
5.714909304380834
 21
16.24717430164393
 31
0.0
  0
LINE
  5
85
330
7F
100
AcDbEntity
  8
중심선
100
AcDbLine
 10
5.245725140726316
 20
7.84717430164391
 30
0.0
 11
8.692000384563599
 21
7.84717430164391
 31
0.0
  0
LINE
  5
86
330
7F
100
AcDbEntity
  8
중심선
100
AcDbLine
 10
15.74043728645272
 20
16.24717430164393
 30
0.0
 11
8.692000384563599
 21
7.84717430164391
 31
0.0
  0
LINE
  5
87
330
7F
100
AcDbEntity
  8
중심선
100
AcDbLine
 10
0.1404042013395286
 20
13.71084872107135
 30
0.0
 11
3.58671253028996
 21
13.71088815037384
 31
0.0
  0
LINE
  5
88
330
7F
100
AcDbEntity
  8
중심선
100
AcDbLine
 10
2.750260043222114
 20
10.84717430164391
 30
0.0
 11
6.196535287059397
 21
10.84717430164391
 31
0.0
  0
LINE
  5
89
330
7F
100
AcDbEntity
  8
중심선
100
AcDbLine
 10
12.29416204261559
 20
16.24717430164393
 30
0.0
 11
5.245725140726316
 21
7.84717430164391
 31
0.0
  0
LINE
  5
8A
330
7F
100
AcDbEntity
  8
중심선
100
AcDbLine
 10
10.72767329541681
 20
16.24717430164393
 30
0.0
 11
6.196535287059397
 21
10.84717430164391
 31
0.0
  0
LINE
  5
8B
330
7F
100
AcDbEntity
  8
중심선
100
AcDbLine
 10
7.28139805157953
 20
16.24717430164393
 30
0.0
 11
2.750260043222114
 21
10.84717430164391
 31
0.0
  0
LINE
  5
8C
330
7F
100
AcDbEntity
  8
중심선
100
AcDbLine
 10
5.714909304380834
 20
16.24717430164393
 30
0.0
 11
3.58671253028996
 21
13.71088815037384
 31
0.0
  0
LINE
  5
8D
330
7F
100
AcDbEntity
  8
중심선
100
AcDbLine
 10
2.268634060543552
 20
16.24717430164393
 30
0.0
 11
0.1404042013395286
 21
13.71084872107135
 31
0.0
  0
LINE
  5
8E
330
7F
100
AcDbEntity
  8
중심선
100
AcDbLine
 10
7.28139805157953
 20
16.24717430164393
 30
0.0
 11
10.72767329541681
 21
16.24717430164393
 31
0.0
  0
LINE
  5
8F
330
7F
100
AcDbEntity
  8
중심선
100
AcDbLine
 10
12.29416204261559
 20
16.24717430164393
 30
0.0
 11
15.74043728645272
 21
16.24717430164393
 31
0.0
  0
LINE
  5
90
330
7F
100
AcDbEntity
  8
중심선
100
AcDbLine
 10
19.22036997980202
 20
11.08717430171403
 30
0.0
 11
23.66174974927406
 21
11.08717430171406
 31
0.0
  0
LINE
  5
91
330
7F
100
AcDbEntity
  8
중심선
100
AcDbLine
 10
19.22039502424796
 20
13.00717430171391
 30
0.0
 11
19.22036997980202
 21
11.08717430171403
 31
0.0
  0
LINE
  5
92
330
7F
100
AcDbEntity
  8
중심선
100
AcDbLine
 10
19.22039502424796
 20
13.00717430171391
 30
0.0
 11
26.96566020931264
 21
13.00717430171391
 31
0.0
  0
LINE
  5
93
330
7F
100
AcDbEntity
  8
중심선
100
AcDbLine
 10
22.22332737316547
 20
13.45928029700563
 30
0.0
 11
24.52862924686651
 21
15.39360700705356
 31
0.0
  0
ATTDEF
  5
95
330
7F
100
AcDbEntity
  8
FORMAT
 62
     2
100
AcDbText
 10
4.408487351596664
 20
2.075366912832191
 30
0.0
 40
4.233333333333333
  1
E2033040
 41
0.75
  7
SLDTEXTSTYLE0
 11
4.408487351596664
 21
-0.0412997538344756
 31
0.0
100
AcDbAttributeDefinition
  3

  2
AUTOATTR0
 70
     0
 74
     1
  0
ENDBLK
  5
81
330
7F
100
AcDbEntity
  8
0
100
AcDbBlockEnd
  0
BLOCK
  5
D6
330
D5
100
AcDbEntity
  8
0
100
AcDbBlockBegin
  2
_D
 70
     0
 10
0.0
 20
0.0
 30
0.0
  3
_D
  1
_D
  0
LINE
  5
D8
330
D5
100
AcDbEntity
  8
치수문자_일반주서
 62
     0
370
    -2
100
AcDbLine
 10
-46.96537356130558
 20
7.93749999999999
 30
0.0
 11
-60.40287356130563
 21
7.93749999999994
 31
0.0
  0
LINE
  5
D9
330
D5
100
AcDbEntity
  8
치수문자_일반주서
 62
     0
370
    -2
100
AcDbLine
 10
-46.96537356130558
 20
-7.93750000000001
 30
0.0
 11
-60.40287356130557
 21
-7.93750000000006
 31
0.0
  0
LINE
  5
DA
330
D5
100
AcDbEntity
  8
치수문자_일반주서
 62
     0
370
    -2
100
AcDbLine
 10
-60.40287356130561
 20
4.63549999999994
 30
0.0
 11
-60.40287356130558
 21
-4.635500000000061
 31
0.0
  0
SOLID
  5
DB
330
D5
100
AcDbEntity
  8
치수문자_일반주서
 62
     0
100
AcDbTrace
 10
-59.85254022797228
 20
4.635499999999942
 30
0.0
 11
-60.95320689463895
 21
4.635499999999938
 31
0.0
 12
-60.40287356130563
 22
7.93749999999994
 32
0.0
 13
-60.40287356130563
 23
7.93749999999994
 33
0.0
  0
SOLID
  5
DC
330
D5
100
AcDbEntity
  8
치수문자_일반주서
 62
     0
100
AcDbTrace
 10
-60.95320689463892
 20
-4.635500000000063
 30
0.0
 11
-59.85254022797225
 21
-4.635500000000059
 31
0.0
 12
-60.40287356130557
 22
-7.93750000000006
 32
0.0
 13
-60.40287356130557
 23
-7.93750000000006
 33
0.0
  0
MTEXT
  5
DD
330
D5
100
AcDbEntity
  8
치수문자_일반주서
 62
     0
100
AcDbMText
 10
-64.7778735613056
 20
-0.0000000000000182
 30
0.0
 40
3.5
 41
0.0
 71
     2
 72
     1
  1
\A1;%%c15.88 [5/8]
  7
SLDTEXTSTYLE0
 11
-3.580687802255623E-15
 21
1.0
 31
0.0
 73
     1
 44
1.0
  0
POINT
  5
DE
330
D5
100
AcDbEntity
  8
Defpoints
 62
     0
100
AcDbPoint
 10
-46.90287356130558
 20
7.93749999999999
 30
0.0
  0
POINT
  5
DF
330
D5
100
AcDbEntity
  8
Defpoints
 62
     0
100
AcDbPoint
 10
-46.90287356130558
 20
-7.93750000000001
 30
0.0
  0
POINT
  5
E0
330
D5
100
AcDbEntity
  8
Defpoints
 62
     0
100
AcDbPoint
 10
-60.40287356130557
 20
-7.93750000000006
 30
0.0
  0
ENDBLK
  5
D7
330
D5
100
AcDbEntity
  8
0
100
AcDbBlockEnd
  0
BLOCK
  5
EB
330
EA
100
AcDbEntity
  8
0
100
AcDbBlockBegin
  2
_D_1
 70
     0
 10
0.0
 20
0.0
 30
0.0
  3
_D_1
  1
_D_1
  0
LINE
  5
ED
330
EA
100
AcDbEntity
  8
치수문자_일반주서
 62
     0
370
    -2
100
AcDbLine
 10
69.57212643869438
 20
8.000000000000014
 30
0.0
 11
69.57212643869438
 21
19.19437821454944
 31
0.0
  0
LINE
  5
EE
330
EA
100
AcDbEntity
  8
치수문자_일반주서
 62
     0
370
    -2
100
AcDbLine
 10
34.6471264386944
 20
7.690112148312623
 30
0.0
 11
34.6471264386944
 21
19.19437821454944
 31
0.0
  0
LINE
  5
EF
330
EA
100
AcDbEntity
  8
치수문자_일반주서
 62
     0
370
    -2
100
AcDbLine
 10
66.27012643869438
 20
19.19437821454944
 30
0.0
 11
37.9491264386944
 21
19.19437821454944
 31
0.0
  0
SOLID
  5
F0
330
EA
100
AcDbEntity
  8
치수문자_일반주서
 62
     0
100
AcDbTrace
 10
66.27012643869438
 20
18.6440448812161
 30
0.0
 11
66.27012643869438
 21
19.74471154788277
 31
0.0
 12
69.57212643869438
 22
19.19437821454944
 32
0.0
 13
69.57212643869438
 23
19.19437821454944
 33
0.0
  0
SOLID
  5
F1
330
EA
100
AcDbEntity
  8
치수문자_일반주서
 62
     0
100
AcDbTrace
 10
37.9491264386944
 20
19.74471154788277
 30
0.0
 11
37.9491264386944
 21
18.6440448812161
 31
0.0
 12
34.6471264386944
 22
19.19437821454944
 32
0.0
 13
34.6471264386944
 23
19.19437821454944
 33
0.0
  0
MTEXT
  5
F2
330
EA
100
AcDbEntity
  8
치수문자_일반주서
 62
     0
100
AcDbMText
 10
52.10962643869439
 20
23.56937821454944
 30
0.0
 40
3.5
 41
0.0
 71
     2
 72
     1
  1
\A1;34.93 [1 3/8]
  7
SLDTEXTSTYLE0
 73
     1
 44
1.0
  0
POINT
  5
F3
330
EA
100
AcDbEntity
  8
Defpoints
 62
     0
100
AcDbPoint
 10
69.57212643869438
 20
7.937500000000015
 30
0.0
  0
POINT
  5
F4
330
EA
100
AcDbEntity
  8
Defpoints
 62
     0
100
AcDbPoint
 10
34.6471264386944
 20
7.627612148312623
 30
0.0
  0
POINT
  5
F5
330
EA
100
AcDbEntity
  8
Defpoints
 62
     0
100
AcDbPoint
 10
34.6471264386944
 20
19.19437821454944
 30
0.0
  0
ENDBLK
  5
EC
330
EA
100
AcDbEntity
  8
0
100
AcDbBlockEnd
  0
BLOCK
  5
FF
330
FE
100
AcDbEntity
  8
0
100
AcDbBlockBegin
  2
_D_2
 70
     0
 10
0.0
 20
0.0
 30
0.0
  3
_D_2
  1
_D_2
  0
LINE
  5
101
330
FE
100
AcDbEntity
  8
치수문자_일반주서
 62
     0
370
    -2
100
AcDbLine
 10
69.57212643869438
 20
8.000000000000014
 30
0.0
 11
69.57212643869438
 21
38.05774771491232
 31
0.0
  0
LINE
  5
102
330
FE
100
AcDbEntity
  8
치수문자_일반주서
 62
     0
370
    -2
100
AcDbLine
 10
-47.9028735613056
 20
6.999999999999995
 30
0.0
 11
-47.9028735613056
 21
38.05774771491232
 31
0.0
  0
LINE
  5
103
330
FE
100
AcDbEntity
  8
치수문자_일반주서
 62
     0
370
    -2
100
AcDbLine
 10
66.27012643869438
 20
38.05774771491232
 30
0.0
 11
-44.6008735613056
 21
38.05774771491232
 31
0.0
  0
SOLID
  5
104
330
FE
100
AcDbEntity
  8
치수문자_일반주서
 62
     0
100
AcDbTrace
 10
66.27012643869438
 20
37.50741438157898
 30
0.0
 11
66.27012643869438
 21
38.60808104824565
 31
0.0
 12
69.57212643869438
 22
38.05774771491232
 32
0.0
 13
69.57212643869438
 23
38.05774771491232
 33
0.0
  0
SOLID
  5
105
330
FE
100
AcDbEntity
  8
치수문자_일반주서
 62
     0
100
AcDbTrace
 10
-44.6008735613056
 20
38.60808104824565
 30
0.0
 11
-44.6008735613056
 21
37.50741438157898
 31
0.0
 12
-47.9028735613056
 22
38.05774771491232
 32
0.0
 13
-47.9028735613056
 23
38.05774771491232
 33
0.0
  0
MTEXT
  5
106
330
FE
100
AcDbEntity
  8
치수문자_일반주서
 62
     0
100
AcDbMText
 10
10.83462643869425
 20
42.43274771491232
 30
0.0
 40
3.5
 41
0.0
 71
     2
 72
     1
  1
\A1;117.48 [4 5/8]
  7
SLDTEXTSTYLE0
 73
     1
 44
1.0
  0
POINT
  5
107
330
FE
100
AcDbEntity
  8
Defpoints
 62
     0
100
AcDbPoint
 10
69.57212643869438
 20
7.937500000000015
 30
0.0
  0
POINT
  5
108
330
FE
100
AcDbEntity
  8
Defpoints
 62
     0
100
AcDbPoint
 10
-47.9028735613056
 20
6.937499999999995
 30
0.0
  0
POINT
  5
109
330
FE
100
AcDbEntity
  8
Defpoints
 62
     0
100
AcDbPoint
 10
-47.9028735613056
 20
38.05774771491232
 30
0.0
  0
ENDBLK
  5
100
330
FE
100
AcDbEntity
  8
0
100
AcDbBlockEnd
  0
BLOCK
  5
112
330
111
100
AcDbEntity
  8
0
100
AcDbBlockBegin
  2
_D_3
 70
     0
 10
0.0
 20
0.0
 30
0.0
  3
_D_3
  1
_D_3
  0
LINE
  5
114
330
111
100
AcDbEntity
  8
치수문자_일반주서
 62
     0
370
    -2
100
AcDbLine
 10
69.63462643869438
 20
-7.937499999999985
 30
0.0
 11
101.02103706326
 21
-7.937499999999872
 31
0.0
  0
LINE
  5
115
330
111
100
AcDbEntity
  8
치수문자_일반주서
 62
     0
370
    -2
100
AcDbLine
 10
69.63462643869438
 20
7.937500000000015
 30
0.0
 11
101.02103706326
 21
7.937500000000131
 31
0.0
  0
LINE
  5
116
330
111
100
AcDbEntity
  8
치수문자_일반주서
 62
     0
370
    -2
100
AcDbLine
 10
101.02103706326
 20
7.937500000000131
 30
0.0
 11
101.0210370632598
 21
42.54150000000013
 31
0.0
  0
LINE
  5
117
330
111
100
AcDbEntity
  8
치수문자_일반주서
 62
     0
370
    -2
100
AcDbLine
 10
101.02103706326
 20
-7.937499999999872
 30
0.0
 11
101.02103706326
 21
7.937500000000131
 31
0.0
  0
LINE
  5
118
330
111
100
AcDbEntity
  8
치수문자_일반주서
 62
     0
370
    -2
100
AcDbLine
 10
101.02103706326
 20
-11.23949999999987
 30
0.0
 11
101.02103706326
 21
-14.54149999999987
 31
0.0
  0
LINE
  5
119
330
111
100
AcDbEntity
  8
치수문자_일반주서
 62
     0
370
    -2
100
AcDbLine
 10
101.0210370632599
 20
11.23950000000013
 30
0.0
 11
101.0210370632599
 21
14.54150000000013
 31
0.0
  0
SOLID
  5
11A
330
111
100
AcDbEntity
  8
치수문자_일반주서
 62
     0
100
AcDbTrace
 10
101.5713703965934
 20
-11.23949999999987
 30
0.0
 11
100.4707037299267
 21
-11.23949999999987
 31
0.0
 12
101.02103706326
 22
-7.937499999999872
 32
0.0
 13
101.02103706326
 23
-7.937499999999872
 33
0.0
  0
SOLID
  5
11B
330
111
100
AcDbEntity
  8
치수문자_일반주서
 62
     0
100
AcDbTrace
 10
100.4707037299266
 20
11.23950000000013
 30
0.0
 11
101.5713703965933
 21
11.23950000000013
 31
0.0
 12
101.02103706326
 22
7.937500000000131
 32
0.0
 13
101.02103706326
 23
7.937500000000131
 33
0.0
  0
MTEXT
  5
11C
330
111
100
AcDbEntity
  8
치수문자_일반주서
 62
     0
100
AcDbMText
 10
96.64603706325988
 20
28.54150000000011
 30
0.0
 40
3.5
 41
0.0
 71
     2
 72
     1
  1
\A1;%%c15.88 [5/8]
  7
SLDTEXTSTYLE0
 11
-3.580687802255623E-15
 21
1.0
 31
0.0
 73
     1
 44
1.0
  0
POINT
  5
11D
330
111
100
AcDbEntity
  8
Defpoints
 62
     0
100
AcDbPoint
 10
69.57212643869438
 20
-7.937499999999985
 30
0.0
  0
POINT
  5
2CD
330
111
100
AcDbEntity
  8
Defpoints
 62
     0
100
AcDbPoint
 10
69.57212643869438
 20
7.937500000000015
 30
0.0
  0
POINT
  5
2CE
330
111
100
AcDbEntity
  8
Defpoints
 62
     0
100
AcDbPoint
 10
101.02103706326
 20
7.937500000000132
 30
0.0
  0
ENDBLK
  5
113
330
111
100
AcDbEntity
  8
0
100
AcDbBlockEnd
  0
BLOCK
  5
12B
330
12A
100
AcDbEntity
  8
0
100
AcDbBlockBegin
  2
SW_DOWELSYMBOL_0
 70
     0
 10
0.0
 20
0.0
 30
0.0
  3
SW_DOWELSYMBOL_0
  1
SW_DOWELSYMBOL_0
  0
CIRCLE
  5
12D
330
12A
100
AcDbEntity
  8
해칭선
 62
     0
100
AcDbCircle
 10
0.0
 20
0.0
 30
0.0
 40
2.999999999999996
  0
HATCH
  5
12E
330
12A
100
AcDbEntity
  8
0
  6
Continuous
 62
     0
370
     0
100
AcDbHatch
 10
0.0
 20
0.0
 30
0.0
210
0.0
220
0.0
230
1.0
  2
SOLID
 70
     1
 71
     0
 91
        1
 92
        0
 93
        3
 72
     2
 10
0.0
 20
0.0
 40
2.999999999999996
 50
0.0
 51
90.0
 73
     1
 72
     1
 10
0.0
 20
2.999999999999996
 11
0.0
 21
0.0
 72
     1
 10
0.0
 20
0.0
 11
2.999999999999996
 21
0.0
 97
        0
 75
     0
 76
     1
 98
        1
 10
0.0
 20
0.0
  0
HATCH
  5
12F
330
12A
100
AcDbEntity
  8
0
  6
Continuous
 62
     0
370
     0
100
AcDbHatch
 10
0.0
 20
0.0
 30
0.0
210
0.0
220
0.0
230
1.0
  2
SOLID
 70
     1
 71
     0
 91
        1
 92
        0
 93
        3
 72
     2
 10
0.0
 20
0.0
 40
2.999999999999996
 50
180.0
 51
270.0000000000007
 73
     1
 72
     1
 10
0.0
 20
-2.999999999999996
 11
0.0
 21
0.0
 72
     1
 10
0.0
 20
0.0
 11
-2.999999999999996
 21
0.0
 97
        0
 75
     0
 76
     1
 98
        1
 10
0.0
 20
0.0
  0
ENDBLK
  5
12C
330
12A
100
AcDbEntity
  8
0
100
AcDbBlockEnd
  0
BLOCK
  5
224
330
223
100
AcDbEntity
  8
0
100
AcDbBlockBegin
  2
*D7
 70
     1
 10
0.0
 20
0.0
 30
0.0
  3
*D7
  1
*D9
  0
LINE
  5
226
330
223
100
AcDbEntity
  8
치수문자_일반주서
 62
     0
370
    -2
100
AcDbLine
 10
17.81250000000006
 20
19.30399999999993
 30
0.0
 11
4.37500000000002
 21
19.30399999999988
 31
0.0
  0
LINE
  5
227
330
223
100
AcDbEntity
  8
치수문자_일반주서
 62
     0
370
    -2
100
AcDbLine
 10
17.81250000000006
 20
6.603999999999939
 30
0.0
 11
4.375000000000065
 21
6.603999999999889
 31
0.0
  0
LINE
  5
228
330
223
100
AcDbEntity
  8
치수문자_일반주서
 62
     0
370
    -2
100
AcDbLine
 10
4.375000000000032
 20
16.00199999999988
 30
0.0
 11
4.375000000000053
 21
9.905999999999889
 31
0.0
  0
SOLID
  5
229
330
223
100
AcDbEntity
  8
치수문자_일반주서
 62
     0
100
AcDbTrace
 10
4.925333333333366
 20
16.00199999999988
 30
0.0
 11
3.824666666666699
 21
16.00199999999987
 31
0.0
 12
4.37500000000002
 22
19.30399999999988
 32
0.0
 13
4.37500000000002
 23
19.30399999999988
 33
0.0
  0
SOLID
  5
22A
330
223
100
AcDbEntity
  8
치수문자_일반주서
 62
     0
100
AcDbTrace
 10
3.82466666666672
 20
9.905999999999887
 30
0.0
 11
4.925333333333387
 21
9.90599999999989
 31
0.0
 12
4.375000000000065
 22
6.603999999999889
 32
0.0
 13
4.375000000000065
 23
6.603999999999889
 33
0.0
  0
MTEXT
  5
22B
330
223
100
AcDbEntity
  8
치수문자_일반주서
 62
     0
100
AcDbMText
 10
0.0000000000000426
 20
12.95399999999992
 30
0.0
 40
3.5
 41
0.0
 71
     2
 72
     1
  1
\A1;%%c12.7 [1/2]
  7
SLDTEXTSTYLE0
 11
-3.496765431890260E-15
 21
1.0
 31
0.0
 73
     1
 44
1.0
  0
POINT
  5
22C
330
223
100
AcDbEntity
  8
Defpoints
 62
     0
100
AcDbPoint
 10
17.87500000000006
 20
19.30399999999993
 30
0.0
  0
POINT
  5
22D
330
223
100
AcDbEntity
  8
Defpoints
 62
     0
100
AcDbPoint
 10
17.87500000000006
 20
6.603999999999939
 30
0.0
  0
POINT
  5
22E
330
223
100
AcDbEntity
  8
Defpoints
 62
     0
100
AcDbPoint
 10
4.375000000000071
 20
6.603999999999888
 30
0.0
  0
ENDBLK
  5
225
330
223
100
AcDbEntity
  8
0
100
AcDbBlockEnd
  0
BLOCK
  5
230
330
22F
100
AcDbEntity
  8
0
100
AcDbBlockBegin
  2
*D8
 70
     1
 10
0.0
 20
0.0
 30
0.0
  3
*D8
  1
*D10
  0
LINE
  5
232
330
22F
100
AcDbEntity
  8
치수문자_일반주서
 62
     0
370
    -2
100
AcDbLine
 10
118.4749999999997
 20
19.36649999999994
 30
0.0
 11
118.4749999999997
 21
29.05492409889245
 31
0.0
  0
LINE
  5
233
330
22F
100
AcDbEntity
  8
치수문자_일반주서
 62
     0
370
    -2
100
AcDbLine
 10
93.07500000000005
 20
18.55458658730516
 30
0.0
 11
93.07500000000005
 21
29.05492409889245
 31
0.0
  0
LINE
  5
234
330
22F
100
AcDbEntity
  8
치수문자_일반주서
 62
     0
370
    -2
100
AcDbLine
 10
93.07500000000005
 20
29.05492409889245
 30
0.0
 11
62.9403077622971
 21
29.05492409889245
 31
0.0
  0
LINE
  5
235
330
22F
100
AcDbEntity
  8
치수문자_일반주서
 62
     0
370
    -2
100
AcDbLine
 10
118.4749999999997
 20
29.05492409889245
 30
0.0
 11
93.07500000000005
 21
29.05492409889245
 31
0.0
  0
LINE
  5
236
330
22F
100
AcDbEntity
  8
치수문자_일반주서
 62
     0
370
    -2
100
AcDbLine
 10
121.7769999999997
 20
29.05492409889245
 30
0.0
 11
125.0789999999997
 21
29.05492409889245
 31
0.0
  0
LINE
  5
237
330
22F
100
AcDbEntity
  8
치수문자_일반주서
 62
     0
370
    -2
100
AcDbLine
 10
89.77300000000005
 20
29.05492409889245
 30
0.0
 11
86.47100000000006
 21
29.05492409889245
 31
0.0
  0
SOLID
  5
238
330
22F
100
AcDbEntity
  8
치수문자_일반주서
 62
     0
100
AcDbTrace
 10
121.7769999999997
 20
29.60525743222578
 30
0.0
 11
121.7769999999997
 21
28.50459076555911
 31
0.0
 12
118.4749999999997
 22
29.05492409889245
 32
0.0
 13
118.4749999999997
 23
29.05492409889245
 33
0.0
  0
SOLID
  5
239
330
22F
100
AcDbEntity
  8
치수문자_일반주서
 62
     0
100
AcDbTrace
 10
89.77300000000005
 20
28.50459076555911
 30
0.0
 11
89.77300000000005
 21
29.60525743222578
 31
0.0
 12
93.07500000000005
 22
29.05492409889245
 32
0.0
 13
93.07500000000005
 23
29.05492409889245
 33
0.0
  0
MTEXT
  5
23A
330
22F
100
AcDbEntity
  8
치수문자_일반주서
 62
     0
100
AcDbMText
 10
71.6903077622971
 20
33.42992409889244
 30
0.0
 40
3.5
 41
0.0
 71
     2
 72
     1
  1
\A1;25.4 [1]
  7
SLDTEXTSTYLE0
 73
     1
 44
1.0
  0
POINT
  5
23B
330
22F
100
AcDbEntity
  8
Defpoints
 62
     0
100
AcDbPoint
 10
118.4749999999997
 20
19.30399999999994
 30
0.0
  0
POINT
  5
23C
330
22F
100
AcDbEntity
  8
Defpoints
 62
     0
100
AcDbPoint
 10
93.07500000000005
 20
18.49208658730516
 30
0.0
  0
POINT
  5
23D
330
22F
100
AcDbEntity
  8
Defpoints
 62
     0
100
AcDbPoint
 10
93.07500000000005
 20
29.05492409889245
 30
0.0
  0
ENDBLK
  5
231
330
22F
100
AcDbEntity
  8
0
100
AcDbBlockEnd
  0
BLOCK
  5
23F
330
23E
100
AcDbEntity
  8
0
100
AcDbBlockBegin
  2
*D9
 70
     1
 10
0.0
 20
0.0
 30
0.0
  3
*D9
  1
*D11
  0
LINE
  5
241
330
23E
100
AcDbEntity
  8
치수문자_일반주서
 62
     0
370
    -2
100
AcDbLine
 10
118.4749999999997
 20
19.36649999999994
 30
0.0
 11
118.4749999999997
 21
49.5053040850066
 31
0.0
  0
LINE
  5
242
330
23E
100
AcDbEntity
  8
치수문자_일반주서
 62
     0
370
    -2
100
AcDbLine
 10
16.87500000000006
 20
18.36649999999992
 30
0.0
 11
16.87500000000006
 21
49.5053040850066
 31
0.0
  0
LINE
  5
243
330
23E
100
AcDbEntity
  8
치수문자_일반주서
 62
     0
370
    -2
100
AcDbLine
 10
115.1729999999997
 20
49.5053040850066
 30
0.0
 11
20.17700000000006
 21
49.5053040850066
 31
0.0
  0
SOLID
  5
244
330
23E
100
AcDbEntity
  8
치수문자_일반주서
 62
     0
100
AcDbTrace
 10
115.1729999999997
 20
48.95497075167327
 30
0.0
 11
115.1729999999997
 21
50.05563741833993
 31
0.0
 12
118.4749999999997
 22
49.5053040850066
 32
0.0
 13
118.4749999999997
 23
49.5053040850066
 33
0.0
  0
SOLID
  5
245
330
23E
100
AcDbEntity
  8
치수문자_일반주서
 62
     0
100
AcDbTrace
 10
20.17700000000006
 20
50.05563741833993
 30
0.0
 11
20.17700000000006
 21
48.95497075167327
 31
0.0
 12
16.87500000000006
 22
49.5053040850066
 32
0.0
 13
16.87500000000006
 23
49.5053040850066
 33
0.0
  0
MTEXT
  5
246
330
23E
100
AcDbEntity
  8
치수문자_일반주서
 62
     0
100
AcDbMText
 10
67.67500000000005
 20
53.8803040850066
 30
0.0
 40
3.5
 41
0.0
 71
     2
 72
     1
  1
\A1;101.6 [4]
  7
SLDTEXTSTYLE0
 73
     1
 44
1.0
  0
POINT
  5
247
330
23E
100
AcDbEntity
  8
Defpoints
 62
     0
100
AcDbPoint
 10
118.4749999999997
 20
19.30399999999994
 30
0.0
  0
POINT
  5
248
330
23E
100
AcDbEntity
  8
Defpoints
 62
     0
100
AcDbPoint
 10
16.87500000000006
 20
18.30399999999992
 30
0.0
  0
POINT
  5
249
330
23E
100
AcDbEntity
  8
Defpoints
 62
     0
100
AcDbPoint
 10
16.87500000000006
 20
49.5053040850066
 30
0.0
  0
ENDBLK
  5
240
330
23E
100
AcDbEntity
  8
0
100
AcDbBlockEnd
  0
BLOCK
  5
24B
330
24A
100
AcDbEntity
  8
0
100
AcDbBlockBegin
  2
*D10
 70
     1
 10
0.0
 20
0.0
 30
0.0
  3
*D10
  1
*D12
  0
LINE
  5
24D
330
24A
100
AcDbEntity
  8
치수문자_일반주서
 62
     0
370
    -2
100
AcDbLine
 10
118.5375000000001
 20
6.603999999999941
 30
0.0
 11
133.982559781409
 21
6.603999999999999
 31
0.0
  0
LINE
  5
24E
330
24A
100
AcDbEntity
  8
치수문자_일반주서
 62
     0
370
    -2
100
AcDbLine
 10
118.5374999999997
 20
19.30399999999994
 30
0.0
 11
133.982559781409
 21
19.304
 31
0.0
  0
LINE
  5
24F
330
24A
100
AcDbEntity
  8
치수문자_일반주서
 62
     0
370
    -2
100
AcDbLine
 10
133.982559781409
 20
19.304
 30
0.0
 11
133.9825597814088
 21
52.15799999999999
 31
0.0
  0
LINE
  5
250
330
24A
100
AcDbEntity
  8
치수문자_일반주서
 62
     0
370
    -2
100
AcDbLine
 10
133.982559781409
 20
6.603999999999999
 30
0.0
 11
133.982559781409
 21
19.304
 31
0.0
  0
LINE
  5
251
330
24A
100
AcDbEntity
  8
치수문자_일반주서
 62
     0
370
    -2
100
AcDbLine
 10
133.9825597814091
 20
3.302
 30
0.0
 11
133.9825597814091
 21
0.0
 31
0.0
  0
LINE
  5
252
330
24A
100
AcDbEntity
  8
치수문자_일반주서
 62
     0
370
    -2
100
AcDbLine
 10
133.982559781409
 20
22.606
 30
0.0
 11
133.9825597814089
 21
25.908
 31
0.0
  0
SOLID
  5
253
330
24A
100
AcDbEntity
  8
치수문자_일반주서
 62
     0
100
AcDbTrace
 10
134.5328931147424
 20
3.302000000000002
 30
0.0
 11
133.4322264480757
 21
3.301999999999997
 31
0.0
 12
133.982559781409
 22
6.603999999999999
 32
0.0
 13
133.982559781409
 23
6.603999999999999
 33
0.0
  0
SOLID
  5
254
330
24A
100
AcDbEntity
  8
치수문자_일반주서
 62
     0
100
AcDbTrace
 10
133.4322264480756
 20
22.606
 30
0.0
 11
134.5328931147423
 21
22.60600000000001
 31
0.0
 12
133.982559781409
 22
19.304
 32
0.0
 13
133.982559781409
 23
19.304
 33
0.0
  0
MTEXT
  5
255
330
24A
100
AcDbEntity
  8
치수문자_일반주서
 62
     0
100
AcDbMText
 10
129.6075597814089
 20
39.90799999999997
 30
0.0
 40
3.5
 41
0.0
 71
     2
 72
     1
  1
\A1;%%c12.7 [1/2]
  7
SLDTEXTSTYLE0
 11
-4.475859752819529E-15
 21
1.0
 31
0.0
 73
     1
 44
1.0
  0
POINT
  5
256
330
24A
100
AcDbEntity
  8
Defpoints
 62
     0
100
AcDbPoint
 10
118.4750000000001
 20
6.603999999999941
 30
0.0
  0
POINT
  5
257
330
24A
100
AcDbEntity
  8
Defpoints
 62
     0
100
AcDbPoint
 10
118.4749999999997
 20
19.30399999999994
 30
0.0
  0
POINT
  5
258
330
24A
100
AcDbEntity
  8
Defpoints
 62
     0
100
AcDbPoint
 10
133.982559781409
 20
19.304
 30
0.0
  0
ENDBLK
  5
24C
330
24A
100
AcDbEntity
  8
0
100
AcDbBlockEnd
  0
BLOCK
  5
296
330
295
100
AcDbEntity
  8
0
100
AcDbBlockBegin
  2
*D11
 70
     1
 10
0.0
 20
0.0
 30
0.0
  3
*D11
  1
*D13
  0
LINE
  5
298
330
295
100
AcDbEntity
  8
치수문자_일반주서
 62
     0
370
    -2
100
AcDbLine
 10
131.2525734960848
 20
-29.50800959947633
 30
0.0
 11
117.8150734960848
 21
-29.50800959947638
 31
0.0
  0
LINE
  5
299
330
295
100
AcDbEntity
  8
치수문자_일반주서
 62
     0
370
    -2
100
AcDbLine
 10
131.2525734960848
 20
-42.20800959947633
 30
0.0
 11
117.8150734960848
 21
-42.20800959947638
 31
0.0
  0
LINE
  5
29A
330
295
100
AcDbEntity
  8
치수문자_일반주서
 62
     0
370
    -2
100
AcDbLine
 10
117.8150734960848
 20
-32.81000959947639
 30
0.0
 11
117.8150734960848
 21
-38.90600959947638
 31
0.0
  0
SOLID
  5
29B
330
295
100
AcDbEntity
  8
치수문자_일반주서
 62
     0
100
AcDbTrace
 10
118.3654068294181
 20
-32.81000959947639
 30
0.0
 11
117.2647401627515
 21
-32.81000959947639
 31
0.0
 12
117.8150734960848
 22
-29.50800959947638
 32
0.0
 13
117.8150734960848
 23
-29.50800959947638
 33
0.0
  0
SOLID
  5
29C
330
295
100
AcDbEntity
  8
치수문자_일반주서
 62
     0
100
AcDbTrace
 10
117.2647401627515
 20
-38.90600959947638
 30
0.0
 11
118.3654068294181
 21
-38.90600959947638
 31
0.0
 12
117.8150734960848
 22
-42.20800959947638
 32
0.0
 13
117.8150734960848
 23
-42.20800959947638
 33
0.0
  0
MTEXT
  5
29D
330
295
100
AcDbEntity
  8
치수문자_일반주서
 62
     0
100
AcDbMText
 10
113.4400734960848
 20
-35.85800959947635
 30
0.0
 40
3.5
 41
0.0
 71
     2
 72
     1
  1
\A1;%%c12.7 [1/2]
  7
SLDTEXTSTYLE0
 11
-3.356894814614648E-15
 21
1.0
 31
0.0
 73
     1
 44
1.0
  0
POINT
  5
29E
330
295
100
AcDbEntity
  8
Defpoints
 62
     0
100
AcDbPoint
 10
131.3150734960848
 20
-29.50800959947633
 30
0.0
  0
POINT
  5
29F
330
295
100
AcDbEntity
  8
Defpoints
 62
     0
100
AcDbPoint
 10
131.3150734960848
 20
-42.20800959947633
 30
0.0
  0
POINT
  5
2A0
330
295
100
AcDbEntity
  8
Defpoints
 62
     0
100
AcDbPoint
 10
117.8150734960848
 20
-42.20800959947638
 30
0.0
  0
ENDBLK
  5
297
330
295
100
AcDbEntity
  8
0
100
AcDbBlockEnd
  0
BLOCK
  5
2A2
330
2A1
100
AcDbEntity
  8
0
100
AcDbBlockBegin
  2
*D12
 70
     1
 10
0.0
 20
0.0
 30
0.0
  3
*D12
  1
*D14
  0
LINE
  5
2A4
330
2A1
100
AcDbEntity
  8
치수문자_일반주서
 62
     0
370
    -2
100
AcDbLine
 10
231.9150734960845
 20
-29.44550959947632
 30
0.0
 11
231.9150734960845
 21
-19.75708550058382
 31
0.0
  0
LINE
  5
2A5
330
2A1
100
AcDbEntity
  8
치수문자_일반주서
 62
     0
370
    -2
100
AcDbLine
 10
206.5150734960848
 20
-30.2574230121711
 30
0.0
 11
206.5150734960848
 21
-19.75708550058382
 31
0.0
  0
LINE
  5
2A6
330
2A1
100
AcDbEntity
  8
치수문자_일반주서
 62
     0
370
    -2
100
AcDbLine
 10
206.5150734960848
 20
-19.75708550058382
 30
0.0
 11
176.3803812583819
 21
-19.75708550058382
 31
0.0
  0
LINE
  5
2A7
330
2A1
100
AcDbEntity
  8
치수문자_일반주서
 62
     0
370
    -2
100
AcDbLine
 10
231.9150734960845
 20
-19.75708550058382
 30
0.0
 11
206.5150734960848
 21
-19.75708550058382
 31
0.0
  0
LINE
  5
2A8
330
2A1
100
AcDbEntity
  8
치수문자_일반주서
 62
     0
370
    -2
100
AcDbLine
 10
235.2170734960845
 20
-19.75708550058382
 30
0.0
 11
238.5190734960845
 21
-19.75708550058382
 31
0.0
  0
LINE
  5
2A9
330
2A1
100
AcDbEntity
  8
치수문자_일반주서
 62
     0
370
    -2
100
AcDbLine
 10
203.2130734960848
 20
-19.75708550058382
 30
0.0
 11
199.9110734960848
 21
-19.75708550058382
 31
0.0
  0
SOLID
  5
2AA
330
2A1
100
AcDbEntity
  8
치수문자_일반주서
 62
     0
100
AcDbTrace
 10
235.2170734960845
 20
-19.20675216725048
 30
0.0
 11
235.2170734960845
 21
-20.30741883391715
 31
0.0
 12
231.9150734960845
 22
-19.75708550058382
 32
0.0
 13
231.9150734960845
 23
-19.75708550058382
 33
0.0
  0
SOLID
  5
2AB
330
2A1
100
AcDbEntity
  8
치수문자_일반주서
 62
     0
100
AcDbTrace
 10
203.2130734960848
 20
-20.30741883391715
 30
0.0
 11
203.2130734960848
 21
-19.20675216725048
 31
0.0
 12
206.5150734960848
 22
-19.75708550058382
 32
0.0
 13
206.5150734960848
 23
-19.75708550058382
 33
0.0
  0
MTEXT
  5
2AC
330
2A1
100
AcDbEntity
  8
치수문자_일반주서
 62
     0
100
AcDbMText
 10
185.1303812583819
 20
-15.38208550058382
 30
0.0
 40
3.5
 41
0.0
 71
     2
 72
     1
  1
\A1;25.4 [1]
  7
SLDTEXTSTYLE0
 73
     1
 44
1.0
  0
POINT
  5
2AD
330
2A1
100
AcDbEntity
  8
Defpoints
 62
     0
100
AcDbPoint
 10
231.9150734960845
 20
-29.50800959947632
 30
0.0
  0
POINT
  5
2AE
330
2A1
100
AcDbEntity
  8
Defpoints
 62
     0
100
AcDbPoint
 10
206.5150734960848
 20
-30.3199230121711
 30
0.0
  0
POINT
  5
2AF
330
2A1
100
AcDbEntity
  8
Defpoints
 62
     0
100
AcDbPoint
 10
206.5150734960848
 20
-19.75708550058382
 30
0.0
  0
ENDBLK
  5
2A3
330
2A1
100
AcDbEntity
  8
0
100
AcDbBlockEnd
  0
BLOCK
  5
2B1
330
2B0
100
AcDbEntity
  8
0
100
AcDbBlockBegin
  2
*D13
 70
     1
 10
0.0
 20
0.0
 30
0.0
  3
*D13
  1
*D15
  0
LINE
  5
2B3
330
2B0
100
AcDbEntity
  8
치수문자_일반주서
 62
     0
370
    -2
100
AcDbLine
 10
231.9150734960845
 20
-29.44550959947632
 30
0.0
 11
231.9150734960845
 21
0.6932944855303376
 31
0.0
  0
LINE
  5
2B4
330
2B0
100
AcDbEntity
  8
치수문자_일반주서
 62
     0
370
    -2
100
AcDbLine
 10
130.3150734960848
 20
-30.44550959947634
 30
0.0
 11
130.3150734960848
 21
0.6932944855303376
 31
0.0
  0
LINE
  5
2B5
330
2B0
100
AcDbEntity
  8
치수문자_일반주서
 62
     0
370
    -2
100
AcDbLine
 10
228.6130734960845
 20
0.6932944855303376
 30
0.0
 11
133.6170734960848
 21
0.6932944855303376
 31
0.0
  0
SOLID
  5
2B6
330
2B0
100
AcDbEntity
  8
치수문자_일반주서
 62
     0
100
AcDbTrace
 10
228.6130734960845
 20
0.1429611521970043
 30
0.0
 11
228.6130734960845
 21
1.243627818863671
 31
0.0
 12
231.9150734960845
 22
0.6932944855303376
 32
0.0
 13
231.9150734960845
 23
0.6932944855303376
 33
0.0
  0
SOLID
  5
2B7
330
2B0
100
AcDbEntity
  8
치수문자_일반주서
 62
     0
100
AcDbTrace
 10
133.6170734960848
 20
1.243627818863671
 30
0.0
 11
133.6170734960848
 21
0.1429611521970043
 31
0.0
 12
130.3150734960848
 22
0.6932944855303376
 32
0.0
 13
130.3150734960848
 23
0.6932944855303376
 33
0.0
  0
MTEXT
  5
2B8
330
2B0
100
AcDbEntity
  8
치수문자_일반주서
 62
     0
100
AcDbMText
 10
181.1150734960848
 20
5.068294485530338
 30
0.0
 40
3.5
 41
0.0
 71
     2
 72
     1
  1
\A1;101.6 [4]
  7
SLDTEXTSTYLE0
 73
     1
 44
1.0
  0
POINT
  5
2B9
330
2B0
100
AcDbEntity
  8
Defpoints
 62
     0
100
AcDbPoint
 10
231.9150734960845
 20
-29.50800959947632
 30
0.0
  0
POINT
  5
2BA
330
2B0
100
AcDbEntity
  8
Defpoints
 62
     0
100
AcDbPoint
 10
130.3150734960848
 20
-30.50800959947634
 30
0.0
  0
POINT
  5
2BB
330
2B0
100
AcDbEntity
  8
Defpoints
 62
     0
100
AcDbPoint
 10
130.3150734960848
 20
0.6932944855303376
 30
0.0
  0
ENDBLK
  5
2B2
330
2B0
100
AcDbEntity
  8
0
100
AcDbBlockEnd
  0
BLOCK
  5
2BD
330
2BC
100
AcDbEntity
  8
0
100
AcDbBlockBegin
  2
*D14
 70
     1
 10
0.0
 20
0.0
 30
0.0
  3
*D14
  1
*D16
  0
LINE
  5
2BF
330
2BC
100
AcDbEntity
  8
치수문자_일반주서
 62
     0
370
    -2
100
AcDbLine
 10
231.9775734960848
 20
-42.20800959947632
 30
0.0
 11
247.4226332774938
 21
-42.20800959947626
 31
0.0
  0
LINE
  5
2C0
330
2BC
100
AcDbEntity
  8
치수문자_일반주서
 62
     0
370
    -2
100
AcDbLine
 10
231.9775734960845
 20
-29.50800959947632
 30
0.0
 11
247.4226332774938
 21
-29.50800959947626
 31
0.0
  0
LINE
  5
2C1
330
2BC
100
AcDbEntity
  8
치수문자_일반주서
 62
     0
370
    -2
100
AcDbLine
 10
247.4226332774938
 20
-29.50800959947626
 30
0.0
 11
247.4226332774936
 21
3.345990400523725
 31
0.0
  0
LINE
  5
2C2
330
2BC
100
AcDbEntity
  8
치수문자_일반주서
 62
     0
370
    -2
100
AcDbLine
 10
247.4226332774938
 20
-42.20800959947626
 30
0.0
 11
247.4226332774938
 21
-29.50800959947626
 31
0.0
  0
LINE
  5
2C3
330
2BC
100
AcDbEntity
  8
치수문자_일반주서
 62
     0
370
    -2
100
AcDbLine
 10
247.4226332774938
 20
-45.51000959947626
 30
0.0
 11
247.4226332774939
 21
-48.81200959947626
 31
0.0
  0
LINE
  5
2C4
330
2BC
100
AcDbEntity
  8
치수문자_일반주서
 62
     0
370
    -2
100
AcDbLine
 10
247.4226332774937
 20
-26.20600959947626
 30
0.0
 11
247.4226332774937
 21
-22.90400959947626
 31
0.0
  0
SOLID
  5
2C5
330
2BC
100
AcDbEntity
  8
치수문자_일반주서
 62
     0
100
AcDbTrace
 10
247.9729666108272
 20
-45.51000959947626
 30
0.0
 11
246.8722999441605
 21
-45.51000959947626
 31
0.0
 12
247.4226332774938
 22
-42.20800959947626
 32
0.0
 13
247.4226332774938
 23
-42.20800959947626
 33
0.0
  0
SOLID
  5
2C6
330
2BC
100
AcDbEntity
  8
치수문자_일반주서
 62
     0
100
AcDbTrace
 10
246.8722999441604
 20
-26.20600959947627
 30
0.0
 11
247.9729666108271
 21
-26.20600959947626
 31
0.0
 12
247.4226332774938
 22
-29.50800959947626
 32
0.0
 13
247.4226332774938
 23
-29.50800959947626
 33
0.0
  0
MTEXT
  5
2C7
330
2BC
100
AcDbEntity
  8
치수문자_일반주서
 62
     0
100
AcDbMText
 10
243.0476332774937
 20
-8.904009599476295
 30
0.0
 40
3.5
 41
0.0
 71
     2
 72
     1
  1
\A1;%%c12.7 [1/2]
  7
SLDTEXTSTYLE0
 11
-4.475859752819529E-15
 21
1.0
 31
0.0
 73
     1
 44
1.0
  0
POINT
  5
2C8
330
2BC
100
AcDbEntity
  8
Defpoints
 62
     0
100
AcDbPoint
 10
231.9150734960848
 20
-42.20800959947632
 30
0.0
  0
POINT
  5
2C9
330
2BC
100
AcDbEntity
  8
Defpoints
 62
     0
100
AcDbPoint
 10
231.9150734960845
 20
-29.50800959947632
 30
0.0
  0
POINT
  5
2CA
330
2BC
100
AcDbEntity
  8
Defpoints
 62
     0
100
AcDbPoint
 10
247.4226332774937
 20
-29.50800959947626
 30
0.0
  0
ENDBLK
  5
2BE
330
2BC
100
AcDbEntity
  8
0
100
AcDbBlockEnd
  0
BLOCK
  5
3E3
330
3E2
100
AcDbEntity
  8
0
100
AcDbBlockBegin
  2
*D15
 70
     1
 10
0.0
 20
0.0
 30
0.0
  3
*D15
  1
*D15
  0
LINE
  5
3E5
330
3E2
100
AcDbEntity
  8
치수문자_일반주서
 62
     0
370
    -2
100
AcDbLine
 10
0.5158764386943879
 20
7.809500000000001
 30
0.0
 11
0.5158764386943915
 21
28.60428002941127
 31
0.0
  0
LINE
  5
3E6
330
3E2
100
AcDbEntity
  8
치수문자_일반주서
 62
     0
370
    -2
100
AcDbLine
 10
69.57212643869438
 20
8.000000000000014
 30
0.0
 11
69.57212643869438
 21
28.60428002941127
 31
0.0
  0
LINE
  5
3E7
330
3E2
100
AcDbEntity
  8
치수문자_일반주서
 62
     0
370
    -2
100
AcDbLine
 10
3.817876438694392
 20
28.60428002941127
 30
0.0
 11
66.27012643869438
 21
28.60428002941127
 31
0.0
  0
SOLID
  5
3E8
330
3E2
100
AcDbEntity
  8
치수문자_일반주서
 62
     0
100
AcDbTrace
 10
3.817876438694392
 20
29.15461336274461
 30
0.0
 11
3.817876438694392
 21
28.05394669607794
 31
0.0
 12
0.5158764386943915
 22
28.60428002941127
 32
0.0
 13
0.5158764386943915
 23
28.60428002941127
 33
0.0
  0
SOLID
  5
3E9
330
3E2
100
AcDbEntity
  8
치수문자_일반주서
 62
     0
100
AcDbTrace
 10
66.27012643869438
 20
28.05394669607794
 30
0.0
 11
66.27012643869438
 21
29.15461336274461
 31
0.0
 12
69.57212643869438
 22
28.60428002941127
 32
0.0
 13
69.57212643869438
 23
28.60428002941127
 33
0.0
  0
MTEXT
  5
3EA
330
3E2
100
AcDbEntity
  8
치수문자_일반주서
 62
     0
100
AcDbMText
 10
35.04400143869439
 20
31.22928002941127
 30
0.0
 40
3.5
 41
0.0
 71
     5
 72
     1
  1
\A1;69.06 [2 23/32]
  7
SLDTEXTSTYLE0
 73
     1
 44
1.0
  0
POINT
  5
3EB
330
3E2
100
AcDbEntity
  8
Defpoints
 62
     0
100
AcDbPoint
 10
0.5158764386943879
 20
7.747000000000001
 30
0.0
  0
POINT
  5
3EC
330
3E2
100
AcDbEntity
  8
Defpoints
 62
     0
100
AcDbPoint
 10
69.57212643869438
 20
7.937500000000015
 30
0.0
  0
POINT
  5
3ED
330
3E2
100
AcDbEntity
  8
Defpoints
 62
     0
100
AcDbPoint
 10
69.57212643869438
 20
28.60428002941127
 30
0.0
  0
ENDBLK
  5
3E4
330
3E2
100
AcDbEntity
  8
0
100
AcDbBlockEnd
  0
ENDSEC
  0
SECTION
  2
ENTITIES
  0
LINE
  5
96
330
1F
100
AcDbEntity
  8
외형선
  6
Continuous
370
    15
100
AcDbLine
 10
0.0
 20
7.937500000000004
 30
0.0
 11
-16.94979856130567
 21
7.937500000000003
 31
0.0
  0
LINE
  5
97
330
1F
100
AcDbEntity
  8
외형선
  6
Continuous
370
    15
100
AcDbLine
 10
-46.90287356130558
 20
-7.937499999999999
 30
0.0
 11
-0.0000000000000036
 21
-7.937499999999997
 31
0.0
  0
LINE
  5
98
330
1F
100
AcDbEntity
  8
외형선
  6
Continuous
370
    15
100
AcDbLine
 10
-46.90287356130558
 20
7.937499999999996
 30
0.0
 11
-47.9028735613056
 21
6.937499999999994
 31
0.0
  0
LINE
  5
99
330
1F
100
AcDbEntity
  8
외형선
  6
Continuous
370
    15
100
AcDbLine
 10
-47.9028735613056
 20
-6.937499999999996
 30
0.0
 11
-46.90287356130558
 21
-7.937499999999996
 31
0.0
  0
SPLINE
  5
9B
330
1F
100
AcDbEntity
  8
0
  6
Continuous
 62
     1
370
    15
100
AcDbSpline
210
0.0
220
0.0
230
1.0
 70
     8
 71
     3
 72
     9
 73
     5
 74
     0
 42
0.000000001
 43
0.00000001
 40
0.0
 40
0.0
 40
0.0
 40
0.0
 40
0.5241870025792065
 40
1.0
 40
1.0
 40
1.0
 40
1.0
 10
49.00734543610261
 20
2.033976297691072
 30
0.0
 10
48.62291911497557
 20
2.217595286878823
 30
0.0
 10
47.88954282133324
 20
2.567888194341759
 30
0.0
 10
47.15569718386091
 20
2.952341386760314
 30
0.0
 10
46.80652389145102
 20
3.13526921261298
 30
0.0
  0
SPLINE
  5
9C
330
1F
100
AcDbEntity
  8
0
  6
Continuous
 62
     1
370
    15
100
AcDbSpline
210
0.0
220
0.0
230
1.0
 70
     8
 71
     3
 72
    21
 73
    17
 74
     0
 42
0.000000001
 43
0.00000001
 40
0.0
 40
0.0
 40
0.0
 40
0.0
 40
0.0635065321676131
 40
0.1220162496512412
 40
0.1957109676171768
 40
0.2588637213938881
 40
0.3070904500124448
 40
0.3656349241026469
 40
0.4512965197239477
 40
0.5392550467668593
 40
0.6223200332806986
 40
0.698782544855623
 40
0.7808103658416695
 40
0.861384809989232
 40
0.9395174260950832
 40
1.0
 40
1.0
 40
1.0
 40
1.0
 10
46.38365662294407
 20
6.307444880940505
 30
0.0
 10
46.26392872360256
 20
6.300880774862945
 30
0.0
 10
46.03389334365586
 20
6.288269039053104
 30
0.0
 10
45.61431585894587
 20
6.267494086271096
 30
0.0
 10
45.18185274164372
 20
6.251999430622563
 30
0.0
 10
44.77495356571862
 20
6.238033928664088
 30
0.0
 10
44.40446896394963
 20
6.226903325839306
 30
0.0
 10
43.98975100170095
 20
6.216452264975483
 30
0.0
 10
43.48216810019731
 20
6.2066729065127
 30
0.0
 10
42.92281061080807
 20
6.200085435409193
 30
0.0
 10
42.39322968425506
 20
6.198156844168811
 30
0.0
 10
41.87931169658127
 20
6.199645630204488
 30
0.0
 10
41.36119027950086
 20
6.204576356171065
 30
0.0
 10
40.84050230042202
 20
6.213308055744066
 30
0.0
 10
40.36687235643306
 20
6.224226669507839
 30
0.0
 10
40.07153715379552
 20
6.233351386963533
 30
0.0
 10
39.94267224931528
 20
6.237332814957339
 30
0.0
  0
SPLINE
  5
9D
330
1F
100
AcDbEntity
  8
0
  6
Continuous
 62
     1
370
    15
100
AcDbSpline
210
0.0
220
0.0
230
1.0
 70
     8
 71
     3
 72
    30
 73
    26
 74
     0
 42
0.000000001
 43
0.00000001
 40
0.0
 40
0.0
 40
0.0
 40
0.0
 40
0.0641435891912445
 40
0.1169005949727614
 40
0.1509976976417996
 40
0.175626132537454
 40
0.1999527226265284
 40
0.237275731502871
 40
0.2833250875594693
 40
0.3249656997762979
 40
0.3629946057725144
 40
0.4103040823975232
 40
0.4596106260234853
 40
0.5060992738143187
 40
0.5535056562473174
 40
0.6109870340222899
 40
0.6630002244324102
 40
0.7157124502360933
 40
0.7759806295943061
 40
0.8036664405817501
 40
0.8245822072685728
 40
0.8544462449529987
 40
0.8946022454050307
 40
0.9429527119324747
 40
0.9999999999999999
 40
0.9999999999999999
 40
0.9999999999999999
 40
0.9999999999999999
 10
66.62332702773884
 20
5.428881436402475
 30
0.0
 10
66.35661625566435
 20
5.405691348700772
 30
0.0
 10
65.8705404321211
 20
5.363427810224357
 30
0.0
 10
65.13875327636208
 20
5.318191015102865
 30
0.0
 10
64.6078699577753
 20
5.291279399566521
 30
0.0
 10
64.20818222697193
 20
5.272462292630055
 30
0.0
 10
63.8214356904342
 20
5.257307998277482
 30
0.0
 10
63.31926965522017
 20
5.241139428960499
 30
0.0
 10
62.73798325200761
 20
5.228867792859154
 30
0.0
 10
62.1551386655438
 20
5.223096516520623
 30
0.0
 10
61.56901533775863
 20
5.223294083476302
 30
0.0
 10
60.94396057241691
 20
5.230400523476814
 30
0.0
 10
60.27987122084335
 20
5.246202996433966
 30
0.0
 10
59.61521343352871
 20
5.270141705985585
 30
0.0
 10
58.91306701891355
 20
5.303868865006132
 30
0.0
 10
58.18425346136277
 20
5.348699231842011
 30
0.0
 10
57.4342356815787
 20
5.404812133141234
 30
0.0
 10
56.67035206968193
 20
5.47161827394782
 30
0.0
 10
56.01406296834246
 20
5.538301459155635
 30
0.0
 10
55.51224089256716
 20
5.594370591030305
 30
0.0
 10
55.15418729756723
 20
5.636149597050415
 30
0.0
 10
54.72113037046492
 20
5.689571159961523
 30
0.0
 10
54.1585036529093
 20
5.762237768950324
 30
0.0
 10
53.47956817125441
 20
5.85773385430299
 30
0.0
 10
53.01094953989623
 20
5.930614499846643
 30
0.0
 10
52.75730635594385
 20
5.970061670204814
 30
0.0
  0
SPLINE
  5
9E
330
1F
100
AcDbEntity
  8
0
  6
Continuous
 62
     1
370
    15
100
AcDbSpline
210
0.0
220
0.0
230
1.0
 70
     8
 71
     3
 72
    18
 73
    14
 74
     0
 42
0.000000001
 43
0.00000001
 40
0.0
 40
0.0
 40
0.0
 40
0.0
 40
0.1422962165931508
 40
0.2614478370645538
 40
0.3580076174186477
 40
0.4265724393850215
 40
0.4831908868469019
 40
0.5693981053267696
 40
0.6768899777158518
 40
0.7750053975504771
 40
0.8644136703175912
 40
0.9755780757206494
 40
1.0
 40
1.0
 40
1.0
 40
1.0
 10
52.75730635594385
 20
-5.970061670204803
 30
0.0
 10
53.02707248894157
 20
-5.928123787014446
 30
0.0
 10
53.52272707255696
 20
-5.851069251667703
 30
0.0
 10
54.23786351858035
 20
-5.751592702630284
 30
0.0
 10
54.81412528351278
 20
-5.677801743068829
 30
0.0
 10
55.26246602373928
 20
-5.623206425415662
 30
0.0
 10
55.67001573995725
 20
-5.57641801004652
 30
0.0
 10
56.16669302453033
 20
-5.522382341588791
 30
0.0
 10
56.74524823866571
 20
-5.465362461090329
 30
0.0
 10
57.32829932390267
 20
-5.414071173083849
 30
0.0
 10
57.91584093521416
 20
-5.368519607309844
 30
0.0
 10
58.36137663454804
 20
-5.337219292003367
 30
0.0
 10
58.62948411866708
 20
-5.322215604818746
 30
0.0
 10
58.67777586527031
 20
-5.319513128004217
 30
0.0
  0
SPLINE
  5
9F
330
1F
100
AcDbEntity
  8
0
  6
Continuous
 62
     1
370
    15
100
AcDbSpline
210
0.0
220
0.0
230
1.0
 70
     8
 71
     3
 72
    28
 73
    24
 74
     0
 42
0.000000001
 43
0.00000001
 40
0.0
 40
0.0
 40
0.0
 40
0.0
 40
0.070615198399969
 40
0.1256731628558559
 40
0.1687155732369623
 40
0.1925418251822994
 40
0.2167957148393545
 40
0.253967764387126
 40
0.2916553087592452
 40
0.3185349761990198
 40
0.3414745049954779
 40
0.3776449964841462
 40
0.420837974002029
 40
0.474889510025795
 40
0.5297302784531547
 40
0.5843418511914652
 40
0.6626377325990586
 40
0.7307587294559336
 40
0.7804444060057958
 40
0.8118541639932834
 40
0.8556189437422268
 40
0.9169554123376192
 40
0.9999999999999999
 40
0.9999999999999999
 40
0.9999999999999999
 40
0.9999999999999999
 10
34.6471264386944
 20
-6.576601275084839
 30
0.0
 10
34.92595710052134
 20
-6.55240914015863
 30
0.0
 10
35.42218924270845
 20
-6.509354639409483
 30
0.0
 10
36.08939574754539
 20
-6.455394657829804
 30
0.0
 10
36.5729852339268
 20
-6.418236231375808
 30
0.0
 10
36.93195195962254
 20
-6.392191116671881
 30
0.0
 10
37.26127004420324
 20
-6.369454596854222
 30
0.0
 10
37.64903442502357
 20
-6.344410107661
 30
0.0
 10
38.04615038867804
 20
-6.321046163097329
 30
0.0
 10
38.38782927051709
 20
-6.302596785433093
 30
0.0
 10
38.72356377363421
 20
-6.285728615548486
 30
0.0
 10
39.12310977337894
 20
-6.267430606200005
 30
0.0
 10
39.64413382755545
 20
-6.246688221317672
 30
0.0
 10
40.23777046011881
 20
-6.227438418931463
 30
0.0
 10
40.87621382367143
 20
-6.212227403924966
 30
0.0
 10
41.60955656184862
 20
-6.201010844495838
 30
0.0
 10
42.39416209762507
 20
-6.197135569414318
 30
0.0
 10
43.16028529776786
 20
-6.202201133578281
 30
0.0
 10
43.74206237296394
 20
-6.211397199822136
 30
0.0
 10
44.22755915799307
 20
-6.222099527458149
 30
0.0
 10
44.76937386394533
 20
-6.237246996884367
 30
0.0
 10
45.50780278903115
 20
-6.263515936246509
 30
0.0
 10
46.06383815728611
 20
-6.291404204807085
 30
0.0
 10
46.38365662294407
 20
-6.307444880940495
 30
0.0
  0
LINE
  5
A1
330
1F
100
AcDbEntity
  8
외형선
  6
Continuous
370
    15
100
AcDbLine
 10
34.6471264386944
 20
7.747000000000001
 30
0.0
 11
34.6471264386944
 21
6.72438424637615
 31
0.0
  0
LINE
  5
A5
330
1F
100
AcDbEntity
  8
외형선
  6
Continuous
370
    15
100
AcDbLine
 10
-46.90287356130558
 20
7.937499999999996
 30
0.0
 11
-46.90287356130558
 21
-7.937499999999999
 31
0.0
  0
LINE
  5
A7
330
1F
100
AcDbEntity
  8
외형선
  6
Continuous
370
    15
100
AcDbLine
 10
-47.9028735613056
 20
6.937499999999995
 30
0.0
 11
-47.9028735613056
 21
-6.937499999999996
 31
0.0
  0
SPLINE
  5
A8
330
1F
100
AcDbEntity
  8
외형선
  6
Continuous
370
    15
100
AcDbSpline
210
0.0
220
0.0
230
1.0
 70
    24
 71
     3
 72
    14
 73
    10
 74
     0
 42
0.000000001
 43
0.00000001
 40
0.0
 40
0.0
 40
0.0
 40
0.0
 40
0.25
 40
0.25
 40
0.5
 40
0.5
 40
0.75
 40
0.75
 40
1.0
 40
1.0
 40
1.0
 40
1.0
 10
34.6471264386944
 20
4.581739702084661
 30
0.0
 10
34.6471264386944
 20
4.069651114807264
 30
0.0
 10
34.6471264386944
 20
3.482056327461053
 30
0.0
 10
34.6471264386944
 20
2.192409478276398
 30
0.0
 10
34.6471264386944
 20
1.490761795249094
 30
0.0
 10
34.6471264386944
 20
0.0380161971628087
 30
0.0
 10
34.6471264386944
 20
-0.7123076343048009
 30
0.0
 10
34.6471264386944
 20
-2.18742633662512
 30
0.0
 10
34.6471264386944
 20
-2.911556323441365
 30
0.0
 10
34.6471264386944
 20
-3.592204778461938
 30
0.0
  0
SPLINE
  5
AC
330
1F
100
AcDbEntity
  8
외형선
  6
Continuous
370
    15
100
AcDbSpline
210
0.0
220
0.0
230
1.0
 70
    24
 71
     3
 72
    13
 73
     9
 74
     0
 42
0.000000001
 43
0.00000001
 40
0.0
 40
0.0
 40
0.0
 40
0.0
 40
0.1402168951044528
 40
0.2804337902089056
 40
0.4855028944087
 40
0.6965190165226566
 40
0.8817032664172811
 40
1.0
 40
1.0
 40
1.0
 40
1.0
 10
34.6471264386944
 20
-3.592204778461937
 30
0.0
 10
34.6471264386944
 20
-3.834239511552703
 30
0.0
 10
34.6471264386944
 20
-4.318308977734237
 30
0.0
 10
34.6471264386944
 20
-5.037576169571946
 30
0.0
 10
34.6471264386944
 20
-5.722393704593181
 30
0.0
 10
34.6471264386944
 20
-6.235305493897225
 30
0.0
 10
34.6471264386944
 20
-6.516374997301172
 30
0.0
 10
34.6471264386944
 20
-6.542671792044744
 30
0.0
 10
34.6471264386944
 20
-6.552922269310946
 30
0.0
  0
SPLINE
  5
AD
330
1F
100
AcDbEntity
  8
외형선
  6
Continuous
370
    15
100
AcDbSpline
210
0.0
220
0.0
230
1.0
 70
    24
 71
     3
 72
    10
 73
     6
 74
     0
 42
0.000000001
 43
0.00000001
 40
0.0
 40
0.0
 40
0.0
 40
0.0
 40
0.5
 40
0.5
 40
1.0
 40
1.0
 40
1.0
 40
1.0
 10
34.6471264386944
 20
6.72438424637615
 30
0.0
 10
34.6471264386944
 20
6.454124755931772
 30
0.0
 10
34.6471264386944
 20
6.115121469656234
 30
0.0
 10
34.6471264386944
 20
5.371671596859052
 30
0.0
 10
34.6471264386944
 20
4.969476878187008
 30
0.0
 10
34.6471264386944
 20
4.581739702084661
 30
0.0
  0
SPLINE
  5
AE
330
1F
100
AcDbEntity
  8
외형선
  6
Continuous
370
    15
100
AcDbSpline
210
0.0
220
0.0
230
1.0
 70
    24
 71
     3
 72
    12
 73
     8
 74
     0
 42
0.000000001
 43
0.00000001
 40
0.0
 40
0.0
 40
0.0
 40
0.0
 40
0.1554707745065423
 40
0.3842618919238496
 40
0.6127866841958003
 40
0.8415778016131077
 40
1.0
 40
1.0
 40
1.0
 40
1.0
 10
34.6471264386944
 20
-6.658272166259177
 30
0.0
 10
34.6471264386944
 20
-6.711008891962652
 30
0.0
 10
34.6471264386944
 20
-6.841353093675196
 30
0.0
 10
34.6471264386944
 20
-7.043659368965717
 30
0.0
 10
34.6471264386944
 20
-7.265572784086988
 30
0.0
 10
34.6471264386944
 20
-7.459999297085272
 30
0.0
 10
34.6471264386944
 20
-7.578946700986976
 30
0.0
 10
34.6471264386944
 20
-7.627612148298325
 30
0.0
  0
SPLINE
  5
AF
330
1F
100
AcDbEntity
  8
0
  6
Continuous
 62
     1
370
    15
100
AcDbSpline
210
0.0
220
0.0
230
1.0
 70
     8
 71
     3
 72
    56
 73
    52
 74
     0
 42
0.000000001
 43
0.00000001
 40
0.0
 40
0.0
 40
0.0
 40
0.0
 40
0.0625000000000001
 40
0.0625000000000001
 40
0.0937500000000002
 40
0.0937500000000002
 40
0.1250000000000002
 40
0.1250000000000002
 40
0.1875000000000003
 40
0.1875000000000003
 40
0.2187500000000003
 40
0.2187500000000003
 40
0.2500000000000002
 40
0.2500000000000002
 40
0.3124999999999999
 40
0.3124999999999999
 40
0.3749999999999996
 40
0.3749999999999996
 40
0.4062499999999994
 40
0.4062499999999994
 40
0.4374999999999992
 40
0.4374999999999992
 40
0.4999999999999991
 40
0.4999999999999991
 40
0.5312499999999991
 40
0.5312499999999991
 40
0.5624999999999992
 40
0.5624999999999992
 40
0.5937499999999992
 40
0.5937499999999992
 40
0.6249999999999993
 40
0.6249999999999993
 40
0.6874999999999996
 40
0.6874999999999996
 40
0.7187499999999996
 40
0.7187499999999996
 40
0.7499999999999997
 40
0.7499999999999997
 40
0.7812499999999997
 40
0.7812499999999997
 40
0.8124999999999998
 40
0.8124999999999998
 40
0.8437499999999998
 40
0.8437499999999998
 40
0.8749999999999999
 40
0.8749999999999999
 40
0.9062499999999999
 40
0.9062499999999999
 40
0.9375
 40
0.9375
 40
1.0
 40
1.0
 40
1.0
 40
1.0
 10
69.5721264386944
 20
-7.532218149528202
 30
0.0
 10
68.8480396915385
 20
-7.39991674872357
 30
0.0
 10
68.11544981705359
 20
-7.235358801046687
 30
0.0
 10
67.02444318533321
 20
-6.944568850027587
 30
0.0
 10
66.66302663369004
 20
-6.840461837457399
 30
0.0
 10
65.93541910976484
 20
-6.617657929621031
 30
0.0
 10
65.57039127725996
 20
-6.499052354721026
 30
0.0
 10
64.47680695470342
 20
-6.123264488722624
 30
0.0
 10
63.75351654539493
 20
-5.846625620786052
 30
0.0
 10
62.6596715268785
 20
-5.395491163836705
 30
0.0
 10
62.29474072836389
 20
-5.239227209090116
 30
0.0
 10
61.56769209364593
 20
-4.916436992513348
 30
0.0
 10
61.20621314119256
 20
-4.750025366099957
 30
0.0
 10
60.11442626261693
 20
-4.235237539278985
 30
0.0
 10
59.38371076473777
 20
-3.872275529643302
 30
0.0
 10
57.93381153452148
 20
-3.1188963331636
 30
0.0
 10
57.20108478387104
 20
-2.726127539804355
 30
0.0
 10
56.11097449834561
 20
-2.123878533495809
 30
0.0
 10
55.74937074981294
 20
-1.921018831063829
 30
0.0
 10
55.02128183224539
 20
-1.510783568112334
 30
0.0
 10
54.65619614980324
 20
-1.303664832599247
 30
0.0
 10
53.56298954100797
 20
-0.6792365157431728
 30
0.0
 10
52.83948759384877
 20
-0.25935883085772
 30
0.0
 10
51.74549899021039
 20
0.3711238328711064
 30
0.0
 10
51.38070437496349
 20
0.5811397923032454
 30
0.0
 10
50.65429192616943
 20
0.9989030124013082
 30
0.0
 10
50.29250099736942
 20
1.206686649718171
 30
0.0
 10
49.56420049846297
 20
1.620181897920235
 30
0.0
 10
49.19910059210146
 20
1.825621029708733
 30
0.0
 10
48.47045131828713
 20
2.231939339164233
 30
0.0
 10
48.10813226664578
 20
2.432594389141771
 30
0.0
 10
47.01952836941183
 20
3.026590861920673
 30
0.0
 10
46.2867440594985
 20
3.412756330688134
 30
0.0
 10
45.19764590074993
 20
3.966364429624912
 30
0.0
 10
44.83560542411361
 20
4.14677213806353
 30
0.0
 10
44.10711277989449
 20
4.499224408335898
 30
0.0
 10
43.74200845230588
 20
4.671037185391957
 30
0.0
 10
43.0135337776511
 20
5.00421274482801
 30
0.0
 10
42.65152051093342
 20
5.165383415852882
 30
0.0
 10
41.92542021627695
 20
5.476874150496521
 30
0.0
 10
41.56069981735902
 20
5.627268102383308
 30
0.0
 10
40.83135646624677
 20
5.915881678906739
 30
0.0
 10
40.4667371347582
 20
6.054099877782217
 30
0.0
 10
39.74103794248221
 20
6.31711757147207
 30
0.0
 10
39.37868557259453
 20
6.442087662813383
 30
0.0
 10
38.65002023621143
 20
6.678676466039616
 30
0.0
 10
38.28492129048433
 20
6.790145485589322
 30
0.0
 10
37.55664066653624
 20
6.998386929488209
 30
0.0
 10
37.19487083691173
 20
7.095048988568669
 30
0.0
 10
36.10520271070935
 20
7.362818734688276
 30
0.0
 10
35.37244017932817
 20
7.511502630747183
 30
0.0
 10
34.64712643870405
 20
7.62761214831108
 30
0.0
  0
LINE
  5
B0
330
1F
100
AcDbEntity
  8
0
  6
Continuous
 62
     1
370
    15
100
AcDbLine
 10
69.57212643869413
 20
-7.532218149528202
 30
0.0
 11
69.5721264386944
 21
-6.26246734842271
 31
0.0
  0
SPLINE
  5
B1
330
1F
100
AcDbEntity
  8
0
  6
Continuous
 62
     1
370
    15
100
AcDbSpline
210
0.0
220
0.0
230
1.0
 70
     8
 71
     3
 72
    56
 73
    52
 74
     0
 42
0.000000001
 43
0.00000001
 40
0.0
 40
0.0
 40
0.0
 40
0.0
 40
0.0624999999999998
 40
0.0624999999999998
 40
0.0937499999999997
 40
0.0937499999999997
 40
0.1249999999999996
 40
0.1249999999999996
 40
0.1874999999999992
 40
0.1874999999999992
 40
0.218749999999999
 40
0.218749999999999
 40
0.2499999999999988
 40
0.2499999999999988
 40
0.3124999999999986
 40
0.3124999999999986
 40
0.3749999999999984
 40
0.3749999999999984
 40
0.4062499999999984
 40
0.4062499999999984
 40
0.4374999999999984
 40
0.4374999999999984
 40
0.4999999999999987
 40
0.4999999999999987
 40
0.5312499999999987
 40
0.5312499999999987
 40
0.5624999999999987
 40
0.5624999999999987
 40
0.5937499999999987
 40
0.5937499999999987
 40
0.6249999999999987
 40
0.6249999999999987
 40
0.6874999999999988
 40
0.6874999999999988
 40
0.7187499999999989
 40
0.7187499999999989
 40
0.749999999999999
 40
0.749999999999999
 40
0.7812499999999991
 40
0.7812499999999991
 40
0.8124999999999992
 40
0.8124999999999992
 40
0.8437499999999993
 40
0.8437499999999993
 40
0.8749999999999994
 40
0.8749999999999994
 40
0.9062499999999997
 40
0.9062499999999997
 40
0.9374999999999998
 40
0.9374999999999998
 40
1.0
 40
1.0
 40
1.0
 40
1.0
 10
69.57212643869438
 20
-7.937499999999988
 30
0.0
 10
68.84803969153856
 20
-7.913551735458795
 30
0.0
 10
68.11544981705372
 20
-7.862823260058066
 30
0.0
 10
67.02444318533344
 20
-7.737706044117943
 30
0.0
 10
66.6630266336903
 20
-7.687936300317826
 30
0.0
 10
65.93541910976514
 20
-7.572152627167585
 30
0.0
 10
65.57039127726031
 20
-7.506169280628757
 30
0.0
 10
64.47680695470386
 20
-7.284832582798206
 30
0.0
 10
63.75351654539546
 20
-7.106442765174573
 30
0.0
 10
62.65967152687911
 20
-6.79453587282513
 30
0.0
 10
62.29474072836453
 20
-6.683269322564508
 30
0.0
 10
61.56769209364664
 20
-6.447234283711925
 30
0.0
 10
61.20621314119332
 20
-6.322560995827263
 30
0.0
 10
60.11442626261781
 20
-5.928187018450479
 30
0.0
 10
59.38371076473868
 20
-5.638794894136825
 30
0.0
 10
57.93381153452255
 20
-5.016778948025022
 30
0.0
 10
57.20108478387216
 20
-4.682197495105928
 30
0.0
 10
56.11097449834682
 20
-4.154318733940234
 30
0.0
 10
55.74937074981418
 20
-3.974108416847615
 30
0.0
 10
55.0212818322467
 20
-3.604914740036871
 30
0.0
 10
54.65619614980459
 20
-3.416153965138148
 30
0.0
 10
53.56298954100943
 20
-2.840044339468047
 30
0.0
 10
52.83948759385028
 20
-2.443359906578059
 30
0.0
 10
51.74549899021201
 20
-1.833867604397295
 30
0.0
 10
51.38070437496516
 20
-1.628533378934606
 30
0.0
 10
50.65429192617114
 20
-1.215477839276415
 30
0.0
 10
50.29250099737116
 20
-1.007728322939513
 30
0.0
 10
49.56420049846481
 20
-0.589649847014685
 30
0.0
 10
49.19910059210332
 20
-0.3795885236085558
 30
0.0
 10
48.47045131828906
 20
0.0405938657783511
 30
0.0
 10
48.10813226664773
 20
0.2504769264979395
 30
0.0
 10
47.01952836941388
 20
0.878995461564146
 30
0.0
 10
46.28674405950063
 20
1.297410600040022
 30
0.0
 10
45.19764590075214
 20
1.912342839351416
 30
0.0
 10
44.83560542411585
 20
2.115346051999105
 30
0.0
 10
44.10711277989681
 20
2.517302087094945
 30
0.0
 10
43.74200845230824
 20
2.715998829595853
 30
0.0
 10
43.01353377765351
 20
3.106952348632699
 30
0.0
 10
42.65152051093585
 20
3.298974849175312
 30
0.0
 10
41.92542021627946
 20
3.676072263080561
 30
0.0
 10
41.56069981736159
 20
3.861246063627772
 30
0.0
 10
40.83135646624939
 20
4.223060710919605
 30
0.0
 10
40.46673713476086
 20
4.399699766398174
 30
0.0
 10
39.74103794248489
 20
4.742819677239233
 30
0.0
 10
39.37868557259728
 20
4.909513672295764
 30
0.0
 10
38.65002023621426
 20
5.232835926708978
 30
0.0
 10
38.2849212904872
 20
5.389270123893088
 30
0.0
 10
37.55664066653915
 20
5.69021236556471
 30
0.0
 10
37.19487083691466
 20
5.834545163210632
 30
0.0
 10
36.1052027107124
 20
6.249329062153786
 30
0.0
 10
35.37244017933129
 20
6.501419894536619
 30
0.0
 10
34.64712643870722
 20
6.724384246372209
 30
0.0
  0
SPLINE
  5
B2
330
1F
100
AcDbEntity
  8
0
  6
Continuous
 62
     1
370
    15
100
AcDbSpline
210
0.0
220
0.0
230
1.0
 70
     8
 71
     3
 72
    12
 73
     8
 74
     0
 42
0.000000001
 43
0.00000001
 40
0.0
 40
0.0
 40
0.0
 40
0.0
 40
0.1600172964099212
 40
0.3681525410327069
 40
0.5763214297889385
 40
0.7882032588197222
 40
1.0
 40
1.0
 40
1.0
 40
1.0
 10
49.85423790930474
 20
-0.7538486980318597
 30
0.0
 10
49.0431419217626
 20
-0.4277580204509336
 30
0.0
 10
47.17704959590476
 20
0.3224803241024982
 30
0.0
 10
44.25561554853948
 20
1.500378026387276
 30
0.0
 10
41.07126805859863
 20
2.695744482630067
 30
0.0
 10
37.86828260333959
 20
3.77225796780508
 30
0.0
 10
35.72070139318148
 20
4.311948586218956
 30
0.0
 10
34.64712643869441
 20
4.581739702084659
 30
0.0
  0
SPLINE
  5
B3
330
1F
100
AcDbEntity
  8
외형선
  6
Continuous
370
    15
100
AcDbSpline
210
0.0
220
0.0
230
1.0
 70
    24
 71
     3
 72
    10
 73
     6
 74
     0
 42
0.000000001
 43
0.00000001
 40
0.0
 40
0.0
 40
0.0
 40
0.0
 40
0.5
 40
0.5
 40
1.0
 40
1.0
 40
1.0
 40
1.0
 10
34.6471264386944
 20
6.72438424637615
 30
0.0
 10
34.6471264386944
 20
6.454124755931772
 30
0.0
 10
34.6471264386944
 20
6.115121469656234
 30
0.0
 10
34.6471264386944
 20
5.371671596859048
 30
0.0
 10
34.6471264386944
 20
4.969476878187009
 30
0.0
 10
34.6471264386944
 20
4.581739702084661
 30
0.0
  0
LINE
  5
B4
330
1F
100
AcDbEntity
  8
0
  6
Continuous
 62
     1
370
    15
100
AcDbLine
 10
69.57212643869438
 20
-7.937499999999985
 30
0.0
 11
69.57212643869407
 21
-7.532218149528182
 31
0.0
  0
SPLINE
  5
B5
330
1F
100
AcDbEntity
  8
0
  6
Continuous
 62
     1
370
    15
100
AcDbSpline
210
0.0
220
0.0
230
1.0
 70
     8
 71
     3
 72
     8
 73
     4
 74
     0
 42
0.000000001
 43
0.00000001
 40
0.0
 40
0.0
 40
0.0
 40
0.0
 40
1.0
 40
1.0
 40
1.0
 40
1.0
 10
64.66095668450939
 20
2.220079671996143
 30
0.0
 10
64.63103115660917
 20
2.255523819275132
 30
0.0
 10
64.60141853790444
 20
2.290863161819991
 30
0.0
 10
64.57212643870264
 20
2.326095150660416
 30
0.0
  0
LINE
  5
B6
330
1F
100
AcDbEntity
  8
0
  6
Continuous
 62
     1
370
    15
100
AcDbLine
 10
64.5721264386944
 20
2.937719435296598
 30
0.0
 11
69.5721264386944
 21
0.0000000000000095
 31
0.0
  0
LINE
  5
B7
330
1F
100
AcDbEntity
  8
0
  6
Continuous
 62
     1
370
    15
100
AcDbLine
 10
69.5721264386944
 20
0.0000000000000095
 30
0.0
 11
69.5721264386944
 21
-2.121240884110298
 31
0.0
  0
SPLINE
  5
B8
330
1F
100
AcDbEntity
  8
0
  6
Continuous
 62
     1
370
    15
100
AcDbSpline
210
0.0
220
0.0
230
1.0
 70
     8
 71
     3
 72
    12
 73
     8
 74
     0
 42
0.000000001
 43
0.00000001
 40
0.0
 40
0.0
 40
0.0
 40
0.0
 40
0.5
 40
0.5
 40
0.75
 40
0.75
 40
1.0
 40
1.0
 40
1.0
 40
1.0
 10
69.5721264386944
 20
-2.121240884110297
 30
0.0
 10
68.72198352242458
 20
-1.452887382416909
 30
0.0
 10
67.88604286532728
 20
-0.7571355301524626
 30
0.0
 10
66.65399495288473
 20
0.3286694918016487
 30
0.0
 10
66.24700882732478
 20
0.6977356413040381
 30
0.0
 10
65.44135555718425
 20
1.451916538950696
 30
0.0
 10
65.04487055153729
 20
1.835090379294048
 30
0.0
 10
64.66095668450939
 20
2.220079671996144
 30
0.0
  0
SPLINE
  5
B9
330
1F
100
AcDbEntity
  8
0
  6
Continuous
 62
     1
370
    15
100
AcDbSpline
210
0.0
220
0.0
230
1.0
 70
     8
 71
     3
 72
    15
 73
    11
 74
     0
 42
0.000000001
 43
0.00000001
 40
0.0
 40
0.0
 40
0.0
 40
0.0
 40
0.1253784218116184
 40
0.2507279184128758
 40
0.3805388152357748
 40
0.5103611587863742
 40
0.6402082390790956
 40
0.7700932791205289
 40
0.900001119731083
 40
1.0
 40
1.0
 40
1.0
 40
1.0
 10
64.66095668450939
 20
2.22007967199614
 30
0.0
 10
63.8970419459346
 20
2.544708959692764
 30
0.0
 10
62.36938870640387
 20
3.193892642051789
 30
0.0
 10
60.05094734249792
 20
4.073109818155173
 30
0.0
 10
57.70532190946405
 20
4.849792778534624
 30
0.0
 10
55.33229687390731
 20
5.48967296243833
 30
0.0
 10
52.95875269307773
 20
5.968320990589091
 30
0.0
 10
50.58459368048399
 20
6.263420098562485
 30
0.0
 10
48.39220526989436
 20
6.384636507107587
 30
0.0
 10
46.99137445164372
 20
6.319168703190241
 30
0.0
 10
46.38207728653521
 20
6.290693210780289
 30
0.0
  0
SPLINE
  5
BA
330
1F
100
AcDbEntity
  8
0
  6
Continuous
 62
     1
370
    15
100
AcDbSpline
210
0.0
220
0.0
230
1.0
 70
    24
 71
     3
 72
    10
 73
     6
 74
     0
 42
0.000000001
 43
0.00000001
 40
0.0
 40
0.0
 40
0.0
 40
0.0
 40
0.5
 40
0.5
 40
1.0
 40
1.0
 40
1.0
 40
1.0
 10
69.5721264386944
 20
-6.262467348422707
 30
0.0
 10
69.5721264386944
 20
-5.782400400217696
 30
0.0
 10
69.57212643869441
 20
-5.17581740350759
 30
0.0
 10
69.5721264386944
 20
-3.765570313258515
 30
0.0
 10
69.5721264386944
 20
-2.963127829219763
 30
0.0
 10
69.5721264386944
 20
-2.121240884110551
 30
0.0
  0
LINE
  5
BB
330
1F
100
AcDbEntity
  8
0
  6
Continuous
 62
     1
370
    15
100
AcDbLine
 10
69.5721264386944
 20
5.556250000000005
 30
0.0
 11
66.62177211177357
 21
5.419603446305826
 31
0.0
  0
SPLINE
  5
BC
330
1F
100
AcDbEntity
  8
0
  6
Continuous
 62
     1
370
    15
100
AcDbSpline
210
0.0
220
0.0
230
1.0
 70
     8
 71
     3
 72
    10
 73
     6
 74
     0
 42
0.000000001
 43
0.00000001
 40
0.0
 40
0.0
 40
0.0
 40
0.0
 40
0.5
 40
0.5
 40
1.0
 40
1.0
 40
1.0
 40
1.0
 10
69.5721264386944
 20
5.556250000000009
 30
0.0
 10
68.75565005554579
 20
5.334841988152212
 30
0.0
 10
67.94363210253492
 20
5.086020824326233
 30
0.0
 10
66.33144789448937
 20
4.529646173222821
 30
0.0
 10
65.53124428886629
 20
4.222606164143142
 30
0.0
 10
64.74061775480861
 20
3.876674191206893
 30
0.0
  0
SPLINE
  5
BD
330
1F
100
AcDbEntity
  8
0
  6
Continuous
 62
     1
370
    15
100
AcDbSpline
210
0.0
220
0.0
230
1.0
 70
    24
 71
     3
 72
     8
 73
     4
 74
     0
 42
0.000000001
 43
0.00000001
 40
0.0
 40
0.0
 40
0.0
 40
0.0
 40
1.0
 40
1.0
 40
1.0
 40
1.0
 10
64.74061775480861
 20
3.876674191206904
 30
0.0
 10
64.6852081220656
 20
3.830179988808574
 30
0.0
 10
64.62903453821448
 20
3.783044755317185
 30
0.0
 10
64.57212643869441
 20
3.735293189998889
 30
0.0
  0
SPLINE
  5
BE
330
1F
100
AcDbEntity
  8
0
  6
Continuous
 62
     1
370
    15
100
AcDbSpline
210
0.0
220
0.0
230
1.0
 70
    24
 71
     3
 72
     8
 73
     4
 74
     0
 42
0.000000001
 43
0.00000001
 40
0.0
 40
0.0
 40
0.0
 40
0.0
 40
1.0
 40
1.0
 40
1.0
 40
1.0
 10
64.57212643869441
 20
2.326095150670335
 30
0.0
 10
64.57212643869441
 20
2.844328698008605
 30
0.0
 10
64.57212643869443
 20
3.323694336875004
 30
0.0
 10
64.57212643869443
 20
3.735293189998738
 30
0.0
  0
SPLINE
  5
BF
330
1F
100
AcDbEntity
  8
0
  6
Continuous
 62
     1
370
    15
100
AcDbSpline
210
0.0
220
0.0
230
1.0
 70
     8
 71
     3
 72
    15
 73
    11
 74
     0
 42
0.000000001
 43
0.00000001
 40
0.0
 40
0.0
 40
0.0
 40
0.0
 40
0.1200871207499499
 40
0.2511863873966192
 40
0.3822442548274173
 40
0.5132696397024306
 40
0.6442759203192706
 40
0.7627849788883483
 40
0.881342981490793
 40
1.0
 40
1.0
 40
1.0
 40
1.0
 10
52.75991627066867
 20
-5.962696617628324
 30
0.0
 10
52.03485495681308
 20
-6.065252604915776
 30
0.0
 10
50.51824325914684
 20
-6.279769097540068
 30
0.0
 10
48.2102118524959
 20
-6.378075131909156
 30
0.0
 10
45.8362935177236
 20
-6.305240512171191
 30
0.0
 10
43.4630230237136
 20
-6.040604742231166
 30
0.0
 10
41.16548015895979
 20
-5.612149965457086
 30
0.0
 10
38.94350987003811
 20
-5.047186250978847
 30
0.0
 10
36.79592230111964
 20
-4.38470052931882
 30
0.0
 10
35.36359101593946
 20
-3.856443528654497
 30
0.0
 10
34.6471264386944
 20
-3.592204778461937
 30
0.0
  0
SPLINE
  5
C0
330
1F
100
AcDbEntity
  8
외형선
  6
Continuous
370
    15
100
AcDbSpline
210
0.0
220
0.0
230
1.0
 70
    24
 71
     3
 72
    14
 73
    10
 74
     0
 42
0.000000001
 43
0.00000001
 40
0.0
 40
0.0
 40
0.0
 40
0.0
 40
0.25
 40
0.25
 40
0.5
 40
0.5
 40
0.75
 40
0.75
 40
1.0
 40
1.0
 40
1.0
 40
1.0
 10
34.6471264386944
 20
4.581739702084661
 30
0.0
 10
34.6471264386944
 20
4.069651114807264
 30
0.0
 10
34.6471264386944
 20
3.482056327461053
 30
0.0
 10
34.6471264386944
 20
2.192409478276398
 30
0.0
 10
34.6471264386944
 20
1.490761795249094
 30
0.0
 10
34.6471264386944
 20
0.0380161971628087
 30
0.0
 10
34.6471264386944
 20
-0.7123076343048009
 30
0.0
 10
34.6471264386944
 20
-2.18742633662512
 30
0.0
 10
34.6471264386944
 20
-2.911556323441365
 30
0.0
 10
34.6471264386944
 20
-3.592204778461938
 30
0.0
  0
LINE
  5
C1
330
1F
100
AcDbEntity
  8
외형선
  6
Continuous
370
    15
100
AcDbLine
 10
34.77749066088322
 20
-6.565434461459136
 30
0.0
 11
34.64712643869456
 21
-6.584198877888007
 31
0.0
  0
SPLINE
  5
C2
330
1F
100
AcDbEntity
  8
외형선
  6
Continuous
370
    15
100
AcDbSpline
210
0.0
220
0.0
230
1.0
 70
    24
 71
     3
 72
    13
 73
     9
 74
     0
 42
0.000000001
 43
0.00000001
 40
0.0
 40
0.0
 40
0.0
 40
0.0
 40
0.1404135848547187
 40
0.2808271697094373
 40
0.4861839353273673
 40
0.6974960610600724
 40
0.8829400788224552
 40
1.0
 40
1.0
 40
1.0
 40
1.0
 10
34.6471264386944
 20
-3.592204778461937
 30
0.0
 10
34.6471264386944
 20
-3.834239781834061
 30
0.0
 10
34.6471264386944
 20
-4.31830978857831
 30
0.0
 10
34.6471264386944
 20
-5.037572301151739
 30
0.0
 10
34.64712643869441
 20
-5.722416161927583
 30
0.0
 10
34.64712643869439
 20
-6.235224478375428
 30
0.0
 10
34.6471264386944
 20
-6.515830599299501
 30
0.0
 10
34.6471264386944
 20
-6.54213005390079
 30
0.0
 10
34.6471264386944
 20
-6.552307151407115
 30
0.0
  0
LINE
  5
C3
330
1F
100
AcDbEntity
  8
0
  6
Continuous
 62
     1
370
    15
100
AcDbLine
 10
69.5721264386944
 20
0.0000000000000095
 30
0.0
 11
69.5721264386944
 21
5.556250000000005
 31
0.0
  0
SPLINE
  5
C4
330
1F
100
AcDbEntity
  8
0
  6
Continuous
 62
     1
370
    15
100
AcDbSpline
210
0.0
220
0.0
230
1.0
 70
     8
 71
     3
 72
    12
 73
     8
 74
     0
 42
0.000000001
 43
0.00000001
 40
0.0
 40
0.0
 40
0.0
 40
0.0
 40
0.0594097425722636
 40
0.29453942294131
 40
0.5296799651200843
 40
0.76483296188149
 40
1.0
 40
1.0
 40
1.0
 40
1.0
 10
58.67927586686227
 20
5.320179343916999
 30
0.0
 10
58.8949848576825
 20
5.41737877116729
 30
0.0
 10
59.96441890887637
 20
5.899270494190717
 30
0.0
 10
61.88763666343456
 20
6.581069615501677
 30
0.0
 10
64.4489802340768
 20
7.309081454936436
 30
0.0
 10
67.0104855999936
 20
7.789727682119139
 30
0.0
 10
68.7182291642903
 20
7.883769188763355
 30
0.0
 10
69.57212643869438
 20
7.937500000000015
 30
0.0
  0
SPLINE
  5
C5
102
{ACAD_REACTORS
102
}
330
1F
100
AcDbEntity
  8
0
  6
Continuous
 62
     1
370
    15
100
AcDbSpline
210
0.0
220
0.0
230
1.0
 70
    24
 71
     3
 72
    10
 73
     6
 74
     0
 42
0.000000001
 43
0.00000001
 40
0.0
 40
0.0
 40
0.0
 40
0.0
 40
0.5
 40
0.5
 40
1.0
 40
1.0
 40
1.0
 40
1.0
 10
69.5721264386944
 20
5.556250000000004
 30
0.0
 10
69.5721264386944
 20
5.893056038408057
 30
0.0
 10
69.57212643869441
 20
6.284455846632746
 30
0.0
 10
69.57212643869441
 20
7.105611590126792
 30
0.0
 10
69.57212643869441
 20
7.533270396674189
 30
0.0
 10
69.57212643869438
 20
7.937500000000015
 30
0.0
  0
SPLINE
  5
C6
330
1F
100
AcDbEntity
  8
0
  6
Continuous
 62
     1
370
    15
100
AcDbSpline
210
0.0
220
0.0
230
1.0
 70
     8
 71
     3
 72
    10
 73
     6
 74
     0
 42
0.000000001
 43
0.00000001
 40
0.0
 40
0.0
 40
0.0
 40
0.0
 40
0.0322300979130953
 40
0.5161209302473219
 40
1.0
 40
1.0
 40
1.0
 40
1.0
 10
39.94111247916092
 20
-6.237943129558288
 30
0.0
 10
39.88423777949524
 20
-6.260320557530832
 30
0.0
 10
38.97346726374512
 20
-6.618664456233014
 30
0.0
 10
37.2087833183091
 20
-7.129324636480146
 30
0.0
 10
35.50100514628033
 20
-7.461517656893784
 30
0.0
 10
34.64712643870405
 20
-7.62761214831107
 30
0.0
  0
SPLINE
  5
C7
330
1F
100
AcDbEntity
  8
외형선
  6
Continuous
370
    15
100
AcDbSpline
210
0.0
220
0.0
230
1.0
 70
    24
 71
     3
 72
    12
 73
     8
 74
     0
 42
0.000000001
 43
0.00000001
 40
0.0
 40
0.0
 40
0.0
 40
0.0
 40
0.1554707745065473
 40
0.3842618919238532
 40
0.612786684195805
 40
0.8415778016131127
 40
0.9999999999999999
 40
0.9999999999999999
 40
0.9999999999999999
 40
0.9999999999999999
 10
34.64712643869441
 20
-6.658272166259174
 30
0.0
 10
34.64712643869441
 20
-6.711008891962651
 30
0.0
 10
34.64712643869441
 20
-6.841353093675198
 30
0.0
 10
34.64712643869441
 20
-7.043659368965715
 30
0.0
 10
34.64712643869439
 20
-7.265572784086993
 30
0.0
 10
34.64712643869441
 20
-7.45999929708527
 30
0.0
 10
34.6471264386944
 20
-7.578946700986975
 30
0.0
 10
34.6471264386944
 20
-7.746999999999997
 30
0.0
  0
LINE
  5
C8
330
1F
100
AcDbEntity
  8
중심선
 48
0.8
100
AcDbLine
 10
-50.9028735613056
 20
-0.0000000000000001
 30
0.0
 11
72.5721264386944
 21
0.000000000000015
 31
0.0
  0
LINE
  5
C9
330
1F
100
AcDbEntity
  8
참조1
100
AcDbLine
 10
13.68388775272556
 20
0.0010749287238981
 30
0.0
 11
13.68388775272557
 21
-39.9989250712761
 31
0.0
  0
LINE
  5
CA
330
1F
100
AcDbEntity
  8
참조1
100
AcDbLine
 10
13.68388775272557
 20
-39.9989250712761
 30
0.0
 11
2.496325217425927
 21
-39.99892507127609
 31
0.0
  0
CIRCLE
  5
CB
330
1F
100
AcDbEntity
  8
해칭선
100
AcDbCircle
 10
0.0
 20
0.0
 30
0.0
 40
2.999999999999996
  0
INSERT
  5
CC
330
1F
100
AcDbEntity
  8
0
  6
Continuous
 62
     7
100
AcDbBlockReference
 66
     1
  2
블럭10
 10
-3.105646493430815
 20
-52.04717430164392
 30
0.0
  0
ATTRIB
  5
CD
330
CC
100
AcDbEntity
  8
FORMAT
 62
     2
100
AcDbText
 10
-12.2869417821721
 20
-49.97180738881173
 30
0.0
 40
4.233333333333333
  1
E1033040 [ 2 FLUTE ]
 41
0.75
  7
SLDTEXTSTYLE0
 11
-12.2869417821721
 21
-52.0884740554784
 31
0.0
100
AcDbAttribute
  2
AUTOATTR0
 70
     0
 74
     1
  0
SEQEND
  5
CE
330
CC
100
AcDbEntity
  8
0
  6
Continuous
 62
     7
  0
HATCH
  5
CF
330
1F
100
AcDbEntity
  8
중심선
100
AcDbHatch
 10
0.0
 20
0.0
 30
0.0
210
0.0
220
0.0
230
1.0
  2
SOLID
 70
     1
 71
     0
 91
        1
 92
        0
 93
        4
 72
     1
 10
2.609262810950046
 20
-35.79999999999999
 11
-0.8370124328872421
 21
-35.79999999999999
 72
     1
 10
-0.8370124328872421
 20
-35.79999999999999
 11
-2.965242292091265
 21
-38.33632558057259
 72
     1
 10
-2.965242292091265
 20
-38.33632558057259
 11
0.4810660368591648
 21
-38.3362861512701
 72
     1
 10
0.4810660368591648
 20
-38.3362861512701
 11
2.609262810950046
 21
-35.79999999999999
 97
        0
 75
     0
 76
     1
 98
        1
 10
19.79786512466323
 20
-0.0010749287238889
  0
HATCH
  5
D0
330
1F
100
AcDbEntity
  8
중심선
100
AcDbHatch
 10
0.0
 20
0.0
 30
0.0
210
0.0
220
0.0
230
1.0
  2
SOLID
 70
     1
 71
     0
 91
        1
 92
        0
 93
        4
 72
     1
 10
7.622026801985996
 20
-35.79999999999999
 11
4.175751558148708
 21
-35.79999999999999
 72
     1
 10
4.175751558148708
 20
-35.79999999999999
 11
-0.3553864502086839
 21
-41.20000000000001
 72
     1
 10
-0.3553864502086732
 20
-41.20000000000001
 11
3.090888793628608
 21
-41.20000000000001
 72
     1
 10
3.090888793628608
 20
-41.20000000000001
 11
7.622026801985996
 21
-35.79999999999999
 97
        0
 75
     0
 76
     1
 98
        1
 10
19.79786512466323
 20
-0.0010749287238889
  0
HATCH
  5
D1
330
1F
100
AcDbEntity
  8
중심선
100
AcDbHatch
 10
0.0
 20
0.0
 30
0.0
210
0.0
220
0.0
230
1.0
  2
SOLID
 70
     1
 71
     0
 91
        1
 92
        0
 93
        4
 72
     1
 10
12.63479079302189
 20
-35.79999999999999
 11
9.188515549184826
 21
-35.79999999999999
 72
     1
 10
9.188515549184826
 20
-35.79999999999999
 11
2.140078647295528
 21
-44.20000000000001
 72
     1
 10
2.140078647295528
 20
-44.20000000000001
 11
5.586353891132806
 21
-44.20000000000001
 72
     1
 10
5.586353891132806
 20
-44.20000000000001
 11
12.63479079302189
 21
-35.79999999999999
 97
        0
 75
     0
 76
     1
 98
        1
 10
19.79786512466323
 20
-0.0010749287238889
  0
HATCH
  5
D2
330
1F
100
AcDbEntity
  8
중심선
100
AcDbHatch
 10
0.0
 20
0.0
 30
0.0
210
0.0
220
0.0
230
1.0
  2
SOLID
 70
     1
 71
     0
 91
        1
 92
        0
 93
        6
 72
     3
 10
17.43468122403409
 20
-40.00000000005127
 11
3.960054785062283
 21
1.540882976769353E-10
 40
0.3939339440162628
 50
17.09539180608439
 51
320.0019657685083
 73
     0
 72
     1
 10
19.11768087973465
 20
-38.58789400463832
 11
21.42298275343569
 21
-36.6535672945904
 72
     3
 10
17.43468122398124
 20
-40.00000000000014
 11
6.600054785286829
 21
-1.278976924368180E-13
 40
0.636358354079598
 50
39.99873849337399
 51
368.4976242363724
 73
     1
 72
     1
 10
23.86001371588185
 20
-39.03999999993001
 11
16.11474853081717
 21
-39.03999999993001
 72
     1
 10
16.11474853081716
 20
-39.03999999993001
 11
16.11472348637123
 21
-40.95999999992991
 72
     1
 10
16.11472348637123
 20
-40.95999999992991
 11
20.55610325584327
 21
-40.95999999992987
 97
        0
 75
     0
 76
     1
 98
        1
 10
19.79786512466323
 20
-0.0010749287238889
  0
DIMENSION
  5
D3
330
1F
100
AcDbEntity
  8
치수문자_일반주서
100
AcDbDimension
  2
_D
 10
-60.40287356130557
 20
-7.93750000000006
 30
0.0
 11
-60.4028735613056
 21
-0.0000000000000027
 31
0.0
 70
   160
  1
%%c<>
 71
     2
 42
15.875
 52
-270.0
  3
SLDDIMSTYLE0
100
AcDbAlignedDimension
 13
-46.90287356130558
 23
7.93749999999999
 33
0.0
 14
-46.90287356130558
 24
-7.93750000000001
 34
0.0
 50
90.0000000000002
100
AcDbRotatedDimension
1001
ACAD
1000
DSTYLE
1002
{
1070
   171
1070
     6
1070
   273
1070
     7
1002
}
  0
DIMENSION
  5
E8
330
1F
100
AcDbEntity
  8
치수문자_일반주서
100
AcDbDimension
  2
_D_1
 10
34.6471264386944
 20
19.19437821454944
 30
0.0
 11
52.10962643869439
 21
19.19437821454944
 31
0.0
 70
   160
  1
<>
 71
     2
 42
34.92499999999998
  3
SLDDIMSTYLE0
100
AcDbAlignedDimension
 13
69.57212643869438
 23
7.937500000000015
 33
0.0
 14
34.6471264386944
 24
7.627612148312623
 34
0.0
 50
0.0000000000000058
100
AcDbRotatedDimension
1001
ACAD
1000
DSTYLE
1002
{
1070
   171
1070
     6
1070
   273
1070
     7
1002
}
  0
DIMENSION
  5
FD
330
1F
100
AcDbEntity
  8
치수문자_일반주서
100
AcDbDimension
  2
_D_2
 10
-47.9028735613056
 20
38.05774771491232
 30
0.0
 11
10.83462643869425
 21
38.05774771491232
 31
0.0
 70
   160
  1
<>
 71
     2
 42
117.475
  3
SLDDIMSTYLE0
100
AcDbAlignedDimension
 13
69.57212643869438
 23
7.937500000000015
 33
0.0
 14
-47.9028735613056
 24
6.937499999999995
 34
0.0
 50
0.0000000000000069
100
AcDbRotatedDimension
1001
ACAD
1000
DSTYLE
1002
{
1070
   171
1070
     6
1070
   273
1070
     7
1002
}
  0
DIMENSION
  5
110
330
1F
100
AcDbEntity
  8
치수문자_일반주서
100
AcDbDimension
  2
_D_3
 10
101.02103706326
 20
7.937500000000131
 30
0.0
 11
101.0210370632599
 21
28.54150000000013
 31
0.0
 70
   160
  1
%%c<>
 71
     2
 42
15.875
 52
-270.0
  3
SLDDIMSTYLE0
100
AcDbAlignedDimension
 13
69.57212643869438
 23
-7.937499999999985
 33
0.0
 14
69.57212643869438
 24
7.937500000000015
 34
0.0
 50
90.0000000000002
100
AcDbRotatedDimension
1001
ACAD
1000
DSTYLE
1002
{
1070
   171
1070
     6
1070
   273
1070
     7
1002
}
  0
LINE
  5
123
330
1F
100
AcDbEntity
  8
참조1
100
AcDbLine
 10
100.4686658470802
 20
7.441074928723905
 30
0.0
 11
100.4686658470802
 21
-7.4389250712761
 31
0.0
  0
LINE
  5
124
330
1F
100
AcDbEntity
  8
참조1
100
AcDbLine
 10
113.1686658470802
 20
5.441074928723905
 30
0.0
 11
100.4686658470802
 21
5.441074928723905
 31
0.0
  0
SOLID
  5
125
330
1F
100
AcDbEntity
  8
참조1
100
AcDbTrace
 10
100.4686658470802
 20
5.441074928723905
 30
0.0
 11
106.8186658470802
 21
4.425074928723905
 31
0.0
 12
106.8186658470802
 22
6.457074928723905
 32
0.0
 13
106.8186658470802
 23
6.457074928723905
 33
0.0
  0
LINE
  5
126
330
1F
100
AcDbEntity
  8
참조1
100
AcDbLine
 10
113.1686658470802
 20
-5.4389250712761
 30
0.0
 11
100.4686658470802
 21
-5.4389250712761
 31
0.0
  0
SOLID
  5
127
330
1F
100
AcDbEntity
  8
참조1
100
AcDbTrace
 10
100.4686658470802
 20
-5.4389250712761
 30
0.0
 11
106.8186658470802
 21
-6.4549250712761
 31
0.0
 12
106.8186658470802
 22
-4.4229250712761
 32
0.0
 13
106.8186658470802
 23
-4.4229250712761
 33
0.0
  0
MTEXT
  5
128
330
1F
100
AcDbEntity
  8
참조1
100
AcDbMText
 10
109.8530159797062
 20
11.01136670591223
 30
0.0
 40
3.5
 41
0.0
 71
     1
 72
     1
  1
A
  7
SLDTEXTSTYLE0
 73
     1
 44
1.0
  0
MTEXT
  5
129
330
1F
100
AcDbEntity
  8
참조1
100
AcDbMText
 10
109.8530159797062
 20
0.1313667059122281
 30
0.0
 40
3.5
 41
0.0
 71
     1
 72
     1
  1
A
  7
SLDTEXTSTYLE0
 73
     1
 44
1.0
  0
INSERT
  5
130
330
1F
100
AcDbEntity
  8
해칭선
100
AcDbBlockReference
  2
SW_DOWELSYMBOL_0
 10
0.0
 20
0.0
 30
0.0
  0
LINE
  5
2FE
330
1F
100
AcDbEntity
  8
외형선
  6
Continuous
370
    15
100
AcDbLine
 10
-46.96537356130558
 20
7.937499999999992
 30
0.0
 11
-30.4371985613056
 21
7.937499999999992
 31
0.0
  0
LINE
  5
357
330
1F
100
AcDbEntity
  8
외형선
  6
Continuous
370
    15
100
AcDbLine
 10
-28.78619856130561
 20
6.286499999999963
 30
0.0
 11
-18.60079856130561
 21
6.286499999999963
 31
0.0
  0
LINE
  5
358
330
1F
100
AcDbEntity
  8
외형선
  6
Continuous
370
    15
100
AcDbLine
 10
-28.78619856130561
 20
6.286500000000061
 30
0.0
 11
-30.43719856130556
 21
7.937499999999972
 31
0.0
  0
LINE
  5
359
330
1F
100
AcDbEntity
  8
외형선
  6
Continuous
370
    15
100
AcDbLine
 10
-18.60079856130571
 20
6.286500000000061
 30
0.0
 11
-16.9497985613057
 21
7.937499999999972
 31
0.0
  0
LINE
  5
3D6
330
1F
100
AcDbEntity
  8
외형선
  6
Continuous
370
    15
100
AcDbLine
 10
0.0
 20
-7.937499999999999
 30
0.0
 11
0.0
 21
7.937500000000001
 31
0.0
  0
LINE
  5
3D7
330
1F
100
AcDbEntity
  8
외형선
  6
Continuous
370
    15
100
AcDbLine
 10
0.0
 20
7.747
 30
0.0
 11
0.0
 21
-7.746999999999999
 31
0.0
  0
LINE
  5
3D8
102
{ACAD_REACTORS
102
}
330
1F
100
AcDbEntity
  8
외형선
  6
Continuous
370
    15
100
AcDbLine
 10
0.5158764386943879
 20
7.747000000000001
 30
0.0
 11
34.6471264386944
 21
7.747000000000001
 31
0.0
  0
ARC
  5
3DA
330
1F
100
AcDbEntity
  8
외형선
  6
Continuous
370
    15
100
AcDbCircle
 10
0.5158764386943879
 20
8.540749999999997
 30
0.0
 40
0.7937499999999997
100
AcDbArc
 50
229.4641978886829
 51
270.0
  0
LINE
  5
3DB
330
1F
100
AcDbEntity
  8
외형선
  6
Continuous
370
    15
100
AcDbLine
 10
0.5158764386943879
 20
-7.746999999999997
 30
0.0
 11
34.6471264386944
 21
-7.746999999999997
 31
0.0
  0
ARC
  5
3DC
330
1F
100
AcDbEntity
  8
외형선
  6
Continuous
370
    15
100
AcDbCircle
 10
0.5158764386943879
 20
-8.540749999999997
 30
0.0
 40
0.7937499999999997
100
AcDbArc
 50
90.0
 51
130.535802111317
  0
LINE
  5
3DD
330
1F
100
AcDbEntity
  8
외형선
  6
Continuous
370
    15
100
AcDbLine
 10
0.5158764386943879
 20
7.746999999999999
 30
0.0
 11
0.5158764386943879
 21
-7.746999999999998
 31
0.0
  0
DIMENSION
  5
3DF
102
{ACAD_REACTORS
102
}
102
{ACAD_XDICTIONARY
360
3E0
102
}
330
1F
100
AcDbEntity
  8
치수문자_일반주서
100
AcDbDimension
  2
*D15
 10
69.57212643869438
 20
28.60428002941127
 30
0.0
 11
35.04400143869439
 21
31.22928002941127
 31
0.0
 70
    32
 71
     5
 42
69.05624999999999
  3
SLDDIMSTYLE0
100
AcDbAlignedDimension
 13
0.5158764386943879
 23
7.747000000000001
 33
0.0
 14
69.57212643869438
 24
7.937500000000015
 34
0.0
100
AcDbRotatedDimension
1001
ACAD
1000
DSTYLE
1002
{
1070
   171
1070
     6
1070
   273
1070
     7
1002
}
  0
ENDSEC
  0
SECTION
  2
OBJECTS
  0
DICTIONARY
  5
C
330
0
100
AcDbDictionary
281
     1
  3
ACAD_GROUP
350
D
  3
ACAD_IMAGE_VARS
350
154
  3
ACAD_LAYOUT
350
1A
  3
ACAD_MLINESTYLE
350
17
  3
ACAD_PLOTSETTINGS
350
19
  3
ACAD_PLOTSTYLENAME
350
E
  3
ACAD_SCALELIST
350
47
  3
APPDATA
350
152
  3
DWGPROPS
350
3EE
  0
DICTIONARY
  5
17C
330
2
100
AcDbDictionary
280
     1
281
     1
  3
ACAD_LAYERSTATES
360
17D
  0
DICTIONARY
  5
3E0
330
3DF
100
AcDbDictionary
280
     1
281
     1
  0
DICTIONARY
  5
D
102
{ACAD_REACTORS
330
C
102
}
330
C
100
AcDbDictionary
281
     1
  0
RASTERVARIABLES
  5
154
102
{ACAD_REACTORS
330
C
102
}
330
C
100
AcDbRasterVariables
 90
        0
 70
     1
 71
     1
 72
     1
  0
DICTIONARY
  5
1A
102
{ACAD_REACTORS
330
C
102
}
330
C
100
AcDbDictionary
281
     1
  3
Layout1
350
1E
  3
Layout2
350
26
  3
Model
350
22
  0
DICTIONARY
  5
17
102
{ACAD_REACTORS
330
C
102
}
330
C
100
AcDbDictionary
281
     1
  3
Standard
350
18
  0
DICTIONARY
  5
19
102
{ACAD_REACTORS
330
C
102
}
330
C
100
AcDbDictionary
281
     1
  0
ACDBDICTIONARYWDFLT
  5
E
102
{ACAD_REACTORS
330
C
102
}
330
C
100
AcDbDictionary
281
     1
  3
Normal
350
F
100
AcDbDictionaryWithDefault
340
F
  0
DICTIONARY
  5
47
102
{ACAD_REACTORS
330
C
102
}
330
C
100
AcDbDictionary
281
     1
  3
A0
350
48
  3
A1
350
49
  3
A2
350
4A
  3
A3
350
4B
  3
A4
350
4C
  3
A5
350
4D
  3
A6
350
4E
  3
A7
350
4F
  3
A8
350
50
  3
A9
350
51
  3
B0
350
52
  3
B1
350
53
  3
B2
350
54
  3
B3
350
55
  3
B4
350
56
  3
B5
350
57
  3
B6
350
58
  3
B7
350
59
  3
B8
350
5A
  3
B9
350
5B
  3
C0
350
5C
  3
C1
350
5D
  3
C2
350
5E
  3
C3
350
5F
  3
C4
350
60
  3
C5
350
61
  3
C6
350
62
  3
C7
350
63
  3
C8
350
64
  3
C9
350
65
  3
D0
350
66
  3
D1
350
67
  3
D2
350
68
  0
DICTIONARY
  5
152
102
{ACAD_REACTORS
330
C
102
}
330
C
100
AcDbDictionary
281
     1
  0
XRECORD
  5
3EE
102
{ACAD_REACTORS
330
C
102
}
330
C
100
AcDbXrecord
280
     1
  1
DWGPROPS COOKIE
  2

  3

  4

  6

  7

  8
12016016
  9

300
=
301
=
302
=
303
=
304
=
305
=
306
=
307
=
308
=
309
=
 40
0.0
 41
2458311.104146181
 42
2458323.03982213
  1

 90
        0
  0
DICTIONARY
  5
17D
102
{ACAD_REACTORS
330
17C
102
}
330
17C
100
AcDbDictionary
281
     1
  0
LAYOUT
  5
1E
102
{ACAD_REACTORS
330
1A
102
}
330
1A
100
AcDbPlotSettings
  1

  2
none_device
  4

  6

 40
0.0
 41
0.0
 42
0.0
 43
0.0
 44
0.0
 45
0.0
 46
0.0
 47
0.0
 48
0.0
 49
0.0
140
0.0
141
0.0
142
1.0
143
1.0
 70
   688
 72
     1
 73
     0
 74
     5
  7

 75
    16
147
1.0
148
0.0
149
0.0
100
AcDbLayout
  1
Layout1
 70
     1
 71
     1
 10
0.0
 20
0.0
 11
420.0
 21
297.0
 12
0.0
 22
0.0
 32
0.0
 14
1.000000000000000E+20
 24
1.000000000000000E+20
 34
1.000000000000000E+20
 15
-1.000000000000000E+20
 25
-1.000000000000000E+20
 35
-1.000000000000000E+20
146
0.0
 13
0.0
 23
0.0
 33
0.0
 16
1.0
 26
0.0
 36
0.0
 17
0.0
 27
1.0
 37
0.0
 76
     0
330
1B
  0
LAYOUT
  5
26
102
{ACAD_REACTORS
330
1A
102
}
330
1A
100
AcDbPlotSettings
  1

  2
none_device
  4

  6

 40
0.0
 41
0.0
 42
0.0
 43
0.0
 44
0.0
 45
0.0
 46
0.0
 47
0.0
 48
0.0
 49
0.0
140
0.0
141
0.0
142
1.0
143
1.0
 70
   688
 72
     1
 73
     0
 74
     5
  7

 75
    16
147
1.0
148
0.0
149
0.0
100
AcDbLayout
  1
Layout2
 70
     1
 71
     2
 10
0.0
 20
0.0
 11
0.0
 21
0.0
 12
0.0
 22
0.0
 32
0.0
 14
0.0
 24
0.0
 34
0.0
 15
0.0
 25
0.0
 35
0.0
146
0.0
 13
0.0
 23
0.0
 33
0.0
 16
1.0
 26
0.0
 36
0.0
 17
0.0
 27
1.0
 37
0.0
 76
     0
330
23
  0
LAYOUT
  5
22
102
{ACAD_REACTORS
330
1A
102
}
330
1A
100
AcDbPlotSettings
  1

  2
none_device
  4
ANSI_A_(11.00_x_8.50_Inches)
  6

 40
6.35
 41
19.05
 42
6.35000508
 43
19.05000254
 44
279.4
 45
215.9
 46
130.8006867445831
 47
65.36011646437242
 48
0.0
 49
0.0
140
0.0
141
0.0
142
0.0587363533046406
143
1.0
 70
  1696
 72
     0
 73
     0
 74
     0
  7

 75
     0
147
0.0235690232323232
148
0.0
149
0.0
100
AcDbLayout
  1
Model
 70
     1
 71
     0
 10
0.0
 20
0.0
 11
420.0
 21
297.0
 12
0.0
 22
0.0
 32
0.0
 14
-64.77787356130565
 24
-49.97180738881173
 34
0.0
 15
113.1686658470802
 25
42.54150000000013
 35
0.0
146
0.0
 13
0.0
 23
0.0
 33
0.0
 16
1.0
 26
0.0
 36
0.0
 17
0.0
 27
1.0
 37
0.0
 76
     0
330
1F
331
29
  0
MLINESTYLE
  5
18
102
{ACAD_REACTORS
330
17
102
}
330
17
100
AcDbMlineStyle
  2
Standard
 70
     0
  3

 62
   256
 51
90.0
 52
90.0
 71
     2
 49
0.5
 62
   256
  6
BYLAYER
 49
-0.5
 62
   256
  6
BYLAYER
  0
ACDBPLACEHOLDER
  5
F
102
{ACAD_REACTORS
330
E
102
}
330
E
  0
SCALE
  5
48
102
{ACAD_REACTORS
330
47
102
}
330
47
100
AcDbScale
 70
     0
300
1:1
140
1.0
141
1.0
290
     1
  0
SCALE
  5
49
102
{ACAD_REACTORS
330
47
102
}
330
47
100
AcDbScale
 70
     0
300
1:2
140
1.0
141
2.0
290
     0
  0
SCALE
  5
4A
102
{ACAD_REACTORS
330
47
102
}
330
47
100
AcDbScale
 70
     0
300
1:4
140
1.0
141
4.0
290
     0
  0
SCALE
  5
4B
102
{ACAD_REACTORS
330
47
102
}
330
47
100
AcDbScale
 70
     0
300
1:5
140
1.0
141
5.0
290
     0
  0
SCALE
  5
4C
102
{ACAD_REACTORS
330
47
102
}
330
47
100
AcDbScale
 70
     0
300
1:8
140
1.0
141
8.0
290
     0
  0
SCALE
  5
4D
102
{ACAD_REACTORS
330
47
102
}
330
47
100
AcDbScale
 70
     0
300
1:10
140
1.0
141
10.0
290
     0
  0
SCALE
  5
4E
102
{ACAD_REACTORS
330
47
102
}
330
47
100
AcDbScale
 70
     0
300
1:16
140
1.0
141
16.0
290
     0
  0
SCALE
  5
4F
102
{ACAD_REACTORS
330
47
102
}
330
47
100
AcDbScale
 70
     0
300
1:20
140
1.0
141
20.0
290
     0
  0
SCALE
  5
50
102
{ACAD_REACTORS
330
47
102
}
330
47
100
AcDbScale
 70
     0
300
1:30
140
1.0
141
30.0
290
     0
  0
SCALE
  5
51
102
{ACAD_REACTORS
330
47
102
}
330
47
100
AcDbScale
 70
     0
300
1:40
140
1.0
141
40.0
290
     0
  0
SCALE
  5
52
102
{ACAD_REACTORS
330
47
102
}
330
47
100
AcDbScale
 70
     0
300
1:50
140
1.0
141
50.0
290
     0
  0
SCALE
  5
53
102
{ACAD_REACTORS
330
47
102
}
330
47
100
AcDbScale
 70
     0
300
1:100
140
1.0
141
100.0
290
     0
  0
SCALE
  5
54
102
{ACAD_REACTORS
330
47
102
}
330
47
100
AcDbScale
 70
     0
300
2:1
140
2.0
141
1.0
290
     0
  0
SCALE
  5
55
102
{ACAD_REACTORS
330
47
102
}
330
47
100
AcDbScale
 70
     0
300
4:1
140
4.0
141
1.0
290
     0
  0
SCALE
  5
56
102
{ACAD_REACTORS
330
47
102
}
330
47
100
AcDbScale
 70
     0
300
8:1
140
8.0
141
1.0
290
     0
  0
SCALE
  5
57
102
{ACAD_REACTORS
330
47
102
}
330
47
100
AcDbScale
 70
     0
300
10:1
140
10.0
141
1.0
290
     0
  0
SCALE
  5
58
102
{ACAD_REACTORS
330
47
102
}
330
47
100
AcDbScale
 70
     0
300
100:1
140
100.0
141
1.0
290
     0
  0
SCALE
  5
59
102
{ACAD_REACTORS
330
47
102
}
330
47
100
AcDbScale
 70
     0
300
1/128" = 1'-0"
140
0.0078125
141
12.0
290
     0
  0
SCALE
  5
5A
102
{ACAD_REACTORS
330
47
102
}
330
47
100
AcDbScale
 70
     0
300
1/64" = 1'-0"
140
0.015625
141
12.0
290
     0
  0
SCALE
  5
5B
102
{ACAD_REACTORS
330
47
102
}
330
47
100
AcDbScale
 70
     0
300
1/32" = 1'-0"
140
0.03125
141
12.0
290
     0
  0
SCALE
  5
5C
102
{ACAD_REACTORS
330
47
102
}
330
47
100
AcDbScale
 70
     0
300
1/16" = 1'-0"
140
0.0625
141
12.0
290
     0
  0
SCALE
  5
5D
102
{ACAD_REACTORS
330
47
102
}
330
47
100
AcDbScale
 70
     0
300
3/32" = 1'-0"
140
0.09375
141
12.0
290
     0
  0
SCALE
  5
5E
102
{ACAD_REACTORS
330
47
102
}
330
47
100
AcDbScale
 70
     0
300
1/8" = 1'-0"
140
0.125
141
12.0
290
     0
  0
SCALE
  5
5F
102
{ACAD_REACTORS
330
47
102
}
330
47
100
AcDbScale
 70
     0
300
3/16" = 1'-0"
140
0.1875
141
12.0
290
     0
  0
SCALE
  5
60
102
{ACAD_REACTORS
330
47
102
}
330
47
100
AcDbScale
 70
     0
300
1/4" = 1'-0"
140
0.25
141
12.0
290
     0
  0
SCALE
  5
61
102
{ACAD_REACTORS
330
47
102
}
330
47
100
AcDbScale
 70
     0
300
3/8" = 1'-0"
140
0.375
141
12.0
290
     0
  0
SCALE
  5
62
102
{ACAD_REACTORS
330
47
102
}
330
47
100
AcDbScale
 70
     0
300
1/2" = 1'-0"
140
0.5
141
12.0
290
     0
  0
SCALE
  5
63
102
{ACAD_REACTORS
330
47
102
}
330
47
100
AcDbScale
 70
     0
300
3/4" = 1'-0"
140
0.75
141
12.0
290
     0
  0
SCALE
  5
64
102
{ACAD_REACTORS
330
47
102
}
330
47
100
AcDbScale
 70
     0
300
1" = 1'-0"
140
1.0
141
12.0
290
     0
  0
SCALE
  5
65
102
{ACAD_REACTORS
330
47
102
}
330
47
100
AcDbScale
 70
     0
300
1-1/2" = 1'-0"
140
1.5
141
12.0
290
     0
  0
SCALE
  5
66
102
{ACAD_REACTORS
330
47
102
}
330
47
100
AcDbScale
 70
     0
300
3" = 1'-0"
140
3.0
141
12.0
290
     0
  0
SCALE
  5
67
102
{ACAD_REACTORS
330
47
102
}
330
47
100
AcDbScale
 70
     0
300
6" = 1'-0"
140
6.0
141
12.0
290
     0
  0
SCALE
  5
68
102
{ACAD_REACTORS
330
47
102
}
330
47
100
AcDbScale
 70
     0
300
1'-0" = 1'-0"
140
12.0
141
12.0
290
     0
  0
ENDSEC
  0
EOF
