  0
SECTION
  2
HEADER
  9
$ACADVER
  1
AC1015
  9
$ACADMAINTVER
 70
     6
  9
$DWGCODEPAGE
  3
ANSI_949
  9
$INSBASE
 10
0.0
 20
0.0
 30
0.0
  9
$EXTMIN
 10
-72.20749999999998
 20
-49.97073246008785
 30
0.0
  9
$EXTMAX
 10
113.9254298008692
 20
59.46283680626906
 30
0.0
  9
$LIMMIN
 10
0.0
 20
0.0
  9
$LIMMAX
 10
420.0
 20
297.0
  9
$ORTHOMODE
 70
     1
  9
$REGENMODE
 70
     1
  9
$FILLMODE
 70
     1
  9
$QTEXTMODE
 70
     0
  9
$MIRRTEXT
 70
     1
  9
$LTSCALE
 40
1.0
  9
$ATTMODE
 70
     1
  9
$TEXTSIZE
 40
3.5
  9
$TRACEWID
 40
1.0
  9
$TEXTSTYLE
  7
Standard
  9
$CLAYER
  8
0
  9
$CELTYPE
  6
ByLayer
  9
$CECOLOR
 62
   256
  9
$CELTSCALE
 40
1.0
  9
$DISPSILH
 70
     0
  9
$DIMSCALE
 40
1.0
  9
$DIMASZ
 40
3.302
  9
$DIMEXO
 40
1.0
  9
$DIMDLI
 40
3.75
  9
$DIMRND
 40
0.0
  9
$DIMDLE
 40
0.0
  9
$DIMEXE
 40
1.0
  9
$DIMTP
 40
0.0
  9
$DIMTM
 40
0.0
  9
$DIMTXT
 40
3.5
  9
$DIMCEN
 40
2.5
  9
$DIMTSZ
 40
0.0
  9
$DIMTOL
 70
     0
  9
$DIMLIM
 70
     0
  9
$DIMTIH
 70
     1
  9
$DIMTOH
 70
     1
  9
$DIMSE1
 70
     0
  9
$DIMSE2
 70
     0
  9
$DIMTAD
 70
     1
  9
$DIMZIN
 70
     0
  9
$DIMBLK
  1

  9
$DIMASO
 70
     1
  9
$DIMSHO
 70
     1
  9
$DIMPOST
  1

  9
$DIMAPOST
  1

  9
$DIMALT
 70
     0
  9
$DIMALTD
 70
     3
  9
$DIMALTF
 40
0.0393700787401575
  9
$DIMLFAC
 40
1.0
  9
$DIMTOFL
 70
     1
  9
$DIMTVP
 40
0.0
  9
$DIMTIX
 70
     0
  9
$DIMSOXD
 70
     0
  9
$DIMSAH
 70
     0
  9
$DIMBLK1
  1

  9
$DIMBLK2
  1

  9
$DIMSTYLE
  2
ISO-25
  9
$DIMCLRD
 70
     0
  9
$DIMCLRE
 70
     0
  9
$DIMCLRT
 70
     0
  9
$DIMTFAC
 40
1.0
  9
$DIMGAP
 40
1.524
  9
$DIMJUST
 70
     0
  9
$DIMSD1
 70
     0
  9
$DIMSD2
 70
     0
  9
$DIMTOLJ
 70
     0
  9
$DIMTZIN
 70
     0
  9
$DIMALTZ
 70
     0
  9
$DIMALTTZ
 70
     0
  9
$DIMUPT
 70
     0
  9
$DIMDEC
 70
     2
  9
$DIMTDEC
 70
     2
  9
$DIMALTU
 70
     2
  9
$DIMALTTD
 70
     3
  9
$DIMTXSTY
  7
Standard
  9
$DIMAUNIT
 70
     0
  9
$DIMADEC
 70
     2
  9
$DIMALTRND
 40
0.0
  9
$DIMAZIN
 70
     0
  9
$DIMDSEP
 70
    44
  9
$DIMATFIT
 70
     3
  9
$DIMFRAC
 70
     0
  9
$DIMLDRBLK
  1

  9
$DIMLUNIT
 70
     2
  9
$DIMLWD
 70
    -2
  9
$DIMLWE
 70
    -2
  9
$DIMTMOVE
 70
     0
  9
$LUNITS
 70
     2
  9
$LUPREC
 70
     2
  9
$SKETCHINC
 40
1.0
  9
$FILLETRAD
 40
10.0
  9
$AUNITS
 70
     0
  9
$AUPREC
 70
     2
  9
$MENU
  1
.
  9
$ELEVATION
 40
0.0
  9
$PELEVATION
 40
0.0
  9
$THICKNESS
 40
0.0
  9
$LIMCHECK
 70
     0
  9
$CHAMFERA
 40
0.0
  9
$CHAMFERB
 40
0.0
  9
$CHAMFERC
 40
0.0
  9
$CHAMFERD
 40
0.0
  9
$SKPOLY
 70
     0
  9
$TDCREATE
 40
2458323.484986528
  9
$TDUCREATE
 40
2458323.109986528
  9
$TDUPDATE
 40
2458330.513457998
  9
$TDUUPDATE
 40
2458330.138457998
  9
$TDINDWG
 40
0.0019884375
  9
$TDUSRTIMER
 40
2458330.13841765
  9
$USRTIMER
 70
     1
  9
$ANGBASE
 50
0.0
  9
$ANGDIR
 70
     0
  9
$PDMODE
 70
     0
  9
$PDSIZE
 40
-1.0
  9
$PLINEWID
 40
0.0
  9
$SPLFRAME
 70
     0
  9
$SPLINETYPE
 70
     6
  9
$SPLINESEGS
 70
     8
  9
$HANDSEED
  5
3A2
  9
$SURFTAB1
 70
     6
  9
$SURFTAB2
 70
     6
  9
$SURFTYPE
 70
     6
  9
$SURFU
 70
     6
  9
$SURFV
 70
     6
  9
$UCSBASE
  2

  9
$UCSNAME
  2

  9
$UCSORG
 10
0.0
 20
0.0
 30
0.0
  9
$UCSXDIR
 10
1.0
 20
0.0
 30
0.0
  9
$UCSYDIR
 10
0.0
 20
1.0
 30
0.0
  9
$UCSORTHOREF
  2

  9
$UCSORTHOVIEW
 70
     0
  9
$UCSORGTOP
 10
0.0
 20
0.0
 30
0.0
  9
$UCSORGBOTTOM
 10
0.0
 20
0.0
 30
0.0
  9
$UCSORGLEFT
 10
0.0
 20
0.0
 30
0.0
  9
$UCSORGRIGHT
 10
0.0
 20
0.0
 30
0.0
  9
$UCSORGFRONT
 10
0.0
 20
0.0
 30
0.0
  9
$UCSORGBACK
 10
0.0
 20
0.0
 30
0.0
  9
$PUCSBASE
  2

  9
$PUCSNAME
  2

  9
$PUCSORG
 10
0.0
 20
0.0
 30
0.0
  9
$PUCSXDIR
 10
1.0
 20
0.0
 30
0.0
  9
$PUCSYDIR
 10
0.0
 20
1.0
 30
0.0
  9
$PUCSORTHOREF
  2

  9
$PUCSORTHOVIEW
 70
     0
  9
$PUCSORGTOP
 10
0.0
 20
0.0
 30
0.0
  9
$PUCSORGBOTTOM
 10
0.0
 20
0.0
 30
0.0
  9
$PUCSORGLEFT
 10
0.0
 20
0.0
 30
0.0
  9
$PUCSORGRIGHT
 10
0.0
 20
0.0
 30
0.0
  9
$PUCSORGFRONT
 10
0.0
 20
0.0
 30
0.0
  9
$PUCSORGBACK
 10
0.0
 20
0.0
 30
0.0
  9
$USERI1
 70
     0
  9
$USERI2
 70
     0
  9
$USERI3
 70
     0
  9
$USERI4
 70
     0
  9
$USERI5
 70
     0
  9
$USERR1
 40
0.0
  9
$USERR2
 40
0.0
  9
$USERR3
 40
0.0
  9
$USERR4
 40
0.0
  9
$USERR5
 40
0.0
  9
$WORLDVIEW
 70
     1
  9
$SHADEDGE
 70
     3
  9
$SHADEDIF
 70
    70
  9
$TILEMODE
 70
     1
  9
$MAXACTVP
 70
    64
  9
$PINSBASE
 10
0.0
 20
0.0
 30
0.0
  9
$PLIMCHECK
 70
     0
  9
$PEXTMIN
 10
1.000000000000000E+20
 20
1.000000000000000E+20
 30
1.000000000000000E+20
  9
$PEXTMAX
 10
-1.000000000000000E+20
 20
-1.000000000000000E+20
 30
-1.000000000000000E+20
  9
$PLIMMIN
 10
0.0
 20
0.0
  9
$PLIMMAX
 10
0.0
 20
0.0
  9
$UNITMODE
 70
     0
  9
$VISRETAIN
 70
     1
  9
$PLINEGEN
 70
     0
  9
$PSLTSCALE
 70
     1
  9
$TREEDEPTH
 70
  3020
  9
$CMLSTYLE
  2
Standard
  9
$CMLJUST
 70
     0
  9
$CMLSCALE
 40
20.0
  9
$PROXYGRAPHICS
 70
     1
  9
$MEASUREMENT
 70
     1
  9
$CELWEIGHT
370
    -1
  9
$ENDCAPS
280
     0
  9
$JOINSTYLE
280
     0
  9
$LWDISPLAY
290
     1
  9
$INSUNITS
 70
     4
  9
$HYPERLINKBASE
  1

  9
$STYLESHEET
  1

  9
$XEDIT
290
     1
  9
$CEPSNTYPE
380
     0
  9
$PSTYLEMODE
290
     1
  9
$FINGERPRINTGUID
  2
{663D3203-F8DE-4784-91D5-10AD94DDFE5D}
  9
$VERSIONGUID
  2
{FAEB1C32-E019-11D5-929B-00C0DF256EC4}
  9
$EXTNAMES
290
     1
  9
$PSVPSCALE
 40
0.0
  9
$OLESTARTUP
290
     0
  0
ENDSEC
  0
SECTION
  2
CLASSES
  0
CLASS
  1
ACDBDICTIONARYWDFLT
  2
AcDbDictionaryWithDefault
  3
ObjectDBX Classes
 90
        0
280
     0
281
     0
  0
CLASS
  1
VISUALSTYLE
  2
AcDbVisualStyle
  3
ObjectDBX Classes
 90
     4095
280
     0
281
     0
  0
CLASS
  1
MATERIAL
  2
AcDbMaterial
  3
ObjectDBX Classes
 90
     1153
280
     0
281
     0
  0
CLASS
  1
SCALE
  2
AcDbScale
  3
ObjectDBX Classes
 90
     1153
280
     0
281
     0
  0
CLASS
  1
SUN
  2
AcDbSun
  3
SCENEOE
 90
     1153
280
     0
281
     0
  0
CLASS
  1
ACDBPLACEHOLDER
  2
AcDbPlaceHolder
  3
ObjectDBX Classes
 90
        0
280
     0
281
     0
  0
CLASS
  1
LAYOUT
  2
AcDbLayout
  3
ObjectDBX Classes
 90
        0
280
     0
281
     0
  0
CLASS
  1
TABLESTYLE
  2
AcDbTableStyle
  3
ObjectDBX Classes
 90
     4095
280
     0
281
     0
  0
CLASS
  1
MLEADERSTYLE
  2
AcDbMLeaderStyle
  3
ACDB_MLEADERSTYLE_CLASS
 90
     4095
280
     0
281
     0
  0
CLASS
  1
RASTERVARIABLES
  2
AcDbRasterVariables
  3
ISM
 90
        0
280
     0
281
     0
  0
CLASS
  1
DIMASSOC
  2
AcDbDimAssoc
  3
"AcDbDimAssoc|Product Desc:     AcDim ARX App For Dimension|Company:          Autodesk, Inc.|WEB Address:      www.autodesk.com"
 90
        0
280
     0
281
     0
  0
ENDSEC
  0
SECTION
  2
TABLES
  0
TABLE
  2
VPORT
  5
8
330
0
100
AcDbSymbolTable
 70
     1
  0
VPORT
  5
29
330
8
100
AcDbSymbolTableRecord
100
AcDbViewportTableRecord
  2
*Active
 70
     0
 10
0.0
 20
0.0
 11
1.0
 21
1.0
 12
-10.53478089354665
 22
-24.87033440868854
 13
0.0
 23
0.0
 14
10.0
 24
10.0
 15
10.0
 25
10.0
 16
0.0
 26
0.0
 36
1.0
 17
0.0
 27
0.0
 37
0.0
 40
151.1783941315725
 41
1.516441005802708
 42
50.0
 43
0.0
 44
0.0
 50
0.0
 51
0.0
 71
    16
 72
  2000
 73
     1
 74
     3
 75
     0
 76
     0
 77
     0
 78
     0
281
     0
 65
     1
110
0.0
120
0.0
130
0.0
111
1.0
121
0.0
131
0.0
112
0.0
122
1.0
132
0.0
 79
     0
146
0.0
  0
ENDTAB
  0
TABLE
  2
LTYPE
  5
5
330
0
100
AcDbSymbolTable
 70
     6
  0
LTYPE
  5
14
330
5
100
AcDbSymbolTableRecord
100
AcDbLinetypeTableRecord
  2
ByBlock
 70
     0
  3

 72
    65
 73
     0
 40
0.0
  0
LTYPE
  5
15
330
5
100
AcDbSymbolTableRecord
100
AcDbLinetypeTableRecord
  2
ByLayer
 70
     0
  3

 72
    65
 73
     0
 40
0.0
  0
LTYPE
  5
16
330
5
100
AcDbSymbolTableRecord
100
AcDbLinetypeTableRecord
  2
Continuous
 70
     0
  3
Solid line
 72
    65
 73
     0
 40
0.0
  0
LTYPE
  5
6A
330
5
100
AcDbSymbolTableRecord
100
AcDbLinetypeTableRecord
  2
HIDDEN
 70
     0
  3
Hidden __ __ __ __ __ __ __ __ __ __ __ __ __ __
 72
    65
 73
     2
 40
1.905
 49
1.27
 74
     0
 49
-0.635
 74
     0
  0
LTYPE
  5
6B
330
5
100
AcDbSymbolTableRecord
100
AcDbLinetypeTableRecord
  2
PHANTOM
 70
     0
  3
Phantom ______  __  __  ______  __  __  ______
 72
    65
 73
     6
 40
12.7
 49
6.35
 74
     0
 49
-1.27
 74
     0
 49
1.27
 74
     0
 49
-1.27
 74
     0
 49
1.27
 74
     0
 49
-1.27
 74
     0
  0
LTYPE
  5
6C
330
5
100
AcDbSymbolTableRecord
100
AcDbLinetypeTableRecord
  2
CENTER
 70
     0
  3
Center ____ _ ____ _ ____ _ ____ _ ____ _ ____
 72
    65
 73
     4
 40
10.16
 49
6.35
 74
     0
 49
-1.27
 74
     0
 49
1.27
 74
     0
 49
-1.27
 74
     0
  0
LTYPE
  5
6D
330
5
100
AcDbSymbolTableRecord
100
AcDbLinetypeTableRecord
  2
CENTERX2
 70
     0
  3
Center (2x) ________  __  ________  __  _____
 72
    65
 73
     4
 40
20.32
 49
12.7
 74
     0
 49
-2.54
 74
     0
 49
2.54
 74
     0
 49
-2.54
 74
     0
  0
LTYPE
  5
6E
330
5
100
AcDbSymbolTableRecord
100
AcDbLinetypeTableRecord
  2
DOT2
 70
     0
  3
Dot (.5x) ........................................
 72
    65
 73
     2
 40
0.635
 49
0.0
 74
     0
 49
-0.635
 74
     0
  0
ENDTAB
  0
TABLE
  2
LAYER
  5
2
102
{ACAD_XDICTIONARY
360
1EC
102
}
330
0
100
AcDbSymbolTable
 70
    18
  0
LAYER
  5
10
330
2
100
AcDbSymbolTableRecord
100
AcDbLayerTableRecord
  2
0
 70
     0
 62
     7
  6
Continuous
370
    -3
390
F
  0
LAYER
  5
6F
330
2
100
AcDbSymbolTableRecord
100
AcDbLayerTableRecord
  2
FORMAT
 70
     0
 62
     2
  6
Continuous
370
    -3
390
F
  0
LAYER
  5
70
330
2
100
AcDbSymbolTableRecord
100
AcDbLayerTableRecord
  2
외형선
 70
     0
 62
     4
  6
Continuous
370
    30
390
F
  0
LAYER
  5
71
330
2
100
AcDbSymbolTableRecord
100
AcDbLayerTableRecord
  2
숨은선
 70
     0
 62
     2
  6
HIDDEN
370
    15
390
F
  0
LAYER
  5
72
330
2
100
AcDbSymbolTableRecord
100
AcDbLayerTableRecord
  2
중심선
 70
     0
 62
     1
  6
CENTERX2
370
    -3
390
F
  0
LAYER
  5
73
330
2
100
AcDbSymbolTableRecord
100
AcDbLayerTableRecord
  2
파단선
 70
     0
 62
     4
  6
Continuous
370
    -3
390
F
  0
LAYER
  5
74
330
2
100
AcDbSymbolTableRecord
100
AcDbLayerTableRecord
  2
해칭선
 70
     0
 62
   100
  6
Continuous
370
    -3
390
F
  0
LAYER
  5
75
330
2
100
AcDbSymbolTableRecord
100
AcDbLayerTableRecord
  2
가는실선
 70
     0
 62
     4
  6
Continuous
370
    -3
390
F
  0
LAYER
  5
76
330
2
100
AcDbSymbolTableRecord
100
AcDbLayerTableRecord
  2
치수_보조선
 70
     0
 62
     4
  6
Continuous
370
    -3
390
F
  0
LAYER
  5
77
330
2
100
AcDbSymbolTableRecord
100
AcDbLayerTableRecord
  2
치수문자_일반주서
 70
     0
 62
     7
  6
Continuous
370
    15
390
F
  0
LAYER
  5
78
330
2
100
AcDbSymbolTableRecord
100
AcDbLayerTableRecord
  2
개별주서
 70
     0
 62
   100
  6
Continuous
370
    30
390
F
  0
LAYER
  5
79
330
2
100
AcDbSymbolTableRecord
100
AcDbLayerTableRecord
  2
중간선
 70
     0
 62
     2
  6
Continuous
370
    15
390
F
  0
LAYER
  5
7A
330
2
100
AcDbSymbolTableRecord
100
AcDbLayerTableRecord
  2
윤곽선
 70
     0
 62
     3
  6
Continuous
370
    40
390
F
  0
LAYER
  5
7B
330
2
100
AcDbSymbolTableRecord
100
AcDbLayerTableRecord
  2
중심마크
 70
     0
 62
   100
  6
Continuous
370
    30
390
F
  0
LAYER
  5
7C
330
2
100
AcDbSymbolTableRecord
100
AcDbLayerTableRecord
  2
가상선
 70
     0
 62
     4
  6
PHANTOM
370
    -3
390
F
  0
LAYER
  5
7D
330
2
100
AcDbSymbolTableRecord
100
AcDbLayerTableRecord
  2
특수지정선
 70
     0
 62
     5
  6
CENTERX2
370
    60
390
F
  0
LAYER
  5
7E
330
2
100
AcDbSymbolTableRecord
100
AcDbLayerTableRecord
  2
참조1
 70
     0
 62
    -4
  6
Continuous
370
    -3
390
F
  0
LAYER
  5
14E
330
2
100
AcDbSymbolTableRecord
100
AcDbLayerTableRecord
  2
Defpoints
 70
     0
 62
     7
  6
Continuous
290
     0
370
    -3
390
F
  0
ENDTAB
  0
TABLE
  2
STYLE
  5
3
330
0
100
AcDbSymbolTable
 70
     2
  0
STYLE
  5
11
330
3
100
AcDbSymbolTableRecord
100
AcDbTextStyleTableRecord
  2
Standard
 70
     0
 40
0.0
 41
1.0
 50
0.0
 71
     0
 42
3.5
  3
txt
  4

  0
STYLE
  5
94
330
3
100
AcDbSymbolTableRecord
100
AcDbTextStyleTableRecord
  2
SLDTEXTSTYLE0
 70
     0
 40
0.0
 41
0.75
 50
0.0
 71
     0
 42
3.5
  3
TXT
  4

  0
ENDTAB
  0
TABLE
  2
VIEW
  5
6
330
0
100
AcDbSymbolTable
 70
     0
  0
ENDTAB
  0
TABLE
  2
UCS
  5
7
330
0
100
AcDbSymbolTable
 70
     0
  0
ENDTAB
  0
TABLE
  2
APPID
  5
9
330
0
100
AcDbSymbolTable
 70
     1
  0
APPID
  5
12
330
9
100
AcDbSymbolTableRecord
100
AcDbRegAppTableRecord
  2
ACAD
 70
     0
  0
ENDTAB
  0
TABLE
  2
DIMSTYLE
  5
A
330
0
100
AcDbSymbolTable
 70
     3
100
AcDbDimStyleTable
  0
DIMSTYLE
105
27
330
A
100
AcDbSymbolTableRecord
100
AcDbDimStyleTableRecord
  2
ISO-25
 70
     0
 41
2.5
 42
0.625
 43
3.75
 44
1.25
 73
     0
 74
     0
 77
     1
 78
     8
140
2.5
141
2.5
143
0.03937007874016
147
0.625
171
     3
172
     1
178
     0
271
     2
272
     2
274
     3
278
    44
283
     0
284
     8
340
11
  0
DIMSTYLE
105
CC
102
{ACAD_REACTORS
330
21F
330
221
330
323
330
36C
102
}
330
A
100
AcDbSymbolTableRecord
100
AcDbDimStyleTableRecord
  2
SLDDIMSTYLE0
 70
     0
 41
3.302
 44
0.0
 45
0.000000001
 73
     0
 74
     0
 77
     1
 78
    12
 79
     3
140
3.5
143
0.0393700787401575
147
0.875
148
0.000000001
170
     1
172
     1
173
     1
178
     0
271
     2
272
     2
276
     2
284
    12
289
     0
340
94
  0
DIMSTYLE
105
F5
330
A
100
AcDbSymbolTableRecord
100
AcDbDimStyleTableRecord
  2
SLDDIMSTYLE1
 70
     0
 41
3.302
 44
0.0
 45
0.000000001
 73
     0
 74
     0
 77
     1
 78
    12
 79
     3
140
3.5
143
0.0393700787401575
147
0.875
148
0.000000001
170
     1
173
     1
178
     0
271
     2
272
     2
276
     2
284
    12
340
94
  0
ENDTAB
  0
TABLE
  2
BLOCK_RECORD
  5
1
330
0
100
AcDbSymbolTable
 70
    24
  0
BLOCK_RECORD
  5
1F
330
1
100
AcDbSymbolTableRecord
100
AcDbBlockTableRecord
  2
*Model_Space
340
22
  0
BLOCK_RECORD
  5
1B
330
1
100
AcDbSymbolTableRecord
100
AcDbBlockTableRecord
  2
*Paper_Space
340
1E
  0
BLOCK_RECORD
  5
23
330
1
100
AcDbSymbolTableRecord
100
AcDbBlockTableRecord
  2
*Paper_Space0
340
26
  0
BLOCK_RECORD
  5
7F
330
1
100
AcDbSymbolTableRecord
100
AcDbBlockTableRecord
  2
블럭10
340
0
102
{BLKREFS
331
C4
102
}
  0
BLOCK_RECORD
  5
CD
330
1
100
AcDbSymbolTableRecord
100
AcDbBlockTableRecord
  2
_D
340
0
  0
BLOCK_RECORD
  5
E1
330
1
100
AcDbSymbolTableRecord
100
AcDbBlockTableRecord
  2
_D_1
340
0
  0
BLOCK_RECORD
  5
F6
330
1
100
AcDbSymbolTableRecord
100
AcDbBlockTableRecord
  2
_D_2
340
0
  0
BLOCK_RECORD
  5
109
330
1
100
AcDbSymbolTableRecord
100
AcDbBlockTableRecord
  2
_D_3
340
0
  0
BLOCK_RECORD
  5
122
330
1
100
AcDbSymbolTableRecord
100
AcDbBlockTableRecord
  2
SW_DOWELSYMBOL_0
340
0
102
{BLKREFS
331
222
102
}
  0
BLOCK_RECORD
  5
1A5
330
1
100
AcDbSymbolTableRecord
100
AcDbBlockTableRecord
  2
*D7
340
0
  0
BLOCK_RECORD
  5
1B2
330
1
100
AcDbSymbolTableRecord
100
AcDbBlockTableRecord
  2
*D8
340
0
  0
BLOCK_RECORD
  5
1BF
330
1
100
AcDbSymbolTableRecord
100
AcDbBlockTableRecord
  2
*D9
340
0
  0
BLOCK_RECORD
  5
1CC
330
1
100
AcDbSymbolTableRecord
100
AcDbBlockTableRecord
  2
*D10
340
0
  0
BLOCK_RECORD
  5
22D
330
1
100
AcDbSymbolTableRecord
100
AcDbBlockTableRecord
  2
*D11
340
0
  0
BLOCK_RECORD
  5
239
330
1
100
AcDbSymbolTableRecord
100
AcDbBlockTableRecord
  2
*D12
340
0
  0
BLOCK_RECORD
  5
245
330
1
100
AcDbSymbolTableRecord
100
AcDbBlockTableRecord
  2
*D13
340
0
  0
BLOCK_RECORD
  5
251
330
1
100
AcDbSymbolTableRecord
100
AcDbBlockTableRecord
  2
*D14
340
0
  0
BLOCK_RECORD
  5
2B0
330
1
100
AcDbSymbolTableRecord
100
AcDbBlockTableRecord
  2
*D15
340
0
  0
BLOCK_RECORD
  5
2BD
330
1
100
AcDbSymbolTableRecord
100
AcDbBlockTableRecord
  2
*D16
340
0
  0
BLOCK_RECORD
  5
2CA
330
1
100
AcDbSymbolTableRecord
100
AcDbBlockTableRecord
  2
*D17
340
0
  0
BLOCK_RECORD
  5
2D7
330
1
100
AcDbSymbolTableRecord
100
AcDbBlockTableRecord
  2
*D18
340
0
  0
BLOCK_RECORD
  5
335
330
1
100
AcDbSymbolTableRecord
100
AcDbBlockTableRecord
  2
*D19
340
0
  0
BLOCK_RECORD
  5
341
330
1
100
AcDbSymbolTableRecord
100
AcDbBlockTableRecord
  2
*D20
340
0
  0
BLOCK_RECORD
  5
34D
330
1
100
AcDbSymbolTableRecord
100
AcDbBlockTableRecord
  2
*D21
340
0
  0
BLOCK_RECORD
  5
359
330
1
100
AcDbSymbolTableRecord
100
AcDbBlockTableRecord
  2
*D22
340
0
  0
BLOCK_RECORD
  5
36F
330
1
100
AcDbSymbolTableRecord
100
AcDbBlockTableRecord
  2
*D23
340
0
  0
ENDTAB
  0
ENDSEC
  0
SECTION
  2
BLOCKS
  0
BLOCK
  5
20
330
1F
100
AcDbEntity
  8
0
100
AcDbBlockBegin
  2
*Model_Space
 70
     0
 10
0.0
 20
0.0
 30
0.0
  3
*Model_Space
  1
*Model_Space
  0
ENDBLK
  5
21
330
1F
100
AcDbEntity
  8
0
100
AcDbBlockEnd
  0
BLOCK
  5
1C
330
1B
100
AcDbEntity
 67
     1
  8
0
100
AcDbBlockBegin
  2
*Paper_Space
 70
     0
 10
0.0
 20
0.0
 30
0.0
  3
*Paper_Space
  1
*Paper_Space
  0
ENDBLK
  5
1D
330
1B
100
AcDbEntity
 67
     1
  8
0
100
AcDbBlockEnd
  0
BLOCK
  5
24
330
23
100
AcDbEntity
  8
0
100
AcDbBlockBegin
  2
*Paper_Space0
 70
     0
 10
0.0
 20
0.0
 30
0.0
  3
*Paper_Space0
  1
*Paper_Space0
  0
ENDBLK
  5
25
330
23
100
AcDbEntity
  8
0
100
AcDbBlockEnd
  0
BLOCK
  5
80
330
7F
100
AcDbEntity
  8
0
100
AcDbBlockBegin
  2
블럭10
 70
     2
 10
0.0
 20
0.0
 30
0.0
  3
블럭10
  1
블럭10
  0
ELLIPSE
  5
82
330
7F
100
AcDbEntity
  8
중심선
100
AcDbEllipse
 10
20.54032771741204
 20
12.0471743016438
 30
0.0
 11
6.600054785286829
 21
-1.261213355974178E-13
 31
0.0
210
0.0
220
0.0
230
1.0
 40
0.636358354079598
 41
0.9219305317359503
 42
6.513795318482858
  0
ELLIPSE
  5
83
330
7F
100
AcDbEntity
  8
중심선
100
AcDbEllipse
 10
20.54032771746488
 20
12.04717430159265
 30
0.0
 11
3.960054785062283
 21
1.540847449632565E-10
 31
0.0
210
0.0
220
0.0
230
1.0
 40
0.3939339440162632
 41
1.131841032648279
 42
5.62031148352944
  0
LINE
  5
84
330
7F
100
AcDbEntity
  8
중심선
100
AcDbLine
 10
2.268634060543552
 20
16.24717430164393
 30
0.0
 11
5.714909304380834
 21
16.24717430164393
 31
0.0
  0
LINE
  5
85
330
7F
100
AcDbEntity
  8
중심선
100
AcDbLine
 10
5.245725140726316
 20
7.84717430164391
 30
0.0
 11
8.692000384563599
 21
7.84717430164391
 31
0.0
  0
LINE
  5
86
330
7F
100
AcDbEntity
  8
중심선
100
AcDbLine
 10
15.74043728645272
 20
16.24717430164393
 30
0.0
 11
8.692000384563599
 21
7.84717430164391
 31
0.0
  0
LINE
  5
87
330
7F
100
AcDbEntity
  8
중심선
100
AcDbLine
 10
0.1404042013395286
 20
13.71084872107135
 30
0.0
 11
3.58671253028996
 21
13.71088815037384
 31
0.0
  0
LINE
  5
88
330
7F
100
AcDbEntity
  8
중심선
100
AcDbLine
 10
2.750260043222114
 20
10.84717430164391
 30
0.0
 11
6.196535287059397
 21
10.84717430164391
 31
0.0
  0
LINE
  5
89
330
7F
100
AcDbEntity
  8
중심선
100
AcDbLine
 10
12.29416204261559
 20
16.24717430164393
 30
0.0
 11
5.245725140726316
 21
7.84717430164391
 31
0.0
  0
LINE
  5
8A
330
7F
100
AcDbEntity
  8
중심선
100
AcDbLine
 10
10.72767329541681
 20
16.24717430164393
 30
0.0
 11
6.196535287059397
 21
10.84717430164391
 31
0.0
  0
LINE
  5
8B
330
7F
100
AcDbEntity
  8
중심선
100
AcDbLine
 10
7.28139805157953
 20
16.24717430164393
 30
0.0
 11
2.750260043222114
 21
10.84717430164391
 31
0.0
  0
LINE
  5
8C
330
7F
100
AcDbEntity
  8
중심선
100
AcDbLine
 10
5.714909304380834
 20
16.24717430164393
 30
0.0
 11
3.58671253028996
 21
13.71088815037384
 31
0.0
  0
LINE
  5
8D
330
7F
100
AcDbEntity
  8
중심선
100
AcDbLine
 10
2.268634060543552
 20
16.24717430164393
 30
0.0
 11
0.1404042013395286
 21
13.71084872107135
 31
0.0
  0
LINE
  5
8E
330
7F
100
AcDbEntity
  8
중심선
100
AcDbLine
 10
7.28139805157953
 20
16.24717430164393
 30
0.0
 11
10.72767329541681
 21
16.24717430164393
 31
0.0
  0
LINE
  5
8F
330
7F
100
AcDbEntity
  8
중심선
100
AcDbLine
 10
12.29416204261559
 20
16.24717430164393
 30
0.0
 11
15.74043728645272
 21
16.24717430164393
 31
0.0
  0
LINE
  5
90
330
7F
100
AcDbEntity
  8
중심선
100
AcDbLine
 10
19.22036997980202
 20
11.08717430171403
 30
0.0
 11
23.66174974927406
 21
11.08717430171406
 31
0.0
  0
LINE
  5
91
330
7F
100
AcDbEntity
  8
중심선
100
AcDbLine
 10
19.22039502424796
 20
13.00717430171391
 30
0.0
 11
19.22036997980202
 21
11.08717430171403
 31
0.0
  0
LINE
  5
92
330
7F
100
AcDbEntity
  8
중심선
100
AcDbLine
 10
19.22039502424796
 20
13.00717430171391
 30
0.0
 11
26.96566020931264
 21
13.00717430171391
 31
0.0
  0
LINE
  5
93
330
7F
100
AcDbEntity
  8
중심선
100
AcDbLine
 10
22.22332737316547
 20
13.45928029700563
 30
0.0
 11
24.52862924686651
 21
15.39360700705356
 31
0.0
  0
ATTDEF
  5
95
330
7F
100
AcDbEntity
  8
FORMAT
 62
     2
100
AcDbText
 10
4.408487351596664
 20
2.075366912832191
 30
0.0
 40
4.233333333333333
  1
E2032909
 41
0.75
  7
SLDTEXTSTYLE0
 11
4.408487351596664
 21
-0.0412997538344756
 31
0.0
100
AcDbAttributeDefinition
  3

  2
AUTOATTR0
 70
     0
 74
     1
  0
ENDBLK
  5
81
330
7F
100
AcDbEntity
  8
0
100
AcDbBlockEnd
  0
BLOCK
  5
CE
330
CD
100
AcDbEntity
  8
0
100
AcDbBlockBegin
  2
_D
 70
     0
 10
0.0
 20
0.0
 30
0.0
  3
_D
  1
_D
  0
SOLID
  5
D0
330
CD
100
AcDbEntity
  8
치수문자_일반주서
100
AcDbTrace
 10
97.9119459855236
 20
12.5010749287239
 30
0.0
 11
98.4199459855236
 21
15.80307492872389
 31
0.0
 12
97.4039459855236
 22
15.80307492872389
 32
0.0
 13
97.4039459855236
 23
15.80307492872389
 33
0.0
  0
SOLID
  5
D1
330
CD
100
AcDbEntity
  8
치수문자_일반주서
100
AcDbTrace
 10
97.9119459855236
 20
-12.49892507127611
 30
0.0
 11
97.4039459855236
 21
-15.80092507127611
 31
0.0
 12
98.4199459855236
 22
-15.80092507127611
 32
0.0
 13
98.4199459855236
 23
-15.80092507127611
 33
0.0
  0
LINE
  5
D2
330
CD
100
AcDbEntity
  8
치수문자_일반주서
100
AcDbLine
 10
87.11906426948089
 20
-5.413291502344828
 30
0.0
 11
87.11906426948089
 21
-6.124228987909328
 31
0.0
  0
LINE
  5
D3
330
CD
100
AcDbEntity
  8
치수문자_일반주서
100
AcDbLine
 10
87.11906426948089
 20
-6.124228987909328
 30
0.0
 11
92.67531426054019
 21
-6.124228987909289
 31
0.0
  0
LINE
  5
D4
330
CD
100
AcDbEntity
  8
치수문자_일반주서
100
AcDbLine
 10
92.67531426054019
 20
-6.124228987909289
 30
0.0
 11
92.67531426054019
 21
-5.413291502344789
 31
0.0
  0
LINE
  5
D5
330
CD
100
AcDbEntity
  8
치수문자_일반주서
100
AcDbLine
 10
87.1190642694808
 20
5.41544135979243
 30
0.0
 11
87.1190642694808
 21
6.12637884535693
 31
0.0
  0
LINE
  5
D6
330
CD
100
AcDbEntity
  8
치수문자_일반주서
100
AcDbLine
 10
87.1190642694808
 20
6.12637884535693
 30
0.0
 11
92.6753142605401
 21
6.126378845356969
 31
0.0
  0
LINE
  5
D7
330
CD
100
AcDbEntity
  8
치수문자_일반주서
100
AcDbLine
 10
92.6753142605401
 20
6.126378845356969
 30
0.0
 11
92.6753142605401
 21
5.415441359792469
 31
0.0
  0
LINE
  5
D8
330
CD
100
AcDbEntity
  8
치수문자_일반주서
100
AcDbLine
 10
79.91194598552357
 20
12.5010749287239
 30
0.0
 11
98.9119459855236
 21
12.5010749287239
 31
0.0
  0
LINE
  5
D9
330
CD
100
AcDbEntity
  8
치수문자_일반주서
100
AcDbLine
 10
79.91194598552357
 20
-12.49892507127611
 30
0.0
 11
98.9119459855236
 21
-12.49892507127611
 31
0.0
  0
LINE
  5
DA
330
CD
100
AcDbEntity
  8
치수문자_일반주서
100
AcDbLine
 10
97.9119459855236
 20
12.5010749287239
 30
0.0
 11
97.9119459855236
 21
18.8510749287239
 31
0.0
  0
LINE
  5
DB
330
CD
100
AcDbEntity
  8
치수문자_일반주서
100
AcDbLine
 10
97.9119459855236
 20
12.5010749287239
 30
0.0
 11
97.9119459855236
 21
-12.49892507127611
 31
0.0
  0
LINE
  5
DC
330
CD
100
AcDbEntity
  8
치수문자_일반주서
100
AcDbLine
 10
97.9119459855236
 20
-12.49892507127611
 30
0.0
 11
97.9119459855236
 21
-18.84892507127611
 31
0.0
  0
MTEXT
  5
DD
330
CD
100
AcDbEntity
  8
치수문자_일반주서
100
AcDbMText
 10
88.16357734596129
 20
-4.52461960173345
 30
0.0
 40
3.5
 41
0.0
 71
     1
 72
     1
  1
0.98
  7
SLDTEXTSTYLE0
 11
-7.044195017643634E-15
 21
1.0
 31
0.0
 73
     1
 44
1.0
  0
MTEXT
  5
DE
330
CD
100
AcDbEntity
  8
치수문자_일반주서
100
AcDbMText
 10
93.40020889632177
 20
-5.22425519681665
 30
0.0
 40
3.5
 41
0.0
 71
     1
 72
     1
  1
%%c
  7
SLDTEXTSTYLE0
 11
-7.044195017643634E-15
 21
1.0
 31
0.0
 73
     1
 44
1.0
  0
MTEXT
  5
DF
330
CD
100
AcDbEntity
  8
치수문자_일반주서
100
AcDbMText
 10
93.40020889632173
 20
0.0541822015574309
 30
0.0
 40
3.5
 41
0.0
 71
     1
 72
     1
  1
25
  7
SLDTEXTSTYLE0
 11
-7.044195017643634E-15
 21
1.0
 31
0.0
 73
     1
 44
1.0
  0
ENDBLK
  5
CF
330
CD
100
AcDbEntity
  8
0
100
AcDbBlockEnd
  0
BLOCK
  5
E2
330
E1
100
AcDbEntity
  8
0
100
AcDbBlockBegin
  2
_D_1
 70
     0
 10
0.0
 20
0.0
 30
0.0
  3
_D_1
  1
_D_1
  0
SOLID
  5
E4
330
E1
100
AcDbEntity
  8
치수문자_일반주서
100
AcDbTrace
 10
-55.08805401447646
 20
7.938574928723906
 30
0.0
 11
-54.58005401447646
 21
11.24057492872391
 31
0.0
 12
-55.59605401447646
 22
11.24057492872391
 32
0.0
 13
-55.59605401447646
 23
11.24057492872391
 33
0.0
  0
SOLID
  5
E5
330
E1
100
AcDbEntity
  8
치수문자_일반주서
100
AcDbTrace
 10
-55.08805401447646
 20
-7.936425071276123
 30
0.0
 11
-55.59605401447646
 21
-11.23842507127612
 31
0.0
 12
-54.58005401447646
 22
-11.23842507127612
 32
0.0
 13
-54.58005401447646
 23
-11.23842507127612
 33
0.0
  0
LINE
  5
E6
330
E1
100
AcDbEntity
  8
치수문자_일반주서
100
AcDbLine
 10
-65.88093573051917
 20
-6.595745043212554
 30
0.0
 11
-65.88093573051917
 21
-7.306682528777054
 31
0.0
  0
LINE
  5
E7
330
E1
100
AcDbEntity
  8
치수문자_일반주서
100
AcDbLine
 10
-65.88093573051917
 20
-7.306682528777054
 30
0.0
 11
-60.32468573945987
 21
-7.306682528777015
 31
0.0
  0
LINE
  5
E8
330
E1
100
AcDbEntity
  8
치수문자_일반주서
100
AcDbLine
 10
-60.32468573945987
 20
-7.306682528777015
 30
0.0
 11
-60.32468573945987
 21
-6.595745043212514
 31
0.0
  0
LINE
  5
E9
330
E1
100
AcDbEntity
  8
치수문자_일반주서
100
AcDbLine
 10
-65.88093573051925
 20
4.232987818924705
 30
0.0
 11
-65.88093573051925
 21
4.943925304489205
 31
0.0
  0
LINE
  5
EA
330
E1
100
AcDbEntity
  8
치수문자_일반주서
100
AcDbLine
 10
-65.88093573051925
 20
4.943925304489205
 30
0.0
 11
-60.32468573945995
 21
4.943925304489244
 31
0.0
  0
LINE
  5
EB
330
E1
100
AcDbEntity
  8
치수문자_일반주서
100
AcDbLine
 10
-60.32468573945995
 20
4.943925304489244
 30
0.0
 11
-60.32468573945994
 21
4.232987818924744
 31
0.0
  0
LINE
  5
EC
330
E1
100
AcDbEntity
  8
치수문자_일반주서
100
AcDbLine
 10
-41.50055401447643
 20
7.938574928723908
 30
0.0
 11
-56.08805401447646
 21
7.938574928723906
 31
0.0
  0
LINE
  5
ED
330
E1
100
AcDbEntity
  8
치수문자_일반주서
100
AcDbLine
 10
-41.50055401447643
 20
-7.936425071276121
 30
0.0
 11
-56.08805401447646
 21
-7.936425071276123
 31
0.0
  0
LINE
  5
EE
330
E1
100
AcDbEntity
  8
치수문자_일반주서
100
AcDbLine
 10
-55.08805401447646
 20
7.938574928723906
 30
0.0
 11
-55.08805401447646
 21
14.28857492872391
 31
0.0
  0
LINE
  5
EF
330
E1
100
AcDbEntity
  8
치수문자_일반주서
100
AcDbLine
 10
-55.08805401447646
 20
7.938574928723906
 30
0.0
 11
-55.08805401447646
 21
-7.936425071276123
 31
0.0
  0
LINE
  5
F0
330
E1
100
AcDbEntity
  8
치수문자_일반주서
100
AcDbLine
 10
-55.08805401447646
 20
-7.936425071276123
 30
0.0
 11
-55.08805401447646
 21
-14.28642507127612
 31
0.0
  0
MTEXT
  5
F1
330
E1
100
AcDbEntity
  8
치수문자_일반주서
100
AcDbMText
 10
-64.83642265403878
 20
-5.707073142601175
 30
0.0
 40
3.5
 41
0.0
 71
     1
 72
     1
  1
0.63
  7
SLDTEXTSTYLE0
 11
-7.044195017643634E-15
 21
1.0
 31
0.0
 73
     1
 44
1.0
  0
MTEXT
  5
F2
330
E1
100
AcDbEntity
  8
치수문자_일반주서
100
AcDbMText
 10
-59.59979110367827
 20
-9.639347554964907
 30
0.0
 40
3.5
 41
0.0
 71
     1
 72
     1
  1
%%c
  7
SLDTEXTSTYLE0
 11
-7.044195017643634E-15
 21
1.0
 31
0.0
 73
     1
 44
1.0
  0
MTEXT
  5
F3
330
E1
100
AcDbEntity
  8
치수문자_일반주서
100
AcDbMText
 10
-59.59979110367831
 20
-4.360910156590827
 30
0.0
 40
3.5
 41
0.0
 71
     1
 72
     1
  1
15.88
  7
SLDTEXTSTYLE0
 11
-7.044195017643634E-15
 21
1.0
 31
0.0
 73
     1
 44
1.0
  0
ENDBLK
  5
E3
330
E1
100
AcDbEntity
  8
0
100
AcDbBlockEnd
  0
BLOCK
  5
F7
330
F6
100
AcDbEntity
  8
0
100
AcDbBlockBegin
  2
_D_2
 70
     0
 10
0.0
 20
0.0
 30
0.0
  3
_D_2
  1
_D_2
  0
SOLID
  5
F9
330
F6
100
AcDbEntity
  8
치수문자_일반주서
100
AcDbTrace
 10
78.91194598552354
 20
22.50672034886512
 30
0.0
 11
75.60994598552355
 21
23.01472034886511
 31
0.0
 12
75.60994598552355
 22
21.99872034886511
 32
0.0
 13
75.60994598552355
 23
21.99872034886511
 33
0.0
  0
SOLID
  5
FA
330
F6
100
AcDbEntity
  8
치수문자_일반주서
100
AcDbTrace
 10
33.91194598552348
 20
22.50672034886499
 30
0.0
 11
37.21394598552348
 21
21.998720348865
 31
0.0
 12
37.21394598552348
 22
23.014720348865
 32
0.0
 13
37.21394598552348
 23
23.014720348865
 33
0.0
  0
LINE
  5
FB
330
F6
100
AcDbEntity
  8
치수문자_일반주서
100
AcDbLine
 10
50.99757990370085
 20
33.29960206490785
 30
0.0
 11
50.28664241813635
 21
33.29960206490784
 31
0.0
  0
LINE
  5
FC
330
F6
100
AcDbEntity
  8
치수문자_일반주서
100
AcDbLine
 10
50.28664241813635
 20
33.29960206490784
 30
0.0
 11
50.2866424181364
 21
27.74335207384854
 31
0.0
  0
LINE
  5
FD
330
F6
100
AcDbEntity
  8
치수문자_일반주서
100
AcDbLine
 10
50.2866424181364
 20
27.74335207384854
 30
0.0
 11
50.9975799037009
 21
27.74335207384855
 31
0.0
  0
LINE
  5
FE
330
F6
100
AcDbEntity
  8
치수문자_일반주서
100
AcDbLine
 10
61.82631276583811
 20
33.29960206490796
 30
0.0
 11
62.53725025140261
 21
33.29960206490797
 31
0.0
  0
LINE
  5
FF
330
F6
100
AcDbEntity
  8
치수문자_일반주서
100
AcDbLine
 10
62.53725025140261
 20
33.29960206490797
 30
0.0
 11
62.53725025140267
 21
27.74335207384866
 31
0.0
  0
LINE
  5
100
330
F6
100
AcDbEntity
  8
치수문자_일반주서
100
AcDbLine
 10
62.53725025140267
 20
27.74335207384866
 30
0.0
 11
61.82631276583817
 21
27.74335207384865
 31
0.0
  0
LINE
  5
101
330
F6
100
AcDbEntity
  8
치수문자_일반주서
100
AcDbLine
 10
78.91194598552357
 20
13.21639659633511
 30
0.0
 11
78.91194598552354
 21
23.50672034886512
 31
0.0
  0
LINE
  5
102
330
F6
100
AcDbEntity
  8
치수문자_일반주서
100
AcDbLine
 10
33.91194598552351
 20
13.49020987361993
 30
0.0
 11
33.91194598552348
 21
23.506720348865
 31
0.0
  0
LINE
  5
103
330
F6
100
AcDbEntity
  8
치수문자_일반주서
100
AcDbLine
 10
78.91194598552354
 20
22.50672034886512
 30
0.0
 11
33.91194598552348
 21
22.50672034886499
 31
0.0
  0
MTEXT
  5
104
330
F6
100
AcDbEntity
  8
치수문자_일반주서
100
AcDbMText
 10
49.77288369264971
 20
27.07192961472681
 30
0.0
 40
3.5
 41
0.0
 71
     1
 72
     1
  1

  7
SLDTEXTSTYLE0
 73
     1
 44
1.0
  0
MTEXT
  5
105
330
F6
100
AcDbEntity
  8
치수문자_일반주서
100
AcDbMText
 10
51.88625180431222
 20
32.25508898842745
 30
0.0
 40
3.5
 41
0.0
 71
     1
 72
     1
  1
1.77
  7
SLDTEXTSTYLE0
 73
     1
 44
1.0
  0
MTEXT
  5
106
330
F6
100
AcDbEntity
  8
치수문자_일반주서
100
AcDbMText
 10
53.82583514124673
 20
27.018457438067
 30
0.0
 40
3.5
 41
0.0
 71
     1
 72
     1
  1
45
  7
SLDTEXTSTYLE0
 73
     1
 44
1.0
  0
MTEXT
  5
107
330
F6
100
AcDbEntity
  8
치수문자_일반주서
100
AcDbMText
 10
64.38295349654327
 20
27.07192961472695
 30
0.0
 40
3.5
 41
0.0
 71
     1
 72
     1
  1

  7
SLDTEXTSTYLE0
 73
     1
 44
1.0
  0
ENDBLK
  5
F8
330
F6
100
AcDbEntity
  8
0
100
AcDbBlockEnd
  0
BLOCK
  5
10A
330
109
100
AcDbEntity
  8
0
100
AcDbBlockBegin
  2
_D_3
 70
     0
 10
0.0
 20
0.0
 30
0.0
  3
_D_3
  1
_D_3
  0
SOLID
  5
10C
330
109
100
AcDbEntity
  8
치수문자_일반주서
100
AcDbTrace
 10
78.91194598552357
 20
38.36394344956528
 30
0.0
 11
75.60994598552358
 21
38.87194344956529
 31
0.0
 12
75.60994598552358
 22
37.85594344956528
 32
0.0
 13
75.60994598552358
 23
37.85594344956528
 33
0.0
  0
SOLID
  5
10D
330
109
100
AcDbEntity
  8
치수문자_일반주서
100
AcDbTrace
 10
-42.08805401447642
 20
38.36394344956528
 30
0.0
 11
-38.78605401447642
 21
37.85594344956527
 31
0.0
 12
-38.78605401447642
 22
38.87194344956528
 32
0.0
 13
-38.78605401447642
 23
38.87194344956528
 33
0.0
  0
LINE
  5
10E
330
109
100
AcDbEntity
  8
치수문자_일반주서
100
AcDbLine
 10
14.47912979228456
 20
49.15682516560803
 30
0.0
 11
13.76819230672006
 21
49.15682516560804
 31
0.0
  0
LINE
  5
10F
330
109
100
AcDbEntity
  8
치수문자_일반주서
100
AcDbLine
 10
13.76819230672006
 20
49.15682516560804
 30
0.0
 11
13.76819230672002
 21
43.60057517454874
 31
0.0
  0
LINE
  5
110
330
109
100
AcDbEntity
  8
치수문자_일반주서
100
AcDbLine
 10
13.76819230672002
 20
43.60057517454874
 30
0.0
 11
14.47912979228452
 21
43.60057517454873
 31
0.0
  0
LINE
  5
111
330
109
100
AcDbEntity
  8
치수문자_일반주서
100
AcDbLine
 10
25.30786265442182
 20
49.15682516560796
 30
0.0
 11
26.01880013998632
 21
49.15682516560796
 31
0.0
  0
LINE
  5
112
330
109
100
AcDbEntity
  8
치수문자_일반주서
100
AcDbLine
 10
26.01880013998632
 20
49.15682516560796
 30
0.0
 11
26.01880013998629
 21
43.60057517454865
 31
0.0
  0
LINE
  5
113
330
109
100
AcDbEntity
  8
치수문자_일반주서
100
AcDbLine
 10
26.01880013998629
 20
43.60057517454865
 30
0.0
 11
25.30786265442179
 21
43.60057517454866
 31
0.0
  0
LINE
  5
114
330
109
100
AcDbEntity
  8
치수문자_일반주서
100
AcDbLine
 10
78.91194598552357
 20
13.21639659633511
 30
0.0
 11
78.91194598552357
 21
39.36394344956528
 31
0.0
  0
LINE
  5
115
330
109
100
AcDbEntity
  8
치수문자_일반주서
100
AcDbLine
 10
-42.08805401447642
 20
7.351074928723897
 30
0.0
 11
-42.08805401447642
 21
39.36394344956528
 31
0.0
  0
LINE
  5
116
330
109
100
AcDbEntity
  8
치수문자_일반주서
100
AcDbLine
 10
78.91194598552357
 20
38.36394344956528
 30
0.0
 11
-42.08805401447642
 21
38.36394344956528
 31
0.0
  0
MTEXT
  5
117
330
109
100
AcDbEntity
  8
치수문자_일반주서
100
AcDbMText
 10
13.25443358123332
 20
42.92915271542702
 30
0.0
 40
3.5
 41
0.0
 71
     1
 72
     1
  1

  7
SLDTEXTSTYLE0
 73
     1
 44
1.0
  0
MTEXT
  5
118
330
109
100
AcDbEntity
  8
치수문자_일반주서
100
AcDbMText
 10
15.36780169289593
 20
48.11231208912763
 30
0.0
 40
3.5
 41
0.0
 71
     1
 72
     1
  1
4.76
  7
SLDTEXTSTYLE0
 73
     1
 44
1.0
  0
MTEXT
  5
119
330
109
100
AcDbEntity
  8
치수문자_일반주서
100
AcDbMText
 10
16.01432954948426
 20
42.87568053876715
 30
0.0
 40
3.5
 41
0.0
 71
     1
 72
     1
  1
121
  7
SLDTEXTSTYLE0
 73
     1
 44
1.0
  0
MTEXT
  5
11A
330
109
100
AcDbEntity
  8
치수문자_일반주서
100
AcDbMText
 10
27.86450338512689
 20
42.92915271542692
 30
0.0
 40
3.5
 41
0.0
 71
     1
 72
     1
  1

  7
SLDTEXTSTYLE0
 73
     1
 44
1.0
  0
ENDBLK
  5
10B
330
109
100
AcDbEntity
  8
0
100
AcDbBlockEnd
  0
BLOCK
  5
123
330
122
100
AcDbEntity
  8
0
100
AcDbBlockBegin
  2
SW_DOWELSYMBOL_0
 70
     0
 10
0.0
 20
0.0
 30
0.0
  3
SW_DOWELSYMBOL_0
  1
SW_DOWELSYMBOL_0
  0
CIRCLE
  5
125
330
122
100
AcDbEntity
  8
해칭선
 62
     0
100
AcDbCircle
 10
0.0
 20
0.0
 30
0.0
 40
3.000000000000001
  0
HATCH
  5
126
330
122
100
AcDbEntity
  8
0
  6
Continuous
 62
     0
370
     0
100
AcDbHatch
 10
0.0
 20
0.0
 30
0.0
210
0.0
220
0.0
230
1.0
  2
SOLID
 70
     1
 71
     0
 91
        1
 92
        0
 93
        3
 72
     2
 10
0.0
 20
0.0
 40
3.000000000000001
 50
0.0
 51
90.0
 73
     1
 72
     1
 10
0.0
 20
3.000000000000001
 11
0.0
 21
0.0
 72
     1
 10
0.0
 20
0.0
 11
3.000000000000001
 21
0.0
 97
        0
 75
     0
 76
     1
 98
        1
 10
0.0
 20
0.0
  0
HATCH
  5
127
330
122
100
AcDbEntity
  8
0
  6
Continuous
 62
     0
370
     0
100
AcDbHatch
 10
0.0
 20
0.0
 30
0.0
210
0.0
220
0.0
230
1.0
  2
SOLID
 70
     1
 71
     0
 91
        1
 92
        0
 93
        3
 72
     2
 10
0.0
 20
0.0
 40
3.000000000000001
 50
180.0
 51
270.0000000000007
 73
     1
 72
     1
 10
0.0
 20
-3.000000000000001
 11
0.0
 21
0.0
 72
     1
 10
0.0
 20
0.0
 11
-3.000000000000001
 21
0.0
 97
        0
 75
     0
 76
     1
 98
        1
 10
0.0
 20
0.0
  0
ENDBLK
  5
124
330
122
100
AcDbEntity
  8
0
100
AcDbBlockEnd
  0
BLOCK
  5
1A6
330
1A5
100
AcDbEntity
  8
0
100
AcDbBlockBegin
  2
*D7
 70
     1
 10
0.0
 20
0.0
 30
0.0
  3
*D7
  1
*D12
  0
LINE
  5
1A7
330
1A5
100
AcDbEntity
  8
치수문자_일반주서
 62
     0
370
    -2
100
AcDbLine
 10
18.90000000000005
 20
24.86025000000002
 30
0.0
 11
4.375000000000029
 21
24.86024999999997
 31
0.0
  0
LINE
  5
1A8
330
1A5
100
AcDbEntity
  8
치수문자_일반주서
 62
     0
370
    -2
100
AcDbLine
 10
18.90000000000005
 20
8.985249999999994
 30
0.0
 11
4.375000000000084
 21
8.985249999999937
 31
0.0
  0
LINE
  5
1A9
330
1A5
100
AcDbEntity
  8
치수문자_일반주서
 62
     0
370
    -2
100
AcDbLine
 10
4.375000000000041
 20
21.55824999999997
 30
0.0
 11
4.375000000000073
 21
12.28724999999994
 31
0.0
  0
SOLID
  5
1AA
330
1A5
100
AcDbEntity
  8
치수문자_일반주서
 62
     0
100
AcDbTrace
 10
4.925333333333374
 20
21.55824999999997
 30
0.0
 11
3.824666666666708
 21
21.55824999999996
 31
0.0
 12
4.375000000000029
 22
24.86024999999997
 32
0.0
 13
4.375000000000029
 23
24.86024999999997
 33
0.0
  0
SOLID
  5
1AB
330
1A5
100
AcDbEntity
  8
치수문자_일반주서
 62
     0
100
AcDbTrace
 10
3.82466666666674
 20
12.28724999999993
 30
0.0
 11
4.925333333333406
 21
12.28724999999994
 31
0.0
 12
4.375000000000084
 22
8.985249999999937
 32
0.0
 13
4.375000000000084
 23
8.985249999999937
 33
0.0
  0
MTEXT
  5
1AC
330
1A5
100
AcDbEntity
  8
치수문자_일반주서
 62
     0
100
AcDbMText
 10
0.0000000000000568
 20
16.92275
 30
0.0
 40
3.5
 41
0.0
 71
     2
 72
     1
  1
\A1;%%c15.88 [5/8]
  7
SLDTEXTSTYLE0
 11
-3.468791308435129E-15
 21
1.0
 31
0.0
 73
     1
 44
1.0
  0
POINT
  5
1AD
330
1A5
100
AcDbEntity
  8
Defpoints
 62
     0
100
AcDbPoint
 10
18.96250000000005
 20
24.86025000000002
 30
0.0
  0
POINT
  5
1AE
330
1A5
100
AcDbEntity
  8
Defpoints
 62
     0
100
AcDbPoint
 10
18.96250000000005
 20
8.985249999999994
 30
0.0
  0
POINT
  5
1AF
330
1A5
100
AcDbEntity
  8
Defpoints
 62
     0
100
AcDbPoint
 10
4.375000000000085
 20
8.985249999999938
 30
0.0
  0
ENDBLK
  5
1B0
330
1A5
100
AcDbEntity
  8
0
100
AcDbBlockEnd
  0
BLOCK
  5
1B3
330
1B2
100
AcDbEntity
  8
0
100
AcDbBlockBegin
  2
*D8
 70
     1
 10
0.0
 20
0.0
 30
0.0
  3
*D8
  1
*D13
  0
LINE
  5
1B4
330
1B2
100
AcDbEntity
  8
치수문자_일반주서
 62
     0
370
    -2
100
AcDbLine
 10
118.9750000000001
 20
27.30399999999992
 30
0.0
 11
118.9750000000001
 21
56.46818194991203
 31
0.0
  0
LINE
  5
1B5
330
1B2
100
AcDbEntity
  8
치수문자_일반주서
 62
     0
370
    -2
100
AcDbLine
 10
71.3500000000001
 20
26.8428930722077
 30
0.0
 11
71.3500000000001
 21
56.46818194991203
 31
0.0
  0
LINE
  5
1B6
330
1B2
100
AcDbEntity
  8
치수문자_일반주서
 62
     0
370
    -2
100
AcDbLine
 10
115.6730000000001
 20
56.46818194991203
 30
0.0
 11
74.6520000000001
 21
56.46818194991203
 31
0.0
  0
SOLID
  5
1B7
330
1B2
100
AcDbEntity
  8
치수문자_일반주서
 62
     0
100
AcDbTrace
 10
115.6730000000001
 20
55.91784861657869
 30
0.0
 11
115.6730000000001
 21
57.01851528324536
 31
0.0
 12
118.9750000000001
 22
56.46818194991203
 32
0.0
 13
118.9750000000001
 23
56.46818194991203
 33
0.0
  0
SOLID
  5
1B8
330
1B2
100
AcDbEntity
  8
치수문자_일반주서
 62
     0
100
AcDbTrace
 10
74.6520000000001
 20
57.01851528324536
 30
0.0
 11
74.6520000000001
 21
55.91784861657869
 31
0.0
 12
71.3500000000001
 22
56.46818194991203
 32
0.0
 13
71.3500000000001
 23
56.46818194991203
 33
0.0
  0
MTEXT
  5
1B9
330
1B2
100
AcDbEntity
  8
치수문자_일반주서
 62
     0
100
AcDbMText
 10
92.14625000000008
 20
60.84318194991203
 30
0.0
 40
3.5
 41
0.0
 71
     2
 72
     1
  1
\A1;47.63 [1 7/8]
  7
SLDTEXTSTYLE0
 73
     1
 44
1.0
  0
POINT
  5
1BA
330
1B2
100
AcDbEntity
  8
Defpoints
 62
     0
100
AcDbPoint
 10
118.9750000000001
 20
27.24149999999992
 30
0.0
  0
POINT
  5
1BB
330
1B2
100
AcDbEntity
  8
Defpoints
 62
     0
100
AcDbPoint
 10
71.3500000000001
 20
26.7803930722077
 30
0.0
  0
POINT
  5
1BC
330
1B2
100
AcDbEntity
  8
Defpoints
 62
     0
100
AcDbPoint
 10
71.3500000000001
 20
56.46818194991203
 30
0.0
  0
ENDBLK
  5
1BD
330
1B2
100
AcDbEntity
  8
0
100
AcDbBlockEnd
  0
BLOCK
  5
1C0
330
1BF
100
AcDbEntity
  8
0
100
AcDbBlockBegin
  2
*D9
 70
     1
 10
0.0
 20
0.0
 30
0.0
  3
*D9
  1
*D14
  0
LINE
  5
1C1
330
1BF
100
AcDbEntity
  8
치수문자_일반주서
 62
     0
370
    -2
100
AcDbLine
 10
118.9750000000001
 20
27.30399999999992
 30
0.0
 11
118.9750000000001
 21
72.06818194991205
 31
0.0
  0
LINE
  5
1C2
330
1BF
100
AcDbEntity
  8
치수문자_일반주서
 62
     0
370
    -2
100
AcDbLine
 10
17.37500000000006
 20
23.33525000000002
 30
0.0
 11
17.37500000000005
 21
72.06818194991205
 31
0.0
  0
LINE
  5
1C3
330
1BF
100
AcDbEntity
  8
치수문자_일반주서
 62
     0
370
    -2
100
AcDbLine
 10
115.6730000000001
 20
72.06818194991205
 30
0.0
 11
20.67700000000005
 21
72.06818194991205
 31
0.0
  0
SOLID
  5
1C4
330
1BF
100
AcDbEntity
  8
치수문자_일반주서
 62
     0
100
AcDbTrace
 10
115.6730000000001
 20
71.51784861657872
 30
0.0
 11
115.6730000000001
 21
72.61851528324537
 31
0.0
 12
118.9750000000001
 22
72.06818194991205
 32
0.0
 13
118.9750000000001
 23
72.06818194991205
 33
0.0
  0
SOLID
  5
1C5
330
1BF
100
AcDbEntity
  8
치수문자_일반주서
 62
     0
100
AcDbTrace
 10
20.67700000000005
 20
72.61851528324537
 30
0.0
 11
20.67700000000005
 21
71.51784861657872
 31
0.0
 12
17.37500000000005
 22
72.06818194991205
 32
0.0
 13
17.37500000000005
 23
72.06818194991205
 33
0.0
  0
MTEXT
  5
1C6
330
1BF
100
AcDbEntity
  8
치수문자_일반주서
 62
     0
100
AcDbMText
 10
70.52101805201077
 20
76.44318194991205
 30
0.0
 40
3.5
 41
0.0
 71
     2
 72
     1
  1
\A1;101.6 [4]
  7
SLDTEXTSTYLE0
 73
     1
 44
1.0
  0
POINT
  5
1C7
330
1BF
100
AcDbEntity
  8
Defpoints
 62
     0
100
AcDbPoint
 10
118.9750000000001
 20
27.24149999999992
 30
0.0
  0
POINT
  5
1C8
330
1BF
100
AcDbEntity
  8
Defpoints
 62
     0
100
AcDbPoint
 10
17.37500000000006
 20
23.27275000000002
 30
0.0
  0
POINT
  5
1C9
330
1BF
100
AcDbEntity
  8
Defpoints
 62
     0
100
AcDbPoint
 10
17.37500000000006
 20
72.06818194991205
 30
0.0
  0
ENDBLK
  5
1CA
330
1BF
100
AcDbEntity
  8
0
100
AcDbBlockEnd
  0
BLOCK
  5
1CD
330
1CC
100
AcDbEntity
  8
0
100
AcDbBlockBegin
  2
*D10
 70
     1
 10
0.0
 20
0.0
 30
0.0
  3
*D10
  1
*D15
  0
LINE
  5
1CE
330
1CC
100
AcDbEntity
  8
치수문자_일반주서
 62
     0
370
    -2
100
AcDbLine
 10
119.0375000000001
 20
27.24149999999992
 30
0.0
 11
145.8099378954082
 21
27.24150000000002
 31
0.0
  0
LINE
  5
1CF
330
1CC
100
AcDbEntity
  8
치수문자_일반주서
 62
     0
370
    -2
100
AcDbLine
 10
119.0375000000001
 20
6.603999999999903
 30
0.0
 11
145.8099378954082
 21
6.603999999999999
 31
0.0
  0
LINE
  5
1D0
330
1CC
100
AcDbEntity
  8
치수문자_일반주서
 62
     0
370
    -2
100
AcDbLine
 10
145.8099378954082
 20
27.24150000000002
 30
0.0
 11
145.809937895408
 21
69.99545000000002
 31
0.0
  0
LINE
  5
1D1
330
1CC
100
AcDbEntity
  8
치수문자_일반주서
 62
     0
370
    -2
100
AcDbLine
 10
145.8099378954082
 20
27.24150000000002
 30
0.0
 11
145.8099378954082
 21
6.603999999999999
 31
0.0
  0
LINE
  5
1D2
330
1CC
100
AcDbEntity
  8
치수문자_일반주서
 62
     0
370
    -2
100
AcDbLine
 10
145.8099378954082
 20
30.54350000000002
 30
0.0
 11
145.8099378954082
 21
33.84550000000002
 31
0.0
  0
LINE
  5
1D3
330
1CC
100
AcDbEntity
  8
치수문자_일반주서
 62
     0
370
    -2
100
AcDbLine
 10
145.8099378954082
 20
3.302
 30
0.0
 11
145.8099378954082
 21
0.0
 31
0.0
  0
SOLID
  5
1D4
330
1CC
100
AcDbEntity
  8
치수문자_일반주서
 62
     0
100
AcDbTrace
 10
145.2596045620748
 20
30.54350000000002
 30
0.0
 11
146.3602712287415
 21
30.54350000000003
 31
0.0
 12
145.8099378954082
 22
27.24150000000002
 32
0.0
 13
145.8099378954082
 23
27.24150000000002
 33
0.0
  0
SOLID
  5
1D5
330
1CC
100
AcDbEntity
  8
치수문자_일반주서
 62
     0
100
AcDbTrace
 10
146.3602712287416
 20
3.302000000000002
 30
0.0
 11
145.2596045620749
 21
3.301999999999997
 31
0.0
 12
145.8099378954082
 22
6.603999999999999
 32
0.0
 13
145.8099378954082
 23
6.603999999999999
 33
0.0
  0
MTEXT
  5
1D6
330
1CC
100
AcDbEntity
  8
치수문자_일반주서
 62
     0
100
AcDbMText
 10
141.434937895408
 20
54.0267
 30
0.0
 40
3.5
 41
0.0
 71
     2
 72
     1
  1
\A1;%%c20.64 [13/16]
  7
SLDTEXTSTYLE0
 11
-4.131562848756484E-15
 21
1.0
 31
0.0
 73
     1
 44
1.0
  0
POINT
  5
1D7
330
1CC
100
AcDbEntity
  8
Defpoints
 62
     0
100
AcDbPoint
 10
118.9750000000001
 20
27.24149999999992
 30
0.0
  0
POINT
  5
1D8
330
1CC
100
AcDbEntity
  8
Defpoints
 62
     0
100
AcDbPoint
 10
118.9750000000001
 20
6.603999999999903
 30
0.0
  0
POINT
  5
1D9
330
1CC
100
AcDbEntity
  8
Defpoints
 62
     0
100
AcDbPoint
 10
145.8099378954082
 20
6.604000000000004
 30
0.0
  0
ENDBLK
  5
1DA
330
1CC
100
AcDbEntity
  8
0
100
AcDbBlockEnd
  0
BLOCK
  5
22E
330
22D
100
AcDbEntity
  8
0
100
AcDbBlockBegin
  2
*D11
 70
     1
 10
0.0
 20
0.0
 30
0.0
  3
*D11
  1
*D12
  0
LINE
  5
230
330
22D
100
AcDbEntity
  8
치수문자_일반주서
 62
     0
370
    -2
100
AcDbLine
 10
152.7864426686175
 20
-7.928049659451737
 30
0.0
 11
138.2614426686175
 21
-7.928049659451792
 31
0.0
  0
LINE
  5
231
330
22D
100
AcDbEntity
  8
치수문자_일반주서
 62
     0
370
    -2
100
AcDbLine
 10
152.7864426686175
 20
-23.80304965945177
 30
0.0
 11
138.2614426686175
 21
-23.80304965945182
 31
0.0
  0
LINE
  5
232
330
22D
100
AcDbEntity
  8
치수문자_일반주서
 62
     0
370
    -2
100
AcDbLine
 10
138.2614426686175
 20
-11.23004965945179
 30
0.0
 11
138.2614426686175
 21
-20.50104965945182
 31
0.0
  0
SOLID
  5
233
330
22D
100
AcDbEntity
  8
치수문자_일반주서
 62
     0
100
AcDbTrace
 10
138.8117760019508
 20
-11.23004965945179
 30
0.0
 11
137.7111093352842
 21
-11.23004965945179
 31
0.0
 12
138.2614426686175
 22
-7.928049659451792
 32
0.0
 13
138.2614426686175
 23
-7.928049659451792
 33
0.0
  0
SOLID
  5
234
330
22D
100
AcDbEntity
  8
치수문자_일반주서
 62
     0
100
AcDbTrace
 10
137.7111093352842
 20
-20.50104965945183
 30
0.0
 11
138.8117760019509
 21
-20.50104965945182
 31
0.0
 12
138.2614426686175
 22
-23.80304965945182
 32
0.0
 13
138.2614426686175
 23
-23.80304965945182
 33
0.0
  0
MTEXT
  5
235
330
22D
100
AcDbEntity
  8
치수문자_일반주서
 62
     0
100
AcDbMText
 10
133.8864426686175
 20
-15.86554965945175
 30
0.0
 40
3.5
 41
0.0
 71
     2
 72
     1
  1
\A1;%%c15.88 [5/8]
  7
SLDTEXTSTYLE0
 11
-3.580687802255617E-15
 21
1.0
 31
0.0
 73
     1
 44
1.0
  0
POINT
  5
236
330
22D
100
AcDbEntity
  8
Defpoints
 62
     0
100
AcDbPoint
 10
152.8489426686175
 20
-7.928049659451737
 30
0.0
  0
POINT
  5
237
330
22D
100
AcDbEntity
  8
Defpoints
 62
     0
100
AcDbPoint
 10
152.8489426686175
 20
-23.80304965945177
 30
0.0
  0
POINT
  5
238
330
22D
100
AcDbEntity
  8
Defpoints
 62
     0
100
AcDbPoint
 10
138.2614426686175
 20
-23.80304965945182
 30
0.0
  0
ENDBLK
  5
22F
330
22D
100
AcDbEntity
  8
0
100
AcDbBlockEnd
  0
BLOCK
  5
23A
330
239
100
AcDbEntity
  8
0
100
AcDbBlockBegin
  2
*D12
 70
     1
 10
0.0
 20
0.0
 30
0.0
  3
*D12
  1
*D13
  0
LINE
  5
23C
330
239
100
AcDbEntity
  8
치수문자_일반주서
 62
     0
370
    -2
100
AcDbLine
 10
49.62500000000006
 20
10.38232492872381
 30
0.0
 11
49.62500000000006
 21
39.54650687863592
 31
0.0
  0
LINE
  5
23D
330
239
100
AcDbEntity
  8
치수문자_일반주서
 62
     0
370
    -2
100
AcDbLine
 10
2.000000000000057
 20
9.921218000931589
 30
0.0
 11
2.000000000000057
 21
39.54650687863592
 31
0.0
  0
LINE
  5
23E
330
239
100
AcDbEntity
  8
치수문자_일반주서
 62
     0
370
    -2
100
AcDbLine
 10
46.32300000000006
 20
39.54650687863592
 30
0.0
 11
5.302000000000056
 21
39.54650687863592
 31
0.0
  0
SOLID
  5
23F
330
239
100
AcDbEntity
  8
치수문자_일반주서
 62
     0
100
AcDbTrace
 10
46.32300000000006
 20
38.99617354530258
 30
0.0
 11
46.32300000000006
 21
40.09684021196925
 31
0.0
 12
49.62500000000006
 22
39.54650687863592
 32
0.0
 13
49.62500000000006
 23
39.54650687863592
 33
0.0
  0
SOLID
  5
240
330
239
100
AcDbEntity
  8
치수문자_일반주서
 62
     0
100
AcDbTrace
 10
5.302000000000056
 20
40.09684021196925
 30
0.0
 11
5.302000000000056
 21
38.99617354530258
 31
0.0
 12
2.000000000000057
 22
39.54650687863592
 32
0.0
 13
2.000000000000057
 23
39.54650687863592
 33
0.0
  0
MTEXT
  5
241
330
239
100
AcDbEntity
  8
치수문자_일반주서
 62
     0
100
AcDbMText
 10
22.79625000000004
 20
43.92150687863592
 30
0.0
 40
3.5
 41
0.0
 71
     2
 72
     1
  1
\A1;47.63 [1 7/8]
  7
SLDTEXTSTYLE0
 73
     1
 44
1.0
  0
POINT
  5
242
330
239
100
AcDbEntity
  8
Defpoints
 62
     0
100
AcDbPoint
 10
49.62500000000006
 20
10.31982492872381
 30
0.0
  0
POINT
  5
243
330
239
100
AcDbEntity
  8
Defpoints
 62
     0
100
AcDbPoint
 10
2.000000000000057
 20
9.858718000931589
 30
0.0
  0
POINT
  5
244
330
239
100
AcDbEntity
  8
Defpoints
 62
     0
100
AcDbPoint
 10
2.000000000000057
 20
39.54650687863592
 30
0.0
  0
ENDBLK
  5
23B
330
239
100
AcDbEntity
  8
0
100
AcDbBlockEnd
  0
BLOCK
  5
246
330
245
100
AcDbEntity
  8
0
100
AcDbBlockBegin
  2
*D13
 70
     1
 10
0.0
 20
0.0
 30
0.0
  3
*D13
  1
*D14
  0
LINE
  5
248
330
245
100
AcDbEntity
  8
치수문자_일반주서
 62
     0
370
    -2
100
AcDbLine
 10
252.8614426686175
 20
-5.484299659451835
 30
0.0
 11
252.8614426686175
 21
39.27988229046029
 31
0.0
  0
LINE
  5
249
330
245
100
AcDbEntity
  8
치수문자_일반주서
 62
     0
370
    -2
100
AcDbLine
 10
151.2614426686175
 20
-9.453049659451743
 30
0.0
 11
151.2614426686175
 21
39.27988229046029
 31
0.0
  0
LINE
  5
24A
330
245
100
AcDbEntity
  8
치수문자_일반주서
 62
     0
370
    -2
100
AcDbLine
 10
249.5594426686175
 20
39.27988229046029
 30
0.0
 11
154.5634426686175
 21
39.27988229046029
 31
0.0
  0
SOLID
  5
24B
330
245
100
AcDbEntity
  8
치수문자_일반주서
 62
     0
100
AcDbTrace
 10
249.5594426686175
 20
38.72954895712695
 30
0.0
 11
249.5594426686175
 21
39.83021562379362
 31
0.0
 12
252.8614426686175
 22
39.27988229046029
 32
0.0
 13
252.8614426686175
 23
39.27988229046029
 33
0.0
  0
SOLID
  5
24C
330
245
100
AcDbEntity
  8
치수문자_일반주서
 62
     0
100
AcDbTrace
 10
154.5634426686175
 20
39.83021562379362
 30
0.0
 11
154.5634426686175
 21
38.72954895712695
 31
0.0
 12
151.2614426686175
 22
39.27988229046029
 32
0.0
 13
151.2614426686175
 23
39.27988229046029
 33
0.0
  0
MTEXT
  5
24D
330
245
100
AcDbEntity
  8
치수문자_일반주서
 62
     0
100
AcDbMText
 10
204.4074607206283
 20
43.65488229046029
 30
0.0
 40
3.5
 41
0.0
 71
     2
 72
     1
  1
\A1;101.6 [4]
  7
SLDTEXTSTYLE0
 73
     1
 44
1.0
  0
POINT
  5
24E
330
245
100
AcDbEntity
  8
Defpoints
 62
     0
100
AcDbPoint
 10
252.8614426686175
 20
-5.546799659451835
 30
0.0
  0
POINT
  5
24F
330
245
100
AcDbEntity
  8
Defpoints
 62
     0
100
AcDbPoint
 10
151.2614426686175
 20
-9.515549659451743
 30
0.0
  0
POINT
  5
250
330
245
100
AcDbEntity
  8
Defpoints
 62
     0
100
AcDbPoint
 10
151.2614426686175
 20
39.27988229046029
 30
0.0
  0
ENDBLK
  5
247
330
245
100
AcDbEntity
  8
0
100
AcDbBlockEnd
  0
BLOCK
  5
252
330
251
100
AcDbEntity
  8
0
100
AcDbBlockBegin
  2
*D14
 70
     1
 10
0.0
 20
0.0
 30
0.0
  3
*D14
  1
*D15
  0
LINE
  5
254
330
251
100
AcDbEntity
  8
치수문자_일반주서
 62
     0
370
    -2
100
AcDbLine
 10
49.68750000000006
 20
10.31982492872381
 30
0.0
 11
76.4599378954081
 21
10.31982492872391
 31
0.0
  0
LINE
  5
255
330
251
100
AcDbEntity
  8
치수문자_일반주서
 62
     0
370
    -2
100
AcDbLine
 10
49.68750000000006
 20
-10.31767507127621
 30
0.0
 11
76.45993789540817
 21
-10.31767507127611
 31
0.0
  0
LINE
  5
256
330
251
100
AcDbEntity
  8
치수문자_일반주서
 62
     0
370
    -2
100
AcDbLine
 10
76.4599378954081
 20
10.31982492872391
 30
0.0
 11
76.45993789540796
 21
53.07377492872391
 31
0.0
  0
LINE
  5
257
330
251
100
AcDbEntity
  8
치수문자_일반주서
 62
     0
370
    -2
100
AcDbLine
 10
76.4599378954081
 20
10.31982492872391
 30
0.0
 11
76.45993789540817
 21
-10.31767507127611
 31
0.0
  0
LINE
  5
258
330
251
100
AcDbEntity
  8
치수문자_일반주서
 62
     0
370
    -2
100
AcDbLine
 10
76.45993789540809
 20
13.62182492872391
 30
0.0
 11
76.45993789540807
 21
16.92382492872391
 31
0.0
  0
LINE
  5
259
330
251
100
AcDbEntity
  8
치수문자_일반주서
 62
     0
370
    -2
100
AcDbLine
 10
76.45993789540819
 20
-13.61967507127611
 30
0.0
 11
76.4599378954082
 21
-16.92167507127611
 31
0.0
  0
SOLID
  5
25A
330
251
100
AcDbEntity
  8
치수문자_일반주서
 62
     0
100
AcDbTrace
 10
75.90960456207476
 20
13.62182492872391
 30
0.0
 11
77.01027122874142
 21
13.62182492872391
 31
0.0
 12
76.4599378954081
 22
10.31982492872391
 32
0.0
 13
76.4599378954081
 23
10.31982492872391
 33
0.0
  0
SOLID
  5
25B
330
251
100
AcDbEntity
  8
치수문자_일반주서
 62
     0
100
AcDbTrace
 10
77.01027122874152
 20
-13.61967507127611
 30
0.0
 11
75.90960456207486
 21
-13.61967507127611
 31
0.0
 12
76.45993789540817
 22
-10.31767507127611
 32
0.0
 13
76.45993789540817
 23
-10.31767507127611
 33
0.0
  0
MTEXT
  5
25C
330
251
100
AcDbEntity
  8
치수문자_일반주서
 62
     0
100
AcDbMText
 10
72.08493789540802
 20
37.10502492872389
 30
0.0
 40
3.5
 41
0.0
 71
     2
 72
     1
  1
\A1;%%c20.64 [13/16]
  7
SLDTEXTSTYLE0
 11
-3.442969040630403E-15
 21
1.0
 31
0.0
 73
     1
 44
1.0
  0
POINT
  5
25D
330
251
100
AcDbEntity
  8
Defpoints
 62
     0
100
AcDbPoint
 10
49.62500000000006
 20
10.31982492872381
 30
0.0
  0
POINT
  5
25E
330
251
100
AcDbEntity
  8
Defpoints
 62
     0
100
AcDbPoint
 10
49.62500000000006
 20
-10.31767507127621
 30
0.0
  0
POINT
  5
25F
330
251
100
AcDbEntity
  8
Defpoints
 62
     0
100
AcDbPoint
 10
76.45993789540813
 20
-10.31767507127611
 30
0.0
  0
ENDBLK
  5
253
330
251
100
AcDbEntity
  8
0
100
AcDbBlockEnd
  0
BLOCK
  5
2B1
330
2B0
100
AcDbEntity
  8
0
100
AcDbBlockBegin
  2
*D15
 70
     1
 10
0.0
 20
0.0
 30
0.0
  3
*D15
  1
*D12
  0
LINE
  5
2B2
330
2B0
100
AcDbEntity
  8
치수문자_일반주서
 62
     0
370
    -2
100
AcDbLine
 10
18.90000000000006
 20
32.00399991753314
 30
0.0
 11
4.375000000000024
 21
32.00399991753309
 31
0.0
  0
LINE
  5
2B3
330
2B0
100
AcDbEntity
  8
치수문자_일반주서
 62
     0
370
    -2
100
AcDbLine
 10
18.90000000000006
 20
12.95399991753312
 30
0.0
 11
4.375000000000091
 21
12.95399991753307
 31
0.0
  0
LINE
  5
2B4
330
2B0
100
AcDbEntity
  8
치수문자_일반주서
 62
     0
370
    -2
100
AcDbLine
 10
4.375000000000036
 20
28.70199991753309
 30
0.0
 11
4.375000000000079
 21
16.25599991753307
 31
0.0
  0
SOLID
  5
2B5
330
2B0
100
AcDbEntity
  8
치수문자_일반주서
 62
     0
100
AcDbTrace
 10
4.925333333333369
 20
28.70199991753309
 30
0.0
 11
3.824666666666702
 21
28.70199991753308
 31
0.0
 12
4.375000000000024
 22
32.00399991753309
 32
0.0
 13
4.375000000000024
 23
32.00399991753309
 33
0.0
  0
SOLID
  5
2B6
330
2B0
100
AcDbEntity
  8
치수문자_일반주서
 62
     0
100
AcDbTrace
 10
3.824666666666746
 20
16.25599991753307
 30
0.0
 11
4.925333333333413
 21
16.25599991753308
 31
0.0
 12
4.375000000000091
 22
12.95399991753307
 32
0.0
 13
4.375000000000091
 23
12.95399991753307
 33
0.0
  0
MTEXT
  5
2B7
330
2B0
100
AcDbEntity
  8
치수문자_일반주서
 62
     0
100
AcDbMText
 10
0.0000000000000568
 20
22.47899991753312
 30
0.0
 40
3.5
 41
0.0
 71
     2
 72
     1
  1
\A1;%%c19.05 [3/4]
  7
SLDTEXTSTYLE0
 11
-3.496765431890253E-15
 21
1.0
 31
0.0
 73
     1
 44
1.0
  0
POINT
  5
2B8
330
2B0
100
AcDbEntity
  8
Defpoints
 62
     0
100
AcDbPoint
 10
18.96250000000006
 20
32.00399991753314
 30
0.0
  0
POINT
  5
2B9
330
2B0
100
AcDbEntity
  8
Defpoints
 62
     0
100
AcDbPoint
 10
18.96250000000006
 20
12.95399991753312
 30
0.0
  0
POINT
  5
2BA
330
2B0
100
AcDbEntity
  8
Defpoints
 62
     0
100
AcDbPoint
 10
4.375000000000099
 20
12.95399991753307
 30
0.0
  0
ENDBLK
  5
2BB
330
2B0
100
AcDbEntity
  8
0
100
AcDbBlockEnd
  0
BLOCK
  5
2BE
330
2BD
100
AcDbEntity
  8
0
100
AcDbBlockBegin
  2
*D16
 70
     1
 10
0.0
 20
0.0
 30
0.0
  3
*D16
  1
*D13
  0
LINE
  5
2BF
330
2BD
100
AcDbEntity
  8
치수문자_일반주서
 62
     0
370
    -2
100
AcDbLine
 10
125.0075000000001
 20
38.41649983506591
 30
0.0
 11
125.0075000000001
 21
75.80479687044185
 31
0.0
  0
LINE
  5
2C0
330
2BD
100
AcDbEntity
  8
치수문자_일반주서
 62
     0
370
    -2
100
AcDbLine
 10
74.2075000000001
 20
37.82845636662923
 30
0.0
 11
74.2075000000001
 21
75.80479687044185
 31
0.0
  0
LINE
  5
2C1
330
2BD
100
AcDbEntity
  8
치수문자_일반주서
 62
     0
370
    -2
100
AcDbLine
 10
121.7055000000001
 20
75.80479687044185
 30
0.0
 11
77.50950000000009
 21
75.80479687044185
 31
0.0
  0
SOLID
  5
2C2
330
2BD
100
AcDbEntity
  8
치수문자_일반주서
 62
     0
100
AcDbTrace
 10
121.7055000000001
 20
75.25446353710852
 30
0.0
 11
121.7055000000001
 21
76.35513020377518
 31
0.0
 12
125.0075000000001
 22
75.80479687044185
 32
0.0
 13
125.0075000000001
 23
75.80479687044185
 33
0.0
  0
SOLID
  5
2C3
330
2BD
100
AcDbEntity
  8
치수문자_일반주서
 62
     0
100
AcDbTrace
 10
77.50950000000009
 20
76.35513020377518
 30
0.0
 11
77.50950000000009
 21
75.25446353710852
 31
0.0
 12
74.2075000000001
 22
75.80479687044185
 32
0.0
 13
74.2075000000001
 23
75.80479687044185
 33
0.0
  0
MTEXT
  5
2C4
330
2BD
100
AcDbEntity
  8
치수문자_일반주서
 62
     0
100
AcDbMText
 10
90.61166684534524
 20
80.17979687044185
 30
0.0
 40
3.5
 41
0.0
 71
     2
 72
     1
  1
\A1;50.8 [2]
  7
SLDTEXTSTYLE0
 73
     1
 44
1.0
  0
POINT
  5
2C5
330
2BD
100
AcDbEntity
  8
Defpoints
 62
     0
100
AcDbPoint
 10
125.0075000000001
 20
38.35399983506591
 30
0.0
  0
POINT
  5
2C6
330
2BD
100
AcDbEntity
  8
Defpoints
 62
     0
100
AcDbPoint
 10
74.2075000000001
 20
37.76595636662923
 30
0.0
  0
POINT
  5
2C7
330
2BD
100
AcDbEntity
  8
Defpoints
 62
     0
100
AcDbPoint
 10
74.2075000000001
 20
75.80479687044185
 30
0.0
  0
ENDBLK
  5
2C8
330
2BD
100
AcDbEntity
  8
0
100
AcDbBlockEnd
  0
BLOCK
  5
2CB
330
2CA
100
AcDbEntity
  8
0
100
AcDbBlockBegin
  2
*D17
 70
     1
 10
0.0
 20
0.0
 30
0.0
  3
*D17
  1
*D14
  0
LINE
  5
2CC
330
2CA
100
AcDbEntity
  8
치수문자_일반주서
 62
     0
370
    -2
100
AcDbLine
 10
125.0075000000001
 20
38.41649983506591
 30
0.0
 11
125.0075000000001
 21
95.80479676654643
 31
0.0
  0
LINE
  5
2CD
330
2CA
100
AcDbEntity
  8
치수문자_일반주서
 62
     0
370
    -2
100
AcDbLine
 10
17.05750000000006
 20
30.16149991753313
 30
0.0
 11
17.05750000000006
 21
95.80479676654643
 31
0.0
  0
LINE
  5
2CE
330
2CA
100
AcDbEntity
  8
치수문자_일반주서
 62
     0
370
    -2
100
AcDbLine
 10
121.7055000000001
 20
95.80479676654643
 30
0.0
 11
20.35950000000006
 21
95.80479676654643
 31
0.0
  0
SOLID
  5
2CF
330
2CA
100
AcDbEntity
  8
치수문자_일반주서
 62
     0
100
AcDbTrace
 10
121.7055000000001
 20
95.2544634332131
 30
0.0
 11
121.7055000000001
 21
96.35513009987976
 31
0.0
 12
125.0075000000001
 22
95.80479676654643
 32
0.0
 13
125.0075000000001
 23
95.80479676654643
 33
0.0
  0
SOLID
  5
2D0
330
2CA
100
AcDbEntity
  8
치수문자_일반주서
 62
     0
100
AcDbTrace
 10
20.35950000000006
 20
96.35513009987976
 30
0.0
 11
20.35950000000006
 21
95.2544634332131
 31
0.0
 12
17.05750000000006
 22
95.80479676654643
 32
0.0
 13
17.05750000000006
 23
95.80479676654643
 33
0.0
  0
MTEXT
  5
2D1
330
2CA
100
AcDbEntity
  8
치수문자_일반주서
 62
     0
100
AcDbMText
 10
63.10295737002116
 20
100.1797967665464
 30
0.0
 40
3.5
 41
0.0
 71
     2
 72
     1
  1
\A1;107.95 [4 1/4]
  7
SLDTEXTSTYLE0
 73
     1
 44
1.0
  0
POINT
  5
2D2
330
2CA
100
AcDbEntity
  8
Defpoints
 62
     0
100
AcDbPoint
 10
125.0075000000001
 20
38.35399983506591
 30
0.0
  0
POINT
  5
2D3
330
2CA
100
AcDbEntity
  8
Defpoints
 62
     0
100
AcDbPoint
 10
17.05750000000006
 20
30.09899991753313
 30
0.0
  0
POINT
  5
2D4
330
2CA
100
AcDbEntity
  8
Defpoints
 62
     0
100
AcDbPoint
 10
17.05750000000006
 20
95.80479676654643
 30
0.0
  0
ENDBLK
  5
2D5
330
2CA
100
AcDbEntity
  8
0
100
AcDbBlockEnd
  0
BLOCK
  5
2D8
330
2D7
100
AcDbEntity
  8
0
100
AcDbBlockBegin
  2
*D18
 70
     1
 10
0.0
 20
0.0
 30
0.0
  3
*D18
  1
*D15
  0
LINE
  5
2D9
330
2D7
100
AcDbEntity
  8
치수문자_일반주서
 62
     0
370
    -2
100
AcDbLine
 10
125.0700000000001
 20
38.35399983506591
 30
0.0
 11
154.0786956939313
 21
38.35399983506602
 31
0.0
  0
LINE
  5
2DA
330
2D7
100
AcDbEntity
  8
치수문자_일반주서
 62
     0
370
    -2
100
AcDbLine
 10
125.0700000000001
 20
6.60399999999988
 30
0.0
 11
154.0786956939314
 21
6.603999999999999
 31
0.0
  0
LINE
  5
2DB
330
2D7
100
AcDbEntity
  8
치수문자_일반주서
 62
     0
370
    -2
100
AcDbLine
 10
154.0786956939313
 20
38.35399983506602
 30
0.0
 11
154.0786956939311
 21
88.44399965667755
 31
0.0
  0
LINE
  5
2DC
330
2D7
100
AcDbEntity
  8
치수문자_일반주서
 62
     0
370
    -2
100
AcDbLine
 10
154.0786956939313
 20
38.35399983506602
 30
0.0
 11
154.0786956939314
 21
6.603999999999999
 31
0.0
  0
LINE
  5
2DD
330
2D7
100
AcDbEntity
  8
치수문자_일반주서
 62
     0
370
    -2
100
AcDbLine
 10
154.0786956939313
 20
41.65599983506602
 30
0.0
 11
154.0786956939313
 21
44.95799983506602
 31
0.0
  0
LINE
  5
2DE
330
2D7
100
AcDbEntity
  8
치수문자_일반주서
 62
     0
370
    -2
100
AcDbLine
 10
154.0786956939314
 20
3.302
 30
0.0
 11
154.0786956939314
 21
0.0
 31
0.0
  0
SOLID
  5
2DF
330
2D7
100
AcDbEntity
  8
치수문자_일반주서
 62
     0
100
AcDbTrace
 10
153.528362360598
 20
41.65599983506602
 30
0.0
 11
154.6290290272646
 21
41.65599983506602
 31
0.0
 12
154.0786956939313
 22
38.35399983506602
 32
0.0
 13
154.0786956939313
 23
38.35399983506602
 33
0.0
  0
SOLID
  5
2E0
330
2D7
100
AcDbEntity
  8
치수문자_일반주서
 62
     0
100
AcDbTrace
 10
154.6290290272647
 20
3.302000000000001
 30
0.0
 11
153.5283623605981
 21
3.301999999999998
 31
0.0
 12
154.0786956939314
 22
6.603999999999999
 32
0.0
 13
154.0786956939314
 23
6.603999999999999
 33
0.0
  0
MTEXT
  5
2E1
330
2D7
100
AcDbEntity
  8
치수문자_일반주서
 62
     0
100
AcDbMText
 10
149.7036956939312
 20
72.69399965667753
 30
0.0
 40
3.5
 41
0.0
 71
     2
 72
     1
  1
\A1;%%c31.75 [1 1/4]
  7
SLDTEXTSTYLE0
 11
-3.580687820856475E-15
 21
1.0
 31
0.0
 73
     1
 44
1.0
  0
POINT
  5
2E2
330
2D7
100
AcDbEntity
  8
Defpoints
 62
     0
100
AcDbPoint
 10
125.0075000000001
 20
38.35399983506591
 30
0.0
  0
POINT
  5
2E3
330
2D7
100
AcDbEntity
  8
Defpoints
 62
     0
100
AcDbPoint
 10
125.0075000000001
 20
6.60399999999988
 30
0.0
  0
POINT
  5
2E4
330
2D7
100
AcDbEntity
  8
Defpoints
 62
     0
100
AcDbPoint
 10
154.0786956939314
 20
6.603999999999989
 30
0.0
  0
ENDBLK
  5
2E5
330
2D7
100
AcDbEntity
  8
0
100
AcDbBlockEnd
  0
BLOCK
  5
336
330
335
100
AcDbEntity
  8
0
100
AcDbBlockBegin
  2
*D19
 70
     1
 10
0.0
 20
0.0
 30
0.0
  3
*D19
  1
*D21
  0
LINE
  5
338
330
335
100
AcDbEntity
  8
치수문자_일반주서
 62
     0
370
    -2
100
AcDbLine
 10
-53.30749999999992
 20
9.526074928723908
 30
0.0
 11
-67.83249999999995
 21
9.526074928723856
 31
0.0
  0
LINE
  5
339
330
335
100
AcDbEntity
  8
치수문자_일반주서
 62
     0
370
    -2
100
AcDbLine
 10
-53.30749999999992
 20
-9.523925071276103
 30
0.0
 11
-67.83249999999988
 21
-9.523925071276155
 31
0.0
  0
LINE
  5
33A
330
335
100
AcDbEntity
  8
치수문자_일반주서
 62
     0
370
    -2
100
AcDbLine
 10
-67.83249999999994
 20
6.224074928723857
 30
0.0
 11
-67.8324999999999
 21
-6.221925071276155
 31
0.0
  0
SOLID
  5
33B
330
335
100
AcDbEntity
  8
치수문자_일반주서
 62
     0
100
AcDbTrace
 10
-67.28216666666661
 20
6.224074928723859
 30
0.0
 11
-68.38283333333327
 21
6.224074928723855
 31
0.0
 12
-67.83249999999995
 22
9.526074928723856
 32
0.0
 13
-67.83249999999995
 23
9.526074928723856
 33
0.0
  0
SOLID
  5
33C
330
335
100
AcDbEntity
  8
치수문자_일반주서
 62
     0
100
AcDbTrace
 10
-68.38283333333322
 20
-6.221925071276157
 30
0.0
 11
-67.28216666666657
 21
-6.221925071276154
 31
0.0
 12
-67.83249999999988
 22
-9.523925071276155
 32
0.0
 13
-67.83249999999988
 23
-9.523925071276155
 33
0.0
  0
MTEXT
  5
33D
330
335
100
AcDbEntity
  8
치수문자_일반주서
 62
     0
100
AcDbMText
 10
-72.20749999999992
 20
0.0010749287239002
 30
0.0
 40
3.5
 41
0.0
 71
     2
 72
     1
  1
\A1;%%c19.05 [3/4]
  7
SLDTEXTSTYLE0
 11
-3.729883127349604E-15
 21
1.0
 31
0.0
 73
     1
 44
1.0
  0
POINT
  5
33E
330
335
100
AcDbEntity
  8
Defpoints
 62
     0
100
AcDbPoint
 10
-53.24499999999992
 20
9.526074928723908
 30
0.0
  0
POINT
  5
33F
330
335
100
AcDbEntity
  8
Defpoints
 62
     0
100
AcDbPoint
 10
-53.24499999999992
 20
-9.523925071276103
 30
0.0
  0
POINT
  5
340
330
335
100
AcDbEntity
  8
Defpoints
 62
     0
100
AcDbPoint
 10
-67.8324999999999
 20
-9.523925071276159
 30
0.0
  0
ENDBLK
  5
337
330
335
100
AcDbEntity
  8
0
100
AcDbBlockEnd
  0
BLOCK
  5
342
330
341
100
AcDbEntity
  8
0
100
AcDbBlockBegin
  2
*D20
 70
     1
 10
0.0
 20
0.0
 30
0.0
  3
*D20
  1
*D22
  0
LINE
  5
344
330
341
100
AcDbEntity
  8
치수문자_일반주서
 62
     0
370
    -2
100
AcDbLine
 10
263.484287913318
 20
-95.92312181679404
 30
0.0
 11
263.484287913318
 21
-58.5348247814181
 31
0.0
  0
LINE
  5
345
330
341
100
AcDbEntity
  8
치수문자_일반주서
 62
     0
370
    -2
100
AcDbLine
 10
212.684287913318
 20
-96.5111652852307
 30
0.0
 11
212.684287913318
 21
-58.5348247814181
 31
0.0
  0
LINE
  5
346
330
341
100
AcDbEntity
  8
치수문자_일반주서
 62
     0
370
    -2
100
AcDbLine
 10
260.182287913318
 20
-58.5348247814181
 30
0.0
 11
215.986287913318
 21
-58.5348247814181
 31
0.0
  0
SOLID
  5
347
330
341
100
AcDbEntity
  8
치수문자_일반주서
 62
     0
100
AcDbTrace
 10
260.182287913318
 20
-59.08515811475143
 30
0.0
 11
260.182287913318
 21
-57.98449144808476
 31
0.0
 12
263.484287913318
 22
-58.5348247814181
 32
0.0
 13
263.484287913318
 23
-58.5348247814181
 33
0.0
  0
SOLID
  5
348
330
341
100
AcDbEntity
  8
치수문자_일반주서
 62
     0
100
AcDbTrace
 10
215.986287913318
 20
-57.98449144808476
 30
0.0
 11
215.986287913318
 21
-59.08515811475143
 31
0.0
 12
212.684287913318
 22
-58.5348247814181
 32
0.0
 13
212.684287913318
 23
-58.5348247814181
 33
0.0
  0
MTEXT
  5
349
330
341
100
AcDbEntity
  8
치수문자_일반주서
 62
     0
100
AcDbMText
 10
229.0884547586632
 20
-54.1598247814181
 30
0.0
 40
3.5
 41
0.0
 71
     2
 72
     1
  1
\A1;50.8 [2]
  7
SLDTEXTSTYLE0
 73
     1
 44
1.0
  0
POINT
  5
34A
330
341
100
AcDbEntity
  8
Defpoints
 62
     0
100
AcDbPoint
 10
263.484287913318
 20
-95.98562181679404
 30
0.0
  0
POINT
  5
34B
330
341
100
AcDbEntity
  8
Defpoints
 62
     0
100
AcDbPoint
 10
212.684287913318
 20
-96.5736652852307
 30
0.0
  0
POINT
  5
34C
330
341
100
AcDbEntity
  8
Defpoints
 62
     0
100
AcDbPoint
 10
212.684287913318
 20
-58.5348247814181
 30
0.0
  0
ENDBLK
  5
343
330
341
100
AcDbEntity
  8
0
100
AcDbBlockEnd
  0
BLOCK
  5
34E
330
34D
100
AcDbEntity
  8
0
100
AcDbBlockBegin
  2
*D21
 70
     1
 10
0.0
 20
0.0
 30
0.0
  3
*D21
  1
*D23
  0
LINE
  5
350
330
34D
100
AcDbEntity
  8
치수문자_일반주서
 62
     0
370
    -2
100
AcDbLine
 10
256.0364426686176
 20
0.0719502580810314
 30
0.0
 11
256.0364426686176
 21
57.46024718956156
 31
0.0
  0
LINE
  5
351
330
34D
100
AcDbEntity
  8
치수문자_일반주서
 62
     0
370
    -2
100
AcDbLine
 10
148.0864426686176
 20
-8.18304965945174
 30
0.0
 11
148.0864426686176
 21
57.46024718956156
 31
0.0
  0
LINE
  5
352
330
34D
100
AcDbEntity
  8
치수문자_일반주서
 62
     0
370
    -2
100
AcDbLine
 10
252.7344426686176
 20
57.46024718956156
 30
0.0
 11
151.3884426686176
 21
57.46024718956156
 31
0.0
  0
SOLID
  5
353
330
34D
100
AcDbEntity
  8
치수문자_일반주서
 62
     0
100
AcDbTrace
 10
252.7344426686176
 20
56.90991385622822
 30
0.0
 11
252.7344426686176
 21
58.01058052289489
 31
0.0
 12
256.0364426686176
 22
57.46024718956156
 32
0.0
 13
256.0364426686176
 23
57.46024718956156
 33
0.0
  0
SOLID
  5
354
330
34D
100
AcDbEntity
  8
치수문자_일반주서
 62
     0
100
AcDbTrace
 10
151.3884426686176
 20
58.01058052289489
 30
0.0
 11
151.3884426686176
 21
56.90991385622822
 31
0.0
 12
148.0864426686176
 22
57.46024718956156
 32
0.0
 13
148.0864426686176
 23
57.46024718956156
 33
0.0
  0
MTEXT
  5
355
330
34D
100
AcDbEntity
  8
치수문자_일반주서
 62
     0
100
AcDbMText
 10
194.1319000386387
 20
61.83524718956156
 30
0.0
 40
3.5
 41
0.0
 71
     2
 72
     1
  1
\A1;107.95 [4 1/4]
  7
SLDTEXTSTYLE0
 73
     1
 44
1.0
  0
POINT
  5
356
330
34D
100
AcDbEntity
  8
Defpoints
 62
     0
100
AcDbPoint
 10
256.0364426686176
 20
0.0094502580810314
 30
0.0
  0
POINT
  5
357
330
34D
100
AcDbEntity
  8
Defpoints
 62
     0
100
AcDbPoint
 10
148.0864426686176
 20
-8.24554965945174
 30
0.0
  0
POINT
  5
358
330
34D
100
AcDbEntity
  8
Defpoints
 62
     0
100
AcDbPoint
 10
148.0864426686176
 20
57.46024718956156
 30
0.0
  0
ENDBLK
  5
34F
330
34D
100
AcDbEntity
  8
0
100
AcDbBlockEnd
  0
BLOCK
  5
35A
330
359
100
AcDbEntity
  8
0
100
AcDbBlockBegin
  2
*D22
 70
     1
 10
0.0
 20
0.0
 30
0.0
  3
*D22
  1
*D24
  0
LINE
  5
35C
330
359
100
AcDbEntity
  8
치수문자_일반주서
 62
     0
370
    -2
100
AcDbLine
 10
263.546787913318
 20
-95.98562181679404
 30
0.0
 11
292.5554836072492
 21
-95.98562181679392
 31
0.0
  0
LINE
  5
35D
330
359
100
AcDbEntity
  8
치수문자_일반주서
 62
     0
370
    -2
100
AcDbLine
 10
263.546787913318
 20
-127.7356216518601
 30
0.0
 11
292.5554836072494
 21
-127.7356216518599
 31
0.0
  0
LINE
  5
35E
330
359
100
AcDbEntity
  8
치수문자_일반주서
 62
     0
370
    -2
100
AcDbLine
 10
292.5554836072492
 20
-95.98562181679392
 30
0.0
 11
292.5554836072491
 21
-45.8956219951824
 31
0.0
  0
LINE
  5
35F
330
359
100
AcDbEntity
  8
치수문자_일반주서
 62
     0
370
    -2
100
AcDbLine
 10
292.5554836072492
 20
-95.98562181679392
 30
0.0
 11
292.5554836072494
 21
-127.7356216518599
 31
0.0
  0
LINE
  5
360
330
359
100
AcDbEntity
  8
치수문자_일반주서
 62
     0
370
    -2
100
AcDbLine
 10
292.5554836072492
 20
-92.68362181679393
 30
0.0
 11
292.5554836072492
 21
-89.38162181679394
 31
0.0
  0
LINE
  5
361
330
359
100
AcDbEntity
  8
치수문자_일반주서
 62
     0
370
    -2
100
AcDbLine
 10
292.5554836072494
 20
-131.03762165186
 30
0.0
 11
292.5554836072494
 21
-134.3396216518599
 31
0.0
  0
SOLID
  5
362
330
359
100
AcDbEntity
  8
치수문자_일반주서
 62
     0
100
AcDbTrace
 10
292.0051502739159
 20
-92.68362181679393
 30
0.0
 11
293.1058169405826
 21
-92.68362181679393
 31
0.0
 12
292.5554836072492
 22
-95.98562181679392
 32
0.0
 13
292.5554836072492
 23
-95.98562181679392
 33
0.0
  0
SOLID
  5
363
330
359
100
AcDbEntity
  8
치수문자_일반주서
 62
     0
100
AcDbTrace
 10
293.1058169405827
 20
-131.03762165186
 30
0.0
 11
292.005150273916
 21
-131.03762165186
 31
0.0
 12
292.5554836072494
 22
-127.7356216518599
 32
0.0
 13
292.5554836072494
 23
-127.7356216518599
 33
0.0
  0
MTEXT
  5
364
330
359
100
AcDbEntity
  8
치수문자_일반주서
 62
     0
100
AcDbMText
 10
288.1804836072491
 20
-61.64562199518241
 30
0.0
 40
3.5
 41
0.0
 71
     2
 72
     1
  1
\A1;%%c31.75 [1 1/4]
  7
SLDTEXTSTYLE0
 11
-3.580687820856476E-15
 21
1.0
 31
0.0
 73
     1
 44
1.0
  0
POINT
  5
365
330
359
100
AcDbEntity
  8
Defpoints
 62
     0
100
AcDbPoint
 10
263.484287913318
 20
-95.98562181679404
 30
0.0
  0
POINT
  5
366
330
359
100
AcDbEntity
  8
Defpoints
 62
     0
100
AcDbPoint
 10
263.484287913318
 20
-127.7356216518601
 30
0.0
  0
POINT
  5
367
330
359
100
AcDbEntity
  8
Defpoints
 62
     0
100
AcDbPoint
 10
292.5554836072494
 20
-127.7356216518599
 30
0.0
  0
ENDBLK
  5
35B
330
359
100
AcDbEntity
  8
0
100
AcDbBlockEnd
  0
BLOCK
  5
370
330
36F
100
AcDbEntity
  8
0
100
AcDbBlockBegin
  2
*D23
 70
     1
 10
0.0
 20
0.0
 30
0.0
  3
*D23
  1
*D25
  0
LINE
  5
372
330
36F
100
AcDbEntity
  8
치수문자_일반주서
 62
     0
370
    -2
100
AcDbLine
 10
-55.14999999999992
 20
7.683574928723907
 30
0.0
 11
-55.14999999999992
 21
55.08783680626906
 31
0.0
  0
LINE
  5
373
330
36F
100
AcDbEntity
  8
치수문자_일반주서
 62
     0
370
    -2
100
AcDbLine
 10
49.62500000000006
 20
10.38232492872381
 30
0.0
 11
49.62500000000006
 21
55.08783680626906
 31
0.0
  0
LINE
  5
374
330
36F
100
AcDbEntity
  8
치수문자_일반주서
 62
     0
370
    -2
100
AcDbLine
 10
-51.84799999999992
 20
55.08783680626906
 30
0.0
 11
46.32300000000006
 21
55.08783680626906
 31
0.0
  0
SOLID
  5
375
330
36F
100
AcDbEntity
  8
치수문자_일반주서
 62
     0
100
AcDbTrace
 10
-51.84799999999992
 20
55.63817013960239
 30
0.0
 11
-51.84799999999992
 21
54.53750347293573
 31
0.0
 12
-55.14999999999992
 22
55.08783680626906
 32
0.0
 13
-55.14999999999992
 23
55.08783680626906
 33
0.0
  0
SOLID
  5
376
330
36F
100
AcDbEntity
  8
치수문자_일반주서
 62
     0
100
AcDbTrace
 10
46.32300000000006
 20
54.53750347293573
 30
0.0
 11
46.32300000000006
 21
55.63817013960239
 31
0.0
 12
49.62500000000006
 22
55.08783680626906
 32
0.0
 13
49.62500000000006
 23
55.08783680626906
 33
0.0
  0
MTEXT
  5
377
330
36F
100
AcDbEntity
  8
치수문자_일반주서
 62
     0
100
AcDbMText
 10
-2.762499999999932
 20
57.71283680626906
 30
0.0
 40
3.5
 41
0.0
 71
     5
 72
     1
  1
\A1;104.78 [4 1/8]
  7
SLDTEXTSTYLE0
 73
     1
 44
1.0
  0
POINT
  5
378
330
36F
100
AcDbEntity
  8
Defpoints
 62
     0
100
AcDbPoint
 10
-55.14999999999992
 20
7.621074928723907
 30
0.0
  0
POINT
  5
379
330
36F
100
AcDbEntity
  8
Defpoints
 62
     0
100
AcDbPoint
 10
49.62500000000006
 20
10.31982492872381
 30
0.0
  0
POINT
  5
37A
330
36F
100
AcDbEntity
  8
Defpoints
 62
     0
100
AcDbPoint
 10
49.62500000000006
 20
55.08783680626906
 30
0.0
  0
ENDBLK
  5
371
330
36F
100
AcDbEntity
  8
0
100
AcDbBlockEnd
  0
ENDSEC
  0
SECTION
  2
ENTITIES
  0
LINE
  5
C1
330
1F
100
AcDbEntity
  8
참조1
100
AcDbLine
 10
18.41194598552359
 20
0.0010749287238892
 30
0.0
 11
18.4119459855236
 21
-39.99892507127611
 31
0.0
  0
LINE
  5
C2
330
1F
100
AcDbEntity
  8
참조1
100
AcDbLine
 10
18.4119459855236
 20
-39.99892507127611
 30
0.0
 11
3.253089171214916
 21
-39.9989250712761
 31
0.0
  0
INSERT
  5
C4
330
1F
100
AcDbEntity
  8
0
  6
Continuous
 62
     7
100
AcDbBlockReference
 66
     1
  2
블럭10
 10
-16.69438202579112
 20
-52.04609937292004
 30
0.0
  0
ATTRIB
  5
C5
330
C4
100
AcDbEntity
  8
FORMAT
 62
     2
100
AcDbText
 10
-25.8756773145324
 20
-49.97073246008785
 30
0.0
 40
4.233333333333333
  1
E1032909 [ 6 FLUTE ]
 41
0.75
  7
SLDTEXTSTYLE0
 11
-25.8756773145324
 21
-52.08739912675452
 31
0.0
100
AcDbAttribute
  2
AUTOATTR0
 70
     0
 74
     1
  0
SEQEND
  5
C6
330
C4
100
AcDbEntity
  8
0
  6
Continuous
 62
     7
  0
HATCH
  5
C7
330
1F
100
AcDbEntity
  8
중심선
100
AcDbHatch
 10
0.0
 20
0.0
 30
0.0
210
0.0
220
0.0
230
1.0
  2
SOLID
 70
     1
 71
     0
 91
        1
 92
        0
 93
        4
 72
     1
 10
-10.97947272141028
 20
-35.7989250712761
 11
-14.42574796524756
 21
-35.7989250712761
 72
     1
 10
-14.42574796524756
 20
-35.7989250712761
 11
-16.55397782445159
 21
-38.3352506518487
 72
     1
 10
-16.55397782445159
 20
-38.3352506518487
 11
-13.10766949550115
 21
-38.33521122254621
 72
     1
 10
-13.10766949550116
 20
-38.33521122254621
 11
-10.97947272141028
 21
-35.7989250712761
 97
        0
 75
     0
 76
     1
 98
        1
 10
-21.1660550791895
 20
0.0
  0
HATCH
  5
C8
330
1F
100
AcDbEntity
  8
중심선
100
AcDbHatch
 10
0.0
 20
0.0
 30
0.0
210
0.0
220
0.0
230
1.0
  2
SOLID
 70
     1
 71
     0
 91
        1
 92
        0
 93
        4
 72
     1
 10
-5.966708730374304
 20
-35.7989250712761
 11
-9.412983974211585
 21
-35.7989250712761
 72
     1
 10
-9.412983974211585
 20
-35.7989250712761
 11
-13.944121982569
 21
-41.19892507127612
 72
     1
 10
-13.944121982569
 20
-41.19892507127612
 11
-10.49784673873172
 21
-41.19892507127612
 72
     1
 10
-10.49784673873172
 20
-41.19892507127612
 11
-5.966708730374304
 21
-35.7989250712761
 97
        0
 75
     0
 76
     1
 98
        1
 10
-21.1660550791895
 20
0.0
  0
HATCH
  5
C9
330
1F
100
AcDbEntity
  8
중심선
100
AcDbHatch
 10
0.0
 20
0.0
 30
0.0
210
0.0
220
0.0
230
1.0
  2
SOLID
 70
     1
 71
     0
 91
        1
 92
        0
 93
        4
 72
     1
 10
-0.9539447393384357
 20
-35.7989250712761
 11
-4.40021998317555
 21
-35.7989250712761
 72
     1
 10
-4.40021998317555
 20
-35.7989250712761
 11
-11.4486568850648
 21
-44.19892507127612
 72
     1
 10
-11.4486568850648
 20
-44.19892507127612
 11
-8.002381641227519
 21
-44.19892507127612
 72
     1
 10
-8.002381641227519
 20
-44.19892507127612
 11
-0.9539447393384357
 21
-35.7989250712761
 97
        0
 75
     0
 76
     1
 98
        1
 10
-21.1660550791895
 20
0.0
  0
HATCH
  5
CA
330
1F
100
AcDbEntity
  8
중심선
100
AcDbHatch
 10
0.0
 20
0.0
 30
0.0
210
0.0
220
0.0
230
1.0
  2
SOLID
 70
     1
 71
     0
 91
        1
 92
        0
 93
        6
 72
     3
 10
3.845945691673762
 20
-39.99892507132738
 11
3.960054785062283
 21
1.540882976769353E-10
 40
0.3939339440162628
 50
17.09539180608436
 51
320.0019657685075
 73
     0
 72
     1
 10
5.528945347374361
 20
-38.58681907591438
 11
7.834247221075398
 21
-36.65249236586649
 72
     3
 10
3.845945691620916
 20
-39.99892507127625
 11
6.600054785286829
 21
-1.278976924368180E-13
 40
0.636358354079598
 50
39.99873849337408
 51
368.4976242363724
 73
     1
 72
     1
 10
10.27127818352153
 20
-39.03892507120613
 11
2.526012998456839
 21
-39.0389250712061
 72
     1
 10
2.526012998456839
 20
-39.0389250712061
 11
2.525987954010905
 21
-40.95892507120602
 72
     1
 10
2.525987954010905
 20
-40.95892507120602
 11
6.967367723482944
 21
-40.95892507120599
 97
        0
 75
     0
 76
     1
 98
        1
 10
-21.1660550791895
 20
0.0
  0
LINE
  5
11B
330
1F
100
AcDbEntity
  8
참조1
100
AcDbLine
 10
101.2254298008692
 20
7.441074928723896
 30
0.0
 11
101.2254298008692
 21
-7.438925071276109
 31
0.0
  0
LINE
  5
11C
330
1F
100
AcDbEntity
  8
참조1
100
AcDbLine
 10
113.9254298008692
 20
5.441074928723896
 30
0.0
 11
101.2254298008692
 21
5.441074928723896
 31
0.0
  0
SOLID
  5
11D
330
1F
100
AcDbEntity
  8
참조1
100
AcDbTrace
 10
101.2254298008692
 20
5.441074928723896
 30
0.0
 11
107.5754298008692
 21
4.425074928723896
 31
0.0
 12
107.5754298008692
 22
6.457074928723896
 32
0.0
 13
107.5754298008692
 23
6.457074928723896
 33
0.0
  0
LINE
  5
11E
330
1F
100
AcDbEntity
  8
참조1
100
AcDbLine
 10
113.9254298008692
 20
-5.438925071276109
 30
0.0
 11
101.2254298008692
 21
-5.438925071276109
 31
0.0
  0
SOLID
  5
11F
330
1F
100
AcDbEntity
  8
참조1
100
AcDbTrace
 10
101.2254298008692
 20
-5.438925071276109
 30
0.0
 11
107.5754298008692
 21
-6.454925071276109
 31
0.0
 12
107.5754298008692
 22
-4.422925071276109
 32
0.0
 13
107.5754298008692
 23
-4.422925071276109
 33
0.0
  0
MTEXT
  5
120
330
1F
100
AcDbEntity
  8
참조1
100
AcDbMText
 10
110.6229198933395
 20
10.98929157337383
 30
0.0
 40
3.5
 41
0.0
 71
     1
 72
     1
  1
A
  7
SLDTEXTSTYLE0
 73
     1
 44
1.0
  0
MTEXT
  5
121
330
1F
100
AcDbEntity
  8
참조1
100
AcDbMText
 10
110.6229198933395
 20
0.1092915733738259
 30
0.0
 40
3.5
 41
0.0
 71
     1
 72
     1
  1
A
  7
SLDTEXTSTYLE0
 73
     1
 44
1.0
  0
LINE
  5
1F1
330
1F
100
AcDbEntity
  8
0
  6
Continuous
 62
     1
370
    15
100
AcDbLine
 10
48.37656724345862
 20
-10.31767507127621
 30
0.0
 11
49.62500000000006
 21
-10.31767507127621
 31
0.0
  0
LINE
  5
1F2
330
1F
100
AcDbEntity
  8
0
  6
Continuous
 62
     1
370
    15
100
AcDbLine
 10
18.45603277441217
 20
10.31982492872381
 30
0.0
 11
15.95974926801728
 21
10.31982492872381
 31
0.0
  0
LINE
  5
1F3
330
1F
100
AcDbEntity
  8
0
  6
Continuous
 62
     1
370
    15
100
AcDbLine
 10
37.57080933213103
 20
-10.31767507127621
 30
0.0
 11
40.06719014228122
 21
-10.31767507127621
 31
0.0
  0
LINE
  5
1F4
330
1F
100
AcDbEntity
  8
0
  6
Continuous
 62
     1
370
    15
100
AcDbLine
 10
7.649828119160986
 20
10.31982492872381
 30
0.0
 11
5.153949496340431
 21
10.31982492872381
 31
0.0
  0
LINE
  5
1F5
330
1F
100
AcDbEntity
  8
0
  6
Continuous
 62
     1
370
    15
100
AcDbLine
 10
15.95974926801728
 20
-10.31767507127621
 30
0.0
 11
18.45603277441211
 21
-10.31767507127621
 31
0.0
  0
LINE
  5
1F6
330
1F
100
AcDbEntity
  8
0
  6
Continuous
 62
     1
370
    15
100
AcDbLine
 10
29.26136631101502
 20
10.31982492872381
 30
0.0
 11
26.76583951477301
 21
10.31982492872381
 31
0.0
  0
LINE
  5
1F7
330
1F
100
AcDbEntity
  8
0
  6
Continuous
 62
     1
370
    15
100
AcDbLine
 10
26.76583951477289
 20
-10.31767507127621
 30
0.0
 11
29.26136631101491
 21
-10.31767507127621
 31
0.0
  0
LINE
  5
1F8
330
1F
100
AcDbEntity
  8
0
  6
Continuous
 62
     1
370
    15
100
AcDbLine
 10
5.153949496340488
 20
-10.31767507127621
 30
0.0
 11
7.649828119160986
 21
-10.31767507127621
 31
0.0
  0
LINE
  5
1F9
330
1F
100
AcDbEntity
  8
0
  6
Continuous
 62
     1
370
    15
100
AcDbLine
 10
40.06719014228128
 20
10.31982492872381
 30
0.0
 11
37.57080933213115
 21
10.31982492872381
 31
0.0
  0
SPLINE
  5
1FD
330
1F
100
AcDbEntity
  8
0
  6
Continuous
 62
     1
370
    15
100
AcDbSpline
210
0.0
220
0.0
230
1.0
 70
     8
 71
     3
 72
    28
 73
    24
 74
     0
 42
0.000000001
 43
0.00000001
 40
0.0
 40
0.0
 40
0.0
 40
0.0
 40
0.0460980243383029
 40
0.0930242935698783
 40
0.1400416455514777
 40
0.1869880401932891
 40
0.2339050287539844
 40
0.2809085847499204
 40
0.3278767217786905
 40
0.374789876280774
 40
0.4217684037461683
 40
0.4687629124399597
 40
0.5156776835792718
 40
0.5626322717518637
 40
0.6096454598361613
 40
0.6565672965865893
 40
0.7035033520793994
 40
0.7505232112534054
 40
0.7974575550647895
 40
0.8460071952872787
 40
0.8946376637923384
 40
0.9432352605891055
 40
0.9726217910249417
 40
0.9726217910249417
 40
0.9726217910249417
 40
0.9726217910249417
 10
37.57080933213109
 20
-10.31519304922141
 30
0.0
 10
37.00896264746711
 20
-10.28964982776894
 30
0.0
 10
35.87517455815822
 20
-10.23810444886777
 30
0.0
 10
34.16927751817607
 20
-9.802586415162779
 30
0.0
 10
32.4496677607498
 20
-9.116015239310926
 30
0.0
 10
30.73273637437399
 20
-8.17087802945143
 30
0.0
 10
29.0168697132512
 20
-7.000633593672148
 30
0.0
 10
27.29782050566814
 20
-5.638436492455597
 30
0.0
 10
25.58008968450503
 20
-4.119651492536519
 30
0.0
 10
23.86437650993582
 20
-2.485567775104435
 30
0.0
 10
22.14626284482574
 20
-0.7844231558501917
 30
0.0
 10
20.42755089429608
 20
0.9378558040603764
 30
0.0
 10
18.71177287400883
 20
2.636562691724635
 30
0.0
 10
16.9945323374597
 20
4.261370411024075
 30
0.0
 10
15.2751249125393
 20
5.766766453029319
 30
0.0
 10
13.55907794516577
 20
7.11527506096062
 30
0.0
 10
11.84251519758294
 20
8.266610830875749
 30
0.0
 10
10.12283927266645
 20
9.187924472379336
 30
0.0
 10
8.386591376869376
 20
9.865052340655474
 30
0.0
 10
6.630707510821594
 20
10.26416036428252
 30
0.0
 10
4.852084812469514
 20
10.37075908150897
 30
0.0
 10
3.308170378554451
 20
10.17504703168637
 30
0.0
 10
2.358074662441936
 20
9.966078016326641
 30
0.0
 10
2.000000000000057
 20
9.858718000931596
 30
0.0
  0
LINE
  5
1FE
330
1F
100
AcDbEntity
  8
0
  6
Continuous
 62
     1
370
    15
100
AcDbLine
 10
49.62500000000006
 20
-4.04303263661113
 30
0.0
 11
49.62500000000006
 21
4.045182494058928
 31
0.0
  0
SPLINE
  5
1FF
330
1F
100
AcDbEntity
  8
0
  6
Continuous
 62
     1
370
    15
100
AcDbSpline
210
0.0
220
0.0
230
1.0
 70
     8
 71
     3
 72
    19
 73
    15
 74
     0
 42
0.000000001
 43
0.00000001
 40
0.0
 40
0.0
 40
0.0
 40
0.0
 40
0.0722759199688564
 40
0.1565884402225332
 40
0.2410283950149806
 40
0.325304771405619
 40
0.409587969365355
 40
0.4940311247146566
 40
0.5783339325550356
 40
0.6625975649590727
 40
0.7470223404917795
 40
0.8313613156584226
 40
0.9156151600725297
 40
0.9999999999999999
 40
0.9999999999999999
 40
0.9999999999999999
 40
0.9999999999999999
 10
29.26136631101502
 20
10.30243002629471
 30
0.0
 10
29.75174758300807
 20
10.28921624966284
 30
0.0
 10
30.81417665383583
 20
10.26058811634924
 30
0.0
 10
32.44964329328766
 20
9.871158973893117
 30
0.0
 10
34.16924924002961
 20
9.21897806731976
 30
0.0
 10
35.88544718901454
 20
8.303249863949489
 30
0.0
 10
37.60179964907684
 20
7.159767517324333
 30
0.0
 10
39.32142709386397
 20
5.820146689204037
 30
0.0
 10
41.03817516686172
 20
4.31781999783815
 30
0.0
 10
42.7541209363788
 20
2.695615728227153
 30
0.0
 10
44.47336979410517
 20
1.001090806946458
 30
0.0
 10
46.1908459148928
 20
-0.7205123697113152
 30
0.0
 10
47.90658234660509
 20
-2.431345107389049
 30
0.0
 10
49.05189756207784
 20
-3.505525325544312
 30
0.0
 10
49.62500000000006
 20
-4.04303263661113
 30
0.0
  0
SPLINE
  5
200
330
1F
100
AcDbEntity
  8
외형선
  6
Continuous
370
    15
100
AcDbSpline
210
0.0
220
0.0
230
1.0
 70
    24
 71
     3
 72
    13
 73
     9
 74
     0
 42
0.000000001
 43
0.00000001
 40
0.0
 40
0.0
 40
0.0
 40
0.0
 40
0.0406593074072016
 40
0.2156839830437705
 40
0.3957843861308172
 40
0.5708090617673585
 40
0.7509094648543753
 40
1.0
 40
1.0
 40
1.0
 40
1.0
 10
2.000000000000057
 20
-5.059841835583313
 30
0.0
 10
2.000000000000057
 20
-5.090427144486263
 30
0.0
 10
2.000000000000057
 20
-5.252671945676461
 30
0.0
 10
2.000000000000057
 20
-5.605232027052544
 30
0.0
 10
2.000000000000057
 20
-6.099581793152602
 30
0.0
 10
2.0
 20
-6.628846164698651
 30
0.0
 10
2.000000000000057
 20
-7.239643391209661
 30
0.0
 10
2.000000000000057
 20
-7.662456624429858
 30
0.0
 10
2.000000000000057
 20
-7.907845716201365
 30
0.0
  0
SPLINE
  5
201
330
1F
100
AcDbEntity
  8
0
  6
Continuous
 62
     1
370
    15
100
AcDbSpline
210
0.0
220
0.0
230
1.0
 70
     8
 71
     3
 72
    17
 73
    13
 74
     0
 42
0.000000001
 43
0.00000001
 40
0.0
 40
0.0
 40
0.0
 40
0.0
 40
0.1060178467885482
 40
0.2118711158842586
 40
0.3178313399624892
 40
0.4238993602997569
 40
0.5297649266471752
 40
0.6356797114965324
 40
0.7417708235239838
 40
0.8476609712783006
 40
0.9535425486772299
 40
1.0
 40
1.0
 40
1.0
 40
1.0
 10
49.62500000000006
 20
4.045182494058928
 30
0.0
 10
49.05189756254941
 20
4.561097428570591
 30
0.0
 10
47.90658234801913
 20
5.592126412722237
 30
0.0
 10
46.19084590924422
 20
6.956300819159885
 30
0.0
 10
44.47336981532135
 20
8.135188043092612
 30
0.0
 10
42.75412085714828
 20
9.08629467690686
 30
0.0
 10
41.03817546198036
 20
9.788595624226936
 30
0.0
 10
39.32142599105094
 20
10.21853494244144
 30
0.0
 10
37.60180376911251
 20
10.37006125429647
 30
0.0
 10
35.88543184663979
 20
10.21998424063869
 30
0.0
 10
34.4912480102505
 20
9.914433128944609
 30
0.0
 10
33.66754318841561
 20
9.56768408856221
 30
0.0
 10
33.41634540288533
 20
9.46193917998589
 30
0.0
  0
SPLINE
  5
202
330
1F
100
AcDbEntity
  8
0
  6
Continuous
 62
     1
370
    15
100
AcDbSpline
210
0.0
220
0.0
230
1.0
 70
     8
 71
     3
 72
    10
 73
     6
 74
     0
 42
0.000000001
 43
0.00000001
 40
0.0
 40
0.0
 40
0.0
 40
0.0
 40
0.0328693927283761
 40
0.2263498805043598
 40
0.3433361435890701
 40
0.3433361435890701
 40
0.3433361435890701
 40
0.3433361435890701
 10
5.153949496340488
 20
-10.29612013221067
 30
0.0
 10
5.053250502174365
 20
-10.30295122861337
 30
0.0
 10
4.359802786703256
 20
-10.3499924948528
 30
0.0
 10
3.308260371690551
 20
-10.17937120146182
 30
0.0
 10
2.35804639690474
 20
-9.94141327672768
 30
0.0
 10
2.000000000000057
 20
-9.835342537049954
 30
0.0
  0
LINE
  5
203
330
1F
100
AcDbEntity
  8
0
  6
Continuous
 62
     1
370
    15
100
AcDbLine
 10
49.62500000000006
 20
-10.24237451842033
 30
0.0
 11
49.62500000000006
 21
-6.198266953085238
 31
0.0
  0
SPLINE
  5
204
330
1F
100
AcDbEntity
  8
0
  6
Continuous
 62
     1
370
    15
100
AcDbSpline
210
0.0
220
0.0
230
1.0
 70
     8
 71
     3
 72
    26
 73
    22
 74
     0
 42
0.000000001
 43
0.00000001
 40
0.0
 40
0.0
 40
0.0
 40
0.0
 40
0.0082142928388025
 40
0.063261770216118
 40
0.1184028077050951
 40
0.1735250936092871
 40
0.2285706741042536
 40
0.2836807683828431
 40
0.3388324215297031
 40
0.3938825007198482
 40
0.4489670835544882
 40
0.5041349242301438
 40
0.5591958929015313
 40
0.6142613183639968
 40
0.6694312500854261
 40
0.7245094874302952
 40
0.7795621299695321
 40
0.834720053456281
 40
0.8898219202938223
 40
0.9448681679661942
 40
1.0
 40
1.0
 40
1.0
 40
1.0
 10
18.45603277441217
 20
10.30172066005876
 30
0.0
 10
18.54137669305635
 20
10.30751728137651
 30
0.0
 10
19.19864658549363
 20
10.35215953275833
 30
0.0
 10
20.42745884030523
 20
10.16141077023406
 30
0.0
 10
22.14628752350211
 20
9.716021579423114
 30
0.0
 10
23.8643698958918
 20
8.975093011739673
 30
0.0
 10
25.58009150594654
 20
7.992406462000666
 30
0.0
 10
27.29781983753287
 20
6.787610580782633
 30
0.0
 10
29.01687056159074
 20
5.396910828825739
 30
0.0
 10
30.73273365320807
 20
3.854713341428422
 30
0.0
 10
32.44967781242275
 20
2.206577956220166
 30
0.0
 10
34.16924000477269
 20
0.4998575821125257
 30
0.0
 10
35.88544966164244
 20
-1.223559961575184
 30
0.0
 10
37.60179898507829
 20
-2.912986816727525
 30
0.0
 10
39.32142727159697
 20
-4.519131431226228
 30
0.0
 10
41.03817511929941
 20
-6.002908835139081
 30
0.0
 10
42.7541209491479
 20
-7.320544936246094
 30
0.0
 10
44.47336979068598
 20
-8.4353747515689
 30
0.0
 10
46.19084591580315
 20
-9.31281576430834
 30
0.0
 10
47.90658234637723
 20
-9.953369554308935
 30
0.0
 10
49.05189756200184
 20
-10.1459896557668
 30
0.0
 10
49.62500000000011
 20
-10.24237451842033
 30
0.0
  0
SPLINE
  5
205
330
1F
100
AcDbEntity
  8
0
  6
Continuous
 62
     1
370
    15
100
AcDbSpline
210
0.0
220
0.0
230
1.0
 70
     8
 71
     3
 72
    23
 73
    19
 74
     0
 42
0.000000001
 43
0.00000001
 40
0.0
 40
0.0
 40
0.0
 40
0.0
 40
0.0636133632987272
 40
0.12712797585989
 40
0.1907067640892611
 40
0.2543502327738206
 40
0.3178722239939938
 40
0.3814237475480116
 40
0.4450810718250146
 40
0.5086178125049703
 40
0.5721494107570481
 40
0.6358043222998898
 40
0.6993631675396084
 40
0.762882201062729
 40
0.8265184347725998
 40
0.8901067161600438
 40
0.9536205589046222
 40
0.9999999999999999
 40
0.9999999999999999
 40
0.9999999999999999
 40
0.9999999999999999
 10
49.62500000000006
 20
-6.198266953085238
 30
0.0
 10
49.05189756200207
 20
-5.724044437658634
 30
0.0
 10
47.906582346378
 20
-4.776335570100983
 30
0.0
 10
46.19084591579957
 20
-3.174659296362208
 30
0.0
 10
44.47336979069905
 20
-1.498526438105081
 30
0.0
 10
42.75412094909893
 20
0.2206884406631886
 30
0.0
 10
41.03817511948159
 20
1.935740912131514
 30
0.0
 10
39.32142727091573
 20
3.596935875631949
 30
0.0
 10
37.6017989876234
 20
5.156354978294587
 30
0.0
 10
35.88544965216479
 20
6.575928872269117
 30
0.0
 10
34.16924004017181
 20
7.813559913651574
 30
0.0
 10
32.4496776801092
 20
8.833441475952931
 30
0.0
 10
30.73273414601749
 20
9.6108911537264
 30
0.0
 10
29.01686872216618
 20
10.12198146519854
 30
0.0
 10
27.29782671443621
 20
10.35526304231601
 30
0.0
 10
25.5800658767381
 20
10.29366954675607
 30
0.0
 10
24.01940482843742
 20
10.00939387765051
 30
0.0
 10
23.02948978116621
 20
9.628941197200412
 30
0.0
 10
22.61170531772973
 20
9.468374672423408
 30
0.0
  0
SPLINE
  5
206
330
1F
100
AcDbEntity
  8
외형선
  6
Continuous
370
    15
100
AcDbSpline
210
0.0
220
0.0
230
1.0
 70
    24
 71
     3
 72
    14
 73
    10
 74
     0
 42
0.000000001
 43
0.00000001
 40
0.0
 40
0.0
 40
0.0
 40
0.0
 40
0.1284320658232353
 40
0.2804935587489062
 40
0.4369648452708011
 40
0.5890263381964407
 40
0.7454976247183007
 40
0.8975591176439368
 40
1.0
 40
1.0
 40
1.0
 40
1.0
 10
2.0
 20
7.841097487898359
 30
0.0
 10
2.0
 20
7.699829002690684
 30
0.0
 10
2.000000000000057
 20
7.391300911197526
 30
0.0
 10
2.000000000000057
 20
6.88688026628121
 30
0.0
 10
2.000000000000114
 20
6.352761064506794
 30
0.0
 10
2.000000000000057
 20
5.823246418826152
 30
0.0
 10
2.000000000000057
 20
5.326626694182558
 30
0.0
 10
2.000000000000057
 20
4.911099290399747
 30
0.0
 10
2.000000000000057
 20
4.693027190097858
 30
0.0
 10
2.000000000000057
 20
4.605250019659131
 30
0.0
  0
SPLINE
  5
207
330
1F
100
AcDbEntity
  8
0
  6
Continuous
 62
     1
370
    15
100
AcDbSpline
210
0.0
220
0.0
230
1.0
 70
     8
 71
     3
 72
    22
 73
    18
 74
     0
 42
0.000000001
 43
0.00000001
 40
0.0
 40
0.0
 40
0.0
 40
0.0
 40
0.0385098311322717
 40
0.0942188775664565
 40
0.150005553942334
 40
0.205811207916378
 40
0.2615221740960881
 40
0.3172804227273707
 40
0.3731082583484197
 40
0.4288276148924514
 40
0.484563856094699
 40
0.5403996135886274
 40
0.596133822181023
 40
0.653786184087266
 40
0.7115345290199054
 40
0.7692438390263484
 40
0.8041373553466795
 40
0.8041373553466795
 40
0.8041373553466795
 40
0.8041373553466795
 10
26.76583951477289
 20
-10.2871484470748
 30
0.0
 10
26.37039608573235
 20
-10.28613655121046
 30
0.0
 10
25.40289675037417
 20
-10.28366082774585
 30
0.0
 10
23.86440996387637
 20
-9.951174277145697
 30
0.0
 10
22.14625387167467
 20
-9.345267690740357
 30
0.0
 10
20.42755329450586
 20
-8.470983021692092
 30
0.0
 10
18.71177223026251
 20
-7.364020629256245
 30
0.0
 10
16.9945325120961
 20
-6.053190021240539
 30
0.0
 10
15.27512485897887
 20
-4.57703035896418
 30
0.0
 10
13.55907798499101
 20
-2.971757985203396
 30
0.0
 10
11.84251509167638
 20
-1.28454193163563
 30
0.0
 10
10.12283965687146
 20
0.4354312667028708
 30
0.0
 10
8.386589928282831
 20
2.16600270063153
 30
0.0
 10
6.630713127961656
 20
3.854545549159624
 30
0.0
 10
4.85206383998036
 20
5.446335932626951
 30
0.0
 10
3.308264113425651
 20
6.689559480972967
 30
0.0
 10
2.358048624650962
 20
7.368995305022374
 30
0.0
 10
2.000000000000057
 20
7.611079563426046
 30
0.0
  0
SPLINE
  5
208
330
1F
100
AcDbEntity
  8
0
  6
Continuous
 62
     1
370
    15
100
AcDbSpline
210
0.0
220
0.0
230
1.0
 70
     8
 71
     3
 72
    29
 73
    25
 74
     0
 42
0.000000001
 43
0.00000001
 40
0.0
 40
0.0
 40
0.0
 40
0.0
 40
0.0206905679378268
 40
0.0676256237015889
 40
0.1146461961251652
 40
0.1615829635963193
 40
0.2085055121094044
 40
0.2555194133420787
 40
0.3024747137741379
 40
0.3493901965689282
 40
0.3963854181277467
 40
0.4433646582157463
 40
0.4902785243487849
 40
0.5372473738425476
 40
0.584251642840749
 40
0.6311693430905593
 40
0.6781164498675489
 40
0.7251345150606878
 40
0.7720614961221576
 40
0.8189922755866622
 40
0.8660121229218118
 40
0.9129538216087245
 40
0.9598737065319466
 40
1.0
 40
1.0
 40
1.0
 40
1.0
 10
7.649828119160986
 20
10.28245999017159
 30
0.0
 10
7.901985438919837
 20
10.29136597722243
 30
0.0
 10
8.726143387162438
 20
10.32047455127415
 30
0.0
 10
10.12279815458515
 20
10.05977112270527
 30
0.0
 10
11.84252620180507
 20
9.527045621119846
 30
0.0
 10
13.55907499998744
 20
8.712836238508423
 30
0.0
 10
15.2751257033587
 20
7.661906873126583
 30
0.0
 10
16.99453212560871
 20
6.400047121084583
 30
0.0
 10
18.71177293093535
 20
4.960312611625639
 30
0.0
 10
20.42755087809439
 20
3.382374923017842
 30
0.0
 10
22.14626285262665
 20
1.713201955769414
 30
0.0
 10
23.86437649495781
 20
-0.0037855378151548
 30
0.0
 10
25.5800897365732
 20
-1.722383043354611
 30
0.0
 10
27.29782031203655
 20
-3.391927838494908
 30
0.0
 10
29.01687043564056
 20
-4.966661998045325
 30
0.0
 10
30.73273368334191
 20
-6.406427871179247
 30
0.0
 10
32.44967781782526
 20
-7.668273250093179
 30
0.0
 10
34.16923995291614
 20
-8.716748683478954
 30
0.0
 10
35.88544986319988
 20
-9.526162032423798
 30
0.0
 10
37.60179822986993
 20
-10.07126617325618
 30
0.0
 10
39.32143009465852
 20
-10.33942981865927
 30
0.0
 10
41.03816460554697
 20
-10.31517045694407
 30
0.0
 10
42.67031235684956
 20
-10.04564730511815
 30
0.0
 10
43.73226446521488
 20
-9.655566072833722
 30
0.0
 10
44.22180005123158
 20
-9.475747563942207
 30
0.0
  0
SPLINE
  5
209
330
1F
100
AcDbEntity
  8
0
  6
Continuous
 62
     1
370
    15
100
AcDbSpline
210
0.0
220
0.0
230
1.0
 70
     8
 71
     3
 72
    30
 73
    26
 74
     0
 42
0.000000001
 43
0.00000001
 40
0.0
 40
0.0
 40
0.0
 40
0.0
 40
0.0128608607201971
 40
0.0597755296876999
 40
0.1067376016087648
 40
0.153747449341119
 40
0.2006675685086771
 40
0.2476095015488274
 40
0.2946295836273679
 40
0.3415605973905984
 40
0.3884878127318303
 40
0.4355061126594622
 40
0.4824534538166912
 40
0.5293713882999297
 40
0.5763758919637487
 40
0.6233449759462982
 40
0.6702590762936241
 40
0.7172385509222856
 40
0.7642340071015519
 40
0.8111497241187003
 40
0.8581052589719046
 40
0.9051193949182837
 40
0.9520421776890023
 40
0.998979179488776
 40
1.0
 40
1.0
 40
1.0
 40
1.0
 10
48.37656724345862
 20
-10.28927323601484
 30
0.0
 10
48.21972472499607
 20
-10.29763937132974
 30
0.0
 10
47.49074205248095
 20
-10.33652402926728
 30
0.0
 10
46.19091339388427
 20
-10.11956688983295
 30
0.0
 10
44.47335168065916
 20
-9.635396595077964
 30
0.0
 10
42.75412579339002
 20
-8.86383945974542
 30
0.0
 10
41.03817382174316
 20
-7.85179517902381
 30
0.0
 10
39.32142761996738
 20
-6.62115501104239
 30
0.0
 10
37.60179889202675
 20
-5.210089599155523
 30
0.0
 10
35.88544968594664
 20
-3.652494802325961
 30
0.0
 10
34.16924000050616
 20
-1.993691837154422
 30
0.0
 10
32.4496778051153
 20
-0.2826601828071063
 30
0.0
 10
30.73273368662745
 20
1.438572128206566
 30
0.0
 10
29.01687043518882
 20
3.120750276629529
 30
0.0
 10
27.29782031054822
 20
4.714206152008984
 30
0.0
 10
25.5800897429682
 20
6.178639006009028
 30
0.0
 10
23.86437647088064
 20
7.473303378454581
 30
0.0
 10
22.14626294270073
 20
8.560167759029127
 30
0.0
 10
20.42755054204554
 20
9.410291055155227
 30
0.0
 10
18.71177418315318
 20
10.00189701272128
 30
0.0
 10
16.99452744512354
 20
10.31430073903925
 30
0.0
 10
15.27514318064601
 20
10.34997392394182
 30
0.0
 10
13.5590099094216
 20
10.06907430673206
 30
0.0
 10
12.40315206086802
 20
9.768888687098311
 30
0.0
 10
11.81813900367337
 20
9.497315392139804
 30
0.0
 10
11.8056865339961
 20
9.491534737880805
 30
0.0
  0
LINE
  5
20A
330
1F
100
AcDbEntity
  8
0
  6
Continuous
 62
     1
370
    15
100
AcDbLine
 10
49.62500000000006
 20
6.180609348829371
 30
0.0
 11
49.62500000000006
 21
10.31982492872381
 31
0.0
  0
SPLINE
  5
20B
330
1F
100
AcDbEntity
  8
0
  6
Continuous
 62
     1
370
    15
100
AcDbSpline
210
0.0
220
0.0
230
1.0
 70
     8
 71
     3
 72
    13
 73
     9
 74
     0
 42
0.000000001
 43
0.00000001
 40
0.0
 40
0.0
 40
0.0
 40
0.0
 40
0.1016231952886435
 40
0.2811503108832405
 40
0.4610207485049394
 40
0.6407083849371229
 40
0.8202146468188015
 40
1.0
 40
1.0
 40
1.0
 40
1.0
 10
40.06719014228128
 20
10.28474811386198
 30
0.0
 10
40.39093552613832
 20
10.28960812054552
 30
0.0
 10
41.28660816327488
 20
10.30305379489268
 30
0.0
 10
42.75406891061544
 20
10.00891088622817
 30
0.0
 10
44.473383725465
 20
9.439769661413308
 30
0.0
 10
46.1908422058363
 20
8.59278483258607
 30
0.0
 10
47.90658327516047
 20
7.523247954947763
 30
0.0
 10
49.05189787175652
 20
6.641588811021776
 30
0.0
 10
49.62500000000006
 20
6.200416810532893
 30
0.0
  0
SPLINE
  5
20C
330
1F
100
AcDbEntity
  8
외형선
  6
Continuous
370
    15
100
AcDbSpline
210
0.0
220
0.0
230
1.0
 70
    24
 71
     3
 72
    24
 73
    20
 74
     0
 42
0.000000001
 43
0.00000001
 40
0.0
 40
0.0
 40
0.0
 40
0.0
 40
0.1249999999999997
 40
0.1249999999999997
 40
0.1874999999999996
 40
0.1874999999999996
 40
0.2499999999999996
 40
0.2499999999999996
 40
0.3749999999999996
 40
0.3749999999999996
 40
0.4999999999999997
 40
0.4999999999999997
 40
0.6249999999999998
 40
0.6249999999999998
 40
0.7499999999999998
 40
0.7499999999999998
 40
0.8749999999999999
 40
0.8749999999999999
 40
1.0
 40
1.0
 40
1.0
 40
1.0
 10
2.000000000000057
 20
2.847091612781576
 30
0.0
 10
2.000000000000057
 20
2.797496983950303
 30
0.0
 10
2.000000000000057
 20
2.71155853570658
 30
0.0
 10
2.000000000000057
 20
2.561729839369796
 30
0.0
 10
2.000000000000057
 20
2.510296261636945
 30
0.0
 10
2.000000000000057
 20
2.388646878512581
 30
0.0
 10
2.000000000000057
 20
2.318718607478665
 30
0.0
 10
2.000000000000057
 20
2.076012280285546
 30
0.0
 10
2.000000000000057
 20
1.869746232782099
 30
0.0
 10
2.000000000000057
 20
1.343936820258229
 30
0.0
 10
2.000000000000057
 20
1.023040561280723
 30
0.0
 10
2.000000000000057
 20
0.2766828891524185
 30
0.0
 10
2.000000000000057
 20
-0.1493498818897265
 30
0.0
 10
2.000000000000057
 20
-1.02590936349133
 30
0.0
 10
2.000000000000057
 20
-1.473833578255544
 30
0.0
 10
2.000000000000057
 20
-2.266571088698214
 30
0.0
 10
2.0
 20
-2.608353890238611
 30
0.0
 10
2.000000000000057
 20
-3.11521675675381
 30
0.0
 10
2.000000000000057
 20
-3.281099581389846
 30
0.0
 10
2.000000000000057
 20
-3.37058151445661
 30
0.0
  0
SPLINE
  5
20D
330
1F
100
AcDbEntity
  8
0
  6
Continuous
 62
     1
370
    15
100
AcDbSpline
210
0.0
220
0.0
230
1.0
 70
     8
 71
     3
 72
    11
 73
     7
 74
     0
 42
0.000000001
 43
0.00000001
 40
0.0
 40
0.0
 40
0.0
 40
0.0
 40
0.3180259920122876
 40
0.6355582937109789
 40
0.9534114325653661
 40
1.0
 40
1.0
 40
1.0
 40
1.0
 10
49.62500000000006
 20
10.24452437586793
 30
0.0
 10
49.05189729447414
 20
10.2875110567001
 30
0.0
 10
47.90658154420944
 20
10.3854074872554
 30
0.0
 10
46.19084912001176
 20
10.11653352698181
 30
0.0
 10
44.9625235963552
 20
9.813638145291208
 30
0.0
 10
44.30575797608168
 20
9.515952232327038
 30
0.0
 10
44.22180005123158
 20
9.477897421389812
 30
0.0
  0
SPLINE
  5
20E
330
1F
100
AcDbEntity
  8
0
  6
Continuous
 62
     1
370
    15
100
AcDbSpline
210
0.0
220
0.0
230
1.0
 70
     8
 71
     3
 72
    16
 73
    12
 74
     0
 42
0.000000001
 43
0.00000001
 40
0.0
 40
0.0
 40
0.0
 40
0.0
 40
0.0342552324767767
 40
0.1200925046194792
 40
0.2059557880640384
 40
0.2919723792196239
 40
0.377832531370215
 40
0.4666476538977891
 40
0.5556106410395455
 40
0.6445134937542226
 40
0.69826795987965
 40
0.69826795987965
 40
0.69826795987965
 40
0.69826795987965
 10
15.95974926801728
 20
-10.28340580846128
 30
0.0
 10
15.731310437118
 20
-10.29198615620429
 30
0.0
 10
14.93044617868276
 20
-10.32206726721886
 30
0.0
 10
13.55910785259795
 20
-10.07486027057755
 30
0.0
 10
11.84250707190432
 20
-9.553038605805753
 30
0.0
 10
10.122841800598
 20
-8.750698310695157
 30
0.0
 10
8.386589332313235
 20
-7.697905439664609
 30
0.0
 10
6.630713290232734
 20
-6.409607463072405
 30
0.0
 10
4.852063796500602
 20
-4.919153137340601
 30
0.0
 10
3.308264116920384
 20
-3.497493466442585
 30
0.0
 10
2.358048626731545
 20
-2.579314566031094
 30
0.0
 10
2.000000000000057
 20
-2.229371688667712
 30
0.0
  0
LINE
  5
20F
330
1F
100
AcDbEntity
  8
0
  6
Continuous
 62
     1
370
    15
100
AcDbLine
 10
49.62500000000006
 20
-10.3176750712762
 30
0.0
 11
49.62500000000006
 21
-10.24237451842033
 31
0.0
  0
LINE
  5
210
330
1F
100
AcDbEntity
  8
외형선
  6
Continuous
370
    15
100
AcDbLine
 10
2.0
 20
2.847091612781576
 30
0.0
 11
2.000000000000057
 21
4.538339130468621
 31
0.0
  0
LINE
  5
211
330
1F
100
AcDbEntity
  8
0
  6
Continuous
 62
     1
370
    15
100
AcDbLine
 10
49.62500000000006
 20
-6.198266953085238
 30
0.0
 11
49.62500000000006
 21
-4.04303263661113
 31
0.0
  0
LINE
  5
212
330
1F
100
AcDbEntity
  8
외형선
  6
Continuous
370
    15
100
AcDbLine
 10
2.0
 20
7.841097487898359
 30
0.0
 11
2.000000000000057
 21
7.938574928723902
 31
0.0
  0
LINE
  5
213
330
1F
100
AcDbEntity
  8
0
  6
Continuous
 62
     1
370
    15
100
AcDbLine
 10
49.62500000000006
 20
4.045182494058928
 30
0.0
 11
49.62500000000006
 21
6.2004168105329
 31
0.0
  0
LINE
  5
214
330
1F
100
AcDbEntity
  8
외형선
  6
Continuous
370
    15
100
AcDbLine
 10
2.0
 20
-4.992930946392811
 30
0.0
 11
2.000000000000057
 21
-3.370581514456639
 31
0.0
  0
SPLINE
  5
219
330
1F
100
AcDbEntity
  8
외형선
  6
Continuous
370
    15
100
AcDbSpline
210
0.0
220
0.0
230
1.0
 70
    24
 71
     3
 72
    24
 73
    20
 74
     0
 42
0.000000001
 43
0.00000001
 40
0.0
 40
0.0
 40
0.0
 40
0.0
 40
0.125
 40
0.125
 40
0.25
 40
0.25
 40
0.375
 40
0.375
 40
0.5
 40
0.5
 40
0.625
 40
0.625
 40
0.75
 40
0.75
 40
0.8124999999999999
 40
0.8124999999999999
 40
0.8749999999999998
 40
0.8749999999999998
 40
1.0
 40
1.0
 40
1.0
 40
1.0
 10
2.000000000000057
 20
-3.37058151445661
 30
0.0
 10
2.000000000000057
 20
-3.281099581389846
 30
0.0
 10
2.000000000000057
 20
-3.115216756753803
 30
0.0
 10
2.000000000000057
 20
-2.608353890238575
 30
0.0
 10
2.000000000000057
 20
-2.266571088698164
 30
0.0
 10
2.000000000000057
 20
-1.473833578255459
 30
0.0
 10
2.000000000000057
 20
-1.02590936349123
 30
0.0
 10
2.000000000000057
 20
-0.1493498818895986
 30
0.0
 10
2.000000000000057
 20
0.2766828891525464
 30
0.0
 10
2.000000000000057
 20
1.023040561280858
 30
0.0
 10
2.000000000000057
 20
1.343936820258357
 30
0.0
 10
2.000000000000057
 20
1.869746232782212
 30
0.0
 10
2.000000000000057
 20
2.076012280285646
 30
0.0
 10
2.000000000000057
 20
2.31871860747875
 30
0.0
 10
2.000000000000057
 20
2.388646878512652
 30
0.0
 10
2.000000000000057
 20
2.510296261637016
 30
0.0
 10
2.000000000000057
 20
2.56172983936986
 30
0.0
 10
2.000000000000057
 20
2.711558535706637
 30
0.0
 10
2.000000000000057
 20
2.79749698395036
 30
0.0
 10
2.000000000000057
 20
2.847091612781611
 30
0.0
  0
SPLINE
  5
21A
330
1F
100
AcDbEntity
  8
외형선
  6
Continuous
370
    15
100
AcDbSpline
210
0.0
220
0.0
230
1.0
 70
    24
 71
     3
 72
    14
 73
    10
 74
     0
 42
0.000000001
 43
0.00000001
 40
0.0
 40
0.0
 40
0.0
 40
0.0
 40
0.0720351725324215
 40
0.2495307948082902
 40
0.4270264170841593
 40
0.6045220393600328
 40
0.7820176616359064
 40
0.9595132839117794
 40
1.0
 40
1.0
 40
1.0
 40
1.0
 10
2.000000000000057
 20
-7.907845716201358
 30
0.0
 10
2.000000000000057
 20
-7.837998094849091
 30
0.0
 10
2.000000000000057
 20
-7.59604500639562
 30
0.0
 10
2.000000000000057
 20
-7.167868604305106
 30
0.0
 10
2.000000000000057
 20
-6.631266542153078
 30
0.0
 10
2.000000000000057
 20
-6.104043441402681
 30
0.0
 10
2.000000000000057
 20
-5.606913233910596
 30
0.0
 10
2.0
 20
-5.254673147185265
 30
0.0
 10
2.000000000000057
 20
-5.090360305249398
 30
0.0
 10
2.000000000000057
 20
-5.059841835583313
 30
0.0
  0
SPLINE
  5
21B
330
1F
100
AcDbEntity
  8
외형선
  6
Continuous
370
    15
100
AcDbSpline
210
0.0
220
0.0
230
1.0
 70
    24
 71
     3
 72
    14
 73
    10
 74
     0
 42
0.000000001
 43
0.00000001
 40
0.0
 40
0.0
 40
0.0
 40
0.0
 40
0.1003808512295946
 40
0.2546451887688308
 40
0.4089095263080672
 40
0.5609765170970028
 40
0.7152408546362526
 40
0.8695051921755027
 40
1.0
 40
1.0
 40
1.0
 40
1.0
 10
2.000000000000057
 20
4.605250019659131
 30
0.0
 10
2.000000000000057
 20
4.691155500368701
 30
0.0
 10
2.000000000000057
 20
4.909079706864333
 30
0.0
 10
2.000000000000057
 20
5.322775810690182
 30
0.0
 10
2.000000000000057
 20
5.818800463724024
 30
0.0
 10
2.0
 20
6.343133435207285
 30
0.0
 10
2.0
 20
6.877054408133652
 30
0.0
 10
2.000000000000057
 20
7.384250160397947
 30
0.0
 10
2.000000000000057
 20
7.697531836687766
 30
0.0
 10
2.0
 20
7.841097487898558
 30
0.0
  0
LINE
  5
21C
330
1F
100
AcDbEntity
  8
중심선
100
AcDbLine
 10
-62.14999999999992
 20
0.0010749287237957
 30
0.0
 11
56.62500000000006
 21
0.0010749287238099
 31
0.0
  0
CIRCLE
  5
21D
330
1F
100
AcDbEntity
  8
해칭선
100
AcDbCircle
 10
0.0
 20
0.0
 30
0.0
 40
3.000000000000002
  0
DIMENSION
  5
21F
330
1F
100
AcDbEntity
  8
치수문자_일반주서
100
AcDbDimension
  2
*D12
 10
2.000000000000057
 20
39.54650687863592
 30
0.0
 11
22.79625000000004
 21
39.54650687863592
 31
0.0
 70
   160
  1
<>
 71
     2
 42
47.625
  3
SLDDIMSTYLE0
100
AcDbAlignedDimension
 13
49.62500000000006
 23
10.31982492872381
 33
0.0
 14
2.000000000000057
 24
9.858718000931589
 34
0.0
100
AcDbRotatedDimension
1001
ACAD
1000
DSTYLE
1002
{
1070
   171
1070
     6
1070
   273
1070
     7
1002
}
  0
DIMENSION
  5
221
330
1F
100
AcDbEntity
  8
치수문자_일반주서
100
AcDbDimension
  2
*D14
 10
76.45993789540817
 20
-10.31767507127611
 30
0.0
 11
76.45993789540802
 21
37.10502492872391
 31
0.0
 70
   160
  1
%%c<>
 71
     2
 42
20.63750000000002
 52
-270.0
  3
SLDDIMSTYLE0
100
AcDbAlignedDimension
 13
49.62500000000006
 23
10.31982492872381
 33
0.0
 14
49.62500000000006
 24
-10.31767507127621
 34
0.0
 50
90.0000000000002
100
AcDbRotatedDimension
1001
ACAD
1000
DSTYLE
1002
{
1070
   171
1070
     6
1070
   273
1070
     7
1002
}
  0
INSERT
  5
222
330
1F
100
AcDbEntity
  8
해칭선
100
AcDbBlockReference
  2
SW_DOWELSYMBOL_0
 10
0.0
 20
0.0
 30
0.0
  0
LINE
  5
228
330
1F
100
AcDbEntity
  8
외형선
  6
Continuous
370
    15
100
AcDbLine
 10
2.000000000000057
 20
7.938574928723902
 30
0.0
 11
2.000000000000057
 21
9.858718000931589
 31
0.0
  0
SPLINE
  5
229
330
1F
100
AcDbEntity
  8
0
  6
Continuous
 62
     1
370
    15
100
AcDbSpline
210
0.0
220
0.0
230
1.0
 70
     8
 71
     3
 72
    26
 73
    22
 74
     0
 42
0.000000001
 43
0.00000001
 40
0.1409964280451002
 40
0.1409964280451002
 40
0.1409964280451002
 40
0.1409964280451002
 40
0.1703804568260408
 40
0.218977955384293
 40
0.2676083255843883
 40
0.3161578676653061
 40
0.3630921166003882
 40
0.4101118807252255
 40
0.4570478413382749
 40
0.5039695832376836
 40
0.5509826762862989
 40
0.5979371695416659
 40
0.6448518458442417
 40
0.691846259540111
 40
0.7388246920398878
 40
0.785737751708503
 40
0.8327057937926605
 40
0.8797092547723843
 40
0.9266261484918614
 40
0.9735724482330103
 40
1.0
 40
1.0
 40
1.0
 40
1.0
 10
2.000000000000114
 20
9.05877600798086
 30
0.0
 10
2.358047551063521
 20
8.886999273452616
 30
0.0
 10
3.308267979526875
 20
8.386397675538568
 30
0.0
 10
4.852062974969783
 20
7.400995372808303
 30
0.0
 10
6.630713359575566
 20
6.047383803771034
 30
0.0
 10
8.38658986879227
 20
4.530665322593144
 30
0.0
 10
10.1228396717915
 20
2.902532932735511
 30
0.0
 10
11.84251509077552
 20
1.215604500776678
 30
0.0
 10
13.55907797372043
 20
-0.5076108862576376
 30
0.0
 10
15.27512490498907
 20
-2.217098244694178
 30
0.0
 10
16.99453233904433
 20
-3.862490527472076
 30
0.0
 10
18.71177287521408
 20
-5.403058199319929
 30
0.0
 10
20.42755088789448
 20
-6.794929072427706
 30
0.0
 10
22.14626286927194
 20
-7.997206270947189
 30
0.0
 10
23.86437641865786
 20
-8.97898060732156
 30
0.0
 10
25.58009002483891
 20
-9.713536799476259
 30
0.0
 10
27.29781923339215
 20
-10.17799592153213
 30
0.0
 10
29.01687446157024
 20
-10.36454625075451
 30
0.0
 10
30.73271868553974
 20
-10.25235462988857
 30
0.0
 10
32.19879176630405
 20
-9.953732519572085
 30
0.0
 10
33.09393548975879
 20
-9.590586174898945
 30
0.0
 10
33.41634540288527
 20
-9.459789322538285
 30
0.0
  0
SPLINE
  5
22A
330
1F
100
AcDbEntity
  8
0
  6
Continuous
 62
     1
370
    15
100
AcDbSpline
210
0.0
220
0.0
230
1.0
 70
     8
 71
     3
 72
    20
 73
    16
 74
     0
 42
0.000000001
 43
0.00000001
 40
0.2264043819943768
 40
0.2264043819943768
 40
0.2264043819943768
 40
0.2264043819943768
 40
0.2667390002257361
 40
0.3334471807999189
 40
0.4002004831907583
 40
0.4668428354930207
 40
0.5312679282644572
 40
0.5958104049113866
 40
0.6602378472466135
 40
0.7246457720234226
 40
0.7891790915044392
 40
0.8536319729854435
 40
0.9180301990509326
 40
0.9825378780016141
 40
1.0
 40
1.0
 40
1.0
 40
1.0
 10
2.000000000000057
 20
0.2476337041853043
 30
0.0
 10
2.358048624629475
 20
-0.1106857569698434
 30
0.0
 10
3.308264113389669
 20
-1.063077125845247
 30
0.0
 10
4.852063840428855
 20
-2.590558720588106
 30
0.0
 10
6.630713126287844
 20
-4.271766074660221
 30
0.0
 10
8.386589934430333
 20
-5.811091420615099
 30
0.0
 10
10.12283963475875
 20
-7.167008836567788
 30
0.0
 10
11.84251517440089
 20
-8.307479791352335
 30
0.0
 10
13.55907767690485
 20
-9.220084605053358
 30
0.0
 10
15.27512600940037
 20
-9.877963340788511
 30
0.0
 10
16.99452821156308
 20
-10.26061459773925
 30
0.0
 10
18.71178825103669
 20
-10.36564862545274
 30
0.0
 10
20.42749351548827
 20
-10.16366705279316
 30
0.0
 10
21.72850252272218
 20
-9.855361850897467
 30
0.0
 10
22.45659824045941
 20
-9.534564621689043
 30
0.0
 10
22.61170531772967
 20
-9.466224814975803
 30
0.0
  0
LINE
  5
22B
330
1F
100
AcDbEntity
  8
외형선
  6
Continuous
370
    15
100
AcDbLine
 10
2.000000000000057
 20
-7.907845716201358
 30
0.0
 11
2.000000000000057
 21
-9.835342537049947
 31
0.0
  0
SPLINE
  5
22C
330
1F
100
AcDbEntity
  8
0
  6
Continuous
 62
     1
370
    15
100
AcDbSpline
210
0.0
220
0.0
230
1.0
 70
     8
 71
     3
 72
    13
 73
     9
 74
     0
 42
0.000000001
 43
0.00000001
 40
0.3808897642227774
 40
0.3808897642227774
 40
0.3808897642227774
 40
0.3808897642227774
 40
0.448746427509906
 40
0.5609724525494287
 40
0.6732743879508013
 40
0.7853896672732436
 40
0.8937747560630717
 40
1.0
 40
1.0
 40
1.0
 40
1.0
 10
2.000000000000057
 20
-8.809595950624704
 30
0.0
 10
2.358048748456042
 20
-8.996159697602806
 30
0.0
 10
3.308264321370928
 20
-9.44879732717137
 30
0.0
 10
4.85206125275306
 20
-9.990106738093274
 30
0.0
 10
6.6307227837803
 20
-10.31905083509409
 30
0.0
 10
8.386554465553616
 20
-10.33720701300928
 30
0.0
 10
10.11052874607566
 20
-10.08277406999343
 30
0.0
 10
11.24443783643602
 20
-9.685849724095618
 30
0.0
 10
11.8056865339961
 20
-9.489384880433192
 30
0.0
  0
LINE
  5
305
330
1F
100
AcDbEntity
  8
외형선
  6
Continuous
370
    15
100
AcDbLine
 10
-53.24499999999989
 20
-9.52392507127609
 30
0.0
 11
2.000000000000114
 21
-9.52392507127609
 31
0.0
  0
LINE
  5
306
330
1F
100
AcDbEntity
  8
외형선
  6
Continuous
370
    15
100
AcDbLine
 10
-53.24499999999989
 20
9.526074928723894
 30
0.0
 11
-55.14999999999992
 21
7.621074928723907
 31
0.0
  0
LINE
  5
307
330
1F
100
AcDbEntity
  8
외형선
  6
Continuous
370
    15
100
AcDbLine
 10
-55.14999999999992
 20
-7.618925071276102
 30
0.0
 11
-53.24499999999989
 21
-9.52392507127609
 31
0.0
  0
LINE
  5
31B
330
1F
100
AcDbEntity
  8
외형선
  6
Continuous
370
    15
100
AcDbLine
 10
-53.24499999999989
 20
0.0010749287239022
 30
0.0
 11
-53.24499999999989
 21
9.526074928723894
 31
0.0
  0
LINE
  5
31C
330
1F
100
AcDbEntity
  8
외형선
  6
Continuous
370
    15
100
AcDbLine
 10
-53.24499999999989
 20
-9.523925071276118
 30
0.0
 11
-53.24499999999989
 21
0.0010749287239022
 31
0.0
  0
LINE
  5
31D
330
1F
100
AcDbEntity
  8
외형선
  6
Continuous
370
    15
100
AcDbLine
 10
-55.14999999999992
 20
0.0010749287239022
 30
0.0
 11
-55.14999999999992
 21
7.621074928723907
 31
0.0
  0
LINE
  5
31E
330
1F
100
AcDbEntity
  8
외형선
  6
Continuous
370
    15
100
AcDbLine
 10
-55.14999999999992
 20
-7.618925071276102
 30
0.0
 11
-55.14999999999992
 21
0.0010749287239022
 31
0.0
  0
DIMENSION
  5
323
330
1F
100
AcDbEntity
  8
치수문자_일반주서
100
AcDbDimension
  2
*D19
 10
-67.83249999999988
 20
-9.523925071276155
 30
0.0
 11
-67.83249999999992
 21
0.0010749287239165
 31
0.0
 70
   160
  1
%%c<>
 71
     2
 42
19.05000000000001
 52
-270.0
  3
SLDDIMSTYLE0
100
AcDbAlignedDimension
 13
-53.24499999999992
 23
9.526074928723908
 33
0.0
 14
-53.24499999999992
 24
-9.523925071276103
 34
0.0
 50
90.0000000000002
100
AcDbRotatedDimension
1001
ACAD
1000
DSTYLE
1002
{
1070
   171
1070
     6
1070
   273
1070
     7
1002
}
  0
LINE
  5
328
330
1F
100
AcDbEntity
  8
외형선
  6
Continuous
370
    15
100
AcDbLine
 10
-35.14432499999987
 20
7.621074928723893
 30
0.0
 11
-23.56192499999986
 21
7.621074928723893
 31
0.0
  0
LINE
  5
329
330
1F
100
AcDbEntity
  8
외형선
  6
Continuous
370
    15
100
AcDbLine
 10
-35.14432499999987
 20
7.621074928723893
 30
0.0
 11
-37.04932500000001
 21
9.526074928723922
 31
0.0
  0
LINE
  5
32A
330
1F
100
AcDbEntity
  8
외형선
  6
Continuous
370
    15
100
AcDbLine
 10
-23.56192499999986
 20
7.621074928723893
 30
0.0
 11
-21.65692499999989
 21
9.526074928723922
 31
0.0
  0
LINE
  5
32B
330
1F
100
AcDbEntity
  8
외형선
  6
Continuous
370
    15
100
AcDbLine
 10
-37.04932500000001
 20
9.526074928723894
 30
0.0
 11
-53.24499999999989
 21
9.526074928723894
 31
0.0
  0
LINE
  5
32C
330
1F
100
AcDbEntity
  8
외형선
  6
Continuous
370
    15
100
AcDbLine
 10
2.000000000000114
 20
9.526074928723894
 30
0.0
 11
-21.65692499999992
 21
9.526074928723894
 31
0.0
  0
DIMENSION
  5
36C
330
1F
100
AcDbEntity
  8
치수문자_일반주서
100
AcDbDimension
  2
*D23
 10
49.62500000000006
 20
55.08783680626906
 30
0.0
 11
-2.762499999999932
 21
57.71283680626906
 31
0.0
 70
    32
 71
     5
 42
104.775
  3
SLDDIMSTYLE0
100
AcDbAlignedDimension
 13
-55.14999999999992
 23
7.621074928723907
 33
0.0
 14
49.62500000000006
 24
10.31982492872381
 34
0.0
100
AcDbRotatedDimension
1001
ACAD
1000
DSTYLE
1002
{
1070
   171
1070
     6
1070
   273
1070
     7
1002
}
  0
LINE
  5
37D
330
1F
100
AcDbEntity
  8
0
  6
Continuous
 62
     1
370
    15
100
AcDbLine
 10
48.31920920091119
 20
10.31982492872381
 30
0.0
 11
49.62500000000006
 21
10.31982492872381
 31
0.0
  0
ENDSEC
  0
SECTION
  2
OBJECTS
  0
DICTIONARY
  5
C
330
0
100
AcDbDictionary
281
     1
  3
ACAD_GROUP
350
D
  3
ACAD_IMAGE_VARS
350
14C
  3
ACAD_LAYOUT
350
1A
  3
ACAD_MLINESTYLE
350
17
  3
ACAD_PLOTSETTINGS
350
19
  3
ACAD_PLOTSTYLENAME
350
E
  3
ACAD_SCALELIST
350
47
  3
APPDATA
350
14A
  3
DWGPROPS
350
3A1
  0
DICTIONARY
  5
1EC
330
2
100
AcDbDictionary
280
     1
281
     1
  3
ACAD_LAYERSTATES
360
1ED
  0
DICTIONARY
  5
D
102
{ACAD_REACTORS
330
C
102
}
330
C
100
AcDbDictionary
281
     1
  0
RASTERVARIABLES
  5
14C
102
{ACAD_REACTORS
330
C
102
}
330
C
100
AcDbRasterVariables
 90
        0
 70
     1
 71
     1
 72
     1
  0
DICTIONARY
  5
1A
102
{ACAD_REACTORS
330
C
102
}
330
C
100
AcDbDictionary
281
     1
  3
Layout1
350
1E
  3
Layout2
350
26
  3
Model
350
22
  0
DICTIONARY
  5
17
102
{ACAD_REACTORS
330
C
102
}
330
C
100
AcDbDictionary
281
     1
  3
Standard
350
18
  0
DICTIONARY
  5
19
102
{ACAD_REACTORS
330
C
102
}
330
C
100
AcDbDictionary
281
     1
  0
ACDBDICTIONARYWDFLT
  5
E
102
{ACAD_REACTORS
330
C
102
}
330
C
100
AcDbDictionary
281
     1
  3
Normal
350
F
100
AcDbDictionaryWithDefault
340
F
  0
DICTIONARY
  5
47
102
{ACAD_REACTORS
330
C
102
}
330
C
100
AcDbDictionary
281
     1
  3
A0
350
48
  3
A1
350
49
  3
A2
350
4A
  3
A3
350
4B
  3
A4
350
4C
  3
A5
350
4D
  3
A6
350
4E
  3
A7
350
4F
  3
A8
350
50
  3
A9
350
51
  3
B0
350
52
  3
B1
350
53
  3
B2
350
54
  3
B3
350
55
  3
B4
350
56
  3
B5
350
57
  3
B6
350
58
  3
B7
350
59
  3
B8
350
5A
  3
B9
350
5B
  3
C0
350
5C
  3
C1
350
5D
  3
C2
350
5E
  3
C3
350
5F
  3
C4
350
60
  3
C5
350
61
  3
C6
350
62
  3
C7
350
63
  3
C8
350
64
  3
C9
350
65
  3
D0
350
66
  3
D1
350
67
  3
D2
350
68
  0
DICTIONARY
  5
14A
102
{ACAD_REACTORS
330
C
102
}
330
C
100
AcDbDictionary
281
     1
  0
XRECORD
  5
3A1
102
{ACAD_REACTORS
330
C
102
}
330
C
100
AcDbXrecord
280
     1
  1
DWGPROPS COOKIE
  2

  3

  4

  6

  7

  8
12016016
  9

300
=
301
=
302
=
303
=
304
=
305
=
306
=
307
=
308
=
309
=
 40
0.0
 41
2458323.109986528
 42
2458330.138457998
  1

 90
        0
  0
DICTIONARY
  5
1ED
102
{ACAD_REACTORS
330
1EC
102
}
330
1EC
100
AcDbDictionary
281
     1
  0
LAYOUT
  5
1E
102
{ACAD_REACTORS
330
1A
102
}
330
1A
100
AcDbPlotSettings
  1

  2
none_device
  4

  6

 40
0.0
 41
0.0
 42
0.0
 43
0.0
 44
0.0
 45
0.0
 46
0.0
 47
0.0
 48
0.0
 49
0.0
140
0.0
141
0.0
142
1.0
143
1.0
 70
   688
 72
     1
 73
     0
 74
     5
  7

 75
    16
147
1.0
148
0.0
149
0.0
100
AcDbLayout
  1
Layout1
 70
     1
 71
     1
 10
0.0
 20
0.0
 11
420.0
 21
297.0
 12
0.0
 22
0.0
 32
0.0
 14
1.000000000000000E+20
 24
1.000000000000000E+20
 34
1.000000000000000E+20
 15
-1.000000000000000E+20
 25
-1.000000000000000E+20
 35
-1.000000000000000E+20
146
0.0
 13
0.0
 23
0.0
 33
0.0
 16
1.0
 26
0.0
 36
0.0
 17
0.0
 27
1.0
 37
0.0
 76
     0
330
1B
  0
LAYOUT
  5
26
102
{ACAD_REACTORS
330
1A
102
}
330
1A
100
AcDbPlotSettings
  1

  2
none_device
  4

  6

 40
0.0
 41
0.0
 42
0.0
 43
0.0
 44
0.0
 45
0.0
 46
0.0
 47
0.0
 48
0.0
 49
0.0
140
0.0
141
0.0
142
1.0
143
1.0
 70
   688
 72
     1
 73
     0
 74
     5
  7

 75
    16
147
1.0
148
0.0
149
0.0
100
AcDbLayout
  1
Layout2
 70
     1
 71
     2
 10
0.0
 20
0.0
 11
0.0
 21
0.0
 12
0.0
 22
0.0
 32
0.0
 14
0.0
 24
0.0
 34
0.0
 15
0.0
 25
0.0
 35
0.0
146
0.0
 13
0.0
 23
0.0
 33
0.0
 16
1.0
 26
0.0
 36
0.0
 17
0.0
 27
1.0
 37
0.0
 76
     0
330
23
  0
LAYOUT
  5
22
102
{ACAD_REACTORS
330
1A
102
}
330
1A
100
AcDbPlotSettings
  1

  2
none_device
  4
ANSI_A_(11.00_x_8.50_Inches)
  6

 40
6.35
 41
19.05
 42
6.35000508
 43
19.05000254
 44
279.4
 45
215.9
 46
96.39525648754174
 47
90.09827952143297
 48
0.0
 49
0.0
140
0.0
141
0.0
142
0.0605651527843098
143
1.0
 70
  1696
 72
     0
 73
     0
 74
     0
  7

 75
     0
147
0.0235690232323232
148
0.0
149
0.0
100
AcDbLayout
  1
Model
 70
     1
 71
     0
 10
0.0
 20
0.0
 11
420.0
 21
297.0
 12
0.0
 22
0.0
 32
0.0
 14
-72.20749999999998
 24
-49.97073246008785
 34
0.0
 15
113.9254298008692
 25
59.46283680626906
 35
0.0
146
0.0
 13
0.0
 23
0.0
 33
0.0
 16
1.0
 26
0.0
 36
0.0
 17
0.0
 27
1.0
 37
0.0
 76
     0
330
1F
331
29
  0
MLINESTYLE
  5
18
102
{ACAD_REACTORS
330
17
102
}
330
17
100
AcDbMlineStyle
  2
Standard
 70
     0
  3

 62
   256
 51
90.0
 52
90.0
 71
     2
 49
0.5
 62
   256
  6
BYLAYER
 49
-0.5
 62
   256
  6
BYLAYER
  0
ACDBPLACEHOLDER
  5
F
102
{ACAD_REACTORS
330
E
102
}
330
E
  0
SCALE
  5
48
102
{ACAD_REACTORS
330
47
102
}
330
47
100
AcDbScale
 70
     0
300
1:1
140
1.0
141
1.0
290
     1
  0
SCALE
  5
49
102
{ACAD_REACTORS
330
47
102
}
330
47
100
AcDbScale
 70
     0
300
1:2
140
1.0
141
2.0
290
     0
  0
SCALE
  5
4A
102
{ACAD_REACTORS
330
47
102
}
330
47
100
AcDbScale
 70
     0
300
1:4
140
1.0
141
4.0
290
     0
  0
SCALE
  5
4B
102
{ACAD_REACTORS
330
47
102
}
330
47
100
AcDbScale
 70
     0
300
1:5
140
1.0
141
5.0
290
     0
  0
SCALE
  5
4C
102
{ACAD_REACTORS
330
47
102
}
330
47
100
AcDbScale
 70
     0
300
1:8
140
1.0
141
8.0
290
     0
  0
SCALE
  5
4D
102
{ACAD_REACTORS
330
47
102
}
330
47
100
AcDbScale
 70
     0
300
1:10
140
1.0
141
10.0
290
     0
  0
SCALE
  5
4E
102
{ACAD_REACTORS
330
47
102
}
330
47
100
AcDbScale
 70
     0
300
1:16
140
1.0
141
16.0
290
     0
  0
SCALE
  5
4F
102
{ACAD_REACTORS
330
47
102
}
330
47
100
AcDbScale
 70
     0
300
1:20
140
1.0
141
20.0
290
     0
  0
SCALE
  5
50
102
{ACAD_REACTORS
330
47
102
}
330
47
100
AcDbScale
 70
     0
300
1:30
140
1.0
141
30.0
290
     0
  0
SCALE
  5
51
102
{ACAD_REACTORS
330
47
102
}
330
47
100
AcDbScale
 70
     0
300
1:40
140
1.0
141
40.0
290
     0
  0
SCALE
  5
52
102
{ACAD_REACTORS
330
47
102
}
330
47
100
AcDbScale
 70
     0
300
1:50
140
1.0
141
50.0
290
     0
  0
SCALE
  5
53
102
{ACAD_REACTORS
330
47
102
}
330
47
100
AcDbScale
 70
     0
300
1:100
140
1.0
141
100.0
290
     0
  0
SCALE
  5
54
102
{ACAD_REACTORS
330
47
102
}
330
47
100
AcDbScale
 70
     0
300
2:1
140
2.0
141
1.0
290
     0
  0
SCALE
  5
55
102
{ACAD_REACTORS
330
47
102
}
330
47
100
AcDbScale
 70
     0
300
4:1
140
4.0
141
1.0
290
     0
  0
SCALE
  5
56
102
{ACAD_REACTORS
330
47
102
}
330
47
100
AcDbScale
 70
     0
300
8:1
140
8.0
141
1.0
290
     0
  0
SCALE
  5
57
102
{ACAD_REACTORS
330
47
102
}
330
47
100
AcDbScale
 70
     0
300
10:1
140
10.0
141
1.0
290
     0
  0
SCALE
  5
58
102
{ACAD_REACTORS
330
47
102
}
330
47
100
AcDbScale
 70
     0
300
100:1
140
100.0
141
1.0
290
     0
  0
SCALE
  5
59
102
{ACAD_REACTORS
330
47
102
}
330
47
100
AcDbScale
 70
     0
300
1/128" = 1'-0"
140
0.0078125
141
12.0
290
     0
  0
SCALE
  5
5A
102
{ACAD_REACTORS
330
47
102
}
330
47
100
AcDbScale
 70
     0
300
1/64" = 1'-0"
140
0.015625
141
12.0
290
     0
  0
SCALE
  5
5B
102
{ACAD_REACTORS
330
47
102
}
330
47
100
AcDbScale
 70
     0
300
1/32" = 1'-0"
140
0.03125
141
12.0
290
     0
  0
SCALE
  5
5C
102
{ACAD_REACTORS
330
47
102
}
330
47
100
AcDbScale
 70
     0
300
1/16" = 1'-0"
140
0.0625
141
12.0
290
     0
  0
SCALE
  5
5D
102
{ACAD_REACTORS
330
47
102
}
330
47
100
AcDbScale
 70
     0
300
3/32" = 1'-0"
140
0.09375
141
12.0
290
     0
  0
SCALE
  5
5E
102
{ACAD_REACTORS
330
47
102
}
330
47
100
AcDbScale
 70
     0
300
1/8" = 1'-0"
140
0.125
141
12.0
290
     0
  0
SCALE
  5
5F
102
{ACAD_REACTORS
330
47
102
}
330
47
100
AcDbScale
 70
     0
300
3/16" = 1'-0"
140
0.1875
141
12.0
290
     0
  0
SCALE
  5
60
102
{ACAD_REACTORS
330
47
102
}
330
47
100
AcDbScale
 70
     0
300
1/4" = 1'-0"
140
0.25
141
12.0
290
     0
  0
SCALE
  5
61
102
{ACAD_REACTORS
330
47
102
}
330
47
100
AcDbScale
 70
     0
300
3/8" = 1'-0"
140
0.375
141
12.0
290
     0
  0
SCALE
  5
62
102
{ACAD_REACTORS
330
47
102
}
330
47
100
AcDbScale
 70
     0
300
1/2" = 1'-0"
140
0.5
141
12.0
290
     0
  0
SCALE
  5
63
102
{ACAD_REACTORS
330
47
102
}
330
47
100
AcDbScale
 70
     0
300
3/4" = 1'-0"
140
0.75
141
12.0
290
     0
  0
SCALE
  5
64
102
{ACAD_REACTORS
330
47
102
}
330
47
100
AcDbScale
 70
     0
300
1" = 1'-0"
140
1.0
141
12.0
290
     0
  0
SCALE
  5
65
102
{ACAD_REACTORS
330
47
102
}
330
47
100
AcDbScale
 70
     0
300
1-1/2" = 1'-0"
140
1.5
141
12.0
290
     0
  0
SCALE
  5
66
102
{ACAD_REACTORS
330
47
102
}
330
47
100
AcDbScale
 70
     0
300
3" = 1'-0"
140
3.0
141
12.0
290
     0
  0
SCALE
  5
67
102
{ACAD_REACTORS
330
47
102
}
330
47
100
AcDbScale
 70
     0
300
6" = 1'-0"
140
6.0
141
12.0
290
     0
  0
SCALE
  5
68
102
{ACAD_REACTORS
330
47
102
}
330
47
100
AcDbScale
 70
     0
300
1'-0" = 1'-0"
140
12.0
141
12.0
290
     0
  0
ENDSEC
  0
EOF
