  0
SECTION
  2
HEADER
  9
$ACADVER
  1
AC1015
  9
$ACADMAINTVER
 70
     6
  9
$DWGCODEPAGE
  3
ANSI_949
  9
$INSBASE
 10
0.0
 20
0.0
 30
0.0
  9
$EXTMIN
 10
-69.35000000000005
 20
-49.97073246008785
 30
0.0
  9
$EXTMAX
 10
113.9254298008692
 20
63.76346318671727
 30
0.0
  9
$LIMMIN
 10
0.0
 20
0.0
  9
$LIMMAX
 10
420.0
 20
297.0
  9
$ORTHOMODE
 70
     1
  9
$REGENMODE
 70
     1
  9
$FILLMODE
 70
     1
  9
$QTEXTMODE
 70
     0
  9
$MIRRTEXT
 70
     1
  9
$LTSCALE
 40
1.0
  9
$ATTMODE
 70
     1
  9
$TEXTSIZE
 40
3.5
  9
$TRACEWID
 40
1.0
  9
$TEXTSTYLE
  7
Standard
  9
$CLAYER
  8
0
  9
$CELTYPE
  6
ByLayer
  9
$CECOLOR
 62
   256
  9
$CELTSCALE
 40
1.0
  9
$DISPSILH
 70
     0
  9
$DIMSCALE
 40
1.0
  9
$DIMASZ
 40
3.302
  9
$DIMEXO
 40
1.0
  9
$DIMDLI
 40
3.75
  9
$DIMRND
 40
0.0
  9
$DIMDLE
 40
0.0
  9
$DIMEXE
 40
1.0
  9
$DIMTP
 40
0.0
  9
$DIMTM
 40
0.0
  9
$DIMTXT
 40
3.5
  9
$DIMCEN
 40
2.5
  9
$DIMTSZ
 40
0.0
  9
$DIMTOL
 70
     0
  9
$DIMLIM
 70
     0
  9
$DIMTIH
 70
     1
  9
$DIMTOH
 70
     1
  9
$DIMSE1
 70
     0
  9
$DIMSE2
 70
     0
  9
$DIMTAD
 70
     1
  9
$DIMZIN
 70
     0
  9
$DIMBLK
  1

  9
$DIMASO
 70
     1
  9
$DIMSHO
 70
     1
  9
$DIMPOST
  1

  9
$DIMAPOST
  1

  9
$DIMALT
 70
     0
  9
$DIMALTD
 70
     3
  9
$DIMALTF
 40
0.0393700787401575
  9
$DIMLFAC
 40
1.0
  9
$DIMTOFL
 70
     1
  9
$DIMTVP
 40
0.0
  9
$DIMTIX
 70
     0
  9
$DIMSOXD
 70
     0
  9
$DIMSAH
 70
     0
  9
$DIMBLK1
  1

  9
$DIMBLK2
  1

  9
$DIMSTYLE
  2
ISO-25
  9
$DIMCLRD
 70
     0
  9
$DIMCLRE
 70
     0
  9
$DIMCLRT
 70
     0
  9
$DIMTFAC
 40
1.0
  9
$DIMGAP
 40
1.524
  9
$DIMJUST
 70
     0
  9
$DIMSD1
 70
     0
  9
$DIMSD2
 70
     0
  9
$DIMTOLJ
 70
     0
  9
$DIMTZIN
 70
     0
  9
$DIMALTZ
 70
     0
  9
$DIMALTTZ
 70
     0
  9
$DIMUPT
 70
     0
  9
$DIMDEC
 70
     2
  9
$DIMTDEC
 70
     2
  9
$DIMALTU
 70
     2
  9
$DIMALTTD
 70
     3
  9
$DIMTXSTY
  7
Standard
  9
$DIMAUNIT
 70
     0
  9
$DIMADEC
 70
     2
  9
$DIMALTRND
 40
0.0
  9
$DIMAZIN
 70
     0
  9
$DIMDSEP
 70
    44
  9
$DIMATFIT
 70
     3
  9
$DIMFRAC
 70
     0
  9
$DIMLDRBLK
  1

  9
$DIMLUNIT
 70
     2
  9
$DIMLWD
 70
    -2
  9
$DIMLWE
 70
    -2
  9
$DIMTMOVE
 70
     0
  9
$LUNITS
 70
     2
  9
$LUPREC
 70
     2
  9
$SKETCHINC
 40
1.0
  9
$FILLETRAD
 40
10.0
  9
$AUNITS
 70
     0
  9
$AUPREC
 70
     2
  9
$MENU
  1
.
  9
$ELEVATION
 40
0.0
  9
$PELEVATION
 40
0.0
  9
$THICKNESS
 40
0.0
  9
$LIMCHECK
 70
     0
  9
$CHAMFERA
 40
0.0
  9
$CHAMFERB
 40
0.0
  9
$CHAMFERC
 40
0.0
  9
$CHAMFERD
 40
0.0
  9
$SKPOLY
 70
     0
  9
$TDCREATE
 40
2458323.484773484
  9
$TDUCREATE
 40
2458323.109773484
  9
$TDUPDATE
 40
2458330.513508136
  9
$TDUUPDATE
 40
2458330.138508136
  9
$TDINDWG
 40
0.0011816782
  9
$TDUSRTIMER
 40
2458330.138469016
  9
$USRTIMER
 70
     1
  9
$ANGBASE
 50
0.0
  9
$ANGDIR
 70
     0
  9
$PDMODE
 70
     0
  9
$PDSIZE
 40
-1.0
  9
$PLINEWID
 40
0.0
  9
$SPLFRAME
 70
     0
  9
$SPLINETYPE
 70
     6
  9
$SPLINESEGS
 70
     8
  9
$HANDSEED
  5
3B1
  9
$SURFTAB1
 70
     6
  9
$SURFTAB2
 70
     6
  9
$SURFTYPE
 70
     6
  9
$SURFU
 70
     6
  9
$SURFV
 70
     6
  9
$UCSBASE
  2

  9
$UCSNAME
  2

  9
$UCSORG
 10
0.0
 20
0.0
 30
0.0
  9
$UCSXDIR
 10
1.0
 20
0.0
 30
0.0
  9
$UCSYDIR
 10
0.0
 20
1.0
 30
0.0
  9
$UCSORTHOREF
  2

  9
$UCSORTHOVIEW
 70
     0
  9
$UCSORGTOP
 10
0.0
 20
0.0
 30
0.0
  9
$UCSORGBOTTOM
 10
0.0
 20
0.0
 30
0.0
  9
$UCSORGLEFT
 10
0.0
 20
0.0
 30
0.0
  9
$UCSORGRIGHT
 10
0.0
 20
0.0
 30
0.0
  9
$UCSORGFRONT
 10
0.0
 20
0.0
 30
0.0
  9
$UCSORGBACK
 10
0.0
 20
0.0
 30
0.0
  9
$PUCSBASE
  2

  9
$PUCSNAME
  2

  9
$PUCSORG
 10
0.0
 20
0.0
 30
0.0
  9
$PUCSXDIR
 10
1.0
 20
0.0
 30
0.0
  9
$PUCSYDIR
 10
0.0
 20
1.0
 30
0.0
  9
$PUCSORTHOREF
  2

  9
$PUCSORTHOVIEW
 70
     0
  9
$PUCSORGTOP
 10
0.0
 20
0.0
 30
0.0
  9
$PUCSORGBOTTOM
 10
0.0
 20
0.0
 30
0.0
  9
$PUCSORGLEFT
 10
0.0
 20
0.0
 30
0.0
  9
$PUCSORGRIGHT
 10
0.0
 20
0.0
 30
0.0
  9
$PUCSORGFRONT
 10
0.0
 20
0.0
 30
0.0
  9
$PUCSORGBACK
 10
0.0
 20
0.0
 30
0.0
  9
$USERI1
 70
     0
  9
$USERI2
 70
     0
  9
$USERI3
 70
     0
  9
$USERI4
 70
     0
  9
$USERI5
 70
     0
  9
$USERR1
 40
0.0
  9
$USERR2
 40
0.0
  9
$USERR3
 40
0.0
  9
$USERR4
 40
0.0
  9
$USERR5
 40
0.0
  9
$WORLDVIEW
 70
     1
  9
$SHADEDGE
 70
     3
  9
$SHADEDIF
 70
    70
  9
$TILEMODE
 70
     1
  9
$MAXACTVP
 70
    64
  9
$PINSBASE
 10
0.0
 20
0.0
 30
0.0
  9
$PLIMCHECK
 70
     0
  9
$PEXTMIN
 10
1.000000000000000E+20
 20
1.000000000000000E+20
 30
1.000000000000000E+20
  9
$PEXTMAX
 10
-1.000000000000000E+20
 20
-1.000000000000000E+20
 30
-1.000000000000000E+20
  9
$PLIMMIN
 10
0.0
 20
0.0
  9
$PLIMMAX
 10
0.0
 20
0.0
  9
$UNITMODE
 70
     0
  9
$VISRETAIN
 70
     1
  9
$PLINEGEN
 70
     0
  9
$PSLTSCALE
 70
     1
  9
$TREEDEPTH
 70
  3020
  9
$CMLSTYLE
  2
Standard
  9
$CMLJUST
 70
     0
  9
$CMLSCALE
 40
20.0
  9
$PROXYGRAPHICS
 70
     1
  9
$MEASUREMENT
 70
     1
  9
$CELWEIGHT
370
    -1
  9
$ENDCAPS
280
     0
  9
$JOINSTYLE
280
     0
  9
$LWDISPLAY
290
     1
  9
$INSUNITS
 70
     4
  9
$HYPERLINKBASE
  1

  9
$STYLESHEET
  1

  9
$XEDIT
290
     1
  9
$CEPSNTYPE
380
     0
  9
$PSTYLEMODE
290
     1
  9
$FINGERPRINTGUID
  2
{3C63A5F0-710C-4202-9141-F7C85ABF663A}
  9
$VERSIONGUID
  2
{FAEB1C32-E019-11D5-929B-00C0DF256EC4}
  9
$EXTNAMES
290
     1
  9
$PSVPSCALE
 40
0.0
  9
$OLESTARTUP
290
     0
  0
ENDSEC
  0
SECTION
  2
CLASSES
  0
CLASS
  1
ACDBDICTIONARYWDFLT
  2
AcDbDictionaryWithDefault
  3
ObjectDBX Classes
 90
        0
280
     0
281
     0
  0
CLASS
  1
VISUALSTYLE
  2
AcDbVisualStyle
  3
ObjectDBX Classes
 90
     4095
280
     0
281
     0
  0
CLASS
  1
MATERIAL
  2
AcDbMaterial
  3
ObjectDBX Classes
 90
     1153
280
     0
281
     0
  0
CLASS
  1
SCALE
  2
AcDbScale
  3
ObjectDBX Classes
 90
     1153
280
     0
281
     0
  0
CLASS
  1
SUN
  2
AcDbSun
  3
SCENEOE
 90
     1153
280
     0
281
     0
  0
CLASS
  1
ACDBPLACEHOLDER
  2
AcDbPlaceHolder
  3
ObjectDBX Classes
 90
        0
280
     0
281
     0
  0
CLASS
  1
LAYOUT
  2
AcDbLayout
  3
ObjectDBX Classes
 90
        0
280
     0
281
     0
  0
CLASS
  1
TABLESTYLE
  2
AcDbTableStyle
  3
ObjectDBX Classes
 90
     4095
280
     0
281
     0
  0
CLASS
  1
MLEADERSTYLE
  2
AcDbMLeaderStyle
  3
ACDB_MLEADERSTYLE_CLASS
 90
     4095
280
     0
281
     0
  0
CLASS
  1
RASTERVARIABLES
  2
AcDbRasterVariables
  3
ISM
 90
        0
280
     0
281
     0
  0
ENDSEC
  0
SECTION
  2
TABLES
  0
TABLE
  2
VPORT
  5
8
330
0
100
AcDbSymbolTable
 70
     1
  0
VPORT
  5
29
330
8
100
AcDbSymbolTableRecord
100
AcDbViewportTableRecord
  2
*Active
 70
     0
 10
0.0
 20
0.0
 11
1.0
 21
1.0
 12
3.956667377023521
 22
-6.650180198627886
 13
0.0
 23
0.0
 14
10.0
 24
10.0
 15
10.0
 25
10.0
 16
0.0
 26
0.0
 36
1.0
 17
0.0
 27
0.0
 37
0.0
 40
120.9427153052579
 41
1.516441005802708
 42
50.0
 43
0.0
 44
0.0
 50
0.0
 51
0.0
 71
    16
 72
  2000
 73
     1
 74
     3
 75
     0
 76
     0
 77
     0
 78
     0
281
     0
 65
     1
110
0.0
120
0.0
130
0.0
111
1.0
121
0.0
131
0.0
112
0.0
122
1.0
132
0.0
 79
     0
146
0.0
  0
ENDTAB
  0
TABLE
  2
LTYPE
  5
5
330
0
100
AcDbSymbolTable
 70
     6
  0
LTYPE
  5
14
330
5
100
AcDbSymbolTableRecord
100
AcDbLinetypeTableRecord
  2
ByBlock
 70
     0
  3

 72
    65
 73
     0
 40
0.0
  0
LTYPE
  5
15
330
5
100
AcDbSymbolTableRecord
100
AcDbLinetypeTableRecord
  2
ByLayer
 70
     0
  3

 72
    65
 73
     0
 40
0.0
  0
LTYPE
  5
16
330
5
100
AcDbSymbolTableRecord
100
AcDbLinetypeTableRecord
  2
Continuous
 70
     0
  3
Solid line
 72
    65
 73
     0
 40
0.0
  0
LTYPE
  5
6A
330
5
100
AcDbSymbolTableRecord
100
AcDbLinetypeTableRecord
  2
HIDDEN
 70
     0
  3
Hidden __ __ __ __ __ __ __ __ __ __ __ __ __ __
 72
    65
 73
     2
 40
1.905
 49
1.27
 74
     0
 49
-0.635
 74
     0
  0
LTYPE
  5
6B
330
5
100
AcDbSymbolTableRecord
100
AcDbLinetypeTableRecord
  2
PHANTOM
 70
     0
  3
Phantom ______  __  __  ______  __  __  ______
 72
    65
 73
     6
 40
12.7
 49
6.35
 74
     0
 49
-1.27
 74
     0
 49
1.27
 74
     0
 49
-1.27
 74
     0
 49
1.27
 74
     0
 49
-1.27
 74
     0
  0
LTYPE
  5
6C
330
5
100
AcDbSymbolTableRecord
100
AcDbLinetypeTableRecord
  2
CENTER
 70
     0
  3
Center ____ _ ____ _ ____ _ ____ _ ____ _ ____
 72
    65
 73
     4
 40
10.16
 49
6.35
 74
     0
 49
-1.27
 74
     0
 49
1.27
 74
     0
 49
-1.27
 74
     0
  0
LTYPE
  5
6D
330
5
100
AcDbSymbolTableRecord
100
AcDbLinetypeTableRecord
  2
CENTERX2
 70
     0
  3
Center (2x) ________  __  ________  __  _____
 72
    65
 73
     4
 40
20.32
 49
12.7
 74
     0
 49
-2.54
 74
     0
 49
2.54
 74
     0
 49
-2.54
 74
     0
  0
LTYPE
  5
6E
330
5
100
AcDbSymbolTableRecord
100
AcDbLinetypeTableRecord
  2
DOT2
 70
     0
  3
Dot (.5x) ........................................
 72
    65
 73
     2
 40
0.635
 49
0.0
 74
     0
 49
-0.635
 74
     0
  0
ENDTAB
  0
TABLE
  2
LAYER
  5
2
102
{ACAD_XDICTIONARY
360
204
102
}
330
0
100
AcDbSymbolTable
 70
    18
  0
LAYER
  5
10
330
2
100
AcDbSymbolTableRecord
100
AcDbLayerTableRecord
  2
0
 70
     0
 62
     7
  6
Continuous
370
    -3
390
F
  0
LAYER
  5
6F
330
2
100
AcDbSymbolTableRecord
100
AcDbLayerTableRecord
  2
FORMAT
 70
     0
 62
     2
  6
Continuous
370
    -3
390
F
  0
LAYER
  5
70
330
2
100
AcDbSymbolTableRecord
100
AcDbLayerTableRecord
  2
외형선
 70
     0
 62
     4
  6
Continuous
370
    30
390
F
  0
LAYER
  5
71
330
2
100
AcDbSymbolTableRecord
100
AcDbLayerTableRecord
  2
숨은선
 70
     0
 62
     2
  6
HIDDEN
370
    15
390
F
  0
LAYER
  5
72
330
2
100
AcDbSymbolTableRecord
100
AcDbLayerTableRecord
  2
중심선
 70
     0
 62
     1
  6
CENTERX2
370
    -3
390
F
  0
LAYER
  5
73
330
2
100
AcDbSymbolTableRecord
100
AcDbLayerTableRecord
  2
파단선
 70
     0
 62
     4
  6
Continuous
370
    -3
390
F
  0
LAYER
  5
74
330
2
100
AcDbSymbolTableRecord
100
AcDbLayerTableRecord
  2
해칭선
 70
     0
 62
   100
  6
Continuous
370
    -3
390
F
  0
LAYER
  5
75
330
2
100
AcDbSymbolTableRecord
100
AcDbLayerTableRecord
  2
가는실선
 70
     0
 62
     4
  6
Continuous
370
    -3
390
F
  0
LAYER
  5
76
330
2
100
AcDbSymbolTableRecord
100
AcDbLayerTableRecord
  2
치수_보조선
 70
     0
 62
     4
  6
Continuous
370
    -3
390
F
  0
LAYER
  5
77
330
2
100
AcDbSymbolTableRecord
100
AcDbLayerTableRecord
  2
치수문자_일반주서
 70
     0
 62
     7
  6
Continuous
370
    15
390
F
  0
LAYER
  5
78
330
2
100
AcDbSymbolTableRecord
100
AcDbLayerTableRecord
  2
개별주서
 70
     0
 62
   100
  6
Continuous
370
    30
390
F
  0
LAYER
  5
79
330
2
100
AcDbSymbolTableRecord
100
AcDbLayerTableRecord
  2
중간선
 70
     0
 62
     2
  6
Continuous
370
    15
390
F
  0
LAYER
  5
7A
330
2
100
AcDbSymbolTableRecord
100
AcDbLayerTableRecord
  2
윤곽선
 70
     0
 62
     3
  6
Continuous
370
    40
390
F
  0
LAYER
  5
7B
330
2
100
AcDbSymbolTableRecord
100
AcDbLayerTableRecord
  2
중심마크
 70
     0
 62
   100
  6
Continuous
370
    30
390
F
  0
LAYER
  5
7C
330
2
100
AcDbSymbolTableRecord
100
AcDbLayerTableRecord
  2
가상선
 70
     0
 62
     4
  6
PHANTOM
370
    -3
390
F
  0
LAYER
  5
7D
330
2
100
AcDbSymbolTableRecord
100
AcDbLayerTableRecord
  2
특수지정선
 70
     0
 62
     5
  6
CENTERX2
370
    60
390
F
  0
LAYER
  5
7E
330
2
100
AcDbSymbolTableRecord
100
AcDbLayerTableRecord
  2
참조1
 70
     0
 62
    -4
  6
Continuous
370
    -3
390
F
  0
LAYER
  5
14A
330
2
100
AcDbSymbolTableRecord
100
AcDbLayerTableRecord
  2
Defpoints
 70
     0
 62
     7
  6
Continuous
290
     0
370
    -3
390
F
  0
ENDTAB
  0
TABLE
  2
STYLE
  5
3
330
0
100
AcDbSymbolTable
 70
     2
  0
STYLE
  5
11
330
3
100
AcDbSymbolTableRecord
100
AcDbTextStyleTableRecord
  2
Standard
 70
     0
 40
0.0
 41
1.0
 50
0.0
 71
     0
 42
3.5
  3
txt
  4

  0
STYLE
  5
94
330
3
100
AcDbSymbolTableRecord
100
AcDbTextStyleTableRecord
  2
SLDTEXTSTYLE0
 70
     0
 40
0.0
 41
0.75
 50
0.0
 71
     0
 42
3.5
  3
TXT
  4

  0
ENDTAB
  0
TABLE
  2
VIEW
  5
6
330
0
100
AcDbSymbolTable
 70
     0
  0
ENDTAB
  0
TABLE
  2
UCS
  5
7
330
0
100
AcDbSymbolTable
 70
     0
  0
ENDTAB
  0
TABLE
  2
APPID
  5
9
330
0
100
AcDbSymbolTable
 70
     1
  0
APPID
  5
12
330
9
100
AcDbSymbolTableRecord
100
AcDbRegAppTableRecord
  2
ACAD
 70
     0
  0
ENDTAB
  0
TABLE
  2
DIMSTYLE
  5
A
330
0
100
AcDbSymbolTable
 70
     3
100
AcDbDimStyleTable
  0
DIMSTYLE
105
27
330
A
100
AcDbSymbolTableRecord
100
AcDbDimStyleTableRecord
  2
ISO-25
 70
     0
 41
2.5
 42
0.625
 43
3.75
 44
1.25
 73
     0
 74
     0
 77
     1
 78
     8
140
2.5
141
2.5
143
0.03937007874016
147
0.625
171
     3
172
     1
178
     0
271
     2
272
     2
274
     3
278
    44
283
     0
284
     8
340
11
  0
DIMSTYLE
105
C9
102
{ACAD_REACTORS
330
34A
330
34B
330
34C
330
34D
102
}
330
A
100
AcDbSymbolTableRecord
100
AcDbDimStyleTableRecord
  2
SLDDIMSTYLE0
 70
     0
 41
3.302
 44
0.0
 45
0.000000001
 73
     0
 74
     0
 77
     1
 78
    12
 79
     3
140
3.5
143
0.0393700787401575
147
0.875
148
0.000000001
170
     1
172
     1
173
     1
178
     0
271
     2
272
     2
276
     2
284
    12
289
     0
340
94
  0
DIMSTYLE
105
F2
330
A
100
AcDbSymbolTableRecord
100
AcDbDimStyleTableRecord
  2
SLDDIMSTYLE1
 70
     0
 41
3.302
 44
0.0
 45
0.000000001
 73
     0
 74
     0
 77
     1
 78
    12
 79
     3
140
3.5
143
0.0393700787401575
147
0.875
148
0.000000001
170
     1
173
     1
178
     0
271
     2
272
     2
276
     2
284
    12
340
94
  0
ENDTAB
  0
TABLE
  2
BLOCK_RECORD
  5
1
330
0
100
AcDbSymbolTable
 70
    23
  0
BLOCK_RECORD
  5
1F
330
1
100
AcDbSymbolTableRecord
100
AcDbBlockTableRecord
  2
*Model_Space
340
22
  0
BLOCK_RECORD
  5
1B
330
1
100
AcDbSymbolTableRecord
100
AcDbBlockTableRecord
  2
*Paper_Space
340
1E
  0
BLOCK_RECORD
  5
23
330
1
100
AcDbSymbolTableRecord
100
AcDbBlockTableRecord
  2
*Paper_Space0
340
26
  0
BLOCK_RECORD
  5
7F
330
1
100
AcDbSymbolTableRecord
100
AcDbBlockTableRecord
  2
블럭10
340
0
102
{BLKREFS
331
C1
102
}
  0
BLOCK_RECORD
  5
CA
330
1
100
AcDbSymbolTableRecord
100
AcDbBlockTableRecord
  2
_D
340
0
  0
BLOCK_RECORD
  5
DE
330
1
100
AcDbSymbolTableRecord
100
AcDbBlockTableRecord
  2
_D_1
340
0
  0
BLOCK_RECORD
  5
F3
330
1
100
AcDbSymbolTableRecord
100
AcDbBlockTableRecord
  2
_D_2
340
0
  0
BLOCK_RECORD
  5
106
330
1
100
AcDbSymbolTableRecord
100
AcDbBlockTableRecord
  2
_D_3
340
0
  0
BLOCK_RECORD
  5
11F
330
1
100
AcDbSymbolTableRecord
100
AcDbBlockTableRecord
  2
SW_DOWELSYMBOL_0
340
0
102
{BLKREFS
331
34E
102
}
  0
BLOCK_RECORD
  5
1B8
330
1
100
AcDbSymbolTableRecord
100
AcDbBlockTableRecord
  2
*D7
340
0
  0
BLOCK_RECORD
  5
1C5
330
1
100
AcDbSymbolTableRecord
100
AcDbBlockTableRecord
  2
*D8
340
0
  0
BLOCK_RECORD
  5
1D2
330
1
100
AcDbSymbolTableRecord
100
AcDbBlockTableRecord
  2
*D9
340
0
  0
BLOCK_RECORD
  5
1DF
330
1
100
AcDbSymbolTableRecord
100
AcDbBlockTableRecord
  2
*D10
340
0
  0
BLOCK_RECORD
  5
249
330
1
100
AcDbSymbolTableRecord
100
AcDbBlockTableRecord
  2
*D11
340
0
  0
BLOCK_RECORD
  5
255
330
1
100
AcDbSymbolTableRecord
100
AcDbBlockTableRecord
  2
*D12
340
0
  0
BLOCK_RECORD
  5
261
330
1
100
AcDbSymbolTableRecord
100
AcDbBlockTableRecord
  2
*D13
340
0
  0
BLOCK_RECORD
  5
26D
330
1
100
AcDbSymbolTableRecord
100
AcDbBlockTableRecord
  2
*D14
340
0
  0
BLOCK_RECORD
  5
2D3
330
1
100
AcDbSymbolTableRecord
100
AcDbBlockTableRecord
  2
*D15
340
0
  0
BLOCK_RECORD
  5
2E0
330
1
100
AcDbSymbolTableRecord
100
AcDbBlockTableRecord
  2
*D16
340
0
  0
BLOCK_RECORD
  5
2ED
330
1
100
AcDbSymbolTableRecord
100
AcDbBlockTableRecord
  2
*D17
340
0
  0
BLOCK_RECORD
  5
2FA
330
1
100
AcDbSymbolTableRecord
100
AcDbBlockTableRecord
  2
*D18
340
0
  0
BLOCK_RECORD
  5
359
330
1
100
AcDbSymbolTableRecord
100
AcDbBlockTableRecord
  2
*D19
340
0
  0
BLOCK_RECORD
  5
365
330
1
100
AcDbSymbolTableRecord
100
AcDbBlockTableRecord
  2
*D20
340
0
  0
BLOCK_RECORD
  5
371
330
1
100
AcDbSymbolTableRecord
100
AcDbBlockTableRecord
  2
*D21
340
0
  0
BLOCK_RECORD
  5
37D
330
1
100
AcDbSymbolTableRecord
100
AcDbBlockTableRecord
  2
*D22
340
0
  0
ENDTAB
  0
ENDSEC
  0
SECTION
  2
BLOCKS
  0
BLOCK
  5
20
330
1F
100
AcDbEntity
  8
0
100
AcDbBlockBegin
  2
*Model_Space
 70
     0
 10
0.0
 20
0.0
 30
0.0
  3
*Model_Space
  1
*Model_Space
  0
ENDBLK
  5
21
330
1F
100
AcDbEntity
  8
0
100
AcDbBlockEnd
  0
BLOCK
  5
1C
330
1B
100
AcDbEntity
 67
     1
  8
0
100
AcDbBlockBegin
  2
*Paper_Space
 70
     0
 10
0.0
 20
0.0
 30
0.0
  3
*Paper_Space
  1
*Paper_Space
  0
ENDBLK
  5
1D
330
1B
100
AcDbEntity
 67
     1
  8
0
100
AcDbBlockEnd
  0
BLOCK
  5
24
330
23
100
AcDbEntity
  8
0
100
AcDbBlockBegin
  2
*Paper_Space0
 70
     0
 10
0.0
 20
0.0
 30
0.0
  3
*Paper_Space0
  1
*Paper_Space0
  0
ENDBLK
  5
25
330
23
100
AcDbEntity
  8
0
100
AcDbBlockEnd
  0
BLOCK
  5
80
330
7F
100
AcDbEntity
  8
0
100
AcDbBlockBegin
  2
블럭10
 70
     2
 10
0.0
 20
0.0
 30
0.0
  3
블럭10
  1
블럭10
  0
ELLIPSE
  5
82
330
7F
100
AcDbEntity
  8
중심선
100
AcDbEllipse
 10
20.54032771741204
 20
12.0471743016438
 30
0.0
 11
6.600054785286829
 21
-1.261213355974178E-13
 31
0.0
210
0.0
220
0.0
230
1.0
 40
0.636358354079598
 41
0.9219305317359503
 42
6.513795318482858
  0
ELLIPSE
  5
83
330
7F
100
AcDbEntity
  8
중심선
100
AcDbEllipse
 10
20.54032771746488
 20
12.04717430159265
 30
0.0
 11
3.960054785062283
 21
1.540847449632565E-10
 31
0.0
210
0.0
220
0.0
230
1.0
 40
0.3939339440162632
 41
1.131841032648279
 42
5.62031148352944
  0
LINE
  5
84
330
7F
100
AcDbEntity
  8
중심선
100
AcDbLine
 10
2.268634060543552
 20
16.24717430164393
 30
0.0
 11
5.714909304380834
 21
16.24717430164393
 31
0.0
  0
LINE
  5
85
330
7F
100
AcDbEntity
  8
중심선
100
AcDbLine
 10
5.245725140726316
 20
7.84717430164391
 30
0.0
 11
8.692000384563599
 21
7.84717430164391
 31
0.0
  0
LINE
  5
86
330
7F
100
AcDbEntity
  8
중심선
100
AcDbLine
 10
15.74043728645272
 20
16.24717430164393
 30
0.0
 11
8.692000384563599
 21
7.84717430164391
 31
0.0
  0
LINE
  5
87
330
7F
100
AcDbEntity
  8
중심선
100
AcDbLine
 10
0.1404042013395286
 20
13.71084872107135
 30
0.0
 11
3.58671253028996
 21
13.71088815037384
 31
0.0
  0
LINE
  5
88
330
7F
100
AcDbEntity
  8
중심선
100
AcDbLine
 10
2.750260043222114
 20
10.84717430164391
 30
0.0
 11
6.196535287059397
 21
10.84717430164391
 31
0.0
  0
LINE
  5
89
330
7F
100
AcDbEntity
  8
중심선
100
AcDbLine
 10
12.29416204261559
 20
16.24717430164393
 30
0.0
 11
5.245725140726316
 21
7.84717430164391
 31
0.0
  0
LINE
  5
8A
330
7F
100
AcDbEntity
  8
중심선
100
AcDbLine
 10
10.72767329541681
 20
16.24717430164393
 30
0.0
 11
6.196535287059397
 21
10.84717430164391
 31
0.0
  0
LINE
  5
8B
330
7F
100
AcDbEntity
  8
중심선
100
AcDbLine
 10
7.28139805157953
 20
16.24717430164393
 30
0.0
 11
2.750260043222114
 21
10.84717430164391
 31
0.0
  0
LINE
  5
8C
330
7F
100
AcDbEntity
  8
중심선
100
AcDbLine
 10
5.714909304380834
 20
16.24717430164393
 30
0.0
 11
3.58671253028996
 21
13.71088815037384
 31
0.0
  0
LINE
  5
8D
330
7F
100
AcDbEntity
  8
중심선
100
AcDbLine
 10
2.268634060543552
 20
16.24717430164393
 30
0.0
 11
0.1404042013395286
 21
13.71084872107135
 31
0.0
  0
LINE
  5
8E
330
7F
100
AcDbEntity
  8
중심선
100
AcDbLine
 10
7.28139805157953
 20
16.24717430164393
 30
0.0
 11
10.72767329541681
 21
16.24717430164393
 31
0.0
  0
LINE
  5
8F
330
7F
100
AcDbEntity
  8
중심선
100
AcDbLine
 10
12.29416204261559
 20
16.24717430164393
 30
0.0
 11
15.74043728645272
 21
16.24717430164393
 31
0.0
  0
LINE
  5
90
330
7F
100
AcDbEntity
  8
중심선
100
AcDbLine
 10
19.22036997980202
 20
11.08717430171403
 30
0.0
 11
23.66174974927406
 21
11.08717430171406
 31
0.0
  0
LINE
  5
91
330
7F
100
AcDbEntity
  8
중심선
100
AcDbLine
 10
19.22039502424796
 20
13.00717430171391
 30
0.0
 11
19.22036997980202
 21
11.08717430171403
 31
0.0
  0
LINE
  5
92
330
7F
100
AcDbEntity
  8
중심선
100
AcDbLine
 10
19.22039502424796
 20
13.00717430171391
 30
0.0
 11
26.96566020931264
 21
13.00717430171391
 31
0.0
  0
LINE
  5
93
330
7F
100
AcDbEntity
  8
중심선
100
AcDbLine
 10
22.22332737316547
 20
13.45928029700563
 30
0.0
 11
24.52862924686651
 21
15.39360700705356
 31
0.0
  0
ATTDEF
  5
95
330
7F
100
AcDbEntity
  8
FORMAT
 62
     2
100
AcDbText
 10
4.408487351596664
 20
2.075366912832191
 30
0.0
 40
4.233333333333333
  1
E2032908
 41
0.75
  7
SLDTEXTSTYLE0
 11
4.408487351596664
 21
-0.0412997538344756
 31
0.0
100
AcDbAttributeDefinition
  3

  2
AUTOATTR0
 70
     0
 74
     1
  0
ENDBLK
  5
81
330
7F
100
AcDbEntity
  8
0
100
AcDbBlockEnd
  0
BLOCK
  5
CB
330
CA
100
AcDbEntity
  8
0
100
AcDbBlockBegin
  2
_D
 70
     0
 10
0.0
 20
0.0
 30
0.0
  3
_D
  1
_D
  0
SOLID
  5
CD
330
CA
100
AcDbEntity
  8
치수문자_일반주서
100
AcDbTrace
 10
97.9119459855236
 20
12.5010749287239
 30
0.0
 11
98.4199459855236
 21
15.80307492872389
 31
0.0
 12
97.4039459855236
 22
15.80307492872389
 32
0.0
 13
97.4039459855236
 23
15.80307492872389
 33
0.0
  0
SOLID
  5
CE
330
CA
100
AcDbEntity
  8
치수문자_일반주서
100
AcDbTrace
 10
97.9119459855236
 20
-12.49892507127611
 30
0.0
 11
97.4039459855236
 21
-15.80092507127611
 31
0.0
 12
98.4199459855236
 22
-15.80092507127611
 32
0.0
 13
98.4199459855236
 23
-15.80092507127611
 33
0.0
  0
LINE
  5
CF
330
CA
100
AcDbEntity
  8
치수문자_일반주서
100
AcDbLine
 10
87.11906426948089
 20
-5.413291502344828
 30
0.0
 11
87.11906426948089
 21
-6.124228987909328
 31
0.0
  0
LINE
  5
D0
330
CA
100
AcDbEntity
  8
치수문자_일반주서
100
AcDbLine
 10
87.11906426948089
 20
-6.124228987909328
 30
0.0
 11
92.67531426054019
 21
-6.124228987909289
 31
0.0
  0
LINE
  5
D1
330
CA
100
AcDbEntity
  8
치수문자_일반주서
100
AcDbLine
 10
92.67531426054019
 20
-6.124228987909289
 30
0.0
 11
92.67531426054019
 21
-5.413291502344789
 31
0.0
  0
LINE
  5
D2
330
CA
100
AcDbEntity
  8
치수문자_일반주서
100
AcDbLine
 10
87.1190642694808
 20
5.41544135979243
 30
0.0
 11
87.1190642694808
 21
6.12637884535693
 31
0.0
  0
LINE
  5
D3
330
CA
100
AcDbEntity
  8
치수문자_일반주서
100
AcDbLine
 10
87.1190642694808
 20
6.12637884535693
 30
0.0
 11
92.6753142605401
 21
6.126378845356969
 31
0.0
  0
LINE
  5
D4
330
CA
100
AcDbEntity
  8
치수문자_일반주서
100
AcDbLine
 10
92.6753142605401
 20
6.126378845356969
 30
0.0
 11
92.6753142605401
 21
5.415441359792469
 31
0.0
  0
LINE
  5
D5
330
CA
100
AcDbEntity
  8
치수문자_일반주서
100
AcDbLine
 10
79.91194598552357
 20
12.5010749287239
 30
0.0
 11
98.9119459855236
 21
12.5010749287239
 31
0.0
  0
LINE
  5
D6
330
CA
100
AcDbEntity
  8
치수문자_일반주서
100
AcDbLine
 10
79.91194598552357
 20
-12.49892507127611
 30
0.0
 11
98.9119459855236
 21
-12.49892507127611
 31
0.0
  0
LINE
  5
D7
330
CA
100
AcDbEntity
  8
치수문자_일반주서
100
AcDbLine
 10
97.9119459855236
 20
12.5010749287239
 30
0.0
 11
97.9119459855236
 21
18.8510749287239
 31
0.0
  0
LINE
  5
D8
330
CA
100
AcDbEntity
  8
치수문자_일반주서
100
AcDbLine
 10
97.9119459855236
 20
12.5010749287239
 30
0.0
 11
97.9119459855236
 21
-12.49892507127611
 31
0.0
  0
LINE
  5
D9
330
CA
100
AcDbEntity
  8
치수문자_일반주서
100
AcDbLine
 10
97.9119459855236
 20
-12.49892507127611
 30
0.0
 11
97.9119459855236
 21
-18.84892507127611
 31
0.0
  0
MTEXT
  5
DA
330
CA
100
AcDbEntity
  8
치수문자_일반주서
100
AcDbMText
 10
88.16357734596129
 20
-4.52461960173345
 30
0.0
 40
3.5
 41
0.0
 71
     1
 72
     1
  1
0.98
  7
SLDTEXTSTYLE0
 11
-7.044195017643634E-15
 21
1.0
 31
0.0
 73
     1
 44
1.0
  0
MTEXT
  5
DB
330
CA
100
AcDbEntity
  8
치수문자_일반주서
100
AcDbMText
 10
93.40020889632177
 20
-5.22425519681665
 30
0.0
 40
3.5
 41
0.0
 71
     1
 72
     1
  1
%%c
  7
SLDTEXTSTYLE0
 11
-7.044195017643634E-15
 21
1.0
 31
0.0
 73
     1
 44
1.0
  0
MTEXT
  5
DC
330
CA
100
AcDbEntity
  8
치수문자_일반주서
100
AcDbMText
 10
93.40020889632173
 20
0.0541822015574309
 30
0.0
 40
3.5
 41
0.0
 71
     1
 72
     1
  1
25
  7
SLDTEXTSTYLE0
 11
-7.044195017643634E-15
 21
1.0
 31
0.0
 73
     1
 44
1.0
  0
ENDBLK
  5
CC
330
CA
100
AcDbEntity
  8
0
100
AcDbBlockEnd
  0
BLOCK
  5
DF
330
DE
100
AcDbEntity
  8
0
100
AcDbBlockBegin
  2
_D_1
 70
     0
 10
0.0
 20
0.0
 30
0.0
  3
_D_1
  1
_D_1
  0
SOLID
  5
E1
330
DE
100
AcDbEntity
  8
치수문자_일반주서
100
AcDbTrace
 10
-55.08805401447646
 20
7.938574928723906
 30
0.0
 11
-54.58005401447646
 21
11.24057492872391
 31
0.0
 12
-55.59605401447646
 22
11.24057492872391
 32
0.0
 13
-55.59605401447646
 23
11.24057492872391
 33
0.0
  0
SOLID
  5
E2
330
DE
100
AcDbEntity
  8
치수문자_일반주서
100
AcDbTrace
 10
-55.08805401447646
 20
-7.936425071276123
 30
0.0
 11
-55.59605401447646
 21
-11.23842507127612
 31
0.0
 12
-54.58005401447646
 22
-11.23842507127612
 32
0.0
 13
-54.58005401447646
 23
-11.23842507127612
 33
0.0
  0
LINE
  5
E3
330
DE
100
AcDbEntity
  8
치수문자_일반주서
100
AcDbLine
 10
-65.88093573051917
 20
-6.595745043212554
 30
0.0
 11
-65.88093573051917
 21
-7.306682528777054
 31
0.0
  0
LINE
  5
E4
330
DE
100
AcDbEntity
  8
치수문자_일반주서
100
AcDbLine
 10
-65.88093573051917
 20
-7.306682528777054
 30
0.0
 11
-60.32468573945987
 21
-7.306682528777015
 31
0.0
  0
LINE
  5
E5
330
DE
100
AcDbEntity
  8
치수문자_일반주서
100
AcDbLine
 10
-60.32468573945987
 20
-7.306682528777015
 30
0.0
 11
-60.32468573945987
 21
-6.595745043212514
 31
0.0
  0
LINE
  5
E6
330
DE
100
AcDbEntity
  8
치수문자_일반주서
100
AcDbLine
 10
-65.88093573051925
 20
4.232987818924705
 30
0.0
 11
-65.88093573051925
 21
4.943925304489205
 31
0.0
  0
LINE
  5
E7
330
DE
100
AcDbEntity
  8
치수문자_일반주서
100
AcDbLine
 10
-65.88093573051925
 20
4.943925304489205
 30
0.0
 11
-60.32468573945995
 21
4.943925304489244
 31
0.0
  0
LINE
  5
E8
330
DE
100
AcDbEntity
  8
치수문자_일반주서
100
AcDbLine
 10
-60.32468573945995
 20
4.943925304489244
 30
0.0
 11
-60.32468573945994
 21
4.232987818924744
 31
0.0
  0
LINE
  5
E9
330
DE
100
AcDbEntity
  8
치수문자_일반주서
100
AcDbLine
 10
-41.50055401447643
 20
7.938574928723908
 30
0.0
 11
-56.08805401447646
 21
7.938574928723906
 31
0.0
  0
LINE
  5
EA
330
DE
100
AcDbEntity
  8
치수문자_일반주서
100
AcDbLine
 10
-41.50055401447643
 20
-7.936425071276121
 30
0.0
 11
-56.08805401447646
 21
-7.936425071276123
 31
0.0
  0
LINE
  5
EB
330
DE
100
AcDbEntity
  8
치수문자_일반주서
100
AcDbLine
 10
-55.08805401447646
 20
7.938574928723906
 30
0.0
 11
-55.08805401447646
 21
14.28857492872391
 31
0.0
  0
LINE
  5
EC
330
DE
100
AcDbEntity
  8
치수문자_일반주서
100
AcDbLine
 10
-55.08805401447646
 20
7.938574928723906
 30
0.0
 11
-55.08805401447646
 21
-7.936425071276123
 31
0.0
  0
LINE
  5
ED
330
DE
100
AcDbEntity
  8
치수문자_일반주서
100
AcDbLine
 10
-55.08805401447646
 20
-7.936425071276123
 30
0.0
 11
-55.08805401447646
 21
-14.28642507127612
 31
0.0
  0
MTEXT
  5
EE
330
DE
100
AcDbEntity
  8
치수문자_일반주서
100
AcDbMText
 10
-64.83642265403878
 20
-5.707073142601175
 30
0.0
 40
3.5
 41
0.0
 71
     1
 72
     1
  1
0.63
  7
SLDTEXTSTYLE0
 11
-7.044195017643634E-15
 21
1.0
 31
0.0
 73
     1
 44
1.0
  0
MTEXT
  5
EF
330
DE
100
AcDbEntity
  8
치수문자_일반주서
100
AcDbMText
 10
-59.59979110367827
 20
-9.639347554964907
 30
0.0
 40
3.5
 41
0.0
 71
     1
 72
     1
  1
%%c
  7
SLDTEXTSTYLE0
 11
-7.044195017643634E-15
 21
1.0
 31
0.0
 73
     1
 44
1.0
  0
MTEXT
  5
F0
330
DE
100
AcDbEntity
  8
치수문자_일반주서
100
AcDbMText
 10
-59.59979110367831
 20
-4.360910156590827
 30
0.0
 40
3.5
 41
0.0
 71
     1
 72
     1
  1
15.88
  7
SLDTEXTSTYLE0
 11
-7.044195017643634E-15
 21
1.0
 31
0.0
 73
     1
 44
1.0
  0
ENDBLK
  5
E0
330
DE
100
AcDbEntity
  8
0
100
AcDbBlockEnd
  0
BLOCK
  5
F4
330
F3
100
AcDbEntity
  8
0
100
AcDbBlockBegin
  2
_D_2
 70
     0
 10
0.0
 20
0.0
 30
0.0
  3
_D_2
  1
_D_2
  0
SOLID
  5
F6
330
F3
100
AcDbEntity
  8
치수문자_일반주서
100
AcDbTrace
 10
78.91194598552357
 20
22.624995934208
 30
0.0
 11
75.60994598552358
 21
23.132995934208
 31
0.0
 12
75.60994598552358
 22
22.11699593420801
 32
0.0
 13
75.60994598552358
 23
22.11699593420801
 33
0.0
  0
SOLID
  5
F7
330
F3
100
AcDbEntity
  8
치수문자_일반주서
100
AcDbTrace
 10
33.91194598552359
 20
22.62499593420802
 30
0.0
 11
37.21394598552359
 21
22.11699593420802
 31
0.0
 12
37.21394598552359
 22
23.13299593420802
 32
0.0
 13
37.21394598552359
 23
23.13299593420802
 33
0.0
  0
LINE
  5
F8
330
F3
100
AcDbEntity
  8
치수문자_일반주서
100
AcDbLine
 10
50.99757990370087
 20
33.41787765025074
 30
0.0
 11
50.28664241813637
 21
33.41787765025074
 31
0.0
  0
LINE
  5
F9
330
F3
100
AcDbEntity
  8
치수문자_일반주서
100
AcDbLine
 10
50.28664241813637
 20
33.41787765025074
 30
0.0
 11
50.28664241813632
 21
27.86162765919144
 31
0.0
  0
LINE
  5
FA
330
F3
100
AcDbEntity
  8
치수문자_일반주서
100
AcDbLine
 10
50.28664241813632
 20
27.86162765919144
 30
0.0
 11
50.99757990370082
 21
27.86162765919144
 31
0.0
  0
LINE
  5
FB
330
F3
100
AcDbEntity
  8
치수문자_일반주서
100
AcDbLine
 10
61.82631276583813
 20
33.41787765025067
 30
0.0
 11
62.53725025140263
 21
33.41787765025066
 31
0.0
  0
LINE
  5
FC
330
F3
100
AcDbEntity
  8
치수문자_일반주서
100
AcDbLine
 10
62.53725025140263
 20
33.41787765025066
 30
0.0
 11
62.53725025140258
 21
27.86162765919135
 31
0.0
  0
LINE
  5
FD
330
F3
100
AcDbEntity
  8
치수문자_일반주서
100
AcDbLine
 10
62.53725025140258
 20
27.86162765919135
 30
0.0
 11
61.82631276583808
 21
27.86162765919136
 31
0.0
  0
LINE
  5
FE
330
F3
100
AcDbEntity
  8
치수문자_일반주서
100
AcDbLine
 10
78.91194598552357
 20
13.33467218167797
 30
0.0
 11
78.91194598552357
 21
23.624995934208
 31
0.0
  0
LINE
  5
FF
330
F3
100
AcDbEntity
  8
치수문자_일반주서
100
AcDbLine
 10
33.91194598552358
 20
13.5010749287239
 30
0.0
 11
33.91194598552359
 21
23.62499593420802
 31
0.0
  0
LINE
  5
100
330
F3
100
AcDbEntity
  8
치수문자_일반주서
100
AcDbLine
 10
78.91194598552357
 20
22.624995934208
 30
0.0
 11
33.91194598552359
 21
22.62499593420802
 31
0.0
  0
MTEXT
  5
101
330
F3
100
AcDbEntity
  8
치수문자_일반주서
100
AcDbMText
 10
49.77288369264962
 20
27.19020520006973
 30
0.0
 40
3.5
 41
0.0
 71
     1
 72
     1
  1

  7
SLDTEXTSTYLE0
 73
     1
 44
1.0
  0
MTEXT
  5
102
330
F3
100
AcDbEntity
  8
치수문자_일반주서
100
AcDbMText
 10
51.88625180431223
 20
32.37336457377033
 30
0.0
 40
3.5
 41
0.0
 71
     1
 72
     1
  1
1.77
  7
SLDTEXTSTYLE0
 73
     1
 44
1.0
  0
MTEXT
  5
103
330
F3
100
AcDbEntity
  8
치수문자_일반주서
100
AcDbMText
 10
53.82583514124664
 20
27.13673302340985
 30
0.0
 40
3.5
 41
0.0
 71
     1
 72
     1
  1
45
  7
SLDTEXTSTYLE0
 73
     1
 44
1.0
  0
MTEXT
  5
104
330
F3
100
AcDbEntity
  8
치수문자_일반주서
100
AcDbMText
 10
64.38295349654318
 20
27.19020520006962
 30
0.0
 40
3.5
 41
0.0
 71
     1
 72
     1
  1

  7
SLDTEXTSTYLE0
 73
     1
 44
1.0
  0
ENDBLK
  5
F5
330
F3
100
AcDbEntity
  8
0
100
AcDbBlockEnd
  0
BLOCK
  5
107
330
106
100
AcDbEntity
  8
0
100
AcDbBlockBegin
  2
_D_3
 70
     0
 10
0.0
 20
0.0
 30
0.0
  3
_D_3
  1
_D_3
  0
SOLID
  5
109
330
106
100
AcDbEntity
  8
치수문자_일반주서
100
AcDbTrace
 10
78.91194598552357
 20
38.36394344956528
 30
0.0
 11
75.60994598552358
 21
38.87194344956529
 31
0.0
 12
75.60994598552358
 22
37.85594344956528
 32
0.0
 13
75.60994598552358
 23
37.85594344956528
 33
0.0
  0
SOLID
  5
10A
330
106
100
AcDbEntity
  8
치수문자_일반주서
100
AcDbTrace
 10
-42.08805401447642
 20
38.36394344956528
 30
0.0
 11
-38.78605401447642
 21
37.85594344956527
 31
0.0
 12
-38.78605401447642
 22
38.87194344956528
 32
0.0
 13
-38.78605401447642
 23
38.87194344956528
 33
0.0
  0
LINE
  5
10B
330
106
100
AcDbEntity
  8
치수문자_일반주서
100
AcDbLine
 10
14.47912979228456
 20
49.15682516560803
 30
0.0
 11
13.76819230672006
 21
49.15682516560804
 31
0.0
  0
LINE
  5
10C
330
106
100
AcDbEntity
  8
치수문자_일반주서
100
AcDbLine
 10
13.76819230672006
 20
49.15682516560804
 30
0.0
 11
13.76819230672002
 21
43.60057517454874
 31
0.0
  0
LINE
  5
10D
330
106
100
AcDbEntity
  8
치수문자_일반주서
100
AcDbLine
 10
13.76819230672002
 20
43.60057517454874
 30
0.0
 11
14.47912979228452
 21
43.60057517454873
 31
0.0
  0
LINE
  5
10E
330
106
100
AcDbEntity
  8
치수문자_일반주서
100
AcDbLine
 10
25.30786265442182
 20
49.15682516560796
 30
0.0
 11
26.01880013998632
 21
49.15682516560796
 31
0.0
  0
LINE
  5
10F
330
106
100
AcDbEntity
  8
치수문자_일반주서
100
AcDbLine
 10
26.01880013998632
 20
49.15682516560796
 30
0.0
 11
26.01880013998629
 21
43.60057517454865
 31
0.0
  0
LINE
  5
110
330
106
100
AcDbEntity
  8
치수문자_일반주서
100
AcDbLine
 10
26.01880013998629
 20
43.60057517454865
 30
0.0
 11
25.30786265442179
 21
43.60057517454866
 31
0.0
  0
LINE
  5
111
330
106
100
AcDbEntity
  8
치수문자_일반주서
100
AcDbLine
 10
78.91194598552357
 20
13.21639659633511
 30
0.0
 11
78.91194598552357
 21
39.36394344956528
 31
0.0
  0
LINE
  5
112
330
106
100
AcDbEntity
  8
치수문자_일반주서
100
AcDbLine
 10
-42.08805401447642
 20
7.351074928723897
 30
0.0
 11
-42.08805401447642
 21
39.36394344956528
 31
0.0
  0
LINE
  5
113
330
106
100
AcDbEntity
  8
치수문자_일반주서
100
AcDbLine
 10
78.91194598552357
 20
38.36394344956528
 30
0.0
 11
-42.08805401447642
 21
38.36394344956528
 31
0.0
  0
MTEXT
  5
114
330
106
100
AcDbEntity
  8
치수문자_일반주서
100
AcDbMText
 10
13.25443358123332
 20
42.92915271542702
 30
0.0
 40
3.5
 41
0.0
 71
     1
 72
     1
  1

  7
SLDTEXTSTYLE0
 73
     1
 44
1.0
  0
MTEXT
  5
115
330
106
100
AcDbEntity
  8
치수문자_일반주서
100
AcDbMText
 10
15.36780169289593
 20
48.11231208912763
 30
0.0
 40
3.5
 41
0.0
 71
     1
 72
     1
  1
4.76
  7
SLDTEXTSTYLE0
 73
     1
 44
1.0
  0
MTEXT
  5
116
330
106
100
AcDbEntity
  8
치수문자_일반주서
100
AcDbMText
 10
16.01432954948426
 20
42.87568053876715
 30
0.0
 40
3.5
 41
0.0
 71
     1
 72
     1
  1
121
  7
SLDTEXTSTYLE0
 73
     1
 44
1.0
  0
MTEXT
  5
117
330
106
100
AcDbEntity
  8
치수문자_일반주서
100
AcDbMText
 10
27.86450338512689
 20
42.92915271542692
 30
0.0
 40
3.5
 41
0.0
 71
     1
 72
     1
  1

  7
SLDTEXTSTYLE0
 73
     1
 44
1.0
  0
ENDBLK
  5
108
330
106
100
AcDbEntity
  8
0
100
AcDbBlockEnd
  0
BLOCK
  5
120
330
11F
100
AcDbEntity
  8
0
100
AcDbBlockBegin
  2
SW_DOWELSYMBOL_0
 70
     0
 10
0.0
 20
0.0
 30
0.0
  3
SW_DOWELSYMBOL_0
  1
SW_DOWELSYMBOL_0
  0
CIRCLE
  5
122
330
11F
100
AcDbEntity
  8
해칭선
 62
     0
100
AcDbCircle
 10
0.0
 20
0.0
 30
0.0
 40
3.000000000000001
  0
HATCH
  5
123
330
11F
100
AcDbEntity
  8
0
  6
Continuous
 62
     0
370
     0
100
AcDbHatch
 10
0.0
 20
0.0
 30
0.0
210
0.0
220
0.0
230
1.0
  2
SOLID
 70
     1
 71
     0
 91
        1
 92
        0
 93
        3
 72
     2
 10
0.0
 20
0.0
 40
3.000000000000001
 50
0.0
 51
90.0
 73
     1
 72
     1
 10
0.0
 20
3.000000000000001
 11
0.0
 21
0.0
 72
     1
 10
0.0
 20
0.0
 11
3.000000000000001
 21
0.0
 97
        0
 75
     0
 76
     1
 98
        1
 10
0.0
 20
0.0
  0
HATCH
  5
124
330
11F
100
AcDbEntity
  8
0
  6
Continuous
 62
     0
370
     0
100
AcDbHatch
 10
0.0
 20
0.0
 30
0.0
210
0.0
220
0.0
230
1.0
  2
SOLID
 70
     1
 71
     0
 91
        1
 92
        0
 93
        3
 72
     2
 10
0.0
 20
0.0
 40
3.000000000000001
 50
180.0
 51
270.0000000000007
 73
     1
 72
     1
 10
0.0
 20
-3.000000000000001
 11
0.0
 21
0.0
 72
     1
 10
0.0
 20
0.0
 11
-3.000000000000001
 21
0.0
 97
        0
 75
     0
 76
     1
 98
        1
 10
0.0
 20
0.0
  0
ENDBLK
  5
121
330
11F
100
AcDbEntity
  8
0
100
AcDbBlockEnd
  0
BLOCK
  5
1B9
330
1B8
100
AcDbEntity
  8
0
100
AcDbBlockBegin
  2
*D7
 70
     1
 10
0.0
 20
0.0
 30
0.0
  3
*D7
  1
*D8
  0
LINE
  5
1BA
330
1B8
100
AcDbEntity
  8
치수문자_일반주서
 62
     0
370
    -2
100
AcDbLine
 10
18.90000000000003
 20
57.90930738881176
 30
0.0
 11
4.375000000000029
 21
57.9093073888117
 31
0.0
  0
LINE
  5
1BB
330
1B8
100
AcDbEntity
  8
치수문자_일반주서
 62
     0
370
    -2
100
AcDbLine
 10
18.90000000000003
 20
42.03430738881173
 30
0.0
 11
4.375000000000084
 21
42.03430738881168
 31
0.0
  0
LINE
  5
1BC
330
1B8
100
AcDbEntity
  8
치수문자_일반주서
 62
     0
370
    -2
100
AcDbLine
 10
4.375000000000041
 20
54.60730738881171
 30
0.0
 11
4.375000000000073
 21
45.33630738881168
 31
0.0
  0
SOLID
  5
1BD
330
1B8
100
AcDbEntity
  8
치수문자_일반주서
 62
     0
100
AcDbTrace
 10
4.925333333333374
 20
54.60730738881171
 30
0.0
 11
3.824666666666708
 21
54.60730738881171
 31
0.0
 12
4.375000000000029
 22
57.9093073888117
 32
0.0
 13
4.375000000000029
 23
57.9093073888117
 33
0.0
  0
SOLID
  5
1BE
330
1B8
100
AcDbEntity
  8
치수문자_일반주서
 62
     0
100
AcDbTrace
 10
3.82466666666674
 20
45.33630738881168
 30
0.0
 11
4.925333333333406
 21
45.33630738881168
 31
0.0
 12
4.375000000000084
 22
42.03430738881168
 32
0.0
 13
4.375000000000084
 23
42.03430738881168
 33
0.0
  0
MTEXT
  5
1BF
330
1B8
100
AcDbEntity
  8
치수문자_일반주서
 62
     0
100
AcDbMText
 10
0.0000000000000568
 20
49.97180738881175
 30
0.0
 40
3.5
 41
0.0
 71
     2
 72
     1
  1
\A1;%%c15.88 [5/8]
  7
SLDTEXTSTYLE0
 11
-3.468791308435129E-15
 21
1.0
 31
0.0
 73
     1
 44
1.0
  0
POINT
  5
1C0
330
1B8
100
AcDbEntity
  8
Defpoints
 62
     0
100
AcDbPoint
 10
18.96250000000003
 20
57.90930738881176
 30
0.0
  0
POINT
  5
1C1
330
1B8
100
AcDbEntity
  8
Defpoints
 62
     0
100
AcDbPoint
 10
18.96250000000003
 20
42.03430738881173
 30
0.0
  0
POINT
  5
1C2
330
1B8
100
AcDbEntity
  8
Defpoints
 62
     0
100
AcDbPoint
 10
4.375000000000085
 20
42.03430738881168
 30
0.0
  0
ENDBLK
  5
1C3
330
1B8
100
AcDbEntity
  8
0
100
AcDbBlockEnd
  0
BLOCK
  5
1C6
330
1C5
100
AcDbEntity
  8
0
100
AcDbBlockBegin
  2
*D8
 70
     1
 10
0.0
 20
0.0
 30
0.0
  3
*D8
  1
*D9
  0
LINE
  5
1C7
330
1C5
100
AcDbEntity
  8
치수문자_일반주서
 62
     0
370
    -2
100
AcDbLine
 10
118.9750000000001
 20
61.94055739039915
 30
0.0
 11
118.9750000000001
 21
89.51723933872377
 31
0.0
  0
LINE
  5
1C8
330
1C5
100
AcDbEntity
  8
치수문자_일반주서
 62
     0
370
    -2
100
AcDbLine
 10
71.35000000000008
 20
61.91031381685369
 30
0.0
 11
71.35000000000008
 21
89.51723933872377
 31
0.0
  0
LINE
  5
1C9
330
1C5
100
AcDbEntity
  8
치수문자_일반주서
 62
     0
370
    -2
100
AcDbLine
 10
115.6730000000001
 20
89.51723933872377
 30
0.0
 11
74.65200000000007
 21
89.51723933872377
 31
0.0
  0
SOLID
  5
1CA
330
1C5
100
AcDbEntity
  8
치수문자_일반주서
 62
     0
100
AcDbTrace
 10
115.6730000000001
 20
88.96690600539044
 30
0.0
 11
115.6730000000001
 21
90.0675726720571
 31
0.0
 12
118.9750000000001
 22
89.51723933872377
 32
0.0
 13
118.9750000000001
 23
89.51723933872377
 33
0.0
  0
SOLID
  5
1CB
330
1C5
100
AcDbEntity
  8
치수문자_일반주서
 62
     0
100
AcDbTrace
 10
74.65200000000007
 20
90.0675726720571
 30
0.0
 11
74.65200000000007
 21
88.96690600539044
 31
0.0
 12
71.35000000000008
 22
89.51723933872377
 32
0.0
 13
71.35000000000008
 23
89.51723933872377
 33
0.0
  0
MTEXT
  5
1CC
330
1C5
100
AcDbEntity
  8
치수문자_일반주서
 62
     0
100
AcDbMText
 10
92.14625000000007
 20
93.89223933872377
 30
0.0
 40
3.5
 41
0.0
 71
     2
 72
     1
  1
\A1;47.63 [1 7/8]
  7
SLDTEXTSTYLE0
 73
     1
 44
1.0
  0
POINT
  5
1CD
330
1C5
100
AcDbEntity
  8
Defpoints
 62
     0
100
AcDbPoint
 10
118.9750000000001
 20
61.87805739039915
 30
0.0
  0
POINT
  5
1CE
330
1C5
100
AcDbEntity
  8
Defpoints
 62
     0
100
AcDbPoint
 10
71.35000000000008
 20
61.84781381685369
 30
0.0
  0
POINT
  5
1CF
330
1C5
100
AcDbEntity
  8
Defpoints
 62
     0
100
AcDbPoint
 10
71.35000000000008
 20
89.51723933872377
 30
0.0
  0
ENDBLK
  5
1D0
330
1C5
100
AcDbEntity
  8
0
100
AcDbBlockEnd
  0
BLOCK
  5
1D3
330
1D2
100
AcDbEntity
  8
0
100
AcDbBlockBegin
  2
*D9
 70
     1
 10
0.0
 20
0.0
 30
0.0
  3
*D9
  1
*D10
  0
LINE
  5
1D4
330
1D2
100
AcDbEntity
  8
치수문자_일반주서
 62
     0
370
    -2
100
AcDbLine
 10
118.9750000000001
 20
61.94055739039915
 30
0.0
 11
118.9750000000001
 21
105.1172393387238
 31
0.0
  0
LINE
  5
1D5
330
1D2
100
AcDbEntity
  8
치수문자_일반주서
 62
     0
370
    -2
100
AcDbLine
 10
17.37500000000006
 20
56.38430738881176
 30
0.0
 11
17.37500000000006
 21
105.1172393387238
 31
0.0
  0
LINE
  5
1D6
330
1D2
100
AcDbEntity
  8
치수문자_일반주서
 62
     0
370
    -2
100
AcDbLine
 10
115.6730000000001
 20
105.1172393387238
 30
0.0
 11
20.67700000000006
 21
105.1172393387238
 31
0.0
  0
SOLID
  5
1D7
330
1D2
100
AcDbEntity
  8
치수문자_일반주서
 62
     0
100
AcDbTrace
 10
115.6730000000001
 20
104.5669060053905
 30
0.0
 11
115.6730000000001
 21
105.6675726720571
 31
0.0
 12
118.9750000000001
 22
105.1172393387238
 32
0.0
 13
118.9750000000001
 23
105.1172393387238
 33
0.0
  0
SOLID
  5
1D8
330
1D2
100
AcDbEntity
  8
치수문자_일반주서
 62
     0
100
AcDbTrace
 10
20.67700000000006
 20
105.6675726720571
 30
0.0
 11
20.67700000000006
 21
104.5669060053905
 31
0.0
 12
17.37500000000006
 22
105.1172393387238
 32
0.0
 13
17.37500000000006
 23
105.1172393387238
 33
0.0
  0
MTEXT
  5
1D9
330
1D2
100
AcDbEntity
  8
치수문자_일반주서
 62
     0
100
AcDbMText
 10
70.52101805201079
 20
109.4922393387238
 30
0.0
 40
3.5
 41
0.0
 71
     2
 72
     1
  1
\A1;101.6 [4]
  7
SLDTEXTSTYLE0
 73
     1
 44
1.0
  0
POINT
  5
1DA
330
1D2
100
AcDbEntity
  8
Defpoints
 62
     0
100
AcDbPoint
 10
118.9750000000001
 20
61.87805739039915
 30
0.0
  0
POINT
  5
1DB
330
1D2
100
AcDbEntity
  8
Defpoints
 62
     0
100
AcDbPoint
 10
17.37500000000006
 20
56.32180738881176
 30
0.0
  0
POINT
  5
1DC
330
1D2
100
AcDbEntity
  8
Defpoints
 62
     0
100
AcDbPoint
 10
17.37500000000006
 20
105.1172393387238
 30
0.0
  0
ENDBLK
  5
1DD
330
1D2
100
AcDbEntity
  8
0
100
AcDbBlockEnd
  0
BLOCK
  5
1E0
330
1DF
100
AcDbEntity
  8
0
100
AcDbBlockBegin
  2
*D10
 70
     1
 10
0.0
 20
0.0
 30
0.0
  3
*D10
  1
*D11
  0
LINE
  5
1E1
330
1DF
100
AcDbEntity
  8
치수문자_일반주서
 62
     0
370
    -2
100
AcDbLine
 10
119.0375000000001
 20
61.87805739039915
 30
0.0
 11
149.9383898834456
 21
61.87805739039926
 31
0.0
  0
LINE
  5
1E2
330
1DF
100
AcDbEntity
  8
치수문자_일반주서
 62
     0
370
    -2
100
AcDbLine
 10
119.0375000000001
 20
38.06555738722412
 30
0.0
 11
149.9383898834456
 21
38.06555738722423
 31
0.0
  0
LINE
  5
1E3
330
1DF
100
AcDbEntity
  8
치수문자_일반주서
 62
     0
370
    -2
100
AcDbLine
 10
149.9383898834456
 20
61.87805739039926
 30
0.0
 11
149.9383898834454
 21
108.5340573945201
 31
0.0
  0
LINE
  5
1E4
330
1DF
100
AcDbEntity
  8
치수문자_일반주서
 62
     0
370
    -2
100
AcDbLine
 10
149.9383898834456
 20
61.87805739039926
 30
0.0
 11
149.9383898834456
 21
38.06555738722423
 31
0.0
  0
LINE
  5
1E5
330
1DF
100
AcDbEntity
  8
치수문자_일반주서
 62
     0
370
    -2
100
AcDbLine
 10
149.9383898834456
 20
65.18005739039927
 30
0.0
 11
149.9383898834456
 21
68.48205739039926
 31
0.0
  0
LINE
  5
1E6
330
1DF
100
AcDbEntity
  8
치수문자_일반주서
 62
     0
370
    -2
100
AcDbLine
 10
149.9383898834456
 20
34.76355738722423
 30
0.0
 11
149.9383898834456
 21
31.46155738722423
 31
0.0
  0
SOLID
  5
1E7
330
1DF
100
AcDbEntity
  8
치수문자_일반주서
 62
     0
100
AcDbTrace
 10
149.3880565501122
 20
65.18005739039927
 30
0.0
 11
150.4887232167789
 21
65.18005739039927
 31
0.0
 12
149.9383898834456
 22
61.87805739039926
 32
0.0
 13
149.9383898834456
 23
61.87805739039926
 33
0.0
  0
SOLID
  5
1E8
330
1DF
100
AcDbEntity
  8
치수문자_일반주서
 62
     0
100
AcDbTrace
 10
150.488723216779
 20
34.76355738722423
 30
0.0
 11
149.3880565501123
 21
34.76355738722423
 31
0.0
 12
149.9383898834456
 22
38.06555738722423
 32
0.0
 13
149.9383898834456
 23
38.06555738722423
 33
0.0
  0
MTEXT
  5
1E9
330
1DF
100
AcDbEntity
  8
치수문자_일반주서
 62
     0
100
AcDbMText
 10
145.5633898834454
 20
92.78405739452005
 30
0.0
 40
3.5
 41
0.0
 71
     2
 72
     1
  1
\A1;%%c23.81 [15/16]
  7
SLDTEXTSTYLE0
 11
-3.580687801778193E-15
 21
1.0
 31
0.0
 73
     1
 44
1.0
  0
POINT
  5
1EA
330
1DF
100
AcDbEntity
  8
Defpoints
 62
     0
100
AcDbPoint
 10
118.9750000000001
 20
61.87805739039915
 30
0.0
  0
POINT
  5
1EB
330
1DF
100
AcDbEntity
  8
Defpoints
 62
     0
100
AcDbPoint
 10
118.9750000000001
 20
38.06555738722412
 30
0.0
  0
POINT
  5
1EC
330
1DF
100
AcDbEntity
  8
Defpoints
 62
     0
100
AcDbPoint
 10
149.9383898834456
 20
38.06555738722423
 30
0.0
  0
ENDBLK
  5
1ED
330
1DF
100
AcDbEntity
  8
0
100
AcDbBlockEnd
  0
BLOCK
  5
24A
330
249
100
AcDbEntity
  8
0
100
AcDbBlockBegin
  2
*D11
 70
     1
 10
0.0
 20
0.0
 30
0.0
  3
*D11
  1
*D12
  0
LINE
  5
24C
330
249
100
AcDbEntity
  8
치수문자_일반주서
 62
     0
370
    -2
100
AcDbLine
 10
120.054650349728
 20
8.35309396532677
 30
0.0
 11
105.529650349728
 21
8.353093965326714
 31
0.0
  0
LINE
  5
24D
330
249
100
AcDbEntity
  8
치수문자_일반주서
 62
     0
370
    -2
100
AcDbLine
 10
120.054650349728
 20
-7.521906034673258
 30
0.0
 11
105.5296503497281
 21
-7.521906034673314
 31
0.0
  0
LINE
  5
24E
330
249
100
AcDbEntity
  8
치수문자_일반주서
 62
     0
370
    -2
100
AcDbLine
 10
105.529650349728
 20
5.051093965326714
 30
0.0
 11
105.529650349728
 21
-4.219906034673315
 31
0.0
  0
SOLID
  5
24F
330
249
100
AcDbEntity
  8
치수문자_일반주서
 62
     0
100
AcDbTrace
 10
106.0799836830613
 20
5.051093965326716
 30
0.0
 11
104.9793170163947
 21
5.051093965326713
 31
0.0
 12
105.529650349728
 22
8.353093965326714
 32
0.0
 13
105.529650349728
 23
8.353093965326714
 33
0.0
  0
SOLID
  5
250
330
249
100
AcDbEntity
  8
치수문자_일반주서
 62
     0
100
AcDbTrace
 10
104.9793170163947
 20
-4.219906034673317
 30
0.0
 11
106.0799836830614
 21
-4.219906034673313
 31
0.0
 12
105.5296503497281
 22
-7.521906034673314
 32
0.0
 13
105.5296503497281
 23
-7.521906034673314
 33
0.0
  0
MTEXT
  5
251
330
249
100
AcDbEntity
  8
치수문자_일반주서
 62
     0
100
AcDbMText
 10
101.154650349728
 20
0.4155939653267554
 30
0.0
 40
3.5
 41
0.0
 71
     2
 72
     1
  1
\A1;%%c15.88 [5/8]
  7
SLDTEXTSTYLE0
 11
-3.580687802255617E-15
 21
1.0
 31
0.0
 73
     1
 44
1.0
  0
POINT
  5
252
330
249
100
AcDbEntity
  8
Defpoints
 62
     0
100
AcDbPoint
 10
120.117150349728
 20
8.35309396532677
 30
0.0
  0
POINT
  5
253
330
249
100
AcDbEntity
  8
Defpoints
 62
     0
100
AcDbPoint
 10
120.117150349728
 20
-7.521906034673258
 30
0.0
  0
POINT
  5
254
330
249
100
AcDbEntity
  8
Defpoints
 62
     0
100
AcDbPoint
 10
105.5296503497281
 20
-7.521906034673312
 30
0.0
  0
ENDBLK
  5
24B
330
249
100
AcDbEntity
  8
0
100
AcDbBlockEnd
  0
BLOCK
  5
256
330
255
100
AcDbEntity
  8
0
100
AcDbBlockBegin
  2
*D12
 70
     1
 10
0.0
 20
0.0
 30
0.0
  3
*D12
  1
*D13
  0
LINE
  5
258
330
255
100
AcDbEntity
  8
치수문자_일반주서
 62
     0
370
    -2
100
AcDbLine
 10
220.1296503497281
 20
12.38434396691416
 30
0.0
 11
220.1296503497281
 21
39.96102591523878
 31
0.0
  0
LINE
  5
259
330
255
100
AcDbEntity
  8
치수문자_일반주서
 62
     0
370
    -2
100
AcDbLine
 10
172.5046503497281
 20
12.3541003933687
 30
0.0
 11
172.5046503497281
 21
39.96102591523878
 31
0.0
  0
LINE
  5
25A
330
255
100
AcDbEntity
  8
치수문자_일반주서
 62
     0
370
    -2
100
AcDbLine
 10
216.8276503497281
 20
39.96102591523878
 30
0.0
 11
175.806650349728
 21
39.96102591523878
 31
0.0
  0
SOLID
  5
25B
330
255
100
AcDbEntity
  8
치수문자_일반주서
 62
     0
100
AcDbTrace
 10
216.8276503497281
 20
39.41069258190544
 30
0.0
 11
216.8276503497281
 21
40.51135924857211
 31
0.0
 12
220.1296503497281
 22
39.96102591523878
 32
0.0
 13
220.1296503497281
 23
39.96102591523878
 33
0.0
  0
SOLID
  5
25C
330
255
100
AcDbEntity
  8
치수문자_일반주서
 62
     0
100
AcDbTrace
 10
175.806650349728
 20
40.51135924857211
 30
0.0
 11
175.806650349728
 21
39.41069258190544
 31
0.0
 12
172.5046503497281
 22
39.96102591523878
 32
0.0
 13
172.5046503497281
 23
39.96102591523878
 33
0.0
  0
MTEXT
  5
25D
330
255
100
AcDbEntity
  8
치수문자_일반주서
 62
     0
100
AcDbMText
 10
193.300900349728
 20
44.33602591523878
 30
0.0
 40
3.5
 41
0.0
 71
     2
 72
     1
  1
\A1;47.63 [1 7/8]
  7
SLDTEXTSTYLE0
 73
     1
 44
1.0
  0
POINT
  5
25E
330
255
100
AcDbEntity
  8
Defpoints
 62
     0
100
AcDbPoint
 10
220.1296503497281
 20
12.32184396691416
 30
0.0
  0
POINT
  5
25F
330
255
100
AcDbEntity
  8
Defpoints
 62
     0
100
AcDbPoint
 10
172.5046503497281
 20
12.2916003933687
 30
0.0
  0
POINT
  5
260
330
255
100
AcDbEntity
  8
Defpoints
 62
     0
100
AcDbPoint
 10
172.5046503497281
 20
39.96102591523878
 30
0.0
  0
ENDBLK
  5
257
330
255
100
AcDbEntity
  8
0
100
AcDbBlockEnd
  0
BLOCK
  5
262
330
261
100
AcDbEntity
  8
0
100
AcDbBlockBegin
  2
*D13
 70
     1
 10
0.0
 20
0.0
 30
0.0
  3
*D13
  1
*D14
  0
LINE
  5
264
330
261
100
AcDbEntity
  8
치수문자_일반주서
 62
     0
370
    -2
100
AcDbLine
 10
220.1296503497281
 20
12.38434396691416
 30
0.0
 11
220.1296503497281
 21
55.56102591523879
 31
0.0
  0
LINE
  5
265
330
261
100
AcDbEntity
  8
치수문자_일반주서
 62
     0
370
    -2
100
AcDbLine
 10
118.529650349728
 20
6.828093965326765
 30
0.0
 11
118.529650349728
 21
55.56102591523879
 31
0.0
  0
LINE
  5
266
330
261
100
AcDbEntity
  8
치수문자_일반주서
 62
     0
370
    -2
100
AcDbLine
 10
216.8276503497281
 20
55.56102591523879
 30
0.0
 11
121.831650349728
 21
55.56102591523879
 31
0.0
  0
SOLID
  5
267
330
261
100
AcDbEntity
  8
치수문자_일반주서
 62
     0
100
AcDbTrace
 10
216.8276503497281
 20
55.01069258190545
 30
0.0
 11
216.8276503497281
 21
56.11135924857212
 31
0.0
 12
220.1296503497281
 22
55.56102591523879
 32
0.0
 13
220.1296503497281
 23
55.56102591523879
 33
0.0
  0
SOLID
  5
268
330
261
100
AcDbEntity
  8
치수문자_일반주서
 62
     0
100
AcDbTrace
 10
121.831650349728
 20
56.11135924857212
 30
0.0
 11
121.831650349728
 21
55.01069258190545
 31
0.0
 12
118.529650349728
 22
55.56102591523879
 32
0.0
 13
118.529650349728
 23
55.56102591523879
 33
0.0
  0
MTEXT
  5
269
330
261
100
AcDbEntity
  8
치수문자_일반주서
 62
     0
100
AcDbMText
 10
171.6756684017388
 20
59.93602591523879
 30
0.0
 40
3.5
 41
0.0
 71
     2
 72
     1
  1
\A1;101.6 [4]
  7
SLDTEXTSTYLE0
 73
     1
 44
1.0
  0
POINT
  5
26A
330
261
100
AcDbEntity
  8
Defpoints
 62
     0
100
AcDbPoint
 10
220.1296503497281
 20
12.32184396691416
 30
0.0
  0
POINT
  5
26B
330
261
100
AcDbEntity
  8
Defpoints
 62
     0
100
AcDbPoint
 10
118.529650349728
 20
6.765593965326765
 30
0.0
  0
POINT
  5
26C
330
261
100
AcDbEntity
  8
Defpoints
 62
     0
100
AcDbPoint
 10
118.529650349728
 20
55.56102591523879
 30
0.0
  0
ENDBLK
  5
263
330
261
100
AcDbEntity
  8
0
100
AcDbBlockEnd
  0
BLOCK
  5
26E
330
26D
100
AcDbEntity
  8
0
100
AcDbBlockBegin
  2
*D14
 70
     1
 10
0.0
 20
0.0
 30
0.0
  3
*D14
  1
*D15
  0
LINE
  5
270
330
26D
100
AcDbEntity
  8
치수문자_일반주서
 62
     0
370
    -2
100
AcDbLine
 10
220.1921503497281
 20
12.32184396691416
 30
0.0
 11
251.0930402331735
 21
12.32184396691428
 31
0.0
  0
LINE
  5
271
330
26D
100
AcDbEntity
  8
치수문자_일반주서
 62
     0
370
    -2
100
AcDbLine
 10
220.1921503497281
 20
-11.49065603626087
 30
0.0
 11
251.0930402331736
 21
-11.49065603626075
 31
0.0
  0
LINE
  5
272
330
26D
100
AcDbEntity
  8
치수문자_일반주서
 62
     0
370
    -2
100
AcDbLine
 10
251.0930402331735
 20
12.32184396691428
 30
0.0
 11
251.0930402331734
 21
58.97784397103506
 31
0.0
  0
LINE
  5
273
330
26D
100
AcDbEntity
  8
치수문자_일반주서
 62
     0
370
    -2
100
AcDbLine
 10
251.0930402331735
 20
12.32184396691428
 30
0.0
 11
251.0930402331736
 21
-11.49065603626075
 31
0.0
  0
LINE
  5
274
330
26D
100
AcDbEntity
  8
치수문자_일반주서
 62
     0
370
    -2
100
AcDbLine
 10
251.0930402331735
 20
15.62384396691428
 30
0.0
 11
251.0930402331735
 21
18.92584396691428
 31
0.0
  0
LINE
  5
275
330
26D
100
AcDbEntity
  8
치수문자_일반주서
 62
     0
370
    -2
100
AcDbLine
 10
251.0930402331736
 20
-14.79265603626075
 30
0.0
 11
251.0930402331736
 21
-18.09465603626075
 31
0.0
  0
SOLID
  5
276
330
26D
100
AcDbEntity
  8
치수문자_일반주서
 62
     0
100
AcDbTrace
 10
250.5427068998402
 20
15.62384396691427
 30
0.0
 11
251.6433735665069
 21
15.62384396691428
 31
0.0
 12
251.0930402331735
 22
12.32184396691428
 32
0.0
 13
251.0930402331735
 23
12.32184396691428
 33
0.0
  0
SOLID
  5
277
330
26D
100
AcDbEntity
  8
치수문자_일반주서
 62
     0
100
AcDbTrace
 10
251.6433735665069
 20
-14.79265603626075
 30
0.0
 11
250.5427068998403
 21
-14.79265603626075
 31
0.0
 12
251.0930402331736
 22
-11.49065603626075
 32
0.0
 13
251.0930402331736
 23
-11.49065603626075
 33
0.0
  0
MTEXT
  5
278
330
26D
100
AcDbEntity
  8
치수문자_일반주서
 62
     0
100
AcDbMText
 10
246.7180402331734
 20
43.22784397103506
 30
0.0
 40
3.5
 41
0.0
 71
     2
 72
     1
  1
\A1;%%c23.81 [15/16]
  7
SLDTEXTSTYLE0
 11
-3.580687801778192E-15
 21
1.0
 31
0.0
 73
     1
 44
1.0
  0
POINT
  5
279
330
26D
100
AcDbEntity
  8
Defpoints
 62
     0
100
AcDbPoint
 10
220.1296503497281
 20
12.32184396691416
 30
0.0
  0
POINT
  5
27A
330
26D
100
AcDbEntity
  8
Defpoints
 62
     0
100
AcDbPoint
 10
220.1296503497281
 20
-11.49065603626087
 30
0.0
  0
POINT
  5
27B
330
26D
100
AcDbEntity
  8
Defpoints
 62
     0
100
AcDbPoint
 10
251.0930402331736
 20
-11.49065603626076
 30
0.0
  0
ENDBLK
  5
26F
330
26D
100
AcDbEntity
  8
0
100
AcDbBlockEnd
  0
BLOCK
  5
2D4
330
2D3
100
AcDbEntity
  8
0
100
AcDbBlockBegin
  2
*D15
 70
     1
 10
0.0
 20
0.0
 30
0.0
  3
*D15
  1
*D12
  0
LINE
  5
2D5
330
2D3
100
AcDbEntity
  8
치수문자_일반주서
 62
     0
370
    -2
100
AcDbLine
 10
18.90000000000005
 20
24.86025000000002
 30
0.0
 11
4.375000000000029
 21
24.86024999999997
 31
0.0
  0
LINE
  5
2D6
330
2D3
100
AcDbEntity
  8
치수문자_일반주서
 62
     0
370
    -2
100
AcDbLine
 10
18.90000000000005
 20
8.985249999999994
 30
0.0
 11
4.375000000000084
 21
8.985249999999937
 31
0.0
  0
LINE
  5
2D7
330
2D3
100
AcDbEntity
  8
치수문자_일반주서
 62
     0
370
    -2
100
AcDbLine
 10
4.375000000000041
 20
21.55824999999997
 30
0.0
 11
4.375000000000073
 21
12.28724999999994
 31
0.0
  0
SOLID
  5
2D8
330
2D3
100
AcDbEntity
  8
치수문자_일반주서
 62
     0
100
AcDbTrace
 10
4.925333333333374
 20
21.55824999999997
 30
0.0
 11
3.824666666666708
 21
21.55824999999996
 31
0.0
 12
4.375000000000029
 22
24.86024999999997
 32
0.0
 13
4.375000000000029
 23
24.86024999999997
 33
0.0
  0
SOLID
  5
2D9
330
2D3
100
AcDbEntity
  8
치수문자_일반주서
 62
     0
100
AcDbTrace
 10
3.82466666666674
 20
12.28724999999993
 30
0.0
 11
4.925333333333406
 21
12.28724999999994
 31
0.0
 12
4.375000000000084
 22
8.985249999999937
 32
0.0
 13
4.375000000000084
 23
8.985249999999937
 33
0.0
  0
MTEXT
  5
2DA
330
2D3
100
AcDbEntity
  8
치수문자_일반주서
 62
     0
100
AcDbMText
 10
0.0000000000000568
 20
16.92275
 30
0.0
 40
3.5
 41
0.0
 71
     2
 72
     1
  1
\A1;%%c15.88 [5/8]
  7
SLDTEXTSTYLE0
 11
-3.468791308435129E-15
 21
1.0
 31
0.0
 73
     1
 44
1.0
  0
POINT
  5
2DB
330
2D3
100
AcDbEntity
  8
Defpoints
 62
     0
100
AcDbPoint
 10
18.96250000000005
 20
24.86025000000002
 30
0.0
  0
POINT
  5
2DC
330
2D3
100
AcDbEntity
  8
Defpoints
 62
     0
100
AcDbPoint
 10
18.96250000000005
 20
8.985249999999994
 30
0.0
  0
POINT
  5
2DD
330
2D3
100
AcDbEntity
  8
Defpoints
 62
     0
100
AcDbPoint
 10
4.375000000000085
 20
8.985249999999938
 30
0.0
  0
ENDBLK
  5
2DE
330
2D3
100
AcDbEntity
  8
0
100
AcDbBlockEnd
  0
BLOCK
  5
2E1
330
2E0
100
AcDbEntity
  8
0
100
AcDbBlockBegin
  2
*D16
 70
     1
 10
0.0
 20
0.0
 30
0.0
  3
*D16
  1
*D13
  0
LINE
  5
2E2
330
2E0
100
AcDbEntity
  8
치수문자_일반주서
 62
     0
370
    -2
100
AcDbLine
 10
118.9750000000001
 20
27.30399999999992
 30
0.0
 11
118.9750000000001
 21
56.46818194991203
 31
0.0
  0
LINE
  5
2E3
330
2E0
100
AcDbEntity
  8
치수문자_일반주서
 62
     0
370
    -2
100
AcDbLine
 10
71.3500000000001
 20
26.8428930722077
 30
0.0
 11
71.3500000000001
 21
56.46818194991203
 31
0.0
  0
LINE
  5
2E4
330
2E0
100
AcDbEntity
  8
치수문자_일반주서
 62
     0
370
    -2
100
AcDbLine
 10
115.6730000000001
 20
56.46818194991203
 30
0.0
 11
74.6520000000001
 21
56.46818194991203
 31
0.0
  0
SOLID
  5
2E5
330
2E0
100
AcDbEntity
  8
치수문자_일반주서
 62
     0
100
AcDbTrace
 10
115.6730000000001
 20
55.91784861657869
 30
0.0
 11
115.6730000000001
 21
57.01851528324536
 31
0.0
 12
118.9750000000001
 22
56.46818194991203
 32
0.0
 13
118.9750000000001
 23
56.46818194991203
 33
0.0
  0
SOLID
  5
2E6
330
2E0
100
AcDbEntity
  8
치수문자_일반주서
 62
     0
100
AcDbTrace
 10
74.6520000000001
 20
57.01851528324536
 30
0.0
 11
74.6520000000001
 21
55.91784861657869
 31
0.0
 12
71.3500000000001
 22
56.46818194991203
 32
0.0
 13
71.3500000000001
 23
56.46818194991203
 33
0.0
  0
MTEXT
  5
2E7
330
2E0
100
AcDbEntity
  8
치수문자_일반주서
 62
     0
100
AcDbMText
 10
92.14625000000008
 20
60.84318194991203
 30
0.0
 40
3.5
 41
0.0
 71
     2
 72
     1
  1
\A1;47.63 [1 7/8]
  7
SLDTEXTSTYLE0
 73
     1
 44
1.0
  0
POINT
  5
2E8
330
2E0
100
AcDbEntity
  8
Defpoints
 62
     0
100
AcDbPoint
 10
118.9750000000001
 20
27.24149999999992
 30
0.0
  0
POINT
  5
2E9
330
2E0
100
AcDbEntity
  8
Defpoints
 62
     0
100
AcDbPoint
 10
71.3500000000001
 20
26.7803930722077
 30
0.0
  0
POINT
  5
2EA
330
2E0
100
AcDbEntity
  8
Defpoints
 62
     0
100
AcDbPoint
 10
71.3500000000001
 20
56.46818194991203
 30
0.0
  0
ENDBLK
  5
2EB
330
2E0
100
AcDbEntity
  8
0
100
AcDbBlockEnd
  0
BLOCK
  5
2EE
330
2ED
100
AcDbEntity
  8
0
100
AcDbBlockBegin
  2
*D17
 70
     1
 10
0.0
 20
0.0
 30
0.0
  3
*D17
  1
*D14
  0
LINE
  5
2EF
330
2ED
100
AcDbEntity
  8
치수문자_일반주서
 62
     0
370
    -2
100
AcDbLine
 10
118.9750000000001
 20
27.30399999999992
 30
0.0
 11
118.9750000000001
 21
72.06818194991205
 31
0.0
  0
LINE
  5
2F0
330
2ED
100
AcDbEntity
  8
치수문자_일반주서
 62
     0
370
    -2
100
AcDbLine
 10
17.37500000000006
 20
23.33525000000002
 30
0.0
 11
17.37500000000005
 21
72.06818194991205
 31
0.0
  0
LINE
  5
2F1
330
2ED
100
AcDbEntity
  8
치수문자_일반주서
 62
     0
370
    -2
100
AcDbLine
 10
115.6730000000001
 20
72.06818194991205
 30
0.0
 11
20.67700000000005
 21
72.06818194991205
 31
0.0
  0
SOLID
  5
2F2
330
2ED
100
AcDbEntity
  8
치수문자_일반주서
 62
     0
100
AcDbTrace
 10
115.6730000000001
 20
71.51784861657872
 30
0.0
 11
115.6730000000001
 21
72.61851528324537
 31
0.0
 12
118.9750000000001
 22
72.06818194991205
 32
0.0
 13
118.9750000000001
 23
72.06818194991205
 33
0.0
  0
SOLID
  5
2F3
330
2ED
100
AcDbEntity
  8
치수문자_일반주서
 62
     0
100
AcDbTrace
 10
20.67700000000005
 20
72.61851528324537
 30
0.0
 11
20.67700000000005
 21
71.51784861657872
 31
0.0
 12
17.37500000000005
 22
72.06818194991205
 32
0.0
 13
17.37500000000005
 23
72.06818194991205
 33
0.0
  0
MTEXT
  5
2F4
330
2ED
100
AcDbEntity
  8
치수문자_일반주서
 62
     0
100
AcDbMText
 10
70.52101805201077
 20
76.44318194991205
 30
0.0
 40
3.5
 41
0.0
 71
     2
 72
     1
  1
\A1;101.6 [4]
  7
SLDTEXTSTYLE0
 73
     1
 44
1.0
  0
POINT
  5
2F5
330
2ED
100
AcDbEntity
  8
Defpoints
 62
     0
100
AcDbPoint
 10
118.9750000000001
 20
27.24149999999992
 30
0.0
  0
POINT
  5
2F6
330
2ED
100
AcDbEntity
  8
Defpoints
 62
     0
100
AcDbPoint
 10
17.37500000000006
 20
23.27275000000002
 30
0.0
  0
POINT
  5
2F7
330
2ED
100
AcDbEntity
  8
Defpoints
 62
     0
100
AcDbPoint
 10
17.37500000000006
 20
72.06818194991205
 30
0.0
  0
ENDBLK
  5
2F8
330
2ED
100
AcDbEntity
  8
0
100
AcDbBlockEnd
  0
BLOCK
  5
2FB
330
2FA
100
AcDbEntity
  8
0
100
AcDbBlockBegin
  2
*D18
 70
     1
 10
0.0
 20
0.0
 30
0.0
  3
*D18
  1
*D15
  0
LINE
  5
2FC
330
2FA
100
AcDbEntity
  8
치수문자_일반주서
 62
     0
370
    -2
100
AcDbLine
 10
119.0375000000001
 20
27.24149999999992
 30
0.0
 11
145.8099378954082
 21
27.24150000000002
 31
0.0
  0
LINE
  5
2FD
330
2FA
100
AcDbEntity
  8
치수문자_일반주서
 62
     0
370
    -2
100
AcDbLine
 10
119.0375000000001
 20
6.603999999999903
 30
0.0
 11
145.8099378954082
 21
6.603999999999999
 31
0.0
  0
LINE
  5
2FE
330
2FA
100
AcDbEntity
  8
치수문자_일반주서
 62
     0
370
    -2
100
AcDbLine
 10
145.8099378954082
 20
27.24150000000002
 30
0.0
 11
145.809937895408
 21
69.99545000000002
 31
0.0
  0
LINE
  5
2FF
330
2FA
100
AcDbEntity
  8
치수문자_일반주서
 62
     0
370
    -2
100
AcDbLine
 10
145.8099378954082
 20
27.24150000000002
 30
0.0
 11
145.8099378954082
 21
6.603999999999999
 31
0.0
  0
LINE
  5
300
330
2FA
100
AcDbEntity
  8
치수문자_일반주서
 62
     0
370
    -2
100
AcDbLine
 10
145.8099378954082
 20
30.54350000000002
 30
0.0
 11
145.8099378954082
 21
33.84550000000002
 31
0.0
  0
LINE
  5
301
330
2FA
100
AcDbEntity
  8
치수문자_일반주서
 62
     0
370
    -2
100
AcDbLine
 10
145.8099378954082
 20
3.302
 30
0.0
 11
145.8099378954082
 21
0.0
 31
0.0
  0
SOLID
  5
302
330
2FA
100
AcDbEntity
  8
치수문자_일반주서
 62
     0
100
AcDbTrace
 10
145.2596045620748
 20
30.54350000000002
 30
0.0
 11
146.3602712287415
 21
30.54350000000003
 31
0.0
 12
145.8099378954082
 22
27.24150000000002
 32
0.0
 13
145.8099378954082
 23
27.24150000000002
 33
0.0
  0
SOLID
  5
303
330
2FA
100
AcDbEntity
  8
치수문자_일반주서
 62
     0
100
AcDbTrace
 10
146.3602712287416
 20
3.302000000000002
 30
0.0
 11
145.2596045620749
 21
3.301999999999997
 31
0.0
 12
145.8099378954082
 22
6.603999999999999
 32
0.0
 13
145.8099378954082
 23
6.603999999999999
 33
0.0
  0
MTEXT
  5
304
330
2FA
100
AcDbEntity
  8
치수문자_일반주서
 62
     0
100
AcDbMText
 10
141.434937895408
 20
54.0267
 30
0.0
 40
3.5
 41
0.0
 71
     2
 72
     1
  1
\A1;%%c20.64 [13/16]
  7
SLDTEXTSTYLE0
 11
-4.131562848756484E-15
 21
1.0
 31
0.0
 73
     1
 44
1.0
  0
POINT
  5
305
330
2FA
100
AcDbEntity
  8
Defpoints
 62
     0
100
AcDbPoint
 10
118.9750000000001
 20
27.24149999999992
 30
0.0
  0
POINT
  5
306
330
2FA
100
AcDbEntity
  8
Defpoints
 62
     0
100
AcDbPoint
 10
118.9750000000001
 20
6.603999999999903
 30
0.0
  0
POINT
  5
307
330
2FA
100
AcDbEntity
  8
Defpoints
 62
     0
100
AcDbPoint
 10
145.8099378954082
 20
6.604000000000004
 30
0.0
  0
ENDBLK
  5
308
330
2FA
100
AcDbEntity
  8
0
100
AcDbBlockEnd
  0
BLOCK
  5
35A
330
359
100
AcDbEntity
  8
0
100
AcDbBlockBegin
  2
*D19
 70
     1
 10
0.0
 20
0.0
 30
0.0
  3
*D19
  1
*D21
  0
LINE
  5
35C
330
359
100
AcDbEntity
  8
치수문자_일반주서
 62
     0
370
    -2
100
AcDbLine
 10
-50.44999999999999
 20
7.938574928723909
 30
0.0
 11
-64.97500000000002
 21
7.938574928723853
 31
0.0
  0
LINE
  5
35D
330
359
100
AcDbEntity
  8
치수문자_일반주서
 62
     0
370
    -2
100
AcDbLine
 10
-50.44999999999999
 20
-7.936425071276119
 30
0.0
 11
-64.97499999999997
 21
-7.936425071276175
 31
0.0
  0
LINE
  5
35E
330
359
100
AcDbEntity
  8
치수문자_일반주서
 62
     0
370
    -2
100
AcDbLine
 10
-64.97500000000001
 20
4.636574928723854
 30
0.0
 11
-64.97499999999998
 21
-4.634425071276175
 31
0.0
  0
SOLID
  5
35F
330
359
100
AcDbEntity
  8
치수문자_일반주서
 62
     0
100
AcDbTrace
 10
-64.42466666666668
 20
4.636574928723856
 30
0.0
 11
-65.52533333333334
 21
4.636574928723852
 31
0.0
 12
-64.97500000000002
 22
7.938574928723853
 32
0.0
 13
-64.97500000000002
 23
7.938574928723853
 33
0.0
  0
SOLID
  5
360
330
359
100
AcDbEntity
  8
치수문자_일반주서
 62
     0
100
AcDbTrace
 10
-65.52533333333331
 20
-4.634425071276177
 30
0.0
 11
-64.42466666666665
 21
-4.634425071276174
 31
0.0
 12
-64.97499999999997
 22
-7.936425071276175
 32
0.0
 13
-64.97499999999997
 23
-7.936425071276175
 33
0.0
  0
MTEXT
  5
361
330
359
100
AcDbEntity
  8
치수문자_일반주서
 62
     0
100
AcDbMText
 10
-69.35
 20
0.0010749287238938
 30
0.0
 40
3.5
 41
0.0
 71
     2
 72
     1
  1
\A1;%%c15.88 [5/8]
  7
SLDTEXTSTYLE0
 11
-3.580687802255617E-15
 21
1.0
 31
0.0
 73
     1
 44
1.0
  0
POINT
  5
362
330
359
100
AcDbEntity
  8
Defpoints
 62
     0
100
AcDbPoint
 10
-50.38749999999999
 20
7.938574928723909
 30
0.0
  0
POINT
  5
363
330
359
100
AcDbEntity
  8
Defpoints
 62
     0
100
AcDbPoint
 10
-50.38749999999999
 20
-7.936425071276119
 30
0.0
  0
POINT
  5
364
330
359
100
AcDbEntity
  8
Defpoints
 62
     0
100
AcDbPoint
 10
-64.97499999999997
 20
-7.936425071276173
 30
0.0
  0
ENDBLK
  5
35B
330
359
100
AcDbEntity
  8
0
100
AcDbBlockEnd
  0
BLOCK
  5
366
330
365
100
AcDbEntity
  8
0
100
AcDbBlockBegin
  2
*D20
 70
     1
 10
0.0
 20
0.0
 30
0.0
  3
*D20
  1
*D22
  0
LINE
  5
368
330
365
100
AcDbEntity
  8
치수문자_일반주서
 62
     0
370
    -2
100
AcDbLine
 10
49.62500000000006
 20
11.17607492951755
 30
0.0
 11
49.62500000000006
 21
42.58846318551726
 31
0.0
  0
LINE
  5
369
330
365
100
AcDbEntity
  8
치수문자_일반주서
 62
     0
370
    -2
100
AcDbLine
 10
2.000000000000057
 20
11.17607492951755
 30
0.0
 11
2.000000000000057
 21
42.58846318551726
 31
0.0
  0
LINE
  5
36A
330
365
100
AcDbEntity
  8
치수문자_일반주서
 62
     0
370
    -2
100
AcDbLine
 10
46.32300000000006
 20
42.58846318551726
 30
0.0
 11
5.302000000000056
 21
42.58846318551726
 31
0.0
  0
SOLID
  5
36B
330
365
100
AcDbEntity
  8
치수문자_일반주서
 62
     0
100
AcDbTrace
 10
46.32300000000006
 20
42.03812985218392
 30
0.0
 11
46.32300000000006
 21
43.13879651885059
 31
0.0
 12
49.62500000000006
 22
42.58846318551726
 32
0.0
 13
49.62500000000006
 23
42.58846318551726
 33
0.0
  0
SOLID
  5
36C
330
365
100
AcDbEntity
  8
치수문자_일반주서
 62
     0
100
AcDbTrace
 10
5.302000000000056
 20
43.13879651885059
 30
0.0
 11
5.302000000000056
 21
42.03812985218392
 31
0.0
 12
2.000000000000057
 22
42.58846318551726
 32
0.0
 13
2.000000000000057
 23
42.58846318551726
 33
0.0
  0
MTEXT
  5
36D
330
365
100
AcDbEntity
  8
치수문자_일반주서
 62
     0
100
AcDbMText
 10
20.73249999793632
 20
46.96346318551726
 30
0.0
 40
3.5
 41
0.0
 71
     2
 72
     1
  1
\A1;47.63 [1 7/8]
  7
SLDTEXTSTYLE0
 73
     1
 44
1.0
  0
POINT
  5
36E
330
365
100
AcDbEntity
  8
Defpoints
 62
     0
100
AcDbPoint
 10
49.62500000000006
 20
11.11357492951755
 30
0.0
  0
POINT
  5
36F
330
365
100
AcDbEntity
  8
Defpoints
 62
     0
100
AcDbPoint
 10
2.000000000000057
 20
11.11357492951755
 30
0.0
  0
POINT
  5
370
330
365
100
AcDbEntity
  8
Defpoints
 62
     0
100
AcDbPoint
 10
2.000000000000057
 20
42.58846318551726
 30
0.0
  0
ENDBLK
  5
367
330
365
100
AcDbEntity
  8
0
100
AcDbBlockEnd
  0
BLOCK
  5
372
330
371
100
AcDbEntity
  8
0
100
AcDbBlockBegin
  2
*D21
 70
     1
 10
0.0
 20
0.0
 30
0.0
  3
*D21
  1
*D23
  0
LINE
  5
374
330
371
100
AcDbEntity
  8
치수문자_일반주서
 62
     0
370
    -2
100
AcDbLine
 10
49.62500000000006
 20
11.17607492951755
 30
0.0
 11
49.62500000000006
 21
59.38846318671727
 31
0.0
  0
LINE
  5
375
330
371
100
AcDbEntity
  8
치수문자_일반주서
 62
     0
370
    -2
100
AcDbLine
 10
-51.97499999999999
 20
6.413574928723904
 30
0.0
 11
-51.97499999999999
 21
59.38846318671727
 31
0.0
  0
LINE
  5
376
330
371
100
AcDbEntity
  8
치수문자_일반주서
 62
     0
370
    -2
100
AcDbLine
 10
46.32300000000006
 20
59.38846318671727
 30
0.0
 11
-48.67299999999999
 21
59.38846318671727
 31
0.0
  0
SOLID
  5
377
330
371
100
AcDbEntity
  8
치수문자_일반주서
 62
     0
100
AcDbTrace
 10
46.32300000000006
 20
58.83812985338393
 30
0.0
 11
46.32300000000006
 21
59.9387965200506
 31
0.0
 12
49.62500000000006
 22
59.38846318671727
 32
0.0
 13
49.62500000000006
 23
59.38846318671727
 33
0.0
  0
SOLID
  5
378
330
371
100
AcDbEntity
  8
치수문자_일반주서
 62
     0
100
AcDbTrace
 10
-48.67299999999999
 20
59.9387965200506
 30
0.0
 11
-48.67299999999999
 21
58.83812985338393
 31
0.0
 12
-51.97499999999999
 22
59.38846318671727
 32
0.0
 13
-51.97499999999999
 23
59.38846318671727
 33
0.0
  0
MTEXT
  5
379
330
371
100
AcDbEntity
  8
치수문자_일반주서
 62
     0
100
AcDbMText
 10
-2.55621133233106
 20
63.76346318671727
 30
0.0
 40
3.5
 41
0.0
 71
     2
 72
     1
  1
\A1;101.6 [4]
  7
SLDTEXTSTYLE0
 73
     1
 44
1.0
  0
POINT
  5
37A
330
371
100
AcDbEntity
  8
Defpoints
 62
     0
100
AcDbPoint
 10
49.62500000000006
 20
11.11357492951755
 30
0.0
  0
POINT
  5
37B
330
371
100
AcDbEntity
  8
Defpoints
 62
     0
100
AcDbPoint
 10
-51.97499999999999
 20
6.351074928723904
 30
0.0
  0
POINT
  5
37C
330
371
100
AcDbEntity
  8
Defpoints
 62
     0
100
AcDbPoint
 10
-51.97499999999999
 20
59.38846318671727
 30
0.0
  0
ENDBLK
  5
373
330
371
100
AcDbEntity
  8
0
100
AcDbBlockEnd
  0
BLOCK
  5
37E
330
37D
100
AcDbEntity
  8
0
100
AcDbBlockBegin
  2
*D22
 70
     1
 10
0.0
 20
0.0
 30
0.0
  3
*D22
  1
*D24
  0
LINE
  5
380
330
37D
100
AcDbEntity
  8
치수문자_일반주서
 62
     0
370
    -2
100
AcDbLine
 10
49.68750000000006
 20
11.11357492951755
 30
0.0
 11
78.52416388942672
 21
11.11357492951766
 31
0.0
  0
LINE
  5
381
330
37D
100
AcDbEntity
  8
치수문자_일반주서
 62
     0
370
    -2
100
AcDbLine
 10
49.68750000000006
 20
-11.11142507206996
 30
0.0
 11
78.52416388942679
 21
-11.11142507206986
 31
0.0
  0
LINE
  5
382
330
37D
100
AcDbEntity
  8
치수문자_일반주서
 62
     0
370
    -2
100
AcDbLine
 10
78.52416388942672
 20
11.11357492951766
 30
0.0
 11
78.52416388942659
 21
54.39667493157805
 31
0.0
  0
LINE
  5
383
330
37D
100
AcDbEntity
  8
치수문자_일반주서
 62
     0
370
    -2
100
AcDbLine
 10
78.52416388942672
 20
11.11357492951766
 30
0.0
 11
78.52416388942679
 21
-11.11142507206986
 31
0.0
  0
LINE
  5
384
330
37D
100
AcDbEntity
  8
치수문자_일반주서
 62
     0
370
    -2
100
AcDbLine
 10
78.5241638894267
 20
14.41557492951766
 30
0.0
 11
78.52416388942669
 21
17.71757492951766
 31
0.0
  0
LINE
  5
385
330
37D
100
AcDbEntity
  8
치수문자_일반주서
 62
     0
370
    -2
100
AcDbLine
 10
78.5241638894268
 20
-14.41342507206986
 30
0.0
 11
78.52416388942682
 21
-17.71542507206986
 31
0.0
  0
SOLID
  5
386
330
37D
100
AcDbEntity
  8
치수문자_일반주서
 62
     0
100
AcDbTrace
 10
77.97383055609338
 20
14.41557492951766
 30
0.0
 11
79.07449722276003
 21
14.41557492951766
 31
0.0
 12
78.52416388942672
 22
11.11357492951766
 32
0.0
 13
78.52416388942672
 23
11.11357492951766
 33
0.0
  0
SOLID
  5
387
330
37D
100
AcDbEntity
  8
치수문자_일반주서
 62
     0
100
AcDbTrace
 10
79.07449722276013
 20
-14.41342507206985
 30
0.0
 11
77.97383055609347
 21
-14.41342507206986
 31
0.0
 12
78.52416388942679
 22
-11.11142507206986
 32
0.0
 13
78.52416388942679
 23
-11.11142507206986
 33
0.0
  0
MTEXT
  5
388
330
37D
100
AcDbEntity
  8
치수문자_일반주서
 62
     0
100
AcDbMText
 10
74.14916388942663
 20
39.95917493157803
 30
0.0
 40
3.5
 41
0.0
 71
     2
 72
     1
  1
\A1;%%c22.23 [7/8]
  7
SLDTEXTSTYLE0
 11
-3.197042680357015E-15
 21
1.0
 31
0.0
 73
     1
 44
1.0
  0
POINT
  5
389
330
37D
100
AcDbEntity
  8
Defpoints
 62
     0
100
AcDbPoint
 10
49.62500000000006
 20
11.11357492951755
 30
0.0
  0
POINT
  5
38A
330
37D
100
AcDbEntity
  8
Defpoints
 62
     0
100
AcDbPoint
 10
49.62500000000006
 20
-11.11142507206996
 30
0.0
  0
POINT
  5
38B
330
37D
100
AcDbEntity
  8
Defpoints
 62
     0
100
AcDbPoint
 10
78.52416388942675
 20
-11.11142507206985
 30
0.0
  0
ENDBLK
  5
37F
330
37D
100
AcDbEntity
  8
0
100
AcDbBlockEnd
  0
ENDSEC
  0
SECTION
  2
ENTITIES
  0
LINE
  5
BE
330
1F
100
AcDbEntity
  8
참조1
100
AcDbLine
 10
18.41194598552359
 20
0.0010749287238892
 30
0.0
 11
18.4119459855236
 21
-39.99892507127611
 31
0.0
  0
LINE
  5
BF
330
1F
100
AcDbEntity
  8
참조1
100
AcDbLine
 10
18.4119459855236
 20
-39.99892507127611
 30
0.0
 11
3.253089171214916
 21
-39.9989250712761
 31
0.0
  0
INSERT
  5
C1
330
1F
100
AcDbEntity
  8
0
  6
Continuous
 62
     7
100
AcDbBlockReference
 66
     1
  2
블럭10
 10
-14.85609639797189
 20
-52.04609937292004
 30
0.0
  0
ATTRIB
  5
C2
330
C1
100
AcDbEntity
  8
FORMAT
 62
     2
100
AcDbText
 10
-24.03739168671316
 20
-49.97073246008785
 30
0.0
 40
4.233333333333333
  1
E1032908 [ 6 FLUTE ]
 41
0.75
  7
SLDTEXTSTYLE0
 11
-24.03739168671316
 21
-52.08739912675452
 31
0.0
100
AcDbAttribute
  2
AUTOATTR0
 70
     0
 74
     1
  0
SEQEND
  5
C3
330
C1
100
AcDbEntity
  8
0
  6
Continuous
 62
     7
  0
HATCH
  5
C4
330
1F
100
AcDbEntity
  8
중심선
100
AcDbHatch
 10
0.0
 20
0.0
 30
0.0
210
0.0
220
0.0
230
1.0
  2
SOLID
 70
     1
 71
     0
 91
        1
 92
        0
 93
        4
 72
     1
 10
-9.14118709359105
 20
-35.7989250712761
 11
-12.58746233742833
 21
-35.7989250712761
 72
     1
 10
-12.58746233742833
 20
-35.7989250712761
 11
-14.71569219663236
 21
-38.3352506518487
 72
     1
 10
-14.71569219663236
 20
-38.3352506518487
 11
-11.26938386768192
 21
-38.33521122254621
 72
     1
 10
-11.26938386768192
 20
-38.33521122254621
 11
-9.14118709359105
 21
-35.7989250712761
 97
        0
 75
     0
 76
     1
 98
        1
 10
-19.32776945137027
 20
0.0
  0
HATCH
  5
C5
330
1F
100
AcDbEntity
  8
중심선
100
AcDbHatch
 10
0.0
 20
0.0
 30
0.0
210
0.0
220
0.0
230
1.0
  2
SOLID
 70
     1
 71
     0
 91
        1
 92
        0
 93
        4
 72
     1
 10
-4.128423102555072
 20
-35.7989250712761
 11
-7.574698346392353
 21
-35.7989250712761
 72
     1
 10
-7.574698346392353
 20
-35.7989250712761
 11
-12.10583635474977
 21
-41.19892507127612
 72
     1
 10
-12.10583635474977
 20
-41.19892507127612
 11
-8.659561110912488
 21
-41.19892507127612
 72
     1
 10
-8.659561110912488
 20
-41.19892507127612
 11
-4.128423102555072
 21
-35.7989250712761
 97
        0
 75
     0
 76
     1
 98
        1
 10
-19.32776945137027
 20
0.0
  0
HATCH
  5
C6
330
1F
100
AcDbEntity
  8
중심선
100
AcDbHatch
 10
0.0
 20
0.0
 30
0.0
210
0.0
220
0.0
230
1.0
  2
SOLID
 70
     1
 71
     0
 91
        1
 92
        0
 93
        4
 72
     1
 10
0.8843408884807964
 20
-35.7989250712761
 11
-2.561934355356318
 21
-35.7989250712761
 72
     1
 10
-2.561934355356318
 20
-35.7989250712761
 11
-9.610371257245568
 21
-44.19892507127612
 72
     1
 10
-9.610371257245568
 20
-44.19892507127612
 11
-6.164096013408287
 21
-44.19892507127612
 72
     1
 10
-6.164096013408287
 20
-44.19892507127612
 11
0.8843408884807964
 21
-35.7989250712761
 97
        0
 75
     0
 76
     1
 98
        1
 10
-19.32776945137027
 20
0.0
  0
HATCH
  5
C7
330
1F
100
AcDbEntity
  8
중심선
100
AcDbHatch
 10
0.0
 20
0.0
 30
0.0
210
0.0
220
0.0
230
1.0
  2
SOLID
 70
     1
 71
     0
 91
        1
 92
        0
 93
        6
 72
     3
 10
5.684231319492994
 20
-39.99892507132738
 11
3.960054785062283
 21
1.540882976769353E-10
 40
0.3939339440162628
 50
17.09539180608436
 51
320.0019657685075
 73
     0
 72
     1
 10
7.367230975193593
 20
-38.58681907591438
 11
9.67253284889463
 21
-36.65249236586649
 72
     3
 10
5.684231319440148
 20
-39.99892507127625
 11
6.600054785286829
 21
-1.278976924368180E-13
 40
0.636358354079598
 50
39.99873849337408
 51
368.4976242363724
 73
     1
 72
     1
 10
12.10956381134076
 20
-39.03892507120613
 11
4.364298626276071
 21
-39.0389250712061
 72
     1
 10
4.364298626276071
 20
-39.0389250712061
 11
4.364273581830137
 21
-40.95892507120602
 72
     1
 10
4.364273581830137
 20
-40.95892507120602
 11
8.805653351302176
 21
-40.95892507120599
 97
        0
 75
     0
 76
     1
 98
        1
 10
-19.32776945137027
 20
0.0
  0
LINE
  5
118
330
1F
100
AcDbEntity
  8
참조1
100
AcDbLine
 10
101.2254298008692
 20
7.441074928723896
 30
0.0
 11
101.2254298008692
 21
-7.438925071276109
 31
0.0
  0
LINE
  5
119
330
1F
100
AcDbEntity
  8
참조1
100
AcDbLine
 10
113.9254298008692
 20
5.441074928723896
 30
0.0
 11
101.2254298008692
 21
5.441074928723896
 31
0.0
  0
SOLID
  5
11A
330
1F
100
AcDbEntity
  8
참조1
100
AcDbTrace
 10
101.2254298008692
 20
5.441074928723896
 30
0.0
 11
107.5754298008692
 21
4.425074928723896
 31
0.0
 12
107.5754298008692
 22
6.457074928723896
 32
0.0
 13
107.5754298008692
 23
6.457074928723896
 33
0.0
  0
LINE
  5
11B
330
1F
100
AcDbEntity
  8
참조1
100
AcDbLine
 10
113.9254298008692
 20
-5.438925071276109
 30
0.0
 11
101.2254298008692
 21
-5.438925071276109
 31
0.0
  0
SOLID
  5
11C
330
1F
100
AcDbEntity
  8
참조1
100
AcDbTrace
 10
101.2254298008692
 20
-5.438925071276109
 30
0.0
 11
107.5754298008692
 21
-6.454925071276109
 31
0.0
 12
107.5754298008692
 22
-4.422925071276109
 32
0.0
 13
107.5754298008692
 23
-4.422925071276109
 33
0.0
  0
MTEXT
  5
11D
330
1F
100
AcDbEntity
  8
참조1
100
AcDbMText
 10
110.6229198933395
 20
10.98929157337383
 30
0.0
 40
3.5
 41
0.0
 71
     1
 72
     1
  1
A
  7
SLDTEXTSTYLE0
 73
     1
 44
1.0
  0
MTEXT
  5
11E
330
1F
100
AcDbEntity
  8
참조1
100
AcDbMText
 10
110.6229198933395
 20
0.1092915733738259
 30
0.0
 40
3.5
 41
0.0
 71
     1
 72
     1
  1
A
  7
SLDTEXTSTYLE0
 73
     1
 44
1.0
  0
LINE
  5
31D
330
1F
100
AcDbEntity
  8
0
  6
Continuous
 62
     1
370
    15
100
AcDbLine
 10
48.28053395439784
 20
-11.11142507206996
 30
0.0
 11
49.62500000000006
 21
-11.11142507206996
 31
0.0
  0
LINE
  5
31E
330
1F
100
AcDbEntity
  8
0
  6
Continuous
 62
     1
370
    15
100
AcDbLine
 10
16.0584199085078
 20
11.11357492951755
 30
0.0
 11
13.37011459373667
 21
11.11357492951755
 31
0.0
  0
LINE
  5
31F
330
1F
100
AcDbEntity
  8
0
  6
Continuous
 62
     1
370
    15
100
AcDbLine
 10
36.64356389521384
 20
-11.11142507206996
 30
0.0
 11
39.33197399864457
 21
-11.11142507206996
 31
0.0
  0
LINE
  5
320
330
1F
100
AcDbEntity
  8
0
  6
Continuous
 62
     1
370
    15
100
AcDbLine
 10
4.42096874048292
 20
11.11357492951755
 30
0.0
 11
2.000000000000057
 21
11.11357492951755
 31
0.0
  0
LINE
  5
321
330
1F
100
AcDbEntity
  8
0
  6
Continuous
 62
     1
370
    15
100
AcDbLine
 10
13.37011459373667
 20
-11.11142507206996
 30
0.0
 11
16.05841990850774
 21
-11.11142507206996
 31
0.0
  0
LINE
  5
322
330
1F
100
AcDbEntity
  8
0
  6
Continuous
 62
     1
370
    15
100
AcDbLine
 10
27.69493294875744
 20
11.11357492951755
 30
0.0
 11
25.00744255261253
 21
11.11357492951755
 31
0.0
  0
LINE
  5
323
330
1F
100
AcDbEntity
  8
0
  6
Continuous
 62
     1
370
    15
100
AcDbLine
 10
25.00744255261242
 20
-11.11142507206996
 30
0.0
 11
27.69493294875733
 21
-11.11142507206996
 31
0.0
  0
LINE
  5
324
330
1F
100
AcDbEntity
  8
0
  6
Continuous
 62
     1
370
    15
100
AcDbLine
 10
2.000000000000057
 20
-11.11142507206996
 30
0.0
 11
4.42096874048292
 21
-11.11142507206996
 31
0.0
  0
LINE
  5
325
330
1F
100
AcDbEntity
  8
0
  6
Continuous
 62
     1
370
    15
100
AcDbLine
 10
39.33197399864463
 20
11.11357492951755
 30
0.0
 11
36.64356389521399
 21
11.11357492951755
 31
0.0
  0
LINE
  5
326
330
1F
100
AcDbEntity
  8
외형선
  6
Continuous
370
    15
100
AcDbLine
 10
-50.38749999999999
 20
-7.936425071276105
 30
0.0
 11
2.000000000000057
 21
-7.936425071276105
 31
0.0
  0
LINE
  5
327
330
1F
100
AcDbEntity
  8
외형선
  6
Continuous
370
    15
100
AcDbLine
 10
-50.38749999999999
 20
7.938574928723895
 30
0.0
 11
-51.97499999999999
 21
6.351074928723904
 31
0.0
  0
LINE
  5
328
330
1F
100
AcDbEntity
  8
외형선
  6
Continuous
370
    15
100
AcDbLine
 10
-51.97499999999999
 20
-6.348925071276113
 30
0.0
 11
-50.38749999999999
 21
-7.936425071276105
 31
0.0
  0
SPLINE
  5
329
330
1F
100
AcDbEntity
  8
0
  6
Continuous
 62
     1
370
    15
100
AcDbSpline
210
0.0
220
0.0
230
1.0
 70
     8
 71
     3
 72
    26
 73
    22
 74
     0
 42
0.000000001
 43
0.00000001
 40
0.0
 40
0.0
 40
0.0
 40
0.0
 40
0.0460980243383029
 40
0.0930242935698783
 40
0.1400416455514777
 40
0.1869880401932891
 40
0.2339050287539844
 40
0.2809085847499204
 40
0.3278767217786905
 40
0.374789876280774
 40
0.4217684037461683
 40
0.4687629124399597
 40
0.5156776835792718
 40
0.5626322717518637
 40
0.6096454598361613
 40
0.6565672965865893
 40
0.7035033520793994
 40
0.7505232112534054
 40
0.7974575550647895
 40
0.8460071952872787
 40
0.8796099200098046
 40
0.8796099200098046
 40
0.8796099200098046
 40
0.8796099200098046
 10
36.64356389521393
 20
-11.10875212524153
 30
0.0
 10
36.03849823476332
 20
-11.08124404059844
 30
0.0
 10
34.81749567695888
 20
-11.02573363254707
 30
0.0
 10
32.98037578761608
 20
-10.55671421160049
 30
0.0
 10
31.12848835640935
 20
-9.81732986832261
 30
0.0
 10
29.27948532479567
 20
-8.799489796093525
 30
0.0
 10
27.43162892037759
 20
-7.539226557471977
 30
0.0
 10
25.58034515823283
 20
-6.072245063749365
 30
0.0
 10
23.73048119684813
 20
-4.436630448335068
 30
0.0
 10
21.88279008564163
 20
-2.67684798328251
 30
0.0
 10
20.03251383077551
 20
-0.844846085493236
 30
0.0
 10
18.18159326853444
 20
1.009915871466012
 30
0.0
 10
16.33383232347774
 20
2.839292519850497
 30
0.0
 10
14.48449636090811
 20
4.589085448451803
 30
0.0
 10
12.6328268262462
 20
6.210281186111712
 30
0.0
 10
10.78477624586571
 20
7.662521225526074
 30
0.0
 10
8.936170209875229
 20
8.90242128552324
 30
0.0
 10
7.084211521371429
 20
9.894605207213356
 30
0.0
 10
5.214406094994843
 20
10.62381983463974
 30
0.0
 10
3.520635989416689
 20
11.00880955542203
 30
0.0
 10
2.441430726026226
 20
11.10138781335213
 30
0.0
 10
2.000000000000028
 20
11.11169682163439
 30
0.0
  0
LINE
  5
32A
330
1F
100
AcDbEntity
  8
0
  6
Continuous
 62
     1
370
    15
100
AcDbLine
 10
49.62500000000006
 20
-4.354117834255678
 30
0.0
 11
49.62500000000006
 21
4.356267691703476
 31
0.0
  0
SPLINE
  5
32B
330
1F
100
AcDbEntity
  8
0
  6
Continuous
 62
     1
370
    15
100
AcDbSpline
210
0.0
220
0.0
230
1.0
 70
     8
 71
     3
 72
    19
 73
    15
 74
     0
 42
0.000000001
 43
0.00000001
 40
0.0
 40
0.0
 40
0.0
 40
0.0
 40
0.0722759199688564
 40
0.1565884402225332
 40
0.2410283950149806
 40
0.325304771405619
 40
0.409587969365355
 40
0.4940311247146566
 40
0.5783339325550356
 40
0.6625975649590727
 40
0.7470223404917795
 40
0.8313613156584226
 40
0.9156151600725297
 40
0.9999999999999999
 40
0.9999999999999999
 40
0.9999999999999999
 40
0.9999999999999999
 10
27.69493294875744
 20
11.09484195766949
 30
0.0
 10
28.22303585709537
 20
11.08061173668031
 30
0.0
 10
29.36719024114547
 20
11.04978143926346
 30
0.0
 10
31.12846200683475
 20
10.63039620889614
 30
0.0
 10
32.98034533422759
 20
9.92804754022851
 30
0.0
 10
34.82855851018954
 20
8.941878705759315
 30
0.0
 10
36.67693808269635
 20
7.710436178536572
 30
0.0
 10
38.52884456183014
 20
6.267767594303975
 30
0.0
 10
40.37765017903672
 20
4.649877311178995
 30
0.0
 10
42.2255917771102
 20
2.902888097626984
 30
0.0
 10
44.07709054710159
 20
1.078015105348195
 30
0.0
 10
45.92668021577421
 20
-0.7760190850310682
 30
0.0
 10
47.77439637313483
 20
-2.618454341123307
 30
0.0
 10
49.00781275911666
 20
-3.775263806911605
 30
0.0
 10
49.62500000000006
 20
-4.354117834255678
 30
0.0
  0
SPLINE
  5
32C
330
1F
100
AcDbEntity
  8
외형선
  6
Continuous
370
    15
100
AcDbSpline
210
0.0
220
0.0
230
1.0
 70
    24
 71
     3
 72
    13
 73
     9
 74
     0
 42
0.000000001
 43
0.00000001
 40
0.0
 40
0.0
 40
0.0
 40
0.0
 40
0.0406593074072016
 40
0.2156839830437705
 40
0.3957843861308172
 40
0.5708090617673585
 40
0.7509094648543753
 40
1.0
 40
1.0
 40
1.0
 40
1.0
 10
2.000000000000057
 20
-5.059841835583313
 30
0.0
 10
2.000000000000057
 20
-5.090427144486263
 30
0.0
 10
2.000000000000057
 20
-5.252671945676461
 30
0.0
 10
2.000000000000057
 20
-5.605232027052544
 30
0.0
 10
2.000000000000057
 20
-6.099581793152602
 30
0.0
 10
2.0
 20
-6.628846164698651
 30
0.0
 10
2.0
 20
-7.239643391209661
 30
0.0
 10
2.000000000000057
 20
-7.662456624429858
 30
0.0
 10
2.000000000000057
 20
-7.907845716201365
 30
0.0
  0
SPLINE
  5
32D
330
1F
100
AcDbEntity
  8
0
  6
Continuous
 62
     1
370
    15
100
AcDbSpline
210
0.0
220
0.0
230
1.0
 70
     8
 71
     3
 72
    17
 73
    13
 74
     0
 42
0.000000001
 43
0.00000001
 40
0.0
 40
0.0
 40
0.0
 40
0.0
 40
0.1060178467885482
 40
0.2118711158842586
 40
0.3178313399624892
 40
0.4238993602997569
 40
0.5297649266471752
 40
0.6356797114965324
 40
0.7417708235239838
 40
0.8476609712783006
 40
0.9535425486772299
 40
1.0
 40
1.0
 40
1.0
 40
1.0
 10
49.62500000000006
 20
4.356267691703476
 30
0.0
 10
49.0078127596245
 20
4.91186839044803
 30
0.0
 10
47.77439637465764
 20
6.022207296536805
 30
0.0
 10
45.92668020969114
 20
7.491318195882285
 30
0.0
 10
44.0770905699498
 20
8.760889052515903
 30
0.0
 10
42.22559169178501
 20
9.785157735158256
 30
0.0
 10
40.3776504968568
 20
10.54148183232621
 30
0.0
 10
38.52884337418533
 20
11.00449340582105
 30
0.0
 10
36.67694251965784
 20
11.16767558783043
 30
0.0
 10
34.82854198763212
 20
11.00605418849512
 30
0.0
 10
33.32711324064411
 20
10.67699914510877
 30
0.0
 10
32.44004650937393
 20
10.30357710159335
 30
0.0
 10
32.16952581724507
 20
10.18969796927226
 30
0.0
  0
LINE
  5
32F
330
1F
100
AcDbEntity
  8
0
  6
Continuous
 62
     1
370
    15
100
AcDbLine
 10
49.62500000000006
 20
-11.03033216898861
 30
0.0
 11
49.62500000000006
 21
-6.675139406008967
 31
0.0
  0
SPLINE
  5
330
330
1F
100
AcDbEntity
  8
0
  6
Continuous
 62
     1
370
    15
100
AcDbSpline
210
0.0
220
0.0
230
1.0
 70
     8
 71
     3
 72
    26
 73
    22
 74
     0
 42
0.000000001
 43
0.00000001
 40
0.0
 40
0.0
 40
0.0
 40
0.0
 40
0.0082142928388025
 40
0.063261770216118
 40
0.1184028077050951
 40
0.1735250936092871
 40
0.2285706741042536
 40
0.2836807683828431
 40
0.3388324215297031
 40
0.3938825007198482
 40
0.4489670835544882
 40
0.5041349242301438
 40
0.5591958929015313
 40
0.6142613183639968
 40
0.6694312500854261
 40
0.7245094874302952
 40
0.7795621299695321
 40
0.834720053456281
 40
0.8898219202938223
 40
0.9448681679661942
 40
1.0
 40
1.0
 40
1.0
 40
1.0
 10
16.0584199085078
 20
11.09407802479995
 30
0.0
 10
16.15032874397735
 20
11.10032054006567
 30
0.0
 10
16.85815785896037
 20
11.14839681078798
 30
0.0
 10
18.18149413346737
 20
10.9429750665164
 30
0.0
 10
20.03254040781161
 20
10.46332516868574
 30
0.0
 10
21.88278296282499
 20
9.665402095738887
 30
0.0
 10
23.73048315840052
 20
8.607124272867441
 30
0.0
 10
25.58034443870255
 20
7.309651785309192
 30
0.0
 10
27.43162983397403
 20
5.811975129248636
 30
0.0
 10
29.2794823943093
 20
4.151147065779049
 30
0.0
 10
31.12849918128794
 20
2.376232035427993
 30
0.0
 10
32.98033538856632
 20
0.538225478565403
 30
0.0
 10
34.82856117301961
 20
-1.317762645538545
 30
0.0
 10
36.67693736762101
 20
-3.137145412755638
 30
0.0
 10
38.52884475323492
 20
-4.86683961310856
 30
0.0
 10
40.37765012781577
 20
-6.464753740513459
 30
0.0
 10
42.2255917908615
 20
-7.883746464883906
 30
0.0
 10
44.07709054341939
 20
-9.084332419932686
 30
0.0
 10
45.92668021675462
 20
-10.02926889525804
 30
0.0
 10
47.77439637288944
 20
-10.71909605376949
 30
0.0
 10
49.00781275903483
 20
-10.92653308612355
 30
0.0
 10
49.62500000000009
 20
-11.03033216898861
 30
0.0
  0
SPLINE
  5
331
330
1F
100
AcDbEntity
  8
0
  6
Continuous
 62
     1
370
    15
100
AcDbSpline
210
0.0
220
0.0
230
1.0
 70
     8
 71
     3
 72
    23
 73
    19
 74
     0
 42
0.000000001
 43
0.00000001
 40
0.0
 40
0.0
 40
0.0
 40
0.0
 40
0.0636133632987272
 40
0.12712797585989
 40
0.1907067640892611
 40
0.2543502327738206
 40
0.3178722239939938
 40
0.3814237475480116
 40
0.4450810718250146
 40
0.5086178125049703
 40
0.5721494107570481
 40
0.6358043222998898
 40
0.6993631675396084
 40
0.762882201062729
 40
0.8265184347725998
 40
0.8901067161600438
 40
0.9536205589046222
 40
0.9999999999999999
 40
0.9999999999999999
 40
0.9999999999999999
 40
0.9999999999999999
 10
49.62500000000006
 20
-6.675139406008967
 30
0.0
 10
49.00781275903506
 20
-6.164438235513066
 30
0.0
 10
47.77439637289029
 20
-5.143828685762696
 30
0.0
 10
45.92668021675075
 20
-3.418946544690041
 30
0.0
 10
44.07709054343348
 20
-1.613880389514971
 30
0.0
 10
42.22559179080881
 20
0.237581787752335
 30
0.0
 10
40.37765012801196
 20
2.084561372542458
 30
0.0
 10
38.52884475250127
 20
3.87354056413225
 30
0.0
 10
36.67693737036188
 20
5.552914982504276
 30
0.0
 10
34.82856116281286
 20
7.081686868432199
 30
0.0
 10
32.98033542668841
 20
8.414520297708508
 30
0.0
 10
31.12849903879641
 20
9.512854287957651
 30
0.0
 10
29.27948292502714
 20
10.35010778715811
 30
0.0
 10
27.43162785305526
 20
10.90051273801358
 30
0.0
 10
25.58035184459845
 20
11.15173905185034
 30
0.0
 10
23.73045555771452
 20
11.08540759508874
 30
0.0
 10
22.04974365942448
 20
10.77926456679935
 30
0.0
 10
20.98368130074857
 20
10.36954629551613
 30
0.0
 10
20.53375957086178
 20
10.19662849959008
 30
0.0
  0
SPLINE
  5
332
330
1F
100
AcDbEntity
  8
외형선
  6
Continuous
370
    15
100
AcDbSpline
210
0.0
220
0.0
230
1.0
 70
    24
 71
     3
 72
    14
 73
    10
 74
     0
 42
0.000000001
 43
0.00000001
 40
0.0
 40
0.0
 40
0.0
 40
0.0
 40
0.1284320658232353
 40
0.2804935587489062
 40
0.4369648452708011
 40
0.5890263381964407
 40
0.7454976247183007
 40
0.8975591176439368
 40
1.0
 40
1.0
 40
1.0
 40
1.0
 10
2.0
 20
7.841097487898359
 30
0.0
 10
2.0
 20
7.699829002690684
 30
0.0
 10
2.000000000000057
 20
7.391300911197526
 30
0.0
 10
2.000000000000057
 20
6.88688026628121
 30
0.0
 10
2.000000000000057
 20
6.352761064506794
 30
0.0
 10
2.0
 20
5.823246418826152
 30
0.0
 10
2.0
 20
5.326626694182558
 30
0.0
 10
2.000000000000057
 20
4.911099290399747
 30
0.0
 10
2.000000000000057
 20
4.693027190097858
 30
0.0
 10
2.000000000000057
 20
4.605250019659131
 30
0.0
  0
SPLINE
  5
333
330
1F
100
AcDbEntity
  8
0
  6
Continuous
 62
     1
370
    15
100
AcDbSpline
210
0.0
220
0.0
230
1.0
 70
     8
 71
     3
 72
    20
 73
    16
 74
     0
 42
0.000000001
 43
0.00000001
 40
0.0
 40
0.0
 40
0.0
 40
0.0
 40
0.0385098311322717
 40
0.0942188775664565
 40
0.150005553942334
 40
0.205811207916378
 40
0.2615221740960881
 40
0.3172804227273707
 40
0.3731082583484197
 40
0.4288276148924514
 40
0.484563856094699
 40
0.5403996135886274
 40
0.596133822181023
 40
0.653786184087266
 40
0.6936889925240421
 40
0.6936889925240421
 40
0.6936889925240421
 40
0.6936889925240421
 10
25.00744255261242
 20
-11.07855024600456
 30
0.0
 10
24.58158039823064
 20
-11.07746051199673
 30
0.0
 10
23.53965803700126
 20
-11.07479434826542
 30
0.0
 10
21.88282611296222
 20
-10.71673190913199
 30
0.0
 10
20.03250416738206
 20
-10.06421712372578
 30
0.0
 10
18.18159585337574
 20
-9.122679787760404
 30
0.0
 10
16.33383163021247
 20
-7.93056644197511
 30
0.0
 10
14.48449654897809
 20
-6.518902710165051
 30
0.0
 10
12.63282676856574
 20
-4.929192304523117
 30
0.0
 10
10.7847762887545
 20
-3.200437440349559
 30
0.0
 10
8.936170095822064
 20
-1.383435536377563
 30
0.0
 10
7.084211935130583
 20
0.4688432927346646
 30
0.0
 10
5.214404534978513
 20
2.332535606329419
 30
0.0
 10
3.520643396652929
 20
3.961344789702323
 30
0.0
 10
2.44142731893271
 20
4.938301812447802
 30
0.0
 10
1.999999999999972
 20
5.325314178322698
 30
0.0
  0
SPLINE
  5
334
330
1F
100
AcDbEntity
  8
0
  6
Continuous
 62
     1
370
    15
100
AcDbSpline
210
0.0
220
0.0
230
1.0
 70
     8
 71
     3
 72
    29
 73
    25
 74
     0
 42
0.000000001
 43
0.00000001
 40
0.0
 40
0.0
 40
0.0
 40
0.0
 40
0.0206905679378268
 40
0.0676256237015889
 40
0.1146461961251652
 40
0.1615829635963193
 40
0.2085055121094044
 40
0.2555194133420787
 40
0.3024747137741379
 40
0.3493901965689282
 40
0.3963854181277467
 40
0.4433646582157463
 40
0.4902785243487849
 40
0.5372473738425476
 40
0.584251642840749
 40
0.6311693430905593
 40
0.6781164498675489
 40
0.7251345150606878
 40
0.7720614961221576
 40
0.8189922755866622
 40
0.8660121229218118
 40
0.9129538216087245
 40
0.9598737065319466
 40
1.0
 40
1.0
 40
1.0
 40
1.0
 10
4.42096874048292
 20
11.07333576491998
 30
0.0
 10
4.692522777165749
 20
11.08292682789849
 30
0.0
 10
5.58007749072118
 20
11.11427452303336
 30
0.0
 10
7.084167240360728
 20
10.8335169845545
 30
0.0
 10
8.936182060576044
 20
10.25981259819076
 30
0.0
 10
10.78477307413527
 20
9.382971724546596
 30
0.0
 10
12.63282767789786
 20
8.25120163866993
 30
0.0
 10
14.48449613276091
 20
6.892275751758401
 30
0.0
 10
16.33383238478322
 20
5.341792433768791
 30
0.0
 10
18.18159325108647
 20
3.642474922839014
 30
0.0
 10
20.03251383917649
 20
1.844904034904616
 30
0.0
 10
21.88279006951146
 20
-0.004159419856995
 30
0.0
 10
23.73048125292155
 20
-1.85495673364707
 30
0.0
 10
25.5803449497065
 20
-3.652928051618893
 30
0.0
 10
27.43162969833537
 20
-5.348795608178936
 30
0.0
 10
29.27948242676112
 20
-6.89931270243391
 30
0.0
 10
31.12849918710603
 20
-8.258223110592134
 30
0.0
 10
32.98033533272081
 20
-9.387350500472849
 30
0.0
 10
34.82856139008146
 20
-10.25902641478341
 30
0.0
 10
36.6769365543197
 20
-10.84606164341405
 30
0.0
 10
38.52884779345504
 20
-11.13485326156109
 30
0.0
 10
40.37763880531315
 20
-11.1087277950967
 30
0.0
 10
42.13533638376452
 20
-10.81847209310959
 30
0.0
 10
43.27897711593198
 20
-10.39838461215789
 30
0.0
 10
43.8061692855261
 20
-10.20473391026089
 30
0.0
  0
SPLINE
  5
335
330
1F
100
AcDbEntity
  8
0
  6
Continuous
 62
     1
370
    15
100
AcDbSpline
210
0.0
220
0.0
230
1.0
 70
     8
 71
     3
 72
    30
 73
    26
 74
     0
 42
0.000000001
 43
0.00000001
 40
0.0
 40
0.0
 40
0.0
 40
0.0
 40
0.0128608607201971
 40
0.0597755296876999
 40
0.1067376016087648
 40
0.153747449341119
 40
0.2006675685086771
 40
0.2476095015488274
 40
0.2946295836273679
 40
0.3415605973905984
 40
0.3884878127318303
 40
0.4355061126594622
 40
0.4824534538166912
 40
0.5293713882999297
 40
0.5763758919637487
 40
0.6233449759462982
 40
0.6702590762936241
 40
0.7172385509222856
 40
0.7642340071015519
 40
0.8111497241187003
 40
0.8581052589719046
 40
0.9051193949182837
 40
0.9520421776890023
 40
0.998979179488776
 40
1.0
 40
1.0
 40
1.0
 40
1.0
 10
48.28053395439784
 20
-11.08083848024784
 30
0.0
 10
48.11162662681076
 20
-11.08984816443377
 30
0.0
 10
47.32656836404607
 20
-11.13172394990795
 30
0.0
 10
45.92675288545738
 20
-10.89807779973122
 30
0.0
 10
44.07707104031357
 20
-10.37666363611168
 30
0.0
 10
42.22559700773766
 20
-9.54575595184805
 30
0.0
 10
40.3776487304475
 20
-8.455862110993081
 30
0.0
 10
38.52884512840308
 20
-7.130557314610733
 30
0.0
 10
36.67693726741166
 20
-5.610948409393261
 30
0.0
 10
34.82856119919336
 20
-3.933538628072379
 30
0.0
 10
32.98033538397155
 20
-2.14713543468312
 30
0.0
 10
31.12849917341839
 20
-0.3044859606390098
 30
0.0
 10
29.2794824302994
 20
1.549148835969655
 30
0.0
 10
27.43162969784888
 20
3.360725303631475
 30
0.0
 10
25.58034494810369
 20
5.076754708008846
 30
0.0
 10
23.73048125980847
 20
6.653836243198465
 30
0.0
 10
21.88279004358219
 20
8.048090182854803
 30
0.0
 10
20.03251393617936
 20
9.218559515864843
 30
0.0
 10
18.1815928891877
 20
10.13407691175834
 30
0.0
 10
16.33383373332549
 20
10.77119101995191
 30
0.0
 10
14.48449109223841
 20
11.10762580216452
 30
0.0
 10
12.63284649959189
 20
11.14604307821619
 30
0.0
 10
10.78470297660277
 20
10.84353579812253
 30
0.0
 10
9.53993298576384
 20
10.5202589769554
 30
0.0
 10
8.90991892412464
 20
10.22779542851766
 30
0.0
 10
8.896508572163498
 20
10.22157010854598
 30
0.0
  0
LINE
  5
336
330
1F
100
AcDbEntity
  8
0
  6
Continuous
 62
     1
370
    15
100
AcDbLine
 10
49.62500000000006
 20
6.655958150851294
 30
0.0
 11
49.62500000000006
 21
11.0324820264362
 31
0.0
  0
SPLINE
  5
337
330
1F
100
AcDbEntity
  8
0
  6
Continuous
 62
     1
370
    15
100
AcDbSpline
210
0.0
220
0.0
230
1.0
 70
     8
 71
     3
 72
    13
 73
     9
 74
     0
 42
0.000000001
 43
0.00000001
 40
0.0
 40
0.0
 40
0.0
 40
0.0
 40
0.1016231952886435
 40
0.2811503108832405
 40
0.4610207485049394
 40
0.6407083849371229
 40
0.8202146468188015
 40
1.0
 40
1.0
 40
1.0
 40
1.0
 10
39.33197399864463
 20
11.07579989812519
 30
0.0
 10
39.68062287359251
 20
11.08103375147707
 30
0.0
 10
40.64519340596232
 20
11.09551370846735
 30
0.0
 10
42.22553574936501
 20
10.77874442219064
 30
0.0
 10
44.07710555010451
 20
10.16582310311547
 30
0.0
 10
45.92667622140567
 20
9.25368559508252
 30
0.0
 10
47.77439737311755
 20
8.101876649851302
 30
0.0
 10
49.0078130926168
 20
7.152397571709344
 30
0.0
 10
49.62500000000006
 20
6.677289263456609
 30
0.0
  0
SPLINE
  5
338
330
1F
100
AcDbEntity
  8
외형선
  6
Continuous
370
    15
100
AcDbSpline
210
0.0
220
0.0
230
1.0
 70
    24
 71
     3
 72
    24
 73
    20
 74
     0
 42
0.000000001
 43
0.00000001
 40
0.0
 40
0.0
 40
0.0
 40
0.0
 40
0.1249999999999997
 40
0.1249999999999997
 40
0.1874999999999996
 40
0.1874999999999996
 40
0.2499999999999996
 40
0.2499999999999996
 40
0.3749999999999996
 40
0.3749999999999996
 40
0.4999999999999997
 40
0.4999999999999997
 40
0.6249999999999998
 40
0.6249999999999998
 40
0.7499999999999998
 40
0.7499999999999998
 40
0.8749999999999999
 40
0.8749999999999999
 40
1.0
 40
1.0
 40
1.0
 40
1.0
 10
2.000000000000057
 20
2.847091612781576
 30
0.0
 10
2.0
 20
2.797496983950303
 30
0.0
 10
2.000000000000057
 20
2.71155853570658
 30
0.0
 10
2.000000000000057
 20
2.561729839369796
 30
0.0
 10
2.0
 20
2.510296261636945
 30
0.0
 10
2.000000000000057
 20
2.388646878512581
 30
0.0
 10
2.000000000000057
 20
2.318718607478665
 30
0.0
 10
2.0
 20
2.076012280285546
 30
0.0
 10
2.000000000000057
 20
1.869746232782099
 30
0.0
 10
2.000000000000057
 20
1.343936820258229
 30
0.0
 10
2.000000000000057
 20
1.023040561280723
 30
0.0
 10
2.000000000000057
 20
0.2766828891524185
 30
0.0
 10
2.000000000000057
 20
-0.1493498818897265
 30
0.0
 10
2.000000000000057
 20
-1.02590936349133
 30
0.0
 10
2.000000000000057
 20
-1.473833578255544
 30
0.0
 10
2.000000000000057
 20
-2.266571088698214
 30
0.0
 10
2.0
 20
-2.608353890238611
 30
0.0
 10
2.0
 20
-3.11521675675381
 30
0.0
 10
2.0
 20
-3.281099581389846
 30
0.0
 10
2.0
 20
-3.37058151445661
 30
0.0
  0
SPLINE
  5
339
330
1F
100
AcDbEntity
  8
0
  6
Continuous
 62
     1
370
    15
100
AcDbSpline
210
0.0
220
0.0
230
1.0
 70
     8
 71
     3
 72
    11
 73
     7
 74
     0
 42
0.000000001
 43
0.00000001
 40
0.0
 40
0.0
 40
0.0
 40
0.0
 40
0.3180259920122876
 40
0.6355582937109789
 40
0.9534114325653661
 40
1.0
 40
1.0
 40
1.0
 40
1.0
 10
49.62500000000006
 20
11.0324820264362
 30
0.0
 10
49.00781247092806
 20
11.07877537502799
 30
0.0
 10
47.77439550901641
 20
11.17129020834397
 30
0.0
 10
45.92668366744081
 20
10.89464572762592
 30
0.0
 10
44.60387156494696
 20
10.56845070116658
 30
0.0
 10
43.89658551229419
 20
10.24786587179765
 30
0.0
 10
43.8061692855261
 20
10.20688376770848
 30
0.0
  0
SPLINE
  5
33A
330
1F
100
AcDbEntity
  8
0
  6
Continuous
 62
     1
370
    15
100
AcDbSpline
210
0.0
220
0.0
230
1.0
 70
     8
 71
     3
 72
    14
 73
    10
 74
     0
 42
0.000000001
 43
0.00000001
 40
0.0
 40
0.0
 40
0.0
 40
0.0
 40
0.0342552324767767
 40
0.1200925046194792
 40
0.2059557880640384
 40
0.2919723792196239
 40
0.377832531370215
 40
0.4666476538977891
 40
0.5281190800257698
 40
0.5281190800257698
 40
0.5281190800257698
 40
0.5281190800257698
 10
13.37011459373667
 20
-11.07451971211279
 30
0.0
 10
13.12410354505835
 20
-11.08376008660592
 30
0.0
 10
12.26163434360495
 20
-11.11615512923931
 30
0.0
 10
10.7848084538696
 20
-10.84993220976042
 30
0.0
 10
8.936161459144472
 20
-10.28797041688912
 30
0.0
 10
7.08421424375922
 20
-9.423911637477524
 30
0.0
 10
5.214403893165155
 20
-8.290134699363648
 30
0.0
 10
3.520643475617646
 20
-7.047411371256235
 30
0.0
 10
2.441427353655911
 20
-6.160440664907117
 30
0.0
 10
2.000000000000057
 20
-5.783998071235633
 30
0.0
  0
LINE
  5
33B
330
1F
100
AcDbEntity
  8
0
  6
Continuous
 62
     1
370
    15
100
AcDbLine
 10
49.62500000000006
 20
-11.11142507206996
 30
0.0
 11
49.62500000000006
 21
-11.03033216898861
 31
0.0
  0
LINE
  5
33C
330
1F
100
AcDbEntity
  8
외형선
  6
Continuous
370
    15
100
AcDbLine
 10
2.0
 20
2.847091612781576
 30
0.0
 11
2.000000000000057
 21
4.538339130468621
 31
0.0
  0
LINE
  5
33D
330
1F
100
AcDbEntity
  8
0
  6
Continuous
 62
     1
370
    15
100
AcDbLine
 10
49.62500000000006
 20
-6.675139406008967
 30
0.0
 11
49.62500000000006
 21
-4.354117834255678
 31
0.0
  0
LINE
  5
33E
330
1F
100
AcDbEntity
  8
외형선
  6
Continuous
370
    15
100
AcDbLine
 10
2.0
 20
7.841097487898359
 30
0.0
 11
2.000000000000057
 21
7.938574928723902
 31
0.0
  0
LINE
  5
33F
330
1F
100
AcDbEntity
  8
0
  6
Continuous
 62
     1
370
    15
100
AcDbLine
 10
49.62500000000006
 20
4.356267691703476
 30
0.0
 11
49.62500000000006
 21
6.677289263456617
 31
0.0
  0
LINE
  5
340
330
1F
100
AcDbEntity
  8
외형선
  6
Continuous
370
    15
100
AcDbLine
 10
2.0
 20
-4.992930946392811
 30
0.0
 11
2.0
 21
-3.370581514456639
 31
0.0
  0
LINE
  5
341
330
1F
100
AcDbEntity
  8
외형선
  6
Continuous
370
    15
100
AcDbLine
 10
-50.38749999999999
 20
0.0010749287238951
 30
0.0
 11
-50.38749999999999
 21
7.938574928723888
 31
0.0
  0
LINE
  5
342
330
1F
100
AcDbEntity
  8
외형선
  6
Continuous
370
    15
100
AcDbLine
 10
-50.38749999999999
 20
-7.936425071276091
 30
0.0
 11
-50.38749999999999
 21
0.0010749287238951
 31
0.0
  0
LINE
  5
343
330
1F
100
AcDbEntity
  8
외형선
  6
Continuous
370
    15
100
AcDbLine
 10
-51.97499999999999
 20
0.0010749287238951
 30
0.0
 11
-51.97499999999999
 21
6.351074928723904
 31
0.0
  0
LINE
  5
344
330
1F
100
AcDbEntity
  8
외형선
  6
Continuous
370
    15
100
AcDbLine
 10
-51.97499999999999
 20
-6.348925071276113
 30
0.0
 11
-51.97499999999999
 21
0.0010749287238951
 31
0.0
  0
SPLINE
  5
345
330
1F
100
AcDbEntity
  8
외형선
  6
Continuous
370
    15
100
AcDbSpline
210
0.0
220
0.0
230
1.0
 70
    24
 71
     3
 72
    24
 73
    20
 74
     0
 42
0.000000001
 43
0.00000001
 40
0.0
 40
0.0
 40
0.0
 40
0.0
 40
0.125
 40
0.125
 40
0.25
 40
0.25
 40
0.375
 40
0.375
 40
0.5
 40
0.5
 40
0.625
 40
0.625
 40
0.75
 40
0.75
 40
0.8124999999999999
 40
0.8124999999999999
 40
0.8749999999999998
 40
0.8749999999999998
 40
1.0
 40
1.0
 40
1.0
 40
1.0
 10
2.000000000000057
 20
-3.37058151445661
 30
0.0
 10
2.000000000000057
 20
-3.281099581389846
 30
0.0
 10
2.000000000000057
 20
-3.115216756753803
 30
0.0
 10
2.000000000000057
 20
-2.608353890238575
 30
0.0
 10
2.000000000000057
 20
-2.266571088698164
 30
0.0
 10
2.000000000000057
 20
-1.473833578255459
 30
0.0
 10
2.000000000000057
 20
-1.02590936349123
 30
0.0
 10
2.000000000000057
 20
-0.1493498818895986
 30
0.0
 10
2.000000000000057
 20
0.2766828891525464
 30
0.0
 10
2.0
 20
1.023040561280858
 30
0.0
 10
2.0
 20
1.343936820258357
 30
0.0
 10
2.0
 20
1.869746232782212
 30
0.0
 10
2.000000000000057
 20
2.076012280285646
 30
0.0
 10
2.000000000000057
 20
2.31871860747875
 30
0.0
 10
2.0
 20
2.388646878512652
 30
0.0
 10
2.000000000000057
 20
2.510296261637016
 30
0.0
 10
2.0
 20
2.56172983936986
 30
0.0
 10
2.000000000000057
 20
2.711558535706637
 30
0.0
 10
2.000000000000057
 20
2.79749698395036
 30
0.0
 10
2.000000000000057
 20
2.847091612781611
 30
0.0
  0
SPLINE
  5
346
330
1F
100
AcDbEntity
  8
외형선
  6
Continuous
370
    15
100
AcDbSpline
210
0.0
220
0.0
230
1.0
 70
    24
 71
     3
 72
    14
 73
    10
 74
     0
 42
0.000000001
 43
0.00000001
 40
0.0
 40
0.0
 40
0.0
 40
0.0
 40
0.0720351725324215
 40
0.2495307948082902
 40
0.4270264170841593
 40
0.6045220393600328
 40
0.7820176616359064
 40
0.9595132839117794
 40
1.0
 40
1.0
 40
1.0
 40
1.0
 10
2.000000000000057
 20
-7.907845716201358
 30
0.0
 10
2.000000000000057
 20
-7.837998094849091
 30
0.0
 10
2.0
 20
-7.59604500639562
 30
0.0
 10
2.000000000000057
 20
-7.167868604305106
 30
0.0
 10
2.000000000000057
 20
-6.631266542153078
 30
0.0
 10
2.0
 20
-6.104043441402681
 30
0.0
 10
2.0
 20
-5.606913233910596
 30
0.0
 10
2.0
 20
-5.254673147185265
 30
0.0
 10
2.0
 20
-5.090360305249398
 30
0.0
 10
2.000000000000057
 20
-5.059841835583313
 30
0.0
  0
SPLINE
  5
347
330
1F
100
AcDbEntity
  8
외형선
  6
Continuous
370
    15
100
AcDbSpline
210
0.0
220
0.0
230
1.0
 70
    24
 71
     3
 72
    14
 73
    10
 74
     0
 42
0.000000001
 43
0.00000001
 40
0.0
 40
0.0
 40
0.0
 40
0.0
 40
0.1003808512295946
 40
0.2546451887688308
 40
0.4089095263080672
 40
0.5609765170970028
 40
0.7152408546362526
 40
0.8695051921755027
 40
1.0
 40
1.0
 40
1.0
 40
1.0
 10
2.000000000000057
 20
4.605250019659131
 30
0.0
 10
2.000000000000057
 20
4.691155500368701
 30
0.0
 10
2.000000000000057
 20
4.909079706864333
 30
0.0
 10
2.0
 20
5.322775810690182
 30
0.0
 10
2.0
 20
5.818800463724024
 30
0.0
 10
2.0
 20
6.343133435207285
 30
0.0
 10
2.0
 20
6.877054408133652
 30
0.0
 10
2.000000000000057
 20
7.384250160397947
 30
0.0
 10
2.0
 20
7.697531836687766
 30
0.0
 10
2.0
 20
7.841097487898558
 30
0.0
  0
LINE
  5
348
330
1F
100
AcDbEntity
  8
중심선
100
AcDbLine
 10
-58.97499999999999
 20
0.0010749287237957
 30
0.0
 11
56.62500000000006
 21
0.0010749287238099
 31
0.0
  0
CIRCLE
  5
349
330
1F
100
AcDbEntity
  8
해칭선
100
AcDbCircle
 10
0.0
 20
0.0
 30
0.0
 40
3.000000000000002
  0
DIMENSION
  5
34A
330
1F
100
AcDbEntity
  8
치수문자_일반주서
100
AcDbDimension
  2
*D19
 10
-64.97499999999997
 20
-7.936425071276175
 30
0.0
 11
-64.975
 21
0.0010749287239094
 31
0.0
 70
   160
  1
%%c<>
 71
     2
 42
15.87500000000003
 52
-270.0
  3
SLDDIMSTYLE0
100
AcDbAlignedDimension
 13
-50.38749999999999
 23
7.938574928723909
 33
0.0
 14
-50.38749999999999
 24
-7.936425071276119
 34
0.0
 50
90.0000000000002
100
AcDbRotatedDimension
1001
ACAD
1000
DSTYLE
1002
{
1070
   171
1070
     6
1070
   273
1070
     7
1002
}
  0
DIMENSION
  5
34B
330
1F
100
AcDbEntity
  8
치수문자_일반주서
100
AcDbDimension
  2
*D20
 10
2.000000000000057
 20
42.58846318551726
 30
0.0
 11
20.73249999793632
 21
42.58846318551726
 31
0.0
 70
   160
  1
<>
 71
     2
 42
47.625
  3
SLDDIMSTYLE0
100
AcDbAlignedDimension
 13
49.62500000000006
 23
11.11357492951755
 33
0.0
 14
2.000000000000057
 24
11.11357492951755
 34
0.0
100
AcDbRotatedDimension
1001
ACAD
1000
DSTYLE
1002
{
1070
   171
1070
     6
1070
   273
1070
     7
1002
}
  0
DIMENSION
  5
34C
330
1F
100
AcDbEntity
  8
치수문자_일반주서
100
AcDbDimension
  2
*D21
 10
-51.97499999999999
 20
59.38846318671727
 30
0.0
 11
-2.55621133233106
 21
59.38846318671727
 31
0.0
 70
   160
  1
<>
 71
     2
 42
101.6000000000001
  3
SLDDIMSTYLE0
100
AcDbAlignedDimension
 13
49.62500000000006
 23
11.11357492951755
 33
0.0
 14
-51.97499999999999
 24
6.351074928723904
 34
0.0
100
AcDbRotatedDimension
1001
ACAD
1000
DSTYLE
1002
{
1070
   171
1070
     6
1070
   273
1070
     7
1002
}
  0
DIMENSION
  5
34D
330
1F
100
AcDbEntity
  8
치수문자_일반주서
100
AcDbDimension
  2
*D22
 10
78.52416388942679
 20
-11.11142507206986
 30
0.0
 11
78.52416388942663
 21
39.95917493157805
 31
0.0
 70
   160
  1
%%c<>
 71
     2
 42
22.22500000158752
 52
-270.0
  3
SLDDIMSTYLE0
100
AcDbAlignedDimension
 13
49.62500000000006
 23
11.11357492951755
 33
0.0
 14
49.62500000000006
 24
-11.11142507206996
 34
0.0
 50
90.0000000000002
100
AcDbRotatedDimension
1001
ACAD
1000
DSTYLE
1002
{
1070
   171
1070
     6
1070
   273
1070
     7
1002
}
  0
INSERT
  5
34E
330
1F
100
AcDbEntity
  8
해칭선
100
AcDbBlockReference
  2
SW_DOWELSYMBOL_0
 10
0.0
 20
0.0
 30
0.0
  0
LINE
  5
34F
330
1F
100
AcDbEntity
  8
외형선
  6
Continuous
370
    15
100
AcDbLine
 10
-32.85832499999998
 20
6.287574928723856
 30
0.0
 11
-22.67292499999996
 21
6.287574928723856
 31
0.0
  0
LINE
  5
350
330
1F
100
AcDbEntity
  8
외형선
  6
Continuous
370
    15
100
AcDbLine
 10
-32.85832499999998
 20
6.287574928723956
 30
0.0
 11
-34.50932499999993
 21
7.938574928723867
 31
0.0
  0
LINE
  5
351
330
1F
100
AcDbEntity
  8
외형선
  6
Continuous
370
    15
100
AcDbLine
 10
-22.67292500000008
 20
6.287574928723956
 30
0.0
 11
-21.02192500000007
 21
7.938574928723867
 31
0.0
  0
LINE
  5
352
330
1F
100
AcDbEntity
  8
외형선
  6
Continuous
370
    15
100
AcDbLine
 10
-34.50932499999999
 20
7.938574928723895
 30
0.0
 11
-50.38749999999999
 21
7.938574928723895
 31
0.0
  0
LINE
  5
353
330
1F
100
AcDbEntity
  8
외형선
  6
Continuous
370
    15
100
AcDbLine
 10
2.000000000000057
 20
7.938574928723895
 30
0.0
 11
-21.02192500000007
 21
7.938574928723895
 31
0.0
  0
LINE
  5
354
330
1F
100
AcDbEntity
  8
외형선
  6
Continuous
370
    15
100
AcDbLine
 10
2.000000000000057
 20
7.938574928723902
 30
0.0
 11
2.000000000000057
 21
11.11357492951755
 31
0.0
  0
SPLINE
  5
355
330
1F
100
AcDbEntity
  8
0
  6
Continuous
 62
     1
370
    15
100
AcDbSpline
210
0.0
220
0.0
230
1.0
 70
     8
 71
     3
 72
    24
 73
    20
 74
     0
 42
0.000000001
 43
0.00000001
 40
0.2340058395219909
 40
0.2340058395219909
 40
0.2340058395219909
 40
0.2340058395219909
 40
0.2676083255843883
 40
0.3161578676653061
 40
0.3630921166003882
 40
0.4101118807252255
 40
0.4570478413382749
 40
0.5039695832376836
 40
0.5509826762862989
 40
0.5979371695416659
 40
0.6448518458442417
 40
0.691846259540111
 40
0.7388246920398878
 40
0.785737751708503
 40
0.8327057937926605
 40
0.8797092547723843
 40
0.9266261484918614
 40
0.9735724482330103
 40
1.0
 40
1.0
 40
1.0
 40
1.0
 10
2.000000000000085
 20
7.505780790606334
 30
0.0
 10
2.44142717839182
 20
7.180607468583081
 30
0.0
 10
3.520643702136852
 20
6.342158528360207
 30
0.0
 10
5.214404470911745
 20
4.879095353239207
 30
0.0
 10
7.084211951198398
 20
3.125722010190362
 30
0.0
 10
8.936170094851917
 20
1.309029852566471
 30
0.0
 10
10.7847762766169
 20
-0.5467405643722696
 30
0.0
 10
12.63282681811518
 20
-2.38772695051235
 30
0.0
 10
14.48449636261464
 20
-4.159687870553578
 30
0.0
 10
16.3338323247757
 20
-5.818760748046694
 30
0.0
 10
18.18159326164042
 20
-7.317698611500596
 30
0.0
 10
20.0325138571022
 20
-8.61245867153714
 30
0.0
 10
21.88278998734228
 20
-9.669754110785057
 30
0.0
 10
23.73048156336154
 20
-10.4608146254697
 30
0.0
 10
25.58034378808946
 20
-10.96100137233483
 30
0.0
 10
27.43163403395195
 20
-11.16190172689635
 30
0.0
 10
29.27946627528186
 20
-11.04107998133979
 30
0.0
 10
30.8583142085254
 20
-10.71948693943753
 30
0.0
 10
31.82231514154554
 20
-10.32840626053083
 30
0.0
 10
32.16952581724502
 20
-10.18754811182467
 30
0.0
  0
SPLINE
  5
356
330
1F
100
AcDbEntity
  8
0
  6
Continuous
 62
     1
370
    15
100
AcDbSpline
210
0.0
220
0.0
230
1.0
 70
     8
 71
     3
 72
    18
 73
    14
 74
     0
 42
0.000000001
 43
0.00000001
 40
0.3540754515510166
 40
0.3540754515510166
 40
0.3540754515510166
 40
0.3540754515510166
 40
0.4002004831907583
 40
0.4668428354930207
 40
0.5312679282644572
 40
0.5958104049113866
 40
0.6602378472466135
 40
0.7246457720234226
 40
0.7891790915044392
 40
0.8536319729854435
 40
0.9180301990509326
 40
0.9825378780016141
 40
1.0
 40
1.0
 40
1.0
 40
1.0
 10
2.000000000000057
 20
-3.344185886987855
 30
0.0
 10
2.441427318574569
 20
-3.76464457423166
 30
0.0
 10
3.52064339583842
 20
-4.7733107611972
 30
0.0
 10
5.214404541598952
 20
-6.258181140242108
 30
0.0
 10
7.08421191131697
 20
-7.718399895987773
 30
0.0
 10
8.93617018490994
 20
-8.94659938584347
 30
0.0
 10
10.78477595696938
 20
-9.92940456989939
 30
0.0
 10
12.63282800748118
 20
-10.63788936228016
 30
0.0
 10
14.48449191763484
 20
-11.04997533133346
 30
0.0
 10
16.33384888335391
 20
-11.16308889964839
 30
0.0
 10
18.18153147597218
 20
-10.94557028292252
 30
0.0
 10
19.58261809924724
 20
-10.61354929624191
 30
0.0
 10
20.36672117994334
 20
-10.2680753570697
 30
0.0
 10
20.53375957086172
 20
-10.19447864214249
 30
0.0
  0
LINE
  5
357
330
1F
100
AcDbEntity
  8
외형선
  6
Continuous
370
    15
100
AcDbLine
 10
2.000000000000057
 20
-7.907845716201358
 30
0.0
 11
2.000000000000057
 21
-11.11142507206996
 31
0.0
  0
SPLINE
  5
358
330
1F
100
AcDbEntity
  8
0
  6
Continuous
 62
     1
370
    15
100
AcDbSpline
210
0.0
220
0.0
230
1.0
 70
     8
 71
     3
 72
    11
 73
     7
 74
     0
 42
0.000000001
 43
0.00000001
 40
0.5956761631898546
 40
0.5956761631898546
 40
0.5956761631898546
 40
0.5956761631898546
 40
0.6732743879508013
 40
0.7853896672732436
 40
0.8937747560630717
 40
1.0
 40
1.0
 40
1.0
 40
1.0
 10
2.000000000000085
 20
-10.84904057903462
 30
0.0
 10
2.441429385110524
 20
-10.94445897174352
 30
0.0
 10
3.520648095408745
 20
-11.11494557691247
 30
0.0
 10
5.214366344347042
 20
-11.13245947086093
 30
0.0
 10
7.070954031195754
 20
-10.85845476297813
 30
0.0
 10
8.29208689782493
 20
-10.43099777505765
 30
0.0
 10
8.896508572163498
 20
-10.21942025109838
 30
0.0
  0
SPLINE
  5
38C
330
1F
100
AcDbEntity
  8
0
  6
Continuous
 62
     1
370
    15
100
AcDbSpline
210
0.0
220
0.0
230
1.0
 70
     8
 71
     3
 72
     8
 73
     4
 74
     0
 42
0.000000001
 43
0.00000001
 40
0.6864928930139985
 40
0.6864928930139985
 40
0.6864928930139985
 40
0.6864928930139985
 40
0.69826795987965
 40
0.69826795987965
 40
0.69826795987965
 40
0.69826795987965
 10
-1.410066201432528
 20
-2.647963992877887
 30
0.0
 10
-1.494532007751388
 20
-2.565844759328311
 30
0.0
 10
-1.578996787485096
 20
-2.483497089394522
 30
0.0
 10
-1.663461542124992
 20
-2.400944505561716
 30
0.0
  0
ENDSEC
  0
SECTION
  2
OBJECTS
  0
DICTIONARY
  5
C
330
0
100
AcDbDictionary
281
     1
  3
ACAD_GROUP
350
D
  3
ACAD_IMAGE_VARS
350
149
  3
ACAD_LAYOUT
350
1A
  3
ACAD_MLINESTYLE
350
17
  3
ACAD_PLOTSETTINGS
350
19
  3
ACAD_PLOTSTYLENAME
350
E
  3
ACAD_SCALELIST
350
47
  3
APPDATA
350
147
  3
DWGPROPS
350
3B0
  0
DICTIONARY
  5
204
330
2
100
AcDbDictionary
280
     1
281
     1
  3
ACAD_LAYERSTATES
360
205
  0
DICTIONARY
  5
D
102
{ACAD_REACTORS
330
C
102
}
330
C
100
AcDbDictionary
281
     1
  0
RASTERVARIABLES
  5
149
102
{ACAD_REACTORS
330
C
102
}
330
C
100
AcDbRasterVariables
 90
        0
 70
     1
 71
     1
 72
     1
  0
DICTIONARY
  5
1A
102
{ACAD_REACTORS
330
C
102
}
330
C
100
AcDbDictionary
281
     1
  3
Layout1
350
1E
  3
Layout2
350
26
  3
Model
350
22
  0
DICTIONARY
  5
17
102
{ACAD_REACTORS
330
C
102
}
330
C
100
AcDbDictionary
281
     1
  3
Standard
350
18
  0
DICTIONARY
  5
19
102
{ACAD_REACTORS
330
C
102
}
330
C
100
AcDbDictionary
281
     1
  0
ACDBDICTIONARYWDFLT
  5
E
102
{ACAD_REACTORS
330
C
102
}
330
C
100
AcDbDictionary
281
     1
  3
Normal
350
F
100
AcDbDictionaryWithDefault
340
F
  0
DICTIONARY
  5
47
102
{ACAD_REACTORS
330
C
102
}
330
C
100
AcDbDictionary
281
     1
  3
A0
350
48
  3
A1
350
49
  3
A2
350
4A
  3
A3
350
4B
  3
A4
350
4C
  3
A5
350
4D
  3
A6
350
4E
  3
A7
350
4F
  3
A8
350
50
  3
A9
350
51
  3
B0
350
52
  3
B1
350
53
  3
B2
350
54
  3
B3
350
55
  3
B4
350
56
  3
B5
350
57
  3
B6
350
58
  3
B7
350
59
  3
B8
350
5A
  3
B9
350
5B
  3
C0
350
5C
  3
C1
350
5D
  3
C2
350
5E
  3
C3
350
5F
  3
C4
350
60
  3
C5
350
61
  3
C6
350
62
  3
C7
350
63
  3
C8
350
64
  3
C9
350
65
  3
D0
350
66
  3
D1
350
67
  3
D2
350
68
  0
DICTIONARY
  5
147
102
{ACAD_REACTORS
330
C
102
}
330
C
100
AcDbDictionary
281
     1
  0
XRECORD
  5
3B0
102
{ACAD_REACTORS
330
C
102
}
330
C
100
AcDbXrecord
280
     1
  1
DWGPROPS COOKIE
  2

  3

  4

  6

  7

  8
12016016
  9

300
=
301
=
302
=
303
=
304
=
305
=
306
=
307
=
308
=
309
=
 40
0.0
 41
2458323.109773484
 42
2458330.138508136
  1

 90
        0
  0
DICTIONARY
  5
205
102
{ACAD_REACTORS
330
204
102
}
330
204
100
AcDbDictionary
281
     1
  0
LAYOUT
  5
1E
102
{ACAD_REACTORS
330
1A
102
}
330
1A
100
AcDbPlotSettings
  1

  2
none_device
  4

  6

 40
0.0
 41
0.0
 42
0.0
 43
0.0
 44
0.0
 45
0.0
 46
0.0
 47
0.0
 48
0.0
 49
0.0
140
0.0
141
0.0
142
1.0
143
1.0
 70
   688
 72
     1
 73
     0
 74
     5
  7

 75
    16
147
1.0
148
0.0
149
0.0
100
AcDbLayout
  1
Layout1
 70
     1
 71
     1
 10
0.0
 20
0.0
 11
420.0
 21
297.0
 12
0.0
 22
0.0
 32
0.0
 14
1.000000000000000E+20
 24
1.000000000000000E+20
 34
1.000000000000000E+20
 15
-1.000000000000000E+20
 25
-1.000000000000000E+20
 35
-1.000000000000000E+20
146
0.0
 13
0.0
 23
0.0
 33
0.0
 16
1.0
 26
0.0
 36
0.0
 17
0.0
 27
1.0
 37
0.0
 76
     0
330
1B
  0
LAYOUT
  5
26
102
{ACAD_REACTORS
330
1A
102
}
330
1A
100
AcDbPlotSettings
  1

  2
none_device
  4

  6

 40
0.0
 41
0.0
 42
0.0
 43
0.0
 44
0.0
 45
0.0
 46
0.0
 47
0.0
 48
0.0
 49
0.0
140
0.0
141
0.0
142
1.0
143
1.0
 70
   688
 72
     1
 73
     0
 74
     5
  7

 75
    16
147
1.0
148
0.0
149
0.0
100
AcDbLayout
  1
Layout2
 70
     1
 71
     2
 10
0.0
 20
0.0
 11
0.0
 21
0.0
 12
0.0
 22
0.0
 32
0.0
 14
0.0
 24
0.0
 34
0.0
 15
0.0
 25
0.0
 35
0.0
146
0.0
 13
0.0
 23
0.0
 33
0.0
 16
1.0
 26
0.0
 36
0.0
 17
0.0
 27
1.0
 37
0.0
 76
     0
330
23
  0
LAYOUT
  5
22
102
{ACAD_REACTORS
330
1A
102
}
330
1A
100
AcDbPlotSettings
  1

  2
none_device
  4
ANSI_A_(11.00_x_8.50_Inches)
  6

 40
6.35
 41
19.05
 42
6.35000508
 43
19.05000254
 44
279.4
 45
215.9
 46
96.39525648754174
 47
90.09827952143297
 48
0.0
 49
0.0
140
0.0
141
0.0
142
0.0605651527843098
143
1.0
 70
  1696
 72
     0
 73
     0
 74
     0
  7

 75
     0
147
0.0235690232323232
148
0.0
149
0.0
100
AcDbLayout
  1
Model
 70
     1
 71
     0
 10
0.0
 20
0.0
 11
420.0
 21
297.0
 12
0.0
 22
0.0
 32
0.0
 14
-69.35000000000005
 24
-49.97073246008785
 34
0.0
 15
113.9254298008692
 25
63.76346318671727
 35
0.0
146
0.0
 13
0.0
 23
0.0
 33
0.0
 16
1.0
 26
0.0
 36
0.0
 17
0.0
 27
1.0
 37
0.0
 76
     0
330
1F
331
29
  0
MLINESTYLE
  5
18
102
{ACAD_REACTORS
330
17
102
}
330
17
100
AcDbMlineStyle
  2
Standard
 70
     0
  3

 62
   256
 51
90.0
 52
90.0
 71
     2
 49
0.5
 62
   256
  6
BYLAYER
 49
-0.5
 62
   256
  6
BYLAYER
  0
ACDBPLACEHOLDER
  5
F
102
{ACAD_REACTORS
330
E
102
}
330
E
  0
SCALE
  5
48
102
{ACAD_REACTORS
330
47
102
}
330
47
100
AcDbScale
 70
     0
300
1:1
140
1.0
141
1.0
290
     1
  0
SCALE
  5
49
102
{ACAD_REACTORS
330
47
102
}
330
47
100
AcDbScale
 70
     0
300
1:2
140
1.0
141
2.0
290
     0
  0
SCALE
  5
4A
102
{ACAD_REACTORS
330
47
102
}
330
47
100
AcDbScale
 70
     0
300
1:4
140
1.0
141
4.0
290
     0
  0
SCALE
  5
4B
102
{ACAD_REACTORS
330
47
102
}
330
47
100
AcDbScale
 70
     0
300
1:5
140
1.0
141
5.0
290
     0
  0
SCALE
  5
4C
102
{ACAD_REACTORS
330
47
102
}
330
47
100
AcDbScale
 70
     0
300
1:8
140
1.0
141
8.0
290
     0
  0
SCALE
  5
4D
102
{ACAD_REACTORS
330
47
102
}
330
47
100
AcDbScale
 70
     0
300
1:10
140
1.0
141
10.0
290
     0
  0
SCALE
  5
4E
102
{ACAD_REACTORS
330
47
102
}
330
47
100
AcDbScale
 70
     0
300
1:16
140
1.0
141
16.0
290
     0
  0
SCALE
  5
4F
102
{ACAD_REACTORS
330
47
102
}
330
47
100
AcDbScale
 70
     0
300
1:20
140
1.0
141
20.0
290
     0
  0
SCALE
  5
50
102
{ACAD_REACTORS
330
47
102
}
330
47
100
AcDbScale
 70
     0
300
1:30
140
1.0
141
30.0
290
     0
  0
SCALE
  5
51
102
{ACAD_REACTORS
330
47
102
}
330
47
100
AcDbScale
 70
     0
300
1:40
140
1.0
141
40.0
290
     0
  0
SCALE
  5
52
102
{ACAD_REACTORS
330
47
102
}
330
47
100
AcDbScale
 70
     0
300
1:50
140
1.0
141
50.0
290
     0
  0
SCALE
  5
53
102
{ACAD_REACTORS
330
47
102
}
330
47
100
AcDbScale
 70
     0
300
1:100
140
1.0
141
100.0
290
     0
  0
SCALE
  5
54
102
{ACAD_REACTORS
330
47
102
}
330
47
100
AcDbScale
 70
     0
300
2:1
140
2.0
141
1.0
290
     0
  0
SCALE
  5
55
102
{ACAD_REACTORS
330
47
102
}
330
47
100
AcDbScale
 70
     0
300
4:1
140
4.0
141
1.0
290
     0
  0
SCALE
  5
56
102
{ACAD_REACTORS
330
47
102
}
330
47
100
AcDbScale
 70
     0
300
8:1
140
8.0
141
1.0
290
     0
  0
SCALE
  5
57
102
{ACAD_REACTORS
330
47
102
}
330
47
100
AcDbScale
 70
     0
300
10:1
140
10.0
141
1.0
290
     0
  0
SCALE
  5
58
102
{ACAD_REACTORS
330
47
102
}
330
47
100
AcDbScale
 70
     0
300
100:1
140
100.0
141
1.0
290
     0
  0
SCALE
  5
59
102
{ACAD_REACTORS
330
47
102
}
330
47
100
AcDbScale
 70
     0
300
1/128" = 1'-0"
140
0.0078125
141
12.0
290
     0
  0
SCALE
  5
5A
102
{ACAD_REACTORS
330
47
102
}
330
47
100
AcDbScale
 70
     0
300
1/64" = 1'-0"
140
0.015625
141
12.0
290
     0
  0
SCALE
  5
5B
102
{ACAD_REACTORS
330
47
102
}
330
47
100
AcDbScale
 70
     0
300
1/32" = 1'-0"
140
0.03125
141
12.0
290
     0
  0
SCALE
  5
5C
102
{ACAD_REACTORS
330
47
102
}
330
47
100
AcDbScale
 70
     0
300
1/16" = 1'-0"
140
0.0625
141
12.0
290
     0
  0
SCALE
  5
5D
102
{ACAD_REACTORS
330
47
102
}
330
47
100
AcDbScale
 70
     0
300
3/32" = 1'-0"
140
0.09375
141
12.0
290
     0
  0
SCALE
  5
5E
102
{ACAD_REACTORS
330
47
102
}
330
47
100
AcDbScale
 70
     0
300
1/8" = 1'-0"
140
0.125
141
12.0
290
     0
  0
SCALE
  5
5F
102
{ACAD_REACTORS
330
47
102
}
330
47
100
AcDbScale
 70
     0
300
3/16" = 1'-0"
140
0.1875
141
12.0
290
     0
  0
SCALE
  5
60
102
{ACAD_REACTORS
330
47
102
}
330
47
100
AcDbScale
 70
     0
300
1/4" = 1'-0"
140
0.25
141
12.0
290
     0
  0
SCALE
  5
61
102
{ACAD_REACTORS
330
47
102
}
330
47
100
AcDbScale
 70
     0
300
3/8" = 1'-0"
140
0.375
141
12.0
290
     0
  0
SCALE
  5
62
102
{ACAD_REACTORS
330
47
102
}
330
47
100
AcDbScale
 70
     0
300
1/2" = 1'-0"
140
0.5
141
12.0
290
     0
  0
SCALE
  5
63
102
{ACAD_REACTORS
330
47
102
}
330
47
100
AcDbScale
 70
     0
300
3/4" = 1'-0"
140
0.75
141
12.0
290
     0
  0
SCALE
  5
64
102
{ACAD_REACTORS
330
47
102
}
330
47
100
AcDbScale
 70
     0
300
1" = 1'-0"
140
1.0
141
12.0
290
     0
  0
SCALE
  5
65
102
{ACAD_REACTORS
330
47
102
}
330
47
100
AcDbScale
 70
     0
300
1-1/2" = 1'-0"
140
1.5
141
12.0
290
     0
  0
SCALE
  5
66
102
{ACAD_REACTORS
330
47
102
}
330
47
100
AcDbScale
 70
     0
300
3" = 1'-0"
140
3.0
141
12.0
290
     0
  0
SCALE
  5
67
102
{ACAD_REACTORS
330
47
102
}
330
47
100
AcDbScale
 70
     0
300
6" = 1'-0"
140
6.0
141
12.0
290
     0
  0
SCALE
  5
68
102
{ACAD_REACTORS
330
47
102
}
330
47
100
AcDbScale
 70
     0
300
1'-0" = 1'-0"
140
12.0
141
12.0
290
     0
  0
ENDSEC
  0
EOF
