  0
SECTION
  2
HEADER
  9
$ACADVER
  1
AC1015
  9
$ACADMAINTVER
 70
     6
  9
$DWGCODEPAGE
  3
ANSI_949
  9
$INSBASE
 10
0.0
 20
0.0
 30
0.0
  9
$EXTMIN
 10
-77.28952890264313
 20
-49.97073246008785
 30
0.0
  9
$EXTMAX
 10
113.9254298008692
 20
84.8536228080973
 30
0.0
  9
$LIMMIN
 10
0.0
 20
0.0
  9
$LIMMAX
 10
420.0
 20
297.0
  9
$ORTHOMODE
 70
     1
  9
$REGENMODE
 70
     1
  9
$FILLMODE
 70
     1
  9
$QTEXTMODE
 70
     0
  9
$MIRRTEXT
 70
     1
  9
$LTSCALE
 40
1.0
  9
$ATTMODE
 70
     1
  9
$TEXTSIZE
 40
3.5
  9
$TRACEWID
 40
1.0
  9
$TEXTSTYLE
  7
Standard
  9
$CLAYER
  8
0
  9
$CELTYPE
  6
ByLayer
  9
$CECOLOR
 62
   256
  9
$CELTSCALE
 40
1.0
  9
$DISPSILH
 70
     0
  9
$DIMSCALE
 40
1.0
  9
$DIMASZ
 40
3.302
  9
$DIMEXO
 40
1.0
  9
$DIMDLI
 40
3.75
  9
$DIMRND
 40
0.0
  9
$DIMDLE
 40
0.0
  9
$DIMEXE
 40
1.0
  9
$DIMTP
 40
0.0
  9
$DIMTM
 40
0.0
  9
$DIMTXT
 40
3.5
  9
$DIMCEN
 40
2.5
  9
$DIMTSZ
 40
0.0
  9
$DIMTOL
 70
     0
  9
$DIMLIM
 70
     0
  9
$DIMTIH
 70
     1
  9
$DIMTOH
 70
     1
  9
$DIMSE1
 70
     0
  9
$DIMSE2
 70
     0
  9
$DIMTAD
 70
     1
  9
$DIMZIN
 70
     0
  9
$DIMBLK
  1

  9
$DIMASO
 70
     1
  9
$DIMSHO
 70
     1
  9
$DIMPOST
  1

  9
$DIMAPOST
  1

  9
$DIMALT
 70
     0
  9
$DIMALTD
 70
     3
  9
$DIMALTF
 40
0.0393700787401575
  9
$DIMLFAC
 40
1.0
  9
$DIMTOFL
 70
     1
  9
$DIMTVP
 40
0.0
  9
$DIMTIX
 70
     0
  9
$DIMSOXD
 70
     0
  9
$DIMSAH
 70
     0
  9
$DIMBLK1
  1

  9
$DIMBLK2
  1

  9
$DIMSTYLE
  2
ISO-25
  9
$DIMCLRD
 70
     0
  9
$DIMCLRE
 70
     0
  9
$DIMCLRT
 70
     0
  9
$DIMTFAC
 40
1.0
  9
$DIMGAP
 40
1.524
  9
$DIMJUST
 70
     0
  9
$DIMSD1
 70
     0
  9
$DIMSD2
 70
     0
  9
$DIMTOLJ
 70
     0
  9
$DIMTZIN
 70
     0
  9
$DIMALTZ
 70
     0
  9
$DIMALTTZ
 70
     0
  9
$DIMUPT
 70
     0
  9
$DIMDEC
 70
     2
  9
$DIMTDEC
 70
     2
  9
$DIMALTU
 70
     2
  9
$DIMALTTD
 70
     3
  9
$DIMTXSTY
  7
Standard
  9
$DIMAUNIT
 70
     0
  9
$DIMADEC
 70
     2
  9
$DIMALTRND
 40
0.0
  9
$DIMAZIN
 70
     0
  9
$DIMDSEP
 70
    44
  9
$DIMATFIT
 70
     3
  9
$DIMFRAC
 70
     0
  9
$DIMLDRBLK
  1

  9
$DIMLUNIT
 70
     2
  9
$DIMLWD
 70
    -2
  9
$DIMLWE
 70
    -2
  9
$DIMTMOVE
 70
     0
  9
$LUNITS
 70
     2
  9
$LUPREC
 70
     2
  9
$SKETCHINC
 40
1.0
  9
$FILLETRAD
 40
10.0
  9
$AUNITS
 70
     0
  9
$AUPREC
 70
     2
  9
$MENU
  1
.
  9
$ELEVATION
 40
0.0
  9
$PELEVATION
 40
0.0
  9
$THICKNESS
 40
0.0
  9
$LIMCHECK
 70
     0
  9
$CHAMFERA
 40
0.0
  9
$CHAMFERB
 40
0.0
  9
$CHAMFERC
 40
0.0
  9
$CHAMFERD
 40
0.0
  9
$SKPOLY
 70
     0
  9
$TDCREATE
 40
2458323.483079329
  9
$TDUCREATE
 40
2458323.108079329
  9
$TDUPDATE
 40
2458330.514165359
  9
$TDUUPDATE
 40
2458330.139165359
  9
$TDINDWG
 40
0.0008900694
  9
$TDUSRTIMER
 40
2458330.139119618
  9
$USRTIMER
 70
     1
  9
$ANGBASE
 50
0.0
  9
$ANGDIR
 70
     0
  9
$PDMODE
 70
     0
  9
$PDSIZE
 40
-1.0
  9
$PLINEWID
 40
0.0
  9
$SPLFRAME
 70
     0
  9
$SPLINETYPE
 70
     6
  9
$SPLINESEGS
 70
     8
  9
$HANDSEED
  5
259
  9
$SURFTAB1
 70
     6
  9
$SURFTAB2
 70
     6
  9
$SURFTYPE
 70
     6
  9
$SURFU
 70
     6
  9
$SURFV
 70
     6
  9
$UCSBASE
  2

  9
$UCSNAME
  2

  9
$UCSORG
 10
0.0
 20
0.0
 30
0.0
  9
$UCSXDIR
 10
1.0
 20
0.0
 30
0.0
  9
$UCSYDIR
 10
0.0
 20
1.0
 30
0.0
  9
$UCSORTHOREF
  2

  9
$UCSORTHOVIEW
 70
     0
  9
$UCSORGTOP
 10
0.0
 20
0.0
 30
0.0
  9
$UCSORGBOTTOM
 10
0.0
 20
0.0
 30
0.0
  9
$UCSORGLEFT
 10
0.0
 20
0.0
 30
0.0
  9
$UCSORGRIGHT
 10
0.0
 20
0.0
 30
0.0
  9
$UCSORGFRONT
 10
0.0
 20
0.0
 30
0.0
  9
$UCSORGBACK
 10
0.0
 20
0.0
 30
0.0
  9
$PUCSBASE
  2

  9
$PUCSNAME
  2

  9
$PUCSORG
 10
0.0
 20
0.0
 30
0.0
  9
$PUCSXDIR
 10
1.0
 20
0.0
 30
0.0
  9
$PUCSYDIR
 10
0.0
 20
1.0
 30
0.0
  9
$PUCSORTHOREF
  2

  9
$PUCSORTHOVIEW
 70
     0
  9
$PUCSORGTOP
 10
0.0
 20
0.0
 30
0.0
  9
$PUCSORGBOTTOM
 10
0.0
 20
0.0
 30
0.0
  9
$PUCSORGLEFT
 10
0.0
 20
0.0
 30
0.0
  9
$PUCSORGRIGHT
 10
0.0
 20
0.0
 30
0.0
  9
$PUCSORGFRONT
 10
0.0
 20
0.0
 30
0.0
  9
$PUCSORGBACK
 10
0.0
 20
0.0
 30
0.0
  9
$USERI1
 70
     0
  9
$USERI2
 70
     0
  9
$USERI3
 70
     0
  9
$USERI4
 70
     0
  9
$USERI5
 70
     0
  9
$USERR1
 40
0.0
  9
$USERR2
 40
0.0
  9
$USERR3
 40
0.0
  9
$USERR4
 40
0.0
  9
$USERR5
 40
0.0
  9
$WORLDVIEW
 70
     1
  9
$SHADEDGE
 70
     3
  9
$SHADEDIF
 70
    70
  9
$TILEMODE
 70
     1
  9
$MAXACTVP
 70
    64
  9
$PINSBASE
 10
0.0
 20
0.0
 30
0.0
  9
$PLIMCHECK
 70
     0
  9
$PEXTMIN
 10
1.000000000000000E+20
 20
1.000000000000000E+20
 30
1.000000000000000E+20
  9
$PEXTMAX
 10
-1.000000000000000E+20
 20
-1.000000000000000E+20
 30
-1.000000000000000E+20
  9
$PLIMMIN
 10
0.0
 20
0.0
  9
$PLIMMAX
 10
0.0
 20
0.0
  9
$UNITMODE
 70
     0
  9
$VISRETAIN
 70
     1
  9
$PLINEGEN
 70
     0
  9
$PSLTSCALE
 70
     1
  9
$TREEDEPTH
 70
  3020
  9
$CMLSTYLE
  2
Standard
  9
$CMLJUST
 70
     0
  9
$CMLSCALE
 40
20.0
  9
$PROXYGRAPHICS
 70
     1
  9
$MEASUREMENT
 70
     1
  9
$CELWEIGHT
370
    -1
  9
$ENDCAPS
280
     0
  9
$JOINSTYLE
280
     0
  9
$LWDISPLAY
290
     1
  9
$INSUNITS
 70
     4
  9
$HYPERLINKBASE
  1

  9
$STYLESHEET
  1

  9
$XEDIT
290
     1
  9
$CEPSNTYPE
380
     0
  9
$PSTYLEMODE
290
     1
  9
$FINGERPRINTGUID
  2
{4B7822DD-0395-412E-8C0A-860A57F3C814}
  9
$VERSIONGUID
  2
{FAEB1C32-E019-11D5-929B-00C0DF256EC4}
  9
$EXTNAMES
290
     1
  9
$PSVPSCALE
 40
0.0
  9
$OLESTARTUP
290
     0
  0
ENDSEC
  0
SECTION
  2
CLASSES
  0
CLASS
  1
ACDBDICTIONARYWDFLT
  2
AcDbDictionaryWithDefault
  3
ObjectDBX Classes
 90
        0
280
     0
281
     0
  0
CLASS
  1
VISUALSTYLE
  2
AcDbVisualStyle
  3
ObjectDBX Classes
 90
     4095
280
     0
281
     0
  0
CLASS
  1
MATERIAL
  2
AcDbMaterial
  3
ObjectDBX Classes
 90
     1153
280
     0
281
     0
  0
CLASS
  1
SCALE
  2
AcDbScale
  3
ObjectDBX Classes
 90
     1153
280
     0
281
     0
  0
CLASS
  1
SUN
  2
AcDbSun
  3
SCENEOE
 90
     1153
280
     0
281
     0
  0
CLASS
  1
ACDBPLACEHOLDER
  2
AcDbPlaceHolder
  3
ObjectDBX Classes
 90
        0
280
     0
281
     0
  0
CLASS
  1
LAYOUT
  2
AcDbLayout
  3
ObjectDBX Classes
 90
        0
280
     0
281
     0
  0
CLASS
  1
TABLESTYLE
  2
AcDbTableStyle
  3
ObjectDBX Classes
 90
     4095
280
     0
281
     0
  0
CLASS
  1
MLEADERSTYLE
  2
AcDbMLeaderStyle
  3
ACDB_MLEADERSTYLE_CLASS
 90
     4095
280
     0
281
     0
  0
CLASS
  1
RASTERVARIABLES
  2
AcDbRasterVariables
  3
ISM
 90
        0
280
     0
281
     0
  0
ENDSEC
  0
SECTION
  2
TABLES
  0
TABLE
  2
VPORT
  5
8
330
0
100
AcDbSymbolTable
 70
     1
  0
VPORT
  5
29
330
8
100
AcDbSymbolTableRecord
100
AcDbViewportTableRecord
  2
*Active
 70
     0
 10
0.0
 20
0.0
 11
1.0
 21
1.0
 12
-12.83086577799881
 22
2.578027265741483
 13
0.0
 23
0.0
 14
10.0
 24
10.0
 15
10.0
 25
10.0
 16
0.0
 26
0.0
 36
1.0
 17
0.0
 27
0.0
 37
0.0
 40
188.9729926644656
 41
1.516441005802708
 42
50.0
 43
0.0
 44
0.0
 50
0.0
 51
0.0
 71
    16
 72
  2000
 73
     1
 74
     3
 75
     0
 76
     0
 77
     0
 78
     0
281
     0
 65
     1
110
0.0
120
0.0
130
0.0
111
1.0
121
0.0
131
0.0
112
0.0
122
1.0
132
0.0
 79
     0
146
0.0
  0
ENDTAB
  0
TABLE
  2
LTYPE
  5
5
330
0
100
AcDbSymbolTable
 70
     6
  0
LTYPE
  5
14
330
5
100
AcDbSymbolTableRecord
100
AcDbLinetypeTableRecord
  2
ByBlock
 70
     0
  3

 72
    65
 73
     0
 40
0.0
  0
LTYPE
  5
15
330
5
100
AcDbSymbolTableRecord
100
AcDbLinetypeTableRecord
  2
ByLayer
 70
     0
  3

 72
    65
 73
     0
 40
0.0
  0
LTYPE
  5
16
330
5
100
AcDbSymbolTableRecord
100
AcDbLinetypeTableRecord
  2
Continuous
 70
     0
  3
Solid line
 72
    65
 73
     0
 40
0.0
  0
LTYPE
  5
6A
330
5
100
AcDbSymbolTableRecord
100
AcDbLinetypeTableRecord
  2
HIDDEN
 70
     0
  3
Hidden __ __ __ __ __ __ __ __ __ __ __ __ __ __
 72
    65
 73
     2
 40
1.905
 49
1.27
 74
     0
 49
-0.635
 74
     0
  0
LTYPE
  5
6B
330
5
100
AcDbSymbolTableRecord
100
AcDbLinetypeTableRecord
  2
PHANTOM
 70
     0
  3
Phantom ______  __  __  ______  __  __  ______
 72
    65
 73
     6
 40
12.7
 49
6.35
 74
     0
 49
-1.27
 74
     0
 49
1.27
 74
     0
 49
-1.27
 74
     0
 49
1.27
 74
     0
 49
-1.27
 74
     0
  0
LTYPE
  5
6C
330
5
100
AcDbSymbolTableRecord
100
AcDbLinetypeTableRecord
  2
CENTER
 70
     0
  3
Center ____ _ ____ _ ____ _ ____ _ ____ _ ____
 72
    65
 73
     4
 40
10.16
 49
6.35
 74
     0
 49
-1.27
 74
     0
 49
1.27
 74
     0
 49
-1.27
 74
     0
  0
LTYPE
  5
6D
330
5
100
AcDbSymbolTableRecord
100
AcDbLinetypeTableRecord
  2
CENTERX2
 70
     0
  3
Center (2x) ________  __  ________  __  _____
 72
    65
 73
     4
 40
20.32
 49
12.7
 74
     0
 49
-2.54
 74
     0
 49
2.54
 74
     0
 49
-2.54
 74
     0
  0
LTYPE
  5
6E
330
5
100
AcDbSymbolTableRecord
100
AcDbLinetypeTableRecord
  2
DOT2
 70
     0
  3
Dot (.5x) ........................................
 72
    65
 73
     2
 40
0.635
 49
0.0
 74
     0
 49
-0.635
 74
     0
  0
ENDTAB
  0
TABLE
  2
LAYER
  5
2
102
{ACAD_XDICTIONARY
360
1C3
102
}
330
0
100
AcDbSymbolTable
 70
    18
  0
LAYER
  5
10
330
2
100
AcDbSymbolTableRecord
100
AcDbLayerTableRecord
  2
0
 70
     0
 62
     7
  6
Continuous
370
    -3
390
F
  0
LAYER
  5
6F
330
2
100
AcDbSymbolTableRecord
100
AcDbLayerTableRecord
  2
FORMAT
 70
     0
 62
     2
  6
Continuous
370
    -3
390
F
  0
LAYER
  5
70
330
2
100
AcDbSymbolTableRecord
100
AcDbLayerTableRecord
  2
외형선
 70
     0
 62
     4
  6
Continuous
370
    30
390
F
  0
LAYER
  5
71
330
2
100
AcDbSymbolTableRecord
100
AcDbLayerTableRecord
  2
숨은선
 70
     0
 62
     2
  6
HIDDEN
370
    15
390
F
  0
LAYER
  5
72
330
2
100
AcDbSymbolTableRecord
100
AcDbLayerTableRecord
  2
중심선
 70
     0
 62
     1
  6
CENTERX2
370
    -3
390
F
  0
LAYER
  5
73
330
2
100
AcDbSymbolTableRecord
100
AcDbLayerTableRecord
  2
파단선
 70
     0
 62
     4
  6
Continuous
370
    -3
390
F
  0
LAYER
  5
74
330
2
100
AcDbSymbolTableRecord
100
AcDbLayerTableRecord
  2
해칭선
 70
     0
 62
   100
  6
Continuous
370
    -3
390
F
  0
LAYER
  5
75
330
2
100
AcDbSymbolTableRecord
100
AcDbLayerTableRecord
  2
가는실선
 70
     0
 62
     4
  6
Continuous
370
    -3
390
F
  0
LAYER
  5
76
330
2
100
AcDbSymbolTableRecord
100
AcDbLayerTableRecord
  2
치수_보조선
 70
     0
 62
     4
  6
Continuous
370
    -3
390
F
  0
LAYER
  5
77
330
2
100
AcDbSymbolTableRecord
100
AcDbLayerTableRecord
  2
치수문자_일반주서
 70
     0
 62
     7
  6
Continuous
370
    15
390
F
  0
LAYER
  5
78
330
2
100
AcDbSymbolTableRecord
100
AcDbLayerTableRecord
  2
개별주서
 70
     0
 62
   100
  6
Continuous
370
    30
390
F
  0
LAYER
  5
79
330
2
100
AcDbSymbolTableRecord
100
AcDbLayerTableRecord
  2
중간선
 70
     0
 62
     2
  6
Continuous
370
    15
390
F
  0
LAYER
  5
7A
330
2
100
AcDbSymbolTableRecord
100
AcDbLayerTableRecord
  2
윤곽선
 70
     0
 62
     3
  6
Continuous
370
    40
390
F
  0
LAYER
  5
7B
330
2
100
AcDbSymbolTableRecord
100
AcDbLayerTableRecord
  2
중심마크
 70
     0
 62
   100
  6
Continuous
370
    30
390
F
  0
LAYER
  5
7C
330
2
100
AcDbSymbolTableRecord
100
AcDbLayerTableRecord
  2
가상선
 70
     0
 62
     4
  6
PHANTOM
370
    -3
390
F
  0
LAYER
  5
7D
330
2
100
AcDbSymbolTableRecord
100
AcDbLayerTableRecord
  2
특수지정선
 70
     0
 62
     5
  6
CENTERX2
370
    60
390
F
  0
LAYER
  5
7E
330
2
100
AcDbSymbolTableRecord
100
AcDbLayerTableRecord
  2
참조1
 70
     0
 62
    -4
  6
Continuous
370
    -3
390
F
  0
LAYER
  5
12A
330
2
100
AcDbSymbolTableRecord
100
AcDbLayerTableRecord
  2
Defpoints
 70
     0
 62
     7
  6
Continuous
290
     0
370
    -3
390
F
  0
ENDTAB
  0
TABLE
  2
STYLE
  5
3
330
0
100
AcDbSymbolTable
 70
     2
  0
STYLE
  5
11
330
3
100
AcDbSymbolTableRecord
100
AcDbTextStyleTableRecord
  2
Standard
 70
     0
 40
0.0
 41
1.0
 50
0.0
 71
     0
 42
3.5
  3
txt
  4

  0
STYLE
  5
94
330
3
100
AcDbSymbolTableRecord
100
AcDbTextStyleTableRecord
  2
SLDTEXTSTYLE0
 70
     0
 40
0.0
 41
0.75
 50
0.0
 71
     0
 42
3.5
  3
TXT
  4

  0
ENDTAB
  0
TABLE
  2
VIEW
  5
6
330
0
100
AcDbSymbolTable
 70
     0
  0
ENDTAB
  0
TABLE
  2
UCS
  5
7
330
0
100
AcDbSymbolTable
 70
     0
  0
ENDTAB
  0
TABLE
  2
APPID
  5
9
330
0
100
AcDbSymbolTable
 70
     1
  0
APPID
  5
12
330
9
100
AcDbSymbolTableRecord
100
AcDbRegAppTableRecord
  2
ACAD
 70
     0
  0
ENDTAB
  0
TABLE
  2
DIMSTYLE
  5
A
330
0
100
AcDbSymbolTable
 70
     3
100
AcDbDimStyleTable
  0
DIMSTYLE
105
27
330
A
100
AcDbSymbolTableRecord
100
AcDbDimStyleTableRecord
  2
ISO-25
 70
     0
 41
2.5
 42
0.625
 43
3.75
 44
1.25
 73
     0
 74
     0
 77
     1
 78
     8
140
2.5
141
2.5
143
0.03937007874016
147
0.625
171
     3
172
     1
178
     0
271
     2
272
     2
274
     3
278
    44
283
     0
284
     8
340
11
  0
DIMSTYLE
105
A8
102
{ACAD_REACTORS
330
1EC
330
1ED
330
1EE
330
1EF
102
}
330
A
100
AcDbSymbolTableRecord
100
AcDbDimStyleTableRecord
  2
SLDDIMSTYLE0
 70
     0
 41
3.302
 44
0.0
 45
0.000000001
 73
     0
 74
     0
 77
     1
 78
    12
 79
     3
140
3.5
143
0.0393700787401575
147
0.875
148
0.000000001
170
     1
172
     1
173
     1
178
     0
271
     2
272
     2
276
     2
284
    12
289
     0
340
94
  0
DIMSTYLE
105
D1
330
A
100
AcDbSymbolTableRecord
100
AcDbDimStyleTableRecord
  2
SLDDIMSTYLE1
 70
     0
 41
3.302
 44
0.0
 45
0.000000001
 73
     0
 74
     0
 77
     1
 78
    12
 79
     3
140
3.5
143
0.0393700787401575
147
0.875
148
0.000000001
170
     1
173
     1
178
     0
271
     2
272
     2
276
     2
284
    12
340
94
  0
ENDTAB
  0
TABLE
  2
BLOCK_RECORD
  5
1
330
0
100
AcDbSymbolTable
 70
    15
  0
BLOCK_RECORD
  5
1F
330
1
100
AcDbSymbolTableRecord
100
AcDbBlockTableRecord
  2
*Model_Space
340
22
  0
BLOCK_RECORD
  5
1B
330
1
100
AcDbSymbolTableRecord
100
AcDbBlockTableRecord
  2
*Paper_Space
340
1E
  0
BLOCK_RECORD
  5
23
330
1
100
AcDbSymbolTableRecord
100
AcDbBlockTableRecord
  2
*Paper_Space0
340
26
  0
BLOCK_RECORD
  5
7F
330
1
100
AcDbSymbolTableRecord
100
AcDbBlockTableRecord
  2
블럭10
340
0
102
{BLKREFS
331
A0
102
}
  0
BLOCK_RECORD
  5
A9
330
1
100
AcDbSymbolTableRecord
100
AcDbBlockTableRecord
  2
_D
340
0
  0
BLOCK_RECORD
  5
BD
330
1
100
AcDbSymbolTableRecord
100
AcDbBlockTableRecord
  2
_D_1
340
0
  0
BLOCK_RECORD
  5
D2
330
1
100
AcDbSymbolTableRecord
100
AcDbBlockTableRecord
  2
_D_2
340
0
  0
BLOCK_RECORD
  5
E5
330
1
100
AcDbSymbolTableRecord
100
AcDbBlockTableRecord
  2
_D_3
340
0
  0
BLOCK_RECORD
  5
FE
330
1
100
AcDbSymbolTableRecord
100
AcDbBlockTableRecord
  2
SW_DOWELSYMBOL_0
340
0
102
{BLKREFS
331
1F0
102
}
  0
BLOCK_RECORD
  5
178
330
1
100
AcDbSymbolTableRecord
100
AcDbBlockTableRecord
  2
*D7
340
0
  0
BLOCK_RECORD
  5
185
330
1
100
AcDbSymbolTableRecord
100
AcDbBlockTableRecord
  2
*D8
340
0
  0
BLOCK_RECORD
  5
192
330
1
100
AcDbSymbolTableRecord
100
AcDbBlockTableRecord
  2
*D9
340
0
  0
BLOCK_RECORD
  5
19F
330
1
100
AcDbSymbolTableRecord
100
AcDbBlockTableRecord
  2
*D10
340
0
  0
BLOCK_RECORD
  5
202
330
1
100
AcDbSymbolTableRecord
100
AcDbBlockTableRecord
  2
*D11
340
0
  0
BLOCK_RECORD
  5
20E
330
1
100
AcDbSymbolTableRecord
100
AcDbBlockTableRecord
  2
*D12
340
0
  0
BLOCK_RECORD
  5
21A
330
1
100
AcDbSymbolTableRecord
100
AcDbBlockTableRecord
  2
*D13
340
0
  0
BLOCK_RECORD
  5
226
330
1
100
AcDbSymbolTableRecord
100
AcDbBlockTableRecord
  2
*D14
340
0
  0
ENDTAB
  0
ENDSEC
  0
SECTION
  2
BLOCKS
  0
BLOCK
  5
20
330
1F
100
AcDbEntity
  8
0
100
AcDbBlockBegin
  2
*Model_Space
 70
     0
 10
0.0
 20
0.0
 30
0.0
  3
*Model_Space
  1
*Model_Space
  0
ENDBLK
  5
21
330
1F
100
AcDbEntity
  8
0
100
AcDbBlockEnd
  0
BLOCK
  5
1C
330
1B
100
AcDbEntity
 67
     1
  8
0
100
AcDbBlockBegin
  2
*Paper_Space
 70
     0
 10
0.0
 20
0.0
 30
0.0
  3
*Paper_Space
  1
*Paper_Space
  0
ENDBLK
  5
1D
330
1B
100
AcDbEntity
 67
     1
  8
0
100
AcDbBlockEnd
  0
BLOCK
  5
24
330
23
100
AcDbEntity
  8
0
100
AcDbBlockBegin
  2
*Paper_Space0
 70
     0
 10
0.0
 20
0.0
 30
0.0
  3
*Paper_Space0
  1
*Paper_Space0
  0
ENDBLK
  5
25
330
23
100
AcDbEntity
  8
0
100
AcDbBlockEnd
  0
BLOCK
  5
80
330
7F
100
AcDbEntity
  8
0
100
AcDbBlockBegin
  2
블럭10
 70
     2
 10
0.0
 20
0.0
 30
0.0
  3
블럭10
  1
블럭10
  0
ELLIPSE
  5
82
330
7F
100
AcDbEntity
  8
중심선
100
AcDbEllipse
 10
20.54032771741204
 20
12.0471743016438
 30
0.0
 11
6.600054785286829
 21
-1.261213355974178E-13
 31
0.0
210
0.0
220
0.0
230
1.0
 40
0.636358354079598
 41
0.9219305317359503
 42
6.513795318482858
  0
ELLIPSE
  5
83
330
7F
100
AcDbEntity
  8
중심선
100
AcDbEllipse
 10
20.54032771746488
 20
12.04717430159265
 30
0.0
 11
3.960054785062283
 21
1.540847449632565E-10
 31
0.0
210
0.0
220
0.0
230
1.0
 40
0.3939339440162632
 41
1.131841032648279
 42
5.62031148352944
  0
LINE
  5
84
330
7F
100
AcDbEntity
  8
중심선
100
AcDbLine
 10
2.268634060543552
 20
16.24717430164393
 30
0.0
 11
5.714909304380834
 21
16.24717430164393
 31
0.0
  0
LINE
  5
85
330
7F
100
AcDbEntity
  8
중심선
100
AcDbLine
 10
5.245725140726316
 20
7.84717430164391
 30
0.0
 11
8.692000384563599
 21
7.84717430164391
 31
0.0
  0
LINE
  5
86
330
7F
100
AcDbEntity
  8
중심선
100
AcDbLine
 10
15.74043728645272
 20
16.24717430164393
 30
0.0
 11
8.692000384563599
 21
7.84717430164391
 31
0.0
  0
LINE
  5
87
330
7F
100
AcDbEntity
  8
중심선
100
AcDbLine
 10
0.1404042013395286
 20
13.71084872107135
 30
0.0
 11
3.58671253028996
 21
13.71088815037384
 31
0.0
  0
LINE
  5
88
330
7F
100
AcDbEntity
  8
중심선
100
AcDbLine
 10
2.750260043222114
 20
10.84717430164391
 30
0.0
 11
6.196535287059397
 21
10.84717430164391
 31
0.0
  0
LINE
  5
89
330
7F
100
AcDbEntity
  8
중심선
100
AcDbLine
 10
12.29416204261559
 20
16.24717430164393
 30
0.0
 11
5.245725140726316
 21
7.84717430164391
 31
0.0
  0
LINE
  5
8A
330
7F
100
AcDbEntity
  8
중심선
100
AcDbLine
 10
10.72767329541681
 20
16.24717430164393
 30
0.0
 11
6.196535287059397
 21
10.84717430164391
 31
0.0
  0
LINE
  5
8B
330
7F
100
AcDbEntity
  8
중심선
100
AcDbLine
 10
7.28139805157953
 20
16.24717430164393
 30
0.0
 11
2.750260043222114
 21
10.84717430164391
 31
0.0
  0
LINE
  5
8C
330
7F
100
AcDbEntity
  8
중심선
100
AcDbLine
 10
5.714909304380834
 20
16.24717430164393
 30
0.0
 11
3.58671253028996
 21
13.71088815037384
 31
0.0
  0
LINE
  5
8D
330
7F
100
AcDbEntity
  8
중심선
100
AcDbLine
 10
2.268634060543552
 20
16.24717430164393
 30
0.0
 11
0.1404042013395286
 21
13.71084872107135
 31
0.0
  0
LINE
  5
8E
330
7F
100
AcDbEntity
  8
중심선
100
AcDbLine
 10
7.28139805157953
 20
16.24717430164393
 30
0.0
 11
10.72767329541681
 21
16.24717430164393
 31
0.0
  0
LINE
  5
8F
330
7F
100
AcDbEntity
  8
중심선
100
AcDbLine
 10
12.29416204261559
 20
16.24717430164393
 30
0.0
 11
15.74043728645272
 21
16.24717430164393
 31
0.0
  0
LINE
  5
90
330
7F
100
AcDbEntity
  8
중심선
100
AcDbLine
 10
19.22036997980202
 20
11.08717430171403
 30
0.0
 11
23.66174974927406
 21
11.08717430171406
 31
0.0
  0
LINE
  5
91
330
7F
100
AcDbEntity
  8
중심선
100
AcDbLine
 10
19.22039502424796
 20
13.00717430171391
 30
0.0
 11
19.22036997980202
 21
11.08717430171403
 31
0.0
  0
LINE
  5
92
330
7F
100
AcDbEntity
  8
중심선
100
AcDbLine
 10
19.22039502424796
 20
13.00717430171391
 30
0.0
 11
26.96566020931264
 21
13.00717430171391
 31
0.0
  0
LINE
  5
93
330
7F
100
AcDbEntity
  8
중심선
100
AcDbLine
 10
22.22332737316547
 20
13.45928029700563
 30
0.0
 11
24.52862924686651
 21
15.39360700705356
 31
0.0
  0
ATTDEF
  5
95
330
7F
100
AcDbEntity
  8
FORMAT
 62
     2
100
AcDbText
 10
4.408487351596664
 20
2.075366912832191
 30
0.0
 40
4.233333333333333
  1
E2032200
 41
0.75
  7
SLDTEXTSTYLE0
 11
4.408487351596664
 21
-0.0412997538344756
 31
0.0
100
AcDbAttributeDefinition
  3

  2
AUTOATTR0
 70
     0
 74
     1
  0
ENDBLK
  5
81
330
7F
100
AcDbEntity
  8
0
100
AcDbBlockEnd
  0
BLOCK
  5
AA
330
A9
100
AcDbEntity
  8
0
100
AcDbBlockBegin
  2
_D
 70
     0
 10
0.0
 20
0.0
 30
0.0
  3
_D
  1
_D
  0
SOLID
  5
AC
330
A9
100
AcDbEntity
  8
치수문자_일반주서
100
AcDbTrace
 10
97.9119459855236
 20
12.5010749287239
 30
0.0
 11
98.4199459855236
 21
15.80307492872389
 31
0.0
 12
97.4039459855236
 22
15.80307492872389
 32
0.0
 13
97.4039459855236
 23
15.80307492872389
 33
0.0
  0
SOLID
  5
AD
330
A9
100
AcDbEntity
  8
치수문자_일반주서
100
AcDbTrace
 10
97.9119459855236
 20
-12.49892507127611
 30
0.0
 11
97.4039459855236
 21
-15.80092507127611
 31
0.0
 12
98.4199459855236
 22
-15.80092507127611
 32
0.0
 13
98.4199459855236
 23
-15.80092507127611
 33
0.0
  0
LINE
  5
AE
330
A9
100
AcDbEntity
  8
치수문자_일반주서
100
AcDbLine
 10
87.11906426948089
 20
-5.413291502344828
 30
0.0
 11
87.11906426948089
 21
-6.124228987909328
 31
0.0
  0
LINE
  5
AF
330
A9
100
AcDbEntity
  8
치수문자_일반주서
100
AcDbLine
 10
87.11906426948089
 20
-6.124228987909328
 30
0.0
 11
92.67531426054019
 21
-6.124228987909289
 31
0.0
  0
LINE
  5
B0
330
A9
100
AcDbEntity
  8
치수문자_일반주서
100
AcDbLine
 10
92.67531426054019
 20
-6.124228987909289
 30
0.0
 11
92.67531426054019
 21
-5.413291502344789
 31
0.0
  0
LINE
  5
B1
330
A9
100
AcDbEntity
  8
치수문자_일반주서
100
AcDbLine
 10
87.1190642694808
 20
5.41544135979243
 30
0.0
 11
87.1190642694808
 21
6.12637884535693
 31
0.0
  0
LINE
  5
B2
330
A9
100
AcDbEntity
  8
치수문자_일반주서
100
AcDbLine
 10
87.1190642694808
 20
6.12637884535693
 30
0.0
 11
92.6753142605401
 21
6.126378845356969
 31
0.0
  0
LINE
  5
B3
330
A9
100
AcDbEntity
  8
치수문자_일반주서
100
AcDbLine
 10
92.6753142605401
 20
6.126378845356969
 30
0.0
 11
92.6753142605401
 21
5.415441359792469
 31
0.0
  0
LINE
  5
B4
330
A9
100
AcDbEntity
  8
치수문자_일반주서
100
AcDbLine
 10
79.91194598552357
 20
12.5010749287239
 30
0.0
 11
98.9119459855236
 21
12.5010749287239
 31
0.0
  0
LINE
  5
B5
330
A9
100
AcDbEntity
  8
치수문자_일반주서
100
AcDbLine
 10
79.91194598552357
 20
-12.49892507127611
 30
0.0
 11
98.9119459855236
 21
-12.49892507127611
 31
0.0
  0
LINE
  5
B6
330
A9
100
AcDbEntity
  8
치수문자_일반주서
100
AcDbLine
 10
97.9119459855236
 20
12.5010749287239
 30
0.0
 11
97.9119459855236
 21
18.8510749287239
 31
0.0
  0
LINE
  5
B7
330
A9
100
AcDbEntity
  8
치수문자_일반주서
100
AcDbLine
 10
97.9119459855236
 20
12.5010749287239
 30
0.0
 11
97.9119459855236
 21
-12.49892507127611
 31
0.0
  0
LINE
  5
B8
330
A9
100
AcDbEntity
  8
치수문자_일반주서
100
AcDbLine
 10
97.9119459855236
 20
-12.49892507127611
 30
0.0
 11
97.9119459855236
 21
-18.84892507127611
 31
0.0
  0
MTEXT
  5
B9
330
A9
100
AcDbEntity
  8
치수문자_일반주서
100
AcDbMText
 10
88.16357734596129
 20
-4.52461960173345
 30
0.0
 40
3.5
 41
0.0
 71
     1
 72
     1
  1
0.98
  7
SLDTEXTSTYLE0
 11
-7.044195017643634E-15
 21
1.0
 31
0.0
 73
     1
 44
1.0
  0
MTEXT
  5
BA
330
A9
100
AcDbEntity
  8
치수문자_일반주서
100
AcDbMText
 10
93.40020889632177
 20
-5.22425519681665
 30
0.0
 40
3.5
 41
0.0
 71
     1
 72
     1
  1
%%c
  7
SLDTEXTSTYLE0
 11
-7.044195017643634E-15
 21
1.0
 31
0.0
 73
     1
 44
1.0
  0
MTEXT
  5
BB
330
A9
100
AcDbEntity
  8
치수문자_일반주서
100
AcDbMText
 10
93.40020889632173
 20
0.0541822015574309
 30
0.0
 40
3.5
 41
0.0
 71
     1
 72
     1
  1
25
  7
SLDTEXTSTYLE0
 11
-7.044195017643634E-15
 21
1.0
 31
0.0
 73
     1
 44
1.0
  0
ENDBLK
  5
AB
330
A9
100
AcDbEntity
  8
0
100
AcDbBlockEnd
  0
BLOCK
  5
BE
330
BD
100
AcDbEntity
  8
0
100
AcDbBlockBegin
  2
_D_1
 70
     0
 10
0.0
 20
0.0
 30
0.0
  3
_D_1
  1
_D_1
  0
SOLID
  5
C0
330
BD
100
AcDbEntity
  8
치수문자_일반주서
100
AcDbTrace
 10
-55.08805401447646
 20
7.938574928723906
 30
0.0
 11
-54.58005401447646
 21
11.24057492872391
 31
0.0
 12
-55.59605401447646
 22
11.24057492872391
 32
0.0
 13
-55.59605401447646
 23
11.24057492872391
 33
0.0
  0
SOLID
  5
C1
330
BD
100
AcDbEntity
  8
치수문자_일반주서
100
AcDbTrace
 10
-55.08805401447646
 20
-7.936425071276123
 30
0.0
 11
-55.59605401447646
 21
-11.23842507127612
 31
0.0
 12
-54.58005401447646
 22
-11.23842507127612
 32
0.0
 13
-54.58005401447646
 23
-11.23842507127612
 33
0.0
  0
LINE
  5
C2
330
BD
100
AcDbEntity
  8
치수문자_일반주서
100
AcDbLine
 10
-65.88093573051917
 20
-6.595745043212554
 30
0.0
 11
-65.88093573051917
 21
-7.306682528777054
 31
0.0
  0
LINE
  5
C3
330
BD
100
AcDbEntity
  8
치수문자_일반주서
100
AcDbLine
 10
-65.88093573051917
 20
-7.306682528777054
 30
0.0
 11
-60.32468573945987
 21
-7.306682528777015
 31
0.0
  0
LINE
  5
C4
330
BD
100
AcDbEntity
  8
치수문자_일반주서
100
AcDbLine
 10
-60.32468573945987
 20
-7.306682528777015
 30
0.0
 11
-60.32468573945987
 21
-6.595745043212514
 31
0.0
  0
LINE
  5
C5
330
BD
100
AcDbEntity
  8
치수문자_일반주서
100
AcDbLine
 10
-65.88093573051925
 20
4.232987818924705
 30
0.0
 11
-65.88093573051925
 21
4.943925304489205
 31
0.0
  0
LINE
  5
C6
330
BD
100
AcDbEntity
  8
치수문자_일반주서
100
AcDbLine
 10
-65.88093573051925
 20
4.943925304489205
 30
0.0
 11
-60.32468573945995
 21
4.943925304489244
 31
0.0
  0
LINE
  5
C7
330
BD
100
AcDbEntity
  8
치수문자_일반주서
100
AcDbLine
 10
-60.32468573945995
 20
4.943925304489244
 30
0.0
 11
-60.32468573945994
 21
4.232987818924744
 31
0.0
  0
LINE
  5
C8
330
BD
100
AcDbEntity
  8
치수문자_일반주서
100
AcDbLine
 10
-41.50055401447643
 20
7.938574928723908
 30
0.0
 11
-56.08805401447646
 21
7.938574928723906
 31
0.0
  0
LINE
  5
C9
330
BD
100
AcDbEntity
  8
치수문자_일반주서
100
AcDbLine
 10
-41.50055401447643
 20
-7.936425071276121
 30
0.0
 11
-56.08805401447646
 21
-7.936425071276123
 31
0.0
  0
LINE
  5
CA
330
BD
100
AcDbEntity
  8
치수문자_일반주서
100
AcDbLine
 10
-55.08805401447646
 20
7.938574928723906
 30
0.0
 11
-55.08805401447646
 21
14.28857492872391
 31
0.0
  0
LINE
  5
CB
330
BD
100
AcDbEntity
  8
치수문자_일반주서
100
AcDbLine
 10
-55.08805401447646
 20
7.938574928723906
 30
0.0
 11
-55.08805401447646
 21
-7.936425071276123
 31
0.0
  0
LINE
  5
CC
330
BD
100
AcDbEntity
  8
치수문자_일반주서
100
AcDbLine
 10
-55.08805401447646
 20
-7.936425071276123
 30
0.0
 11
-55.08805401447646
 21
-14.28642507127612
 31
0.0
  0
MTEXT
  5
CD
330
BD
100
AcDbEntity
  8
치수문자_일반주서
100
AcDbMText
 10
-64.83642265403878
 20
-5.707073142601175
 30
0.0
 40
3.5
 41
0.0
 71
     1
 72
     1
  1
0.63
  7
SLDTEXTSTYLE0
 11
-7.044195017643634E-15
 21
1.0
 31
0.0
 73
     1
 44
1.0
  0
MTEXT
  5
CE
330
BD
100
AcDbEntity
  8
치수문자_일반주서
100
AcDbMText
 10
-59.59979110367827
 20
-9.639347554964907
 30
0.0
 40
3.5
 41
0.0
 71
     1
 72
     1
  1
%%c
  7
SLDTEXTSTYLE0
 11
-7.044195017643634E-15
 21
1.0
 31
0.0
 73
     1
 44
1.0
  0
MTEXT
  5
CF
330
BD
100
AcDbEntity
  8
치수문자_일반주서
100
AcDbMText
 10
-59.59979110367831
 20
-4.360910156590827
 30
0.0
 40
3.5
 41
0.0
 71
     1
 72
     1
  1
15.88
  7
SLDTEXTSTYLE0
 11
-7.044195017643634E-15
 21
1.0
 31
0.0
 73
     1
 44
1.0
  0
ENDBLK
  5
BF
330
BD
100
AcDbEntity
  8
0
100
AcDbBlockEnd
  0
BLOCK
  5
D3
330
D2
100
AcDbEntity
  8
0
100
AcDbBlockBegin
  2
_D_2
 70
     0
 10
0.0
 20
0.0
 30
0.0
  3
_D_2
  1
_D_2
  0
SOLID
  5
D5
330
D2
100
AcDbEntity
  8
치수문자_일반주서
100
AcDbTrace
 10
78.9119459855236
 20
22.33656116902758
 30
0.0
 11
75.60994598552361
 21
22.84456116902758
 31
0.0
 12
75.60994598552361
 22
21.82856116902758
 32
0.0
 13
75.60994598552361
 23
21.82856116902758
 33
0.0
  0
SOLID
  5
D6
330
D2
100
AcDbEntity
  8
치수문자_일반주서
100
AcDbTrace
 10
33.9119459855236
 20
22.3365611690276
 30
0.0
 11
37.2139459855236
 21
21.8285611690276
 31
0.0
 12
37.2139459855236
 22
22.8445611690276
 32
0.0
 13
37.2139459855236
 23
22.8445611690276
 33
0.0
  0
LINE
  5
D7
330
D2
100
AcDbEntity
  8
치수문자_일반주서
100
AcDbLine
 10
50.99757990370091
 20
33.12944288507032
 30
0.0
 11
50.28664241813641
 21
33.12944288507033
 31
0.0
  0
LINE
  5
D8
330
D2
100
AcDbEntity
  8
치수문자_일반주서
100
AcDbLine
 10
50.28664241813641
 20
33.12944288507033
 30
0.0
 11
50.28664241813637
 21
27.57319289401102
 31
0.0
  0
LINE
  5
D9
330
D2
100
AcDbEntity
  8
치수문자_일반주서
100
AcDbLine
 10
50.28664241813637
 20
27.57319289401102
 30
0.0
 11
50.99757990370087
 21
27.57319289401102
 31
0.0
  0
LINE
  5
DA
330
D2
100
AcDbEntity
  8
치수문자_일반주서
100
AcDbLine
 10
61.82631276583817
 20
33.12944288507024
 30
0.0
 11
62.53725025140267
 21
33.12944288507023
 31
0.0
  0
LINE
  5
DB
330
D2
100
AcDbEntity
  8
치수문자_일반주서
100
AcDbLine
 10
62.53725025140267
 20
33.12944288507023
 30
0.0
 11
62.53725025140263
 21
27.57319289401093
 31
0.0
  0
LINE
  5
DC
330
D2
100
AcDbEntity
  8
치수문자_일반주서
100
AcDbLine
 10
62.53725025140263
 20
27.57319289401093
 30
0.0
 11
61.82631276583813
 21
27.57319289401094
 31
0.0
  0
LINE
  5
DD
330
D2
100
AcDbEntity
  8
치수문자_일반주서
100
AcDbLine
 10
78.9119459855236
 20
13.04623741649756
 30
0.0
 11
78.9119459855236
 21
23.33656116902758
 31
0.0
  0
LINE
  5
DE
330
D2
100
AcDbEntity
  8
치수문자_일반주서
100
AcDbLine
 10
33.91194598552359
 20
13.50102630229547
 30
0.0
 11
33.9119459855236
 21
23.3365611690276
 31
0.0
  0
LINE
  5
DF
330
D2
100
AcDbEntity
  8
치수문자_일반주서
100
AcDbLine
 10
78.9119459855236
 20
22.33656116902758
 30
0.0
 11
33.9119459855236
 21
22.3365611690276
 31
0.0
  0
MTEXT
  5
E0
330
D2
100
AcDbEntity
  8
치수문자_일반주서
100
AcDbMText
 10
49.77288369264966
 20
26.90177043488931
 30
0.0
 40
3.5
 41
0.0
 71
     1
 72
     1
  1

  7
SLDTEXTSTYLE0
 73
     1
 44
1.0
  0
MTEXT
  5
E1
330
D2
100
AcDbEntity
  8
치수문자_일반주서
100
AcDbMText
 10
51.88625180431227
 20
32.08492980858991
 30
0.0
 40
3.5
 41
0.0
 71
     1
 72
     1
  1
1.77
  7
SLDTEXTSTYLE0
 73
     1
 44
1.0
  0
MTEXT
  5
E2
330
D2
100
AcDbEntity
  8
치수문자_일반주서
100
AcDbMText
 10
53.82583514124668
 20
26.84829825822942
 30
0.0
 40
3.5
 41
0.0
 71
     1
 72
     1
  1
45
  7
SLDTEXTSTYLE0
 73
     1
 44
1.0
  0
MTEXT
  5
E3
330
D2
100
AcDbEntity
  8
치수문자_일반주서
100
AcDbMText
 10
64.38295349654321
 20
26.9017704348892
 30
0.0
 40
3.5
 41
0.0
 71
     1
 72
     1
  1

  7
SLDTEXTSTYLE0
 73
     1
 44
1.0
  0
ENDBLK
  5
D4
330
D2
100
AcDbEntity
  8
0
100
AcDbBlockEnd
  0
BLOCK
  5
E6
330
E5
100
AcDbEntity
  8
0
100
AcDbBlockBegin
  2
_D_3
 70
     0
 10
0.0
 20
0.0
 30
0.0
  3
_D_3
  1
_D_3
  0
SOLID
  5
E8
330
E5
100
AcDbEntity
  8
치수문자_일반주서
100
AcDbTrace
 10
78.91194598552357
 20
38.36394344956528
 30
0.0
 11
75.60994598552358
 21
38.87194344956529
 31
0.0
 12
75.60994598552358
 22
37.85594344956528
 32
0.0
 13
75.60994598552358
 23
37.85594344956528
 33
0.0
  0
SOLID
  5
E9
330
E5
100
AcDbEntity
  8
치수문자_일반주서
100
AcDbTrace
 10
-42.08805401447642
 20
38.36394344956528
 30
0.0
 11
-38.78605401447642
 21
37.85594344956527
 31
0.0
 12
-38.78605401447642
 22
38.87194344956528
 32
0.0
 13
-38.78605401447642
 23
38.87194344956528
 33
0.0
  0
LINE
  5
EA
330
E5
100
AcDbEntity
  8
치수문자_일반주서
100
AcDbLine
 10
14.47912979228456
 20
49.15682516560803
 30
0.0
 11
13.76819230672006
 21
49.15682516560804
 31
0.0
  0
LINE
  5
EB
330
E5
100
AcDbEntity
  8
치수문자_일반주서
100
AcDbLine
 10
13.76819230672006
 20
49.15682516560804
 30
0.0
 11
13.76819230672002
 21
43.60057517454874
 31
0.0
  0
LINE
  5
EC
330
E5
100
AcDbEntity
  8
치수문자_일반주서
100
AcDbLine
 10
13.76819230672002
 20
43.60057517454874
 30
0.0
 11
14.47912979228452
 21
43.60057517454873
 31
0.0
  0
LINE
  5
ED
330
E5
100
AcDbEntity
  8
치수문자_일반주서
100
AcDbLine
 10
25.30786265442182
 20
49.15682516560796
 30
0.0
 11
26.01880013998632
 21
49.15682516560796
 31
0.0
  0
LINE
  5
EE
330
E5
100
AcDbEntity
  8
치수문자_일반주서
100
AcDbLine
 10
26.01880013998632
 20
49.15682516560796
 30
0.0
 11
26.01880013998629
 21
43.60057517454865
 31
0.0
  0
LINE
  5
EF
330
E5
100
AcDbEntity
  8
치수문자_일반주서
100
AcDbLine
 10
26.01880013998629
 20
43.60057517454865
 30
0.0
 11
25.30786265442179
 21
43.60057517454866
 31
0.0
  0
LINE
  5
F0
330
E5
100
AcDbEntity
  8
치수문자_일반주서
100
AcDbLine
 10
78.91194598552357
 20
13.21639659633511
 30
0.0
 11
78.91194598552357
 21
39.36394344956528
 31
0.0
  0
LINE
  5
F1
330
E5
100
AcDbEntity
  8
치수문자_일반주서
100
AcDbLine
 10
-42.08805401447642
 20
7.351074928723897
 30
0.0
 11
-42.08805401447642
 21
39.36394344956528
 31
0.0
  0
LINE
  5
F2
330
E5
100
AcDbEntity
  8
치수문자_일반주서
100
AcDbLine
 10
78.91194598552357
 20
38.36394344956528
 30
0.0
 11
-42.08805401447642
 21
38.36394344956528
 31
0.0
  0
MTEXT
  5
F3
330
E5
100
AcDbEntity
  8
치수문자_일반주서
100
AcDbMText
 10
13.25443358123332
 20
42.92915271542702
 30
0.0
 40
3.5
 41
0.0
 71
     1
 72
     1
  1

  7
SLDTEXTSTYLE0
 73
     1
 44
1.0
  0
MTEXT
  5
F4
330
E5
100
AcDbEntity
  8
치수문자_일반주서
100
AcDbMText
 10
15.36780169289593
 20
48.11231208912763
 30
0.0
 40
3.5
 41
0.0
 71
     1
 72
     1
  1
4.76
  7
SLDTEXTSTYLE0
 73
     1
 44
1.0
  0
MTEXT
  5
F5
330
E5
100
AcDbEntity
  8
치수문자_일반주서
100
AcDbMText
 10
16.01432954948426
 20
42.87568053876715
 30
0.0
 40
3.5
 41
0.0
 71
     1
 72
     1
  1
121
  7
SLDTEXTSTYLE0
 73
     1
 44
1.0
  0
MTEXT
  5
F6
330
E5
100
AcDbEntity
  8
치수문자_일반주서
100
AcDbMText
 10
27.86450338512689
 20
42.92915271542692
 30
0.0
 40
3.5
 41
0.0
 71
     1
 72
     1
  1

  7
SLDTEXTSTYLE0
 73
     1
 44
1.0
  0
ENDBLK
  5
E7
330
E5
100
AcDbEntity
  8
0
100
AcDbBlockEnd
  0
BLOCK
  5
FF
330
FE
100
AcDbEntity
  8
0
100
AcDbBlockBegin
  2
SW_DOWELSYMBOL_0
 70
     0
 10
0.0
 20
0.0
 30
0.0
  3
SW_DOWELSYMBOL_0
  1
SW_DOWELSYMBOL_0
  0
CIRCLE
  5
101
330
FE
100
AcDbEntity
  8
해칭선
 62
     0
100
AcDbCircle
 10
0.0
 20
0.0
 30
0.0
 40
3.000000000000001
  0
HATCH
  5
102
330
FE
100
AcDbEntity
  8
0
  6
Continuous
 62
     0
370
     0
100
AcDbHatch
 10
0.0
 20
0.0
 30
0.0
210
0.0
220
0.0
230
1.0
  2
SOLID
 70
     1
 71
     0
 91
        1
 92
        0
 93
        3
 72
     2
 10
0.0
 20
0.0
 40
3.000000000000001
 50
0.0
 51
90.0
 73
     1
 72
     1
 10
0.0
 20
3.000000000000001
 11
0.0
 21
0.0
 72
     1
 10
0.0
 20
0.0
 11
3.000000000000001
 21
0.0
 97
        0
 75
     0
 76
     1
 98
        1
 10
0.0
 20
0.0
  0
HATCH
  5
103
330
FE
100
AcDbEntity
  8
0
  6
Continuous
 62
     0
370
     0
100
AcDbHatch
 10
0.0
 20
0.0
 30
0.0
210
0.0
220
0.0
230
1.0
  2
SOLID
 70
     1
 71
     0
 91
        1
 92
        0
 93
        3
 72
     2
 10
0.0
 20
0.0
 40
3.000000000000001
 50
180.0
 51
270.0000000000007
 73
     1
 72
     1
 10
0.0
 20
-3.000000000000001
 11
0.0
 21
0.0
 72
     1
 10
0.0
 20
0.0
 11
-3.000000000000001
 21
0.0
 97
        0
 75
     0
 76
     1
 98
        1
 10
0.0
 20
0.0
  0
ENDBLK
  5
100
330
FE
100
AcDbEntity
  8
0
100
AcDbBlockEnd
  0
BLOCK
  5
179
330
178
100
AcDbEntity
  8
0
100
AcDbBlockBegin
  2
*D7
 70
     1
 10
0.0
 20
0.0
 30
0.0
  3
*D7
  1
*D8
  0
LINE
  5
17A
330
178
100
AcDbEntity
  8
치수문자_일반주서
 62
     0
370
    -2
100
AcDbLine
 10
15.72500000000001
 20
38.15977694855464
 30
0.0
 11
4.374999999999988
 21
38.1597769485546
 31
0.0
  0
LINE
  5
17B
330
178
100
AcDbEntity
  8
치수문자_일반주서
 62
     0
370
    -2
100
AcDbLine
 10
18.90000000000008
 20
6.409776948554658
 30
0.0
 11
4.375000000000099
 21
6.409776948554603
 31
0.0
  0
LINE
  5
17C
330
178
100
AcDbEntity
  8
치수문자_일반주서
 62
     0
370
    -2
100
AcDbLine
 10
4.374999999999999
 20
34.8577769485546
 30
0.0
 11
4.375000000000087
 21
9.711776948554602
 31
0.0
  0
SOLID
  5
17D
330
178
100
AcDbEntity
  8
치수문자_일반주서
 62
     0
100
AcDbTrace
 10
4.925333333333333
 20
34.8577769485546
 30
0.0
 11
3.824666666666666
 21
34.8577769485546
 31
0.0
 12
4.374999999999988
 22
38.1597769485546
 32
0.0
 13
4.374999999999988
 23
38.1597769485546
 33
0.0
  0
SOLID
  5
17E
330
178
100
AcDbEntity
  8
치수문자_일반주서
 62
     0
100
AcDbTrace
 10
3.824666666666754
 20
9.7117769485546
 30
0.0
 11
4.925333333333421
 21
9.711776948554604
 31
0.0
 12
4.375000000000099
 22
6.409776948554603
 32
0.0
 13
4.375000000000099
 23
6.409776948554603
 33
0.0
  0
MTEXT
  5
17F
330
178
100
AcDbEntity
  8
치수문자_일반주서
 62
     0
100
AcDbMText
 10
0.0000000000000426
 20
22.28477694855464
 30
0.0
 40
3.5
 41
0.0
 71
     2
 72
     1
  1
\A1;%%c31.75 [1 1/4]
  7
SLDTEXTSTYLE0
 11
-3.496765431890257E-15
 21
1.0
 31
0.0
 73
     1
 44
1.0
  0
POINT
  5
180
330
178
100
AcDbEntity
  8
Defpoints
 62
     0
100
AcDbPoint
 10
15.78750000000001
 20
38.15977694855464
 30
0.0
  0
POINT
  5
181
330
178
100
AcDbEntity
  8
Defpoints
 62
     0
100
AcDbPoint
 10
18.96250000000008
 20
6.409776948554658
 30
0.0
  0
POINT
  5
182
330
178
100
AcDbEntity
  8
Defpoints
 62
     0
100
AcDbPoint
 10
4.375000000000099
 20
6.409776948554604
 30
0.0
  0
ENDBLK
  5
183
330
178
100
AcDbEntity
  8
0
100
AcDbBlockEnd
  0
BLOCK
  5
186
330
185
100
AcDbEntity
  8
0
100
AcDbBlockBegin
  2
*D8
 70
     1
 10
0.0
 20
0.0
 30
0.0
  3
*D8
  1
*D9
  0
LINE
  5
187
330
185
100
AcDbEntity
  8
치수문자_일반주서
 62
     0
370
    -2
100
AcDbLine
 10
130.0875
 20
44.57227682155461
 30
0.0
 11
130.0875
 21
75.90357199283748
 31
0.0
  0
LINE
  5
188
330
185
100
AcDbEntity
  8
치수문자_일반주서
 62
     0
370
    -2
100
AcDbLine
 10
79.28750000000007
 20
44.51810368250814
 30
0.0
 11
79.28750000000007
 21
75.90357199283748
 31
0.0
  0
LINE
  5
189
330
185
100
AcDbEntity
  8
치수문자_일반주서
 62
     0
370
    -2
100
AcDbLine
 10
126.7855
 20
75.90357199283748
 30
0.0
 11
82.58950000000007
 21
75.90357199283748
 31
0.0
  0
SOLID
  5
18A
330
185
100
AcDbEntity
  8
치수문자_일반주서
 62
     0
100
AcDbTrace
 10
126.7855
 20
75.35323865950416
 30
0.0
 11
126.7855
 21
76.45390532617081
 31
0.0
 12
130.0875
 22
75.90357199283748
 32
0.0
 13
130.0875
 23
75.90357199283748
 33
0.0
  0
SOLID
  5
18B
330
185
100
AcDbEntity
  8
치수문자_일반주서
 62
     0
100
AcDbTrace
 10
82.58950000000007
 20
76.45390532617081
 30
0.0
 11
82.58950000000007
 21
75.35323865950416
 31
0.0
 12
79.28750000000007
 22
75.90357199283748
 32
0.0
 13
79.28750000000007
 23
75.90357199283748
 33
0.0
  0
MTEXT
  5
18C
330
185
100
AcDbEntity
  8
치수문자_일반주서
 62
     0
100
AcDbMText
 10
104.6875
 20
80.27857199283748
 30
0.0
 40
3.5
 41
0.0
 71
     2
 72
     1
  1
\A1;50.8 [2]
  7
SLDTEXTSTYLE0
 73
     1
 44
1.0
  0
POINT
  5
18D
330
185
100
AcDbEntity
  8
Defpoints
 62
     0
100
AcDbPoint
 10
130.0875
 20
44.50977682155461
 30
0.0
  0
POINT
  5
18E
330
185
100
AcDbEntity
  8
Defpoints
 62
     0
100
AcDbPoint
 10
79.28750000000007
 20
44.45560368250814
 30
0.0
  0
POINT
  5
18F
330
185
100
AcDbEntity
  8
Defpoints
 62
     0
100
AcDbPoint
 10
79.28750000000007
 20
75.90357199283748
 30
0.0
  0
ENDBLK
  5
190
330
185
100
AcDbEntity
  8
0
100
AcDbBlockEnd
  0
BLOCK
  5
193
330
192
100
AcDbEntity
  8
0
100
AcDbBlockBegin
  2
*D9
 70
     1
 10
0.0
 20
0.0
 30
0.0
  3
*D9
  1
*D10
  0
LINE
  5
194
330
192
100
AcDbEntity
  8
치수문자_일반주서
 62
     0
370
    -2
100
AcDbLine
 10
130.0875
 20
44.57227682155461
 30
0.0
 11
130.0875
 21
92.70357189683745
 31
0.0
  0
LINE
  5
195
330
192
100
AcDbEntity
  8
치수문자_일반주서
 62
     0
370
    -2
100
AcDbLine
 10
15.78750000000001
 20
35.04727694855469
 30
0.0
 11
15.78750000000001
 21
92.70357189683745
 31
0.0
  0
LINE
  5
196
330
192
100
AcDbEntity
  8
치수문자_일반주서
 62
     0
370
    -2
100
AcDbLine
 10
126.7855
 20
92.70357189683745
 30
0.0
 11
19.08950000000001
 21
92.70357189683745
 31
0.0
  0
SOLID
  5
197
330
192
100
AcDbEntity
  8
치수문자_일반주서
 62
     0
100
AcDbTrace
 10
126.7855
 20
92.15323856350412
 30
0.0
 11
126.7855
 21
93.25390523017077
 31
0.0
 12
130.0875
 22
92.70357189683745
 32
0.0
 13
130.0875
 23
92.70357189683745
 33
0.0
  0
SOLID
  5
198
330
192
100
AcDbEntity
  8
치수문자_일반주서
 62
     0
100
AcDbTrace
 10
19.08950000000001
 20
93.25390523017077
 30
0.0
 11
19.08950000000001
 21
92.15323856350412
 31
0.0
 12
15.78750000000001
 22
92.70357189683745
 32
0.0
 13
15.78750000000001
 23
92.70357189683745
 33
0.0
  0
MTEXT
  5
199
330
192
100
AcDbEntity
  8
치수문자_일반주서
 62
     0
100
AcDbMText
 10
74.76927815950856
 20
97.07857189683745
 30
0.0
 40
3.5
 41
0.0
 71
     2
 72
     1
  1
\A1;114.3 [4 1/2]
  7
SLDTEXTSTYLE0
 73
     1
 44
1.0
  0
POINT
  5
19A
330
192
100
AcDbEntity
  8
Defpoints
 62
     0
100
AcDbPoint
 10
130.0875
 20
44.50977682155461
 30
0.0
  0
POINT
  5
19B
330
192
100
AcDbEntity
  8
Defpoints
 62
     0
100
AcDbPoint
 10
15.78750000000001
 20
34.98477694855469
 30
0.0
  0
POINT
  5
19C
330
192
100
AcDbEntity
  8
Defpoints
 62
     0
100
AcDbPoint
 10
15.78750000000001
 20
92.70357189683745
 30
0.0
  0
ENDBLK
  5
19D
330
192
100
AcDbEntity
  8
0
100
AcDbBlockEnd
  0
BLOCK
  5
1A0
330
19F
100
AcDbEntity
  8
0
100
AcDbBlockBegin
  2
*D10
 70
     1
 10
0.0
 20
0.0
 30
0.0
  3
*D10
  1
*D11
  0
LINE
  5
1A1
330
19F
100
AcDbEntity
  8
치수문자_일반주서
 62
     0
370
    -2
100
AcDbLine
 10
130.15
 20
44.50977682155461
 30
0.0
 11
155.3568594827612
 21
44.5097768215547
 31
0.0
  0
LINE
  5
1A2
330
19F
100
AcDbEntity
  8
치수문자_일반주서
 62
     0
370
    -2
100
AcDbLine
 10
130.15
 20
0.0597770755545926
 30
0.0
 11
155.3568594827614
 21
0.0597770755546847
 31
0.0
  0
LINE
  5
1A3
330
19F
100
AcDbEntity
  8
치수문자_일반주서
 62
     0
370
    -2
100
AcDbLine
 10
155.3568594827612
 20
41.2077768215547
 30
0.0
 11
155.3568594827614
 21
3.361777075554684
 31
0.0
  0
SOLID
  5
1A4
330
19F
100
AcDbEntity
  8
치수문자_일반주서
 62
     0
100
AcDbTrace
 10
155.9071928160946
 20
41.2077768215547
 30
0.0
 11
154.8065261494279
 21
41.2077768215547
 31
0.0
 12
155.3568594827612
 22
44.5097768215547
 32
0.0
 13
155.3568594827612
 23
44.5097768215547
 33
0.0
  0
SOLID
  5
1A5
330
19F
100
AcDbEntity
  8
치수문자_일반주서
 62
     0
100
AcDbTrace
 10
154.806526149428
 20
3.361777075554683
 30
0.0
 11
155.9071928160947
 21
3.361777075554686
 31
0.0
 12
155.3568594827614
 22
0.0597770755546847
 32
0.0
 13
155.3568594827614
 23
0.0597770755546847
 33
0.0
  0
MTEXT
  5
1A6
330
19F
100
AcDbEntity
  8
치수문자_일반주서
 62
     0
100
AcDbMText
 10
150.9818594827613
 20
22.00342588206682
 30
0.0
 40
3.5
 41
0.0
 71
     2
 72
     1
  1
\A1;%%c44.45 [1 3/4]
  7
SLDTEXTSTYLE0
 11
-3.197042698854192E-15
 21
1.0
 31
0.0
 73
     1
 44
1.0
  0
POINT
  5
1A7
330
19F
100
AcDbEntity
  8
Defpoints
 62
     0
100
AcDbPoint
 10
130.0875
 20
44.50977682155461
 30
0.0
  0
POINT
  5
1A8
330
19F
100
AcDbEntity
  8
Defpoints
 62
     0
100
AcDbPoint
 10
130.0875
 20
0.0597770755545923
 30
0.0
  0
POINT
  5
1A9
330
19F
100
AcDbEntity
  8
Defpoints
 62
     0
100
AcDbPoint
 10
155.3568594827614
 20
0.0597770755546867
 30
0.0
  0
ENDBLK
  5
1AA
330
19F
100
AcDbEntity
  8
0
100
AcDbBlockEnd
  0
BLOCK
  5
203
330
202
100
AcDbEntity
  8
0
100
AcDbBlockBegin
  2
*D11
 70
     1
 10
0.0
 20
0.0
 30
0.0
  3
*D11
  1
*D12
  0
LINE
  5
205
330
202
100
AcDbEntity
  8
치수문자_일반주서
 62
     0
370
    -2
100
AcDbLine
 10
-61.56452890264313
 20
15.87499999999998
 30
0.0
 11
-72.91452890264314
 21
15.87499999999994
 31
0.0
  0
LINE
  5
206
330
202
100
AcDbEntity
  8
치수문자_일반주서
 62
     0
370
    -2
100
AcDbLine
 10
-58.38952890264306
 20
-15.87500000000001
 30
0.0
 11
-72.91452890264303
 21
-15.87500000000006
 31
0.0
  0
LINE
  5
207
330
202
100
AcDbEntity
  8
치수문자_일반주서
 62
     0
370
    -2
100
AcDbLine
 10
-72.91452890264313
 20
12.57299999999994
 30
0.0
 11
-72.91452890264304
 21
-12.57300000000006
 31
0.0
  0
SOLID
  5
208
330
202
100
AcDbEntity
  8
치수문자_일반주서
 62
     0
100
AcDbTrace
 10
-72.3641955693098
 20
12.57299999999994
 30
0.0
 11
-73.46486223597645
 21
12.57299999999994
 31
0.0
 12
-72.91452890264314
 22
15.87499999999994
 32
0.0
 13
-72.91452890264314
 23
15.87499999999994
 33
0.0
  0
SOLID
  5
209
330
202
100
AcDbEntity
  8
치수문자_일반주서
 62
     0
100
AcDbTrace
 10
-73.46486223597637
 20
-12.57300000000006
 30
0.0
 11
-72.36419556930971
 21
-12.57300000000006
 31
0.0
 12
-72.91452890264303
 22
-15.87500000000006
 32
0.0
 13
-72.91452890264303
 23
-15.87500000000006
 33
0.0
  0
MTEXT
  5
20A
330
202
100
AcDbEntity
  8
치수문자_일반주서
 62
     0
100
AcDbMText
 10
-77.28952890264308
 20
-0.0000000000000226
 30
0.0
 40
3.5
 41
0.0
 71
     2
 72
     1
  1
\A1;%%c31.75 [1 1/4]
  7
SLDTEXTSTYLE0
 11
-3.580687802255623E-15
 21
1.0
 31
0.0
 73
     1
 44
1.0
  0
POINT
  5
20B
330
202
100
AcDbEntity
  8
Defpoints
 62
     0
100
AcDbPoint
 10
-61.50202890264313
 20
15.87499999999998
 30
0.0
  0
POINT
  5
20C
330
202
100
AcDbEntity
  8
Defpoints
 62
     0
100
AcDbPoint
 10
-58.32702890264306
 20
-15.87500000000001
 30
0.0
  0
POINT
  5
20D
330
202
100
AcDbEntity
  8
Defpoints
 62
     0
100
AcDbPoint
 10
-72.91452890264303
 20
-15.87500000000006
 30
0.0
  0
ENDBLK
  5
204
330
202
100
AcDbEntity
  8
0
100
AcDbBlockEnd
  0
BLOCK
  5
20F
330
20E
100
AcDbEntity
  8
0
100
AcDbBlockBegin
  2
*D12
 70
     1
 10
0.0
 20
0.0
 30
0.0
  3
*D12
  1
*D13
  0
LINE
  5
211
330
20E
100
AcDbEntity
  8
치수문자_일반주서
 62
     0
370
    -2
100
AcDbLine
 10
52.79797109735691
 20
25.46249985803207
 30
0.0
 11
52.79797109735691
 21
61.27862291541161
 31
0.0
  0
LINE
  5
212
330
20E
100
AcDbEntity
  8
치수문자_일반주서
 62
     0
370
    -2
100
AcDbLine
 10
1.997971097356924
 20
25.40058769911408
 30
0.0
 11
1.997971097356924
 21
61.27862291541161
 31
0.0
  0
LINE
  5
213
330
20E
100
AcDbEntity
  8
치수문자_일반주서
 62
     0
370
    -2
100
AcDbLine
 10
49.49597109735691
 20
61.27862291541161
 30
0.0
 11
5.299971097356924
 21
61.27862291541161
 31
0.0
  0
SOLID
  5
214
330
20E
100
AcDbEntity
  8
치수문자_일반주서
 62
     0
100
AcDbTrace
 10
49.49597109735691
 20
60.72828958207828
 30
0.0
 11
49.49597109735691
 21
61.82895624874494
 31
0.0
 12
52.79797109735691
 22
61.27862291541161
 32
0.0
 13
52.79797109735691
 23
61.27862291541161
 33
0.0
  0
SOLID
  5
215
330
20E
100
AcDbEntity
  8
치수문자_일반주서
 62
     0
100
AcDbTrace
 10
5.299971097356924
 20
61.82895624874494
 30
0.0
 11
5.299971097356924
 21
60.72828958207828
 31
0.0
 12
1.997971097356924
 22
61.27862291541161
 32
0.0
 13
1.997971097356924
 23
61.27862291541161
 33
0.0
  0
MTEXT
  5
216
330
20E
100
AcDbEntity
  8
치수문자_일반주서
 62
     0
100
AcDbMText
 10
23.7693996651569
 20
65.6536229154116
 30
0.0
 40
3.5
 41
0.0
 71
     2
 72
     1
  1
\A1;50.8 [2]
  7
SLDTEXTSTYLE0
 73
     1
 44
1.0
  0
POINT
  5
217
330
20E
100
AcDbEntity
  8
Defpoints
 62
     0
100
AcDbPoint
 10
52.79797109735691
 20
25.39999985803207
 30
0.0
  0
POINT
  5
218
330
20E
100
AcDbEntity
  8
Defpoints
 62
     0
100
AcDbPoint
 10
1.997971097356924
 20
25.33808769911408
 30
0.0
  0
POINT
  5
219
330
20E
100
AcDbEntity
  8
Defpoints
 62
     0
100
AcDbPoint
 10
1.997971097356924
 20
61.27862291541161
 30
0.0
  0
ENDBLK
  5
210
330
20E
100
AcDbEntity
  8
0
100
AcDbBlockEnd
  0
BLOCK
  5
21B
330
21A
100
AcDbEntity
  8
0
100
AcDbBlockBegin
  2
*D13
 70
     1
 10
0.0
 20
0.0
 30
0.0
  3
*D13
  1
*D14
  0
LINE
  5
21D
330
21A
100
AcDbEntity
  8
치수문자_일반주서
 62
     0
370
    -2
100
AcDbLine
 10
52.79797109735691
 20
25.46249985803207
 30
0.0
 11
52.79797109735691
 21
80.4786228080973
 31
0.0
  0
LINE
  5
21E
330
21A
100
AcDbEntity
  8
치수문자_일반주서
 62
     0
370
    -2
100
AcDbLine
 10
-61.50202890264313
 20
12.76250000000002
 30
0.0
 11
-61.50202890264313
 21
80.4786228080973
 31
0.0
  0
LINE
  5
21F
330
21A
100
AcDbEntity
  8
치수문자_일반주서
 62
     0
370
    -2
100
AcDbLine
 10
49.49597109735691
 20
80.4786228080973
 30
0.0
 11
-58.20002890264313
 21
80.4786228080973
 31
0.0
  0
SOLID
  5
220
330
21A
100
AcDbEntity
  8
치수문자_일반주서
 62
     0
100
AcDbTrace
 10
49.49597109735691
 20
79.92828947476397
 30
0.0
 11
49.49597109735691
 21
81.02895614143063
 31
0.0
 12
52.79797109735691
 22
80.4786228080973
 32
0.0
 13
52.79797109735691
 23
80.4786228080973
 33
0.0
  0
SOLID
  5
221
330
21A
100
AcDbEntity
  8
치수문자_일반주서
 62
     0
100
AcDbTrace
 10
-58.20002890264313
 20
81.02895614143063
 30
0.0
 11
-58.20002890264313
 21
79.92828947476397
 31
0.0
 12
-61.50202890264313
 22
80.4786228080973
 32
0.0
 13
-61.50202890264313
 23
80.4786228080973
 33
0.0
  0
MTEXT
  5
222
330
21A
100
AcDbEntity
  8
치수문자_일반주서
 62
     0
100
AcDbMText
 10
-10.42285387110738
 20
84.8536228080973
 30
0.0
 40
3.5
 41
0.0
 71
     2
 72
     1
  1
\A1;114.3 [4 1/2]
  7
SLDTEXTSTYLE0
 73
     1
 44
1.0
  0
POINT
  5
223
330
21A
100
AcDbEntity
  8
Defpoints
 62
     0
100
AcDbPoint
 10
52.79797109735691
 20
25.39999985803207
 30
0.0
  0
POINT
  5
224
330
21A
100
AcDbEntity
  8
Defpoints
 62
     0
100
AcDbPoint
 10
-61.50202890264313
 20
12.70000000000002
 30
0.0
  0
POINT
  5
225
330
21A
100
AcDbEntity
  8
Defpoints
 62
     0
100
AcDbPoint
 10
-61.50202890264313
 20
80.4786228080973
 30
0.0
  0
ENDBLK
  5
21C
330
21A
100
AcDbEntity
  8
0
100
AcDbBlockEnd
  0
BLOCK
  5
227
330
226
100
AcDbEntity
  8
0
100
AcDbBlockBegin
  2
*D14
 70
     1
 10
0.0
 20
0.0
 30
0.0
  3
*D14
  1
*D15
  0
LINE
  5
229
330
226
100
AcDbEntity
  8
치수문자_일반주서
 62
     0
370
    -2
100
AcDbLine
 10
52.86047109735691
 20
25.39999985803207
 30
0.0
 11
81.67723908126536
 21
25.39999985803217
 31
0.0
  0
LINE
  5
22A
330
226
100
AcDbEntity
  8
치수문자_일반주서
 62
     0
370
    -2
100
AcDbLine
 10
52.86047109735691
 20
-25.39999985803225
 30
0.0
 11
81.67723908126553
 21
-25.39999985803215
 31
0.0
  0
LINE
  5
22B
330
226
100
AcDbEntity
  8
치수문자_일반주서
 62
     0
370
    -2
100
AcDbLine
 10
81.67723908126537
 20
22.09799985803217
 30
0.0
 11
81.67723908126551
 21
-22.09799985803215
 31
0.0
  0
SOLID
  5
22C
330
226
100
AcDbEntity
  8
치수문자_일반주서
 62
     0
100
AcDbTrace
 10
82.2275724145987
 20
22.09799985803218
 30
0.0
 11
81.12690574793204
 21
22.09799985803217
 31
0.0
 12
81.67723908126536
 22
25.39999985803217
 32
0.0
 13
81.67723908126536
 23
25.39999985803217
 33
0.0
  0
SOLID
  5
22D
330
226
100
AcDbEntity
  8
치수문자_일반주서
 62
     0
100
AcDbTrace
 10
81.12690574793218
 20
-22.09799985803215
 30
0.0
 11
82.22757241459884
 21
-22.09799985803214
 31
0.0
 12
81.67723908126553
 22
-25.39999985803215
 32
0.0
 13
81.67723908126553
 23
-25.39999985803215
 33
0.0
  0
MTEXT
  5
22E
330
226
100
AcDbEntity
  8
치수문자_일반주서
 62
     0
100
AcDbMText
 10
77.30223908126544
 20
-0.3215440760263139
 30
0.0
 40
3.5
 41
0.0
 71
     2
 72
     1
  1
\A1;%%c50.8 [2]
  7
SLDTEXTSTYLE0
 11
-3.356894833377289E-15
 21
1.0
 31
0.0
 73
     1
 44
1.0
  0
POINT
  5
22F
330
226
100
AcDbEntity
  8
Defpoints
 62
     0
100
AcDbPoint
 10
52.79797109735691
 20
25.39999985803207
 30
0.0
  0
POINT
  5
230
330
226
100
AcDbEntity
  8
Defpoints
 62
     0
100
AcDbPoint
 10
52.79797109735691
 20
-25.39999985803225
 30
0.0
  0
POINT
  5
231
330
226
100
AcDbEntity
  8
Defpoints
 62
     0
100
AcDbPoint
 10
81.6772390812655
 20
-25.39999985803215
 30
0.0
  0
ENDBLK
  5
228
330
226
100
AcDbEntity
  8
0
100
AcDbBlockEnd
  0
ENDSEC
  0
SECTION
  2
ENTITIES
  0
LINE
  5
9D
330
1F
100
AcDbEntity
  8
참조1
100
AcDbLine
 10
18.41194598552359
 20
0.0010749287238892
 30
0.0
 11
18.4119459855236
 21
-39.99892507127611
 31
0.0
  0
LINE
  5
9E
330
1F
100
AcDbEntity
  8
참조1
100
AcDbLine
 10
18.4119459855236
 20
-39.99892507127611
 30
0.0
 11
3.253089171214916
 21
-39.9989250712761
 31
0.0
  0
INSERT
  5
A0
330
1F
100
AcDbEntity
  8
0
  6
Continuous
 62
     7
100
AcDbBlockReference
 66
     1
  2
블럭10
 10
-15.71510837358837
 20
-52.04609937292004
 30
0.0
  0
ATTRIB
  5
A1
330
A0
100
AcDbEntity
  8
FORMAT
 62
     2
100
AcDbText
 10
-24.89640366232965
 20
-49.97073246008785
 30
0.0
 40
4.233333333333333
  1
E1032200 [ 6 FLUTE ]
 41
0.75
  7
SLDTEXTSTYLE0
 11
-24.89640366232965
 21
-52.08739912675452
 31
0.0
100
AcDbAttribute
  2
AUTOATTR0
 70
     0
 74
     1
  0
SEQEND
  5
A2
330
A0
100
AcDbEntity
  8
0
  6
Continuous
 62
     7
  0
HATCH
  5
A3
330
1F
100
AcDbEntity
  8
중심선
100
AcDbHatch
 10
0.0
 20
0.0
 30
0.0
210
0.0
220
0.0
230
1.0
  2
SOLID
 70
     1
 71
     0
 91
        1
 92
        0
 93
        4
 72
     1
 10
-10.00019906920753
 20
-35.7989250712761
 11
-13.44647431304482
 21
-35.7989250712761
 72
     1
 10
-13.44647431304482
 20
-35.7989250712761
 11
-15.57470417224884
 21
-38.3352506518487
 72
     1
 10
-15.57470417224884
 20
-38.3352506518487
 11
-12.12839584329841
 21
-38.33521122254621
 72
     1
 10
-12.12839584329841
 20
-38.33521122254621
 11
-10.00019906920753
 21
-35.7989250712761
 97
        0
 75
     0
 76
     1
 98
        1
 10
-20.18678142698676
 20
0.0
  0
HATCH
  5
A4
330
1F
100
AcDbEntity
  8
중심선
100
AcDbHatch
 10
0.0
 20
0.0
 30
0.0
210
0.0
220
0.0
230
1.0
  2
SOLID
 70
     1
 71
     0
 91
        1
 92
        0
 93
        4
 72
     1
 10
-4.987435078171554
 20
-35.7989250712761
 11
-8.433710322008835
 21
-35.7989250712761
 72
     1
 10
-8.433710322008835
 20
-35.7989250712761
 11
-12.96484833036625
 21
-41.19892507127612
 72
     1
 10
-12.96484833036625
 20
-41.19892507127612
 11
-9.51857308652897
 21
-41.19892507127612
 72
     1
 10
-9.51857308652897
 20
-41.19892507127612
 11
-4.987435078171554
 21
-35.7989250712761
 97
        0
 75
     0
 76
     1
 98
        1
 10
-20.18678142698676
 20
0.0
  0
HATCH
  5
A5
330
1F
100
AcDbEntity
  8
중심선
100
AcDbHatch
 10
0.0
 20
0.0
 30
0.0
210
0.0
220
0.0
230
1.0
  2
SOLID
 70
     1
 71
     0
 91
        1
 92
        0
 93
        4
 72
     1
 10
0.0253289128643139
 20
-35.7989250712761
 11
-3.4209463309728
 21
-35.7989250712761
 72
     1
 10
-3.4209463309728
 20
-35.7989250712761
 11
-10.46938323286205
 21
-44.19892507127612
 72
     1
 10
-10.46938323286205
 20
-44.19892507127612
 11
-7.023107989024769
 21
-44.19892507127612
 72
     1
 10
-7.023107989024769
 20
-44.19892507127612
 11
0.0253289128643139
 21
-35.7989250712761
 97
        0
 75
     0
 76
     1
 98
        1
 10
-20.18678142698676
 20
0.0
  0
HATCH
  5
A6
330
1F
100
AcDbEntity
  8
중심선
100
AcDbHatch
 10
0.0
 20
0.0
 30
0.0
210
0.0
220
0.0
230
1.0
  2
SOLID
 70
     1
 71
     0
 91
        1
 92
        0
 93
        6
 72
     3
 10
4.825219343876512
 20
-39.99892507132738
 11
3.960054785062283
 21
1.540882976769353E-10
 40
0.3939339440162628
 50
17.09539180608436
 51
320.0019657685075
 73
     0
 72
     1
 10
6.50821899957711
 20
-38.58681907591438
 11
8.813520873278147
 21
-36.65249236586649
 72
     3
 10
4.825219343823665
 20
-39.99892507127625
 11
6.600054785286829
 21
-1.278976924368180E-13
 40
0.636358354079598
 50
39.99873849337408
 51
368.4976242363724
 73
     1
 72
     1
 10
11.25055183572428
 20
-39.03892507120613
 11
3.505286650659588
 21
-39.0389250712061
 72
     1
 10
3.505286650659588
 20
-39.0389250712061
 11
3.505261606213654
 21
-40.95892507120602
 72
     1
 10
3.505261606213654
 20
-40.95892507120602
 11
7.946641375685694
 21
-40.95892507120599
 97
        0
 75
     0
 76
     1
 98
        1
 10
-20.18678142698676
 20
0.0
  0
LINE
  5
F7
330
1F
100
AcDbEntity
  8
참조1
100
AcDbLine
 10
101.2254298008692
 20
7.441074928723896
 30
0.0
 11
101.2254298008692
 21
-7.438925071276109
 31
0.0
  0
LINE
  5
F8
330
1F
100
AcDbEntity
  8
참조1
100
AcDbLine
 10
113.9254298008692
 20
5.441074928723896
 30
0.0
 11
101.2254298008692
 21
5.441074928723896
 31
0.0
  0
SOLID
  5
F9
330
1F
100
AcDbEntity
  8
참조1
100
AcDbTrace
 10
101.2254298008692
 20
5.441074928723896
 30
0.0
 11
107.5754298008692
 21
4.425074928723896
 31
0.0
 12
107.5754298008692
 22
6.457074928723896
 32
0.0
 13
107.5754298008692
 23
6.457074928723896
 33
0.0
  0
LINE
  5
FA
330
1F
100
AcDbEntity
  8
참조1
100
AcDbLine
 10
113.9254298008692
 20
-5.438925071276109
 30
0.0
 11
101.2254298008692
 21
-5.438925071276109
 31
0.0
  0
SOLID
  5
FB
330
1F
100
AcDbEntity
  8
참조1
100
AcDbTrace
 10
101.2254298008692
 20
-5.438925071276109
 30
0.0
 11
107.5754298008692
 21
-6.454925071276109
 31
0.0
 12
107.5754298008692
 22
-4.422925071276109
 32
0.0
 13
107.5754298008692
 23
-4.422925071276109
 33
0.0
  0
MTEXT
  5
FC
330
1F
100
AcDbEntity
  8
참조1
100
AcDbMText
 10
110.6229198933395
 20
10.98929157337383
 30
0.0
 40
3.5
 41
0.0
 71
     1
 72
     1
  1
A
  7
SLDTEXTSTYLE0
 73
     1
 44
1.0
  0
MTEXT
  5
FD
330
1F
100
AcDbEntity
  8
참조1
100
AcDbMText
 10
110.6229198933395
 20
0.1092915733738259
 30
0.0
 40
3.5
 41
0.0
 71
     1
 72
     1
  1
A
  7
SLDTEXTSTYLE0
 73
     1
 44
1.0
  0
LINE
  5
1C8
330
1F
100
AcDbEntity
  8
0
  6
Continuous
 62
     1
370
    15
100
AcDbLine
 10
49.72604589457822
 20
-25.39999985803225
 30
0.0
 11
52.79797109735691
 21
-25.39999985803225
 31
0.0
  0
LINE
  5
1C9
330
1F
100
AcDbEntity
  8
0
  6
Continuous
 62
     1
370
    15
100
AcDbLine
 10
2.67148318742602
 20
25.39999985803207
 30
0.0
 11
1.997971097356924
 21
25.39999985803207
 31
0.0
  0
LINE
  5
1CA
330
1F
100
AcDbEntity
  8
0
  6
Continuous
 62
     1
370
    15
100
AcDbLine
 10
23.12761362587932
 20
-25.39999985803225
 30
0.0
 11
29.27014785858077
 21
-25.39999985803225
 31
0.0
  0
LINE
  5
1CB
330
1F
100
AcDbEntity
  8
0
  6
Continuous
 62
     1
370
    15
100
AcDbLine
 10
1.997971097356924
 20
-25.39999985803225
 30
0.0
 11
2.671483187425849
 21
-25.39999985803225
 31
0.0
  0
LINE
  5
1CC
330
1F
100
AcDbEntity
  8
0
  6
Continuous
 62
     1
370
    15
100
AcDbLine
 10
29.27014785858077
 20
25.39999985803207
 30
0.0
 11
23.12761362587949
 21
25.39999985803207
 31
0.0
  0
LINE
  5
1CD
330
1F
100
AcDbEntity
  8
0
  6
Continuous
 62
     1
370
    15
100
AcDbLine
 10
52.79797109735691
 20
25.39999985803207
 30
0.0
 11
49.72604589457822
 21
25.39999985803207
 31
0.0
  0
LINE
  5
1CE
330
1F
100
AcDbEntity
  8
외형선
  6
Continuous
370
    15
100
AcDbLine
 10
1.005587699474745
 20
-15.87500000000001
 30
0.0
 11
1.997971097356924
 21
-15.87500000000001
 31
0.0
  0
LINE
  5
1CF
330
1F
100
AcDbEntity
  8
외형선
  6
Continuous
370
    15
100
AcDbLine
 10
-58.32702890264312
 20
-15.87500000000001
 30
0.0
 11
1.005587699474745
 21
-15.87500000000001
 31
0.0
  0
LINE
  5
1D0
330
1F
100
AcDbEntity
  8
외형선
  6
Continuous
370
    15
100
AcDbLine
 10
1.997971097356924
 20
15.87500000000001
 30
0.0
 11
0.9977161312569365
 21
15.87500000000001
 31
0.0
  0
LINE
  5
1D1
330
1F
100
AcDbEntity
  8
외형선
  6
Continuous
370
    15
100
AcDbLine
 10
-61.50202890264313
 20
-12.70000000000002
 30
0.0
 11
-58.32702890264312
 21
-15.87500000000001
 31
0.0
  0
LINE
  5
1D2
330
1F
100
AcDbEntity
  8
0
  6
Continuous
 62
     1
370
    15
100
AcDbLine
 10
52.79797109735691
 20
-25.21464465203841
 30
0.0
 11
52.79797109735691
 21
-15.21431789046934
 31
0.0
  0
SPLINE
  5
1D3
330
1F
100
AcDbEntity
  8
외형선
  6
Continuous
370
    15
100
AcDbSpline
210
0.0
220
0.0
230
1.0
 70
    24
 71
     3
 72
    13
 73
     9
 74
     0
 42
0.000000001
 43
0.00000001
 40
0.0
 40
0.0
 40
0.0
 40
0.0
 40
0.1625496257372143
 40
0.3288386962523394
 40
0.5104086693975421
 40
0.6972441840643805
 40
0.8788141572095834
 40
1.0
 40
1.0
 40
1.0
 40
1.0
 10
1.997971097356924
 20
15.84406987694461
 30
0.0
 10
1.997971097356924
 20
15.53641670658495
 30
0.0
 10
1.997971097356924
 20
14.91403282240102
 30
0.0
 10
1.997971097356924
 20
13.92085853186495
 30
0.0
 10
1.997971097356867
 20
12.88811690174962
 30
0.0
 10
1.997971097356924
 20
11.86580262734508
 30
0.0
 10
1.997971097356981
 20
11.00034263627492
 30
0.0
 10
1.997971097356924
 20
10.53478808901755
 30
0.0
 10
1.997971097356924
 20
10.34843784501003
 30
0.0
  0
SPLINE
  5
1D4
330
1F
100
AcDbEntity
  8
외형선
  6
Continuous
370
    15
100
AcDbSpline
210
0.0
220
0.0
230
1.0
 70
    24
 71
     3
 72
    34
 73
    30
 74
     0
 42
0.000000001
 43
0.00000001
 40
0.0
 40
0.0
 40
0.0
 40
0.0
 40
0.125
 40
0.125
 40
0.1562500000000001
 40
0.1562500000000001
 40
0.1875000000000003
 40
0.1875000000000003
 40
0.2500000000000003
 40
0.2500000000000003
 40
0.3750000000000004
 40
0.3750000000000004
 40
0.5000000000000004
 40
0.5000000000000004
 40
0.5625000000000004
 40
0.5625000000000004
 40
0.6250000000000003
 40
0.6250000000000003
 40
0.6875000000000003
 40
0.6875000000000003
 40
0.7500000000000002
 40
0.7500000000000002
 40
0.8125000000000002
 40
0.8125000000000002
 40
0.8750000000000002
 40
0.8750000000000002
 40
0.9375000000000001
 40
0.9375000000000001
 40
1.0
 40
1.0
 40
1.0
 40
1.0
 10
1.997971097356924
 20
7.064243558894887
 30
0.0
 10
1.997971097356924
 20
6.90944388924828
 30
0.0
 10
1.997971097356867
 20
6.689545696370011
 30
0.0
 10
1.997971097356924
 20
6.38851213239591
 30
0.0
 10
1.997971097356867
 20
6.326884000990638
 30
0.0
 10
1.997971097356924
 20
6.201727595347954
 30
0.0
 10
1.997971097356924
 20
6.13694080907667
 30
0.0
 10
1.997971097356924
 20
5.926131870639189
 30
0.0
 10
1.997971097356924
 20
5.767053782772976
 30
0.0
 10
1.997971097356867
 20
5.223920061680509
 30
0.0
 10
1.997971097356924
 20
4.772631868294759
 30
0.0
 10
1.997971097356924
 20
3.652141004927472
 30
0.0
 10
1.997971097356924
 20
2.980326727338714
 30
0.0
 10
1.997971097356924
 20
1.833265507948127
 30
0.0
 10
1.997971097356924
 20
1.428589974450986
 30
0.0
 10
1.997971097356924
 20
0.5920423656296165
 30
0.0
 10
1.997971097356924
 20
0.1602397643433378
 30
0.0
 10
1.997971097356924
 20
-0.7044870108493271
 30
0.0
 10
1.997971097356924
 20
-1.137229424850958
 30
0.0
 10
1.997971097356924
 20
-1.972850634038458
 30
0.0
 10
1.997971097356924
 20
-2.375491152513966
 30
0.0
 10
1.997971097356924
 20
-3.121601169901979
 30
0.0
 10
1.997971097356924
 20
-3.464881997208671
 30
0.0
 10
1.997971097356924
 20
-4.071472153228129
 30
0.0
 10
1.997971097356924
 20
-4.334725176588059
 30
0.0
 10
1.997971097356924
 20
-4.772896497722371
 30
0.0
 10
1.997971097356867
 20
-4.947892284804382
 30
0.0
 10
1.997971097356867
 20
-5.213228488219315
 30
0.0
 10
1.997971097356867
 20
-5.303715042340521
 30
0.0
 10
1.997971097356924
 20
-5.357915141064332
 30
0.0
  0
LINE
  5
1D5
330
1F
100
AcDbEntity
  8
0
  6
Continuous
 62
     1
370
    15
100
AcDbLine
 10
52.79797109735691
 20
-9.954726259030878
 30
0.0
 11
52.79797109735691
 21
9.95472625903118
 31
0.0
  0
SPLINE
  5
1D6
330
1F
100
AcDbEntity
  8
0
  6
Continuous
 62
     1
370
    15
100
AcDbSpline
210
0.0
220
0.0
230
1.0
 70
     8
 71
     3
 72
    22
 73
    18
 74
     0
 42
0.000000001
 43
0.00000001
 40
0.0
 40
0.0
 40
0.0
 40
0.0
 40
0.0355481218190962
 40
0.1044083141025477
 40
0.1732828454155568
 40
0.2422170164062614
 40
0.3111073028121729
 40
0.3799655803061252
 40
0.4488509985071132
 40
0.5177866346103233
 40
0.5866649827661642
 40
0.6555241195155215
 40
0.7244231858116853
 40
0.7933525867515369
 40
0.8622217612068025
 40
0.9310845308497387
 40
1.0
 40
1.0
 40
1.0
 40
1.0
 10
2.67148318742602
 20
25.34138287482642
 30
0.0
 10
3.265550638276068
 20
25.35198526230796
 30
0.0
 10
5.010384903278833
 20
25.38312551236228
 30
0.0
 10
7.904713546435858
 20
24.92435260718934
 30
0.0
 10
11.35715941009758
 20
24.00621903885836
 30
0.0
 10
14.81275667972866
 20
22.62196873737999
 30
0.0
 10
18.26598095284345
 20
20.82592862155589
 30
0.0
 10
21.71755280767101
 20
18.64369599006096
 30
0.0
 10
25.17051531639399
 20
16.11765592622959
 30
0.0
 10
28.62620683692623
 20
13.29569757105214
 30
0.0
 10
32.07879899324436
 20
10.22660450289305
 30
0.0
 10
35.53041622670847
 20
6.968835385681345
 30
0.0
 10
38.98410819204159
 20
3.583048972907619
 30
0.0
 10
42.43945538787975
 20
0.1315023897561751
 30
0.0
 10
45.89158252469301
 20
-3.320928175524763
 30
0.0
 10
49.34338794712451
 20
-6.725077951013299
 30
0.0
 10
51.64614978220609
 20
-8.877902341399762
 30
0.0
 10
52.79797109735691
 20
-9.954726259030899
 30
0.0
  0
SPLINE
  5
1D7
330
1F
100
AcDbEntity
  8
0
  6
Continuous
 62
     1
370
    15
100
AcDbSpline
210
0.0
220
0.0
230
1.0
 70
     8
 71
     3
 72
    19
 73
    15
 74
     0
 42
0.000000001
 43
0.00000001
 40
0.0
 40
0.0
 40
0.0
 40
0.0
 40
0.0865835215555369
 40
0.1731008328830264
 40
0.2596261910425723
 40
0.3462272161197308
 40
0.4327901295753904
 40
0.5193028766341697
 40
0.6058397603816762
 40
0.6924486191485374
 40
0.7789943855085242
 40
0.8655060530221772
 40
0.952057935662459
 40
0.9999999999999999
 40
0.9999999999999999
 40
0.9999999999999999
 40
0.9999999999999999
 10
52.79797109735691
 20
9.954726259031169
 30
0.0
 10
51.64614978217926
 20
10.99609014724601
 30
0.0
 10
49.34338794704431
 20
13.07802159500617
 30
0.0
 10
45.89158252501406
 20
15.91180498731352
 30
0.0
 10
42.43945538667523
 20
18.46506538428252
 30
0.0
 10
38.98410819654217
 20
20.67269257262321
 30
0.0
 10
35.53041620992448
 20
22.50066752038835
 30
0.0
 10
32.07879905585125
 20
23.91312647667146
 30
0.0
 10
28.62620660311441
 20
24.88462239983329
 30
0.0
 10
25.17051618952328
 20
25.39501272175828
 30
0.0
 10
21.71754955238461
 20
25.44257108251015
 30
0.0
 10
18.26599309906481
 20
24.99979641281758
 30
0.0
 10
15.32690505210127
 20
24.29571384315341
 30
0.0
 10
13.53757418403907
 20
23.57243644910151
 30
0.0
 10
12.89974461976939
 20
23.31461509625473
 30
0.0
  0
LINE
  5
1D8
330
1F
100
AcDbEntity
  8
0
  6
Continuous
 62
     1
370
    15
100
AcDbLine
 10
52.79797109735691
 20
-25.39999985803225
 30
0.0
 11
52.79797109735691
 21
-25.21464465203841
 31
0.0
  0
LINE
  5
1D9
330
1F
100
AcDbEntity
  8
0
  6
Continuous
 62
     1
370
    15
100
AcDbLine
 10
52.79797109735691
 20
-15.25991839300723
 30
0.0
 11
52.79797109735691
 21
-9.954726259030878
 31
0.0
  0
LINE
  5
1DA
330
1F
100
AcDbEntity
  8
외형선
  6
Continuous
370
    15
100
AcDbLine
 10
1.997971097356924
 20
7.064243558894901
 30
0.0
 11
1.997971097356924
 21
10.26249821140609
 31
0.0
  0
LINE
  5
1DB
330
1F
100
AcDbEntity
  8
외형선
  6
Continuous
370
    15
100
AcDbLine
 10
1.997971097356924
 20
-8.77982631804975
 30
0.0
 11
1.997971097356924
 21
-5.357915141064368
 31
0.0
  0
SPLINE
  5
1DC
330
1F
100
AcDbEntity
  8
0
  6
Continuous
 62
     1
370
    15
100
AcDbSpline
210
0.0
220
0.0
230
1.0
 70
     8
 71
     3
 72
    14
 73
    10
 74
     0
 42
0.000000001
 43
0.00000001
 40
0.0
 40
0.0
 40
0.0
 40
0.0
 40
0.1193950496622267
 40
0.2660985569122916
 40
0.4128871335494553
 40
0.5597403377557442
 40
0.7064652302094439
 40
0.8531764772926617
 40
1.0
 40
1.0
 40
1.0
 40
1.0
 10
29.27014785858077
 20
25.36443925149374
 30
0.0
 10
30.20649563912352
 20
25.34881614035744
 30
0.0
 10
32.29335597274107
 20
25.31399654490845
 30
0.0
 10
35.53037907524876
 20
24.69943687439311
 30
0.0
 10
38.98411815410984
 20
23.63914553914664
 30
0.0
 10
42.43945272156529
 20
22.1309506166917
 30
0.0
 10
45.89158323535585
 20
20.21166574835869
 30
0.0
 10
49.34338776930721
 20
17.93847803692785
 30
0.0
 10
51.64614972291841
 20
16.15299925330238
 30
0.0
 10
52.79797109735691
 20
15.25991839300718
 30
0.0
  0
LINE
  5
1DD
330
1F
100
AcDbEntity
  8
0
  6
Continuous
 62
     1
370
    15
100
AcDbLine
 10
52.79797109735691
 20
9.95472625903118
 30
0.0
 11
52.79797109735691
 21
15.25991839300718
 31
0.0
  0
SPLINE
  5
1DE
330
1F
100
AcDbEntity
  8
외형선
  6
Continuous
370
    15
100
AcDbSpline
210
0.0
220
0.0
230
1.0
 70
    24
 71
     3
 72
    15
 73
    11
 74
     0
 42
0.000000001
 43
0.00000001
 40
0.0
 40
0.0
 40
0.0
 40
0.0
 40
0.0523271191531792
 40
0.197100631220203
 40
0.3460725849448263
 40
0.4908460970118227
 40
0.639818050736476
 40
0.7845915628035012
 40
0.9335635165281236
 40
1.0
 40
1.0
 40
1.0
 40
1.0
 10
1.997971097356867
 20
-8.865775951653681
 30
0.0
 10
1.997971097356867
 20
-8.953223786202877
 30
0.0
 10
1.99797109735681
 20
-9.282613664098314
 30
0.0
 10
1.997971097356867
 20
-9.98736682430254
 30
0.0
 10
1.997971097356924
 20
-10.94126055641767
 30
0.0
 10
1.997971097356924
 20
-11.97869421225447
 30
0.0
 10
1.997971097356924
 20
-13.04096132749608
 30
0.0
 10
1.997971097356924
 20
-14.11884010024386
 30
0.0
 10
1.997971097356981
 20
-14.97909789898494
 30
0.0
 10
1.997971097356924
 20
-15.46924247656928
 30
0.0
 10
1.997971097356924
 20
-15.62041335247053
 30
0.0
  0
SPLINE
  5
1DF
330
1F
100
AcDbEntity
  8
0
  6
Continuous
 62
     1
370
    15
100
AcDbSpline
210
0.0
220
0.0
230
1.0
 70
     8
 71
     3
 72
    11
 73
     7
 74
     0
 42
0.000000001
 43
0.00000001
 40
0.0
 40
0.0
 40
0.0
 40
0.0
 40
0.2597647419880049
 40
0.5193308424505017
 40
0.7789210847267679
 40
0.9999999999999999
 40
0.9999999999999999
 40
0.9999999999999999
 40
0.9999999999999999
 10
52.79797109735691
 20
25.21464465203824
 30
0.0
 10
51.6461490186837
 20
25.30916421156358
 30
0.0
 10
49.34338565714128
 20
25.49813105171555
 30
0.0
 10
45.89159167680967
 20
25.17548703256583
 30
0.0
 10
42.6110974207289
 20
24.50028433058608
 30
0.0
 10
40.47954543946324
 20
23.70595500192271
 30
0.0
 10
39.49915967419147
 20
23.34061126477533
 30
0.0
  0
LINE
  5
1E0
330
1F
100
AcDbEntity
  8
0
  6
Continuous
 62
     1
370
    15
100
AcDbLine
 10
52.79797109735691
 20
15.2272551815857
 30
0.0
 11
52.79797109735691
 21
25.21464465203824
 31
0.0
  0
LINE
  5
1E1
330
1F
100
AcDbEntity
  8
0
  6
Continuous
 62
     1
370
    15
100
AcDbLine
 10
52.79797109735691
 20
25.21464465203824
 30
0.0
 11
52.79797109735691
 21
25.39999985803207
 31
0.0
  0
LINE
  5
1E2
330
1F
100
AcDbEntity
  8
외형선
  6
Continuous
370
    15
100
AcDbLine
 10
1.997971097356924
 20
-15.87500000000001
 30
0.0
 11
1.997971097356924
 21
-15.62041335247053
 31
0.0
  0
SPLINE
  5
1E3
330
1F
100
AcDbEntity
  8
외형선
  6
Continuous
370
    15
100
AcDbSpline
210
0.0
220
0.0
230
1.0
 70
     8
 71
     3
 72
     8
 73
     4
 74
     0
 42
0.000000001
 43
0.00000001
 40
0.0
 40
0.0
 40
0.0
 40
0.0
 40
1.0
 40
1.0
 40
1.0
 40
1.0
 10
1.997971097356867
 20
15.8440698769444
 30
0.0
 10
1.664756917131967
 20
15.8648425780183
 30
0.0
 10
1.331008534301077
 20
15.87516299436623
 30
0.0
 10
0.9977161312569365
 20
15.87499805209195
 30
0.0
  0
LINE
  5
1E4
330
1F
100
AcDbEntity
  8
외형선
  6
Continuous
370
    15
100
AcDbLine
 10
-58.32702890264312
 20
-15.87500000000001
 30
0.0
 11
-58.32702890264312
 21
0.0
 31
0.0
  0
LINE
  5
1E5
330
1F
100
AcDbEntity
  8
외형선
  6
Continuous
370
    15
100
AcDbLine
 10
-61.50202890264313
 20
0.0
 30
0.0
 11
-61.50202890264313
 21
12.70000000000002
 31
0.0
  0
LINE
  5
1E6
330
1F
100
AcDbEntity
  8
외형선
  6
Continuous
370
    15
100
AcDbLine
 10
-61.50202890264313
 20
-12.70000000000003
 30
0.0
 11
-61.50202890264313
 21
0.0
 31
0.0
  0
SPLINE
  5
1E7
330
1F
100
AcDbEntity
  8
외형선
  6
Continuous
370
    15
100
AcDbSpline
210
0.0
220
0.0
230
1.0
 70
    24
 71
     3
 72
    34
 73
    30
 74
     0
 42
0.000000001
 43
0.00000001
 40
0.0
 40
0.0
 40
0.0
 40
0.0
 40
0.0625
 40
0.0625
 40
0.125
 40
0.125
 40
0.1875
 40
0.1875
 40
0.2499999999999999
 40
0.2499999999999999
 40
0.3124999999999999
 40
0.3124999999999999
 40
0.3749999999999999
 40
0.3749999999999999
 40
0.4374999999999999
 40
0.4374999999999999
 40
0.4999999999999999
 40
0.4999999999999999
 40
0.6249999999999999
 40
0.6249999999999999
 40
0.7499999999999999
 40
0.7499999999999999
 40
0.8124999999999997
 40
0.8124999999999997
 40
0.8437499999999998
 40
0.8437499999999998
 40
0.8749999999999999
 40
0.8749999999999999
 40
1.0
 40
1.0
 40
1.0
 40
1.0
 10
1.997971097356867
 20
-5.357915141064289
 30
0.0
 10
1.997971097356867
 20
-5.303715042340464
 30
0.0
 10
1.997971097356924
 20
-5.213228488219251
 30
0.0
 10
1.997971097356924
 20
-4.947892284804304
 30
0.0
 10
1.997971097356924
 20
-4.772896497722279
 30
0.0
 10
1.997971097356924
 20
-4.334725176587966
 30
0.0
 10
1.997971097356867
 20
-4.071472153228029
 30
0.0
 10
1.997971097356924
 20
-3.464881997208572
 30
0.0
 10
1.997971097356924
 20
-3.121601169901886
 30
0.0
 10
1.997971097356924
 20
-2.375491152513881
 30
0.0
 10
1.997971097356924
 20
-1.97285063403838
 30
0.0
 10
1.997971097356924
 20
-1.137229424850901
 30
0.0
 10
1.997971097356924
 20
-0.7044870108492844
 30
0.0
 10
1.997971097356924
 20
0.1602397643433662
 30
0.0
 10
1.997971097356924
 20
0.5920423656296236
 30
0.0
 10
1.997971097356867
 20
1.428589974450979
 30
0.0
 10
1.997971097356867
 20
1.833265507948106
 30
0.0
 10
1.997971097356867
 20
2.980326727338671
 30
0.0
 10
1.997971097356924
 20
3.652141004927422
 30
0.0
 10
1.997971097356924
 20
4.772631868294702
 30
0.0
 10
1.997971097356924
 20
5.223920061680452
 30
0.0
 10
1.997971097356924
 20
5.767053782772926
 30
0.0
 10
1.997971097356924
 20
5.926131870639139
 30
0.0
 10
1.997971097356867
 20
6.136940809076627
 30
0.0
 10
1.997971097356867
 20
6.201727595347911
 30
0.0
 10
1.997971097356924
 20
6.326884000990589
 30
0.0
 10
1.997971097356924
 20
6.38851213239586
 30
0.0
 10
1.997971097356924
 20
6.689545696369962
 30
0.0
 10
1.997971097356867
 20
6.909443889248237
 30
0.0
 10
1.997971097356924
 20
7.064243558894859
 30
0.0
  0
SPLINE
  5
1E8
330
1F
100
AcDbEntity
  8
외형선
  6
Continuous
370
    15
100
AcDbSpline
210
0.0
220
0.0
230
1.0
 70
    24
 71
     3
 72
    15
 73
    11
 74
     0
 42
0.000000001
 43
0.00000001
 40
0.0
 40
0.0
 40
0.0
 40
0.0
 40
0.039657994486877
 40
0.186510017707677
 40
0.3333620409284768
 40
0.4802140641492775
 40
0.6270660873700784
 40
0.7739181105908793
 40
0.9207701338116803
 40
1.0
 40
1.0
 40
1.0
 40
1.0
 10
1.997971097356924
 20
-15.62041335247052
 30
0.0
 10
1.997971097356924
 20
-15.53050080882252
 30
0.0
 10
1.997971097356981
 20
-15.10764558568516
 30
0.0
 10
1.997971097356924
 20
-14.3177816913081
 30
0.0
 10
1.997971097356867
 20
-13.24713364522334
 30
0.0
 10
1.997971097356924
 20
-12.17660133410865
 30
0.0
 10
1.997971097356924
 20
-11.13478096375676
 30
0.0
 10
1.997971097356867
 20
-10.16059277963389
 30
0.0
 10
1.997971097356867
 20
-9.389690461887461
 30
0.0
 10
1.997971097356867
 20
-9.00172687709324
 30
0.0
 10
1.997971097356867
 20
-8.865765951653685
 30
0.0
  0
SPLINE
  5
1E9
330
1F
100
AcDbEntity
  8
외형선
  6
Continuous
370
    15
100
AcDbSpline
210
0.0
220
0.0
230
1.0
 70
    24
 71
     3
 72
    18
 73
    14
 74
     0
 42
0.000000001
 43
0.00000001
 40
0.0
 40
0.0
 40
0.0
 40
0.0
 40
0.0801434416924622
 40
0.1734537690411363
 40
0.267450367467248
 40
0.3581449224249797
 40
0.4494691854285555
 40
0.542779512777236
 40
0.6367761112033566
 40
0.7260248684479775
 40
0.8158734639975721
 40
0.9076108001185951
 40
1.0
 40
1.0
 40
1.0
 40
1.0
 10
1.997971097356924
 20
10.34843784501003
 30
0.0
 10
1.997971097356924
 20
10.47324944424125
 30
0.0
 10
1.997971097356867
 20
10.74337812663278
 30
0.0
 10
1.997971097356924
 20
11.19092235995691
 30
0.0
 10
1.997971097356924
 20
11.67522946816965
 30
0.0
 10
1.99797109735681
 20
12.17451679065066
 30
0.0
 10
1.997971097356867
 20
12.68642074588836
 30
0.0
 10
1.997971097356924
 20
13.21529008457892
 30
0.0
 10
1.99797109735681
 20
13.74721486721689
 30
0.0
 10
1.997971097356924
 20
14.27552021152231
 30
0.0
 10
1.997971097356867
 20
14.79866417207389
 30
0.0
 10
1.997971097356867
 20
15.32451983542607
 30
0.0
 10
1.997971097356924
 20
15.67047826386385
 30
0.0
 10
1.997971097356924
 20
15.8440698769444
 30
0.0
  0
LINE
  5
1EA
330
1F
100
AcDbEntity
  8
중심선
100
AcDbLine
 10
-64.50202890264308
 20
-0.0000000000000071
 30
0.0
 11
55.79797109735691
 21
0.0000000000000071
 31
0.0
  0
CIRCLE
  5
1EB
330
1F
100
AcDbEntity
  8
해칭선
100
AcDbCircle
 10
0.0
 20
0.0
 30
0.0
 40
3.000000000000001
  0
DIMENSION
  5
1EC
330
1F
100
AcDbEntity
  8
치수문자_일반주서
100
AcDbDimension
  2
*D11
 10
-72.91452890264303
 20
-15.87500000000006
 30
0.0
 11
-72.91452890264308
 21
-0.0000000000000071
 31
0.0
 70
   160
  1
%%c<>
 71
     2
 42
31.75
 52
-270.0
  3
SLDDIMSTYLE0
100
AcDbAlignedDimension
 13
-61.50202890264313
 23
15.87499999999998
 33
0.0
 14
-58.32702890264306
 24
-15.87500000000001
 34
0.0
 50
90.0000000000002
100
AcDbRotatedDimension
1001
ACAD
1000
DSTYLE
1002
{
1070
   171
1070
     6
1070
   273
1070
     7
1002
}
  0
DIMENSION
  5
1ED
330
1F
100
AcDbEntity
  8
치수문자_일반주서
100
AcDbDimension
  2
*D12
 10
1.997971097356924
 20
61.27862291541161
 30
0.0
 11
23.7693996651569
 21
61.27862291541161
 31
0.0
 70
   160
  1
<>
 71
     2
 42
50.79999999999998
  3
SLDDIMSTYLE0
100
AcDbAlignedDimension
 13
52.79797109735691
 23
25.39999985803207
 33
0.0
 14
1.997971097356924
 24
25.33808769911408
 34
0.0
 50
-0.0000000000000481
100
AcDbRotatedDimension
1001
ACAD
1000
DSTYLE
1002
{
1070
   171
1070
     6
1070
   273
1070
     7
1002
}
  0
DIMENSION
  5
1EE
330
1F
100
AcDbEntity
  8
치수문자_일반주서
100
AcDbDimension
  2
*D13
 10
-61.50202890264313
 20
80.4786228080973
 30
0.0
 11
-10.42285387110738
 21
80.4786228080973
 31
0.0
 70
   160
  1
<>
 71
     2
 42
114.3
  3
SLDDIMSTYLE0
100
AcDbAlignedDimension
 13
52.79797109735691
 23
25.39999985803207
 33
0.0
 14
-61.50202890264313
 24
12.70000000000002
 34
0.0
100
AcDbRotatedDimension
1001
ACAD
1000
DSTYLE
1002
{
1070
   171
1070
     6
1070
   273
1070
     7
1002
}
  0
DIMENSION
  5
1EF
330
1F
100
AcDbEntity
  8
치수문자_일반주서
100
AcDbDimension
  2
*D14
 10
81.67723908126553
 20
-25.39999985803215
 30
0.0
 11
81.67723908126544
 21
-0.3215440760262993
 31
0.0
 70
   160
  1
%%c<>
 71
     2
 42
50.79999971606432
 52
-270.0
  3
SLDDIMSTYLE0
100
AcDbAlignedDimension
 13
52.79797109735691
 23
25.39999985803207
 33
0.0
 14
52.79797109735691
 24
-25.39999985803225
 34
0.0
 50
90.0000000000002
100
AcDbRotatedDimension
1001
ACAD
1000
DSTYLE
1002
{
1070
   171
1070
     6
1070
   273
1070
     7
1002
}
  0
INSERT
  5
1F0
330
1F
100
AcDbEntity
  8
해칭선
100
AcDbBlockReference
  2
SW_DOWELSYMBOL_0
 10
0.0
 20
0.0
 30
0.0
  0
LINE
  5
1F1
330
1F
100
AcDbEntity
  8
외형선
  6
Continuous
370
    15
100
AcDbLine
 10
-39.08335390264313
 20
13.48739999999999
 30
0.0
 11
-25.97695390264312
 21
13.48739999999999
 31
0.0
  0
LINE
  5
1F2
330
1F
100
AcDbEntity
  8
외형선
  6
Continuous
370
    15
100
AcDbLine
 10
-25.97695390264312
 20
13.48739999999999
 30
0.0
 11
-23.5893539026431
 21
15.87500000000001
 31
0.0
  0
LINE
  5
1F3
330
1F
100
AcDbEntity
  8
외형선
  6
Continuous
370
    15
100
AcDbLine
 10
-39.08335390264313
 20
13.48739999999999
 30
0.0
 11
-41.47095390264315
 21
15.87500000000001
 31
0.0
  0
LINE
  5
1F4
330
1F
100
AcDbEntity
  8
외형선
  6
Continuous
370
    15
100
AcDbLine
 10
-48.80202890264314
 20
13.48739999999999
 30
0.0
 11
-46.41442890264324
 21
15.87499999999999
 31
0.0
  0
LINE
  5
1F5
330
1F
100
AcDbEntity
  8
외형선
  6
Continuous
370
    15
100
AcDbLine
 10
-60.71462890264314
 20
13.48739999999999
 30
0.0
 11
-61.50202890264313
 21
12.70000000000001
 31
0.0
  0
LINE
  5
1F6
330
1F
100
AcDbEntity
  8
외형선
  6
Continuous
370
    15
100
AcDbLine
 10
-60.71462890264314
 20
13.48739999999999
 30
0.0
 11
-48.80202890264314
 21
13.48739999999999
 31
0.0
  0
LINE
  5
1F7
330
1F
100
AcDbEntity
  8
외형선
  6
Continuous
370
    15
100
AcDbLine
 10
-58.32702890264312
 20
0.0
 30
0.0
 11
-58.32702890264312
 21
13.48739999999999
 31
0.0
  0
LINE
  5
1F8
330
1F
100
AcDbEntity
  8
외형선
  6
Continuous
370
    15
100
AcDbLine
 10
-41.47095390264309
 20
15.87500000000001
 30
0.0
 11
-46.41442890264318
 21
15.87500000000001
 31
0.0
  0
LINE
  5
1F9
330
1F
100
AcDbEntity
  8
외형선
  6
Continuous
370
    15
100
AcDbLine
 10
0.9977161312569365
 20
15.87500000000001
 30
0.0
 11
-23.58935390264304
 21
15.87500000000001
 31
0.0
  0
LINE
  5
1FA
330
1F
100
AcDbEntity
  8
외형선
  6
Continuous
370
    15
100
AcDbLine
 10
1.997971097356924
 20
-25.39999985803225
 30
0.0
 11
1.997971097356924
 21
25.39999985803207
 31
0.0
  0
SPLINE
  5
1FC
330
1F
100
AcDbEntity
  8
0
  6
Continuous
 62
     1
370
    15
100
AcDbSpline
210
0.0
220
0.0
230
1.0
 70
     8
 71
     3
 72
    11
 73
     7
 74
     0
 42
0.000000001
 43
0.00000001
 40
0.7365534334229406
 40
0.7365534334229406
 40
0.7365534334229406
 40
0.7365534334229406
 40
0.7958882016792016
 40
0.8792968740987777
 40
0.9627229150353375
 40
1.0
 40
1.0
 40
1.0
 40
1.0
 10
1.997971097356896
 20
-25.39175579310637
 30
0.0
 10
2.816612000326728
 20
-25.41404232154976
 30
0.0
 10
4.785813270458021
 20
-25.37210044455247
 30
0.0
 10
7.904767789197166
 20
-24.92382944427486
 30
0.0
 10
10.7196594400416
 20
-24.2193807657185
 30
0.0
 10
12.38533069393958
 20
-23.52810402976657
 30
0.0
 10
12.89974461976928
 20
-23.31461509625493
 30
0.0
  0
SPLINE
  5
1FD
330
1F
100
AcDbEntity
  8
0
  6
Continuous
 62
     1
370
    15
100
AcDbSpline
210
0.0
220
0.0
230
1.0
 70
     8
 71
     3
 72
    19
 73
    15
 74
     0
 42
0.000000001
 43
0.00000001
 40
0.4483649096448292
 40
0.4483649096448292
 40
0.4483649096448292
 40
0.4483649096448292
 40
0.4844839946402604
 40
0.5352576670181368
 40
0.5860419121981626
 40
0.6368701323564104
 40
0.6876659944648644
 40
0.7384382549835596
 40
0.7892305275487135
 40
0.8400598279993607
 40
0.8908468875068091
 40
0.9416197815926055
 40
0.9924221175033594
 40
1.0
 40
1.0
 40
1.0
 40
1.0
 10
1.997971097356867
 20
-12.11218310312994
 30
0.0
 10
2.816612813636056
 20
-12.83148762707848
 30
0.0
 10
4.785815234272775
 20
-14.51679109008641
 30
0.0
 10
7.904752754570808
 20
-16.98470674252647
 30
0.0
 10
11.35714889319021
 20
-19.40248257012888
 30
0.0
 10
14.81275949617253
 20
-21.46082972410824
 30
0.0
 10
18.26598020112061
 20
-23.12427828000786
 30
0.0
 10
21.71755300042187
 20
-24.36064418722187
 30
0.0
 10
25.17051529725265
 20
-25.14808830142775
 30
0.0
 10
28.62620672047652
 20
-25.46831651581747
 30
0.0
 10
32.07879947761612
 20
-25.32956974977042
 30
0.0
 10
35.53041440561427
 20
-24.68262722319497
 30
0.0
 10
38.00405177456392
 20
-24.00148467330118
 30
0.0
 10
39.32738771854255
 20
-23.41653857266222
 30
0.0
 10
39.49915967419147
 20
-23.34061126477554
 30
0.0
  0
SPLINE
  5
1FE
330
1F
100
AcDbEntity
  8
0
  6
Continuous
 62
     1
370
    15
100
AcDbSpline
210
0.0
220
0.0
230
1.0
 70
     8
 71
     3
 72
    14
 73
    10
 74
     0
 42
0.000000001
 43
0.00000001
 40
0.0
 40
0.0
 40
0.0
 40
0.0
 40
0.0273284138121237
 40
0.0942056846465868
 40
0.1611140435179873
 40
0.2280650244439818
 40
0.2949580814859812
 40
0.3618372120227277
 40
0.4094133067740148
 40
0.4094133067740148
 40
0.4094133067740148
 40
0.4094133067740148
 10
23.12761362587932
 20
-25.34330786651043
 30
0.0
 10
22.65746010456363
 20
-25.35722807341013
 30
0.0
 10
21.03676105232299
 20
-25.40521339119789
 30
0.0
 10
18.266035214021
 20
-24.99472816824564
 30
0.0
 10
14.8127447417281
 20
-24.12927877331749
 30
0.0
 10
11.35715284390832
 20
-22.79048866372595
 30
0.0
 10
7.904751696635088
 20
-21.03792047959931
 30
0.0
 10
4.785815372459865
 20
-19.10155602239702
 30
0.0
 10
2.816612870865924
 20
-17.71010005695143
 30
0.0
 10
1.997971097356924
 20
-17.10516098195139
 30
0.0
  0
SPLINE
  5
1FF
330
1F
100
AcDbEntity
  8
0
  6
Continuous
 62
     1
370
    15
100
AcDbSpline
210
0.0
220
0.0
230
1.0
 70
     8
 71
     3
 72
    22
 73
    18
 74
     0
 42
0.000000001
 43
0.00000001
 40
0.0
 40
0.0
 40
0.0
 40
0.0
 40
0.0048988018589237
 40
0.0490346462380552
 40
0.0931745956190867
 40
0.1373531456367903
 40
0.1815122534345532
 40
0.2256457694027527
 40
0.2697915984343283
 40
0.3139741447217301
 40
0.3581245051192957
 40
0.4022574703695527
 40
0.4464109509195033
 40
0.4905925581802304
 40
0.5347359409032691
 40
0.5788701333892554
 40
0.6102660631093294
 40
0.6102660631093294
 40
0.6102660631093294
 40
0.6102660631093294
 10
49.72604589457822
 20
-25.3768686503935
 30
0.0
 10
49.59830845626786
 20
-25.38439188907652
 30
0.0
 10
48.31971824599131
 20
-25.45969588340227
 30
0.0
 10
45.89166397787343
 20
-25.15858637895388
 30
0.0
 10
42.4394335401785
 20
-24.44409063643734
 30
0.0
 10
38.98411404525805
 20
-23.23137797661379
 30
0.0
 10
35.5304146606322
 20
-21.60233197899583
 30
0.0
 10
32.07879940928134
 20
-19.57090802258439
 30
0.0
 10
28.62620673880636
 20
-17.17891352508484
 30
0.0
 10
25.17051529234342
 20
-14.47133573077878
 30
0.0
 10
21.71755300173621
 20
-11.49515771959707
 30
0.0
 10
18.26598020076824
 20
-8.306844236183547
 30
0.0
 10
14.81275949626686
 20
-4.965215831975495
 30
0.0
 10
11.35714889316495
 20
-1.533770861584475
 30
0.0
 10
7.904752754577572
 20
1.928155215619569
 30
0.0
 10
4.785815234271865
 20
5.023974282811125
 30
0.0
 10
2.816612813635743
 20
6.928931081783269
 30
0.0
 10
1.997971097356896
 20
7.708684978502653
 30
0.0
  0
SPLINE
  5
201
330
1F
100
AcDbEntity
  8
0
  6
Continuous
 62
     1
370
    15
100
AcDbSpline
210
0.0
220
0.0
230
1.0
 70
     8
 71
     3
 72
    22
 73
    18
 74
     0
 42
0.000000001
 43
0.00000001
 40
0.0
 40
0.0
 40
0.0
 40
0.0
 40
0.0519490220846624
 40
0.103858318866666
 40
0.1557724436465229
 40
0.2077319676236349
 40
0.2596686251080083
 40
0.31157518338629
 40
0.3634962233737148
 40
0.4154604474659532
 40
0.4673868169089557
 40
0.5192927274737626
 40
0.5712227666078845
 40
0.6231858862868047
 40
0.6751040491081155
 40
0.7270114030562902
 40
0.76393695316801
 40
0.76393695316801
 40
0.76393695316801
 40
0.76393695316801
 10
52.79797109735691
 20
-15.25991839300723
 30
0.0
 10
51.64614978220769
 20
-14.31246601287518
 30
0.0
 10
49.34338794712951
 20
-12.41828576735736
 30
0.0
 10
45.89158252467317
 20
-9.27097057755943
 30
0.0
 10
42.43945538795433
 20
-5.972538295289064
 30
0.0
 10
38.98410819176289
 20
-2.560418974964531
 30
0.0
 10
35.53041622774779
 20
0.8987831533712516
 30
0.0
 10
32.0787989893681
 20
4.342160077596329
 30
0.0
 10
28.62620685140226
 20
7.705494607923185
 30
0.0
 10
25.17051526233544
 20
10.92459309070252
 30
0.0
 10
21.7175530092172
 20
13.9439668665735
 30
0.0
 10
18.26598020082841
 20
16.70582015380337
 30
0.0
 10
14.81275948853667
 20
19.15925402560845
 30
0.0
 10
11.35714892403607
 20
21.25799958341804
 30
0.0
 10
7.904752638950526
 20
22.96575436000798
 30
0.0
 10
4.785815763952996
 20
24.12550326168899
 30
0.0
 10
2.816612542291864
 20
24.63917716359983
 30
0.0
 10
1.997971097356896
 20
24.81395400305288
 30
0.0
  0
SPLINE
  5
234
330
1F
100
AcDbEntity
  8
0
  6
Continuous
 62
     1
370
    15
100
AcDbSpline
210
0.0
220
0.0
230
1.0
 70
     8
 71
     3
 72
    22
 73
    18
 74
     0
 42
0.000000001
 43
0.00000001
 40
0.3379096640339619
 40
0.3379096640339619
 40
0.3379096640339619
 40
0.3379096640339619
 40
0.3699123759191454
 40
0.4148995400599492
 40
0.4598960720554587
 40
0.5049315673457373
 40
0.5499383923265981
 40
0.5949243055131619
 40
0.6399279500391517
 40
0.6849644025044626
 40
0.7299634280877662
 40
0.7749499026358753
 40
0.8199624636211069
 40
0.8649948425817098
 40
0.9099878748797804
 40
0.9549767228394981
 40
1.0
 40
1.0
 40
1.0
 40
1.0
 10
1.997971097356867
 20
13.27886451395832
 30
0.0
 10
2.816612816496217
 20
12.58124683842574
 30
0.0
 10
4.785815228678047
 20
10.85305921741951
 30
0.0
 10
7.904752755839553
 20
7.954556366064871
 30
0.0
 10
11.35714889268206
 20
4.59973925584389
 30
0.0
 10
14.81275949693534
 20
1.162200984972753
 30
0.0
 10
18.26598019857988
 20
-2.298601451622861
 30
0.0
 10
21.7175530098198
 20
-5.717002086494789
 30
0.0
 10
25.17051526217384
 20
-9.029964597864435
 30
0.0
 10
28.62620685144557
 20
-12.1744369624152
 30
0.0
 10
32.07879898935661
 20
-15.09616845212391
 30
0.0
 10
35.53041622775075
 20
-17.73916193743614
 30
0.0
 10
38.9841081917622
 20
-20.05380110395182
 30
0.0
 10
42.43945538795455
 20
-22.00006259979956
 30
0.0
 10
45.89158252467305
 20
-23.53243017277439
 30
0.0
 10
49.34338794712946
 20
-24.66359696068358
 30
0.0
 10
51.64614978220769
 20
-25.03091525576538
 30
0.0
 10
52.79797109735691
 20
-25.21464465203841
 30
0.0
  0
ENDSEC
  0
SECTION
  2
OBJECTS
  0
DICTIONARY
  5
C
330
0
100
AcDbDictionary
281
     1
  3
ACAD_GROUP
350
D
  3
ACAD_IMAGE_VARS
350
128
  3
ACAD_LAYOUT
350
1A
  3
ACAD_MLINESTYLE
350
17
  3
ACAD_PLOTSETTINGS
350
19
  3
ACAD_PLOTSTYLENAME
350
E
  3
ACAD_SCALELIST
350
47
  3
APPDATA
350
126
  3
DWGPROPS
350
258
  0
DICTIONARY
  5
1C3
330
2
100
AcDbDictionary
280
     1
281
     1
  3
ACAD_LAYERSTATES
360
1C4
  0
DICTIONARY
  5
D
102
{ACAD_REACTORS
330
C
102
}
330
C
100
AcDbDictionary
281
     1
  0
RASTERVARIABLES
  5
128
102
{ACAD_REACTORS
330
C
102
}
330
C
100
AcDbRasterVariables
 90
        0
 70
     1
 71
     1
 72
     1
  0
DICTIONARY
  5
1A
102
{ACAD_REACTORS
330
C
102
}
330
C
100
AcDbDictionary
281
     1
  3
Layout1
350
1E
  3
Layout2
350
26
  3
Model
350
22
  0
DICTIONARY
  5
17
102
{ACAD_REACTORS
330
C
102
}
330
C
100
AcDbDictionary
281
     1
  3
Standard
350
18
  0
DICTIONARY
  5
19
102
{ACAD_REACTORS
330
C
102
}
330
C
100
AcDbDictionary
281
     1
  0
ACDBDICTIONARYWDFLT
  5
E
102
{ACAD_REACTORS
330
C
102
}
330
C
100
AcDbDictionary
281
     1
  3
Normal
350
F
100
AcDbDictionaryWithDefault
340
F
  0
DICTIONARY
  5
47
102
{ACAD_REACTORS
330
C
102
}
330
C
100
AcDbDictionary
281
     1
  3
A0
350
48
  3
A1
350
49
  3
A2
350
4A
  3
A3
350
4B
  3
A4
350
4C
  3
A5
350
4D
  3
A6
350
4E
  3
A7
350
4F
  3
A8
350
50
  3
A9
350
51
  3
B0
350
52
  3
B1
350
53
  3
B2
350
54
  3
B3
350
55
  3
B4
350
56
  3
B5
350
57
  3
B6
350
58
  3
B7
350
59
  3
B8
350
5A
  3
B9
350
5B
  3
C0
350
5C
  3
C1
350
5D
  3
C2
350
5E
  3
C3
350
5F
  3
C4
350
60
  3
C5
350
61
  3
C6
350
62
  3
C7
350
63
  3
C8
350
64
  3
C9
350
65
  3
D0
350
66
  3
D1
350
67
  3
D2
350
68
  0
DICTIONARY
  5
126
102
{ACAD_REACTORS
330
C
102
}
330
C
100
AcDbDictionary
281
     1
  0
XRECORD
  5
258
102
{ACAD_REACTORS
330
C
102
}
330
C
100
AcDbXrecord
280
     1
  1
DWGPROPS COOKIE
  2

  3

  4

  6

  7

  8
12016016
  9

300
=
301
=
302
=
303
=
304
=
305
=
306
=
307
=
308
=
309
=
 40
0.0
 41
2458323.108079329
 42
2458330.139165359
  1

 90
        0
  0
DICTIONARY
  5
1C4
102
{ACAD_REACTORS
330
1C3
102
}
330
1C3
100
AcDbDictionary
281
     1
  0
LAYOUT
  5
1E
102
{ACAD_REACTORS
330
1A
102
}
330
1A
100
AcDbPlotSettings
  1

  2
none_device
  4

  6

 40
0.0
 41
0.0
 42
0.0
 43
0.0
 44
0.0
 45
0.0
 46
0.0
 47
0.0
 48
0.0
 49
0.0
140
0.0
141
0.0
142
1.0
143
1.0
 70
   688
 72
     1
 73
     0
 74
     5
  7

 75
    16
147
1.0
148
0.0
149
0.0
100
AcDbLayout
  1
Layout1
 70
     1
 71
     1
 10
0.0
 20
0.0
 11
420.0
 21
297.0
 12
0.0
 22
0.0
 32
0.0
 14
1.000000000000000E+20
 24
1.000000000000000E+20
 34
1.000000000000000E+20
 15
-1.000000000000000E+20
 25
-1.000000000000000E+20
 35
-1.000000000000000E+20
146
0.0
 13
0.0
 23
0.0
 33
0.0
 16
1.0
 26
0.0
 36
0.0
 17
0.0
 27
1.0
 37
0.0
 76
     0
330
1B
  0
LAYOUT
  5
26
102
{ACAD_REACTORS
330
1A
102
}
330
1A
100
AcDbPlotSettings
  1

  2
none_device
  4

  6

 40
0.0
 41
0.0
 42
0.0
 43
0.0
 44
0.0
 45
0.0
 46
0.0
 47
0.0
 48
0.0
 49
0.0
140
0.0
141
0.0
142
1.0
143
1.0
 70
   688
 72
     1
 73
     0
 74
     5
  7

 75
    16
147
1.0
148
0.0
149
0.0
100
AcDbLayout
  1
Layout2
 70
     1
 71
     2
 10
0.0
 20
0.0
 11
0.0
 21
0.0
 12
0.0
 22
0.0
 32
0.0
 14
0.0
 24
0.0
 34
0.0
 15
0.0
 25
0.0
 35
0.0
146
0.0
 13
0.0
 23
0.0
 33
0.0
 16
1.0
 26
0.0
 36
0.0
 17
0.0
 27
1.0
 37
0.0
 76
     0
330
23
  0
LAYOUT
  5
22
102
{ACAD_REACTORS
330
1A
102
}
330
1A
100
AcDbPlotSettings
  1

  2
none_device
  4
ANSI_A_(11.00_x_8.50_Inches)
  6

 40
6.35
 41
19.05
 42
6.35000508
 43
19.05000254
 44
279.4
 45
215.9
 46
96.39525648754174
 47
90.09827952143297
 48
0.0
 49
0.0
140
0.0
141
0.0
142
0.0605651527843098
143
1.0
 70
  1696
 72
     0
 73
     0
 74
     0
  7

 75
     0
147
0.0235690232323232
148
0.0
149
0.0
100
AcDbLayout
  1
Model
 70
     1
 71
     0
 10
0.0
 20
0.0
 11
420.0
 21
297.0
 12
0.0
 22
0.0
 32
0.0
 14
-77.28952890264313
 24
-49.97073246008785
 34
0.0
 15
113.9254298008692
 25
84.8536228080973
 35
0.0
146
0.0
 13
0.0
 23
0.0
 33
0.0
 16
1.0
 26
0.0
 36
0.0
 17
0.0
 27
1.0
 37
0.0
 76
     0
330
1F
331
29
  0
MLINESTYLE
  5
18
102
{ACAD_REACTORS
330
17
102
}
330
17
100
AcDbMlineStyle
  2
Standard
 70
     0
  3

 62
   256
 51
90.0
 52
90.0
 71
     2
 49
0.5
 62
   256
  6
BYLAYER
 49
-0.5
 62
   256
  6
BYLAYER
  0
ACDBPLACEHOLDER
  5
F
102
{ACAD_REACTORS
330
E
102
}
330
E
  0
SCALE
  5
48
102
{ACAD_REACTORS
330
47
102
}
330
47
100
AcDbScale
 70
     0
300
1:1
140
1.0
141
1.0
290
     1
  0
SCALE
  5
49
102
{ACAD_REACTORS
330
47
102
}
330
47
100
AcDbScale
 70
     0
300
1:2
140
1.0
141
2.0
290
     0
  0
SCALE
  5
4A
102
{ACAD_REACTORS
330
47
102
}
330
47
100
AcDbScale
 70
     0
300
1:4
140
1.0
141
4.0
290
     0
  0
SCALE
  5
4B
102
{ACAD_REACTORS
330
47
102
}
330
47
100
AcDbScale
 70
     0
300
1:5
140
1.0
141
5.0
290
     0
  0
SCALE
  5
4C
102
{ACAD_REACTORS
330
47
102
}
330
47
100
AcDbScale
 70
     0
300
1:8
140
1.0
141
8.0
290
     0
  0
SCALE
  5
4D
102
{ACAD_REACTORS
330
47
102
}
330
47
100
AcDbScale
 70
     0
300
1:10
140
1.0
141
10.0
290
     0
  0
SCALE
  5
4E
102
{ACAD_REACTORS
330
47
102
}
330
47
100
AcDbScale
 70
     0
300
1:16
140
1.0
141
16.0
290
     0
  0
SCALE
  5
4F
102
{ACAD_REACTORS
330
47
102
}
330
47
100
AcDbScale
 70
     0
300
1:20
140
1.0
141
20.0
290
     0
  0
SCALE
  5
50
102
{ACAD_REACTORS
330
47
102
}
330
47
100
AcDbScale
 70
     0
300
1:30
140
1.0
141
30.0
290
     0
  0
SCALE
  5
51
102
{ACAD_REACTORS
330
47
102
}
330
47
100
AcDbScale
 70
     0
300
1:40
140
1.0
141
40.0
290
     0
  0
SCALE
  5
52
102
{ACAD_REACTORS
330
47
102
}
330
47
100
AcDbScale
 70
     0
300
1:50
140
1.0
141
50.0
290
     0
  0
SCALE
  5
53
102
{ACAD_REACTORS
330
47
102
}
330
47
100
AcDbScale
 70
     0
300
1:100
140
1.0
141
100.0
290
     0
  0
SCALE
  5
54
102
{ACAD_REACTORS
330
47
102
}
330
47
100
AcDbScale
 70
     0
300
2:1
140
2.0
141
1.0
290
     0
  0
SCALE
  5
55
102
{ACAD_REACTORS
330
47
102
}
330
47
100
AcDbScale
 70
     0
300
4:1
140
4.0
141
1.0
290
     0
  0
SCALE
  5
56
102
{ACAD_REACTORS
330
47
102
}
330
47
100
AcDbScale
 70
     0
300
8:1
140
8.0
141
1.0
290
     0
  0
SCALE
  5
57
102
{ACAD_REACTORS
330
47
102
}
330
47
100
AcDbScale
 70
     0
300
10:1
140
10.0
141
1.0
290
     0
  0
SCALE
  5
58
102
{ACAD_REACTORS
330
47
102
}
330
47
100
AcDbScale
 70
     0
300
100:1
140
100.0
141
1.0
290
     0
  0
SCALE
  5
59
102
{ACAD_REACTORS
330
47
102
}
330
47
100
AcDbScale
 70
     0
300
1/128" = 1'-0"
140
0.0078125
141
12.0
290
     0
  0
SCALE
  5
5A
102
{ACAD_REACTORS
330
47
102
}
330
47
100
AcDbScale
 70
     0
300
1/64" = 1'-0"
140
0.015625
141
12.0
290
     0
  0
SCALE
  5
5B
102
{ACAD_REACTORS
330
47
102
}
330
47
100
AcDbScale
 70
     0
300
1/32" = 1'-0"
140
0.03125
141
12.0
290
     0
  0
SCALE
  5
5C
102
{ACAD_REACTORS
330
47
102
}
330
47
100
AcDbScale
 70
     0
300
1/16" = 1'-0"
140
0.0625
141
12.0
290
     0
  0
SCALE
  5
5D
102
{ACAD_REACTORS
330
47
102
}
330
47
100
AcDbScale
 70
     0
300
3/32" = 1'-0"
140
0.09375
141
12.0
290
     0
  0
SCALE
  5
5E
102
{ACAD_REACTORS
330
47
102
}
330
47
100
AcDbScale
 70
     0
300
1/8" = 1'-0"
140
0.125
141
12.0
290
     0
  0
SCALE
  5
5F
102
{ACAD_REACTORS
330
47
102
}
330
47
100
AcDbScale
 70
     0
300
3/16" = 1'-0"
140
0.1875
141
12.0
290
     0
  0
SCALE
  5
60
102
{ACAD_REACTORS
330
47
102
}
330
47
100
AcDbScale
 70
     0
300
1/4" = 1'-0"
140
0.25
141
12.0
290
     0
  0
SCALE
  5
61
102
{ACAD_REACTORS
330
47
102
}
330
47
100
AcDbScale
 70
     0
300
3/8" = 1'-0"
140
0.375
141
12.0
290
     0
  0
SCALE
  5
62
102
{ACAD_REACTORS
330
47
102
}
330
47
100
AcDbScale
 70
     0
300
1/2" = 1'-0"
140
0.5
141
12.0
290
     0
  0
SCALE
  5
63
102
{ACAD_REACTORS
330
47
102
}
330
47
100
AcDbScale
 70
     0
300
3/4" = 1'-0"
140
0.75
141
12.0
290
     0
  0
SCALE
  5
64
102
{ACAD_REACTORS
330
47
102
}
330
47
100
AcDbScale
 70
     0
300
1" = 1'-0"
140
1.0
141
12.0
290
     0
  0
SCALE
  5
65
102
{ACAD_REACTORS
330
47
102
}
330
47
100
AcDbScale
 70
     0
300
1-1/2" = 1'-0"
140
1.5
141
12.0
290
     0
  0
SCALE
  5
66
102
{ACAD_REACTORS
330
47
102
}
330
47
100
AcDbScale
 70
     0
300
3" = 1'-0"
140
3.0
141
12.0
290
     0
  0
SCALE
  5
67
102
{ACAD_REACTORS
330
47
102
}
330
47
100
AcDbScale
 70
     0
300
6" = 1'-0"
140
6.0
141
12.0
290
     0
  0
SCALE
  5
68
102
{ACAD_REACTORS
330
47
102
}
330
47
100
AcDbScale
 70
     0
300
1'-0" = 1'-0"
140
12.0
141
12.0
290
     0
  0
ENDSEC
  0
EOF
