  0
SECTION
  2
HEADER
  9
$ACADVER
  1
AC1015
  9
$ACADMAINTVER
 70
     6
  9
$DWGCODEPAGE
  3
ANSI_949
  9
$INSBASE
 10
0.0
 20
0.0
 30
0.0
  9
$EXTMIN
 10
-77.81627433527899
 20
-49.97073246008785
 30
0.0
  9
$EXTMAX
 10
113.9254298008692
 20
62.96748968745787
 30
0.0
  9
$LIMMIN
 10
0.0
 20
0.0
  9
$LIMMAX
 10
420.0
 20
297.0
  9
$ORTHOMODE
 70
     1
  9
$REGENMODE
 70
     1
  9
$FILLMODE
 70
     1
  9
$QTEXTMODE
 70
     0
  9
$MIRRTEXT
 70
     1
  9
$LTSCALE
 40
1.0
  9
$ATTMODE
 70
     1
  9
$TEXTSIZE
 40
3.5
  9
$TRACEWID
 40
1.0
  9
$TEXTSTYLE
  7
Standard
  9
$CLAYER
  8
0
  9
$CELTYPE
  6
ByLayer
  9
$CECOLOR
 62
   256
  9
$CELTSCALE
 40
1.0
  9
$DISPSILH
 70
     0
  9
$DIMSCALE
 40
1.0
  9
$DIMASZ
 40
3.302
  9
$DIMEXO
 40
1.0
  9
$DIMDLI
 40
3.75
  9
$DIMRND
 40
0.0
  9
$DIMDLE
 40
0.0
  9
$DIMEXE
 40
1.0
  9
$DIMTP
 40
0.0
  9
$DIMTM
 40
0.0
  9
$DIMTXT
 40
3.5
  9
$DIMCEN
 40
2.5
  9
$DIMTSZ
 40
0.0
  9
$DIMTOL
 70
     0
  9
$DIMLIM
 70
     0
  9
$DIMTIH
 70
     1
  9
$DIMTOH
 70
     1
  9
$DIMSE1
 70
     0
  9
$DIMSE2
 70
     0
  9
$DIMTAD
 70
     1
  9
$DIMZIN
 70
     0
  9
$DIMBLK
  1

  9
$DIMASO
 70
     1
  9
$DIMSHO
 70
     1
  9
$DIMPOST
  1

  9
$DIMAPOST
  1

  9
$DIMALT
 70
     0
  9
$DIMALTD
 70
     3
  9
$DIMALTF
 40
0.0393700787401575
  9
$DIMLFAC
 40
1.0
  9
$DIMTOFL
 70
     1
  9
$DIMTVP
 40
0.0
  9
$DIMTIX
 70
     0
  9
$DIMSOXD
 70
     0
  9
$DIMSAH
 70
     0
  9
$DIMBLK1
  1

  9
$DIMBLK2
  1

  9
$DIMSTYLE
  2
ISO-25
  9
$DIMCLRD
 70
     0
  9
$DIMCLRE
 70
     0
  9
$DIMCLRT
 70
     0
  9
$DIMTFAC
 40
1.0
  9
$DIMGAP
 40
1.524
  9
$DIMJUST
 70
     0
  9
$DIMSD1
 70
     0
  9
$DIMSD2
 70
     0
  9
$DIMTOLJ
 70
     0
  9
$DIMTZIN
 70
     0
  9
$DIMALTZ
 70
     0
  9
$DIMALTTZ
 70
     0
  9
$DIMUPT
 70
     0
  9
$DIMDEC
 70
     2
  9
$DIMTDEC
 70
     2
  9
$DIMALTU
 70
     2
  9
$DIMALTTD
 70
     3
  9
$DIMTXSTY
  7
Standard
  9
$DIMAUNIT
 70
     0
  9
$DIMADEC
 70
     2
  9
$DIMALTRND
 40
0.0
  9
$DIMAZIN
 70
     0
  9
$DIMDSEP
 70
    44
  9
$DIMATFIT
 70
     3
  9
$DIMFRAC
 70
     0
  9
$DIMLDRBLK
  1

  9
$DIMLUNIT
 70
     2
  9
$DIMLWD
 70
    -2
  9
$DIMLWE
 70
    -2
  9
$DIMTMOVE
 70
     0
  9
$LUNITS
 70
     2
  9
$LUPREC
 70
     2
  9
$SKETCHINC
 40
1.0
  9
$FILLETRAD
 40
10.0
  9
$AUNITS
 70
     0
  9
$AUPREC
 70
     2
  9
$MENU
  1
.
  9
$ELEVATION
 40
0.0
  9
$PELEVATION
 40
0.0
  9
$THICKNESS
 40
0.0
  9
$LIMCHECK
 70
     0
  9
$CHAMFERA
 40
0.0
  9
$CHAMFERB
 40
0.0
  9
$CHAMFERC
 40
0.0
  9
$CHAMFERD
 40
0.0
  9
$SKPOLY
 70
     0
  9
$TDCREATE
 40
2458323.482232153
  9
$TDUCREATE
 40
2458323.107232153
  9
$TDUPDATE
 40
2458330.514440648
  9
$TDUUPDATE
 40
2458330.139440648
  9
$TDINDWG
 40
0.0051241551
  9
$TDUSRTIMER
 40
2458330.139398866
  9
$USRTIMER
 70
     1
  9
$ANGBASE
 50
0.0
  9
$ANGDIR
 70
     0
  9
$PDMODE
 70
     0
  9
$PDSIZE
 40
-1.0
  9
$PLINEWID
 40
0.0
  9
$SPLFRAME
 70
     0
  9
$SPLINETYPE
 70
     6
  9
$SPLINESEGS
 70
     8
  9
$HANDSEED
  5
312
  9
$SURFTAB1
 70
     6
  9
$SURFTAB2
 70
     6
  9
$SURFTYPE
 70
     6
  9
$SURFU
 70
     6
  9
$SURFV
 70
     6
  9
$UCSBASE
  2

  9
$UCSNAME
  2

  9
$UCSORG
 10
0.0
 20
0.0
 30
0.0
  9
$UCSXDIR
 10
1.0
 20
0.0
 30
0.0
  9
$UCSYDIR
 10
0.0
 20
1.0
 30
0.0
  9
$UCSORTHOREF
  2

  9
$UCSORTHOVIEW
 70
     0
  9
$UCSORGTOP
 10
0.0
 20
0.0
 30
0.0
  9
$UCSORGBOTTOM
 10
0.0
 20
0.0
 30
0.0
  9
$UCSORGLEFT
 10
0.0
 20
0.0
 30
0.0
  9
$UCSORGRIGHT
 10
0.0
 20
0.0
 30
0.0
  9
$UCSORGFRONT
 10
0.0
 20
0.0
 30
0.0
  9
$UCSORGBACK
 10
0.0
 20
0.0
 30
0.0
  9
$PUCSBASE
  2

  9
$PUCSNAME
  2

  9
$PUCSORG
 10
0.0
 20
0.0
 30
0.0
  9
$PUCSXDIR
 10
1.0
 20
0.0
 30
0.0
  9
$PUCSYDIR
 10
0.0
 20
1.0
 30
0.0
  9
$PUCSORTHOREF
  2

  9
$PUCSORTHOVIEW
 70
     0
  9
$PUCSORGTOP
 10
0.0
 20
0.0
 30
0.0
  9
$PUCSORGBOTTOM
 10
0.0
 20
0.0
 30
0.0
  9
$PUCSORGLEFT
 10
0.0
 20
0.0
 30
0.0
  9
$PUCSORGRIGHT
 10
0.0
 20
0.0
 30
0.0
  9
$PUCSORGFRONT
 10
0.0
 20
0.0
 30
0.0
  9
$PUCSORGBACK
 10
0.0
 20
0.0
 30
0.0
  9
$USERI1
 70
     0
  9
$USERI2
 70
     0
  9
$USERI3
 70
     0
  9
$USERI4
 70
     0
  9
$USERI5
 70
     0
  9
$USERR1
 40
0.0
  9
$USERR2
 40
0.0
  9
$USERR3
 40
0.0
  9
$USERR4
 40
0.0
  9
$USERR5
 40
0.0
  9
$WORLDVIEW
 70
     1
  9
$SHADEDGE
 70
     3
  9
$SHADEDIF
 70
    70
  9
$TILEMODE
 70
     1
  9
$MAXACTVP
 70
    64
  9
$PINSBASE
 10
0.0
 20
0.0
 30
0.0
  9
$PLIMCHECK
 70
     0
  9
$PEXTMIN
 10
1.000000000000000E+20
 20
1.000000000000000E+20
 30
1.000000000000000E+20
  9
$PEXTMAX
 10
-1.000000000000000E+20
 20
-1.000000000000000E+20
 30
-1.000000000000000E+20
  9
$PLIMMIN
 10
0.0
 20
0.0
  9
$PLIMMAX
 10
0.0
 20
0.0
  9
$UNITMODE
 70
     0
  9
$VISRETAIN
 70
     1
  9
$PLINEGEN
 70
     0
  9
$PSLTSCALE
 70
     1
  9
$TREEDEPTH
 70
  3020
  9
$CMLSTYLE
  2
Standard
  9
$CMLJUST
 70
     0
  9
$CMLSCALE
 40
20.0
  9
$PROXYGRAPHICS
 70
     1
  9
$MEASUREMENT
 70
     1
  9
$CELWEIGHT
370
    -1
  9
$ENDCAPS
280
     0
  9
$JOINSTYLE
280
     0
  9
$LWDISPLAY
290
     1
  9
$INSUNITS
 70
     4
  9
$HYPERLINKBASE
  1

  9
$STYLESHEET
  1

  9
$XEDIT
290
     1
  9
$CEPSNTYPE
380
     0
  9
$PSTYLEMODE
290
     1
  9
$FINGERPRINTGUID
  2
{ABA034E2-C455-40FF-B786-4AC5D3A0AD3E}
  9
$VERSIONGUID
  2
{FAEB1C32-E019-11D5-929B-00C0DF256EC4}
  9
$EXTNAMES
290
     1
  9
$PSVPSCALE
 40
0.0
  9
$OLESTARTUP
290
     0
  0
ENDSEC
  0
SECTION
  2
CLASSES
  0
CLASS
  1
ACDBDICTIONARYWDFLT
  2
AcDbDictionaryWithDefault
  3
ObjectDBX Classes
 90
        0
280
     0
281
     0
  0
CLASS
  1
VISUALSTYLE
  2
AcDbVisualStyle
  3
ObjectDBX Classes
 90
     4095
280
     0
281
     0
  0
CLASS
  1
MATERIAL
  2
AcDbMaterial
  3
ObjectDBX Classes
 90
     1153
280
     0
281
     0
  0
CLASS
  1
SCALE
  2
AcDbScale
  3
ObjectDBX Classes
 90
     1153
280
     0
281
     0
  0
CLASS
  1
SUN
  2
AcDbSun
  3
SCENEOE
 90
     1153
280
     0
281
     0
  0
CLASS
  1
ACDBPLACEHOLDER
  2
AcDbPlaceHolder
  3
ObjectDBX Classes
 90
        0
280
     0
281
     0
  0
CLASS
  1
LAYOUT
  2
AcDbLayout
  3
ObjectDBX Classes
 90
        0
280
     0
281
     0
  0
CLASS
  1
TABLESTYLE
  2
AcDbTableStyle
  3
ObjectDBX Classes
 90
     4095
280
     0
281
     0
  0
CLASS
  1
MLEADERSTYLE
  2
AcDbMLeaderStyle
  3
ACDB_MLEADERSTYLE_CLASS
 90
     4095
280
     0
281
     0
  0
CLASS
  1
RASTERVARIABLES
  2
AcDbRasterVariables
  3
ISM
 90
        0
280
     0
281
     0
  0
CLASS
  1
DIMASSOC
  2
AcDbDimAssoc
  3
"AcDbDimAssoc|Product Desc:     AcDim ARX App For Dimension|Company:          Autodesk, Inc.|WEB Address:      www.autodesk.com"
 90
        0
280
     0
281
     0
  0
ENDSEC
  0
SECTION
  2
TABLES
  0
TABLE
  2
VPORT
  5
8
330
0
100
AcDbSymbolTable
 70
     1
  0
VPORT
  5
29
330
8
100
AcDbSymbolTableRecord
100
AcDbViewportTableRecord
  2
*Active
 70
     0
 10
0.0
 20
0.0
 11
1.0
 21
1.0
 12
6.72121327038619
 22
-20.03550460765999
 13
0.0
 23
0.0
 14
10.0
 24
10.0
 15
10.0
 25
10.0
 16
0.0
 26
0.0
 36
1.0
 17
0.0
 27
0.0
 37
0.0
 40
120.9427153052578
 41
1.516441005802708
 42
50.0
 43
0.0
 44
0.0
 50
0.0
 51
0.0
 71
    16
 72
  2000
 73
     1
 74
     3
 75
     0
 76
     0
 77
     0
 78
     0
281
     0
 65
     1
110
0.0
120
0.0
130
0.0
111
1.0
121
0.0
131
0.0
112
0.0
122
1.0
132
0.0
 79
     0
146
0.0
  0
ENDTAB
  0
TABLE
  2
LTYPE
  5
5
330
0
100
AcDbSymbolTable
 70
     6
  0
LTYPE
  5
14
330
5
100
AcDbSymbolTableRecord
100
AcDbLinetypeTableRecord
  2
ByBlock
 70
     0
  3

 72
    65
 73
     0
 40
0.0
  0
LTYPE
  5
15
330
5
100
AcDbSymbolTableRecord
100
AcDbLinetypeTableRecord
  2
ByLayer
 70
     0
  3

 72
    65
 73
     0
 40
0.0
  0
LTYPE
  5
16
330
5
100
AcDbSymbolTableRecord
100
AcDbLinetypeTableRecord
  2
Continuous
 70
     0
  3
Solid line
 72
    65
 73
     0
 40
0.0
  0
LTYPE
  5
6A
330
5
100
AcDbSymbolTableRecord
100
AcDbLinetypeTableRecord
  2
HIDDEN
 70
     0
  3
Hidden __ __ __ __ __ __ __ __ __ __ __ __ __ __
 72
    65
 73
     2
 40
1.905
 49
1.27
 74
     0
 49
-0.635
 74
     0
  0
LTYPE
  5
6B
330
5
100
AcDbSymbolTableRecord
100
AcDbLinetypeTableRecord
  2
PHANTOM
 70
     0
  3
Phantom ______  __  __  ______  __  __  ______
 72
    65
 73
     6
 40
12.7
 49
6.35
 74
     0
 49
-1.27
 74
     0
 49
1.27
 74
     0
 49
-1.27
 74
     0
 49
1.27
 74
     0
 49
-1.27
 74
     0
  0
LTYPE
  5
6C
330
5
100
AcDbSymbolTableRecord
100
AcDbLinetypeTableRecord
  2
CENTER
 70
     0
  3
Center ____ _ ____ _ ____ _ ____ _ ____ _ ____
 72
    65
 73
     4
 40
10.16
 49
6.35
 74
     0
 49
-1.27
 74
     0
 49
1.27
 74
     0
 49
-1.27
 74
     0
  0
LTYPE
  5
6D
330
5
100
AcDbSymbolTableRecord
100
AcDbLinetypeTableRecord
  2
CENTERX2
 70
     0
  3
Center (2x) ________  __  ________  __  _____
 72
    65
 73
     4
 40
20.32
 49
12.7
 74
     0
 49
-2.54
 74
     0
 49
2.54
 74
     0
 49
-2.54
 74
     0
  0
LTYPE
  5
6E
330
5
100
AcDbSymbolTableRecord
100
AcDbLinetypeTableRecord
  2
DOT2
 70
     0
  3
Dot (.5x) ........................................
 72
    65
 73
     2
 40
0.635
 49
0.0
 74
     0
 49
-0.635
 74
     0
  0
ENDTAB
  0
TABLE
  2
LAYER
  5
2
102
{ACAD_XDICTIONARY
360
1FA
102
}
330
0
100
AcDbSymbolTable
 70
    18
  0
LAYER
  5
10
330
2
100
AcDbSymbolTableRecord
100
AcDbLayerTableRecord
  2
0
 70
     0
 62
     7
  6
Continuous
370
    -3
390
F
  0
LAYER
  5
6F
330
2
100
AcDbSymbolTableRecord
100
AcDbLayerTableRecord
  2
FORMAT
 70
     0
 62
     2
  6
Continuous
370
    -3
390
F
  0
LAYER
  5
70
330
2
100
AcDbSymbolTableRecord
100
AcDbLayerTableRecord
  2
외형선
 70
     0
 62
     4
  6
Continuous
370
    30
390
F
  0
LAYER
  5
71
330
2
100
AcDbSymbolTableRecord
100
AcDbLayerTableRecord
  2
숨은선
 70
     0
 62
     2
  6
HIDDEN
370
    15
390
F
  0
LAYER
  5
72
330
2
100
AcDbSymbolTableRecord
100
AcDbLayerTableRecord
  2
중심선
 70
     0
 62
     1
  6
CENTERX2
370
    -3
390
F
  0
LAYER
  5
73
330
2
100
AcDbSymbolTableRecord
100
AcDbLayerTableRecord
  2
파단선
 70
     0
 62
     4
  6
Continuous
370
    -3
390
F
  0
LAYER
  5
74
330
2
100
AcDbSymbolTableRecord
100
AcDbLayerTableRecord
  2
해칭선
 70
     0
 62
   100
  6
Continuous
370
    -3
390
F
  0
LAYER
  5
75
330
2
100
AcDbSymbolTableRecord
100
AcDbLayerTableRecord
  2
가는실선
 70
     0
 62
     4
  6
Continuous
370
    -3
390
F
  0
LAYER
  5
76
330
2
100
AcDbSymbolTableRecord
100
AcDbLayerTableRecord
  2
치수_보조선
 70
     0
 62
     4
  6
Continuous
370
    -3
390
F
  0
LAYER
  5
77
330
2
100
AcDbSymbolTableRecord
100
AcDbLayerTableRecord
  2
치수문자_일반주서
 70
     0
 62
     7
  6
Continuous
370
    15
390
F
  0
LAYER
  5
78
330
2
100
AcDbSymbolTableRecord
100
AcDbLayerTableRecord
  2
개별주서
 70
     0
 62
   100
  6
Continuous
370
    30
390
F
  0
LAYER
  5
79
330
2
100
AcDbSymbolTableRecord
100
AcDbLayerTableRecord
  2
중간선
 70
     0
 62
     2
  6
Continuous
370
    15
390
F
  0
LAYER
  5
7A
330
2
100
AcDbSymbolTableRecord
100
AcDbLayerTableRecord
  2
윤곽선
 70
     0
 62
     3
  6
Continuous
370
    40
390
F
  0
LAYER
  5
7B
330
2
100
AcDbSymbolTableRecord
100
AcDbLayerTableRecord
  2
중심마크
 70
     0
 62
   100
  6
Continuous
370
    30
390
F
  0
LAYER
  5
7C
330
2
100
AcDbSymbolTableRecord
100
AcDbLayerTableRecord
  2
가상선
 70
     0
 62
     4
  6
PHANTOM
370
    -3
390
F
  0
LAYER
  5
7D
330
2
100
AcDbSymbolTableRecord
100
AcDbLayerTableRecord
  2
특수지정선
 70
     0
 62
     5
  6
CENTERX2
370
    60
390
F
  0
LAYER
  5
7E
330
2
100
AcDbSymbolTableRecord
100
AcDbLayerTableRecord
  2
참조1
 70
     0
 62
    -4
  6
Continuous
370
    -3
390
F
  0
LAYER
  5
14A
330
2
100
AcDbSymbolTableRecord
100
AcDbLayerTableRecord
  2
Defpoints
 70
     0
 62
     7
  6
Continuous
290
     0
370
    -3
390
F
  0
ENDTAB
  0
TABLE
  2
STYLE
  5
3
330
0
100
AcDbSymbolTable
 70
     2
  0
STYLE
  5
11
330
3
100
AcDbSymbolTableRecord
100
AcDbTextStyleTableRecord
  2
Standard
 70
     0
 40
0.0
 41
1.0
 50
0.0
 71
     0
 42
3.5
  3
txt
  4

  0
STYLE
  5
94
330
3
100
AcDbSymbolTableRecord
100
AcDbTextStyleTableRecord
  2
SLDTEXTSTYLE0
 70
     0
 40
0.0
 41
0.75
 50
0.0
 71
     0
 42
3.5
  3
TXT
  4

  0
ENDTAB
  0
TABLE
  2
VIEW
  5
6
330
0
100
AcDbSymbolTable
 70
     0
  0
ENDTAB
  0
TABLE
  2
UCS
  5
7
330
0
100
AcDbSymbolTable
 70
     0
  0
ENDTAB
  0
TABLE
  2
APPID
  5
9
330
0
100
AcDbSymbolTable
 70
     1
  0
APPID
  5
12
330
9
100
AcDbSymbolTableRecord
100
AcDbRegAppTableRecord
  2
ACAD
 70
     0
  0
ENDTAB
  0
TABLE
  2
DIMSTYLE
  5
A
330
0
100
AcDbSymbolTable
 70
     3
100
AcDbDimStyleTable
  0
DIMSTYLE
105
27
330
A
100
AcDbSymbolTableRecord
100
AcDbDimStyleTableRecord
  2
ISO-25
 70
     0
 41
2.5
 42
0.625
 43
3.75
 44
1.25
 73
     0
 74
     0
 77
     1
 78
     8
140
2.5
141
2.5
143
0.03937007874016
147
0.625
171
     3
172
     1
178
     0
271
     2
272
     2
274
     3
278
    44
283
     0
284
     8
340
11
  0
DIMSTYLE
105
C8
102
{ACAD_REACTORS
330
273
330
274
330
275
330
2DA
102
}
330
A
100
AcDbSymbolTableRecord
100
AcDbDimStyleTableRecord
  2
SLDDIMSTYLE0
 70
     0
 41
3.302
 44
0.0
 45
0.000000001
 73
     0
 74
     0
 77
     1
 78
    12
 79
     3
140
3.5
143
0.0393700787401575
147
0.875
148
0.000000001
170
     1
172
     1
173
     1
178
     0
271
     2
272
     2
276
     2
284
    12
289
     0
340
94
  0
DIMSTYLE
105
F1
330
A
100
AcDbSymbolTableRecord
100
AcDbDimStyleTableRecord
  2
SLDDIMSTYLE1
 70
     0
 41
3.302
 44
0.0
 45
0.000000001
 73
     0
 74
     0
 77
     1
 78
    12
 79
     3
140
3.5
143
0.0393700787401575
147
0.875
148
0.000000001
170
     1
173
     1
178
     0
271
     2
272
     2
276
     2
284
    12
340
94
  0
ENDTAB
  0
TABLE
  2
BLOCK_RECORD
  5
1
330
0
100
AcDbSymbolTable
 70
    16
  0
BLOCK_RECORD
  5
1F
330
1
100
AcDbSymbolTableRecord
100
AcDbBlockTableRecord
  2
*Model_Space
340
22
  0
BLOCK_RECORD
  5
1B
330
1
100
AcDbSymbolTableRecord
100
AcDbBlockTableRecord
  2
*Paper_Space
340
1E
  0
BLOCK_RECORD
  5
23
330
1
100
AcDbSymbolTableRecord
100
AcDbBlockTableRecord
  2
*Paper_Space0
340
26
  0
BLOCK_RECORD
  5
7F
330
1
100
AcDbSymbolTableRecord
100
AcDbBlockTableRecord
  2
블럭10
340
0
102
{BLKREFS
331
C0
102
}
  0
BLOCK_RECORD
  5
C9
330
1
100
AcDbSymbolTableRecord
100
AcDbBlockTableRecord
  2
_D
340
0
  0
BLOCK_RECORD
  5
DD
330
1
100
AcDbSymbolTableRecord
100
AcDbBlockTableRecord
  2
_D_1
340
0
  0
BLOCK_RECORD
  5
F2
330
1
100
AcDbSymbolTableRecord
100
AcDbBlockTableRecord
  2
_D_2
340
0
  0
BLOCK_RECORD
  5
105
330
1
100
AcDbSymbolTableRecord
100
AcDbBlockTableRecord
  2
_D_3
340
0
  0
BLOCK_RECORD
  5
11E
330
1
100
AcDbSymbolTableRecord
100
AcDbBlockTableRecord
  2
SW_DOWELSYMBOL_0
340
0
102
{BLKREFS
331
276
102
}
  0
BLOCK_RECORD
  5
1FE
330
1
100
AcDbSymbolTableRecord
100
AcDbBlockTableRecord
  2
*D7
340
0
  0
BLOCK_RECORD
  5
20A
330
1
100
AcDbSymbolTableRecord
100
AcDbBlockTableRecord
  2
*D8
340
0
  0
BLOCK_RECORD
  5
216
330
1
100
AcDbSymbolTableRecord
100
AcDbBlockTableRecord
  2
*D9
340
0
  0
BLOCK_RECORD
  5
222
330
1
100
AcDbSymbolTableRecord
100
AcDbBlockTableRecord
  2
*D10
340
0
  0
BLOCK_RECORD
  5
280
330
1
100
AcDbSymbolTableRecord
100
AcDbBlockTableRecord
  2
*D11
340
0
  0
BLOCK_RECORD
  5
28C
330
1
100
AcDbSymbolTableRecord
100
AcDbBlockTableRecord
  2
*D12
340
0
  0
BLOCK_RECORD
  5
298
330
1
100
AcDbSymbolTableRecord
100
AcDbBlockTableRecord
  2
*D13
340
0
  0
BLOCK_RECORD
  5
2A4
330
1
100
AcDbSymbolTableRecord
100
AcDbBlockTableRecord
  2
*D14
340
0
  0
BLOCK_RECORD
  5
2DD
330
1
100
AcDbSymbolTableRecord
100
AcDbBlockTableRecord
  2
*D15
340
0
  0
ENDTAB
  0
ENDSEC
  0
SECTION
  2
BLOCKS
  0
BLOCK
  5
20
330
1F
100
AcDbEntity
  8
0
100
AcDbBlockBegin
  2
*Model_Space
 70
     0
 10
0.0
 20
0.0
 30
0.0
  3
*Model_Space
  1
*Model_Space
  0
ENDBLK
  5
21
330
1F
100
AcDbEntity
  8
0
100
AcDbBlockEnd
  0
BLOCK
  5
1C
330
1B
100
AcDbEntity
 67
     1
  8
0
100
AcDbBlockBegin
  2
*Paper_Space
 70
     0
 10
0.0
 20
0.0
 30
0.0
  3
*Paper_Space
  1
*Paper_Space
  0
ENDBLK
  5
1D
330
1B
100
AcDbEntity
 67
     1
  8
0
100
AcDbBlockEnd
  0
BLOCK
  5
24
330
23
100
AcDbEntity
  8
0
100
AcDbBlockBegin
  2
*Paper_Space0
 70
     0
 10
0.0
 20
0.0
 30
0.0
  3
*Paper_Space0
  1
*Paper_Space0
  0
ENDBLK
  5
25
330
23
100
AcDbEntity
  8
0
100
AcDbBlockEnd
  0
BLOCK
  5
80
330
7F
100
AcDbEntity
  8
0
100
AcDbBlockBegin
  2
블럭10
 70
     2
 10
0.0
 20
0.0
 30
0.0
  3
블럭10
  1
블럭10
  0
ELLIPSE
  5
82
330
7F
100
AcDbEntity
  8
중심선
100
AcDbEllipse
 10
20.54032771741204
 20
12.0471743016438
 30
0.0
 11
6.600054785286829
 21
-1.261213355974178E-13
 31
0.0
210
0.0
220
0.0
230
1.0
 40
0.636358354079598
 41
0.9219305317359503
 42
6.513795318482858
  0
ELLIPSE
  5
83
330
7F
100
AcDbEntity
  8
중심선
100
AcDbEllipse
 10
20.54032771746488
 20
12.04717430159265
 30
0.0
 11
3.960054785062283
 21
1.540847449632565E-10
 31
0.0
210
0.0
220
0.0
230
1.0
 40
0.3939339440162632
 41
1.131841032648279
 42
5.62031148352944
  0
LINE
  5
84
330
7F
100
AcDbEntity
  8
중심선
100
AcDbLine
 10
2.268634060543552
 20
16.24717430164393
 30
0.0
 11
5.714909304380834
 21
16.24717430164393
 31
0.0
  0
LINE
  5
85
330
7F
100
AcDbEntity
  8
중심선
100
AcDbLine
 10
5.245725140726316
 20
7.84717430164391
 30
0.0
 11
8.692000384563599
 21
7.84717430164391
 31
0.0
  0
LINE
  5
86
330
7F
100
AcDbEntity
  8
중심선
100
AcDbLine
 10
15.74043728645272
 20
16.24717430164393
 30
0.0
 11
8.692000384563599
 21
7.84717430164391
 31
0.0
  0
LINE
  5
87
330
7F
100
AcDbEntity
  8
중심선
100
AcDbLine
 10
0.1404042013395286
 20
13.71084872107135
 30
0.0
 11
3.58671253028996
 21
13.71088815037384
 31
0.0
  0
LINE
  5
88
330
7F
100
AcDbEntity
  8
중심선
100
AcDbLine
 10
2.750260043222114
 20
10.84717430164391
 30
0.0
 11
6.196535287059397
 21
10.84717430164391
 31
0.0
  0
LINE
  5
89
330
7F
100
AcDbEntity
  8
중심선
100
AcDbLine
 10
12.29416204261559
 20
16.24717430164393
 30
0.0
 11
5.245725140726316
 21
7.84717430164391
 31
0.0
  0
LINE
  5
8A
330
7F
100
AcDbEntity
  8
중심선
100
AcDbLine
 10
10.72767329541681
 20
16.24717430164393
 30
0.0
 11
6.196535287059397
 21
10.84717430164391
 31
0.0
  0
LINE
  5
8B
330
7F
100
AcDbEntity
  8
중심선
100
AcDbLine
 10
7.28139805157953
 20
16.24717430164393
 30
0.0
 11
2.750260043222114
 21
10.84717430164391
 31
0.0
  0
LINE
  5
8C
330
7F
100
AcDbEntity
  8
중심선
100
AcDbLine
 10
5.714909304380834
 20
16.24717430164393
 30
0.0
 11
3.58671253028996
 21
13.71088815037384
 31
0.0
  0
LINE
  5
8D
330
7F
100
AcDbEntity
  8
중심선
100
AcDbLine
 10
2.268634060543552
 20
16.24717430164393
 30
0.0
 11
0.1404042013395286
 21
13.71084872107135
 31
0.0
  0
LINE
  5
8E
330
7F
100
AcDbEntity
  8
중심선
100
AcDbLine
 10
7.28139805157953
 20
16.24717430164393
 30
0.0
 11
10.72767329541681
 21
16.24717430164393
 31
0.0
  0
LINE
  5
8F
330
7F
100
AcDbEntity
  8
중심선
100
AcDbLine
 10
12.29416204261559
 20
16.24717430164393
 30
0.0
 11
15.74043728645272
 21
16.24717430164393
 31
0.0
  0
LINE
  5
90
330
7F
100
AcDbEntity
  8
중심선
100
AcDbLine
 10
19.22036997980202
 20
11.08717430171403
 30
0.0
 11
23.66174974927406
 21
11.08717430171406
 31
0.0
  0
LINE
  5
91
330
7F
100
AcDbEntity
  8
중심선
100
AcDbLine
 10
19.22039502424796
 20
13.00717430171391
 30
0.0
 11
19.22036997980202
 21
11.08717430171403
 31
0.0
  0
LINE
  5
92
330
7F
100
AcDbEntity
  8
중심선
100
AcDbLine
 10
19.22039502424796
 20
13.00717430171391
 30
0.0
 11
26.96566020931264
 21
13.00717430171391
 31
0.0
  0
LINE
  5
93
330
7F
100
AcDbEntity
  8
중심선
100
AcDbLine
 10
22.22332737316547
 20
13.45928029700563
 30
0.0
 11
24.52862924686651
 21
15.39360700705356
 31
0.0
  0
ATTDEF
  5
95
330
7F
100
AcDbEntity
  8
FORMAT
 62
     2
100
AcDbText
 10
4.408487351596664
 20
2.075366912832191
 30
0.0
 40
4.233333333333333
  1
E2032108
 41
0.75
  7
SLDTEXTSTYLE0
 11
4.408487351596664
 21
-0.0412997538344756
 31
0.0
100
AcDbAttributeDefinition
  3

  2
AUTOATTR0
 70
     0
 74
     1
  0
ENDBLK
  5
81
330
7F
100
AcDbEntity
  8
0
100
AcDbBlockEnd
  0
BLOCK
  5
CA
330
C9
100
AcDbEntity
  8
0
100
AcDbBlockBegin
  2
_D
 70
     0
 10
0.0
 20
0.0
 30
0.0
  3
_D
  1
_D
  0
SOLID
  5
CC
330
C9
100
AcDbEntity
  8
치수문자_일반주서
100
AcDbTrace
 10
97.9119459855236
 20
12.5010749287239
 30
0.0
 11
98.4199459855236
 21
15.80307492872389
 31
0.0
 12
97.4039459855236
 22
15.80307492872389
 32
0.0
 13
97.4039459855236
 23
15.80307492872389
 33
0.0
  0
SOLID
  5
CD
330
C9
100
AcDbEntity
  8
치수문자_일반주서
100
AcDbTrace
 10
97.9119459855236
 20
-12.49892507127611
 30
0.0
 11
97.4039459855236
 21
-15.80092507127611
 31
0.0
 12
98.4199459855236
 22
-15.80092507127611
 32
0.0
 13
98.4199459855236
 23
-15.80092507127611
 33
0.0
  0
LINE
  5
CE
330
C9
100
AcDbEntity
  8
치수문자_일반주서
100
AcDbLine
 10
87.11906426948089
 20
-5.413291502344828
 30
0.0
 11
87.11906426948089
 21
-6.124228987909328
 31
0.0
  0
LINE
  5
CF
330
C9
100
AcDbEntity
  8
치수문자_일반주서
100
AcDbLine
 10
87.11906426948089
 20
-6.124228987909328
 30
0.0
 11
92.67531426054019
 21
-6.124228987909289
 31
0.0
  0
LINE
  5
D0
330
C9
100
AcDbEntity
  8
치수문자_일반주서
100
AcDbLine
 10
92.67531426054019
 20
-6.124228987909289
 30
0.0
 11
92.67531426054019
 21
-5.413291502344789
 31
0.0
  0
LINE
  5
D1
330
C9
100
AcDbEntity
  8
치수문자_일반주서
100
AcDbLine
 10
87.1190642694808
 20
5.41544135979243
 30
0.0
 11
87.1190642694808
 21
6.12637884535693
 31
0.0
  0
LINE
  5
D2
330
C9
100
AcDbEntity
  8
치수문자_일반주서
100
AcDbLine
 10
87.1190642694808
 20
6.12637884535693
 30
0.0
 11
92.6753142605401
 21
6.126378845356969
 31
0.0
  0
LINE
  5
D3
330
C9
100
AcDbEntity
  8
치수문자_일반주서
100
AcDbLine
 10
92.6753142605401
 20
6.126378845356969
 30
0.0
 11
92.6753142605401
 21
5.415441359792469
 31
0.0
  0
LINE
  5
D4
330
C9
100
AcDbEntity
  8
치수문자_일반주서
100
AcDbLine
 10
79.91194598552357
 20
12.5010749287239
 30
0.0
 11
98.9119459855236
 21
12.5010749287239
 31
0.0
  0
LINE
  5
D5
330
C9
100
AcDbEntity
  8
치수문자_일반주서
100
AcDbLine
 10
79.91194598552357
 20
-12.49892507127611
 30
0.0
 11
98.9119459855236
 21
-12.49892507127611
 31
0.0
  0
LINE
  5
D6
330
C9
100
AcDbEntity
  8
치수문자_일반주서
100
AcDbLine
 10
97.9119459855236
 20
12.5010749287239
 30
0.0
 11
97.9119459855236
 21
18.8510749287239
 31
0.0
  0
LINE
  5
D7
330
C9
100
AcDbEntity
  8
치수문자_일반주서
100
AcDbLine
 10
97.9119459855236
 20
12.5010749287239
 30
0.0
 11
97.9119459855236
 21
-12.49892507127611
 31
0.0
  0
LINE
  5
D8
330
C9
100
AcDbEntity
  8
치수문자_일반주서
100
AcDbLine
 10
97.9119459855236
 20
-12.49892507127611
 30
0.0
 11
97.9119459855236
 21
-18.84892507127611
 31
0.0
  0
MTEXT
  5
D9
330
C9
100
AcDbEntity
  8
치수문자_일반주서
100
AcDbMText
 10
88.16357734596129
 20
-4.52461960173345
 30
0.0
 40
3.5
 41
0.0
 71
     1
 72
     1
  1
0.98
  7
SLDTEXTSTYLE0
 11
-7.044195017643634E-15
 21
1.0
 31
0.0
 73
     1
 44
1.0
  0
MTEXT
  5
DA
330
C9
100
AcDbEntity
  8
치수문자_일반주서
100
AcDbMText
 10
93.40020889632177
 20
-5.22425519681665
 30
0.0
 40
3.5
 41
0.0
 71
     1
 72
     1
  1
%%c
  7
SLDTEXTSTYLE0
 11
-7.044195017643634E-15
 21
1.0
 31
0.0
 73
     1
 44
1.0
  0
MTEXT
  5
DB
330
C9
100
AcDbEntity
  8
치수문자_일반주서
100
AcDbMText
 10
93.40020889632173
 20
0.0541822015574309
 30
0.0
 40
3.5
 41
0.0
 71
     1
 72
     1
  1
25
  7
SLDTEXTSTYLE0
 11
-7.044195017643634E-15
 21
1.0
 31
0.0
 73
     1
 44
1.0
  0
ENDBLK
  5
CB
330
C9
100
AcDbEntity
  8
0
100
AcDbBlockEnd
  0
BLOCK
  5
DE
330
DD
100
AcDbEntity
  8
0
100
AcDbBlockBegin
  2
_D_1
 70
     0
 10
0.0
 20
0.0
 30
0.0
  3
_D_1
  1
_D_1
  0
SOLID
  5
E0
330
DD
100
AcDbEntity
  8
치수문자_일반주서
100
AcDbTrace
 10
-55.08805401447646
 20
7.938574928723906
 30
0.0
 11
-54.58005401447646
 21
11.24057492872391
 31
0.0
 12
-55.59605401447646
 22
11.24057492872391
 32
0.0
 13
-55.59605401447646
 23
11.24057492872391
 33
0.0
  0
SOLID
  5
E1
330
DD
100
AcDbEntity
  8
치수문자_일반주서
100
AcDbTrace
 10
-55.08805401447646
 20
-7.936425071276123
 30
0.0
 11
-55.59605401447646
 21
-11.23842507127612
 31
0.0
 12
-54.58005401447646
 22
-11.23842507127612
 32
0.0
 13
-54.58005401447646
 23
-11.23842507127612
 33
0.0
  0
LINE
  5
E2
330
DD
100
AcDbEntity
  8
치수문자_일반주서
100
AcDbLine
 10
-65.88093573051917
 20
-6.595745043212554
 30
0.0
 11
-65.88093573051917
 21
-7.306682528777054
 31
0.0
  0
LINE
  5
E3
330
DD
100
AcDbEntity
  8
치수문자_일반주서
100
AcDbLine
 10
-65.88093573051917
 20
-7.306682528777054
 30
0.0
 11
-60.32468573945987
 21
-7.306682528777015
 31
0.0
  0
LINE
  5
E4
330
DD
100
AcDbEntity
  8
치수문자_일반주서
100
AcDbLine
 10
-60.32468573945987
 20
-7.306682528777015
 30
0.0
 11
-60.32468573945987
 21
-6.595745043212514
 31
0.0
  0
LINE
  5
E5
330
DD
100
AcDbEntity
  8
치수문자_일반주서
100
AcDbLine
 10
-65.88093573051925
 20
4.232987818924705
 30
0.0
 11
-65.88093573051925
 21
4.943925304489205
 31
0.0
  0
LINE
  5
E6
330
DD
100
AcDbEntity
  8
치수문자_일반주서
100
AcDbLine
 10
-65.88093573051925
 20
4.943925304489205
 30
0.0
 11
-60.32468573945995
 21
4.943925304489244
 31
0.0
  0
LINE
  5
E7
330
DD
100
AcDbEntity
  8
치수문자_일반주서
100
AcDbLine
 10
-60.32468573945995
 20
4.943925304489244
 30
0.0
 11
-60.32468573945994
 21
4.232987818924744
 31
0.0
  0
LINE
  5
E8
330
DD
100
AcDbEntity
  8
치수문자_일반주서
100
AcDbLine
 10
-41.50055401447643
 20
7.938574928723908
 30
0.0
 11
-56.08805401447646
 21
7.938574928723906
 31
0.0
  0
LINE
  5
E9
330
DD
100
AcDbEntity
  8
치수문자_일반주서
100
AcDbLine
 10
-41.50055401447643
 20
-7.936425071276121
 30
0.0
 11
-56.08805401447646
 21
-7.936425071276123
 31
0.0
  0
LINE
  5
EA
330
DD
100
AcDbEntity
  8
치수문자_일반주서
100
AcDbLine
 10
-55.08805401447646
 20
7.938574928723906
 30
0.0
 11
-55.08805401447646
 21
14.28857492872391
 31
0.0
  0
LINE
  5
EB
330
DD
100
AcDbEntity
  8
치수문자_일반주서
100
AcDbLine
 10
-55.08805401447646
 20
7.938574928723906
 30
0.0
 11
-55.08805401447646
 21
-7.936425071276123
 31
0.0
  0
LINE
  5
EC
330
DD
100
AcDbEntity
  8
치수문자_일반주서
100
AcDbLine
 10
-55.08805401447646
 20
-7.936425071276123
 30
0.0
 11
-55.08805401447646
 21
-14.28642507127612
 31
0.0
  0
MTEXT
  5
ED
330
DD
100
AcDbEntity
  8
치수문자_일반주서
100
AcDbMText
 10
-64.83642265403878
 20
-5.707073142601175
 30
0.0
 40
3.5
 41
0.0
 71
     1
 72
     1
  1
0.63
  7
SLDTEXTSTYLE0
 11
-7.044195017643634E-15
 21
1.0
 31
0.0
 73
     1
 44
1.0
  0
MTEXT
  5
EE
330
DD
100
AcDbEntity
  8
치수문자_일반주서
100
AcDbMText
 10
-59.59979110367827
 20
-9.639347554964907
 30
0.0
 40
3.5
 41
0.0
 71
     1
 72
     1
  1
%%c
  7
SLDTEXTSTYLE0
 11
-7.044195017643634E-15
 21
1.0
 31
0.0
 73
     1
 44
1.0
  0
MTEXT
  5
EF
330
DD
100
AcDbEntity
  8
치수문자_일반주서
100
AcDbMText
 10
-59.59979110367831
 20
-4.360910156590827
 30
0.0
 40
3.5
 41
0.0
 71
     1
 72
     1
  1
15.88
  7
SLDTEXTSTYLE0
 11
-7.044195017643634E-15
 21
1.0
 31
0.0
 73
     1
 44
1.0
  0
ENDBLK
  5
DF
330
DD
100
AcDbEntity
  8
0
100
AcDbBlockEnd
  0
BLOCK
  5
F3
330
F2
100
AcDbEntity
  8
0
100
AcDbBlockBegin
  2
_D_2
 70
     0
 10
0.0
 20
0.0
 30
0.0
  3
_D_2
  1
_D_2
  0
SOLID
  5
F5
330
F2
100
AcDbEntity
  8
치수문자_일반주서
100
AcDbTrace
 10
78.91194598552357
 20
22.70945704078098
 30
0.0
 11
75.60994598552358
 21
23.21745704078098
 31
0.0
 12
75.60994598552358
 22
22.20145704078098
 32
0.0
 13
75.60994598552358
 23
22.20145704078098
 33
0.0
  0
SOLID
  5
F6
330
F2
100
AcDbEntity
  8
치수문자_일반주서
100
AcDbTrace
 10
33.91194598552359
 20
22.70945704078098
 30
0.0
 11
37.21394598552359
 21
22.20145704078098
 31
0.0
 12
37.21394598552359
 22
23.21745704078098
 32
0.0
 13
37.21394598552359
 23
23.21745704078098
 33
0.0
  0
LINE
  5
F7
330
F2
100
AcDbEntity
  8
치수문자_일반주서
100
AcDbLine
 10
50.99757990370087
 20
33.5023387568237
 30
0.0
 11
50.28664241813637
 21
33.50233875682371
 31
0.0
  0
LINE
  5
F8
330
F2
100
AcDbEntity
  8
치수문자_일반주서
100
AcDbLine
 10
50.28664241813637
 20
33.50233875682371
 30
0.0
 11
50.28664241813632
 21
27.94608876576441
 31
0.0
  0
LINE
  5
F9
330
F2
100
AcDbEntity
  8
치수문자_일반주서
100
AcDbLine
 10
50.28664241813632
 20
27.94608876576441
 30
0.0
 11
50.99757990370082
 21
27.9460887657644
 31
0.0
  0
LINE
  5
FA
330
F2
100
AcDbEntity
  8
치수문자_일반주서
100
AcDbLine
 10
61.82631276583813
 20
33.50233875682363
 30
0.0
 11
62.53725025140263
 21
33.50233875682363
 31
0.0
  0
LINE
  5
FB
330
F2
100
AcDbEntity
  8
치수문자_일반주서
100
AcDbLine
 10
62.53725025140263
 20
33.50233875682363
 30
0.0
 11
62.53725025140258
 21
27.94608876576432
 31
0.0
  0
LINE
  5
FC
330
F2
100
AcDbEntity
  8
치수문자_일반주서
100
AcDbLine
 10
62.53725025140258
 20
27.94608876576432
 30
0.0
 11
61.82631276583808
 21
27.94608876576432
 31
0.0
  0
LINE
  5
FD
330
F2
100
AcDbEntity
  8
치수문자_일반주서
100
AcDbLine
 10
78.91194598552357
 20
13.41913328825097
 30
0.0
 11
78.91194598552357
 21
23.70945704078098
 31
0.0
  0
LINE
  5
FE
330
F2
100
AcDbEntity
  8
치수문자_일반주서
100
AcDbLine
 10
33.91194598552359
 20
13.43021557357927
 30
0.0
 11
33.91194598552359
 21
23.70945704078098
 31
0.0
  0
LINE
  5
FF
330
F2
100
AcDbEntity
  8
치수문자_일반주서
100
AcDbLine
 10
78.91194598552357
 20
22.70945704078098
 30
0.0
 11
33.91194598552359
 21
22.70945704078098
 31
0.0
  0
MTEXT
  5
100
330
F2
100
AcDbEntity
  8
치수문자_일반주서
100
AcDbMText
 10
49.77288369264962
 20
27.2746663066427
 30
0.0
 40
3.5
 41
0.0
 71
     1
 72
     1
  1

  7
SLDTEXTSTYLE0
 73
     1
 44
1.0
  0
MTEXT
  5
101
330
F2
100
AcDbEntity
  8
치수문자_일반주서
100
AcDbMText
 10
51.88625180431223
 20
32.4578256803433
 30
0.0
 40
3.5
 41
0.0
 71
     1
 72
     1
  1
1.77
  7
SLDTEXTSTYLE0
 73
     1
 44
1.0
  0
MTEXT
  5
102
330
F2
100
AcDbEntity
  8
치수문자_일반주서
100
AcDbMText
 10
53.82583514124664
 20
27.22119412998281
 30
0.0
 40
3.5
 41
0.0
 71
     1
 72
     1
  1
45
  7
SLDTEXTSTYLE0
 73
     1
 44
1.0
  0
MTEXT
  5
103
330
F2
100
AcDbEntity
  8
치수문자_일반주서
100
AcDbMText
 10
64.3829534965432
 20
27.27466630664259
 30
0.0
 40
3.5
 41
0.0
 71
     1
 72
     1
  1

  7
SLDTEXTSTYLE0
 73
     1
 44
1.0
  0
ENDBLK
  5
F4
330
F2
100
AcDbEntity
  8
0
100
AcDbBlockEnd
  0
BLOCK
  5
106
330
105
100
AcDbEntity
  8
0
100
AcDbBlockBegin
  2
_D_3
 70
     0
 10
0.0
 20
0.0
 30
0.0
  3
_D_3
  1
_D_3
  0
SOLID
  5
108
330
105
100
AcDbEntity
  8
치수문자_일반주서
100
AcDbTrace
 10
78.91194598552357
 20
38.36394344956528
 30
0.0
 11
75.60994598552358
 21
38.87194344956529
 31
0.0
 12
75.60994598552358
 22
37.85594344956528
 32
0.0
 13
75.60994598552358
 23
37.85594344956528
 33
0.0
  0
SOLID
  5
109
330
105
100
AcDbEntity
  8
치수문자_일반주서
100
AcDbTrace
 10
-42.08805401447642
 20
38.36394344956528
 30
0.0
 11
-38.78605401447642
 21
37.85594344956527
 31
0.0
 12
-38.78605401447642
 22
38.87194344956528
 32
0.0
 13
-38.78605401447642
 23
38.87194344956528
 33
0.0
  0
LINE
  5
10A
330
105
100
AcDbEntity
  8
치수문자_일반주서
100
AcDbLine
 10
14.47912979228456
 20
49.15682516560803
 30
0.0
 11
13.76819230672006
 21
49.15682516560804
 31
0.0
  0
LINE
  5
10B
330
105
100
AcDbEntity
  8
치수문자_일반주서
100
AcDbLine
 10
13.76819230672006
 20
49.15682516560804
 30
0.0
 11
13.76819230672002
 21
43.60057517454874
 31
0.0
  0
LINE
  5
10C
330
105
100
AcDbEntity
  8
치수문자_일반주서
100
AcDbLine
 10
13.76819230672002
 20
43.60057517454874
 30
0.0
 11
14.47912979228452
 21
43.60057517454873
 31
0.0
  0
LINE
  5
10D
330
105
100
AcDbEntity
  8
치수문자_일반주서
100
AcDbLine
 10
25.30786265442182
 20
49.15682516560796
 30
0.0
 11
26.01880013998632
 21
49.15682516560796
 31
0.0
  0
LINE
  5
10E
330
105
100
AcDbEntity
  8
치수문자_일반주서
100
AcDbLine
 10
26.01880013998632
 20
49.15682516560796
 30
0.0
 11
26.01880013998629
 21
43.60057517454865
 31
0.0
  0
LINE
  5
10F
330
105
100
AcDbEntity
  8
치수문자_일반주서
100
AcDbLine
 10
26.01880013998629
 20
43.60057517454865
 30
0.0
 11
25.30786265442179
 21
43.60057517454866
 31
0.0
  0
LINE
  5
110
330
105
100
AcDbEntity
  8
치수문자_일반주서
100
AcDbLine
 10
78.91194598552357
 20
13.21639659633511
 30
0.0
 11
78.91194598552357
 21
39.36394344956528
 31
0.0
  0
LINE
  5
111
330
105
100
AcDbEntity
  8
치수문자_일반주서
100
AcDbLine
 10
-42.08805401447642
 20
7.351074928723897
 30
0.0
 11
-42.08805401447642
 21
39.36394344956528
 31
0.0
  0
LINE
  5
112
330
105
100
AcDbEntity
  8
치수문자_일반주서
100
AcDbLine
 10
78.91194598552357
 20
38.36394344956528
 30
0.0
 11
-42.08805401447642
 21
38.36394344956528
 31
0.0
  0
MTEXT
  5
113
330
105
100
AcDbEntity
  8
치수문자_일반주서
100
AcDbMText
 10
13.25443358123332
 20
42.92915271542702
 30
0.0
 40
3.5
 41
0.0
 71
     1
 72
     1
  1

  7
SLDTEXTSTYLE0
 73
     1
 44
1.0
  0
MTEXT
  5
114
330
105
100
AcDbEntity
  8
치수문자_일반주서
100
AcDbMText
 10
15.36780169289593
 20
48.11231208912763
 30
0.0
 40
3.5
 41
0.0
 71
     1
 72
     1
  1
4.76
  7
SLDTEXTSTYLE0
 73
     1
 44
1.0
  0
MTEXT
  5
115
330
105
100
AcDbEntity
  8
치수문자_일반주서
100
AcDbMText
 10
16.01432954948426
 20
42.87568053876715
 30
0.0
 40
3.5
 41
0.0
 71
     1
 72
     1
  1
121
  7
SLDTEXTSTYLE0
 73
     1
 44
1.0
  0
MTEXT
  5
116
330
105
100
AcDbEntity
  8
치수문자_일반주서
100
AcDbMText
 10
27.86450338512689
 20
42.92915271542692
 30
0.0
 40
3.5
 41
0.0
 71
     1
 72
     1
  1

  7
SLDTEXTSTYLE0
 73
     1
 44
1.0
  0
ENDBLK
  5
107
330
105
100
AcDbEntity
  8
0
100
AcDbBlockEnd
  0
BLOCK
  5
11F
330
11E
100
AcDbEntity
  8
0
100
AcDbBlockBegin
  2
SW_DOWELSYMBOL_0
 70
     0
 10
0.0
 20
0.0
 30
0.0
  3
SW_DOWELSYMBOL_0
  1
SW_DOWELSYMBOL_0
  0
CIRCLE
  5
121
330
11E
100
AcDbEntity
  8
해칭선
 62
     0
100
AcDbCircle
 10
0.0
 20
0.0
 30
0.0
 40
3.000000000000001
  0
HATCH
  5
122
330
11E
100
AcDbEntity
  8
0
  6
Continuous
 62
     0
370
     0
100
AcDbHatch
 10
0.0
 20
0.0
 30
0.0
210
0.0
220
0.0
230
1.0
  2
SOLID
 70
     1
 71
     0
 91
        1
 92
        0
 93
        3
 72
     2
 10
0.0
 20
0.0
 40
3.000000000000001
 50
0.0
 51
90.0
 73
     1
 72
     1
 10
0.0
 20
3.000000000000001
 11
0.0
 21
0.0
 72
     1
 10
0.0
 20
0.0
 11
3.000000000000001
 21
0.0
 97
        0
 75
     0
 76
     1
 98
        1
 10
0.0
 20
0.0
  0
HATCH
  5
123
330
11E
100
AcDbEntity
  8
0
  6
Continuous
 62
     0
370
     0
100
AcDbHatch
 10
0.0
 20
0.0
 30
0.0
210
0.0
220
0.0
230
1.0
  2
SOLID
 70
     1
 71
     0
 91
        1
 92
        0
 93
        3
 72
     2
 10
0.0
 20
0.0
 40
3.000000000000001
 50
180.0
 51
270.0000000000007
 73
     1
 72
     1
 10
0.0
 20
-3.000000000000001
 11
0.0
 21
0.0
 72
     1
 10
0.0
 20
0.0
 11
-3.000000000000001
 21
0.0
 97
        0
 75
     0
 76
     1
 98
        1
 10
0.0
 20
0.0
  0
ENDBLK
  5
120
330
11E
100
AcDbEntity
  8
0
100
AcDbBlockEnd
  0
BLOCK
  5
1FF
330
1FE
100
AcDbEntity
  8
0
100
AcDbBlockBegin
  2
*D7
 70
     1
 10
0.0
 20
0.0
 30
0.0
  3
*D7
  1
*D8
  0
LINE
  5
201
330
1FE
100
AcDbEntity
  8
치수문자_일반주서
 62
     0
370
    -2
100
AcDbLine
 10
16.67750000000006
 20
28.82899999999996
 30
0.0
 11
4.375000000000004
 21
28.82899999999991
 31
0.0
  0
LINE
  5
202
330
1FE
100
AcDbEntity
  8
치수문자_일반주서
 62
     0
370
    -2
100
AcDbLine
 10
18.90000000000005
 20
6.603999999999971
 30
0.0
 11
4.375000000000082
 21
6.603999999999916
 31
0.0
  0
LINE
  5
203
330
1FE
100
AcDbEntity
  8
치수문자_일반주서
 62
     0
370
    -2
100
AcDbLine
 10
4.375000000000016
 20
25.52699999999991
 30
0.0
 11
4.37500000000007
 21
9.905999999999915
 31
0.0
  0
SOLID
  5
204
330
1FE
100
AcDbEntity
  8
치수문자_일반주서
 62
     0
100
AcDbTrace
 10
4.92533333333335
 20
25.52699999999992
 30
0.0
 11
3.824666666666683
 21
25.52699999999991
 31
0.0
 12
4.375000000000004
 22
28.82899999999991
 32
0.0
 13
4.375000000000004
 23
28.82899999999991
 33
0.0
  0
SOLID
  5
205
330
1FE
100
AcDbEntity
  8
치수문자_일반주서
 62
     0
100
AcDbTrace
 10
3.824666666666737
 20
9.905999999999914
 30
0.0
 11
4.925333333333404
 21
9.905999999999917
 31
0.0
 12
4.375000000000082
 22
6.603999999999916
 32
0.0
 13
4.375000000000082
 23
6.603999999999916
 33
0.0
  0
MTEXT
  5
206
330
1FE
100
AcDbEntity
  8
치수문자_일반주서
 62
     0
100
AcDbMText
 10
0.0000000000000426
 20
17.71649999999995
 30
0.0
 40
3.5
 41
0.0
 71
     2
 72
     1
  1
\A1;%%c22.23 [7/8]
  7
SLDTEXTSTYLE0
 11
-3.476783915136599E-15
 21
1.0
 31
0.0
 73
     1
 44
1.0
  0
POINT
  5
207
330
1FE
100
AcDbEntity
  8
Defpoints
 62
     0
100
AcDbPoint
 10
16.74000000000006
 20
28.82899999999996
 30
0.0
  0
POINT
  5
208
330
1FE
100
AcDbEntity
  8
Defpoints
 62
     0
100
AcDbPoint
 10
18.96250000000005
 20
6.603999999999971
 30
0.0
  0
POINT
  5
209
330
1FE
100
AcDbEntity
  8
Defpoints
 62
     0
100
AcDbPoint
 10
4.375000000000085
 20
6.603999999999917
 30
0.0
  0
ENDBLK
  5
200
330
1FE
100
AcDbEntity
  8
0
100
AcDbBlockEnd
  0
BLOCK
  5
20B
330
20A
100
AcDbEntity
  8
0
100
AcDbBlockBegin
  2
*D8
 70
     1
 10
0.0
 20
0.0
 30
0.0
  3
*D8
  1
*D9
  0
LINE
  5
20D
330
20A
100
AcDbEntity
  8
치수문자_일반주서
 62
     0
370
    -2
100
AcDbLine
 10
121.5150000000001
 20
28.89149999999997
 30
0.0
 11
121.5150000000001
 21
51.2878936375152
 31
0.0
  0
LINE
  5
20E
330
20A
100
AcDbEntity
  8
치수문자_일반주서
 62
     0
370
    -2
100
AcDbLine
 10
73.89000000000009
 20
28.88831448605396
 30
0.0
 11
73.89000000000009
 21
51.2878936375152
 31
0.0
  0
LINE
  5
20F
330
20A
100
AcDbEntity
  8
치수문자_일반주서
 62
     0
370
    -2
100
AcDbLine
 10
118.2130000000001
 20
51.2878936375152
 30
0.0
 11
77.19200000000009
 21
51.2878936375152
 31
0.0
  0
SOLID
  5
210
330
20A
100
AcDbEntity
  8
치수문자_일반주서
 62
     0
100
AcDbTrace
 10
118.2130000000001
 20
50.73756030418186
 30
0.0
 11
118.2130000000001
 21
51.83822697084853
 31
0.0
 12
121.5150000000001
 22
51.2878936375152
 32
0.0
 13
121.5150000000001
 23
51.2878936375152
 33
0.0
  0
SOLID
  5
211
330
20A
100
AcDbEntity
  8
치수문자_일반주서
 62
     0
100
AcDbTrace
 10
77.19200000000009
 20
51.83822697084853
 30
0.0
 11
77.19200000000009
 21
50.73756030418186
 31
0.0
 12
73.89000000000009
 22
51.2878936375152
 32
0.0
 13
73.89000000000009
 23
51.2878936375152
 33
0.0
  0
MTEXT
  5
212
330
20A
100
AcDbEntity
  8
치수문자_일반주서
 62
     0
100
AcDbMText
 10
97.70250000000007
 20
55.6628936375152
 30
0.0
 40
3.5
 41
0.0
 71
     2
 72
     1
  1
\A1;47.63 [1 7/8]
  7
SLDTEXTSTYLE0
 73
     1
 44
1.0
  0
POINT
  5
213
330
20A
100
AcDbEntity
  8
Defpoints
 62
     0
100
AcDbPoint
 10
121.5150000000001
 20
28.82899999999997
 30
0.0
  0
POINT
  5
214
330
20A
100
AcDbEntity
  8
Defpoints
 62
     0
100
AcDbPoint
 10
73.89000000000009
 20
28.82581448605396
 30
0.0
  0
POINT
  5
215
330
20A
100
AcDbEntity
  8
Defpoints
 62
     0
100
AcDbPoint
 10
73.89000000000009
 20
51.2878936375152
 30
0.0
  0
ENDBLK
  5
20C
330
20A
100
AcDbEntity
  8
0
100
AcDbBlockEnd
  0
BLOCK
  5
217
330
216
100
AcDbEntity
  8
0
100
AcDbBlockBegin
  2
*D9
 70
     1
 10
0.0
 20
0.0
 30
0.0
  3
*D9
  1
*D10
  0
LINE
  5
219
330
216
100
AcDbEntity
  8
치수문자_일반주서
 62
     0
370
    -2
100
AcDbLine
 10
121.5150000000001
 20
28.89149999999997
 30
0.0
 11
121.5150000000001
 21
63.28789363751519
 31
0.0
  0
LINE
  5
21A
330
216
100
AcDbEntity
  8
치수문자_일반주서
 62
     0
370
    -2
100
AcDbLine
 10
16.74000000000006
 20
26.66899999999998
 30
0.0
 11
16.74000000000006
 21
63.28789363751519
 31
0.0
  0
LINE
  5
21B
330
216
100
AcDbEntity
  8
치수문자_일반주서
 62
     0
370
    -2
100
AcDbLine
 10
118.2130000000001
 20
63.28789363751519
 30
0.0
 11
20.04200000000006
 21
63.28789363751519
 31
0.0
  0
SOLID
  5
21C
330
216
100
AcDbEntity
  8
치수문자_일반주서
 62
     0
100
AcDbTrace
 10
118.2130000000001
 20
62.73756030418186
 30
0.0
 11
118.2130000000001
 21
63.83822697084852
 31
0.0
 12
121.5150000000001
 22
63.28789363751519
 32
0.0
 13
121.5150000000001
 23
63.28789363751519
 33
0.0
  0
SOLID
  5
21D
330
216
100
AcDbEntity
  8
치수문자_일반주서
 62
     0
100
AcDbTrace
 10
20.04200000000006
 20
63.83822697084852
 30
0.0
 11
20.04200000000006
 21
62.73756030418186
 31
0.0
 12
16.74000000000006
 22
63.28789363751519
 32
0.0
 13
16.74000000000006
 23
63.28789363751519
 33
0.0
  0
MTEXT
  5
21E
330
216
100
AcDbEntity
  8
치수문자_일반주서
 62
     0
100
AcDbMText
 10
69.12750000000007
 20
67.6628936375152
 30
0.0
 40
3.5
 41
0.0
 71
     2
 72
     1
  1
\A1;104.78 [4 1/8]
  7
SLDTEXTSTYLE0
 73
     1
 44
1.0
  0
POINT
  5
21F
330
216
100
AcDbEntity
  8
Defpoints
 62
     0
100
AcDbPoint
 10
121.5150000000001
 20
28.82899999999997
 30
0.0
  0
POINT
  5
220
330
216
100
AcDbEntity
  8
Defpoints
 62
     0
100
AcDbPoint
 10
16.74000000000006
 20
26.60649999999998
 30
0.0
  0
POINT
  5
221
330
216
100
AcDbEntity
  8
Defpoints
 62
     0
100
AcDbPoint
 10
16.74000000000006
 20
63.28789363751519
 30
0.0
  0
ENDBLK
  5
218
330
216
100
AcDbEntity
  8
0
100
AcDbBlockEnd
  0
BLOCK
  5
223
330
222
100
AcDbEntity
  8
0
100
AcDbBlockBegin
  2
*D10
 70
     1
 10
0.0
 20
0.0
 30
0.0
  3
*D10
  1
*D11
  0
LINE
  5
225
330
222
100
AcDbEntity
  8
치수문자_일반주서
 62
     0
370
    -2
100
AcDbLine
 10
121.5775000000001
 20
28.82899999999997
 30
0.0
 11
130.9428576077767
 21
28.82900000000001
 31
0.0
  0
LINE
  5
226
330
222
100
AcDbEntity
  8
치수문자_일반주서
 62
     0
370
    -2
100
AcDbLine
 10
121.5775000000001
 20
6.603999999999964
 30
0.0
 11
130.9428576077768
 21
6.603999999999999
 31
0.0
  0
LINE
  5
227
330
222
100
AcDbEntity
  8
치수문자_일반주서
 62
     0
370
    -2
100
AcDbLine
 10
130.9428576077767
 20
28.82900000000001
 30
0.0
 11
130.9428576077765
 21
64.308
 31
0.0
  0
LINE
  5
228
330
222
100
AcDbEntity
  8
치수문자_일반주서
 62
     0
370
    -2
100
AcDbLine
 10
130.9428576077767
 20
28.82900000000001
 30
0.0
 11
130.9428576077768
 21
6.603999999999999
 31
0.0
  0
LINE
  5
229
330
222
100
AcDbEntity
  8
치수문자_일반주서
 62
     0
370
    -2
100
AcDbLine
 10
130.9428576077767
 20
32.13100000000001
 30
0.0
 11
130.9428576077767
 21
35.43300000000001
 31
0.0
  0
LINE
  5
22A
330
222
100
AcDbEntity
  8
치수문자_일반주서
 62
     0
370
    -2
100
AcDbLine
 10
130.9428576077768
 20
3.302
 30
0.0
 11
130.9428576077768
 21
0.0
 31
0.0
  0
SOLID
  5
22B
330
222
100
AcDbEntity
  8
치수문자_일반주서
 62
     0
100
AcDbTrace
 10
130.3925242744434
 20
32.13100000000001
 30
0.0
 11
131.49319094111
 21
32.13100000000001
 31
0.0
 12
130.9428576077767
 22
28.82900000000001
 32
0.0
 13
130.9428576077767
 23
28.82900000000001
 33
0.0
  0
SOLID
  5
22C
330
222
100
AcDbEntity
  8
치수문자_일반주서
 62
     0
100
AcDbTrace
 10
131.4931909411101
 20
3.302000000000002
 30
0.0
 11
130.3925242744434
 21
3.301999999999997
 31
0.0
 12
130.9428576077768
 22
6.603999999999999
 32
0.0
 13
130.9428576077768
 23
6.603999999999999
 33
0.0
  0
MTEXT
  5
22D
330
222
100
AcDbEntity
  8
치수문자_일반주서
 62
     0
100
AcDbMText
 10
126.5678576077766
 20
49.87049999999999
 30
0.0
 40
3.5
 41
0.0
 71
     2
 72
     1
  1
\A1;%%c22.23 [7/8]
  7
SLDTEXTSTYLE0
 11
-3.836451216702452E-15
 21
1.0
 31
0.0
 73
     1
 44
1.0
  0
POINT
  5
22E
330
222
100
AcDbEntity
  8
Defpoints
 62
     0
100
AcDbPoint
 10
121.5150000000001
 20
28.82899999999997
 30
0.0
  0
POINT
  5
22F
330
222
100
AcDbEntity
  8
Defpoints
 62
     0
100
AcDbPoint
 10
121.5150000000001
 20
6.603999999999964
 30
0.0
  0
POINT
  5
230
330
222
100
AcDbEntity
  8
Defpoints
 62
     0
100
AcDbPoint
 10
130.9428576077767
 20
6.603999999999999
 30
0.0
  0
ENDBLK
  5
224
330
222
100
AcDbEntity
  8
0
100
AcDbBlockEnd
  0
BLOCK
  5
281
330
280
100
AcDbEntity
  8
0
100
AcDbBlockBegin
  2
*D11
 70
     1
 10
0.0
 20
0.0
 30
0.0
  3
*D11
  1
*D12
  0
LINE
  5
283
330
280
100
AcDbEntity
  8
치수문자_일반주서
 62
     0
370
    -2
100
AcDbLine
 10
124.3365890290959
 20
-16.3015837251091
 30
0.0
 11
112.0340890290958
 21
-16.30158372510914
 31
0.0
  0
LINE
  5
284
330
280
100
AcDbEntity
  8
치수문자_일반주서
 62
     0
370
    -2
100
AcDbLine
 10
126.5590890290959
 20
-38.52658372510908
 30
0.0
 11
112.0340890290959
 21
-38.52658372510914
 31
0.0
  0
LINE
  5
285
330
280
100
AcDbEntity
  8
치수문자_일반주서
 62
     0
370
    -2
100
AcDbLine
 10
112.0340890290958
 20
-19.60358372510914
 30
0.0
 11
112.0340890290959
 21
-35.22458372510914
 31
0.0
  0
SOLID
  5
286
330
280
100
AcDbEntity
  8
치수문자_일반주서
 62
     0
100
AcDbTrace
 10
112.5844223624292
 20
-19.60358372510914
 30
0.0
 11
111.4837556957625
 21
-19.60358372510914
 31
0.0
 12
112.0340890290958
 22
-16.30158372510914
 32
0.0
 13
112.0340890290958
 23
-16.30158372510914
 33
0.0
  0
SOLID
  5
287
330
280
100
AcDbEntity
  8
치수문자_일반주서
 62
     0
100
AcDbTrace
 10
111.4837556957626
 20
-35.22458372510914
 30
0.0
 11
112.5844223624292
 21
-35.22458372510914
 31
0.0
 12
112.0340890290959
 22
-38.52658372510914
 32
0.0
 13
112.0340890290959
 23
-38.52658372510914
 33
0.0
  0
MTEXT
  5
288
330
280
100
AcDbEntity
  8
치수문자_일반주서
 62
     0
100
AcDbMText
 10
107.6590890290959
 20
-27.4140837251091
 30
0.0
 40
3.5
 41
0.0
 71
     2
 72
     1
  1
\A1;%%c22.23 [7/8]
  7
SLDTEXTSTYLE0
 11
-3.197042680585378E-15
 21
1.0
 31
0.0
 73
     1
 44
1.0
  0
POINT
  5
289
330
280
100
AcDbEntity
  8
Defpoints
 62
     0
100
AcDbPoint
 10
124.3990890290959
 20
-16.3015837251091
 30
0.0
  0
POINT
  5
28A
330
280
100
AcDbEntity
  8
Defpoints
 62
     0
100
AcDbPoint
 10
126.6215890290959
 20
-38.52658372510908
 30
0.0
  0
POINT
  5
28B
330
280
100
AcDbEntity
  8
Defpoints
 62
     0
100
AcDbPoint
 10
112.0340890290959
 20
-38.52658372510914
 30
0.0
  0
ENDBLK
  5
282
330
280
100
AcDbEntity
  8
0
100
AcDbBlockEnd
  0
BLOCK
  5
28D
330
28C
100
AcDbEntity
  8
0
100
AcDbBlockBegin
  2
*D12
 70
     1
 10
0.0
 20
0.0
 30
0.0
  3
*D12
  1
*D13
  0
LINE
  5
28F
330
28C
100
AcDbEntity
  8
치수문자_일반주서
 62
     0
370
    -2
100
AcDbLine
 10
52.80000000888651
 20
14.35069785795006
 30
0.0
 11
52.80000000888651
 21
43.16391825545789
 31
0.0
  0
LINE
  5
290
330
28C
100
AcDbEntity
  8
치수문자_일반주서
 62
     0
370
    -2
100
AcDbLine
 10
2.000000008886531
 20
13.74455633074431
 30
0.0
 11
2.000000008886531
 21
43.16391825545789
 31
0.0
  0
LINE
  5
291
330
28C
100
AcDbEntity
  8
치수문자_일반주서
 62
     0
370
    -2
100
AcDbLine
 10
49.49800000888651
 20
43.16391825545789
 30
0.0
 11
5.30200000888653
 21
43.16391825545789
 31
0.0
  0
SOLID
  5
292
330
28C
100
AcDbEntity
  8
치수문자_일반주서
 62
     0
100
AcDbTrace
 10
49.49800000888651
 20
42.61358492212455
 30
0.0
 11
49.49800000888651
 21
43.71425158879122
 31
0.0
 12
52.80000000888651
 22
43.16391825545789
 32
0.0
 13
52.80000000888651
 23
43.16391825545789
 33
0.0
  0
SOLID
  5
293
330
28C
100
AcDbEntity
  8
치수문자_일반주서
 62
     0
100
AcDbTrace
 10
5.30200000888653
 20
43.71425158879122
 30
0.0
 11
5.30200000888653
 21
42.61358492212455
 31
0.0
 12
2.000000008886531
 22
43.16391825545789
 32
0.0
 13
2.000000008886531
 23
43.16391825545789
 33
0.0
  0
MTEXT
  5
294
330
28C
100
AcDbEntity
  8
치수문자_일반주서
 62
     0
100
AcDbMText
 10
28.7136636267071
 20
47.53891825545789
 30
0.0
 40
3.5
 41
0.0
 71
     2
 72
     1
  1
\A1;50.8 [2]
  7
SLDTEXTSTYLE0
 73
     1
 44
1.0
  0
POINT
  5
295
330
28C
100
AcDbEntity
  8
Defpoints
 62
     0
100
AcDbPoint
 10
52.80000000888651
 20
14.28819785795006
 30
0.0
  0
POINT
  5
296
330
28C
100
AcDbEntity
  8
Defpoints
 62
     0
100
AcDbPoint
 10
2.000000008886531
 20
13.68205633074431
 30
0.0
  0
POINT
  5
297
330
28C
100
AcDbEntity
  8
Defpoints
 62
     0
100
AcDbPoint
 10
2.000000008886531
 20
43.16391825545789
 30
0.0
  0
ENDBLK
  5
28E
330
28C
100
AcDbEntity
  8
0
100
AcDbBlockEnd
  0
BLOCK
  5
299
330
298
100
AcDbEntity
  8
0
100
AcDbBlockBegin
  2
*D13
 70
     1
 10
0.0
 20
0.0
 30
0.0
  3
*D13
  1
*D14
  0
LINE
  5
29B
330
298
100
AcDbEntity
  8
치수문자_일반주서
 62
     0
370
    -2
100
AcDbLine
 10
52.80000000888651
 20
14.35069785795006
 30
0.0
 11
52.80000000888651
 21
58.59248968745787
 31
0.0
  0
LINE
  5
29C
330
298
100
AcDbEntity
  8
치수문자_일반주서
 62
     0
370
    -2
100
AcDbLine
 10
-55.14999999111348
 20
8.953197854775205
 30
0.0
 11
-55.14999999111348
 21
58.59248968745787
 31
0.0
  0
LINE
  5
29D
330
298
100
AcDbEntity
  8
치수문자_일반주서
 62
     0
370
    -2
100
AcDbLine
 10
49.49800000888651
 20
58.59248968745787
 30
0.0
 11
-51.84799999111348
 21
58.59248968745787
 31
0.0
  0
SOLID
  5
29E
330
298
100
AcDbEntity
  8
치수문자_일반주서
 62
     0
100
AcDbTrace
 10
49.49800000888651
 20
58.04215635412454
 30
0.0
 11
49.49800000888651
 21
59.14282302079121
 31
0.0
 12
52.80000000888651
 22
58.59248968745787
 32
0.0
 13
52.80000000888651
 23
58.59248968745787
 33
0.0
  0
SOLID
  5
29F
330
298
100
AcDbEntity
  8
치수문자_일반주서
 62
     0
100
AcDbTrace
 10
-51.84799999111348
 20
59.14282302079121
 30
0.0
 11
-51.84799999111348
 21
58.04215635412454
 31
0.0
 12
-55.14999999111348
 22
58.59248968745787
 32
0.0
 13
-55.14999999111348
 23
58.59248968745787
 33
0.0
  0
MTEXT
  5
2A0
330
298
100
AcDbEntity
  8
치수문자_일반주서
 62
     0
100
AcDbMText
 10
-1.174999991113481
 20
62.96748968745787
 30
0.0
 40
3.5
 41
0.0
 71
     2
 72
     1
  1
\A1;107.95 [4 1/4]
  7
SLDTEXTSTYLE0
 73
     1
 44
1.0
  0
POINT
  5
2A1
330
298
100
AcDbEntity
  8
Defpoints
 62
     0
100
AcDbPoint
 10
52.80000000888651
 20
14.28819785795006
 30
0.0
  0
POINT
  5
2A2
330
298
100
AcDbEntity
  8
Defpoints
 62
     0
100
AcDbPoint
 10
-55.14999999111348
 20
8.890697854775205
 30
0.0
  0
POINT
  5
2A3
330
298
100
AcDbEntity
  8
Defpoints
 62
     0
100
AcDbPoint
 10
-55.14999999111348
 20
58.59248968745787
 30
0.0
  0
ENDBLK
  5
29A
330
298
100
AcDbEntity
  8
0
100
AcDbBlockEnd
  0
BLOCK
  5
2A5
330
2A4
100
AcDbEntity
  8
0
100
AcDbBlockBegin
  2
*D14
 70
     1
 10
0.0
 20
0.0
 30
0.0
  3
*D14
  1
*D15
  0
LINE
  5
2A7
330
2A4
100
AcDbEntity
  8
치수문자_일반주서
 62
     0
370
    -2
100
AcDbLine
 10
52.86250000888651
 20
14.28819785795006
 30
0.0
 11
64.92153122157866
 21
14.28819785795011
 31
0.0
  0
LINE
  5
2A8
330
2A4
100
AcDbEntity
  8
치수문자_일반주서
 62
     0
370
    -2
100
AcDbLine
 10
52.86250000888651
 20
-14.28680214839995
 30
0.0
 11
64.92153122157876
 21
-14.2868021483999
 31
0.0
  0
LINE
  5
2A9
330
2A4
100
AcDbEntity
  8
치수문자_일반주서
 62
     0
370
    -2
100
AcDbLine
 10
64.92153122157866
 20
14.28819785795011
 30
0.0
 11
64.9215312215785
 21
57.5290550068191
 31
0.0
  0
LINE
  5
2AA
330
2A4
100
AcDbEntity
  8
치수문자_일반주서
 62
     0
370
    -2
100
AcDbLine
 10
64.92153122157866
 20
14.28819785795011
 30
0.0
 11
64.92153122157876
 21
-14.2868021483999
 31
0.0
  0
LINE
  5
2AB
330
2A4
100
AcDbEntity
  8
치수문자_일반주서
 62
     0
370
    -2
100
AcDbLine
 10
64.92153122157865
 20
17.59019785795011
 30
0.0
 11
64.92153122157863
 21
20.89219785795011
 31
0.0
  0
LINE
  5
2AC
330
2A4
100
AcDbEntity
  8
치수문자_일반주서
 62
     0
370
    -2
100
AcDbLine
 10
64.92153122157877
 20
-17.5888021483999
 30
0.0
 11
64.92153122157879
 21
-20.8908021483999
 31
0.0
  0
SOLID
  5
2AD
330
2A4
100
AcDbEntity
  8
치수문자_일반주서
 62
     0
100
AcDbTrace
 10
64.37119788824532
 20
17.59019785795011
 30
0.0
 11
65.47186455491197
 21
17.59019785795011
 31
0.0
 12
64.92153122157866
 22
14.28819785795011
 32
0.0
 13
64.92153122157866
 23
14.28819785795011
 33
0.0
  0
SOLID
  5
2AE
330
2A4
100
AcDbEntity
  8
치수문자_일반주서
 62
     0
100
AcDbTrace
 10
65.4718645549121
 20
-17.5888021483999
 30
0.0
 11
64.37119788824545
 21
-17.5888021483999
 31
0.0
 12
64.92153122157876
 22
-14.2868021483999
 32
0.0
 13
64.92153122157876
 23
-14.2868021483999
 33
0.0
  0
MTEXT
  5
2AF
330
2A4
100
AcDbEntity
  8
치수문자_일반주서
 62
     0
100
AcDbMText
 10
60.54653122157856
 20
41.34155500681909
 30
0.0
 40
3.5
 41
0.0
 71
     2
 72
     1
  1
\A1;%%c28.58 [1 1/8]
  7
SLDTEXTSTYLE0
 11
-3.481224251419360E-15
 21
1.0
 31
0.0
 73
     1
 44
1.0
  0
POINT
  5
2B0
330
2A4
100
AcDbEntity
  8
Defpoints
 62
     0
100
AcDbPoint
 10
52.80000000888651
 20
14.28819785795006
 30
0.0
  0
POINT
  5
2B1
330
2A4
100
AcDbEntity
  8
Defpoints
 62
     0
100
AcDbPoint
 10
52.80000000888651
 20
-14.28680214839995
 30
0.0
  0
POINT
  5
2B2
330
2A4
100
AcDbEntity
  8
Defpoints
 62
     0
100
AcDbPoint
 10
64.92153122157879
 20
-14.2868021483999
 30
0.0
  0
ENDBLK
  5
2A6
330
2A4
100
AcDbEntity
  8
0
100
AcDbBlockEnd
  0
BLOCK
  5
2DE
330
2DD
100
AcDbEntity
  8
0
100
AcDbBlockBegin
  2
*D15
 70
     1
 10
0.0
 20
0.0
 30
0.0
  3
*D15
  1
*D16
  0
LINE
  5
2E0
330
2DD
100
AcDbEntity
  8
치수문자_일반주서
 62
     0
370
    -2
100
AcDbLine
 10
-55.21249999111348
 20
11.11319785477517
 30
0.0
 11
-73.441274335279
 21
11.11319785477517
 31
0.0
  0
LINE
  5
2E1
330
2DD
100
AcDbEntity
  8
치수문자_일반주서
 62
     0
370
    -2
100
AcDbLine
 10
-41.45274597774716
 20
-11.11180214522481
 30
0.0
 11
-73.441274335279
 21
-11.11180214522481
 31
0.0
  0
LINE
  5
2E2
330
2DD
100
AcDbEntity
  8
치수문자_일반주서
 62
     0
370
    -2
100
AcDbLine
 10
-73.441274335279
 20
7.811197854775171
 30
0.0
 11
-73.441274335279
 21
-7.809802145224808
 31
0.0
  0
SOLID
  5
2E3
330
2DD
100
AcDbEntity
  8
치수문자_일반주서
 62
     0
100
AcDbTrace
 10
-72.89094100194568
 20
7.811197854775171
 30
0.0
 11
-73.99160766861233
 21
7.811197854775171
 31
0.0
 12
-73.441274335279
 22
11.11319785477517
 32
0.0
 13
-73.441274335279
 23
11.11319785477517
 33
0.0
  0
SOLID
  5
2E4
330
2DD
100
AcDbEntity
  8
치수문자_일반주서
 62
     0
100
AcDbTrace
 10
-73.99160766861233
 20
-7.809802145224808
 30
0.0
 11
-72.89094100194568
 21
-7.809802145224808
 31
0.0
 12
-73.441274335279
 22
-11.11180214522481
 32
0.0
 13
-73.441274335279
 23
-11.11180214522481
 33
0.0
  0
MTEXT
  5
2E5
330
2DD
100
AcDbEntity
  8
치수문자_일반주서
 62
     0
100
AcDbMText
 10
-76.066274335279
 20
1.015856394007294
 30
0.0
 40
3.5
 41
0.0
 71
     5
 72
     1
  1
\A1;22.23 [7/8]
  7
SLDTEXTSTYLE0
 11
0.0
 21
1.0
 31
0.0
 73
     1
 44
1.0
  0
POINT
  5
2E6
330
2DD
100
AcDbEntity
  8
Defpoints
 62
     0
100
AcDbPoint
 10
-55.14999999111348
 20
11.11319785477517
 30
0.0
  0
POINT
  5
2E7
330
2DD
100
AcDbEntity
  8
Defpoints
 62
     0
100
AcDbPoint
 10
-41.39024597774716
 20
-11.11180214522481
 30
0.0
  0
POINT
  5
2E8
330
2DD
100
AcDbEntity
  8
Defpoints
 62
     0
100
AcDbPoint
 10
-73.441274335279
 20
-11.11180214522481
 30
0.0
  0
ENDBLK
  5
2DF
330
2DD
100
AcDbEntity
  8
0
100
AcDbBlockEnd
  0
ENDSEC
  0
SECTION
  2
ENTITIES
  0
LINE
  5
BD
330
1F
100
AcDbEntity
  8
참조1
100
AcDbLine
 10
18.41194598552359
 20
0.0010749287238892
 30
0.0
 11
18.4119459855236
 21
-39.99892507127611
 31
0.0
  0
LINE
  5
BE
330
1F
100
AcDbEntity
  8
참조1
100
AcDbLine
 10
18.4119459855236
 20
-39.99892507127611
 30
0.0
 11
3.253089171214916
 21
-39.9989250712761
 31
0.0
  0
INSERT
  5
C0
330
1F
100
AcDbEntity
  8
0
  6
Continuous
 62
     7
100
AcDbBlockReference
 66
     1
  2
블럭10
 10
-14.14288307297828
 20
-52.04609937292004
 30
0.0
  0
ATTRIB
  5
C1
330
C0
100
AcDbEntity
  8
FORMAT
 62
     2
100
AcDbText
 10
-23.32417836171956
 20
-49.97073246008785
 30
0.0
 40
4.233333333333333
  1
E1032108 [ 6 FLUTE ]
 41
0.75
  7
SLDTEXTSTYLE0
 11
-23.32417836171956
 21
-52.08739912675452
 31
0.0
100
AcDbAttribute
  2
AUTOATTR0
 70
     0
 74
     1
  0
SEQEND
  5
C2
330
C0
100
AcDbEntity
  8
0
  6
Continuous
 62
     7
  0
HATCH
  5
C3
330
1F
100
AcDbEntity
  8
중심선
100
AcDbHatch
 10
0.0
 20
0.0
 30
0.0
210
0.0
220
0.0
230
1.0
  2
SOLID
 70
     1
 71
     0
 91
        1
 92
        0
 93
        4
 72
     1
 10
-8.427973768597447
 20
-35.7989250712761
 11
-11.87424901243473
 21
-35.7989250712761
 72
     1
 10
-11.87424901243473
 20
-35.7989250712761
 11
-14.00247887163875
 21
-38.3352506518487
 72
     1
 10
-14.00247887163875
 20
-38.3352506518487
 11
-10.55617054268832
 21
-38.33521122254621
 72
     1
 10
-10.55617054268832
 20
-38.33521122254621
 11
-8.427973768597447
 21
-35.7989250712761
 97
        0
 75
     0
 76
     1
 98
        1
 10
-18.61455612637667
 20
0.0
  0
HATCH
  5
C4
330
1F
100
AcDbEntity
  8
중심선
100
AcDbHatch
 10
0.0
 20
0.0
 30
0.0
210
0.0
220
0.0
230
1.0
  2
SOLID
 70
     1
 71
     0
 91
        1
 92
        0
 93
        4
 72
     1
 10
-3.415209777561468
 20
-35.7989250712761
 11
-6.861485021398749
 21
-35.7989250712761
 72
     1
 10
-6.861485021398749
 20
-35.7989250712761
 11
-11.39262302975617
 21
-41.19892507127612
 72
     1
 10
-11.39262302975617
 20
-41.19892507127612
 11
-7.946347785918885
 21
-41.19892507127612
 72
     1
 10
-7.946347785918885
 20
-41.19892507127612
 11
-3.415209777561468
 21
-35.7989250712761
 97
        0
 75
     0
 76
     1
 98
        1
 10
-18.61455612637667
 20
0.0
  0
HATCH
  5
C5
330
1F
100
AcDbEntity
  8
중심선
100
AcDbHatch
 10
0.0
 20
0.0
 30
0.0
210
0.0
220
0.0
230
1.0
  2
SOLID
 70
     1
 71
     0
 91
        1
 92
        0
 93
        4
 72
     1
 10
1.5975542134744
 20
-35.7989250712761
 11
-1.848721030362714
 21
-35.7989250712761
 72
     1
 10
-1.848721030362714
 20
-35.7989250712761
 11
-8.897157932251964
 21
-44.19892507127612
 72
     1
 10
-8.897157932251964
 20
-44.19892507127612
 11
-5.450882688414683
 21
-44.19892507127612
 72
     1
 10
-5.450882688414683
 20
-44.19892507127612
 11
1.597554213474401
 21
-35.7989250712761
 97
        0
 75
     0
 76
     1
 98
        1
 10
-18.61455612637667
 20
0.0
  0
HATCH
  5
C6
330
1F
100
AcDbEntity
  8
중심선
100
AcDbHatch
 10
0.0
 20
0.0
 30
0.0
210
0.0
220
0.0
230
1.0
  2
SOLID
 70
     1
 71
     0
 91
        1
 92
        0
 93
        6
 72
     3
 10
6.397444644486598
 20
-39.99892507132738
 11
3.960054785062283
 21
1.540882976769353E-10
 40
0.3939339440162628
 50
17.09539180608436
 51
320.0019657685075
 73
     0
 72
     1
 10
8.080444300187196
 20
-38.58681907591438
 11
10.38574617388823
 21
-36.65249236586649
 72
     3
 10
6.397444644433751
 20
-39.99892507127625
 11
6.600054785286829
 21
-1.278976924368180E-13
 40
0.636358354079598
 50
39.99873849337408
 51
368.4976242363724
 73
     1
 72
     1
 10
12.82277713633436
 20
-39.03892507120613
 11
5.077511951269674
 21
-39.0389250712061
 72
     1
 10
5.077511951269674
 20
-39.0389250712061
 11
5.07748690682374
 21
-40.95892507120602
 72
     1
 10
5.07748690682374
 20
-40.95892507120602
 11
9.51886667629578
 21
-40.95892507120599
 97
        0
 75
     0
 76
     1
 98
        1
 10
-18.61455612637667
 20
0.0
  0
LINE
  5
117
330
1F
100
AcDbEntity
  8
참조1
100
AcDbLine
 10
101.2254298008692
 20
7.441074928723896
 30
0.0
 11
101.2254298008692
 21
-7.438925071276109
 31
0.0
  0
LINE
  5
118
330
1F
100
AcDbEntity
  8
참조1
100
AcDbLine
 10
113.9254298008692
 20
5.441074928723896
 30
0.0
 11
101.2254298008692
 21
5.441074928723896
 31
0.0
  0
SOLID
  5
119
330
1F
100
AcDbEntity
  8
참조1
100
AcDbTrace
 10
101.2254298008692
 20
5.441074928723896
 30
0.0
 11
107.5754298008692
 21
4.425074928723896
 31
0.0
 12
107.5754298008692
 22
6.457074928723896
 32
0.0
 13
107.5754298008692
 23
6.457074928723896
 33
0.0
  0
LINE
  5
11A
330
1F
100
AcDbEntity
  8
참조1
100
AcDbLine
 10
113.9254298008692
 20
-5.438925071276109
 30
0.0
 11
101.2254298008692
 21
-5.438925071276109
 31
0.0
  0
SOLID
  5
11B
330
1F
100
AcDbEntity
  8
참조1
100
AcDbTrace
 10
101.2254298008692
 20
-5.438925071276109
 30
0.0
 11
107.5754298008692
 21
-6.454925071276109
 31
0.0
 12
107.5754298008692
 22
-4.422925071276109
 32
0.0
 13
107.5754298008692
 23
-4.422925071276109
 33
0.0
  0
MTEXT
  5
11C
330
1F
100
AcDbEntity
  8
참조1
100
AcDbMText
 10
110.6229198933395
 20
10.98929157337383
 30
0.0
 40
3.5
 41
0.0
 71
     1
 72
     1
  1
A
  7
SLDTEXTSTYLE0
 73
     1
 44
1.0
  0
MTEXT
  5
11D
330
1F
100
AcDbEntity
  8
참조1
100
AcDbMText
 10
110.6229198933395
 20
0.1092915733738259
 30
0.0
 40
3.5
 41
0.0
 71
     1
 72
     1
  1
A
  7
SLDTEXTSTYLE0
 73
     1
 44
1.0
  0
LINE
  5
232
330
1F
100
AcDbEntity
  8
0
  6
Continuous
 62
     1
370
    15
100
AcDbLine
 10
19.92958991051739
 20
-2.789597333889439
 30
0.0
 11
19.99885356154948
 21
-2.856605288397994
 31
0.0
  0
LINE
  5
235
330
1F
100
AcDbEntity
  8
0
  6
Continuous
 62
     1
370
    15
100
AcDbLine
 10
24.60243117978752
 20
14.28819785795006
 30
0.0
 11
21.15006657499214
 21
14.28819785795006
 31
0.0
  0
LINE
  5
236
330
1F
100
AcDbEntity
  8
0
  6
Continuous
 62
     1
370
    15
100
AcDbLine
 10
21.15006657499208
 20
-14.28680214839995
 30
0.0
 11
24.6024311797874
 21
-14.28680214839995
 31
0.0
  0
LINE
  5
237
330
1F
100
AcDbEntity
  8
0
  6
Continuous
 62
     1
370
    15
100
AcDbLine
 10
51.0716590004688
 20
-14.28680214839995
 30
0.0
 11
52.80000000888651
 21
-14.28680214839995
 31
0.0
  0
LINE
  5
238
330
1F
100
AcDbEntity
  8
0
  6
Continuous
 62
     1
370
    15
100
AcDbLine
 10
9.642425900543316
 20
14.28819785795006
 30
0.0
 11
6.186209068503302
 21
14.28819785795006
 31
0.0
  0
LINE
  5
239
330
1F
100
AcDbEntity
  8
0
  6
Continuous
 62
     1
370
    15
100
AcDbLine
 10
36.11151428896051
 20
-14.28680214839995
 30
0.0
 11
39.56506420495617
 21
-14.28680214839995
 31
0.0
  0
LINE
  5
23B
330
1F
100
AcDbEntity
  8
0
  6
Continuous
 62
     1
370
    15
100
AcDbLine
 10
6.186209068503274
 20
-14.28680214839995
 30
0.0
 11
9.642425900543202
 21
-14.28680214839995
 31
0.0
  0
LINE
  5
23C
330
1F
100
AcDbEntity
  8
0
  6
Continuous
 62
     1
370
    15
100
AcDbLine
 10
52.80000000888651
 20
14.28819785795006
 30
0.0
 11
51.0716590004688
 21
14.28819785795006
 31
0.0
  0
LINE
  5
23E
330
1F
100
AcDbEntity
  8
0
  6
Continuous
 62
     1
370
    15
100
AcDbLine
 10
39.56506420495617
 20
14.28819785795006
 30
0.0
 11
36.11151428896062
 21
14.28819785795006
 31
0.0
  0
LINE
  5
23F
330
1F
100
AcDbEntity
  8
외형선
  6
Continuous
370
    15
100
AcDbLine
 10
1.73376338192412
 20
-11.11180214522481
 30
0.0
 11
2.000000008886531
 21
-11.11180214522481
 31
0.0
  0
LINE
  5
240
330
1F
100
AcDbEntity
  8
외형선
  6
Continuous
370
    15
100
AcDbLine
 10
-52.92749999111348
 20
-11.11180214522481
 30
0.0
 11
2.000000008886531
 21
-11.11180214522481
 31
0.0
  0
LINE
  5
241
330
1F
100
AcDbEntity
  8
외형선
  6
Continuous
370
    15
100
AcDbLine
 10
2.000000008886531
 20
11.1131978547752
 30
0.0
 11
1.733763381924035
 21
11.1131978547752
 31
0.0
  0
LINE
  5
242
330
1F
100
AcDbEntity
  8
외형선
  6
Continuous
370
    15
100
AcDbLine
 10
-55.14999999111348
 20
-8.889302145224814
 30
0.0
 11
-52.92749999111348
 21
-11.11180214522481
 31
0.0
  0
SPLINE
  5
244
330
1F
100
AcDbEntity
  8
0
  6
Continuous
 62
     1
370
    15
100
AcDbSpline
210
0.0
220
0.0
230
1.0
 70
     8
 71
     3
 72
    30
 73
    26
 74
     0
 42
0.000000001
 43
0.00000001
 40
0.0
 40
0.0
 40
0.0
 40
0.0
 40
0.009988896286648
 40
0.0540597004088634
 40
0.0981317951101614
 40
0.1422473082238954
 40
0.1863555699524723
 40
0.2304252400278093
 40
0.274498781783305
 40
0.3186173863803782
 40
0.3627221014315752
 40
0.4067907940424116
 40
0.4508659392632145
 40
0.4949871768288546
 40
0.5390885002370769
 40
0.5831563720090388
 40
0.6272332770353466
 40
0.6713566889113777
 40
0.7154547758606162
 40
0.7595219834556519
 40
0.8036008045498475
 40
0.8477259319596578
 40
0.8918209377766951
 40
0.9322615363734086
 40
0.9690742167066053
 40
0.9690742167066053
 40
0.9690742167066053
 40
0.9690742167066053
 10
51.0716590004688
 20
-14.25625815509924
 30
0.0
 10
50.90300476150463
 20
-14.26560669603127
 30
0.0
 10
49.99025150334217
 20
-14.31620080648577
 30
0.0
 10
48.33459371120438
 20
-14.06426151655426
 30
0.0
 10
46.10285651769857
 20
-13.49014487285203
 30
0.0
 10
43.86882766734186
 20
-12.55858290631392
 30
0.0
 10
41.63518294370164
 20
-11.32869872431761
 30
0.0
 10
39.40363351846554
 20
-9.820189432999417
 30
0.0
 10
37.17188510199958
 20
-8.072668395258308
 30
0.0
 10
34.93766617242352
 20
-6.12931033320142
 30
0.0
 10
32.70422363701573
 20
-4.03611424037507
 30
0.0
 10
30.47272314287562
 20
-1.844056417553958
 30
0.0
 10
28.24089213947929
 20
0.3931951984569722
 30
0.0
 10
26.00652550379482
 20
2.619469362875947
 30
0.0
 10
23.77327153536839
 20
4.782784008570452
 30
0.0
 10
21.54181316263686
 20
6.829822821351836
 30
0.0
 10
19.30988991276354
 20
8.710588630337558
 30
0.0
 10
17.07540171305021
 20
10.37790790037908
 30
0.0
 10
14.84232587262369
 20
11.79317550245371
 30
0.0
 10
12.61090627679394
 20
12.92101462318276
 30
0.0
 10
10.37886405566255
 20
13.73418957927425
 30
0.0
 10
8.144345315293407
 20
14.21141851710868
 30
0.0
 10
5.972407563016588
 20
14.34212662642126
 30
0.0
 10
3.925604263578407
 20
14.14728205812568
 30
0.0
 10
2.62149964512065
 20
13.87051371974495
 30
0.0
 10
2.000000008886502
 20
13.68205633074431
 30
0.0
  0
SPLINE
  5
245
330
1F
100
AcDbEntity
  8
0
  6
Continuous
 62
     1
370
    15
100
AcDbSpline
210
0.0
220
0.0
230
1.0
 70
     8
 71
     3
 72
    20
 73
    16
 74
     0
 42
0.000000001
 43
0.00000001
 40
0.2689540411874362
 40
0.2689540411874362
 40
0.2689540411874362
 40
0.2689540411874362
 40
0.3170112948298116
 40
0.3698042252569906
 40
0.4273677790881116
 40
0.4849706549670454
 40
0.5425130805513897
 40
0.6000403453647645
 40
0.6576079214409459
 40
0.7152085577868722
 40
0.7727484820521903
 40
0.8302766139112444
 40
0.8878484150028771
 40
0.9454462129086911
 40
1.0
 40
1.0
 40
1.0
 40
1.0
 10
2.000000008886445
 20
0.1618997927883896
 30
0.0
 10
2.621543907405936
 20
-0.4591776370619378
 30
0.0
 10
3.925572102031254
 20
-1.763879219477751
 30
0.0
 10
5.972415969421149
 20
-3.781168368911281
 30
0.0
 10
8.144342979109439
 20
-5.834242550076329
 30
0.0
 10
10.37886468138666
 20
-7.802004456108623
 30
0.0
 10
12.61090610817118
 20
-9.580953046356559
 30
0.0
 10
14.84232592189659
 20
-11.12607741720126
 30
0.0
 10
17.07540168466187
 20
-12.39983804387656
 30
0.0
 10
19.30988997700302
 20
-13.37110115792158
 30
0.0
 10
21.54181293435113
 20
-14.01658409110326
 30
0.0
 10
23.77327238445974
 20
-14.32211289049399
 30
0.0
 10
26.00652233243272
 20
-14.2714884924818
 30
0.0
 10
28.20230085994444
 20
-13.90588154713726
 30
0.0
 10
29.65194973164375
 20
-13.38789208404463
 30
0.0
 10
30.35710103116281
 20
-13.13592697016931
 30
0.0
  0
SPLINE
  5
246
330
1F
100
AcDbEntity
  8
외형선
  6
Continuous
370
    15
100
AcDbSpline
210
0.0
220
0.0
230
1.0
 70
    24
 71
     3
 72
    13
 73
     9
 74
     0
 42
0.000000001
 43
0.00000001
 40
0.0
 40
0.0
 40
0.0
 40
0.0
 40
0.0102134713333102
 40
0.2098128400478221
 40
0.4152006039768754
 40
0.6147999726913643
 40
0.8201877366203945
 40
0.9999999999999999
 40
0.9999999999999999
 40
0.9999999999999999
 40
0.9999999999999999
 10
2.000000008886502
 20
11.11001234083977
 30
0.0
 10
2.000000008886502
 20
11.09773168370645
 30
0.0
 10
2.000000008886531
 20
10.84545315207813
 30
0.0
 10
2.000000008886502
 20
10.33540755258377
 30
0.0
 10
2.000000008886559
 20
9.586661129101866
 30
0.0
 10
2.000000008886474
 20
8.84767404698766
 30
0.0
 10
2.000000008886559
 20
8.167901694945453
 30
0.0
 10
2.000000008886502
 20
7.76835382072349
 30
0.0
 10
2.000000008886474
 20
7.581843949230677
 30
0.0
  0
SPLINE
  5
247
330
1F
100
AcDbEntity
  8
0
  6
Continuous
 62
     1
370
    15
100
AcDbSpline
210
0.0
220
0.0
230
1.0
 70
     8
 71
     3
 72
    23
 73
    19
 74
     0
 42
0.000000001
 43
0.00000001
 40
0.0
 40
0.0
 40
0.0
 40
0.0
 40
0.0263467972665538
 40
0.0764852619423743
 40
0.1265827761245466
 40
0.1766876256665892
 40
0.2268448732209705
 40
0.2769794822597852
 40
0.3270760633081449
 40
0.3771829134060473
 40
0.4273426327275538
 40
0.477473562543314
 40
0.5275693885519616
 40
0.5776784168455963
 40
0.6278400863946396
 40
0.6779675135636226
 40
0.7239405919942773
 40
0.7657897538609589
 40
0.7657897538609589
 40
0.7657897538609589
 40
0.7657897538609589
 10
36.11151428896051
 20
-14.24329505986917
 30
0.0
 10
35.72018807861429
 20
-14.25084220892525
 30
0.0
 10
34.58416052276249
 20
-14.27275172857698
 30
0.0
 10
32.70420406401547
 20
-13.92859471130987
 30
0.0
 10
30.47272838630823
 20
-13.24526188182621
 30
0.0
 10
28.24089073277474
 20
-12.22141894353837
 30
0.0
 10
26.00652588064889
 20
-10.90516808983455
 30
0.0
 10
23.77327143471092
 20
-9.32142836186171
 30
0.0
 10
21.54181318880336
 20
-7.51056528056279
 30
0.0
 10
19.30988990873533
 20
-5.516239914213376
 30
0.0
 10
17.07540170295107
 20
-3.388914062369736
 30
0.0
 10
14.84232591700118
 20
-1.177968825236071
 30
0.0
 10
12.61090610948284
 20
1.061861752525381
 30
0.0
 10
10.37886468103468
 20
3.276110982331335
 30
0.0
 10
8.144342979203998
 20
5.40902142639948
 30
0.0
 10
5.972415969398213
 20
7.356358086816918
 30
0.0
 10
3.925572102036369
 20
9.034979686408509
 30
0.0
 10
2.621543907407215
 20
9.989639362012444
 30
0.0
 10
2.000000008886502
 20
10.41486645555714
 30
0.0
  0
SPLINE
  5
249
330
1F
100
AcDbEntity
  8
외형선
  6
Continuous
370
    15
100
AcDbSpline
210
0.0
220
0.0
230
1.0
 70
    24
 71
     3
 72
    28
 73
    24
 74
     0
 42
0.000000001
 43
0.00000001
 40
0.0
 40
0.0
 40
0.0
 40
0.0
 40
0.1250000000000007
 40
0.1250000000000007
 40
0.1875000000000008
 40
0.1875000000000008
 40
0.2500000000000009
 40
0.2500000000000009
 40
0.3750000000000007
 40
0.3750000000000007
 40
0.5000000000000004
 40
0.5000000000000004
 40
0.6250000000000002
 40
0.6250000000000002
 40
0.6875000000000001
 40
0.6875000000000001
 40
0.75
 40
0.75
 40
0.8125
 40
0.8125
 40
0.875
 40
0.875
 40
1.0
 40
1.0
 40
1.0
 40
1.0
 10
2.000000008886531
 20
5.324940417363198
 30
0.0
 10
2.000000008886531
 20
5.200974664429641
 30
0.0
 10
2.000000008886531
 20
5.033724143060208
 30
0.0
 10
2.000000008886559
 20
4.763913937653331
 30
0.0
 10
2.000000008886559
 20
4.674158214103439
 30
0.0
 10
2.000000008886559
 20
4.467116157792525
 30
0.0
 10
2.000000008886559
 20
4.350556461604828
 30
0.0
 10
2.000000008886531
 20
3.95484968644605
 30
0.0
 10
2.000000008886559
 20
3.628686971351517
 30
0.0
 10
2.000000008886559
 20
2.826679552380874
 30
0.0
 10
2.000000008886531
 20
2.349038301069221
 30
0.0
 10
2.000000008886531
 20
1.270705549351224
 30
0.0
 10
2.000000008886502
 20
0.6696439438645818
 30
0.0
 10
2.000000008886502
 20
-0.2309261551591177
 30
0.0
 10
2.000000008886559
 20
-0.5301094751634992
 30
0.0
 10
2.000000008886531
 20
-1.105051335107792
 30
0.0
 10
2.000000008886531
 20
-1.380643493478804
 30
0.0
 10
2.000000008886559
 20
-1.888266327729866
 30
0.0
 10
2.000000008886531
 20
-2.120169201435871
 30
0.0
 10
2.000000008886531
 20
-2.52652110558439
 30
0.0
 10
2.000000008886559
 20
-2.700936849739406
 30
0.0
 10
2.000000008886531
 20
-3.130410113393189
 30
0.0
 10
2.000000008886502
 20
-3.289019543542565
 30
0.0
 10
2.000000008886531
 20
-3.344551300187234
 30
0.0
  0
SPLINE
  5
24A
330
1F
100
AcDbEntity
  8
0
  6
Continuous
 62
     1
370
    15
100
AcDbSpline
210
0.0
220
0.0
230
1.0
 70
     8
 71
     3
 72
    16
 73
    12
 74
     0
 42
0.000000001
 43
0.00000001
 40
0.0
 40
0.0
 40
0.0
 40
0.0
 40
0.0621988818449511
 40
0.1377264193492649
 40
0.2132106073192432
 40
0.2886419380534932
 40
0.3640931480073242
 40
0.4396236220488717
 40
0.5151025359405775
 40
0.5843260773065929
 40
0.6473400691088188
 40
0.6473400691088188
 40
0.6473400691088188
 40
0.6473400691088188
 10
21.15006657499208
 20
-14.26158359110848
 30
0.0
 10
20.53690848117424
 20
-14.24887991312895
 30
0.0
 10
19.17919808105705
 20
-14.22075027431892
 30
0.0
 10
17.07539094918076
 20
-13.75989592106872
 30
0.0
 10
14.8423287954912
 20
-12.97210410346584
 30
0.0
 10
12.61090533821024
 20
-11.8580462369056
 30
0.0
 10
10.37886488800874
 20
-10.4573583288434
 30
0.0
 10
8.144342923603432
 20
-8.802198696008308
 30
0.0
 10
5.97241598292382
 20
-6.983165301374488
 30
0.0
 10
3.925572099096485
 20
-5.117843475187744
 30
0.0
 10
2.621543906738509
 20
-3.867941480047779
 30
0.0
 10
2.000000008886559
 20
-3.263248986288406
 30
0.0
  0
LINE
  5
24B
330
1F
100
AcDbEntity
  8
0
  6
Continuous
 62
     1
370
    15
100
AcDbLine
 10
52.80000000888651
 20
-14.18253984442248
 30
0.0
 11
52.80000000888651
 21
-8.581842627808161
 31
0.0
  0
SPLINE
  5
24C
330
1F
100
AcDbEntity
  8
0
  6
Continuous
 62
     1
370
    15
100
AcDbSpline
210
0.0
220
0.0
230
1.0
 70
     8
 71
     3
 72
    27
 73
    23
 74
     0
 42
0.000000001
 43
0.00000001
 40
0.0
 40
0.0
 40
0.0
 40
0.0
 40
0.0170677602132429
 40
0.0687870627386185
 40
0.1204927387181484
 40
0.1722346465800697
 40
0.2240062691103446
 40
0.2757233234427717
 40
0.3274297787255261
 40
0.3791754840438473
 40
0.4309445553757434
 40
0.4826595448636256
 40
0.5343669632668315
 40
0.5861166481246399
 40
0.6378826300976448
 40
0.6895957381806871
 40
0.7413043034789542
 40
0.79305814978382
 40
0.8448205044056828
 40
0.8965319146067957
 40
0.948241810523988
 40
1.0
 40
1.0
 40
1.0
 40
1.0
 10
9.642425900543316
 20
14.24964238025674
 30
0.0
 10
9.888070339934387
 20
14.26033963843491
 30
0.0
 10
10.87807484273245
 20
14.30345208905753
 30
0.0
 10
12.61087776056976
 20
14.0226458974198
 30
0.0
 10
14.84233351850548
 20
13.41017978276606
 30
0.0
 10
17.07539966235242
 20
12.44650764837954
 30
0.0
 10
19.3098904617392
 20
11.18670645891547
 30
0.0
 10
21.54181301563591
 20
9.651631835849802
 30
0.0
 10
23.77327157481
 20
7.881912128822808
 30
0.0
 10
26.00652549312969
 20
5.920217030880497
 30
0.0
 10
28.24089214266161
 20
3.815124048487696
 30
0.0
 10
30.472723140803
 20
1.615709557022484
 30
0.0
 10
32.70422364212737
 20
-0.6228650144104577
 30
0.0
 10
34.93766615403109
 20
-2.84576198824108
 30
0.0
 10
37.17188517044502
 20
-4.998735085408885
 30
0.0
 10
39.40363326337723
 20
-7.031035729487261
 30
0.0
 10
41.63518389598141
 20
-8.891881224710179
 30
0.0
 10
43.86882410965808
 20
-10.53498771796443
 30
0.0
 10
46.10286979167762
 20
-11.92299908037717
 30
0.0
 10
48.3345442273008
 20
-13.0143966452938
 30
0.0
 10
50.56615303944
 20
-13.81320676590586
 30
0.0
 10
52.05515268969111
 20
-14.05939051629665
 30
0.0
 10
52.80000000888651
 20
-14.18253984442248
 30
0.0
  0
SPLINE
  5
24D
330
1F
100
AcDbEntity
  8
0
  6
Continuous
 62
     1
370
    15
100
AcDbSpline
210
0.0
220
0.0
230
1.0
 70
     8
 71
     3
 72
    24
 73
    20
 74
     0
 42
0.000000001
 43
0.00000001
 40
0.0
 40
0.0
 40
0.0
 40
0.0
 40
0.0597198818120232
 40
0.1193840413189556
 40
0.1790499480442057
 40
0.2387746357047421
 40
0.2984895062582554
 40
0.3581521304640925
 40
0.4178199962475941
 40
0.4775488692357807
 40
0.5372589382085394
 40
0.5969202390984298
 40
0.6565902756934644
 40
0.7163227132605073
 40
0.7760281905419758
 40
0.8356883801596191
 40
0.8953607992234657
 40
0.9550961804264274
 40
1.0
 40
1.0
 40
1.0
 40
1.0
 10
52.80000000888651
 20
-8.583006291175725
 30
0.0
 10
52.05515268969117
 20
-7.967770621070915
 30
0.0
 10
50.56615303944022
 20
-6.73787333339914
 30
0.0
 10
48.3345442273
 20
-4.671705770998532
 30
0.0
 10
46.10286979168035
 20
-2.506560703797312
 30
0.0
 10
43.86882410964768
 20
-0.277372128106002
 30
0.0
 10
41.63518389602035
 20
1.957830291001947
 30
0.0
 10
39.40363326323171
 20
4.146285966844303
 30
0.0
 10
37.17188517098862
 20
6.23372109740491
 30
0.0
 10
34.9376661520003
 20
8.168140776178529
 30
0.0
 10
32.70422364970079
 20
9.904077322065444
 30
0.0
 10
30.47272311256233
 20
11.39899211179242
 30
0.0
 10
28.24089224812417
 20
12.6160611332252
 30
0.0
 10
26.00652509915631
 20
13.52525372529711
 30
0.0
 10
23.77327304387734
 20
14.10448783145719
 30
0.0
 10
21.54180753708823
 20
14.34285567544961
 30
0.0
 10
19.30991092227976
 20
14.22086490789442
 30
0.0
 10
17.25993612257798
 20
13.8278145061027
 30
0.0
 10
15.9553227814954
 20
13.32924862623991
 30
0.0
 10
15.3954740666112
 20
13.11529905333837
 30
0.0
  0
LINE
  5
24E
330
1F
100
AcDbEntity
  8
0
  6
Continuous
 62
     1
370
    15
100
AcDbLine
 10
52.80000000888651
 20
-5.598835698471493
 30
0.0
 11
52.80000000888651
 21
5.600231408021877
 31
0.0
  0
SPLINE
  5
24F
330
1F
100
AcDbEntity
  8
0
  6
Continuous
 62
     1
370
    15
100
AcDbSpline
210
0.0
220
0.0
230
1.0
 70
     8
 71
     3
 72
    20
 73
    16
 74
     0
 42
0.000000001
 43
0.00000001
 40
0.0
 40
0.0
 40
0.0
 40
0.0
 40
0.0497840717311039
 40
0.1290203050095117
 40
0.2081737621921125
 40
0.2873156312929465
 40
0.3665221921985701
 40
0.4457536969942083
 40
0.5249042745533399
 40
0.6040478990583616
 40
0.6832608293536874
 40
0.7624867822312812
 40
0.8416347610617668
 40
0.9207804221733734
 40
1.0
 40
1.0
 40
1.0
 40
1.0
 10
24.60243117978752
 20
14.24748355449254
 30
0.0
 10
25.07037072768799
 20
14.25019242413748
 30
0.0
 10
26.28308196437098
 20
14.25721272552442
 30
0.0
 10
28.2409187683532
 20
13.87541489362826
 30
0.0
 10
30.47271601098288
 20
13.15546502353458
 30
0.0
 10
32.70422555416178
 20
12.10032624367116
 30
0.0
 10
34.93766564132898
 20
10.75442208965699
 30
0.0
 10
37.17188530768527
 20
9.145895937010867
 30
0.0
 10
39.40363322662438
 20
7.313824972977297
 30
0.0
 10
41.63518390583846
 20
5.303437027290482
 30
0.0
 10
43.86882410701543
 20
3.16463954937192
 30
0.0
 10
46.10286979238469
 20
0.9483664515068071
 30
0.0
 10
48.33454422711236
 20
-1.289470300151592
 30
0.0
 10
50.56615303948712
 20
-3.505582530079806
 30
0.0
 10
52.0551526897068
 20
-4.900867560009349
 30
0.0
 10
52.80000000888651
 20
-5.598835698471493
 30
0.0
  0
SPLINE
  5
250
330
1F
100
AcDbEntity
  8
0
  6
Continuous
 62
     1
370
    15
100
AcDbSpline
210
0.0
220
0.0
230
1.0
 70
     8
 71
     3
 72
    18
 73
    14
 74
     0
 42
0.000000001
 43
0.00000001
 40
0.0
 40
0.0
 40
0.0
 40
0.0
 40
0.0995307039173172
 40
0.1989685395957615
 40
0.2984092872335697
 40
0.3979480007026631
 40
0.4974703527265762
 40
0.5969056296323957
 40
0.6963496422874959
 40
0.7958953311322013
 40
0.8954096807170955
 40
0.9948427521502368
 40
0.9999999999999999
 40
0.9999999999999999
 40
0.9999999999999999
 40
0.9999999999999999
 10
52.80000000888651
 20
5.60023140802188
 30
0.0
 10
52.05515268927434
 20
6.271833650760456
 30
0.0
 10
50.56615303819029
 20
7.614411490237412
 30
0.0
 10
48.33454423229443
 20
9.407242401310874
 30
0.0
 10
46.10286977294271
 20
10.98052195475199
 30
0.0
 10
43.86882417967331
 20
12.28294478265439
 30
0.0
 10
41.63518363482768
 20
13.28684368082583
 30
0.0
 10
39.40363423710761
 20
13.96767051507217
 30
0.0
 10
37.17188153440037
 20
14.30548039568068
 30
0.0
 10
34.93767973756218
 20
14.30408513810902
 30
0.0
 10
32.70417298468658
 20
13.91876942096414
 30
0.0
 10
31.17797215065929
 20
13.51346433020985
 30
0.0
 10
30.39567533332342
 20
13.15499829448594
 30
0.0
 10
30.35710103116293
 20
13.13732267971944
 30
0.0
  0
LINE
  5
251
330
1F
100
AcDbEntity
  8
0
  6
Continuous
 62
     1
370
    15
100
AcDbLine
 10
52.80000000888651
 20
-8.583006291175725
 30
0.0
 11
52.80000000888651
 21
-5.598835698471493
 31
0.0
  0
LINE
  5
252
330
1F
100
AcDbEntity
  8
외형선
  6
Continuous
370
    15
100
AcDbLine
 10
2.000000008886502
 20
5.324940417363216
 30
0.0
 11
2.000000008886531
 21
7.505367173422478
 31
0.0
  0
LINE
  5
253
330
1F
100
AcDbEntity
  8
0
  6
Continuous
 62
     1
370
    15
100
AcDbLine
 10
52.80000000888651
 20
-14.28680214839995
 30
0.0
 11
52.80000000888651
 21
-14.18253984442248
 31
0.0
  0
LINE
  5
254
330
1F
100
AcDbEntity
  8
외형선
  6
Continuous
370
    15
100
AcDbLine
 10
2.000000008886502
 20
11.11001234083977
 30
0.0
 11
2.000000008886531
 21
11.1131978547752
 31
0.0
  0
LINE
  5
255
330
1F
100
AcDbEntity
  8
0
  6
Continuous
 62
     1
370
    15
100
AcDbLine
 10
52.80000000888651
 20
14.18393555397261
 30
0.0
 11
52.80000000888651
 21
14.28819785795006
 31
0.0
  0
SPLINE
  5
256
330
1F
100
AcDbEntity
  8
0
  6
Continuous
 62
     1
370
    15
100
AcDbSpline
210
0.0
220
0.0
230
1.0
 70
     8
 71
     3
 72
    11
 73
     7
 74
     0
 42
0.000000001
 43
0.00000001
 40
0.0
 40
0.0
 40
0.0
 40
0.0
 40
0.2985833971494618
 40
0.596888197713562
 40
0.8952017339007923
 40
1.0
 40
1.0
 40
1.0
 40
1.0
 10
52.80000000888651
 20
14.18393555397261
 30
0.0
 10
52.05515557176676
 20
14.24142701691151
 30
0.0
 10
50.56616168297796
 20
14.35635629973543
 30
0.0
 10
48.33450969036073
 20
14.06616606573234
 30
0.0
 10
46.58610335903143
 20
13.65262154400647
 30
0.0
 10
45.58050986234412
 20
13.2208822328895
 30
0.0
 10
45.31908250086337
 20
13.1086415816476
 30
0.0
  0
SPLINE
  5
257
330
1F
100
AcDbEntity
  8
0
  6
Continuous
 62
     1
370
    15
100
AcDbSpline
210
0.0
220
0.0
230
1.0
 70
     8
 71
     3
 72
    10
 73
     6
 74
     0
 42
0.000000001
 43
0.00000001
 40
0.0
 40
0.0
 40
0.0
 40
0.0
 40
0.0188208739771878
 40
0.158893154927264
 40
0.2864008499183501
 40
0.2864008499183501
 40
0.2864008499183501
 40
0.2864008499183501
 10
6.186209068503274
 20
-14.26797737410208
 30
0.0
 10
6.09448167965806
 20
-14.2741030484293
 30
0.0
 10
5.320083305569284
 20
-14.32581837902928
 30
0.0
 10
3.92564898718075
 20
-14.13527561345753
 30
0.0
 10
2.621561395844509
 20
-13.85249579705792
 30
0.0
 10
2.000000008886531
 20
-13.67647872575464
 30
0.0
  0
LINE
  5
258
330
1F
100
AcDbEntity
  8
외형선
  6
Continuous
370
    15
100
AcDbLine
 10
2.000000008886502
 20
-5.784374068701378
 30
0.0
 11
2.000000008886531
 21
-3.344551300187266
 31
0.0
  0
SPLINE
  5
25A
330
1F
100
AcDbEntity
  8
0
  6
Continuous
 62
     1
370
    15
100
AcDbSpline
210
0.0
220
0.0
230
1.0
 70
     8
 71
     3
 72
    13
 73
     9
 74
     0
 42
0.000000001
 43
0.00000001
 40
0.0
 40
0.0
 40
0.0
 40
0.0
 40
0.156420476256524
 40
0.3251843389912878
 40
0.4939759464550771
 40
0.6626014295079401
 40
0.8312219746398188
 40
1.0
 40
1.0
 40
1.0
 40
1.0
 10
39.56506420495617
 20
14.27651703983934
 30
0.0
 10
40.25489537746046
 20
14.25234376906247
 30
0.0
 10
41.68899338825094
 20
14.20208967658713
 30
0.0
 10
43.86882631242855
 20
13.695342598225
 30
0.0
 10
46.1028692022561
 20
12.87339661972268
 30
0.0
 10
48.33454438440452
 20
11.72526884160242
 30
0.0
 10
50.56615300012169
 20
10.30841102589962
 30
0.0
 10
52.05515267658086
 20
9.15925046538485
 30
0.0
 10
52.80000000888651
 20
8.584402000725916
 30
0.0
  0
LINE
  5
25B
330
1F
100
AcDbEntity
  8
0
  6
Continuous
 62
     1
370
    15
100
AcDbLine
 10
52.80000000888651
 20
5.600231408021877
 30
0.0
 11
52.80000000888651
 21
8.584402000725916
 31
0.0
  0
LINE
  5
25C
330
1F
100
AcDbEntity
  8
외형선
  6
Continuous
370
    15
100
AcDbLine
 10
2.000000008886531
 20
-13.67647872575463
 30
0.0
 11
2.000000008886531
 21
-10.84922061883453
 31
0.0
  0
LINE
  5
25D
330
1F
100
AcDbEntity
  8
0
  6
Continuous
 62
     1
370
    15
100
AcDbLine
 10
52.80000000888651
 20
8.552990144733236
 30
0.0
 11
52.80000000888651
 21
14.18393555397261
 31
0.0
  0
SPLINE
  5
25E
330
1F
100
AcDbEntity
  8
외형선
  6
Continuous
370
    15
100
AcDbSpline
210
0.0
220
0.0
230
1.0
 70
    24
 71
     3
 72
    16
 73
    12
 74
     0
 42
0.000000001
 43
0.00000001
 40
0.0
 40
0.0
 40
0.0
 40
0.0
 40
0.0036188997373751
 40
0.1422646364749551
 40
0.2809103732125368
 40
0.4195561099501183
 40
0.5582018466876971
 40
0.696847583425276
 40
0.8354933201628537
 40
0.974139056900431
 40
1.0
 40
1.0
 40
1.0
 40
1.0
 10
2.000000008886531
 20
-5.860860844509585
 30
0.0
 10
2.000000008886559
 20
-5.865019177510401
 30
0.0
 10
2.000000008886673
 20
-6.028489783394658
 30
0.0
 10
2.000000008886502
 20
-6.435989523958948
 30
0.0
 10
2.000000008886559
 20
-7.073196775087009
 30
0.0
 10
2.000000008886559
 20
-7.776247361444423
 30
0.0
 10
2.000000008886531
 20
-8.51289286384154
 30
0.0
 10
2.000000008886531
 20
-9.265116141889234
 30
0.0
 10
2.000000008886531
 20
-10.01015403965124
 30
0.0
 10
2.000000008886531
 20
-10.53477901607218
 30
0.0
 10
2.000000008886531
 20
-10.80650455046256
 30
0.0
 10
2.000000008886531
 20
-10.84922061883453
 30
0.0
  0
LINE
  5
269
330
1F
100
AcDbEntity
  8
외형선
  6
Continuous
370
    15
100
AcDbLine
 10
-52.92749999111348
 20
-11.11180214522481
 30
0.0
 11
-52.92749999111348
 21
0.0006978547751935
 31
0.0
  0
LINE
  5
26B
330
1F
100
AcDbEntity
  8
외형선
  6
Continuous
370
    15
100
AcDbLine
 10
-55.14999999111348
 20
0.0006978547751935
 30
0.0
 11
-55.14999999111348
 21
8.890697854775205
 31
0.0
  0
LINE
  5
26C
330
1F
100
AcDbEntity
  8
외형선
  6
Continuous
370
    15
100
AcDbLine
 10
-55.14999999111348
 20
-8.889302145224814
 30
0.0
 11
-55.14999999111348
 21
0.0006978547751935
 31
0.0
  0
SPLINE
  5
26D
330
1F
100
AcDbEntity
  8
외형선
  6
Continuous
370
    15
100
AcDbSpline
210
0.0
220
0.0
230
1.0
 70
    24
 71
     3
 72
    28
 73
    24
 74
     0
 42
0.000000001
 43
0.00000001
 40
0.0
 40
0.0
 40
0.0
 40
0.0
 40
0.1250000000000004
 40
0.1250000000000004
 40
0.1875000000000004
 40
0.1875000000000004
 40
0.2500000000000004
 40
0.2500000000000004
 40
0.3125000000000005
 40
0.3125000000000005
 40
0.3750000000000006
 40
0.3750000000000006
 40
0.5000000000000006
 40
0.5000000000000006
 40
0.6250000000000007
 40
0.6250000000000007
 40
0.7500000000000007
 40
0.7500000000000007
 40
0.8125000000000006
 40
0.8125000000000006
 40
0.8750000000000004
 40
0.8750000000000004
 40
1.0
 40
1.0
 40
1.0
 40
1.0
 10
2.000000008886531
 20
-3.344551300187227
 30
0.0
 10
2.000000008886559
 20
-3.289019543542619
 30
0.0
 10
2.000000008886531
 20
-3.13041011339353
 30
0.0
 10
2.000000008886531
 20
-2.7009368497406
 30
0.0
 10
2.000000008886559
 20
-2.526521105585939
 30
0.0
 10
2.000000008886531
 20
-2.12016920143822
 30
0.0
 10
2.000000008886531
 20
-1.888266327732662
 30
0.0
 10
2.000000008886531
 20
-1.380643493482513
 30
0.0
 10
2.000000008886531
 20
-1.105051335111966
 30
0.0
 10
2.000000008886502
 20
-0.530109475168544
 30
0.0
 10
2.000000008886502
 20
-0.2309261551645605
 30
0.0
 10
2.000000008886559
 20
0.6696439438581336
 30
0.0
 10
2.000000008886531
 20
1.270705549344385
 30
0.0
 10
2.000000008886531
 20
2.349038301062222
 30
0.0
 10
2.000000008886502
 20
2.826679552374085
 30
0.0
 10
2.000000008886531
 20
3.628686971345441
 30
0.0
 10
2.000000008886531
 20
3.954849686440468
 30
0.0
 10
2.000000008886531
 20
4.3505564616
 30
0.0
 10
2.000000008886502
 20
4.467116157787956
 30
0.0
 10
2.000000008886531
 20
4.674158214099375
 30
0.0
 10
2.000000008886502
 20
4.763913937649285
 30
0.0
 10
2.000000008886531
 20
5.033724143056187
 30
0.0
 10
2.000000008886531
 20
5.200974664425829
 30
0.0
 10
2.000000008886531
 20
5.324940417360022
 30
0.0
  0
SPLINE
  5
26E
330
1F
100
AcDbEntity
  8
외형선
  6
Continuous
370
    15
100
AcDbSpline
210
0.0
220
0.0
230
1.0
 70
    24
 71
     3
 72
    14
 73
    10
 74
     0
 42
0.000000001
 43
0.00000001
 40
0.0
 40
0.0
 40
0.0
 40
0.0
 40
0.1947434323930078
 40
0.3332347103080587
 40
0.4717259882231096
 40
0.6102172661381221
 40
0.7487085440531344
 40
0.887199821968222
 40
1.0
 40
1.0
 40
1.0
 40
1.0
 10
2.000000008886531
 20
-10.84922061883453
 30
0.0
 10
2.000000008886531
 20
-10.51809769034098
 30
0.0
 10
2.000000008886531
 20
-9.951497565258304
 30
0.0
 10
2.000000008886502
 20
-9.097555514911821
 30
0.0
 10
2.000000008886502
 20
-8.347910388126952
 30
0.0
 10
2.000000008886559
 20
-7.616574217064279
 30
0.0
 10
2.000000008886559
 20
-6.927725327603138
 30
0.0
 10
2.000000008886502
 20
-6.329598740562641
 30
0.0
 10
2.000000008886502
 20
-6.006074851853594
 30
0.0
 10
2.000000008886502
 20
-5.860850844509581
 30
0.0
  0
SPLINE
  5
26F
330
1F
100
AcDbEntity
  8
외형선
  6
Continuous
370
    15
100
AcDbSpline
210
0.0
220
0.0
230
1.0
 70
    24
 71
     3
 72
    13
 73
     9
 74
     0
 42
0.000000001
 43
0.00000001
 40
0.0
 40
0.0
 40
0.0
 40
0.0
 40
0.0224365700187576
 40
0.2248606546327113
 40
0.4272847392466644
 40
0.6297088238607454
 40
0.8321329084748275
 40
0.9999999999999999
 40
0.9999999999999999
 40
0.9999999999999999
 40
0.9999999999999999
 10
2.000000008886531
 20
7.581843949230677
 30
0.0
 10
2.000000008886531
 20
7.603335079825481
 30
0.0
 10
2.000000008886559
 20
7.818720483668582
 30
0.0
 10
2.000000008886531
 20
8.298731843980288
 30
0.0
 10
2.000000008886559
 20
9.002527344639855
 30
0.0
 10
2.000000008886531
 20
9.745901194481913
 30
0.0
 10
2.000000008886502
 20
10.45651292915064
 30
0.0
 10
2.000000008886531
 20
10.9061670184708
 30
0.0
 10
2.000000008886559
 20
11.11001234082919
 30
0.0
  0
LINE
  5
270
330
1F
100
AcDbEntity
  8
중심선
100
AcDbLine
 10
-58.14999999111348
 20
0.0006978547750798
 30
0.0
 11
55.80000000888651
 21
0.000697854775094
 31
0.0
  0
CIRCLE
  5
271
330
1F
100
AcDbEntity
  8
해칭선
100
AcDbCircle
 10
0.0
 20
0.0
 30
0.0
 40
3.000000000000001
  0
DIMENSION
  5
273
330
1F
100
AcDbEntity
  8
치수문자_일반주서
100
AcDbDimension
  2
*D12
 10
2.000000008886531
 20
43.16391825545789
 30
0.0
 11
28.7136636267071
 21
43.16391825545789
 31
0.0
 70
   160
  1
<>
 71
     2
 42
50.79999999999998
  3
SLDDIMSTYLE0
100
AcDbAlignedDimension
 13
52.80000000888651
 23
14.28819785795006
 33
0.0
 14
2.000000008886531
 24
13.68205633074431
 34
0.0
 50
-0.0000000000000513
100
AcDbRotatedDimension
1001
ACAD
1000
DSTYLE
1002
{
1070
   171
1070
     6
1070
   273
1070
     7
1002
}
  0
DIMENSION
  5
274
330
1F
100
AcDbEntity
  8
치수문자_일반주서
100
AcDbDimension
  2
*D13
 10
-55.14999999111348
 20
58.59248968745787
 30
0.0
 11
-1.174999991113481
 21
58.59248968745787
 31
0.0
 70
   160
  1
<>
 71
     2
 42
107.95
  3
SLDDIMSTYLE0
100
AcDbAlignedDimension
 13
52.80000000888651
 23
14.28819785795006
 33
0.0
 14
-55.14999999111348
 24
8.890697854775205
 34
0.0
 50
-0.0000000000000039
100
AcDbRotatedDimension
1001
ACAD
1000
DSTYLE
1002
{
1070
   171
1070
     6
1070
   273
1070
     7
1002
}
  0
DIMENSION
  5
275
330
1F
100
AcDbEntity
  8
치수문자_일반주서
100
AcDbDimension
  2
*D14
 10
64.92153122157876
 20
-14.2868021483999
 30
0.0
 11
64.92153122157856
 21
41.3415550068191
 31
0.0
 70
   160
  1
%%c<>
 71
     2
 42
28.57500000635001
 52
-270.0
  3
SLDDIMSTYLE0
100
AcDbAlignedDimension
 13
52.80000000888651
 23
14.28819785795006
 33
0.0
 14
52.80000000888651
 24
-14.28680214839995
 34
0.0
 50
90.0000000000002
100
AcDbRotatedDimension
1001
ACAD
1000
DSTYLE
1002
{
1070
   171
1070
     6
1070
   273
1070
     7
1002
}
  0
INSERT
  5
276
330
1F
100
AcDbEntity
  8
해칭선
100
AcDbBlockReference
  2
SW_DOWELSYMBOL_0
 10
0.0
 20
0.0
 30
0.0
  0
LINE
  5
277
330
1F
100
AcDbEntity
  8
외형선
  6
Continuous
370
    15
100
AcDbLine
 10
-35.14432499111348
 20
9.462197854775194
 30
0.0
 11
-23.56192499111347
 21
9.462197854775194
 31
0.0
  0
LINE
  5
278
330
1F
100
AcDbEntity
  8
외형선
  6
Continuous
370
    15
100
AcDbLine
 10
-35.14432499111348
 20
9.462197854775194
 30
0.0
 11
-36.79532499111349
 21
11.11319785477518
 31
0.0
  0
LINE
  5
279
330
1F
100
AcDbEntity
  8
외형선
  6
Continuous
370
    15
100
AcDbLine
 10
-23.56192499111347
 20
9.462197854775194
 30
0.0
 11
-21.91092499111335
 21
11.11319785477518
 31
0.0
  0
LINE
  5
27A
330
1F
100
AcDbEntity
  8
외형선
  6
Continuous
370
    15
100
AcDbLine
 10
-42.44999999111349
 20
9.462197854775194
 30
0.0
 11
-40.79899999111348
 21
11.11319785477517
 31
0.0
  0
LINE
  5
27B
330
1F
100
AcDbEntity
  8
외형선
  6
Continuous
370
    15
100
AcDbLine
 10
-36.79532499111352
 20
11.1131978547752
 30
0.0
 11
-40.79899999111345
 21
11.1131978547752
 31
0.0
  0
LINE
  5
27C
330
1F
100
AcDbEntity
  8
외형선
  6
Continuous
370
    15
100
AcDbLine
 10
-52.92749999111348
 20
0.0006978547751935
 30
0.0
 11
-52.92749999111348
 21
9.462197854775194
 31
0.0
  0
LINE
  5
27D
330
1F
100
AcDbEntity
  8
외형선
  6
Continuous
370
    15
100
AcDbLine
 10
-54.57849999111349
 20
9.462197854775194
 30
0.0
 11
-42.44999999111349
 21
9.462197854775194
 31
0.0
  0
LINE
  5
27E
330
1F
100
AcDbEntity
  8
외형선
  6
Continuous
370
    15
100
AcDbLine
 10
-54.57849999111349
 20
9.462197854775194
 30
0.0
 11
-55.14999999111348
 21
8.890697854775205
 31
0.0
  0
LINE
  5
27F
330
1F
100
AcDbEntity
  8
외형선
  6
Continuous
370
    15
100
AcDbLine
 10
2.000000008886531
 20
11.1131978547752
 30
0.0
 11
-21.91092499111335
 21
11.1131978547752
 31
0.0
  0
LINE
  5
2B3
330
1F
100
AcDbEntity
  8
외형선
  6
Continuous
370
    15
100
AcDbLine
 10
2.000000008886531
 20
11.1131978547752
 30
0.0
 11
2.000000008886531
 21
13.68205633074431
 31
0.0
  0
SPLINE
  5
2D4
330
1F
100
AcDbEntity
  8
0
  6
Continuous
 62
     1
370
    15
100
AcDbSpline
210
0.0
220
0.0
230
1.0
 70
     8
 71
     3
 72
    14
 73
    10
 74
     0
 42
0.000000001
 43
0.00000001
 40
0.4378156946200888
 40
0.4378156946200888
 40
0.4378156946200888
 40
0.4378156946200888
 40
0.5160454915856665
 40
0.6019842394437427
 40
0.6956888263738275
 40
0.7894574235326476
 40
0.8831276169358391
 40
0.9767731309423168
 40
1.0
 40
1.0
 40
1.0
 40
1.0
 10
2.000000008886559
 20
-12.29125047794056
 30
0.0
 10
2.621543952711221
 20
-12.60784766762978
 30
0.0
 10
3.925572301207069
 20
-13.19919073541788
 30
0.0
 10
5.972415053077185
 20
-13.87066255227588
 30
0.0
 10
8.144346745965521
 20
-14.26532661805382
 30
0.0
 10
10.37885065921614
 20
-14.33033274954927
 30
0.0
 10
12.61095836069055
 20
-14.02057297007802
 30
0.0
 10
14.28253113134036
 20
-13.6036386649688
 30
0.0
 10
15.21096073456471
 20
-13.19509591266857
 30
0.0
 10
15.39547406661114
 20
-13.11390334378826
 30
0.0
  0
SPLINE
  5
2D8
330
1F
100
AcDbEntity
  8
0
  6
Continuous
 62
     1
370
    15
100
AcDbSpline
210
0.0
220
0.0
230
1.0
 70
     8
 71
     3
 72
    27
 73
    23
 74
     0
 42
0.000000001
 43
0.00000001
 40
0.1445614882030171
 40
0.1445614882030171
 40
0.1445614882030171
 40
0.1445614882030171
 40
0.1813735240055878
 40
0.2218131034004933
 40
0.2659069979157352
 40
0.3100310132646122
 40
0.3541087234649072
 40
0.3981748204587303
 40
0.4422717960285216
 40
0.4863940958868558
 40
0.5304698900675524
 40
0.5745366512215635
 40
0.6186368631687713
 40
0.662756988771512
 40
0.7068310231910554
 40
0.7508986051632537
 40
0.7950022086679592
 40
0.83911970136849
 40
0.8831921323631368
 40
0.9272606917752011
 40
0.971367841867901
 40
1.0
 40
1.0
 40
1.0
 40
1.0
 10
2.000000008886531
 20
12.45374789572146
 30
0.0
 10
2.621544268039116
 20
12.14899221567723
 30
0.0
 10
3.925571840004778
 20
11.43627105792744
 30
0.0
 10
5.972416037890667
 20
10.08985186968042
 30
0.0
 10
8.144342960160913
 20
8.432945398220031
 30
0.0
 10
10.37886468616733
 20
6.524753927372839
 30
0.0
 10
12.61090610798001
 20
4.45622210683965
 30
0.0
 10
14.84232591788407
 20
2.279327373190903
 30
0.0
 10
17.07540170092085
 20
0.0470442983173172
 30
0.0
 10
19.30988991597349
 20
-2.185301365561031
 30
0.0
 10
21.54181316191551
 20
-4.365886045369827
 30
0.0
 10
23.77327153504632
 20
-6.439746028027091
 30
0.0
 10
26.00652550580713
 20
-8.356348327578932
 30
0.0
 10
28.24089213175193
 20
-10.06866491899537
 30
0.0
 10
30.47272317173616
 20
-11.53663875356346
 30
0.0
 10
32.70422352926789
 20
-12.72310318144882
 30
0.0
 10
34.93766657497019
 20
-13.59946804450943
 30
0.0
 10
37.17188359983612
 20
-14.1433956882723
 30
0.0
 10
39.40363911796464
 20
-14.34632820531786
 30
0.0
 10
41.63516203970306
 20
-14.18649329951326
 30
0.0
 10
43.6074851385934
 20
-13.78280969667496
 30
0.0
 10
44.83564541450954
 20
-13.29805745792902
 30
0.0
 10
45.31908250086337
 20
-13.10724587209748
 30
0.0
  0
DIMENSION
  5
2DA
330
1F
100
AcDbEntity
  8
치수문자_일반주서
100
AcDbDimension
  2
*D15
 10
-73.441274335279
 20
-11.11180214522481
 30
0.0
 11
-73.441274335279
 21
1.015856394007294
 31
0.0
 70
   160
 71
     5
 42
22.22499999999998
  3
SLDDIMSTYLE0
100
AcDbAlignedDimension
 13
-55.14999999111348
 23
11.11319785477517
 33
0.0
 14
-41.39024597774716
 24
-11.11180214522481
 34
0.0
 50
90.0
100
AcDbRotatedDimension
1001
ACAD
1000
DSTYLE
1002
{
1070
   171
1070
     6
1070
   273
1070
     7
1002
}
  0
ENDSEC
  0
SECTION
  2
OBJECTS
  0
DICTIONARY
  5
C
330
0
100
AcDbDictionary
281
     1
  3
ACAD_GROUP
350
D
  3
ACAD_IMAGE_VARS
350
148
  3
ACAD_LAYOUT
350
1A
  3
ACAD_MLINESTYLE
350
17
  3
ACAD_PLOTSETTINGS
350
19
  3
ACAD_PLOTSTYLENAME
350
E
  3
ACAD_SCALELIST
350
47
  3
APPDATA
350
146
  3
DWGPROPS
350
311
  0
DICTIONARY
  5
1FA
330
2
100
AcDbDictionary
280
     1
281
     1
  3
ACAD_LAYERSTATES
360
1FB
  0
DICTIONARY
  5
D
102
{ACAD_REACTORS
330
C
102
}
330
C
100
AcDbDictionary
281
     1
  0
RASTERVARIABLES
  5
148
102
{ACAD_REACTORS
330
C
102
}
330
C
100
AcDbRasterVariables
 90
        0
 70
     1
 71
     1
 72
     1
  0
DICTIONARY
  5
1A
102
{ACAD_REACTORS
330
C
102
}
330
C
100
AcDbDictionary
281
     1
  3
Layout1
350
1E
  3
Layout2
350
26
  3
Model
350
22
  0
DICTIONARY
  5
17
102
{ACAD_REACTORS
330
C
102
}
330
C
100
AcDbDictionary
281
     1
  3
Standard
350
18
  0
DICTIONARY
  5
19
102
{ACAD_REACTORS
330
C
102
}
330
C
100
AcDbDictionary
281
     1
  0
ACDBDICTIONARYWDFLT
  5
E
102
{ACAD_REACTORS
330
C
102
}
330
C
100
AcDbDictionary
281
     1
  3
Normal
350
F
100
AcDbDictionaryWithDefault
340
F
  0
DICTIONARY
  5
47
102
{ACAD_REACTORS
330
C
102
}
330
C
100
AcDbDictionary
281
     1
  3
A0
350
48
  3
A1
350
49
  3
A2
350
4A
  3
A3
350
4B
  3
A4
350
4C
  3
A5
350
4D
  3
A6
350
4E
  3
A7
350
4F
  3
A8
350
50
  3
A9
350
51
  3
B0
350
52
  3
B1
350
53
  3
B2
350
54
  3
B3
350
55
  3
B4
350
56
  3
B5
350
57
  3
B6
350
58
  3
B7
350
59
  3
B8
350
5A
  3
B9
350
5B
  3
C0
350
5C
  3
C1
350
5D
  3
C2
350
5E
  3
C3
350
5F
  3
C4
350
60
  3
C5
350
61
  3
C6
350
62
  3
C7
350
63
  3
C8
350
64
  3
C9
350
65
  3
D0
350
66
  3
D1
350
67
  3
D2
350
68
  0
DICTIONARY
  5
146
102
{ACAD_REACTORS
330
C
102
}
330
C
100
AcDbDictionary
281
     1
  0
XRECORD
  5
311
102
{ACAD_REACTORS
330
C
102
}
330
C
100
AcDbXrecord
280
     1
  1
DWGPROPS COOKIE
  2

  3

  4

  6

  7

  8
12016016
  9

300
=
301
=
302
=
303
=
304
=
305
=
306
=
307
=
308
=
309
=
 40
0.0
 41
2458323.107232153
 42
2458330.139440648
  1

 90
        0
  0
DICTIONARY
  5
1FB
102
{ACAD_REACTORS
330
1FA
102
}
330
1FA
100
AcDbDictionary
281
     1
  0
LAYOUT
  5
1E
102
{ACAD_REACTORS
330
1A
102
}
330
1A
100
AcDbPlotSettings
  1

  2
none_device
  4

  6

 40
0.0
 41
0.0
 42
0.0
 43
0.0
 44
0.0
 45
0.0
 46
0.0
 47
0.0
 48
0.0
 49
0.0
140
0.0
141
0.0
142
1.0
143
1.0
 70
   688
 72
     1
 73
     0
 74
     5
  7

 75
    16
147
1.0
148
0.0
149
0.0
100
AcDbLayout
  1
Layout1
 70
     1
 71
     1
 10
0.0
 20
0.0
 11
420.0
 21
297.0
 12
0.0
 22
0.0
 32
0.0
 14
1.000000000000000E+20
 24
1.000000000000000E+20
 34
1.000000000000000E+20
 15
-1.000000000000000E+20
 25
-1.000000000000000E+20
 35
-1.000000000000000E+20
146
0.0
 13
0.0
 23
0.0
 33
0.0
 16
1.0
 26
0.0
 36
0.0
 17
0.0
 27
1.0
 37
0.0
 76
     0
330
1B
  0
LAYOUT
  5
26
102
{ACAD_REACTORS
330
1A
102
}
330
1A
100
AcDbPlotSettings
  1

  2
none_device
  4

  6

 40
0.0
 41
0.0
 42
0.0
 43
0.0
 44
0.0
 45
0.0
 46
0.0
 47
0.0
 48
0.0
 49
0.0
140
0.0
141
0.0
142
1.0
143
1.0
 70
   688
 72
     1
 73
     0
 74
     5
  7

 75
    16
147
1.0
148
0.0
149
0.0
100
AcDbLayout
  1
Layout2
 70
     1
 71
     2
 10
0.0
 20
0.0
 11
0.0
 21
0.0
 12
0.0
 22
0.0
 32
0.0
 14
0.0
 24
0.0
 34
0.0
 15
0.0
 25
0.0
 35
0.0
146
0.0
 13
0.0
 23
0.0
 33
0.0
 16
1.0
 26
0.0
 36
0.0
 17
0.0
 27
1.0
 37
0.0
 76
     0
330
23
  0
LAYOUT
  5
22
102
{ACAD_REACTORS
330
1A
102
}
330
1A
100
AcDbPlotSettings
  1

  2
none_device
  4
ANSI_A_(11.00_x_8.50_Inches)
  6

 40
6.35
 41
19.05
 42
6.35000508
 43
19.05000254
 44
279.4
 45
215.9
 46
96.39525648754174
 47
90.09827952143297
 48
0.0
 49
0.0
140
0.0
141
0.0
142
0.0605651527843098
143
1.0
 70
  1696
 72
     0
 73
     0
 74
     0
  7

 75
     0
147
0.0235690232323232
148
0.0
149
0.0
100
AcDbLayout
  1
Model
 70
     1
 71
     0
 10
0.0
 20
0.0
 11
420.0
 21
297.0
 12
0.0
 22
0.0
 32
0.0
 14
-77.81627433527899
 24
-49.97073246008785
 34
0.0
 15
113.9254298008692
 25
62.96748968745787
 35
0.0
146
0.0
 13
0.0
 23
0.0
 33
0.0
 16
1.0
 26
0.0
 36
0.0
 17
0.0
 27
1.0
 37
0.0
 76
     0
330
1F
331
29
  0
MLINESTYLE
  5
18
102
{ACAD_REACTORS
330
17
102
}
330
17
100
AcDbMlineStyle
  2
Standard
 70
     0
  3

 62
   256
 51
90.0
 52
90.0
 71
     2
 49
0.5
 62
   256
  6
BYLAYER
 49
-0.5
 62
   256
  6
BYLAYER
  0
ACDBPLACEHOLDER
  5
F
102
{ACAD_REACTORS
330
E
102
}
330
E
  0
SCALE
  5
48
102
{ACAD_REACTORS
330
47
102
}
330
47
100
AcDbScale
 70
     0
300
1:1
140
1.0
141
1.0
290
     1
  0
SCALE
  5
49
102
{ACAD_REACTORS
330
47
102
}
330
47
100
AcDbScale
 70
     0
300
1:2
140
1.0
141
2.0
290
     0
  0
SCALE
  5
4A
102
{ACAD_REACTORS
330
47
102
}
330
47
100
AcDbScale
 70
     0
300
1:4
140
1.0
141
4.0
290
     0
  0
SCALE
  5
4B
102
{ACAD_REACTORS
330
47
102
}
330
47
100
AcDbScale
 70
     0
300
1:5
140
1.0
141
5.0
290
     0
  0
SCALE
  5
4C
102
{ACAD_REACTORS
330
47
102
}
330
47
100
AcDbScale
 70
     0
300
1:8
140
1.0
141
8.0
290
     0
  0
SCALE
  5
4D
102
{ACAD_REACTORS
330
47
102
}
330
47
100
AcDbScale
 70
     0
300
1:10
140
1.0
141
10.0
290
     0
  0
SCALE
  5
4E
102
{ACAD_REACTORS
330
47
102
}
330
47
100
AcDbScale
 70
     0
300
1:16
140
1.0
141
16.0
290
     0
  0
SCALE
  5
4F
102
{ACAD_REACTORS
330
47
102
}
330
47
100
AcDbScale
 70
     0
300
1:20
140
1.0
141
20.0
290
     0
  0
SCALE
  5
50
102
{ACAD_REACTORS
330
47
102
}
330
47
100
AcDbScale
 70
     0
300
1:30
140
1.0
141
30.0
290
     0
  0
SCALE
  5
51
102
{ACAD_REACTORS
330
47
102
}
330
47
100
AcDbScale
 70
     0
300
1:40
140
1.0
141
40.0
290
     0
  0
SCALE
  5
52
102
{ACAD_REACTORS
330
47
102
}
330
47
100
AcDbScale
 70
     0
300
1:50
140
1.0
141
50.0
290
     0
  0
SCALE
  5
53
102
{ACAD_REACTORS
330
47
102
}
330
47
100
AcDbScale
 70
     0
300
1:100
140
1.0
141
100.0
290
     0
  0
SCALE
  5
54
102
{ACAD_REACTORS
330
47
102
}
330
47
100
AcDbScale
 70
     0
300
2:1
140
2.0
141
1.0
290
     0
  0
SCALE
  5
55
102
{ACAD_REACTORS
330
47
102
}
330
47
100
AcDbScale
 70
     0
300
4:1
140
4.0
141
1.0
290
     0
  0
SCALE
  5
56
102
{ACAD_REACTORS
330
47
102
}
330
47
100
AcDbScale
 70
     0
300
8:1
140
8.0
141
1.0
290
     0
  0
SCALE
  5
57
102
{ACAD_REACTORS
330
47
102
}
330
47
100
AcDbScale
 70
     0
300
10:1
140
10.0
141
1.0
290
     0
  0
SCALE
  5
58
102
{ACAD_REACTORS
330
47
102
}
330
47
100
AcDbScale
 70
     0
300
100:1
140
100.0
141
1.0
290
     0
  0
SCALE
  5
59
102
{ACAD_REACTORS
330
47
102
}
330
47
100
AcDbScale
 70
     0
300
1/128" = 1'-0"
140
0.0078125
141
12.0
290
     0
  0
SCALE
  5
5A
102
{ACAD_REACTORS
330
47
102
}
330
47
100
AcDbScale
 70
     0
300
1/64" = 1'-0"
140
0.015625
141
12.0
290
     0
  0
SCALE
  5
5B
102
{ACAD_REACTORS
330
47
102
}
330
47
100
AcDbScale
 70
     0
300
1/32" = 1'-0"
140
0.03125
141
12.0
290
     0
  0
SCALE
  5
5C
102
{ACAD_REACTORS
330
47
102
}
330
47
100
AcDbScale
 70
     0
300
1/16" = 1'-0"
140
0.0625
141
12.0
290
     0
  0
SCALE
  5
5D
102
{ACAD_REACTORS
330
47
102
}
330
47
100
AcDbScale
 70
     0
300
3/32" = 1'-0"
140
0.09375
141
12.0
290
     0
  0
SCALE
  5
5E
102
{ACAD_REACTORS
330
47
102
}
330
47
100
AcDbScale
 70
     0
300
1/8" = 1'-0"
140
0.125
141
12.0
290
     0
  0
SCALE
  5
5F
102
{ACAD_REACTORS
330
47
102
}
330
47
100
AcDbScale
 70
     0
300
3/16" = 1'-0"
140
0.1875
141
12.0
290
     0
  0
SCALE
  5
60
102
{ACAD_REACTORS
330
47
102
}
330
47
100
AcDbScale
 70
     0
300
1/4" = 1'-0"
140
0.25
141
12.0
290
     0
  0
SCALE
  5
61
102
{ACAD_REACTORS
330
47
102
}
330
47
100
AcDbScale
 70
     0
300
3/8" = 1'-0"
140
0.375
141
12.0
290
     0
  0
SCALE
  5
62
102
{ACAD_REACTORS
330
47
102
}
330
47
100
AcDbScale
 70
     0
300
1/2" = 1'-0"
140
0.5
141
12.0
290
     0
  0
SCALE
  5
63
102
{ACAD_REACTORS
330
47
102
}
330
47
100
AcDbScale
 70
     0
300
3/4" = 1'-0"
140
0.75
141
12.0
290
     0
  0
SCALE
  5
64
102
{ACAD_REACTORS
330
47
102
}
330
47
100
AcDbScale
 70
     0
300
1" = 1'-0"
140
1.0
141
12.0
290
     0
  0
SCALE
  5
65
102
{ACAD_REACTORS
330
47
102
}
330
47
100
AcDbScale
 70
     0
300
1-1/2" = 1'-0"
140
1.5
141
12.0
290
     0
  0
SCALE
  5
66
102
{ACAD_REACTORS
330
47
102
}
330
47
100
AcDbScale
 70
     0
300
3" = 1'-0"
140
3.0
141
12.0
290
     0
  0
SCALE
  5
67
102
{ACAD_REACTORS
330
47
102
}
330
47
100
AcDbScale
 70
     0
300
6" = 1'-0"
140
6.0
141
12.0
290
     0
  0
SCALE
  5
68
102
{ACAD_REACTORS
330
47
102
}
330
47
100
AcDbScale
 70
     0
300
1'-0" = 1'-0"
140
12.0
141
12.0
290
     0
  0
ENDSEC
  0
EOF
