  0
SECTION
  2
HEADER
  9
$ACADVER
  1
AC1015
  9
$ACADMAINTVER
 70
     6
  9
$DWGCODEPAGE
  3
ANSI_949
  9
$INSBASE
 10
0.0
 20
0.0
 30
0.0
  9
$EXTMIN
 10
-69.35000000000002
 20
-49.97073246008785
 30
0.0
  9
$EXTMAX
 10
113.9254298008692
 20
59.52150687863593
 30
0.0
  9
$LIMMIN
 10
0.0
 20
0.0
  9
$LIMMAX
 10
420.0
 20
297.0
  9
$ORTHOMODE
 70
     0
  9
$REGENMODE
 70
     1
  9
$FILLMODE
 70
     1
  9
$QTEXTMODE
 70
     0
  9
$MIRRTEXT
 70
     1
  9
$LTSCALE
 40
1.0
  9
$ATTMODE
 70
     1
  9
$TEXTSIZE
 40
3.5
  9
$TRACEWID
 40
1.0
  9
$TEXTSTYLE
  7
Standard
  9
$CLAYER
  8
0
  9
$CELTYPE
  6
ByLayer
  9
$CECOLOR
 62
   256
  9
$CELTSCALE
 40
1.0
  9
$DISPSILH
 70
     0
  9
$DIMSCALE
 40
1.0
  9
$DIMASZ
 40
3.302
  9
$DIMEXO
 40
1.0
  9
$DIMDLI
 40
3.75
  9
$DIMRND
 40
0.0
  9
$DIMDLE
 40
0.0
  9
$DIMEXE
 40
1.0
  9
$DIMTP
 40
0.0
  9
$DIMTM
 40
0.0
  9
$DIMTXT
 40
3.5
  9
$DIMCEN
 40
2.5
  9
$DIMTSZ
 40
0.0
  9
$DIMTOL
 70
     0
  9
$DIMLIM
 70
     0
  9
$DIMTIH
 70
     1
  9
$DIMTOH
 70
     1
  9
$DIMSE1
 70
     0
  9
$DIMSE2
 70
     0
  9
$DIMTAD
 70
     1
  9
$DIMZIN
 70
     0
  9
$DIMBLK
  1

  9
$DIMASO
 70
     1
  9
$DIMSHO
 70
     1
  9
$DIMPOST
  1

  9
$DIMAPOST
  1

  9
$DIMALT
 70
     0
  9
$DIMALTD
 70
     3
  9
$DIMALTF
 40
0.0393700787401575
  9
$DIMLFAC
 40
1.0
  9
$DIMTOFL
 70
     1
  9
$DIMTVP
 40
0.0
  9
$DIMTIX
 70
     0
  9
$DIMSOXD
 70
     0
  9
$DIMSAH
 70
     0
  9
$DIMBLK1
  1

  9
$DIMBLK2
  1

  9
$DIMSTYLE
  2
ISO-25
  9
$DIMCLRD
 70
     0
  9
$DIMCLRE
 70
     0
  9
$DIMCLRT
 70
     0
  9
$DIMTFAC
 40
1.0
  9
$DIMGAP
 40
1.524
  9
$DIMJUST
 70
     0
  9
$DIMSD1
 70
     0
  9
$DIMSD2
 70
     0
  9
$DIMTOLJ
 70
     0
  9
$DIMTZIN
 70
     0
  9
$DIMALTZ
 70
     0
  9
$DIMALTTZ
 70
     0
  9
$DIMUPT
 70
     0
  9
$DIMDEC
 70
     2
  9
$DIMTDEC
 70
     2
  9
$DIMALTU
 70
     2
  9
$DIMALTTD
 70
     3
  9
$DIMTXSTY
  7
Standard
  9
$DIMAUNIT
 70
     0
  9
$DIMADEC
 70
     2
  9
$DIMALTRND
 40
0.0
  9
$DIMAZIN
 70
     0
  9
$DIMDSEP
 70
    44
  9
$DIMATFIT
 70
     3
  9
$DIMFRAC
 70
     0
  9
$DIMLDRBLK
  1

  9
$DIMLUNIT
 70
     2
  9
$DIMLWD
 70
    -2
  9
$DIMLWE
 70
    -2
  9
$DIMTMOVE
 70
     0
  9
$LUNITS
 70
     2
  9
$LUPREC
 70
     2
  9
$SKETCHINC
 40
1.0
  9
$FILLETRAD
 40
10.0
  9
$AUNITS
 70
     0
  9
$AUPREC
 70
     2
  9
$MENU
  1
.
  9
$ELEVATION
 40
0.0
  9
$PELEVATION
 40
0.0
  9
$THICKNESS
 40
0.0
  9
$LIMCHECK
 70
     0
  9
$CHAMFERA
 40
0.0
  9
$CHAMFERB
 40
0.0
  9
$CHAMFERC
 40
0.0
  9
$CHAMFERD
 40
0.0
  9
$SKPOLY
 70
     0
  9
$TDCREATE
 40
2458323.481808565
  9
$TDUCREATE
 40
2458323.106808565
  9
$TDUPDATE
 40
2458330.514592049
  9
$TDUUPDATE
 40
2458330.139592049
  9
$TDINDWG
 40
0.0012608333
  9
$TDUSRTIMER
 40
2458330.139545232
  9
$USRTIMER
 70
     1
  9
$ANGBASE
 50
0.0
  9
$ANGDIR
 70
     0
  9
$PDMODE
 70
     0
  9
$PDSIZE
 40
-1.0
  9
$PLINEWID
 40
0.0
  9
$SPLFRAME
 70
     0
  9
$SPLINETYPE
 70
     6
  9
$SPLINESEGS
 70
     8
  9
$HANDSEED
  5
2A8
  9
$SURFTAB1
 70
     6
  9
$SURFTAB2
 70
     6
  9
$SURFTYPE
 70
     6
  9
$SURFU
 70
     6
  9
$SURFV
 70
     6
  9
$UCSBASE
  2

  9
$UCSNAME
  2

  9
$UCSORG
 10
0.0
 20
0.0
 30
0.0
  9
$UCSXDIR
 10
1.0
 20
0.0
 30
0.0
  9
$UCSYDIR
 10
0.0
 20
1.0
 30
0.0
  9
$UCSORTHOREF
  2

  9
$UCSORTHOVIEW
 70
     0
  9
$UCSORGTOP
 10
0.0
 20
0.0
 30
0.0
  9
$UCSORGBOTTOM
 10
0.0
 20
0.0
 30
0.0
  9
$UCSORGLEFT
 10
0.0
 20
0.0
 30
0.0
  9
$UCSORGRIGHT
 10
0.0
 20
0.0
 30
0.0
  9
$UCSORGFRONT
 10
0.0
 20
0.0
 30
0.0
  9
$UCSORGBACK
 10
0.0
 20
0.0
 30
0.0
  9
$PUCSBASE
  2

  9
$PUCSNAME
  2

  9
$PUCSORG
 10
0.0
 20
0.0
 30
0.0
  9
$PUCSXDIR
 10
1.0
 20
0.0
 30
0.0
  9
$PUCSYDIR
 10
0.0
 20
1.0
 30
0.0
  9
$PUCSORTHOREF
  2

  9
$PUCSORTHOVIEW
 70
     0
  9
$PUCSORGTOP
 10
0.0
 20
0.0
 30
0.0
  9
$PUCSORGBOTTOM
 10
0.0
 20
0.0
 30
0.0
  9
$PUCSORGLEFT
 10
0.0
 20
0.0
 30
0.0
  9
$PUCSORGRIGHT
 10
0.0
 20
0.0
 30
0.0
  9
$PUCSORGFRONT
 10
0.0
 20
0.0
 30
0.0
  9
$PUCSORGBACK
 10
0.0
 20
0.0
 30
0.0
  9
$USERI1
 70
     0
  9
$USERI2
 70
     0
  9
$USERI3
 70
     0
  9
$USERI4
 70
     0
  9
$USERI5
 70
     0
  9
$USERR1
 40
0.0
  9
$USERR2
 40
0.0
  9
$USERR3
 40
0.0
  9
$USERR4
 40
0.0
  9
$USERR5
 40
0.0
  9
$WORLDVIEW
 70
     1
  9
$SHADEDGE
 70
     3
  9
$SHADEDIF
 70
    70
  9
$TILEMODE
 70
     1
  9
$MAXACTVP
 70
    64
  9
$PINSBASE
 10
0.0
 20
0.0
 30
0.0
  9
$PLIMCHECK
 70
     0
  9
$PEXTMIN
 10
1.000000000000000E+20
 20
1.000000000000000E+20
 30
1.000000000000000E+20
  9
$PEXTMAX
 10
-1.000000000000000E+20
 20
-1.000000000000000E+20
 30
-1.000000000000000E+20
  9
$PLIMMIN
 10
0.0
 20
0.0
  9
$PLIMMAX
 10
0.0
 20
0.0
  9
$UNITMODE
 70
     0
  9
$VISRETAIN
 70
     1
  9
$PLINEGEN
 70
     0
  9
$PSLTSCALE
 70
     1
  9
$TREEDEPTH
 70
  3020
  9
$CMLSTYLE
  2
Standard
  9
$CMLJUST
 70
     0
  9
$CMLSCALE
 40
20.0
  9
$PROXYGRAPHICS
 70
     1
  9
$MEASUREMENT
 70
     1
  9
$CELWEIGHT
370
    -1
  9
$ENDCAPS
280
     0
  9
$JOINSTYLE
280
     0
  9
$LWDISPLAY
290
     1
  9
$INSUNITS
 70
     4
  9
$HYPERLINKBASE
  1

  9
$STYLESHEET
  1

  9
$XEDIT
290
     1
  9
$CEPSNTYPE
380
     0
  9
$PSTYLEMODE
290
     1
  9
$FINGERPRINTGUID
  2
{9432ED9A-CE15-492A-A727-4C451025BEE3}
  9
$VERSIONGUID
  2
{FAEB1C32-E019-11D5-929B-00C0DF256EC4}
  9
$EXTNAMES
290
     1
  9
$PSVPSCALE
 40
0.0
  9
$OLESTARTUP
290
     0
  0
ENDSEC
  0
SECTION
  2
CLASSES
  0
CLASS
  1
ACDBDICTIONARYWDFLT
  2
AcDbDictionaryWithDefault
  3
ObjectDBX Classes
 90
        0
280
     0
281
     0
  0
CLASS
  1
VISUALSTYLE
  2
AcDbVisualStyle
  3
ObjectDBX Classes
 90
     4095
280
     0
281
     0
  0
CLASS
  1
MATERIAL
  2
AcDbMaterial
  3
ObjectDBX Classes
 90
     1153
280
     0
281
     0
  0
CLASS
  1
SCALE
  2
AcDbScale
  3
ObjectDBX Classes
 90
     1153
280
     0
281
     0
  0
CLASS
  1
SUN
  2
AcDbSun
  3
SCENEOE
 90
     1153
280
     0
281
     0
  0
CLASS
  1
ACDBPLACEHOLDER
  2
AcDbPlaceHolder
  3
ObjectDBX Classes
 90
        0
280
     0
281
     0
  0
CLASS
  1
LAYOUT
  2
AcDbLayout
  3
ObjectDBX Classes
 90
        0
280
     0
281
     0
  0
CLASS
  1
TABLESTYLE
  2
AcDbTableStyle
  3
ObjectDBX Classes
 90
     4095
280
     0
281
     0
  0
CLASS
  1
MLEADERSTYLE
  2
AcDbMLeaderStyle
  3
ACDB_MLEADERSTYLE_CLASS
 90
     4095
280
     0
281
     0
  0
CLASS
  1
RASTERVARIABLES
  2
AcDbRasterVariables
  3
ISM
 90
        0
280
     0
281
     0
  0
ENDSEC
  0
SECTION
  2
TABLES
  0
TABLE
  2
VPORT
  5
8
330
0
100
AcDbSymbolTable
 70
     1
  0
VPORT
  5
29
330
8
100
AcDbSymbolTableRecord
100
AcDbViewportTableRecord
  2
*Active
 70
     0
 10
0.0
 20
0.0
 11
1.0
 21
1.0
 12
-17.2051958890717
 22
-23.50822302758635
 13
0.0
 23
0.0
 14
10.0
 24
10.0
 15
10.0
 25
10.0
 16
0.0
 26
0.0
 36
1.0
 17
0.0
 27
0.0
 37
0.0
 40
96.7541722442064
 41
1.516441005802708
 42
50.0
 43
0.0
 44
0.0
 50
0.0
 51
0.0
 71
    16
 72
  2000
 73
     1
 74
     3
 75
     0
 76
     0
 77
     0
 78
     0
281
     0
 65
     1
110
0.0
120
0.0
130
0.0
111
1.0
121
0.0
131
0.0
112
0.0
122
1.0
132
0.0
 79
     0
146
0.0
  0
ENDTAB
  0
TABLE
  2
LTYPE
  5
5
330
0
100
AcDbSymbolTable
 70
     6
  0
LTYPE
  5
14
330
5
100
AcDbSymbolTableRecord
100
AcDbLinetypeTableRecord
  2
ByBlock
 70
     0
  3

 72
    65
 73
     0
 40
0.0
  0
LTYPE
  5
15
330
5
100
AcDbSymbolTableRecord
100
AcDbLinetypeTableRecord
  2
ByLayer
 70
     0
  3

 72
    65
 73
     0
 40
0.0
  0
LTYPE
  5
16
330
5
100
AcDbSymbolTableRecord
100
AcDbLinetypeTableRecord
  2
Continuous
 70
     0
  3
Solid line
 72
    65
 73
     0
 40
0.0
  0
LTYPE
  5
6A
330
5
100
AcDbSymbolTableRecord
100
AcDbLinetypeTableRecord
  2
HIDDEN
 70
     0
  3
Hidden __ __ __ __ __ __ __ __ __ __ __ __ __ __
 72
    65
 73
     2
 40
1.905
 49
1.27
 74
     0
 49
-0.635
 74
     0
  0
LTYPE
  5
6B
330
5
100
AcDbSymbolTableRecord
100
AcDbLinetypeTableRecord
  2
PHANTOM
 70
     0
  3
Phantom ______  __  __  ______  __  __  ______
 72
    65
 73
     6
 40
12.7
 49
6.35
 74
     0
 49
-1.27
 74
     0
 49
1.27
 74
     0
 49
-1.27
 74
     0
 49
1.27
 74
     0
 49
-1.27
 74
     0
  0
LTYPE
  5
6C
330
5
100
AcDbSymbolTableRecord
100
AcDbLinetypeTableRecord
  2
CENTER
 70
     0
  3
Center ____ _ ____ _ ____ _ ____ _ ____ _ ____
 72
    65
 73
     4
 40
10.16
 49
6.35
 74
     0
 49
-1.27
 74
     0
 49
1.27
 74
     0
 49
-1.27
 74
     0
  0
LTYPE
  5
6D
330
5
100
AcDbSymbolTableRecord
100
AcDbLinetypeTableRecord
  2
CENTERX2
 70
     0
  3
Center (2x) ________  __  ________  __  _____
 72
    65
 73
     4
 40
20.32
 49
12.7
 74
     0
 49
-2.54
 74
     0
 49
2.54
 74
     0
 49
-2.54
 74
     0
  0
LTYPE
  5
6E
330
5
100
AcDbSymbolTableRecord
100
AcDbLinetypeTableRecord
  2
DOT2
 70
     0
  3
Dot (.5x) ........................................
 72
    65
 73
     2
 40
0.635
 49
0.0
 74
     0
 49
-0.635
 74
     0
  0
ENDTAB
  0
TABLE
  2
LAYER
  5
2
102
{ACAD_XDICTIONARY
360
204
102
}
330
0
100
AcDbSymbolTable
 70
    18
  0
LAYER
  5
10
330
2
100
AcDbSymbolTableRecord
100
AcDbLayerTableRecord
  2
0
 70
     0
 62
     7
  6
Continuous
370
    -3
390
F
  0
LAYER
  5
6F
330
2
100
AcDbSymbolTableRecord
100
AcDbLayerTableRecord
  2
FORMAT
 70
     0
 62
     2
  6
Continuous
370
    -3
390
F
  0
LAYER
  5
70
330
2
100
AcDbSymbolTableRecord
100
AcDbLayerTableRecord
  2
외형선
 70
     0
 62
     4
  6
Continuous
370
    30
390
F
  0
LAYER
  5
71
330
2
100
AcDbSymbolTableRecord
100
AcDbLayerTableRecord
  2
숨은선
 70
     0
 62
     2
  6
HIDDEN
370
    15
390
F
  0
LAYER
  5
72
330
2
100
AcDbSymbolTableRecord
100
AcDbLayerTableRecord
  2
중심선
 70
     0
 62
     1
  6
CENTERX2
370
    -3
390
F
  0
LAYER
  5
73
330
2
100
AcDbSymbolTableRecord
100
AcDbLayerTableRecord
  2
파단선
 70
     0
 62
     4
  6
Continuous
370
    -3
390
F
  0
LAYER
  5
74
330
2
100
AcDbSymbolTableRecord
100
AcDbLayerTableRecord
  2
해칭선
 70
     0
 62
   100
  6
Continuous
370
    -3
390
F
  0
LAYER
  5
75
330
2
100
AcDbSymbolTableRecord
100
AcDbLayerTableRecord
  2
가는실선
 70
     0
 62
     4
  6
Continuous
370
    -3
390
F
  0
LAYER
  5
76
330
2
100
AcDbSymbolTableRecord
100
AcDbLayerTableRecord
  2
치수_보조선
 70
     0
 62
     4
  6
Continuous
370
    -3
390
F
  0
LAYER
  5
77
330
2
100
AcDbSymbolTableRecord
100
AcDbLayerTableRecord
  2
치수문자_일반주서
 70
     0
 62
     7
  6
Continuous
370
    15
390
F
  0
LAYER
  5
78
330
2
100
AcDbSymbolTableRecord
100
AcDbLayerTableRecord
  2
개별주서
 70
     0
 62
   100
  6
Continuous
370
    30
390
F
  0
LAYER
  5
79
330
2
100
AcDbSymbolTableRecord
100
AcDbLayerTableRecord
  2
중간선
 70
     0
 62
     2
  6
Continuous
370
    15
390
F
  0
LAYER
  5
7A
330
2
100
AcDbSymbolTableRecord
100
AcDbLayerTableRecord
  2
윤곽선
 70
     0
 62
     3
  6
Continuous
370
    40
390
F
  0
LAYER
  5
7B
330
2
100
AcDbSymbolTableRecord
100
AcDbLayerTableRecord
  2
중심마크
 70
     0
 62
   100
  6
Continuous
370
    30
390
F
  0
LAYER
  5
7C
330
2
100
AcDbSymbolTableRecord
100
AcDbLayerTableRecord
  2
가상선
 70
     0
 62
     4
  6
PHANTOM
370
    -3
390
F
  0
LAYER
  5
7D
330
2
100
AcDbSymbolTableRecord
100
AcDbLayerTableRecord
  2
특수지정선
 70
     0
 62
     5
  6
CENTERX2
370
    60
390
F
  0
LAYER
  5
7E
330
2
100
AcDbSymbolTableRecord
100
AcDbLayerTableRecord
  2
참조1
 70
     0
 62
    -4
  6
Continuous
370
    -3
390
F
  0
LAYER
  5
148
330
2
100
AcDbSymbolTableRecord
100
AcDbLayerTableRecord
  2
Defpoints
 70
     0
 62
     7
  6
Continuous
290
     0
370
    -3
390
F
  0
ENDTAB
  0
TABLE
  2
STYLE
  5
3
330
0
100
AcDbSymbolTable
 70
     2
  0
STYLE
  5
11
330
3
100
AcDbSymbolTableRecord
100
AcDbTextStyleTableRecord
  2
Standard
 70
     0
 40
0.0
 41
1.0
 50
0.0
 71
     0
 42
3.5
  3
txt
  4

  0
STYLE
  5
94
330
3
100
AcDbSymbolTableRecord
100
AcDbTextStyleTableRecord
  2
SLDTEXTSTYLE0
 70
     0
 40
0.0
 41
0.75
 50
0.0
 71
     0
 42
3.5
  3
TXT
  4

  0
ENDTAB
  0
TABLE
  2
VIEW
  5
6
330
0
100
AcDbSymbolTable
 70
     0
  0
ENDTAB
  0
TABLE
  2
UCS
  5
7
330
0
100
AcDbSymbolTable
 70
     0
  0
ENDTAB
  0
TABLE
  2
APPID
  5
9
330
0
100
AcDbSymbolTable
 70
     1
  0
APPID
  5
12
330
9
100
AcDbSymbolTableRecord
100
AcDbRegAppTableRecord
  2
ACAD
 70
     0
  0
ENDTAB
  0
TABLE
  2
DIMSTYLE
  5
A
330
0
100
AcDbSymbolTable
 70
     3
100
AcDbDimStyleTable
  0
DIMSTYLE
105
27
330
A
100
AcDbSymbolTableRecord
100
AcDbDimStyleTableRecord
  2
ISO-25
 70
     0
 41
2.5
 42
0.625
 43
3.75
 44
1.25
 73
     0
 74
     0
 77
     1
 78
     8
140
2.5
141
2.5
143
0.03937007874016
147
0.625
171
     3
172
     1
178
     0
271
     2
272
     2
274
     3
278
    44
283
     0
284
     8
340
11
  0
DIMSTYLE
105
C6
102
{ACAD_REACTORS
330
236
330
237
330
238
330
239
102
}
330
A
100
AcDbSymbolTableRecord
100
AcDbDimStyleTableRecord
  2
SLDDIMSTYLE0
 70
     0
 41
3.302
 44
0.0
 45
0.000000001
 73
     0
 74
     0
 77
     1
 78
    12
 79
     3
140
3.5
143
0.0393700787401575
147
0.875
148
0.000000001
170
     1
172
     1
173
     1
178
     0
271
     2
272
     2
276
     2
284
    12
289
     0
340
94
  0
DIMSTYLE
105
EF
330
A
100
AcDbSymbolTableRecord
100
AcDbDimStyleTableRecord
  2
SLDDIMSTYLE1
 70
     0
 41
3.302
 44
0.0
 45
0.000000001
 73
     0
 74
     0
 77
     1
 78
    12
 79
     3
140
3.5
143
0.0393700787401575
147
0.875
148
0.000000001
170
     1
173
     1
178
     0
271
     2
272
     2
276
     2
284
    12
340
94
  0
ENDTAB
  0
TABLE
  2
BLOCK_RECORD
  5
1
330
0
100
AcDbSymbolTable
 70
    15
  0
BLOCK_RECORD
  5
1F
330
1
100
AcDbSymbolTableRecord
100
AcDbBlockTableRecord
  2
*Model_Space
340
22
  0
BLOCK_RECORD
  5
1B
330
1
100
AcDbSymbolTableRecord
100
AcDbBlockTableRecord
  2
*Paper_Space
340
1E
  0
BLOCK_RECORD
  5
23
330
1
100
AcDbSymbolTableRecord
100
AcDbBlockTableRecord
  2
*Paper_Space0
340
26
  0
BLOCK_RECORD
  5
7F
330
1
100
AcDbSymbolTableRecord
100
AcDbBlockTableRecord
  2
블럭10
340
0
102
{BLKREFS
331
209
102
}
  0
BLOCK_RECORD
  5
C7
330
1
100
AcDbSymbolTableRecord
100
AcDbBlockTableRecord
  2
_D
340
0
  0
BLOCK_RECORD
  5
DB
330
1
100
AcDbSymbolTableRecord
100
AcDbBlockTableRecord
  2
_D_1
340
0
  0
BLOCK_RECORD
  5
F0
330
1
100
AcDbSymbolTableRecord
100
AcDbBlockTableRecord
  2
_D_2
340
0
  0
BLOCK_RECORD
  5
103
330
1
100
AcDbSymbolTableRecord
100
AcDbBlockTableRecord
  2
_D_3
340
0
  0
BLOCK_RECORD
  5
11C
330
1
100
AcDbSymbolTableRecord
100
AcDbBlockTableRecord
  2
SW_DOWELSYMBOL_0
340
0
102
{BLKREFS
331
23A
102
}
  0
BLOCK_RECORD
  5
1B6
330
1
100
AcDbSymbolTableRecord
100
AcDbBlockTableRecord
  2
*D7
340
0
  0
BLOCK_RECORD
  5
1C3
330
1
100
AcDbSymbolTableRecord
100
AcDbBlockTableRecord
  2
*D8
340
0
  0
BLOCK_RECORD
  5
1D0
330
1
100
AcDbSymbolTableRecord
100
AcDbBlockTableRecord
  2
*D9
340
0
  0
BLOCK_RECORD
  5
1DD
330
1
100
AcDbSymbolTableRecord
100
AcDbBlockTableRecord
  2
*D10
340
0
  0
BLOCK_RECORD
  5
24C
330
1
100
AcDbSymbolTableRecord
100
AcDbBlockTableRecord
  2
*D11
340
0
  0
BLOCK_RECORD
  5
258
330
1
100
AcDbSymbolTableRecord
100
AcDbBlockTableRecord
  2
*D12
340
0
  0
BLOCK_RECORD
  5
264
330
1
100
AcDbSymbolTableRecord
100
AcDbBlockTableRecord
  2
*D13
340
0
  0
BLOCK_RECORD
  5
270
330
1
100
AcDbSymbolTableRecord
100
AcDbBlockTableRecord
  2
*D14
340
0
  0
ENDTAB
  0
ENDSEC
  0
SECTION
  2
BLOCKS
  0
BLOCK
  5
20
330
1F
100
AcDbEntity
  8
0
100
AcDbBlockBegin
  2
*Model_Space
 70
     0
 10
0.0
 20
0.0
 30
0.0
  3
*Model_Space
  1
*Model_Space
  0
ENDBLK
  5
21
330
1F
100
AcDbEntity
  8
0
100
AcDbBlockEnd
  0
BLOCK
  5
1C
330
1B
100
AcDbEntity
 67
     1
  8
0
100
AcDbBlockBegin
  2
*Paper_Space
 70
     0
 10
0.0
 20
0.0
 30
0.0
  3
*Paper_Space
  1
*Paper_Space
  0
ENDBLK
  5
1D
330
1B
100
AcDbEntity
 67
     1
  8
0
100
AcDbBlockEnd
  0
BLOCK
  5
24
330
23
100
AcDbEntity
  8
0
100
AcDbBlockBegin
  2
*Paper_Space0
 70
     0
 10
0.0
 20
0.0
 30
0.0
  3
*Paper_Space0
  1
*Paper_Space0
  0
ENDBLK
  5
25
330
23
100
AcDbEntity
  8
0
100
AcDbBlockEnd
  0
BLOCK
  5
80
330
7F
100
AcDbEntity
  8
0
100
AcDbBlockBegin
  2
블럭10
 70
     2
 10
0.0
 20
0.0
 30
0.0
  3
블럭10
  1
블럭10
  0
ELLIPSE
  5
82
330
7F
100
AcDbEntity
  8
중심선
100
AcDbEllipse
 10
20.54032771741204
 20
12.0471743016438
 30
0.0
 11
6.600054785286829
 21
-1.261213355974178E-13
 31
0.0
210
0.0
220
0.0
230
1.0
 40
0.636358354079598
 41
0.9219305317359503
 42
6.513795318482858
  0
ELLIPSE
  5
83
330
7F
100
AcDbEntity
  8
중심선
100
AcDbEllipse
 10
20.54032771746488
 20
12.04717430159265
 30
0.0
 11
3.960054785062283
 21
1.540847449632565E-10
 31
0.0
210
0.0
220
0.0
230
1.0
 40
0.3939339440162632
 41
1.131841032648279
 42
5.62031148352944
  0
LINE
  5
84
330
7F
100
AcDbEntity
  8
중심선
100
AcDbLine
 10
2.268634060543552
 20
16.24717430164393
 30
0.0
 11
5.714909304380834
 21
16.24717430164393
 31
0.0
  0
LINE
  5
85
330
7F
100
AcDbEntity
  8
중심선
100
AcDbLine
 10
5.245725140726316
 20
7.84717430164391
 30
0.0
 11
8.692000384563599
 21
7.84717430164391
 31
0.0
  0
LINE
  5
86
330
7F
100
AcDbEntity
  8
중심선
100
AcDbLine
 10
15.74043728645272
 20
16.24717430164393
 30
0.0
 11
8.692000384563599
 21
7.84717430164391
 31
0.0
  0
LINE
  5
87
330
7F
100
AcDbEntity
  8
중심선
100
AcDbLine
 10
0.1404042013395286
 20
13.71084872107135
 30
0.0
 11
3.58671253028996
 21
13.71088815037384
 31
0.0
  0
LINE
  5
88
330
7F
100
AcDbEntity
  8
중심선
100
AcDbLine
 10
2.750260043222114
 20
10.84717430164391
 30
0.0
 11
6.196535287059397
 21
10.84717430164391
 31
0.0
  0
LINE
  5
89
330
7F
100
AcDbEntity
  8
중심선
100
AcDbLine
 10
12.29416204261559
 20
16.24717430164393
 30
0.0
 11
5.245725140726316
 21
7.84717430164391
 31
0.0
  0
LINE
  5
8A
330
7F
100
AcDbEntity
  8
중심선
100
AcDbLine
 10
10.72767329541681
 20
16.24717430164393
 30
0.0
 11
6.196535287059397
 21
10.84717430164391
 31
0.0
  0
LINE
  5
8B
330
7F
100
AcDbEntity
  8
중심선
100
AcDbLine
 10
7.28139805157953
 20
16.24717430164393
 30
0.0
 11
2.750260043222114
 21
10.84717430164391
 31
0.0
  0
LINE
  5
8C
330
7F
100
AcDbEntity
  8
중심선
100
AcDbLine
 10
5.714909304380834
 20
16.24717430164393
 30
0.0
 11
3.58671253028996
 21
13.71088815037384
 31
0.0
  0
LINE
  5
8D
330
7F
100
AcDbEntity
  8
중심선
100
AcDbLine
 10
2.268634060543552
 20
16.24717430164393
 30
0.0
 11
0.1404042013395286
 21
13.71084872107135
 31
0.0
  0
LINE
  5
8E
330
7F
100
AcDbEntity
  8
중심선
100
AcDbLine
 10
7.28139805157953
 20
16.24717430164393
 30
0.0
 11
10.72767329541681
 21
16.24717430164393
 31
0.0
  0
LINE
  5
8F
330
7F
100
AcDbEntity
  8
중심선
100
AcDbLine
 10
12.29416204261559
 20
16.24717430164393
 30
0.0
 11
15.74043728645272
 21
16.24717430164393
 31
0.0
  0
LINE
  5
90
330
7F
100
AcDbEntity
  8
중심선
100
AcDbLine
 10
19.22036997980202
 20
11.08717430171403
 30
0.0
 11
23.66174974927406
 21
11.08717430171406
 31
0.0
  0
LINE
  5
91
330
7F
100
AcDbEntity
  8
중심선
100
AcDbLine
 10
19.22039502424796
 20
13.00717430171391
 30
0.0
 11
19.22036997980202
 21
11.08717430171403
 31
0.0
  0
LINE
  5
92
330
7F
100
AcDbEntity
  8
중심선
100
AcDbLine
 10
19.22039502424796
 20
13.00717430171391
 30
0.0
 11
26.96566020931264
 21
13.00717430171391
 31
0.0
  0
LINE
  5
93
330
7F
100
AcDbEntity
  8
중심선
100
AcDbLine
 10
22.22332737316547
 20
13.45928029700563
 30
0.0
 11
24.52862924686651
 21
15.39360700705356
 31
0.0
  0
ATTDEF
  5
95
330
7F
100
AcDbEntity
  8
FORMAT
 62
     2
100
AcDbText
 10
4.408487351596664
 20
2.075366912832191
 30
0.0
 40
4.233333333333333
  1
E2032060
 41
0.75
  7
SLDTEXTSTYLE0
 11
4.408487351596664
 21
-0.0412997538344756
 31
0.0
100
AcDbAttributeDefinition
  3

  2
AUTOATTR0
 70
     0
 74
     1
  0
ENDBLK
  5
81
330
7F
100
AcDbEntity
  8
0
100
AcDbBlockEnd
  0
BLOCK
  5
C8
330
C7
100
AcDbEntity
  8
0
100
AcDbBlockBegin
  2
_D
 70
     0
 10
0.0
 20
0.0
 30
0.0
  3
_D
  1
_D
  0
SOLID
  5
CA
330
C7
100
AcDbEntity
  8
치수문자_일반주서
100
AcDbTrace
 10
97.9119459855236
 20
12.5010749287239
 30
0.0
 11
98.4199459855236
 21
15.80307492872389
 31
0.0
 12
97.4039459855236
 22
15.80307492872389
 32
0.0
 13
97.4039459855236
 23
15.80307492872389
 33
0.0
  0
SOLID
  5
CB
330
C7
100
AcDbEntity
  8
치수문자_일반주서
100
AcDbTrace
 10
97.9119459855236
 20
-12.49892507127611
 30
0.0
 11
97.4039459855236
 21
-15.80092507127611
 31
0.0
 12
98.4199459855236
 22
-15.80092507127611
 32
0.0
 13
98.4199459855236
 23
-15.80092507127611
 33
0.0
  0
LINE
  5
CC
330
C7
100
AcDbEntity
  8
치수문자_일반주서
100
AcDbLine
 10
87.11906426948089
 20
-5.413291502344828
 30
0.0
 11
87.11906426948089
 21
-6.124228987909328
 31
0.0
  0
LINE
  5
CD
330
C7
100
AcDbEntity
  8
치수문자_일반주서
100
AcDbLine
 10
87.11906426948089
 20
-6.124228987909328
 30
0.0
 11
92.67531426054019
 21
-6.124228987909289
 31
0.0
  0
LINE
  5
CE
330
C7
100
AcDbEntity
  8
치수문자_일반주서
100
AcDbLine
 10
92.67531426054019
 20
-6.124228987909289
 30
0.0
 11
92.67531426054019
 21
-5.413291502344789
 31
0.0
  0
LINE
  5
CF
330
C7
100
AcDbEntity
  8
치수문자_일반주서
100
AcDbLine
 10
87.1190642694808
 20
5.41544135979243
 30
0.0
 11
87.1190642694808
 21
6.12637884535693
 31
0.0
  0
LINE
  5
D0
330
C7
100
AcDbEntity
  8
치수문자_일반주서
100
AcDbLine
 10
87.1190642694808
 20
6.12637884535693
 30
0.0
 11
92.6753142605401
 21
6.126378845356969
 31
0.0
  0
LINE
  5
D1
330
C7
100
AcDbEntity
  8
치수문자_일반주서
100
AcDbLine
 10
92.6753142605401
 20
6.126378845356969
 30
0.0
 11
92.6753142605401
 21
5.415441359792469
 31
0.0
  0
LINE
  5
D2
330
C7
100
AcDbEntity
  8
치수문자_일반주서
100
AcDbLine
 10
79.91194598552357
 20
12.5010749287239
 30
0.0
 11
98.9119459855236
 21
12.5010749287239
 31
0.0
  0
LINE
  5
D3
330
C7
100
AcDbEntity
  8
치수문자_일반주서
100
AcDbLine
 10
79.91194598552357
 20
-12.49892507127611
 30
0.0
 11
98.9119459855236
 21
-12.49892507127611
 31
0.0
  0
LINE
  5
D4
330
C7
100
AcDbEntity
  8
치수문자_일반주서
100
AcDbLine
 10
97.9119459855236
 20
12.5010749287239
 30
0.0
 11
97.9119459855236
 21
18.8510749287239
 31
0.0
  0
LINE
  5
D5
330
C7
100
AcDbEntity
  8
치수문자_일반주서
100
AcDbLine
 10
97.9119459855236
 20
12.5010749287239
 30
0.0
 11
97.9119459855236
 21
-12.49892507127611
 31
0.0
  0
LINE
  5
D6
330
C7
100
AcDbEntity
  8
치수문자_일반주서
100
AcDbLine
 10
97.9119459855236
 20
-12.49892507127611
 30
0.0
 11
97.9119459855236
 21
-18.84892507127611
 31
0.0
  0
MTEXT
  5
D7
330
C7
100
AcDbEntity
  8
치수문자_일반주서
100
AcDbMText
 10
88.16357734596129
 20
-4.52461960173345
 30
0.0
 40
3.5
 41
0.0
 71
     1
 72
     1
  1
0.98
  7
SLDTEXTSTYLE0
 11
-7.044195017643634E-15
 21
1.0
 31
0.0
 73
     1
 44
1.0
  0
MTEXT
  5
D8
330
C7
100
AcDbEntity
  8
치수문자_일반주서
100
AcDbMText
 10
93.40020889632177
 20
-5.22425519681665
 30
0.0
 40
3.5
 41
0.0
 71
     1
 72
     1
  1
%%c
  7
SLDTEXTSTYLE0
 11
-7.044195017643634E-15
 21
1.0
 31
0.0
 73
     1
 44
1.0
  0
MTEXT
  5
D9
330
C7
100
AcDbEntity
  8
치수문자_일반주서
100
AcDbMText
 10
93.40020889632173
 20
0.0541822015574309
 30
0.0
 40
3.5
 41
0.0
 71
     1
 72
     1
  1
25
  7
SLDTEXTSTYLE0
 11
-7.044195017643634E-15
 21
1.0
 31
0.0
 73
     1
 44
1.0
  0
ENDBLK
  5
C9
330
C7
100
AcDbEntity
  8
0
100
AcDbBlockEnd
  0
BLOCK
  5
DC
330
DB
100
AcDbEntity
  8
0
100
AcDbBlockBegin
  2
_D_1
 70
     0
 10
0.0
 20
0.0
 30
0.0
  3
_D_1
  1
_D_1
  0
SOLID
  5
DE
330
DB
100
AcDbEntity
  8
치수문자_일반주서
100
AcDbTrace
 10
-55.08805401447646
 20
7.938574928723906
 30
0.0
 11
-54.58005401447646
 21
11.24057492872391
 31
0.0
 12
-55.59605401447646
 22
11.24057492872391
 32
0.0
 13
-55.59605401447646
 23
11.24057492872391
 33
0.0
  0
SOLID
  5
DF
330
DB
100
AcDbEntity
  8
치수문자_일반주서
100
AcDbTrace
 10
-55.08805401447646
 20
-7.936425071276123
 30
0.0
 11
-55.59605401447646
 21
-11.23842507127612
 31
0.0
 12
-54.58005401447646
 22
-11.23842507127612
 32
0.0
 13
-54.58005401447646
 23
-11.23842507127612
 33
0.0
  0
LINE
  5
E0
330
DB
100
AcDbEntity
  8
치수문자_일반주서
100
AcDbLine
 10
-65.88093573051917
 20
-6.595745043212554
 30
0.0
 11
-65.88093573051917
 21
-7.306682528777054
 31
0.0
  0
LINE
  5
E1
330
DB
100
AcDbEntity
  8
치수문자_일반주서
100
AcDbLine
 10
-65.88093573051917
 20
-7.306682528777054
 30
0.0
 11
-60.32468573945987
 21
-7.306682528777015
 31
0.0
  0
LINE
  5
E2
330
DB
100
AcDbEntity
  8
치수문자_일반주서
100
AcDbLine
 10
-60.32468573945987
 20
-7.306682528777015
 30
0.0
 11
-60.32468573945987
 21
-6.595745043212514
 31
0.0
  0
LINE
  5
E3
330
DB
100
AcDbEntity
  8
치수문자_일반주서
100
AcDbLine
 10
-65.88093573051925
 20
4.232987818924705
 30
0.0
 11
-65.88093573051925
 21
4.943925304489205
 31
0.0
  0
LINE
  5
E4
330
DB
100
AcDbEntity
  8
치수문자_일반주서
100
AcDbLine
 10
-65.88093573051925
 20
4.943925304489205
 30
0.0
 11
-60.32468573945995
 21
4.943925304489244
 31
0.0
  0
LINE
  5
E5
330
DB
100
AcDbEntity
  8
치수문자_일반주서
100
AcDbLine
 10
-60.32468573945995
 20
4.943925304489244
 30
0.0
 11
-60.32468573945994
 21
4.232987818924744
 31
0.0
  0
LINE
  5
E6
330
DB
100
AcDbEntity
  8
치수문자_일반주서
100
AcDbLine
 10
-41.50055401447643
 20
7.938574928723908
 30
0.0
 11
-56.08805401447646
 21
7.938574928723906
 31
0.0
  0
LINE
  5
E7
330
DB
100
AcDbEntity
  8
치수문자_일반주서
100
AcDbLine
 10
-41.50055401447643
 20
-7.936425071276121
 30
0.0
 11
-56.08805401447646
 21
-7.936425071276123
 31
0.0
  0
LINE
  5
E8
330
DB
100
AcDbEntity
  8
치수문자_일반주서
100
AcDbLine
 10
-55.08805401447646
 20
7.938574928723906
 30
0.0
 11
-55.08805401447646
 21
14.28857492872391
 31
0.0
  0
LINE
  5
E9
330
DB
100
AcDbEntity
  8
치수문자_일반주서
100
AcDbLine
 10
-55.08805401447646
 20
7.938574928723906
 30
0.0
 11
-55.08805401447646
 21
-7.936425071276123
 31
0.0
  0
LINE
  5
EA
330
DB
100
AcDbEntity
  8
치수문자_일반주서
100
AcDbLine
 10
-55.08805401447646
 20
-7.936425071276123
 30
0.0
 11
-55.08805401447646
 21
-14.28642507127612
 31
0.0
  0
MTEXT
  5
EB
330
DB
100
AcDbEntity
  8
치수문자_일반주서
100
AcDbMText
 10
-64.83642265403878
 20
-5.707073142601175
 30
0.0
 40
3.5
 41
0.0
 71
     1
 72
     1
  1
0.63
  7
SLDTEXTSTYLE0
 11
-7.044195017643634E-15
 21
1.0
 31
0.0
 73
     1
 44
1.0
  0
MTEXT
  5
EC
330
DB
100
AcDbEntity
  8
치수문자_일반주서
100
AcDbMText
 10
-59.59979110367827
 20
-9.639347554964907
 30
0.0
 40
3.5
 41
0.0
 71
     1
 72
     1
  1
%%c
  7
SLDTEXTSTYLE0
 11
-7.044195017643634E-15
 21
1.0
 31
0.0
 73
     1
 44
1.0
  0
MTEXT
  5
ED
330
DB
100
AcDbEntity
  8
치수문자_일반주서
100
AcDbMText
 10
-59.59979110367831
 20
-4.360910156590827
 30
0.0
 40
3.5
 41
0.0
 71
     1
 72
     1
  1
15.88
  7
SLDTEXTSTYLE0
 11
-7.044195017643634E-15
 21
1.0
 31
0.0
 73
     1
 44
1.0
  0
ENDBLK
  5
DD
330
DB
100
AcDbEntity
  8
0
100
AcDbBlockEnd
  0
BLOCK
  5
F1
330
F0
100
AcDbEntity
  8
0
100
AcDbBlockBegin
  2
_D_2
 70
     0
 10
0.0
 20
0.0
 30
0.0
  3
_D_2
  1
_D_2
  0
SOLID
  5
F3
330
F0
100
AcDbEntity
  8
치수문자_일반주서
100
AcDbTrace
 10
78.91194598552357
 20
22.67968035247518
 30
0.0
 11
75.60994598552358
 21
23.18768035247518
 31
0.0
 12
75.60994598552358
 22
22.17168035247518
 32
0.0
 13
75.60994598552358
 23
22.17168035247518
 33
0.0
  0
SOLID
  5
F4
330
F0
100
AcDbEntity
  8
치수문자_일반주서
100
AcDbTrace
 10
33.91194598552358
 20
22.67968035247518
 30
0.0
 11
37.21394598552358
 21
22.17168035247518
 31
0.0
 12
37.21394598552358
 22
23.18768035247518
 32
0.0
 13
37.21394598552358
 23
23.18768035247518
 33
0.0
  0
LINE
  5
F5
330
F0
100
AcDbEntity
  8
치수문자_일반주서
100
AcDbLine
 10
50.99757990370087
 20
33.47256206851791
 30
0.0
 11
50.28664241813637
 21
33.47256206851792
 31
0.0
  0
LINE
  5
F6
330
F0
100
AcDbEntity
  8
치수문자_일반주서
100
AcDbLine
 10
50.28664241813637
 20
33.47256206851792
 30
0.0
 11
50.28664241813632
 21
27.91631207745861
 31
0.0
  0
LINE
  5
F7
330
F0
100
AcDbEntity
  8
치수문자_일반주서
100
AcDbLine
 10
50.28664241813632
 20
27.91631207745861
 30
0.0
 11
50.99757990370082
 21
27.91631207745861
 31
0.0
  0
LINE
  5
F8
330
F0
100
AcDbEntity
  8
치수문자_일반주서
100
AcDbLine
 10
61.82631276583813
 20
33.47256206851783
 30
0.0
 11
62.53725025140263
 21
33.47256206851782
 31
0.0
  0
LINE
  5
F9
330
F0
100
AcDbEntity
  8
치수문자_일반주서
100
AcDbLine
 10
62.53725025140263
 20
33.47256206851782
 30
0.0
 11
62.53725025140258
 21
27.91631207745852
 31
0.0
  0
LINE
  5
FA
330
F0
100
AcDbEntity
  8
치수문자_일반주서
100
AcDbLine
 10
62.53725025140258
 20
27.91631207745852
 30
0.0
 11
61.82631276583808
 21
27.91631207745853
 31
0.0
  0
LINE
  5
FB
330
F0
100
AcDbEntity
  8
치수문자_일반주서
100
AcDbLine
 10
78.91194598552357
 20
13.38935659994518
 30
0.0
 11
78.91194598552357
 21
23.67968035247518
 31
0.0
  0
LINE
  5
FC
330
F0
100
AcDbEntity
  8
치수문자_일반주서
100
AcDbLine
 10
33.91194598552358
 20
13.02991176338415
 30
0.0
 11
33.91194598552358
 21
23.67968035247518
 31
0.0
  0
LINE
  5
FD
330
F0
100
AcDbEntity
  8
치수문자_일반주서
100
AcDbLine
 10
78.91194598552357
 20
22.67968035247518
 30
0.0
 11
33.91194598552358
 21
22.67968035247518
 31
0.0
  0
MTEXT
  5
FE
330
F0
100
AcDbEntity
  8
치수문자_일반주서
100
AcDbMText
 10
49.77288369264962
 20
27.2448896183369
 30
0.0
 40
3.5
 41
0.0
 71
     1
 72
     1
  1

  7
SLDTEXTSTYLE0
 73
     1
 44
1.0
  0
MTEXT
  5
FF
330
F0
100
AcDbEntity
  8
치수문자_일반주서
100
AcDbMText
 10
51.88625180431223
 20
32.4280489920375
 30
0.0
 40
3.5
 41
0.0
 71
     1
 72
     1
  1
1.77
  7
SLDTEXTSTYLE0
 73
     1
 44
1.0
  0
MTEXT
  5
100
330
F0
100
AcDbEntity
  8
치수문자_일반주서
100
AcDbMText
 10
53.82583514124664
 20
27.19141744167701
 30
0.0
 40
3.5
 41
0.0
 71
     1
 72
     1
  1
45
  7
SLDTEXTSTYLE0
 73
     1
 44
1.0
  0
MTEXT
  5
101
330
F0
100
AcDbEntity
  8
치수문자_일반주서
100
AcDbMText
 10
64.3829534965432
 20
27.2448896183368
 30
0.0
 40
3.5
 41
0.0
 71
     1
 72
     1
  1

  7
SLDTEXTSTYLE0
 73
     1
 44
1.0
  0
ENDBLK
  5
F2
330
F0
100
AcDbEntity
  8
0
100
AcDbBlockEnd
  0
BLOCK
  5
104
330
103
100
AcDbEntity
  8
0
100
AcDbBlockBegin
  2
_D_3
 70
     0
 10
0.0
 20
0.0
 30
0.0
  3
_D_3
  1
_D_3
  0
SOLID
  5
106
330
103
100
AcDbEntity
  8
치수문자_일반주서
100
AcDbTrace
 10
78.91194598552357
 20
38.36394344956528
 30
0.0
 11
75.60994598552358
 21
38.87194344956529
 31
0.0
 12
75.60994598552358
 22
37.85594344956528
 32
0.0
 13
75.60994598552358
 23
37.85594344956528
 33
0.0
  0
SOLID
  5
107
330
103
100
AcDbEntity
  8
치수문자_일반주서
100
AcDbTrace
 10
-42.08805401447642
 20
38.36394344956528
 30
0.0
 11
-38.78605401447642
 21
37.85594344956527
 31
0.0
 12
-38.78605401447642
 22
38.87194344956528
 32
0.0
 13
-38.78605401447642
 23
38.87194344956528
 33
0.0
  0
LINE
  5
108
330
103
100
AcDbEntity
  8
치수문자_일반주서
100
AcDbLine
 10
14.47912979228456
 20
49.15682516560803
 30
0.0
 11
13.76819230672006
 21
49.15682516560804
 31
0.0
  0
LINE
  5
109
330
103
100
AcDbEntity
  8
치수문자_일반주서
100
AcDbLine
 10
13.76819230672006
 20
49.15682516560804
 30
0.0
 11
13.76819230672002
 21
43.60057517454874
 31
0.0
  0
LINE
  5
10A
330
103
100
AcDbEntity
  8
치수문자_일반주서
100
AcDbLine
 10
13.76819230672002
 20
43.60057517454874
 30
0.0
 11
14.47912979228452
 21
43.60057517454873
 31
0.0
  0
LINE
  5
10B
330
103
100
AcDbEntity
  8
치수문자_일반주서
100
AcDbLine
 10
25.30786265442182
 20
49.15682516560796
 30
0.0
 11
26.01880013998632
 21
49.15682516560796
 31
0.0
  0
LINE
  5
10C
330
103
100
AcDbEntity
  8
치수문자_일반주서
100
AcDbLine
 10
26.01880013998632
 20
49.15682516560796
 30
0.0
 11
26.01880013998629
 21
43.60057517454865
 31
0.0
  0
LINE
  5
10D
330
103
100
AcDbEntity
  8
치수문자_일반주서
100
AcDbLine
 10
26.01880013998629
 20
43.60057517454865
 30
0.0
 11
25.30786265442179
 21
43.60057517454866
 31
0.0
  0
LINE
  5
10E
330
103
100
AcDbEntity
  8
치수문자_일반주서
100
AcDbLine
 10
78.91194598552357
 20
13.21639659633511
 30
0.0
 11
78.91194598552357
 21
39.36394344956528
 31
0.0
  0
LINE
  5
10F
330
103
100
AcDbEntity
  8
치수문자_일반주서
100
AcDbLine
 10
-42.08805401447642
 20
7.351074928723897
 30
0.0
 11
-42.08805401447642
 21
39.36394344956528
 31
0.0
  0
LINE
  5
110
330
103
100
AcDbEntity
  8
치수문자_일반주서
100
AcDbLine
 10
78.91194598552357
 20
38.36394344956528
 30
0.0
 11
-42.08805401447642
 21
38.36394344956528
 31
0.0
  0
MTEXT
  5
111
330
103
100
AcDbEntity
  8
치수문자_일반주서
100
AcDbMText
 10
13.25443358123332
 20
42.92915271542702
 30
0.0
 40
3.5
 41
0.0
 71
     1
 72
     1
  1

  7
SLDTEXTSTYLE0
 73
     1
 44
1.0
  0
MTEXT
  5
112
330
103
100
AcDbEntity
  8
치수문자_일반주서
100
AcDbMText
 10
15.36780169289593
 20
48.11231208912763
 30
0.0
 40
3.5
 41
0.0
 71
     1
 72
     1
  1
4.76
  7
SLDTEXTSTYLE0
 73
     1
 44
1.0
  0
MTEXT
  5
113
330
103
100
AcDbEntity
  8
치수문자_일반주서
100
AcDbMText
 10
16.01432954948426
 20
42.87568053876715
 30
0.0
 40
3.5
 41
0.0
 71
     1
 72
     1
  1
121
  7
SLDTEXTSTYLE0
 73
     1
 44
1.0
  0
MTEXT
  5
114
330
103
100
AcDbEntity
  8
치수문자_일반주서
100
AcDbMText
 10
27.86450338512689
 20
42.92915271542692
 30
0.0
 40
3.5
 41
0.0
 71
     1
 72
     1
  1

  7
SLDTEXTSTYLE0
 73
     1
 44
1.0
  0
ENDBLK
  5
105
330
103
100
AcDbEntity
  8
0
100
AcDbBlockEnd
  0
BLOCK
  5
11D
330
11C
100
AcDbEntity
  8
0
100
AcDbBlockBegin
  2
SW_DOWELSYMBOL_0
 70
     0
 10
0.0
 20
0.0
 30
0.0
  3
SW_DOWELSYMBOL_0
  1
SW_DOWELSYMBOL_0
  0
CIRCLE
  5
11F
330
11C
100
AcDbEntity
  8
해칭선
 62
     0
100
AcDbCircle
 10
0.0
 20
0.0
 30
0.0
 40
3.000000000000001
  0
HATCH
  5
120
330
11C
100
AcDbEntity
  8
0
  6
Continuous
 62
     0
370
     0
100
AcDbHatch
 10
0.0
 20
0.0
 30
0.0
210
0.0
220
0.0
230
1.0
  2
SOLID
 70
     1
 71
     0
 91
        1
 92
        0
 93
        3
 72
     2
 10
0.0
 20
0.0
 40
3.000000000000001
 50
0.0
 51
90.0
 73
     1
 72
     1
 10
0.0
 20
3.000000000000001
 11
0.0
 21
0.0
 72
     1
 10
0.0
 20
0.0
 11
3.000000000000001
 21
0.0
 97
        0
 75
     0
 76
     1
 98
        1
 10
0.0
 20
0.0
  0
HATCH
  5
121
330
11C
100
AcDbEntity
  8
0
  6
Continuous
 62
     0
370
     0
100
AcDbHatch
 10
0.0
 20
0.0
 30
0.0
210
0.0
220
0.0
230
1.0
  2
SOLID
 70
     1
 71
     0
 91
        1
 92
        0
 93
        3
 72
     2
 10
0.0
 20
0.0
 40
3.000000000000001
 50
180.0
 51
270.0000000000007
 73
     1
 72
     1
 10
0.0
 20
-3.000000000000001
 11
0.0
 21
0.0
 72
     1
 10
0.0
 20
0.0
 11
-3.000000000000001
 21
0.0
 97
        0
 75
     0
 76
     1
 98
        1
 10
0.0
 20
0.0
  0
ENDBLK
  5
11E
330
11C
100
AcDbEntity
  8
0
100
AcDbBlockEnd
  0
BLOCK
  5
1B7
330
1B6
100
AcDbEntity
  8
0
100
AcDbBlockBegin
  2
*D7
 70
     1
 10
0.0
 20
0.0
 30
0.0
  3
*D7
  1
*D8
  0
LINE
  5
1B8
330
1B6
100
AcDbEntity
  8
치수문자_일반주서
 62
     0
370
    -2
100
AcDbLine
 10
18.90000000000005
 20
57.90930738881176
 30
0.0
 11
4.375000000000029
 21
57.9093073888117
 31
0.0
  0
LINE
  5
1B9
330
1B6
100
AcDbEntity
  8
치수문자_일반주서
 62
     0
370
    -2
100
AcDbLine
 10
18.90000000000005
 20
42.03430738881173
 30
0.0
 11
4.375000000000084
 21
42.03430738881168
 31
0.0
  0
LINE
  5
1BA
330
1B6
100
AcDbEntity
  8
치수문자_일반주서
 62
     0
370
    -2
100
AcDbLine
 10
4.375000000000041
 20
54.60730738881171
 30
0.0
 11
4.375000000000073
 21
45.33630738881168
 31
0.0
  0
SOLID
  5
1BB
330
1B6
100
AcDbEntity
  8
치수문자_일반주서
 62
     0
100
AcDbTrace
 10
4.925333333333374
 20
54.60730738881171
 30
0.0
 11
3.824666666666708
 21
54.60730738881171
 31
0.0
 12
4.375000000000029
 22
57.9093073888117
 32
0.0
 13
4.375000000000029
 23
57.9093073888117
 33
0.0
  0
SOLID
  5
1BC
330
1B6
100
AcDbEntity
  8
치수문자_일반주서
 62
     0
100
AcDbTrace
 10
3.82466666666674
 20
45.33630738881168
 30
0.0
 11
4.925333333333406
 21
45.33630738881168
 31
0.0
 12
4.375000000000084
 22
42.03430738881168
 32
0.0
 13
4.375000000000084
 23
42.03430738881168
 33
0.0
  0
MTEXT
  5
1BD
330
1B6
100
AcDbEntity
  8
치수문자_일반주서
 62
     0
100
AcDbMText
 10
0.0000000000000568
 20
49.97180738881175
 30
0.0
 40
3.5
 41
0.0
 71
     2
 72
     1
  1
\A1;%%c15.88 [5/8]
  7
SLDTEXTSTYLE0
 11
-3.468791308435129E-15
 21
1.0
 31
0.0
 73
     1
 44
1.0
  0
POINT
  5
1BE
330
1B6
100
AcDbEntity
  8
Defpoints
 62
     0
100
AcDbPoint
 10
18.96250000000005
 20
57.90930738881176
 30
0.0
  0
POINT
  5
1BF
330
1B6
100
AcDbEntity
  8
Defpoints
 62
     0
100
AcDbPoint
 10
18.96250000000005
 20
42.03430738881173
 30
0.0
  0
POINT
  5
1C0
330
1B6
100
AcDbEntity
  8
Defpoints
 62
     0
100
AcDbPoint
 10
4.375000000000085
 20
42.03430738881168
 30
0.0
  0
ENDBLK
  5
1C1
330
1B6
100
AcDbEntity
  8
0
100
AcDbBlockEnd
  0
BLOCK
  5
1C4
330
1C3
100
AcDbEntity
  8
0
100
AcDbBlockBegin
  2
*D8
 70
     1
 10
0.0
 20
0.0
 30
0.0
  3
*D8
  1
*D9
  0
LINE
  5
1C5
330
1C3
100
AcDbEntity
  8
치수문자_일반주서
 62
     0
370
    -2
100
AcDbLine
 10
118.9750000000001
 20
60.35305738881166
 30
0.0
 11
118.9750000000001
 21
89.51723933872377
 31
0.0
  0
LINE
  5
1C6
330
1C3
100
AcDbEntity
  8
치수문자_일반주서
 62
     0
370
    -2
100
AcDbLine
 10
71.3500000000001
 20
59.89195046101944
 30
0.0
 11
71.3500000000001
 21
89.51723933872377
 31
0.0
  0
LINE
  5
1C7
330
1C3
100
AcDbEntity
  8
치수문자_일반주서
 62
     0
370
    -2
100
AcDbLine
 10
115.6730000000001
 20
89.51723933872377
 30
0.0
 11
74.6520000000001
 21
89.51723933872377
 31
0.0
  0
SOLID
  5
1C8
330
1C3
100
AcDbEntity
  8
치수문자_일반주서
 62
     0
100
AcDbTrace
 10
115.6730000000001
 20
88.96690600539044
 30
0.0
 11
115.6730000000001
 21
90.0675726720571
 31
0.0
 12
118.9750000000001
 22
89.51723933872377
 32
0.0
 13
118.9750000000001
 23
89.51723933872377
 33
0.0
  0
SOLID
  5
1C9
330
1C3
100
AcDbEntity
  8
치수문자_일반주서
 62
     0
100
AcDbTrace
 10
74.6520000000001
 20
90.0675726720571
 30
0.0
 11
74.6520000000001
 21
88.96690600539044
 31
0.0
 12
71.3500000000001
 22
89.51723933872377
 32
0.0
 13
71.3500000000001
 23
89.51723933872377
 33
0.0
  0
MTEXT
  5
1CA
330
1C3
100
AcDbEntity
  8
치수문자_일반주서
 62
     0
100
AcDbMText
 10
92.14625000000008
 20
93.89223933872377
 30
0.0
 40
3.5
 41
0.0
 71
     2
 72
     1
  1
\A1;47.63 [1 7/8]
  7
SLDTEXTSTYLE0
 73
     1
 44
1.0
  0
POINT
  5
1CB
330
1C3
100
AcDbEntity
  8
Defpoints
 62
     0
100
AcDbPoint
 10
118.9750000000001
 20
60.29055738881166
 30
0.0
  0
POINT
  5
1CC
330
1C3
100
AcDbEntity
  8
Defpoints
 62
     0
100
AcDbPoint
 10
71.3500000000001
 20
59.82945046101944
 30
0.0
  0
POINT
  5
1CD
330
1C3
100
AcDbEntity
  8
Defpoints
 62
     0
100
AcDbPoint
 10
71.3500000000001
 20
89.51723933872377
 30
0.0
  0
ENDBLK
  5
1CE
330
1C3
100
AcDbEntity
  8
0
100
AcDbBlockEnd
  0
BLOCK
  5
1D1
330
1D0
100
AcDbEntity
  8
0
100
AcDbBlockBegin
  2
*D9
 70
     1
 10
0.0
 20
0.0
 30
0.0
  3
*D9
  1
*D10
  0
LINE
  5
1D2
330
1D0
100
AcDbEntity
  8
치수문자_일반주서
 62
     0
370
    -2
100
AcDbLine
 10
118.9750000000001
 20
60.35305738881166
 30
0.0
 11
118.9750000000001
 21
105.1172393387238
 31
0.0
  0
LINE
  5
1D3
330
1D0
100
AcDbEntity
  8
치수문자_일반주서
 62
     0
370
    -2
100
AcDbLine
 10
17.37500000000007
 20
56.38430738881176
 30
0.0
 11
17.37500000000007
 21
105.1172393387238
 31
0.0
  0
LINE
  5
1D4
330
1D0
100
AcDbEntity
  8
치수문자_일반주서
 62
     0
370
    -2
100
AcDbLine
 10
115.6730000000001
 20
105.1172393387238
 30
0.0
 11
20.67700000000007
 21
105.1172393387238
 31
0.0
  0
SOLID
  5
1D5
330
1D0
100
AcDbEntity
  8
치수문자_일반주서
 62
     0
100
AcDbTrace
 10
115.6730000000001
 20
104.5669060053905
 30
0.0
 11
115.6730000000001
 21
105.6675726720571
 31
0.0
 12
118.9750000000001
 22
105.1172393387238
 32
0.0
 13
118.9750000000001
 23
105.1172393387238
 33
0.0
  0
SOLID
  5
1D6
330
1D0
100
AcDbEntity
  8
치수문자_일반주서
 62
     0
100
AcDbTrace
 10
20.67700000000007
 20
105.6675726720571
 30
0.0
 11
20.67700000000007
 21
104.5669060053905
 31
0.0
 12
17.37500000000007
 22
105.1172393387238
 32
0.0
 13
17.37500000000007
 23
105.1172393387238
 33
0.0
  0
MTEXT
  5
1D7
330
1D0
100
AcDbEntity
  8
치수문자_일반주서
 62
     0
100
AcDbMText
 10
70.52101805201077
 20
109.4922393387238
 30
0.0
 40
3.5
 41
0.0
 71
     2
 72
     1
  1
\A1;101.6 [4]
  7
SLDTEXTSTYLE0
 73
     1
 44
1.0
  0
POINT
  5
1D8
330
1D0
100
AcDbEntity
  8
Defpoints
 62
     0
100
AcDbPoint
 10
118.9750000000001
 20
60.29055738881166
 30
0.0
  0
POINT
  5
1D9
330
1D0
100
AcDbEntity
  8
Defpoints
 62
     0
100
AcDbPoint
 10
17.37500000000007
 20
56.32180738881176
 30
0.0
  0
POINT
  5
1DA
330
1D0
100
AcDbEntity
  8
Defpoints
 62
     0
100
AcDbPoint
 10
17.37500000000007
 20
105.1172393387238
 30
0.0
  0
ENDBLK
  5
1DB
330
1D0
100
AcDbEntity
  8
0
100
AcDbBlockEnd
  0
BLOCK
  5
1DE
330
1DD
100
AcDbEntity
  8
0
100
AcDbBlockBegin
  2
*D10
 70
     1
 10
0.0
 20
0.0
 30
0.0
  3
*D10
  1
*D11
  0
LINE
  5
1DF
330
1DD
100
AcDbEntity
  8
치수문자_일반주서
 62
     0
370
    -2
100
AcDbLine
 10
119.0375000000001
 20
60.29055738881166
 30
0.0
 11
145.8099378954082
 21
60.29055738881176
 31
0.0
  0
LINE
  5
1E0
330
1DD
100
AcDbEntity
  8
치수문자_일반주서
 62
     0
370
    -2
100
AcDbLine
 10
119.0375000000001
 20
39.65305738881164
 30
0.0
 11
145.8099378954082
 21
39.65305738881174
 31
0.0
  0
LINE
  5
1E1
330
1DD
100
AcDbEntity
  8
치수문자_일반주서
 62
     0
370
    -2
100
AcDbLine
 10
145.8099378954082
 20
60.29055738881176
 30
0.0
 11
145.809937895408
 21
103.0445073888118
 31
0.0
  0
LINE
  5
1E2
330
1DD
100
AcDbEntity
  8
치수문자_일반주서
 62
     0
370
    -2
100
AcDbLine
 10
145.8099378954082
 20
60.29055738881176
 30
0.0
 11
145.8099378954082
 21
39.65305738881174
 31
0.0
  0
LINE
  5
1E3
330
1DD
100
AcDbEntity
  8
치수문자_일반주서
 62
     0
370
    -2
100
AcDbLine
 10
145.8099378954082
 20
63.59255738881176
 30
0.0
 11
145.8099378954082
 21
66.89455738881176
 31
0.0
  0
LINE
  5
1E4
330
1DD
100
AcDbEntity
  8
치수문자_일반주서
 62
     0
370
    -2
100
AcDbLine
 10
145.8099378954082
 20
36.35105738881174
 30
0.0
 11
145.8099378954082
 21
33.04905738881174
 31
0.0
  0
SOLID
  5
1E5
330
1DD
100
AcDbEntity
  8
치수문자_일반주서
 62
     0
100
AcDbTrace
 10
145.2596045620748
 20
63.59255738881176
 30
0.0
 11
146.3602712287415
 21
63.59255738881176
 31
0.0
 12
145.8099378954082
 22
60.29055738881176
 32
0.0
 13
145.8099378954082
 23
60.29055738881176
 33
0.0
  0
SOLID
  5
1E6
330
1DD
100
AcDbEntity
  8
치수문자_일반주서
 62
     0
100
AcDbTrace
 10
146.3602712287416
 20
36.35105738881174
 30
0.0
 11
145.2596045620749
 21
36.35105738881174
 31
0.0
 12
145.8099378954082
 22
39.65305738881174
 32
0.0
 13
145.8099378954082
 23
39.65305738881174
 33
0.0
  0
MTEXT
  5
1E7
330
1DD
100
AcDbEntity
  8
치수문자_일반주서
 62
     0
100
AcDbMText
 10
141.434937895408
 20
87.07575738881174
 30
0.0
 40
3.5
 41
0.0
 71
     2
 72
     1
  1
\A1;%%c20.64 [13/16]
  7
SLDTEXTSTYLE0
 11
-4.131562848756483E-15
 21
1.0
 31
0.0
 73
     1
 44
1.0
  0
POINT
  5
1E8
330
1DD
100
AcDbEntity
  8
Defpoints
 62
     0
100
AcDbPoint
 10
118.9750000000001
 20
60.29055738881166
 30
0.0
  0
POINT
  5
1E9
330
1DD
100
AcDbEntity
  8
Defpoints
 62
     0
100
AcDbPoint
 10
118.9750000000001
 20
39.65305738881164
 30
0.0
  0
POINT
  5
1EA
330
1DD
100
AcDbEntity
  8
Defpoints
 62
     0
100
AcDbPoint
 10
145.8099378954082
 20
39.65305738881174
 30
0.0
  0
ENDBLK
  5
1EB
330
1DD
100
AcDbEntity
  8
0
100
AcDbBlockEnd
  0
BLOCK
  5
24D
330
24C
100
AcDbEntity
  8
0
100
AcDbBlockBegin
  2
*D11
 70
     1
 10
0.0
 20
0.0
 30
0.0
  3
*D11
  1
*D12
  0
LINE
  5
24F
330
24C
100
AcDbEntity
  8
치수문자_일반주서
 62
     0
370
    -2
100
AcDbLine
 10
-50.44999999999999
 20
7.938574928723909
 30
0.0
 11
-64.975
 21
7.938574928723853
 31
0.0
  0
LINE
  5
250
330
24C
100
AcDbEntity
  8
치수문자_일반주서
 62
     0
370
    -2
100
AcDbLine
 10
-50.44999999999999
 20
-7.936425071276119
 30
0.0
 11
-64.97499999999994
 21
-7.936425071276175
 31
0.0
  0
LINE
  5
251
330
24C
100
AcDbEntity
  8
치수문자_일반주서
 62
     0
370
    -2
100
AcDbLine
 10
-64.97499999999998
 20
4.636574928723854
 30
0.0
 11
-64.97499999999995
 21
-4.634425071276175
 31
0.0
  0
SOLID
  5
252
330
24C
100
AcDbEntity
  8
치수문자_일반주서
 62
     0
100
AcDbTrace
 10
-64.42466666666665
 20
4.636574928723856
 30
0.0
 11
-65.52533333333331
 21
4.636574928723852
 31
0.0
 12
-64.975
 22
7.938574928723853
 32
0.0
 13
-64.975
 23
7.938574928723853
 33
0.0
  0
SOLID
  5
253
330
24C
100
AcDbEntity
  8
치수문자_일반주서
 62
     0
100
AcDbTrace
 10
-65.52533333333328
 20
-4.634425071276177
 30
0.0
 11
-64.42466666666662
 21
-4.634425071276174
 31
0.0
 12
-64.97499999999994
 22
-7.936425071276175
 32
0.0
 13
-64.97499999999994
 23
-7.936425071276175
 33
0.0
  0
MTEXT
  5
254
330
24C
100
AcDbEntity
  8
치수문자_일반주서
 62
     0
100
AcDbMText
 10
-69.34999999999997
 20
0.0010749287238938
 30
0.0
 40
3.5
 41
0.0
 71
     2
 72
     1
  1
\A1;%%c15.88 [5/8]
  7
SLDTEXTSTYLE0
 11
-3.580687802255617E-15
 21
1.0
 31
0.0
 73
     1
 44
1.0
  0
POINT
  5
255
330
24C
100
AcDbEntity
  8
Defpoints
 62
     0
100
AcDbPoint
 10
-50.38749999999999
 20
7.938574928723909
 30
0.0
  0
POINT
  5
256
330
24C
100
AcDbEntity
  8
Defpoints
 62
     0
100
AcDbPoint
 10
-50.38749999999999
 20
-7.936425071276119
 30
0.0
  0
POINT
  5
257
330
24C
100
AcDbEntity
  8
Defpoints
 62
     0
100
AcDbPoint
 10
-64.97499999999994
 20
-7.936425071276173
 30
0.0
  0
ENDBLK
  5
24E
330
24C
100
AcDbEntity
  8
0
100
AcDbBlockEnd
  0
BLOCK
  5
259
330
258
100
AcDbEntity
  8
0
100
AcDbBlockBegin
  2
*D12
 70
     1
 10
0.0
 20
0.0
 30
0.0
  3
*D12
  1
*D13
  0
LINE
  5
25B
330
258
100
AcDbEntity
  8
치수문자_일반주서
 62
     0
370
    -2
100
AcDbLine
 10
49.62500000000006
 20
11.9698249303113
 30
0.0
 11
49.62500000000006
 21
39.54650687863592
 31
0.0
  0
LINE
  5
25C
330
258
100
AcDbEntity
  8
치수문자_일반주서
 62
     0
370
    -2
100
AcDbLine
 10
2.000000000000057
 20
11.93958135676584
 30
0.0
 11
2.000000000000057
 21
39.54650687863592
 31
0.0
  0
LINE
  5
25D
330
258
100
AcDbEntity
  8
치수문자_일반주서
 62
     0
370
    -2
100
AcDbLine
 10
46.32300000000006
 20
39.54650687863592
 30
0.0
 11
5.302000000000056
 21
39.54650687863592
 31
0.0
  0
SOLID
  5
25E
330
258
100
AcDbEntity
  8
치수문자_일반주서
 62
     0
100
AcDbTrace
 10
46.32300000000006
 20
38.99617354530258
 30
0.0
 11
46.32300000000006
 21
40.09684021196925
 31
0.0
 12
49.62500000000006
 22
39.54650687863592
 32
0.0
 13
49.62500000000006
 23
39.54650687863592
 33
0.0
  0
SOLID
  5
25F
330
258
100
AcDbEntity
  8
치수문자_일반주서
 62
     0
100
AcDbTrace
 10
5.302000000000056
 20
40.09684021196925
 30
0.0
 11
5.302000000000056
 21
38.99617354530258
 31
0.0
 12
2.000000000000057
 22
39.54650687863592
 32
0.0
 13
2.000000000000057
 23
39.54650687863592
 33
0.0
  0
MTEXT
  5
260
330
258
100
AcDbEntity
  8
치수문자_일반주서
 62
     0
100
AcDbMText
 10
22.79625000000004
 20
43.92150687863592
 30
0.0
 40
3.5
 41
0.0
 71
     2
 72
     1
  1
\A1;47.63 [1 7/8]
  7
SLDTEXTSTYLE0
 73
     1
 44
1.0
  0
POINT
  5
261
330
258
100
AcDbEntity
  8
Defpoints
 62
     0
100
AcDbPoint
 10
49.62500000000006
 20
11.9073249303113
 30
0.0
  0
POINT
  5
262
330
258
100
AcDbEntity
  8
Defpoints
 62
     0
100
AcDbPoint
 10
2.000000000000057
 20
11.87708135676584
 30
0.0
  0
POINT
  5
263
330
258
100
AcDbEntity
  8
Defpoints
 62
     0
100
AcDbPoint
 10
2.000000000000057
 20
39.54650687863592
 30
0.0
  0
ENDBLK
  5
25A
330
258
100
AcDbEntity
  8
0
100
AcDbBlockEnd
  0
BLOCK
  5
265
330
264
100
AcDbEntity
  8
0
100
AcDbBlockBegin
  2
*D13
 70
     1
 10
0.0
 20
0.0
 30
0.0
  3
*D13
  1
*D14
  0
LINE
  5
267
330
264
100
AcDbEntity
  8
치수문자_일반주서
 62
     0
370
    -2
100
AcDbLine
 10
49.62500000000006
 20
11.9698249303113
 30
0.0
 11
49.62500000000006
 21
55.14650687863593
 31
0.0
  0
LINE
  5
268
330
264
100
AcDbEntity
  8
치수문자_일반주서
 62
     0
370
    -2
100
AcDbLine
 10
-51.97499999999997
 20
6.413574928723904
 30
0.0
 11
-51.97499999999997
 21
55.14650687863593
 31
0.0
  0
LINE
  5
269
330
264
100
AcDbEntity
  8
치수문자_일반주서
 62
     0
370
    -2
100
AcDbLine
 10
46.32300000000006
 20
55.14650687863593
 30
0.0
 11
-48.67299999999997
 21
55.14650687863593
 31
0.0
  0
SOLID
  5
26A
330
264
100
AcDbEntity
  8
치수문자_일반주서
 62
     0
100
AcDbTrace
 10
46.32300000000006
 20
54.59617354530259
 30
0.0
 11
46.32300000000006
 21
55.69684021196926
 31
0.0
 12
49.62500000000006
 22
55.14650687863593
 32
0.0
 13
49.62500000000006
 23
55.14650687863593
 33
0.0
  0
SOLID
  5
26B
330
264
100
AcDbEntity
  8
치수문자_일반주서
 62
     0
100
AcDbTrace
 10
-48.67299999999997
 20
55.69684021196926
 30
0.0
 11
-48.67299999999997
 21
54.59617354530259
 31
0.0
 12
-51.97499999999997
 22
55.14650687863593
 32
0.0
 13
-51.97499999999997
 23
55.14650687863593
 33
0.0
  0
MTEXT
  5
26C
330
264
100
AcDbEntity
  8
치수문자_일반주서
 62
     0
100
AcDbMText
 10
1.171018052010766
 20
59.52150687863593
 30
0.0
 40
3.5
 41
0.0
 71
     2
 72
     1
  1
\A1;101.6 [4]
  7
SLDTEXTSTYLE0
 73
     1
 44
1.0
  0
POINT
  5
26D
330
264
100
AcDbEntity
  8
Defpoints
 62
     0
100
AcDbPoint
 10
49.62500000000006
 20
11.9073249303113
 30
0.0
  0
POINT
  5
26E
330
264
100
AcDbEntity
  8
Defpoints
 62
     0
100
AcDbPoint
 10
-51.97499999999997
 20
6.351074928723904
 30
0.0
  0
POINT
  5
26F
330
264
100
AcDbEntity
  8
Defpoints
 62
     0
100
AcDbPoint
 10
-51.97499999999997
 20
55.14650687863593
 30
0.0
  0
ENDBLK
  5
266
330
264
100
AcDbEntity
  8
0
100
AcDbBlockEnd
  0
BLOCK
  5
271
330
270
100
AcDbEntity
  8
0
100
AcDbBlockBegin
  2
*D14
 70
     1
 10
0.0
 20
0.0
 30
0.0
  3
*D14
  1
*D15
  0
LINE
  5
273
330
270
100
AcDbEntity
  8
치수문자_일반주서
 62
     0
370
    -2
100
AcDbLine
 10
49.68750000000006
 20
11.9073249303113
 30
0.0
 11
80.58838988344553
 21
11.90732493031141
 31
0.0
  0
LINE
  5
274
330
270
100
AcDbEntity
  8
치수문자_일반주서
 62
     0
370
    -2
100
AcDbLine
 10
49.68750000000006
 20
-11.90517507286373
 30
0.0
 11
80.58838988344561
 21
-11.90517507286361
 31
0.0
  0
LINE
  5
275
330
270
100
AcDbEntity
  8
치수문자_일반주서
 62
     0
370
    -2
100
AcDbLine
 10
80.58838988344553
 20
11.90732493031141
 30
0.0
 11
80.58838988344536
 21
58.56332493443222
 31
0.0
  0
LINE
  5
276
330
270
100
AcDbEntity
  8
치수문자_일반주서
 62
     0
370
    -2
100
AcDbLine
 10
80.58838988344553
 20
11.90732493031141
 30
0.0
 11
80.58838988344561
 21
-11.90517507286361
 31
0.0
  0
LINE
  5
277
330
270
100
AcDbEntity
  8
치수문자_일반주서
 62
     0
370
    -2
100
AcDbLine
 10
80.58838988344552
 20
15.20932493031141
 30
0.0
 11
80.5883898834455
 21
18.51132493031141
 31
0.0
  0
LINE
  5
278
330
270
100
AcDbEntity
  8
치수문자_일반주서
 62
     0
370
    -2
100
AcDbLine
 10
80.58838988344563
 20
-15.20717507286361
 30
0.0
 11
80.58838988344564
 21
-18.50917507286361
 31
0.0
  0
SOLID
  5
279
330
270
100
AcDbEntity
  8
치수문자_일반주서
 62
     0
100
AcDbTrace
 10
80.03805655011219
 20
15.20932493031141
 30
0.0
 11
81.13872321677884
 21
15.20932493031141
 31
0.0
 12
80.58838988344553
 22
11.90732493031141
 32
0.0
 13
80.58838988344553
 23
11.90732493031141
 33
0.0
  0
SOLID
  5
27A
330
270
100
AcDbEntity
  8
치수문자_일반주서
 62
     0
100
AcDbTrace
 10
81.13872321677896
 20
-15.20717507286361
 30
0.0
 11
80.0380565501123
 21
-15.20717507286362
 31
0.0
 12
80.58838988344561
 22
-11.90517507286361
 32
0.0
 13
80.58838988344561
 23
-11.90517507286361
 33
0.0
  0
MTEXT
  5
27B
330
270
100
AcDbEntity
  8
치수문자_일반주서
 62
     0
100
AcDbMText
 10
76.21338988344542
 20
42.8133249344322
 30
0.0
 40
3.5
 41
0.0
 71
     2
 72
     1
  1
\A1;%%c23.81 [15/16]
  7
SLDTEXTSTYLE0
 11
-3.580687801778194E-15
 21
1.0
 31
0.0
 73
     1
 44
1.0
  0
POINT
  5
27C
330
270
100
AcDbEntity
  8
Defpoints
 62
     0
100
AcDbPoint
 10
49.62500000000006
 20
11.9073249303113
 30
0.0
  0
POINT
  5
27D
330
270
100
AcDbEntity
  8
Defpoints
 62
     0
100
AcDbPoint
 10
49.62500000000006
 20
-11.90517507286373
 30
0.0
  0
POINT
  5
27E
330
270
100
AcDbEntity
  8
Defpoints
 62
     0
100
AcDbPoint
 10
80.58838988344553
 20
-11.90517507286362
 30
0.0
  0
ENDBLK
  5
272
330
270
100
AcDbEntity
  8
0
100
AcDbBlockEnd
  0
ENDSEC
  0
SECTION
  2
ENTITIES
  0
LINE
  5
BB
330
1F
100
AcDbEntity
  8
참조1
100
AcDbLine
 10
18.41194598552359
 20
0.0010749287238892
 30
0.0
 11
18.4119459855236
 21
-39.99892507127611
 31
0.0
  0
LINE
  5
BC
330
1F
100
AcDbEntity
  8
참조1
100
AcDbLine
 10
18.4119459855236
 20
-39.99892507127611
 30
0.0
 11
3.253089171214916
 21
-39.9989250712761
 31
0.0
  0
LINE
  5
115
330
1F
100
AcDbEntity
  8
참조1
100
AcDbLine
 10
101.2254298008692
 20
7.441074928723896
 30
0.0
 11
101.2254298008692
 21
-7.438925071276109
 31
0.0
  0
LINE
  5
116
330
1F
100
AcDbEntity
  8
참조1
100
AcDbLine
 10
113.9254298008692
 20
5.441074928723896
 30
0.0
 11
101.2254298008692
 21
5.441074928723896
 31
0.0
  0
SOLID
  5
117
330
1F
100
AcDbEntity
  8
참조1
100
AcDbTrace
 10
101.2254298008692
 20
5.441074928723896
 30
0.0
 11
107.5754298008692
 21
4.425074928723896
 31
0.0
 12
107.5754298008692
 22
6.457074928723896
 32
0.0
 13
107.5754298008692
 23
6.457074928723896
 33
0.0
  0
LINE
  5
118
330
1F
100
AcDbEntity
  8
참조1
100
AcDbLine
 10
113.9254298008692
 20
-5.438925071276109
 30
0.0
 11
101.2254298008692
 21
-5.438925071276109
 31
0.0
  0
SOLID
  5
119
330
1F
100
AcDbEntity
  8
참조1
100
AcDbTrace
 10
101.2254298008692
 20
-5.438925071276109
 30
0.0
 11
107.5754298008692
 21
-6.454925071276109
 31
0.0
 12
107.5754298008692
 22
-4.422925071276109
 32
0.0
 13
107.5754298008692
 23
-4.422925071276109
 33
0.0
  0
MTEXT
  5
11A
330
1F
100
AcDbEntity
  8
참조1
100
AcDbMText
 10
110.6229198933395
 20
10.98929157337383
 30
0.0
 40
3.5
 41
0.0
 71
     1
 72
     1
  1
A
  7
SLDTEXTSTYLE0
 73
     1
 44
1.0
  0
MTEXT
  5
11B
330
1F
100
AcDbEntity
  8
참조1
100
AcDbMText
 10
110.6229198933395
 20
0.1092915733738259
 30
0.0
 40
3.5
 41
0.0
 71
     1
 72
     1
  1
A
  7
SLDTEXTSTYLE0
 73
     1
 44
1.0
  0
INSERT
  5
209
330
1F
100
AcDbEntity
  8
0
  6
Continuous
 62
     7
100
AcDbBlockReference
 66
     1
  2
블럭10
 10
-13.73938082967049
 20
-52.04609937292004
 30
0.0
  0
ATTRIB
  5
20A
330
209
100
AcDbEntity
  8
FORMAT
 62
     2
100
AcDbText
 10
-22.92067611841179
 20
-49.97073246008785
 30
0.0
 40
4.233333333333333
  1
E1032060 [ 6 FLUTE ]
 41
0.75
  7
SLDTEXTSTYLE0
 11
-22.92067611841179
 21
-52.08739912675452
 31
0.0
100
AcDbAttribute
  2
AUTOATTR0
 70
     0
 74
     1
  0
SEQEND
  5
20B
330
209
100
AcDbEntity
  8
0
  6
Continuous
 62
     7
  0
HATCH
  5
20C
330
1F
100
AcDbEntity
  8
중심선
100
AcDbHatch
 10
0.0
 20
0.0
 30
0.0
210
0.0
220
0.0
230
1.0
  2
SOLID
 70
     1
 71
     0
 91
        1
 92
        0
 93
        4
 72
     1
 10
-8.02447152528967
 20
-35.7989250712761
 11
-11.47074676912695
 21
-35.7989250712761
 72
     1
 10
-11.47074676912695
 20
-35.7989250712761
 11
-13.59897662833097
 21
-38.3352506518487
 72
     1
 10
-13.59897662833097
 20
-38.3352506518487
 11
-10.15266829938054
 21
-38.33521122254621
 72
     1
 10
-10.15266829938054
 20
-38.33521122254621
 11
-8.024471525289663
 21
-35.7989250712761
 97
        0
 75
     0
 76
     1
 98
        1
 10
-18.21105388306887
 20
0.0
  0
HATCH
  5
20D
330
1F
100
AcDbEntity
  8
중심선
100
AcDbHatch
 10
0.0
 20
0.0
 30
0.0
210
0.0
220
0.0
230
1.0
  2
SOLID
 70
     1
 71
     0
 91
        1
 92
        0
 93
        4
 72
     1
 10
-3.011707534253674
 20
-35.7989250712761
 11
-6.457982778090951
 21
-35.7989250712761
 72
     1
 10
-6.45798277809098
 20
-35.7989250712761
 11
-10.9891207864484
 21
-41.19892507127612
 72
     1
 10
-10.98912078644838
 20
-41.19892507127612
 11
-7.542845542611104
 21
-41.19892507127612
 72
     1
 10
-7.542845542611104
 20
-41.19892507127612
 11
-3.011707534253688
 21
-35.7989250712761
 97
        0
 75
     0
 76
     1
 98
        1
 10
-18.21105388306887
 20
0.0
  0
HATCH
  5
20E
330
1F
100
AcDbEntity
  8
중심선
100
AcDbHatch
 10
0.0
 20
0.0
 30
0.0
210
0.0
220
0.0
230
1.0
  2
SOLID
 70
     1
 71
     0
 91
        1
 92
        0
 93
        4
 72
     1
 10
2.00105645678218
 20
-35.7989250712761
 11
-1.445218787054927
 21
-35.7989250712761
 72
     1
 10
-1.445218787054927
 20
-35.7989250712761
 11
-8.493655688944173
 21
-44.19892507127612
 72
     1
 10
-8.493655688944187
 20
-44.19892507127612
 11
-5.047380445106903
 21
-44.19892507127612
 72
     1
 10
-5.04738044510691
 20
-44.19892507127612
 11
2.001056456782166
 21
-35.7989250712761
 97
        0
 75
     0
 76
     1
 98
        1
 10
-18.21105388306887
 20
0.0
  0
HATCH
  5
20F
330
1F
100
AcDbEntity
  8
중심선
100
AcDbHatch
 10
0.0
 20
0.0
 30
0.0
210
0.0
220
0.0
230
1.0
  2
SOLID
 70
     1
 71
     0
 91
        1
 92
        0
 93
        6
 72
     3
 10
6.800946887794396
 20
-39.99892507132738
 11
3.960054785062255
 21
1.540882976769353E-10
 40
0.3939339440162656
 50
17.09539180608447
 51
320.0019657685074
 73
     0
 72
     1
 10
8.483946543494994
 20
-38.58681907591438
 11
10.78924841719603
 21
-36.65249236586649
 72
     3
 10
6.800946887741532
 20
-39.99892507127625
 11
6.600054785286829
 21
-1.278976924368180E-13
 40
0.636358354079598
 50
39.99873849337402
 51
368.4976242363724
 73
     1
 72
     1
 10
13.22627937964216
 20
-39.03892507120613
 11
5.481014194577469
 21
-39.0389250712061
 72
     1
 10
5.481014194577455
 20
-39.0389250712061
 11
5.480989150131521
 21
-40.95892507120602
 72
     1
 10
5.480989150131506
 20
-40.95892507120602
 11
9.922368919603542
 21
-40.95892507120599
 97
        0
 75
     0
 76
     1
 98
        1
 10
-18.21105388306887
 20
0.0
  0
LINE
  5
210
330
1F
100
AcDbEntity
  8
0
  6
Continuous
 62
     1
370
    15
100
AcDbLine
 10
48.18450066533711
 20
-11.90517507286373
 30
0.0
 11
49.62500000000006
 21
-11.90517507286373
 31
0.0
  0
LINE
  5
211
330
1F
100
AcDbEntity
  8
0
  6
Continuous
 62
     1
370
    15
100
AcDbLine
 10
13.66080704260344
 20
11.9073249303113
 30
0.0
 11
10.78047991945607
 21
11.9073249303113
 31
0.0
  0
LINE
  5
212
330
1F
100
AcDbEntity
  8
0
  6
Continuous
 62
     1
370
    15
100
AcDbLine
 10
35.71631845829671
 20
-11.90517507286373
 30
0.0
 11
38.59675785500792
 21
-11.90517507286373
 31
0.0
  0
LINE
  5
213
330
1F
100
AcDbEntity
  8
0
  6
Continuous
 62
     1
370
    15
100
AcDbLine
 10
10.78047991945607
 20
-11.90517507286373
 30
0.0
 11
13.66080704260338
 21
-11.90517507286373
 31
0.0
  0
LINE
  5
214
330
1F
100
AcDbEntity
  8
0
  6
Continuous
 62
     1
370
    15
100
AcDbLine
 10
26.12849958649986
 20
11.9073249303113
 30
0.0
 11
23.24904559045206
 21
11.9073249303113
 31
0.0
  0
LINE
  5
215
330
1F
100
AcDbEntity
  8
0
  6
Continuous
 62
     1
370
    15
100
AcDbLine
 10
23.24904559045194
 20
-11.90517507286373
 30
0.0
 11
26.12849958649974
 21
-11.90517507286373
 31
0.0
  0
LINE
  5
217
330
1F
100
AcDbEntity
  8
0
  6
Continuous
 62
     1
370
    15
100
AcDbLine
 10
38.59675785500798
 20
11.9073249303113
 30
0.0
 11
35.71631845829683
 21
11.9073249303113
 31
0.0
  0
LINE
  5
218
330
1F
100
AcDbEntity
  8
외형선
  6
Continuous
370
    15
100
AcDbLine
 10
-50.38749999999993
 20
-7.936425071276105
 30
0.0
 11
2.000000000000057
 21
-7.936425071276105
 31
0.0
  0
LINE
  5
219
330
1F
100
AcDbEntity
  8
외형선
  6
Continuous
370
    15
100
AcDbLine
 10
-50.38749999999993
 20
7.938574928723895
 30
0.0
 11
-51.97499999999997
 21
6.351074928723904
 31
0.0
  0
LINE
  5
21A
330
1F
100
AcDbEntity
  8
외형선
  6
Continuous
370
    15
100
AcDbLine
 10
-51.97499999999997
 20
-6.348925071276113
 30
0.0
 11
-50.38749999999993
 21
-7.936425071276105
 31
0.0
  0
LINE
  5
21B
330
1F
100
AcDbEntity
  8
0
  6
Continuous
 62
     1
370
    15
100
AcDbLine
 10
49.62500000000006
 20
-4.66520303190023
 30
0.0
 11
49.62500000000006
 21
4.667352889348026
 31
0.0
  0
SPLINE
  5
21C
330
1F
100
AcDbEntity
  8
0
  6
Continuous
 62
     1
370
    15
100
AcDbSpline
210
0.0
220
0.0
230
1.0
 70
     8
 71
     3
 72
    19
 73
    15
 74
     0
 42
0.000000001
 43
0.00000001
 40
0.0
 40
0.0
 40
0.0
 40
0.0
 40
0.0722759199688564
 40
0.1565884402225332
 40
0.2410283950149806
 40
0.325304771405619
 40
0.409587969365355
 40
0.4940311247146566
 40
0.5783339325550356
 40
0.6625975649590727
 40
0.7470223404917795
 40
0.8313613156584226
 40
0.9156151600725297
 40
0.9999999999999999
 40
0.9999999999999999
 40
0.9999999999999999
 40
0.9999999999999999
 10
26.12849958649986
 20
11.88725388904427
 30
0.0
 10
26.69432413118267
 20
11.87200722369778
 30
0.0
 10
27.92020382845504
 20
11.83897476217768
 30
0.0
 10
29.80728072038187
 20
11.38963344389916
 30
0.0
 10
31.79144142842563
 20
10.63711701313726
 30
0.0
 10
33.77166983136453
 20
9.580507547569145
 30
0.0
 10
35.75207651631587
 20
8.261104839748814
 30
0.0
 10
37.73626202979636
 20
6.715388499403915
 30
0.0
 10
39.71712519121172
 20
4.981934624519841
 30
0.0
 10
41.69706261784154
 20
3.110160467026814
 30
0.0
 10
43.68081130009801
 20
1.15493940374993
 30
0.0
 10
45.66251451665568
 20
-0.8315258003508239
 30
0.0
 10
47.64221039966458
 20
-2.805563574857569
 30
0.0
 10
48.96372795615548
 20
-4.045002288278898
 30
0.0
 10
49.62500000000006
 20
-4.66520303190023
 30
0.0
  0
SPLINE
  5
21D
330
1F
100
AcDbEntity
  8
외형선
  6
Continuous
370
    15
100
AcDbSpline
210
0.0
220
0.0
230
1.0
 70
    24
 71
     3
 72
    13
 73
     9
 74
     0
 42
0.000000001
 43
0.00000001
 40
0.0
 40
0.0
 40
0.0
 40
0.0
 40
0.0406593074072016
 40
0.2156839830437705
 40
0.3957843861308172
 40
0.5708090617673585
 40
0.7509094648543753
 40
1.0
 40
1.0
 40
1.0
 40
1.0
 10
2.000000000000057
 20
-5.059841835583313
 30
0.0
 10
2.000000000000057
 20
-5.090427144486263
 30
0.0
 10
2.000000000000057
 20
-5.252671945676461
 30
0.0
 10
2.000000000000057
 20
-5.605232027052544
 30
0.0
 10
2.000000000000057
 20
-6.099581793152602
 30
0.0
 10
2.0
 20
-6.628846164698651
 30
0.0
 10
2.000000000000057
 20
-7.239643391209661
 30
0.0
 10
2.000000000000057
 20
-7.662456624429858
 30
0.0
 10
2.000000000000057
 20
-7.907845716201365
 30
0.0
  0
SPLINE
  5
21E
330
1F
100
AcDbEntity
  8
0
  6
Continuous
 62
     1
370
    15
100
AcDbSpline
210
0.0
220
0.0
230
1.0
 70
     8
 71
     3
 72
    17
 73
    13
 74
     0
 42
0.000000001
 43
0.00000001
 40
0.0
 40
0.0
 40
0.0
 40
0.0
 40
0.1060178467885482
 40
0.2118711158842586
 40
0.3178313399624892
 40
0.4238993602997569
 40
0.5297649266471752
 40
0.6356797114965324
 40
0.7417708235239838
 40
0.8476609712783006
 40
0.9535425486772299
 40
1.0
 40
1.0
 40
1.0
 40
1.0
 10
49.62500000000006
 20
4.667352889348026
 30
0.0
 10
48.96372795669964
 20
5.262639352325469
 30
0.0
 10
47.64221040129615
 20
6.452288180351374
 30
0.0
 10
45.66251451013807
 20
8.026335572604687
 30
0.0
 10
43.68081132457826
 20
9.386590061939199
 30
0.0
 10
41.69706252642175
 20
10.48402079340966
 30
0.0
 10
39.71712553173325
 20
11.29436804042548
 30
0.0
 10
37.73626075731977
 20
11.79045186920067
 30
0.0
 10
35.75208127020318
 20
11.96528992136441
 30
0.0
 10
33.77165212862445
 20
11.79212413635156
 30
0.0
 10
32.16297847103772
 20
11.43956516127293
 30
0.0
 10
31.21254983033225
 20
11.03947011462451
 30
0.0
 10
30.92270623160482
 20
10.91745675855864
 30
0.0
  0
LINE
  5
21F
330
1F
100
AcDbEntity
  8
0
  6
Continuous
 62
     1
370
    15
100
AcDbLine
 10
49.62500000000006
 20
-11.8182898195569
 30
0.0
 11
49.62500000000006
 21
-7.152011858932696
 31
0.0
  0
SPLINE
  5
220
330
1F
100
AcDbEntity
  8
0
  6
Continuous
 62
     1
370
    15
100
AcDbSpline
210
0.0
220
0.0
230
1.0
 70
     8
 71
     3
 72
    26
 73
    22
 74
     0
 42
0.000000001
 43
0.00000001
 40
0.0
 40
0.0
 40
0.0
 40
0.0
 40
0.0082142928388025
 40
0.063261770216118
 40
0.1184028077050951
 40
0.1735250936092871
 40
0.2285706741042536
 40
0.2836807683828431
 40
0.3388324215297031
 40
0.3938825007198482
 40
0.4489670835544882
 40
0.5041349242301438
 40
0.5591958929015313
 40
0.6142613183639968
 40
0.6694312500854261
 40
0.7245094874302952
 40
0.7795621299695321
 40
0.834720053456281
 40
0.8898219202938223
 40
0.9448681679661942
 40
1.0
 40
1.0
 40
1.0
 40
1.0
 10
13.66080704260344
 20
11.88643538954115
 30
0.0
 10
13.7592807948983
 20
11.89312379875483
 30
0.0
 10
14.51766913242705
 20
11.94463408881764
 30
0.0
 10
15.9355294266295
 20
11.72453936279875
 30
0.0
 10
17.91879329212111
 20
11.21062875794837
 30
0.0
 10
19.90119602975813
 20
10.3557111797381
 30
0.0
 10
21.88087481085449
 20
9.22184208373422
 30
0.0
 10
23.86286903987224
 20
7.831692989835751
 30
0.0
 10
25.84638910635732
 20
6.227039429671535
 30
0.0
 10
27.82623113541052
 20
4.447580790129678
 30
0.0
 10
29.80732055015312
 20
2.545886114635822
 30
0.0
 10
31.79143077235994
 20
0.5765933750182803
 30
0.0
 10
33.77167268439672
 20
-1.411965329501911
 30
0.0
 10
35.75207575016367
 20
-3.361304008783755
 30
0.0
 10
37.73626223487287
 20
-5.214547794990896
 30
0.0
 10
39.71712513633213
 20
-6.926598645887847
 30
0.0
 10
41.69706263257513
 20
-8.446947993521725
 30
0.0
 10
43.6808112961528
 20
-9.733290088296478
 30
0.0
 10
45.66251451770609
 20
-10.74572202620774
 30
0.0
 10
47.64221039940162
 20
-11.48482255323005
 30
0.0
 10
48.96372795606783
 20
-11.7070765164803
 30
0.0
 10
49.62500000000011
 20
-11.8182898195569
 30
0.0
  0
SPLINE
  5
221
330
1F
100
AcDbEntity
  8
0
  6
Continuous
 62
     1
370
    15
100
AcDbSpline
210
0.0
220
0.0
230
1.0
 70
     8
 71
     3
 72
    23
 73
    19
 74
     0
 42
0.000000001
 43
0.00000001
 40
0.0
 40
0.0
 40
0.0
 40
0.0
 40
0.0636133632987272
 40
0.12712797585989
 40
0.1907067640892611
 40
0.2543502327738206
 40
0.3178722239939938
 40
0.3814237475480116
 40
0.4450810718250146
 40
0.5086178125049703
 40
0.5721494107570481
 40
0.6358043222998898
 40
0.6993631675396084
 40
0.762882201062729
 40
0.8265184347725998
 40
0.8901067161600438
 40
0.9536205589046222
 40
0.9999999999999999
 40
0.9999999999999999
 40
0.9999999999999999
 40
0.9999999999999999
 10
49.62500000000006
 20
-7.152011858932696
 30
0.0
 10
48.96372795606806
 20
-6.604832033367504
 30
0.0
 10
47.64221039940259
 20
-5.511321801424412
 30
0.0
 10
45.66251451770194
 20
-3.663233793017877
 30
0.0
 10
43.68081129616792
 20
-1.729234340924862
 30
0.0
 10
41.69706263251862
 20
0.2544751348414813
 30
0.0
 10
39.71712513654234
 20
2.233381832953404
 30
0.0
 10
37.73626223408684
 20
4.150145252632551
 30
0.0
 10
35.75207575310037
 20
5.949474986713966
 30
0.0
 10
33.77167267346096
 20
7.587444864595281
 30
0.0
 10
31.79143081320507
 20
9.015480681765444
 30
0.0
 10
29.80732039748364
 20
10.19226709996238
 30
0.0
 10
27.82623170403679
 20
11.08932442058983
 30
0.0
 10
25.84638698394434
 20
11.67904401082863
 30
0.0
 10
23.8628769747607
 20
11.94821506138467
 30
0.0
 10
21.88084523869088
 20
11.87714564342142
 30
0.0
 10
20.08008249041154
 20
11.54913525594819
 30
0.0
 10
18.93787282033094
 20
11.11015139383185
 30
0.0
 10
18.45581382399382
 20
10.92488232675676
 30
0.0
  0
SPLINE
  5
222
330
1F
100
AcDbEntity
  8
외형선
  6
Continuous
370
    15
100
AcDbSpline
210
0.0
220
0.0
230
1.0
 70
    24
 71
     3
 72
    14
 73
    10
 74
     0
 42
0.000000001
 43
0.00000001
 40
0.0
 40
0.0
 40
0.0
 40
0.0
 40
0.1284320658232353
 40
0.2804935587489062
 40
0.4369648452708011
 40
0.5890263381964407
 40
0.7454976247183007
 40
0.8975591176439368
 40
1.0
 40
1.0
 40
1.0
 40
1.0
 10
2.0
 20
7.841097487898359
 30
0.0
 10
2.0
 20
7.699829002690684
 30
0.0
 10
2.000000000000057
 20
7.391300911197526
 30
0.0
 10
2.000000000000057
 20
6.88688026628121
 30
0.0
 10
2.000000000000114
 20
6.352761064506794
 30
0.0
 10
2.000000000000057
 20
5.823246418826152
 30
0.0
 10
2.000000000000057
 20
5.326626694182558
 30
0.0
 10
2.000000000000057
 20
4.911099290399747
 30
0.0
 10
2.000000000000057
 20
4.693027190097858
 30
0.0
 10
2.000000000000057
 20
4.605250019659131
 30
0.0
  0
SPLINE
  5
223
330
1F
100
AcDbEntity
  8
0
  6
Continuous
 62
     1
370
    15
100
AcDbSpline
210
0.0
220
0.0
230
1.0
 70
     8
 71
     3
 72
    30
 73
    26
 74
     0
 42
0.000000001
 43
0.00000001
 40
0.0
 40
0.0
 40
0.0
 40
0.0
 40
0.0128608607201971
 40
0.0597755296876999
 40
0.1067376016087648
 40
0.153747449341119
 40
0.2006675685086771
 40
0.2476095015488274
 40
0.2946295836273679
 40
0.3415605973905984
 40
0.3884878127318303
 40
0.4355061126594622
 40
0.4824534538166912
 40
0.5293713882999297
 40
0.5763758919637487
 40
0.6233449759462982
 40
0.6702590762936241
 40
0.7172385509222856
 40
0.7642340071015519
 40
0.8111497241187003
 40
0.8581052589719046
 40
0.9051193949182837
 40
0.9520421776890023
 40
0.998979179488776
 40
1.0
 40
1.0
 40
1.0
 40
1.0
 10
48.18450066533711
 20
-11.87240372448085
 30
0.0
 10
48.00352852862545
 20
-11.88205695753779
 30
0.0
 10
47.16239467561121
 20
-11.92692387054863
 30
0.0
 10
45.66259237703048
 20
-11.67658870962949
 30
0.0
 10
43.68079039996803
 20
-11.1179306771454
 30
0.0
 10
41.69706822208531
 20
-10.22767244395069
 30
0.0
 10
39.71712363915185
 20
-9.05992904296236
 30
0.0
 10
37.73626263683872
 20
-7.639959618179084
 30
0.0
 10
35.75207564279651
 20
-6.011807219630999
 30
0.0
 10
33.77167271244002
 20
-4.214582453818796
 30
0.0
 10
31.79143076743696
 20
-2.300579032211822
 30
0.0
 10
29.80732054172148
 20
-0.3263117384709124
 30
0.0
 10
27.82623117397134
 20
1.659725543732745
 30
0.0
 10
25.84638896050893
 20
3.600700330633422
 30
0.0
 10
23.86286958565915
 20
5.439303264008709
 30
0.0
 10
21.88087277664869
 20
7.129033480387904
 30
0.0
 10
19.90120361628374
 20
8.62287698725503
 30
0.0
 10
17.91876492965798
 20
9.87695127270056
 30
0.0
 10
15.93563523632986
 20
10.85786276836146
 30
0.0
 10
13.9558932834978
 20
11.54048502718254
 30
0.0
 10
11.97445473935323
 20
11.9009508652898
 30
0.0
 10
9.990549818537716
 20
11.94211223249056
 30
0.0
 10
8.010396043783999
 20
11.61799728951301
 30
0.0
 10
6.676713910659771
 20
11.2716292668125
 30
0.0
 10
6.001698844575913
 20
10.95827546489552
 30
0.0
 10
5.987330610331014
 20
10.95160547921117
 30
0.0
  0
LINE
  5
224
330
1F
100
AcDbEntity
  8
0
  6
Continuous
 62
     1
370
    15
100
AcDbLine
 10
49.62500000000006
 20
7.131306952873218
 30
0.0
 11
49.62500000000006
 21
11.82043967700447
 31
0.0
  0
SPLINE
  5
225
330
1F
100
AcDbEntity
  8
0
  6
Continuous
 62
     1
370
    15
100
AcDbSpline
210
0.0
220
0.0
230
1.0
 70
     8
 71
     3
 72
    13
 73
     9
 74
     0
 42
0.000000001
 43
0.00000001
 40
0.0
 40
0.0
 40
0.0
 40
0.0
 40
0.1016231952886435
 40
0.2811503108832405
 40
0.4610207485049394
 40
0.6407083849371229
 40
0.8202146468188015
 40
1.0
 40
1.0
 40
1.0
 40
1.0
 10
38.59675785500798
 20
11.8668516823884
 30
0.0
 10
38.9703102210467
 20
11.87245938240862
 30
0.0
 10
40.00377864864976
 20
11.88797362204202
 30
0.0
 10
41.69700258811463
 20
11.54857795815311
 30
0.0
 10
43.68082737474401
 20
10.89187654481763
 30
0.0
 10
45.66251023697509
 20
9.914586357578974
 30
0.0
 10
47.64221147107463
 20
8.680505344754845
 30
0.0
 10
48.96372831347708
 20
7.663206332396913
 30
0.0
 10
49.62500000000006
 20
7.154161716380329
 30
0.0
  0
SPLINE
  5
226
330
1F
100
AcDbEntity
  8
외형선
  6
Continuous
370
    15
100
AcDbSpline
210
0.0
220
0.0
230
1.0
 70
    24
 71
     3
 72
    24
 73
    20
 74
     0
 42
0.000000001
 43
0.00000001
 40
0.0
 40
0.0
 40
0.0
 40
0.0
 40
0.1249999999999997
 40
0.1249999999999997
 40
0.1874999999999996
 40
0.1874999999999996
 40
0.2499999999999996
 40
0.2499999999999996
 40
0.3749999999999996
 40
0.3749999999999996
 40
0.4999999999999997
 40
0.4999999999999997
 40
0.6249999999999998
 40
0.6249999999999998
 40
0.7499999999999998
 40
0.7499999999999998
 40
0.8749999999999999
 40
0.8749999999999999
 40
1.0
 40
1.0
 40
1.0
 40
1.0
 10
2.000000000000057
 20
2.847091612781576
 30
0.0
 10
2.000000000000057
 20
2.797496983950303
 30
0.0
 10
2.000000000000057
 20
2.71155853570658
 30
0.0
 10
2.000000000000057
 20
2.561729839369796
 30
0.0
 10
2.000000000000057
 20
2.510296261636945
 30
0.0
 10
2.000000000000057
 20
2.388646878512581
 30
0.0
 10
2.000000000000057
 20
2.318718607478665
 30
0.0
 10
2.000000000000057
 20
2.076012280285546
 30
0.0
 10
2.000000000000057
 20
1.869746232782099
 30
0.0
 10
2.000000000000057
 20
1.343936820258229
 30
0.0
 10
2.000000000000057
 20
1.023040561280723
 30
0.0
 10
2.000000000000057
 20
0.2766828891524185
 30
0.0
 10
2.000000000000057
 20
-0.1493498818897265
 30
0.0
 10
2.000000000000057
 20
-1.02590936349133
 30
0.0
 10
2.000000000000057
 20
-1.473833578255544
 30
0.0
 10
2.000000000000057
 20
-2.266571088698214
 30
0.0
 10
2.0
 20
-2.608353890238611
 30
0.0
 10
2.000000000000057
 20
-3.11521675675381
 30
0.0
 10
2.000000000000057
 20
-3.281099581389846
 30
0.0
 10
2.000000000000057
 20
-3.37058151445661
 30
0.0
  0
SPLINE
  5
227
330
1F
100
AcDbEntity
  8
0
  6
Continuous
 62
     1
370
    15
100
AcDbSpline
210
0.0
220
0.0
230
1.0
 70
     8
 71
     3
 72
    11
 73
     7
 74
     0
 42
0.000000001
 43
0.00000001
 40
0.0
 40
0.0
 40
0.0
 40
0.0
 40
0.3180259920122876
 40
0.6355582937109789
 40
0.9534114325653661
 40
1.0
 40
1.0
 40
1.0
 40
1.0
 10
49.62500000000006
 20
11.82043967700447
 30
0.0
 10
48.96372764738203
 20
11.8700396933559
 30
0.0
 10
47.64220947382341
 20
11.96916272905772
 30
0.0
 10
45.66251821486986
 20
11.67275792827002
 30
0.0
 10
44.24521953353872
 20
11.32326325704196
 30
0.0
 10
43.48741304850665
 20
10.97977951126827
 30
0.0
 10
43.39053851982055
 20
10.93587011402716
 30
0.0
  0
LINE
  5
228
330
1F
100
AcDbEntity
  8
0
  6
Continuous
 62
     1
370
    15
100
AcDbLine
 10
49.62500000000006
 20
-11.90517507286371
 30
0.0
 11
49.62500000000006
 21
-11.8182898195569
 31
0.0
  0
LINE
  5
229
330
1F
100
AcDbEntity
  8
외형선
  6
Continuous
370
    15
100
AcDbLine
 10
2.0
 20
2.847091612781576
 30
0.0
 11
2.000000000000057
 21
4.538339130468621
 31
0.0
  0
LINE
  5
22A
330
1F
100
AcDbEntity
  8
0
  6
Continuous
 62
     1
370
    15
100
AcDbLine
 10
49.62500000000006
 20
-7.152011858932696
 30
0.0
 11
49.62500000000006
 21
-4.66520303190023
 31
0.0
  0
LINE
  5
22B
330
1F
100
AcDbEntity
  8
외형선
  6
Continuous
370
    15
100
AcDbLine
 10
2.0
 20
7.841097487898359
 30
0.0
 11
2.000000000000057
 21
7.938574928723902
 31
0.0
  0
LINE
  5
22C
330
1F
100
AcDbEntity
  8
0
  6
Continuous
 62
     1
370
    15
100
AcDbLine
 10
49.62500000000006
 20
4.667352889348026
 30
0.0
 11
49.62500000000006
 21
7.154161716380337
 31
0.0
  0
LINE
  5
22D
330
1F
100
AcDbEntity
  8
외형선
  6
Continuous
370
    15
100
AcDbLine
 10
2.0
 20
-4.992930946392811
 30
0.0
 11
2.000000000000057
 21
-3.370581514456639
 31
0.0
  0
LINE
  5
22E
330
1F
100
AcDbEntity
  8
외형선
  6
Continuous
370
    15
100
AcDbLine
 10
-50.38749999999993
 20
0.0010749287238951
 30
0.0
 11
-50.38749999999993
 21
7.938574928723888
 31
0.0
  0
LINE
  5
22F
330
1F
100
AcDbEntity
  8
외형선
  6
Continuous
370
    15
100
AcDbLine
 10
-50.38749999999993
 20
-7.936425071276091
 30
0.0
 11
-50.38749999999993
 21
0.0010749287238951
 31
0.0
  0
LINE
  5
230
330
1F
100
AcDbEntity
  8
외형선
  6
Continuous
370
    15
100
AcDbLine
 10
-51.97499999999997
 20
0.0010749287238951
 30
0.0
 11
-51.97499999999997
 21
6.351074928723904
 31
0.0
  0
LINE
  5
231
330
1F
100
AcDbEntity
  8
외형선
  6
Continuous
370
    15
100
AcDbLine
 10
-51.97499999999997
 20
-6.348925071276113
 30
0.0
 11
-51.97499999999997
 21
0.0010749287238951
 31
0.0
  0
SPLINE
  5
232
330
1F
100
AcDbEntity
  8
외형선
  6
Continuous
370
    15
100
AcDbSpline
210
0.0
220
0.0
230
1.0
 70
    24
 71
     3
 72
    24
 73
    20
 74
     0
 42
0.000000001
 43
0.00000001
 40
0.0
 40
0.0
 40
0.0
 40
0.0
 40
0.125
 40
0.125
 40
0.25
 40
0.25
 40
0.375
 40
0.375
 40
0.5
 40
0.5
 40
0.625
 40
0.625
 40
0.75
 40
0.75
 40
0.8124999999999999
 40
0.8124999999999999
 40
0.8749999999999998
 40
0.8749999999999998
 40
1.0
 40
1.0
 40
1.0
 40
1.0
 10
2.000000000000057
 20
-3.37058151445661
 30
0.0
 10
2.000000000000057
 20
-3.281099581389846
 30
0.0
 10
2.000000000000057
 20
-3.115216756753803
 30
0.0
 10
2.000000000000057
 20
-2.608353890238575
 30
0.0
 10
2.000000000000057
 20
-2.266571088698164
 30
0.0
 10
2.000000000000057
 20
-1.473833578255459
 30
0.0
 10
2.000000000000057
 20
-1.02590936349123
 30
0.0
 10
2.000000000000057
 20
-0.1493498818895986
 30
0.0
 10
2.000000000000057
 20
0.2766828891525464
 30
0.0
 10
2.000000000000057
 20
1.023040561280858
 30
0.0
 10
2.000000000000057
 20
1.343936820258357
 30
0.0
 10
2.000000000000057
 20
1.869746232782212
 30
0.0
 10
2.000000000000057
 20
2.076012280285646
 30
0.0
 10
2.000000000000057
 20
2.31871860747875
 30
0.0
 10
2.000000000000057
 20
2.388646878512652
 30
0.0
 10
2.000000000000057
 20
2.510296261637016
 30
0.0
 10
2.000000000000057
 20
2.56172983936986
 30
0.0
 10
2.000000000000057
 20
2.711558535706637
 30
0.0
 10
2.000000000000057
 20
2.79749698395036
 30
0.0
 10
2.000000000000057
 20
2.847091612781611
 30
0.0
  0
SPLINE
  5
233
330
1F
100
AcDbEntity
  8
외형선
  6
Continuous
370
    15
100
AcDbSpline
210
0.0
220
0.0
230
1.0
 70
    24
 71
     3
 72
    14
 73
    10
 74
     0
 42
0.000000001
 43
0.00000001
 40
0.0
 40
0.0
 40
0.0
 40
0.0
 40
0.0720351725324215
 40
0.2495307948082902
 40
0.4270264170841593
 40
0.6045220393600328
 40
0.7820176616359064
 40
0.9595132839117794
 40
1.0
 40
1.0
 40
1.0
 40
1.0
 10
2.000000000000057
 20
-7.907845716201358
 30
0.0
 10
2.000000000000057
 20
-7.837998094849091
 30
0.0
 10
2.000000000000057
 20
-7.59604500639562
 30
0.0
 10
2.000000000000057
 20
-7.167868604305106
 30
0.0
 10
2.000000000000057
 20
-6.631266542153078
 30
0.0
 10
2.000000000000057
 20
-6.104043441402681
 30
0.0
 10
2.000000000000057
 20
-5.606913233910596
 30
0.0
 10
2.0
 20
-5.254673147185265
 30
0.0
 10
2.000000000000057
 20
-5.090360305249398
 30
0.0
 10
2.000000000000057
 20
-5.059841835583313
 30
0.0
  0
SPLINE
  5
234
330
1F
100
AcDbEntity
  8
외형선
  6
Continuous
370
    15
100
AcDbSpline
210
0.0
220
0.0
230
1.0
 70
    24
 71
     3
 72
    14
 73
    10
 74
     0
 42
0.000000001
 43
0.00000001
 40
0.0
 40
0.0
 40
0.0
 40
0.0
 40
0.1003808512295946
 40
0.2546451887688308
 40
0.4089095263080672
 40
0.5609765170970028
 40
0.7152408546362526
 40
0.8695051921755027
 40
1.0
 40
1.0
 40
1.0
 40
1.0
 10
2.000000000000057
 20
4.605250019659131
 30
0.0
 10
2.000000000000057
 20
4.691155500368701
 30
0.0
 10
2.000000000000057
 20
4.909079706864333
 30
0.0
 10
2.000000000000057
 20
5.322775810690182
 30
0.0
 10
2.000000000000057
 20
5.818800463724024
 30
0.0
 10
2.0
 20
6.343133435207285
 30
0.0
 10
2.0
 20
6.877054408133652
 30
0.0
 10
2.000000000000057
 20
7.384250160397947
 30
0.0
 10
2.000000000000057
 20
7.697531836687766
 30
0.0
 10
2.0
 20
7.841097487898558
 30
0.0
  0
CIRCLE
  5
235
330
1F
100
AcDbEntity
  8
해칭선
100
AcDbCircle
 10
0.0
 20
0.0
 30
0.0
 40
3.000000000000002
  0
DIMENSION
  5
236
330
1F
100
AcDbEntity
  8
치수문자_일반주서
100
AcDbDimension
  2
*D11
 10
-64.97499999999994
 20
-7.936425071276175
 30
0.0
 11
-64.97499999999997
 21
0.0010749287239094
 31
0.0
 70
   160
  1
%%c<>
 71
     2
 42
15.87500000000003
 52
-270.0
  3
SLDDIMSTYLE0
100
AcDbAlignedDimension
 13
-50.38749999999999
 23
7.938574928723909
 33
0.0
 14
-50.38749999999999
 24
-7.936425071276119
 34
0.0
 50
90.0000000000002
100
AcDbRotatedDimension
1001
ACAD
1000
DSTYLE
1002
{
1070
   171
1070
     6
1070
   273
1070
     7
1002
}
  0
DIMENSION
  5
237
330
1F
100
AcDbEntity
  8
치수문자_일반주서
100
AcDbDimension
  2
*D12
 10
2.000000000000057
 20
39.54650687863592
 30
0.0
 11
22.79625000000004
 21
39.54650687863592
 31
0.0
 70
   160
  1
<>
 71
     2
 42
47.625
  3
SLDDIMSTYLE0
100
AcDbAlignedDimension
 13
49.62500000000006
 23
11.9073249303113
 33
0.0
 14
2.000000000000057
 24
11.87708135676584
 34
0.0
100
AcDbRotatedDimension
1001
ACAD
1000
DSTYLE
1002
{
1070
   171
1070
     6
1070
   273
1070
     7
1002
}
  0
DIMENSION
  5
238
330
1F
100
AcDbEntity
  8
치수문자_일반주서
100
AcDbDimension
  2
*D13
 10
-51.97499999999997
 20
55.14650687863593
 30
0.0
 11
1.171018052010766
 21
55.14650687863593
 31
0.0
 70
   160
  1
<>
 71
     2
 42
101.6
  3
SLDDIMSTYLE0
100
AcDbAlignedDimension
 13
49.62500000000006
 23
11.9073249303113
 33
0.0
 14
-51.97499999999997
 24
6.351074928723904
 34
0.0
100
AcDbRotatedDimension
1001
ACAD
1000
DSTYLE
1002
{
1070
   171
1070
     6
1070
   273
1070
     7
1002
}
  0
DIMENSION
  5
239
330
1F
100
AcDbEntity
  8
치수문자_일반주서
100
AcDbDimension
  2
*D14
 10
80.58838988344561
 20
-11.90517507286361
 30
0.0
 11
80.58838988344542
 21
42.81332493443222
 31
0.0
 70
   160
  1
%%c<>
 71
     2
 42
23.81250000317503
 52
-270.0
  3
SLDDIMSTYLE0
100
AcDbAlignedDimension
 13
49.62500000000006
 23
11.9073249303113
 33
0.0
 14
49.62500000000006
 24
-11.90517507286373
 34
0.0
 50
90.0000000000002
100
AcDbRotatedDimension
1001
ACAD
1000
DSTYLE
1002
{
1070
   171
1070
     6
1070
   273
1070
     7
1002
}
  0
INSERT
  5
23A
330
1F
100
AcDbEntity
  8
해칭선
100
AcDbBlockReference
  2
SW_DOWELSYMBOL_0
 10
0.0
 20
0.0
 30
0.0
  0
LINE
  5
23B
330
1F
100
AcDbEntity
  8
외형선
  6
Continuous
370
    15
100
AcDbLine
 10
-32.85832499999998
 20
6.287574928723856
 30
0.0
 11
-22.67292499999996
 21
6.287574928723856
 31
0.0
  0
LINE
  5
23C
330
1F
100
AcDbEntity
  8
외형선
  6
Continuous
370
    15
100
AcDbLine
 10
-32.85832499999998
 20
6.287574928723956
 30
0.0
 11
-34.50932499999993
 21
7.938574928723867
 31
0.0
  0
LINE
  5
23D
330
1F
100
AcDbEntity
  8
외형선
  6
Continuous
370
    15
100
AcDbLine
 10
-22.67292500000008
 20
6.287574928723956
 30
0.0
 11
-21.02192500000007
 21
7.938574928723867
 31
0.0
  0
LINE
  5
23E
330
1F
100
AcDbEntity
  8
외형선
  6
Continuous
370
    15
100
AcDbLine
 10
-34.50932499999993
 20
7.938574928723895
 30
0.0
 11
-50.38749999999993
 21
7.938574928723895
 31
0.0
  0
LINE
  5
23F
330
1F
100
AcDbEntity
  8
외형선
  6
Continuous
370
    15
100
AcDbLine
 10
2.000000000000057
 20
7.938574928723895
 30
0.0
 11
-21.02192500000001
 21
7.938574928723895
 31
0.0
  0
SPLINE
  5
241
330
1F
100
AcDbEntity
  8
0
  6
Continuous
 62
     1
370
    15
100
AcDbSpline
210
0.0
220
0.0
230
1.0
 70
     8
 71
     3
 72
    29
 73
    25
 74
     0
 42
0.000000001
 43
0.00000001
 40
0.0191513359941211
 40
0.0191513359941211
 40
0.0191513359941211
 40
0.0191513359941211
 40
0.0206905679378268
 40
0.0676256237015889
 40
0.1146461961251652
 40
0.1615829635963193
 40
0.2085055121094044
 40
0.2555194133420787
 40
0.3024747137741379
 40
0.3493901965689282
 40
0.3963854181277467
 40
0.4433646582157463
 40
0.4902785243487849
 40
0.5372473738425476
 40
0.584251642840749
 40
0.6311693430905593
 40
0.6781164498675489
 40
0.7251345150606878
 40
0.7720614961221576
 40
0.8189922755866622
 40
0.8660121229218118
 40
0.9129538216087245
 40
0.9598737065319466
 40
1.0
 40
1.0
 40
1.0
 40
1.0
 10
2.000000000000085
 20
11.87708135676584
 30
0.0
 10
2.021642461446476
 20
11.87658678608488
 30
0.0
 10
2.703212428199635
 20
11.857824725119
 30
0.0
 10
4.045536326136414
 20
11.60726284640374
 30
0.0
 10
6.029837919347017
 20
10.99257957526168
 30
0.0
 10
8.010471148283045
 20
10.05310721058477
 30
0.0
 10
9.990529652436976
 20
8.840496404213276
 30
0.0
 10
11.97446013991305
 20
7.384504382432223
 30
0.0
 10
13.95589183863109
 20
5.723272255911943
 30
0.0
 10
15.93563562407854
 20
3.902574922660187
 30
0.0
 10
17.91876482572633
 20
1.97660611403982
 30
0.0
 10
19.90120364406511
 20
-0.0045333018988343
 30
0.0
 10
21.88087276926984
 20
-1.987530423939528
 30
0.0
 10
23.86286958737645
 20
-3.913928264742879
 30
0.0
 10
25.84638896103019
 20
-5.73092921831255
 30
0.0
 10
27.82623117018034
 20
-7.392197533688577
 30
0.0
 10
29.8073205563868
 20
-8.848172971091092
 30
0.0
 10
31.79143071252543
 20
-10.05795231746675
 30
0.0
 10
33.77167291696304
 20
-10.99189079714302
 30
0.0
 10
35.75207487876941
 20
-11.62085711357193
 30
0.0
 10
37.73626549225162
 20
-11.93027670446291
 30
0.0
 10
39.71711300507928
 20
-11.90228513324934
 30
0.0
 10
41.60036041067951
 20
-11.59129688110104
 30
0.0
 10
42.82568976664908
 20
-11.14120315148207
 30
0.0
 10
43.39053851982055
 20
-10.93372025657958
 30
0.0
  0
LINE
  5
242
330
1F
100
AcDbEntity
  8
외형선
  6
Continuous
370
    15
100
AcDbLine
 10
2.000000000000057
 20
7.938574928723902
 30
0.0
 11
2.000000000000057
 21
11.87708135676584
 31
0.0
  0
SPLINE
  5
243
330
1F
100
AcDbEntity
  8
0
  6
Continuous
 62
     1
370
    15
100
AcDbSpline
210
0.0
220
0.0
230
1.0
 70
     8
 71
     3
 72
    25
 73
    21
 74
     0
 42
0.000000001
 43
0.00000001
 40
0.0
 40
0.0
 40
0.0
 40
0.0
 40
0.0460980243383029
 40
0.0930242935698783
 40
0.1400416455514777
 40
0.1869880401932891
 40
0.2339050287539844
 40
0.2809085847499204
 40
0.3278767217786905
 40
0.374789876280774
 40
0.4217684037461683
 40
0.4687629124399597
 40
0.5156776835792718
 40
0.5626322717518637
 40
0.6096454598361613
 40
0.6565672965865893
 40
0.7035033520793994
 40
0.7505232112534054
 40
0.7974575550647895
 40
0.798997014486139
 40
0.798997014486139
 40
0.798997014486139
 40
0.798997014486139
 10
35.71631845829677
 20
-11.90231120126165
 30
0.0
 10
35.06803382205959
 20
-11.87283825342795
 30
0.0
 10
33.75981679575955
 20
-11.81336281622637
 30
0.0
 10
31.79147405705612
 20
-11.31084200803821
 30
0.0
 10
29.80730895206892
 20
-10.5186444973343
 30
0.0
 10
27.82623427521736
 20
-9.428101562735627
 30
0.0
 10
25.84638812750399
 20
-8.077819521271802
 30
0.0
 10
23.86286981079752
 20
-6.506053635043138
 30
0.0
 10
21.88087270919118
 20
-4.75360940413362
 30
0.0
 10
19.90120366134738
 20
-2.868128191460585
 30
0.0
 10
17.91876481672529
 20
-0.905269015136283
 30
0.0
 10
15.93563564277281
 20
1.081975938871646
 30
0.0
 10
13.95589177294664
 20
3.042022347976361
 30
0.0
 10
11.97446038435652
 20
4.916800485879532
 30
0.0
 10
9.99052873995305
 20
6.653795919194105
 30
0.0
 10
8.010474546565774
 20
8.209767390091532
 30
0.0
 10
6.029825222167631
 20
9.53823174017073
 30
0.0
 10
4.045583770076348
 20
10.60128594204738
 30
0.0
 10
2.703104426479598
 20
11.12484607325612
 30
0.0
 10
2.021642291001342
 20
11.33432683535515
 30
0.0
 10
2.000000000000114
 20
11.34092286005893
 30
0.0
  0
SPLINE
  5
245
330
1F
100
AcDbEntity
  8
0
  6
Continuous
 62
     1
370
    15
100
AcDbSpline
210
0.0
220
0.0
230
1.0
 70
     8
 71
     3
 72
    19
 73
    15
 74
     0
 42
0.000000001
 43
0.00000001
 40
0.0
 40
0.0
 40
0.0
 40
0.0
 40
0.0385098311322717
 40
0.0942188775664565
 40
0.150005553942334
 40
0.205811207916378
 40
0.2615221740960881
 40
0.3172804227273707
 40
0.3731082583484197
 40
0.4288276148924514
 40
0.484563856094699
 40
0.5403996135886274
 40
0.596133822181023
 40
0.5979619223712419
 40
0.5979619223712419
 40
0.5979619223712419
 40
0.5979619223712419
 10
23.24904559045194
 20
-11.86995204493433
 30
0.0
 10
22.79276471072893
 20
-11.86878447278301
 30
0.0
 10
21.67641932362835
 20
-11.865927868785
 30
0.0
 10
19.90124226204802
 20
-11.48228954111829
 30
0.0
 10
17.91875446308944
 20
-10.78316655671122
 30
0.0
 10
15.93563841224562
 20
-9.774376553828713
 30
0.0
 10
13.95589103016243
 20
-8.497112254693974
 30
0.0
 10
11.97446058586007
 20
-6.98461539908957
 30
0.0
 10
9.990528678152543
 20
-5.281354250082053
 30
0.0
 10
8.010474592517937
 20
-3.429116895495724
 30
0.0
 10
6.029825099967752
 20
-1.4823291411195
 30
0.0
 10
4.045584213389816
 20
0.5022553187664593
 30
0.0
 10
2.70310341978859
 20
1.84034561404484
 30
0.0
 10
2.021642289404099
 20
2.507442933567329
 30
0.0
 10
2.000000000000057
 20
2.52861646964442
 30
0.0
  0
SPLINE
  5
247
330
1F
100
AcDbEntity
  8
0
  6
Continuous
 62
     1
370
    15
100
AcDbSpline
210
0.0
220
0.0
230
1.0
 70
     8
 71
     3
 72
    13
 73
     9
 74
     0
 42
0.000000001
 43
0.00000001
 40
0.0
 40
0.0
 40
0.0
 40
0.0
 40
0.0342552324767767
 40
0.1200925046194792
 40
0.2059557880640384
 40
0.2919723792196239
 40
0.377832531370215
 40
0.3806487707471691
 40
0.3806487707471691
 40
0.3806487707471691
 40
0.3806487707471691
 10
10.78047991945607
 20
-11.86563361576431
 30
0.0
 10
10.5168966529987
 20
-11.87553401700756
 30
0.0
 10
9.592822508527092
 20
-11.91024299125976
 30
0.0
 10
8.01050905514137
 20
-11.6250041489433
 30
0.0
 10
6.029815846384622
 20
-11.02290222797249
 30
0.0
 10
4.045586686920444
 20
-10.0971249642599
 30
0.0
 10
2.703103787044654
 20
-9.283097942103439
 30
0.0
 10
2.021642288721523
 20
-8.82583112804554
 30
0.0
 10
2.000000000000085
 20
-8.811264794433896
 30
0.0
  0
SPLINE
  5
249
330
1F
100
AcDbEntity
  8
0
  6
Continuous
 62
     1
370
    15
100
AcDbSpline
210
0.0
220
0.0
230
1.0
 70
     8
 71
     3
 72
    10
 73
     6
 74
     0
 42
0.000000001
 43
0.00000001
 40
0.7818347191223952
 40
0.7818347191223952
 40
0.7818347191223952
 40
0.7818347191223952
 40
0.7853896672732436
 40
0.8937747560630717
 40
1.0
 40
1.0
 40
1.0
 40
1.0
 10
2.000000000000057
 20
-11.87751307387738
 30
0.0
 10
2.021642248795274
 20
-11.87610928420294
 30
0.0
 10
2.703125273136436
 20
-11.83016598211228
 30
0.0
 10
4.031379316315849
 20
-11.63413545596284
 30
0.0
 10
5.339735959213783
 20
-11.17614582601968
 30
0.0
 10
5.987330610331014
 20
-10.94945562176358
 30
0.0
  0
LINE
  5
24A
330
1F
100
AcDbEntity
  8
외형선
  6
Continuous
370
    15
100
AcDbLine
 10
2.000000000000057
 20
-7.907845716201358
 30
0.0
 11
2.000000000000057
 21
-11.87751307387738
 31
0.0
  0
LINE
  5
24B
330
1F
100
AcDbEntity
  8
중심선
100
AcDbLine
 10
-58.97499999999997
 20
0.0010749287237957
 30
0.0
 11
56.62500000000006
 21
0.0010749287238099
 31
0.0
  0
SPLINE
  5
280
330
1F
100
AcDbEntity
  8
0
  6
Continuous
 62
     1
370
    15
100
AcDbSpline
210
0.0
220
0.0
230
1.0
 70
     8
 71
     3
 72
    17
 73
    13
 74
     0
 42
0.000000001
 43
0.00000001
 40
0.4647296714596043
 40
0.4647296714596043
 40
0.4647296714596043
 40
0.4647296714596043
 40
0.4668428354930207
 40
0.5312679282644572
 40
0.5958104049113866
 40
0.6602378472466135
 40
0.7246457720234226
 40
0.7891790915044392
 40
0.8536319729854435
 40
0.9180301990509326
 40
0.9825378780016141
 40
1.0
 40
1.0
 40
1.0
 40
1.0
 10
2.000000000000057
 20
-6.638098951738366
 30
0.0
 10
2.021642289411147
 20
-6.65608522862669
 30
0.0
 10
2.703103416000317
 20
-7.221385844770516
 30
0.0
 10
4.045584187875136
 20
-8.269790955407753
 30
0.0
 10
6.029825195419107
 20
-9.585718980334612
 30
0.0
 10
8.010474237033918
 20
-10.63872453474542
 30
0.0
 10
9.990530005561993
 20
-11.39781538377181
 30
0.0
 10
11.97445562370655
 20
-11.83933606492769
 30
0.0
 10
13.95590951567107
 20
-11.96052917384402
 30
0.0
 10
15.93556943645609
 20
-11.7274735130519
 30
0.0
 10
17.4367336757723
 20
-11.37173674158636
 30
0.0
 10
18.27684411942727
 20
-11.00158609245036
 30
0.0
 10
18.45581382399376
 20
-10.92273246930919
 30
0.0
  0
SPLINE
  5
282
330
1F
100
AcDbEntity
  8
0
  6
Continuous
 62
     1
370
    15
100
AcDbSpline
210
0.0
220
0.0
230
1.0
 70
     8
 71
     3
 72
    23
 73
    19
 74
     0
 42
0.000000001
 43
0.00000001
 40
0.3146184089204932
 40
0.3146184089204932
 40
0.3146184089204932
 40
0.3146184089204932
 40
0.3161578676653061
 40
0.3630921166003882
 40
0.4101118807252255
 40
0.4570478413382749
 40
0.5039695832376836
 40
0.5509826762862989
 40
0.5979371695416659
 40
0.6448518458442417
 40
0.691846259540111
 40
0.7388246920398878
 40
0.785737751708503
 40
0.8327057937926605
 40
0.8797092547723843
 40
0.9266261484918614
 40
0.9735724482330103
 40
1.0
 40
1.0
 40
1.0
 40
1.0
 10
2.000000000000057
 20
5.240699396143916
 30
0.0
 10
2.02164228933853
 20
5.221243197007916
 30
0.0
 10
2.703103378107926
 20
4.607794777618207
 30
0.0
 10
4.045584230605243
 20
3.348911087645214
 30
0.0
 10
6.029825098928313
 20
1.402455204356263
 30
0.0
 10
8.01047457951347
 20
-0.5858702424869024
 30
0.0
 10
9.990528731241284
 20
-2.558355656330523
 30
0.0
 10
11.97446038618494
 20
-4.456885213635083
 30
0.0
 10
13.95589177433732
 20
-6.234463296773463
 30
0.0
 10
15.93563563538635
 20
-7.840468150573493
 30
0.0
 10
17.91876484493241
 20
-9.22771107212709
 30
0.0
 10
19.90120355602664
 20
-10.36052761424856
 30
0.0
 10
21.88087310188416
 20
-11.20809245146314
 30
0.0
 10
23.86286834278678
 20
-11.74400682313753
 30
0.0
 10
25.84639360633366
 20
-11.95925720303821
 30
0.0
 10
27.82621386502399
 20
-11.82980533279102
 30
0.0
 10
29.5178366507468
 20
-11.48524135930298
 30
0.0
 10
30.5506947933323
 20
-11.06622634616271
 30
0.0
 10
30.92270623160476
 20
-10.91530690111106
 30
0.0
  0
ENDSEC
  0
SECTION
  2
OBJECTS
  0
DICTIONARY
  5
C
330
0
100
AcDbDictionary
281
     1
  3
ACAD_GROUP
350
D
  3
ACAD_IMAGE_VARS
350
146
  3
ACAD_LAYOUT
350
1A
  3
ACAD_MLINESTYLE
350
17
  3
ACAD_PLOTSETTINGS
350
19
  3
ACAD_PLOTSTYLENAME
350
E
  3
ACAD_SCALELIST
350
47
  3
APPDATA
350
144
  3
DWGPROPS
350
2A7
  0
DICTIONARY
  5
204
330
2
100
AcDbDictionary
280
     1
281
     1
  3
ACAD_LAYERSTATES
360
205
  0
DICTIONARY
  5
D
102
{ACAD_REACTORS
330
C
102
}
330
C
100
AcDbDictionary
281
     1
  0
RASTERVARIABLES
  5
146
102
{ACAD_REACTORS
330
C
102
}
330
C
100
AcDbRasterVariables
 90
        0
 70
     1
 71
     1
 72
     1
  0
DICTIONARY
  5
1A
102
{ACAD_REACTORS
330
C
102
}
330
C
100
AcDbDictionary
281
     1
  3
Layout1
350
1E
  3
Layout2
350
26
  3
Model
350
22
  0
DICTIONARY
  5
17
102
{ACAD_REACTORS
330
C
102
}
330
C
100
AcDbDictionary
281
     1
  3
Standard
350
18
  0
DICTIONARY
  5
19
102
{ACAD_REACTORS
330
C
102
}
330
C
100
AcDbDictionary
281
     1
  0
ACDBDICTIONARYWDFLT
  5
E
102
{ACAD_REACTORS
330
C
102
}
330
C
100
AcDbDictionary
281
     1
  3
Normal
350
F
100
AcDbDictionaryWithDefault
340
F
  0
DICTIONARY
  5
47
102
{ACAD_REACTORS
330
C
102
}
330
C
100
AcDbDictionary
281
     1
  3
A0
350
48
  3
A1
350
49
  3
A2
350
4A
  3
A3
350
4B
  3
A4
350
4C
  3
A5
350
4D
  3
A6
350
4E
  3
A7
350
4F
  3
A8
350
50
  3
A9
350
51
  3
B0
350
52
  3
B1
350
53
  3
B2
350
54
  3
B3
350
55
  3
B4
350
56
  3
B5
350
57
  3
B6
350
58
  3
B7
350
59
  3
B8
350
5A
  3
B9
350
5B
  3
C0
350
5C
  3
C1
350
5D
  3
C2
350
5E
  3
C3
350
5F
  3
C4
350
60
  3
C5
350
61
  3
C6
350
62
  3
C7
350
63
  3
C8
350
64
  3
C9
350
65
  3
D0
350
66
  3
D1
350
67
  3
D2
350
68
  0
DICTIONARY
  5
144
102
{ACAD_REACTORS
330
C
102
}
330
C
100
AcDbDictionary
281
     1
  0
XRECORD
  5
2A7
102
{ACAD_REACTORS
330
C
102
}
330
C
100
AcDbXrecord
280
     1
  1
DWGPROPS COOKIE
  2

  3

  4

  6

  7

  8
12016016
  9

300
=
301
=
302
=
303
=
304
=
305
=
306
=
307
=
308
=
309
=
 40
0.0
 41
2458323.106808565
 42
2458330.139592049
  1

 90
        0
  0
DICTIONARY
  5
205
102
{ACAD_REACTORS
330
204
102
}
330
204
100
AcDbDictionary
281
     1
  0
LAYOUT
  5
1E
102
{ACAD_REACTORS
330
1A
102
}
330
1A
100
AcDbPlotSettings
  1

  2
none_device
  4

  6

 40
0.0
 41
0.0
 42
0.0
 43
0.0
 44
0.0
 45
0.0
 46
0.0
 47
0.0
 48
0.0
 49
0.0
140
0.0
141
0.0
142
1.0
143
1.0
 70
   688
 72
     1
 73
     0
 74
     5
  7

 75
    16
147
1.0
148
0.0
149
0.0
100
AcDbLayout
  1
Layout1
 70
     1
 71
     1
 10
0.0
 20
0.0
 11
420.0
 21
297.0
 12
0.0
 22
0.0
 32
0.0
 14
1.000000000000000E+20
 24
1.000000000000000E+20
 34
1.000000000000000E+20
 15
-1.000000000000000E+20
 25
-1.000000000000000E+20
 35
-1.000000000000000E+20
146
0.0
 13
0.0
 23
0.0
 33
0.0
 16
1.0
 26
0.0
 36
0.0
 17
0.0
 27
1.0
 37
0.0
 76
     0
330
1B
  0
LAYOUT
  5
26
102
{ACAD_REACTORS
330
1A
102
}
330
1A
100
AcDbPlotSettings
  1

  2
none_device
  4

  6

 40
0.0
 41
0.0
 42
0.0
 43
0.0
 44
0.0
 45
0.0
 46
0.0
 47
0.0
 48
0.0
 49
0.0
140
0.0
141
0.0
142
1.0
143
1.0
 70
   688
 72
     1
 73
     0
 74
     5
  7

 75
    16
147
1.0
148
0.0
149
0.0
100
AcDbLayout
  1
Layout2
 70
     1
 71
     2
 10
0.0
 20
0.0
 11
0.0
 21
0.0
 12
0.0
 22
0.0
 32
0.0
 14
0.0
 24
0.0
 34
0.0
 15
0.0
 25
0.0
 35
0.0
146
0.0
 13
0.0
 23
0.0
 33
0.0
 16
1.0
 26
0.0
 36
0.0
 17
0.0
 27
1.0
 37
0.0
 76
     0
330
23
  0
LAYOUT
  5
22
102
{ACAD_REACTORS
330
1A
102
}
330
1A
100
AcDbPlotSettings
  1

  2
none_device
  4
ANSI_A_(11.00_x_8.50_Inches)
  6

 40
6.35
 41
19.05
 42
6.35000508
 43
19.05000254
 44
279.4
 45
215.9
 46
96.39525648754174
 47
90.09827952143297
 48
0.0
 49
0.0
140
0.0
141
0.0
142
0.0605651527843098
143
1.0
 70
  1696
 72
     0
 73
     0
 74
     0
  7

 75
     0
147
0.0235690232323232
148
0.0
149
0.0
100
AcDbLayout
  1
Model
 70
     1
 71
     0
 10
0.0
 20
0.0
 11
420.0
 21
297.0
 12
0.0
 22
0.0
 32
0.0
 14
-69.35000000000002
 24
-49.97073246008785
 34
0.0
 15
113.9254298008692
 25
59.52150687863593
 35
0.0
146
0.0
 13
0.0
 23
0.0
 33
0.0
 16
1.0
 26
0.0
 36
0.0
 17
0.0
 27
1.0
 37
0.0
 76
     0
330
1F
331
29
  0
MLINESTYLE
  5
18
102
{ACAD_REACTORS
330
17
102
}
330
17
100
AcDbMlineStyle
  2
Standard
 70
     0
  3

 62
   256
 51
90.0
 52
90.0
 71
     2
 49
0.5
 62
   256
  6
BYLAYER
 49
-0.5
 62
   256
  6
BYLAYER
  0
ACDBPLACEHOLDER
  5
F
102
{ACAD_REACTORS
330
E
102
}
330
E
  0
SCALE
  5
48
102
{ACAD_REACTORS
330
47
102
}
330
47
100
AcDbScale
 70
     0
300
1:1
140
1.0
141
1.0
290
     1
  0
SCALE
  5
49
102
{ACAD_REACTORS
330
47
102
}
330
47
100
AcDbScale
 70
     0
300
1:2
140
1.0
141
2.0
290
     0
  0
SCALE
  5
4A
102
{ACAD_REACTORS
330
47
102
}
330
47
100
AcDbScale
 70
     0
300
1:4
140
1.0
141
4.0
290
     0
  0
SCALE
  5
4B
102
{ACAD_REACTORS
330
47
102
}
330
47
100
AcDbScale
 70
     0
300
1:5
140
1.0
141
5.0
290
     0
  0
SCALE
  5
4C
102
{ACAD_REACTORS
330
47
102
}
330
47
100
AcDbScale
 70
     0
300
1:8
140
1.0
141
8.0
290
     0
  0
SCALE
  5
4D
102
{ACAD_REACTORS
330
47
102
}
330
47
100
AcDbScale
 70
     0
300
1:10
140
1.0
141
10.0
290
     0
  0
SCALE
  5
4E
102
{ACAD_REACTORS
330
47
102
}
330
47
100
AcDbScale
 70
     0
300
1:16
140
1.0
141
16.0
290
     0
  0
SCALE
  5
4F
102
{ACAD_REACTORS
330
47
102
}
330
47
100
AcDbScale
 70
     0
300
1:20
140
1.0
141
20.0
290
     0
  0
SCALE
  5
50
102
{ACAD_REACTORS
330
47
102
}
330
47
100
AcDbScale
 70
     0
300
1:30
140
1.0
141
30.0
290
     0
  0
SCALE
  5
51
102
{ACAD_REACTORS
330
47
102
}
330
47
100
AcDbScale
 70
     0
300
1:40
140
1.0
141
40.0
290
     0
  0
SCALE
  5
52
102
{ACAD_REACTORS
330
47
102
}
330
47
100
AcDbScale
 70
     0
300
1:50
140
1.0
141
50.0
290
     0
  0
SCALE
  5
53
102
{ACAD_REACTORS
330
47
102
}
330
47
100
AcDbScale
 70
     0
300
1:100
140
1.0
141
100.0
290
     0
  0
SCALE
  5
54
102
{ACAD_REACTORS
330
47
102
}
330
47
100
AcDbScale
 70
     0
300
2:1
140
2.0
141
1.0
290
     0
  0
SCALE
  5
55
102
{ACAD_REACTORS
330
47
102
}
330
47
100
AcDbScale
 70
     0
300
4:1
140
4.0
141
1.0
290
     0
  0
SCALE
  5
56
102
{ACAD_REACTORS
330
47
102
}
330
47
100
AcDbScale
 70
     0
300
8:1
140
8.0
141
1.0
290
     0
  0
SCALE
  5
57
102
{ACAD_REACTORS
330
47
102
}
330
47
100
AcDbScale
 70
     0
300
10:1
140
10.0
141
1.0
290
     0
  0
SCALE
  5
58
102
{ACAD_REACTORS
330
47
102
}
330
47
100
AcDbScale
 70
     0
300
100:1
140
100.0
141
1.0
290
     0
  0
SCALE
  5
59
102
{ACAD_REACTORS
330
47
102
}
330
47
100
AcDbScale
 70
     0
300
1/128" = 1'-0"
140
0.0078125
141
12.0
290
     0
  0
SCALE
  5
5A
102
{ACAD_REACTORS
330
47
102
}
330
47
100
AcDbScale
 70
     0
300
1/64" = 1'-0"
140
0.015625
141
12.0
290
     0
  0
SCALE
  5
5B
102
{ACAD_REACTORS
330
47
102
}
330
47
100
AcDbScale
 70
     0
300
1/32" = 1'-0"
140
0.03125
141
12.0
290
     0
  0
SCALE
  5
5C
102
{ACAD_REACTORS
330
47
102
}
330
47
100
AcDbScale
 70
     0
300
1/16" = 1'-0"
140
0.0625
141
12.0
290
     0
  0
SCALE
  5
5D
102
{ACAD_REACTORS
330
47
102
}
330
47
100
AcDbScale
 70
     0
300
3/32" = 1'-0"
140
0.09375
141
12.0
290
     0
  0
SCALE
  5
5E
102
{ACAD_REACTORS
330
47
102
}
330
47
100
AcDbScale
 70
     0
300
1/8" = 1'-0"
140
0.125
141
12.0
290
     0
  0
SCALE
  5
5F
102
{ACAD_REACTORS
330
47
102
}
330
47
100
AcDbScale
 70
     0
300
3/16" = 1'-0"
140
0.1875
141
12.0
290
     0
  0
SCALE
  5
60
102
{ACAD_REACTORS
330
47
102
}
330
47
100
AcDbScale
 70
     0
300
1/4" = 1'-0"
140
0.25
141
12.0
290
     0
  0
SCALE
  5
61
102
{ACAD_REACTORS
330
47
102
}
330
47
100
AcDbScale
 70
     0
300
3/8" = 1'-0"
140
0.375
141
12.0
290
     0
  0
SCALE
  5
62
102
{ACAD_REACTORS
330
47
102
}
330
47
100
AcDbScale
 70
     0
300
1/2" = 1'-0"
140
0.5
141
12.0
290
     0
  0
SCALE
  5
63
102
{ACAD_REACTORS
330
47
102
}
330
47
100
AcDbScale
 70
     0
300
3/4" = 1'-0"
140
0.75
141
12.0
290
     0
  0
SCALE
  5
64
102
{ACAD_REACTORS
330
47
102
}
330
47
100
AcDbScale
 70
     0
300
1" = 1'-0"
140
1.0
141
12.0
290
     0
  0
SCALE
  5
65
102
{ACAD_REACTORS
330
47
102
}
330
47
100
AcDbScale
 70
     0
300
1-1/2" = 1'-0"
140
1.5
141
12.0
290
     0
  0
SCALE
  5
66
102
{ACAD_REACTORS
330
47
102
}
330
47
100
AcDbScale
 70
     0
300
3" = 1'-0"
140
3.0
141
12.0
290
     0
  0
SCALE
  5
67
102
{ACAD_REACTORS
330
47
102
}
330
47
100
AcDbScale
 70
     0
300
6" = 1'-0"
140
6.0
141
12.0
290
     0
  0
SCALE
  5
68
102
{ACAD_REACTORS
330
47
102
}
330
47
100
AcDbScale
 70
     0
300
1'-0" = 1'-0"
140
12.0
141
12.0
290
     0
  0
ENDSEC
  0
EOF
